  0
SECTION
  2
HEADER
  9
$ACADVER
  1
AC1015
  9
$ACADMAINTVER
 70
     6
  9
$DWGCODEPAGE
  3
ANSI_1252
  9
$INSBASE
 10
0.0
 20
0.0
 30
0.0
  9
$EXTMIN
 10
0.0
 20
0.0950457774992355
 30
0.0
  9
$EXTMAX
 10
32.80000199999999
 20
20.59504577749923
 30
0.0
  9
$LIMMIN
 10
0.0
 20
0.0
  9
$LIMMAX
 10
16.40000099999999
 20
10.25
  9
$ORTHOMODE
 70
     0
  9
$REGENMODE
 70
     1
  9
$FILLMODE
 70
     1
  9
$QTEXTMODE
 70
     0
  9
$MIRRTEXT
 70
     1
  9
$LTSCALE
 40
1.0
  9
$ATTMODE
 70
     1
  9
$TEXTSIZE
 40
0.2
  9
$TRACEWID
 40
0.05
  9
$TEXTSTYLE
  7
ROMANS
  9
$CLAYER
  8
0
  9
$CELTYPE
  6
BYLAYER
  9
$CECOLOR
 62
   256
  9
$CELTSCALE
 40
1.0
  9
$DISPSILH
 70
     0
  9
$DIMSCALE
 40
0.0
  9
$DIMASZ
 40
0.07
  9
$DIMEXO
 40
0.0625
  9
$DIMDLI
 40
0.38
  9
$DIMRND
 40
0.01
  9
$DIMDLE
 40
0.0
  9
$DIMEXE
 40
0.0625
  9
$DIMTP
 40
0.0
  9
$DIMTM
 40
0.0
  9
$DIMTXT
 40
0.08
  9
$DIMCEN
 40
0.09
  9
$DIMTSZ
 40
0.0
  9
$DIMTOL
 70
     0
  9
$DIMLIM
 70
     0
  9
$DIMTIH
 70
     1
  9
$DIMTOH
 70
     1
  9
$DIMSE1
 70
     0
  9
$DIMSE2
 70
     0
  9
$DIMTAD
 70
     0
  9
$DIMZIN
 70
     4
  9
$DIMBLK
  1

  9
$DIMASO
 70
     1
  9
$DIMSHO
 70
     1
  9
$DIMPOST
  1

  9
$DIMAPOST
  1

  9
$DIMALT
 70
     0
  9
$DIMALTD
 70
     1
  9
$DIMALTF
 40
25.4
  9
$DIMLFAC
 40
1.0
  9
$DIMTOFL
 70
     0
  9
$DIMTVP
 40
0.0
  9
$DIMTIX
 70
     0
  9
$DIMSOXD
 70
     0
  9
$DIMSAH
 70
     0
  9
$DIMBLK1
  1

  9
$DIMBLK2
  1

  9
$DIMSTYLE
  2
SCHNEIDERELECTRIC
  9
$DIMCLRD
 70
   256
  9
$DIMCLRE
 70
   256
  9
$DIMCLRT
 70
   256
  9
$DIMTFAC
 40
1.0
  9
$DIMGAP
 40
0.04
  9
$DIMJUST
 70
     0
  9
$DIMSD1
 70
     0
  9
$DIMSD2
 70
     0
  9
$DIMTOLJ
 70
     1
  9
$DIMTZIN
 70
     4
  9
$DIMALTZ
 70
     4
  9
$DIMALTTZ
 70
     4
  9
$DIMUPT
 70
     0
  9
$DIMDEC
 70
     4
  9
$DIMTDEC
 70
     4
  9
$DIMALTU
 70
     2
  9
$DIMALTTD
 70
     1
  9
$DIMTXSTY
  7
ROMANS
  9
$DIMAUNIT
 70
     0
  9
$DIMADEC
 70
     0
  9
$DIMALTRND
 40
0.0
  9
$DIMAZIN
 70
     0
  9
$DIMDSEP
 70
    46
  9
$DIMATFIT
 70
     3
  9
$DIMFRAC
 70
     0
  9
$DIMLDRBLK
  1

  9
$DIMLUNIT
 70
     2
  9
$DIMLWD
 70
    -2
  9
$DIMLWE
 70
    -2
  9
$DIMTMOVE
 70
     2
  9
$LUNITS
 70
     2
  9
$LUPREC
 70
     4
  9
$SKETCHINC
 40
0.1
  9
$FILLETRAD
 40
0.5
  9
$AUNITS
 70
     0
  9
$AUPREC
 70
     0
  9
$MENU
  1
.
  9
$ELEVATION
 40
0.0
  9
$PELEVATION
 40
0.0
  9
$THICKNESS
 40
0.0
  9
$LIMCHECK
 70
     0
  9
$CHAMFERA
 40
0.5
  9
$CHAMFERB
 40
0.5
  9
$CHAMFERC
 40
0.0
  9
$CHAMFERD
 40
0.0
  9
$SKPOLY
 70
     0
  9
$TDCREATE
 40
2451764.535041909
  9
$TDUCREATE
 40
2451764.785041909
  9
$TDUPDATE
 40
2452172.208273310
  9
$TDUUPDATE
 40
2452172.458273310
  9
$TDINDWG
 40
0.4456787384
  9
$TDUSRTIMER
 40
0.4456785069
  9
$USRTIMER
 70
     1
  9
$ANGBASE
 50
0.0
  9
$ANGDIR
 70
     0
  9
$PDMODE
 70
     0
  9
$PDSIZE
 40
0.0
  9
$PLINEWID
 40
0.0
  9
$SPLFRAME
 70
     0
  9
$SPLINETYPE
 70
     6
  9
$SPLINESEGS
 70
     8
  9
$HANDSEED
  5
94FF
  9
$SURFTAB1
 70
     6
  9
$SURFTAB2
 70
     6
  9
$SURFTYPE
 70
     6
  9
$SURFU
 70
     6
  9
$SURFV
 70
     6
  9
$UCSBASE
  2

  9
$UCSNAME
  2

  9
$UCSORG
 10
0.0
 20
0.0
 30
0.0
  9
$UCSXDIR
 10
1.0
 20
0.0
 30
0.0
  9
$UCSYDIR
 10
0.0
 20
1.0
 30
0.0
  9
$UCSORTHOREF
  2

  9
$UCSORTHOVIEW
 70
     0
  9
$UCSORGTOP
 10
0.0
 20
0.0
 30
0.0
  9
$UCSORGBOTTOM
 10
0.0
 20
0.0
 30
0.0
  9
$UCSORGLEFT
 10
0.0
 20
0.0
 30
0.0
  9
$UCSORGRIGHT
 10
0.0
 20
0.0
 30
0.0
  9
$UCSORGFRONT
 10
0.0
 20
0.0
 30
0.0
  9
$UCSORGBACK
 10
0.0
 20
0.0
 30
0.0
  9
$PUCSBASE
  2

  9
$PUCSNAME
  2

  9
$PUCSORG
 10
0.0
 20
0.0
 30
0.0
  9
$PUCSXDIR
 10
1.0
 20
0.0
 30
0.0
  9
$PUCSYDIR
 10
0.0
 20
1.0
 30
0.0
  9
$PUCSORTHOREF
  2

  9
$PUCSORTHOVIEW
 70
     0
  9
$PUCSORGTOP
 10
0.0
 20
0.0
 30
0.0
  9
$PUCSORGBOTTOM
 10
0.0
 20
0.0
 30
0.0
  9
$PUCSORGLEFT
 10
0.0
 20
0.0
 30
0.0
  9
$PUCSORGRIGHT
 10
0.0
 20
0.0
 30
0.0
  9
$PUCSORGFRONT
 10
0.0
 20
0.0
 30
0.0
  9
$PUCSORGBACK
 10
0.0
 20
0.0
 30
0.0
  9
$USERI1
 70
     0
  9
$USERI2
 70
     0
  9
$USERI3
 70
     0
  9
$USERI4
 70
     0
  9
$USERI5
 70
     0
  9
$USERR1
 40
0.0
  9
$USERR2
 40
0.0
  9
$USERR3
 40
0.0
  9
$USERR4
 40
0.0
  9
$USERR5
 40
0.0
  9
$WORLDVIEW
 70
     1
  9
$SHADEDGE
 70
     3
  9
$SHADEDIF
 70
    70
  9
$TILEMODE
 70
     0
  9
$MAXACTVP
 70
    48
  9
$PINSBASE
 10
0.0
 20
0.0
 30
0.0
  9
$PLIMCHECK
 70
     0
  9
$PEXTMIN
 10
-0.0006172815800483
 20
-0.1512717527199463
 30
-0.0015258207003583
  9
$PEXTMAX
 10
16.40120720521414
 20
10.25018675959692
 30
0.0000000349246037
  9
$PLIMMIN
 10
-0.4408945311769357
 20
-0.5915497370181854
  9
$PLIMMAX
 10
16.7788669459601
 20
12.71462950073154
  9
$UNITMODE
 70
     0
  9
$VISRETAIN
 70
     1
  9
$PLINEGEN
 70
     0
  9
$PSLTSCALE
 70
     1
  9
$TREEDEPTH
 70
  3020
  9
$CMLSTYLE
  2
STANDARD
  9
$CMLJUST
 70
     0
  9
$CMLSCALE
 40
1.0
  9
$PROXYGRAPHICS
 70
     1
  9
$MEASUREMENT
 70
     0
  9
$CELWEIGHT
370
    -1
  9
$ENDCAPS
280
     0
  9
$JOINSTYLE
280
     0
  9
$LWDISPLAY
290
     0
  9
$INSUNITS
 70
     0
  9
$HYPERLINKBASE
  1

  9
$STYLESHEET
  1

  9
$XEDIT
290
     1
  9
$CEPSNTYPE
380
     0
  9
$PSTYLEMODE
290
     1
  9
$FINGERPRINTGUID
  2
{6E5B3BF0-ACED-11D5-B163-000629A2B5F4}
  9
$VERSIONGUID
  2
{6E5B3BF2-ACED-11D5-B163-000629A2B5F4}
  9
$EXTNAMES
290
     1
  9
$PSVPSCALE
 40
0.0
  9
$OLESTARTUP
290
     0
  0
ENDSEC
  0
SECTION
  2
CLASSES
  0
CLASS
  1
DICTIONARYVAR
  2
AcDbDictionaryVar
  3
AutoCAD 2000
 90
        0
280
     0
281
     0
  0
CLASS
  1
LWPOLYLINE
  2
AcDbPolyline
  3
AutoCAD 2000
 90
    32768
280
     0
281
     1
  0
CLASS
  1
HATCH
  2
AcDbHatch
  3
AutoCAD 2000
 90
    32768
280
     0
281
     1
  0
CLASS
  1
ACDBDICTIONARYWDFLT
  2
AcDbDictionaryWithDefault
  3
AutoCAD 2000
 90
        0
280
     0
281
     0
  0
CLASS
  1
ACDBPLACEHOLDER
  2
AcDbPlaceHolder
  3
AutoCAD 2000
 90
        0
280
     0
281
     0
  0
CLASS
  1
LAYOUT
  2
AcDbLayout
  3
AutoCAD 2000
 90
        0
280
     0
281
     0
  0
ENDSEC
  0
SECTION
  2
TABLES
  0
TABLE
  2
VPORT
  5
9413
330
0
100
AcDbSymbolTable
 70
     1
  0
VPORT
  5
944D
330
9413
100
AcDbSymbolTableRecord
100
AcDbViewportTableRecord
  2
*ACTIVE
 70
     0
 10
0.0
 20
0.0
 11
1.0
 21
1.0
 12
16.40000107636846
 22
10.34466125564378
 13
0.0
 23
0.0
 14
0.5
 24
0.5
 15
0.5
 25
0.5
 16
0.0
 26
0.0
 36
1.0
 17
0.0
 27
0.0
 37
0.0
 40
20.93968523097282
 41
1.574193548387096
 42
50.0
 43
0.0
 44
0.0
 50
0.0
 51
0.0
 71
     0
 72
   100
 73
     1
 74
     2
 75
     0
 76
     0
 77
     0
 78
     0
281
     0
 65
     1
110
0.0
120
0.0
130
0.0
111
1.0
121
0.0
131
0.0
112
0.0
122
1.0
132
0.0
 79
     0
146
0.0
  0
ENDTAB
  0
TABLE
  2
LTYPE
  5
9410
330
0
100
AcDbSymbolTable
 70
     3
  0
LTYPE
  5
941C
330
9410
100
AcDbSymbolTableRecord
100
AcDbLinetypeTableRecord
  2
BYBLOCK
 70
     0
  3

 72
    65
 73
     0
 40
0.0
  0
LTYPE
  5
941D
330
9410
100
AcDbSymbolTableRecord
100
AcDbLinetypeTableRecord
  2
BYLAYER
 70
     0
  3

 72
    65
 73
     0
 40
0.0
  0
LTYPE
  5
941E
330
9410
100
AcDbSymbolTableRecord
100
AcDbLinetypeTableRecord
  2
CONTINUOUS
 70
     0
  3
Solid line
 72
    65
 73
     0
 40
0.0
  0
LTYPE
  5
9448
330
9410
100
AcDbSymbolTableRecord
100
AcDbLinetypeTableRecord
  2
CENTER2
 70
     0
  3
Center (.5x) ___ _ ___ _ ___ _ ___ _ ___ _ ___
 72
    65
 73
     4
 40
1.125
 49
0.75
 74
     0
 49
-0.125
 74
     0
 49
0.125
 74
     0
 49
-0.125
 74
     0
  0
LTYPE
  5
944B
330
9410
100
AcDbSymbolTableRecord
100
AcDbLinetypeTableRecord
  2
HIDDEN2
 70
     0
  3
Hidden (.5x) _ _ _ _ _ _ _ _ _ _ _ _ _ _ _ _ _
 72
    65
 73
     2
 40
0.1875
 49
0.125
 74
     0
 49
-0.0625
 74
     0
  0
ENDTAB
  0
TABLE
  2
LAYER
  5
940D
330
0
100
AcDbSymbolTable
 70
    15
  0
LAYER
  5
9419
330
940D
100
AcDbSymbolTableRecord
100
AcDbLayerTableRecord
  2
0
 70
     0
 62
     7
  6
CONTINUOUS
370
    -3
390
9475
  0
LAYER
  5
945C
330
940D
100
AcDbSymbolTableRecord
100
AcDbLayerTableRecord
  2
CENTER1
 70
     0
 62
     2
  6
CENTER2
370
    -3
390
9475
  0
LAYER
  5
945D
330
940D
100
AcDbSymbolTableRecord
100
AcDbLayerTableRecord
  2
CENTER2
 70
     0
 62
    50
  6
CENTER2
370
    -3
390
9475
  0
LAYER
  5
945E
330
940D
100
AcDbSymbolTableRecord
100
AcDbLayerTableRecord
  2
CONTINUOUS1
 70
     0
 62
     7
  6
CONTINUOUS
370
    -3
390
9475
  0
LAYER
  5
945F
330
940D
100
AcDbSymbolTableRecord
100
AcDbLayerTableRecord
  2
CONTINUOUS2
 70
     0
 62
   254
  6
CONTINUOUS
370
    -3
390
9475
  0
LAYER
  5
9460
330
940D
100
AcDbSymbolTableRecord
100
AcDbLayerTableRecord
  2
CONTINUOUS3
 70
     0
 62
   253
  6
CONTINUOUS
370
    -3
390
9475
  0
LAYER
  5
9461
330
940D
100
AcDbSymbolTableRecord
100
AcDbLayerTableRecord
  2
DIM
 70
     0
 62
     2
  6
CONTINUOUS
370
    -3
390
9475
  0
LAYER
  5
9462
330
940D
100
AcDbSymbolTableRecord
100
AcDbLayerTableRecord
  2
HIDDEN1
 70
     0
 62
     5
  6
HIDDEN2
370
    -3
390
9475
  0
LAYER
  5
9463
330
940D
100
AcDbSymbolTableRecord
100
AcDbLayerTableRecord
  2
HIDDEN2
 70
     0
 62
   160
  6
HIDDEN2
370
    -3
390
9475
  0
LAYER
  5
9464
330
940D
100
AcDbSymbolTableRecord
100
AcDbLayerTableRecord
  2
TEXT1
 70
     0
 62
     3
  6
CONTINUOUS
370
    -3
390
9475
  0
LAYER
  5
9465
330
940D
100
AcDbSymbolTableRecord
100
AcDbLayerTableRecord
  2
TEXT2
 70
     0
 62
    80
  6
CONTINUOUS
370
    -3
390
9475
  0
LAYER
  5
9466
330
940D
100
AcDbSymbolTableRecord
100
AcDbLayerTableRecord
  2
TITLEBLOCK
 70
     0
 62
     9
  6
CONTINUOUS
370
    -3
390
9475
  0
LAYER
  5
9467
330
940D
100
AcDbSymbolTableRecord
100
AcDbLayerTableRecord
  2
VIEWPORT
 70
     0
 62
     9
  6
CONTINUOUS
370
    -3
390
9475
  0
LAYER
  5
9468
330
940D
100
AcDbSymbolTableRecord
100
AcDbLayerTableRecord
  2
MOUNTING
 70
     0
 62
     7
  6
CENTER2
370
    -3
390
9475
  0
LAYER
  5
9469
330
940D
100
AcDbSymbolTableRecord
100
AcDbLayerTableRecord
  2
DEFPOINTS
 70
     0
 62
     7
  6
CONTINUOUS
290
     0
370
    -3
390
9475
  0
ENDTAB
  0
TABLE
  2
STYLE
  5
940E
330
0
100
AcDbSymbolTable
 70
     4
  0
STYLE
  5
941A
330
940E
100
AcDbSymbolTableRecord
100
AcDbTextStyleTableRecord
  2
STANDARD
 70
     0
 40
0.0
 41
1.0
 50
0.0
 71
     0
 42
0.2
  3
txt
  4

  0
STYLE
  5
9445
330
940E
100
AcDbSymbolTableRecord
100
AcDbTextStyleTableRecord
  2
ROMANS
 70
     0
 40
0.0
 41
1.0
 50
0.0
 71
     0
 42
0.2
  3
romans.shx
  4

  0
STYLE
  5
9446
330
940E
100
AcDbSymbolTableRecord
100
AcDbTextStyleTableRecord
  2
M_STANDARD
 70
     0
 40
0.0
 41
0.8
 50
0.0
 71
     0
 42
0.0
  3
MEDUSA.SHX
  4

  0
STYLE
  5
9447
330
940E
100
AcDbSymbolTableRecord
100
AcDbTextStyleTableRecord
  2
SIMPLEX
 70
     0
 40
0.0
 41
1.0
 50
0.0
 71
     0
 42
0.25
  3
SIMPLEX.shx
  4

  0
ENDTAB
  0
TABLE
  2
VIEW
  5
9411
330
0
100
AcDbSymbolTable
 70
     0
  0
ENDTAB
  0
TABLE
  2
UCS
  5
9412
330
0
100
AcDbSymbolTable
 70
     0
  0
ENDTAB
  0
TABLE
  2
APPID
  5
9414
330
0
100
AcDbSymbolTable
 70
    11
  0
APPID
  5
941B
330
9414
100
AcDbSymbolTableRecord
100
AcDbRegAppTableRecord
  2
ACAD
 70
     0
  0
APPID
  5
944E
330
9414
100
AcDbSymbolTableRecord
100
AcDbRegAppTableRecord
  2
DCO15
 70
     0
  0
APPID
  5
944F
330
9414
100
AcDbSymbolTableRecord
100
AcDbRegAppTableRecord
  2
MCAD_NO_VIS
 70
     0
  0
APPID
  5
9450
330
9414
100
AcDbSymbolTableRecord
100
AcDbRegAppTableRecord
  2
ACAD_TEMP_GRAPHIC
 70
     0
  0
APPID
  5
9451
330
9414
100
AcDbSymbolTableRecord
100
AcDbRegAppTableRecord
  2
GENIUS_GENSCREG_15
 70
     0
  0
APPID
  5
9452
330
9414
100
AcDbSymbolTableRecord
100
AcDbRegAppTableRecord
  2
GENIUS_GENODEF_13
 70
     0
  0
APPID
  5
9453
330
9414
100
AcDbSymbolTableRecord
100
AcDbRegAppTableRecord
  2
GENIUS_GENOBJ-N-SDF_13
 70
     0
  0
APPID
  5
9454
330
9414
100
AcDbSymbolTableRecord
100
AcDbRegAppTableRecord
  2
GENIUS_GENOENT_13
 70
     0
  0
APPID
  5
9455
330
9414
100
AcDbSymbolTableRecord
100
AcDbRegAppTableRecord
  2
GENIUS_GENOREF_13
 70
     0
  0
APPID
  5
9456
330
9414
100
AcDbSymbolTableRecord
100
AcDbRegAppTableRecord
  2
GENIUS_GENOLIS_13
 70
     0
  0
APPID
  5
9457
330
9414
100
AcDbSymbolTableRecord
100
AcDbRegAppTableRecord
  2
MED_PRIMTYPE
 70
     0
  0
ENDTAB
  0
TABLE
  2
DIMSTYLE
  5
9415
330
0
100
AcDbSymbolTable
 70
     1
100
AcDbDimStyleTable
 71
     0
  0
DIMSTYLE
105
9458
102
{ACAD_REACTORS
330
8CE6
330
8CE7
330
8CE8
330
8CE9
330
8CEC
330
8CED
330
8CEF
330
8D6F
330
8D88
330
9054
102
}
330
9415
100
AcDbSymbolTableRecord
100
AcDbDimStyleTableRecord
  2
SCHNEIDERELECTRIC
 70
     0
 40
0.0
 41
0.07
 44
0.0625
 45
0.01
 78
     4
140
0.08
147
0.04
171
     1
176
   256
177
   256
178
   256
274
     1
279
     2
284
     4
285
     4
286
     4
340
9445
  0
ENDTAB
  0
TABLE
  2
BLOCK_RECORD
  5
940C
330
0
100
AcDbSymbolTable
 70
    24
  0
BLOCK_RECORD
  5
9422
330
940C
100
AcDbSymbolTableRecord
100
AcDbBlockTableRecord
  2
*MODEL_SPACE
340
9478
  0
BLOCK_RECORD
  5
941F
330
940C
100
AcDbSymbolTableRecord
100
AcDbBlockTableRecord
  2
*PAPER_SPACE
340
9479
  0
BLOCK_RECORD
  5
9427
330
940C
100
AcDbSymbolTableRecord
100
AcDbBlockTableRecord
  2
LOGO-PAD
340
0
102
{BLKREFS
331
B1E
102
}
  0
BLOCK_RECORD
  5
9428
330
940C
100
AcDbSymbolTableRecord
100
AcDbBlockTableRecord
  2
TITLE-PAD
340
0
102
{BLKREFS
331
B2C
102
}
  0
BLOCK_RECORD
  5
9429
330
940C
100
AcDbSymbolTableRecord
100
AcDbBlockTableRecord
  2
OEM-NOTES
340
0
102
{BLKREFS
331
D86
102
}
  0
BLOCK_RECORD
  5
942A
330
940C
100
AcDbSymbolTableRecord
100
AcDbBlockTableRecord
  2
REF2
340
0
102
{BLKREFS
331
8BCD
102
}
  0
BLOCK_RECORD
  5
942B
330
940C
100
AcDbSymbolTableRecord
100
AcDbBlockTableRecord
  2
*D4
340
0
  0
BLOCK_RECORD
  5
942C
330
940C
100
AcDbSymbolTableRecord
100
AcDbBlockTableRecord
  2
*D5
340
0
  0
BLOCK_RECORD
  5
942D
330
940C
100
AcDbSymbolTableRecord
100
AcDbBlockTableRecord
  2
*D6
340
0
  0
BLOCK_RECORD
  5
942E
330
940C
100
AcDbSymbolTableRecord
100
AcDbBlockTableRecord
  2
*D7
340
0
  0
BLOCK_RECORD
  5
942F
330
940C
100
AcDbSymbolTableRecord
100
AcDbBlockTableRecord
  2
*D8
340
0
  0
BLOCK_RECORD
  5
9430
330
940C
100
AcDbSymbolTableRecord
100
AcDbBlockTableRecord
  2
*D9
340
0
  0
BLOCK_RECORD
  5
9431
330
940C
100
AcDbSymbolTableRecord
100
AcDbBlockTableRecord
  2
*D10
340
0
  0
BLOCK_RECORD
  5
9432
330
940C
100
AcDbSymbolTableRecord
100
AcDbBlockTableRecord
  2
*D11
340
0
  0
BLOCK_RECORD
  5
9433
330
940C
100
AcDbSymbolTableRecord
100
AcDbBlockTableRecord
  2
*D12
340
0
  0
BLOCK_RECORD
  5
9434
330
940C
100
AcDbSymbolTableRecord
100
AcDbBlockTableRecord
  2
*D13
340
0
  0
BLOCK_RECORD
  5
947D
330
940C
100
AcDbSymbolTableRecord
100
AcDbBlockTableRecord
  2
*D14
340
0
  0
BLOCK_RECORD
  5
948A
330
940C
100
AcDbSymbolTableRecord
100
AcDbBlockTableRecord
  2
*D15
340
0
  0
BLOCK_RECORD
  5
9497
330
940C
100
AcDbSymbolTableRecord
100
AcDbBlockTableRecord
  2
*D16
340
0
  0
BLOCK_RECORD
  5
94A4
330
940C
100
AcDbSymbolTableRecord
100
AcDbBlockTableRecord
  2
*D17
340
0
  0
BLOCK_RECORD
  5
94B1
330
940C
100
AcDbSymbolTableRecord
100
AcDbBlockTableRecord
  2
*D18
340
0
  0
BLOCK_RECORD
  5
94BE
330
940C
100
AcDbSymbolTableRecord
100
AcDbBlockTableRecord
  2
*D19
340
0
  0
BLOCK_RECORD
  5
94CB
330
940C
100
AcDbSymbolTableRecord
100
AcDbBlockTableRecord
  2
*D20
340
0
  0
BLOCK_RECORD
  5
94D8
330
940C
100
AcDbSymbolTableRecord
100
AcDbBlockTableRecord
  2
*D21
340
0
  0
BLOCK_RECORD
  5
94E5
330
940C
100
AcDbSymbolTableRecord
100
AcDbBlockTableRecord
  2
*D22
340
0
  0
BLOCK_RECORD
  5
94F2
330
940C
100
AcDbSymbolTableRecord
100
AcDbBlockTableRecord
  2
*D23
340
0
  0
ENDTAB
  0
ENDSEC
  0
SECTION
  2
BLOCKS
  0
BLOCK
  5
946C
330
9422
100
AcDbEntity
  8
0
100
AcDbBlockBegin
  2
*MODEL_SPACE
 70
     0
 10
0.0
 20
0.0
 30
0.0
  3
*MODEL_SPACE
  1

  0
ENDBLK
  5
946D
330
9422
100
AcDbEntity
  8
0
100
AcDbBlockEnd
  0
BLOCK
  5
946A
330
941F
100
AcDbEntity
 67
     1
  8
0
100
AcDbBlockBegin
  2
*PAPER_SPACE
 70
     0
 10
0.0
 20
0.0
 30
0.0
  3
*PAPER_SPACE
  1

  0
ENDBLK
  5
946B
330
941F
100
AcDbEntity
 67
     1
  8
0
100
AcDbBlockEnd
  0
BLOCK
  5
852
330
9427
100
AcDbEntity
  8
0
100
AcDbBlockBegin
  2
LOGO-PAD
 70
     0
 10
0.0
 20
0.0
 30
0.0
  3
LOGO-PAD
  1

  0
HATCH
  5
842
330
9427
100
AcDbEntity
  8
TITLEBLOCK
  6
Continuous
 62
     0
100
AcDbHatch
 10
0.0
 20
0.0
 30
0.0
210
0.0
220
0.0
230
1.0
  2
SOLID
 70
     1
 71
     0
 91
        2
 92
        1
 93
       11
 72
     2
 10
1.203771209334867
 20
0.3650136751459491
 40
0.021562648149145
 50
90.00000747299615
 51
179.9997683268519
 73
     1
 72
     1
 10
1.182208561185898
 20
0.3650137623336376
 11
1.182208392435807
 21
0.2795138227272444
 72
     2
 10
1.203771079023129
 20
0.2795136821032751
 40
0.0215626865877801
 50
179.9996263378447
 51
269.9998903896797
 73
     1
 72
     1
 10
1.203771037772394
 20
0.2579509955155343
 11
1.330521045577125
 21
0.2579511736405264
 72
     2
 10
1.330521265257171
 20
0.2795136382789064
 40
0.021562464639499
 50
269.9994162661957
 51
311.7040125634689
 73
     1
 72
     1
 10
1.344866398698837
 20
0.2634152834601535
 11
1.352083334663557
 21
0.2579511736405264
 72
     1
 10
1.352083334663557
 20
0.2579511736405264
 11
1.365099386916806
 21
0.2751416404960081
 72
     1
 10
1.365099386916806
 20
0.2751416404960081
 11
1.352083522163621
 21
0.284997066934386
 72
     1
 10
1.352083522163621
 20
0.284997066934386
 11
1.352083690913712
 21
0.3650136723335662
 72
     2
 10
1.330521042764654
 20
0.3650136751460369
 40
0.0215626481490576
 50
359.9999925267666
 51
449.9999925267678
 73
     1
 72
     1
 10
1.330521045577125
 20
0.3865763232950938
 11
1.203771206522485
 21
0.3865763232950938
 97
        0
 92
       16
 93
       10
 72
     2
 10
1.21455271481628
 20
0.3542325202904111
 40
0.0107811520434708
 50
90.00043844291294
 51
179.9999701074038
 73
     1
 72
     1
 10
1.203771562772811
 20
0.3542325259151993
 11
1.203771562772811
 21
0.2902950591455122
 72
     2
 10
1.214552849813946
 20
0.2902948416431456
 40
0.0107812870433294
 50
179.9988441113203
 51
269.9988441346395
 73
     1
 72
     1
 10
1.214552632315967
 20
0.2795135546020104
 11
1.323606134809704
 21
0.2795135546020104
 72
     1
 10
1.323606134809704
 20
0.2795135546020104
 11
1.280867956889135
 21
0.311873265117333
 72
     1
 10
1.280867956889135
 20
0.311873265117333
 11
1.293884009142384
 21
0.3290635557226322
 72
     1
 10
1.293884009142384
 20
0.3290635557226322
 11
1.330521045577125
 21
0.3013240413506308
 72
     1
 10
1.330521045577125
 20
0.3013240413506308
 11
1.330521045577125
 21
0.3542324377902786
 72
     2
 10
1.319739809158772
 20
0.3542324359152127
 40
0.0107812364183532
 50
0.0000099648460607
 51
90.00000996484372
 73
     1
 72
     1
 10
1.319739807283706
 20
0.3650136723335662
 11
1.214552632315967
 21
0.3650136723335662
 97
        0
 75
     0
 76
     1
 98
        1
 10
-7.279586802153931
 20
-0.4081141432880261
  0
HATCH
  5
843
330
9427
100
AcDbEntity
  8
TITLEBLOCK
  6
Continuous
 62
     0
100
AcDbHatch
 10
0.0
 20
0.0
 30
0.0
210
0.0
220
0.0
230
1.0
  2
SOLID
 70
     1
 71
     0
 91
        1
 92
        1
 93
        4
 72
     1
 10
3.703333445713536
 20
0.1990762889281312
 11
1.018147379006204
 21
0.1990762889281312
 72
     1
 10
1.018147379006204
 20
0.1990762889281312
 11
1.018147379006204
 21
0.220706173683743
 72
     1
 10
1.018147379006204
 20
0.220706173683743
 11
3.703333445713536
 21
0.220706173683743
 72
     1
 10
3.703333445713536
 20
0.220706173683743
 11
3.703333445713536
 21
0.1990762889281312
 97
        0
 75
     0
 76
     1
 98
        1
 10
-7.279586802153931
 20
-0.4081141432880261
  0
HATCH
  5
844
330
9427
100
AcDbEntity
  8
TITLEBLOCK
  6
Continuous
 62
     0
100
AcDbHatch
 10
0.0
 20
0.0
 30
0.0
210
0.0
220
0.0
230
1.0
  2
SOLID
 70
     1
 71
     0
 91
        4
 92
        1
 93
        4
 72
     1
 10
0.8306472632318495
 20
0.4814782717956759
 11
0.4556470182475714
 21
0.4814782717956759
 72
     1
 10
0.4556470182475714
 20
0.4814782717956759
 11
0.4556470182475714
 21
0.1064783844396073
 72
     1
 10
0.4556470182475714
 20
0.1064783844396073
 11
0.8306472632318495
 21
0.1064783844396073
 72
     1
 10
0.8306472632318495
 20
0.1064783844396073
 11
0.8306472632318495
 21
0.4814782717956759
 97
        0
 92
        0
 93
       10
 72
     1
 10
0.7368972019857374
 20
0.4177282462416896
 11
0.5193971779121789
 21
0.4177282462416896
 72
     1
 10
0.5193971779121789
 20
0.4177282462416896
 11
0.5193971779121789
 21
0.37460312508514
 72
     1
 10
0.5193971779121789
 20
0.37460312508514
 11
0.5531473465883146
 21
0.37460312508514
 72
     1
 10
0.5531473465883146
 20
0.37460312508514
 11
0.5531473465883146
 21
0.2133535311501431
 72
     1
 10
0.5531473465883146
 20
0.2133535311501431
 11
0.5193971779121789
 21
0.2133535311501431
 72
     1
 10
0.5193971779121789
 20
0.2133535311501431
 11
0.5193971779121789
 21
0.1702282758831428
 72
     1
 10
0.5193971779121789
 20
0.1702282758831428
 11
0.7368972019857374
 21
0.1702282758831428
 72
     1
 10
0.7368972019857374
 20
0.1702282758831428
 11
0.7668970141602749
 21
0.2002283115750982
 72
     1
 10
0.7668970141602749
 20
0.2002283115750982
 11
0.7668970141602749
 21
0.3877281658462506
 72
     1
 10
0.7668970141602749
 20
0.3877281658462506
 11
0.7368972019857374
 21
0.4177282462416896
 97
        0
 92
       16
 93
        4
 72
     1
 10
0.7987720492890098
 20
0.4496031025563197
 11
0.4875220533764768
 21
0.4496031025563197
 72
     1
 10
0.4875220533764768
 20
0.4496031025563197
 11
0.4875220533764768
 21
0.1383533301613751
 72
     1
 10
0.4875220533764768
 20
0.1383533301613751
 11
0.7987720492890098
 21
0.1383533301613751
 72
     1
 10
0.7987720492890098
 20
0.1383533301613751
 11
0.7987720492890098
 21
0.4496031025563197
 97
        0
 92
        0
 93
        4
 72
     1
 10
0.5962724677448641
 20
0.37460312508514
 11
0.5962724677448641
 21
0.2133535311501431
 72
     1
 10
0.5962724677448641
 20
0.2133535311501431
 11
0.7237719824106926
 21
0.2133535311501431
 72
     1
 10
0.7237719824106926
 20
0.2133535311501431
 11
0.7237719824106926
 21
0.37460312508514
 72
     1
 10
0.7237719824106926
 20
0.37460312508514
 11
0.5962724677448641
 21
0.37460312508514
 97
        0
 75
     0
 76
     1
 98
        1
 10
-7.279586802153931
 20
-0.313212194787444
  0
HATCH
  5
845
330
9427
100
AcDbEntity
  8
TITLEBLOCK
  6
Continuous
 62
     0
100
AcDbHatch
 10
0.0
 20
0.0
 30
0.0
210
0.0
220
0.0
230
1.0
  2
SOLID
 70
     1
 71
     0
 91
        1
 92
        1
 93
       26
 72
     1
 10
1.050490193885575
 20
0.3650136723335662
 11
1.138990457951802
 21
0.3650136723335662
 72
     2
 10
1.138990281703138
 20
0.3542326140418093
 40
0.0107810582931976
 50
270.0009366709926
 51
360.0009366862294
 73
     0
 72
     1
 10
1.149771339994895
 20
0.3542324377902786
 11
1.171333797831589
 21
0.3542324377902786
 72
     1
 10
1.171333797831589
 20
0.3542324377902786
 11
1.171333797831589
 21
0.3650136723335662
 72
     2
 10
1.149771243432702
 20
0.365013768896207
 40
0.0215625543991033
 50
359.9997434148255
 51
449.9997434160159
 73
     1
 72
     1
 10
1.149771339994895
 20
0.3865763232950938
 11
1.039708786842066
 21
0.3865763232950938
 72
     2
 10
1.039709408398413
 20
0.3650142939052909
 40
0.0215620293987615
 50
90.00165163282177
 51
180.0014125206716
 73
     1
 72
     1
 10
1.018147379006204
 20
0.3650137623336376
 11
1.018147379006204
 21
0.3334199129435318
 72
     2
 10
1.039709363397143
 20
0.3334193363730153
 40
0.0215619843986475
 50
179.9984679027414
 51
269.9984679437668
 73
     1
 72
     1
 10
1.039708786842066
 20
0.3118573519820755
 11
1.138990457951802
 21
0.311857620107139
 72
     2
 10
1.138990280765661
 20
0.3010765608779043
 40
0.0107810592306907
 50
270.0009416531222
 51
360.0009416684906
 73
     0
 72
     1
 10
1.149771339994895
 20
0.3010763836888712
 11
1.149771508744986
 21
0.2902949691454408
 72
     2
 10
1.138990231076649
 20
0.2902948322713164
 40
0.0107812776692067
 50
359.9992725992319
 51
449.9997907459082
 73
     0
 72
     1
 10
1.138990270451738
 20
0.279513554602181
 11
1.050490193885575
 21
0.2795135546020104
 72
     2
 10
1.05049014888543
 20
0.2902951041454384
 40
0.0107815495435218
 50
89.99976085826782
 51
179.9997608594354
 73
     0
 72
     1
 10
1.039708599342002
 20
0.2902950591455122
 11
1.018147379006204
 21
0.2902950591455122
 72
     1
 10
1.018147379006204
 20
0.2902950591455122
 11
1.018147379006204
 21
0.2795138227272444
 72
     2
 10
1.039709273392517
 20
0.2795130680345569
 40
0.0215618943995203
 50
179.9979945776083
 51
269.9987071039827
 73
     1
 72
     1
 10
1.039708786842066
 20
0.2579511736405264
 11
1.149771339994895
 21
0.2579511736405264
 72
     2
 10
1.149771378432784
 20
0.2795135930396681
 40
0.0215624193991759
 50
269.9998978626289
 51
359.9996636967671
 73
     1
 72
     1
 10
1.171333797831589
 20
0.2795134664769192
 11
1.171333797831589
 21
0.3114825579869829
 72
     2
 10
1.149771333432362
 20
0.3114825645494808
 40
0.0215624643992288
 50
359.9999825621309
 51
449.9999825620359
 73
     1
 72
     1
 10
1.149771339994895
 20
0.3330450289487088
 11
1.050490193885575
 21
0.3330447608234748
 72
     2
 10
1.050490103885701
 20
0.3438262653667981
 40
0.0107815045436989
 50
89.99952171675776
 51
179.9999900368059
 73
     0
 72
     1
 10
1.039708599342002
 20
0.3438262634919964
 11
1.039708786842066
 21
0.3542325259151993
 72
     2
 10
1.050490107634269
 20
0.3542323515402983
 40
0.0107813207936133
 50
180.0009266903443
 51
270.0004583701697
 73
     0
 97
        0
 75
     0
 76
     1
 98
        1
 10
-7.279586802153931
 20
-0.4081141432880261
  0
HATCH
  5
846
330
9427
100
AcDbEntity
  8
TITLEBLOCK
  6
Continuous
 62
     0
100
AcDbHatch
 10
0.0
 20
0.0
 30
0.0
210
0.0
220
0.0
230
1.0
  2
SOLID
 70
     1
 71
     0
 91
        1
 92
        1
 93
       18
 72
     2
 10
2.471082802883087
 20
0.3650137595211706
 40
0.021562563774099
 50
180.0000074732525
 51
269.9997683261728
 73
     0
 72
     1
 10
2.471082715695484
 20
0.3865763232950938
 11
2.586957622645552
 21
0.3865763232950938
 72
     2
 10
2.586957713583391
 20
0.3650135813961111
 40
0.0215627418991744
 50
269.9997583630888
 51
359.999758364108
 73
     0
 72
     1
 10
2.608520455482373
 20
0.3650136723335662
 11
2.608520455482373
 21
0.3542324377902786
 72
     1
 10
2.608520455482373
 20
0.3542324377902786
 11
2.586957622645552
 21
0.3542324377902786
 72
     2
 10
2.576176208103625
 20
0.3542322577916381
 40
0.0107814145434302
 50
0.0009565685814303
 51
90.00095658455173
 73
     1
 72
     1
 10
2.576176028101979
 20
0.3650136723335662
 11
2.481864141488966
 21
0.3650136723335662
 72
     2
 10
2.481864045863444
 20
0.3542323421656055
 40
0.0107813301683848
 50
89.99949181235312
 51
179.9994918168631
 73
     1
 72
     1
 10
2.471082715695484
 20
0.3542324377902786
 11
2.471082715695484
 21
0.2902950591455122
 72
     2
 10
2.481864090863785
 20
0.2902951097704553
 40
0.0107813751684203
 50
180.0002690376259
 51
270.0002690388874
 73
     1
 72
     1
 10
2.481864141488966
 20
0.2795137346021532
 11
2.576176028101979
 21
0.2795135546020104
 72
     2
 10
2.576176073102679
 20
0.2902951041456356
 40
0.010781549543719
 50
269.9997608553225
 51
359.9992825760937
 73
     1
 72
     1
 10
2.586957622645552
 20
0.2902949691454408
 11
2.608520455482373
 21
0.2902950591455122
 72
     1
 10
2.608520455482373
 20
0.2902950591455122
 11
2.608520099232048
 21
0.2795134664769192
 72
     2
 10
2.586957670458414
 20
0.2795136024145366
 40
0.0215624287740632
 50
0.0003612140281018
 51
90.00012704854281
 73
     0
 72
     1
 10
2.586957622645552
 20
0.2579511736405264
 11
2.471082715695484
 21
0.2579511736405264
 72
     2
 10
2.471082667882924
 20
0.2795136024144634
 40
0.02156242877399
 50
89.99987295225965
 51
179.9998729525419
 73
     0
 72
     1
 10
2.449520239108988
 20
0.2795135546020104
 11
2.449520239108988
 21
0.3650137623336376
 97
        0
 75
     0
 76
     1
 98
        1
 10
-7.279586802153931
 20
-0.4081141432880261
  0
HATCH
  5
847
330
9427
100
AcDbEntity
  8
TITLEBLOCK
  6
Continuous
 62
     0
100
AcDbHatch
 10
0.0
 20
0.0
 30
0.0
210
0.0
220
0.0
230
1.0
  2
SOLID
 70
     1
 71
     0
 91
        1
 92
        1
 93
       12
 72
     1
 10
2.026708344139745
 20
0.3865765014202565
 11
1.890208311215626
 21
0.3865765014202565
 72
     1
 10
1.890208311215626
 20
0.3865765014202565
 11
1.890208311215626
 21
0.2579511736405264
 72
     1
 10
1.890208311215626
 20
0.2579511736405264
 11
2.026708344139745
 21
0.2579511736405264
 72
     1
 10
2.026708344139745
 20
0.2579511736405264
 11
2.026708344139745
 21
0.2795135546020104
 72
     1
 10
2.026708344139745
 20
0.2795135546020104
 11
1.911770600302059
 21
0.2795135546020104
 72
     1
 10
1.911770600302059
 20
0.2795135546020104
 11
1.911770600302059
 21
0.3114825579869829
 72
     1
 10
1.911770600302059
 20
0.3114825579869829
 11
2.026708344139745
 21
0.3114825579869829
 72
     1
 10
2.026708344139745
 20
0.3114825579869829
 11
2.026708344139745
 21
0.333044848948566
 72
     1
 10
2.026708344139745
 20
0.333044848948566
 11
1.911770600302059
 21
0.333044848948566
 72
     1
 10
1.911770600302059
 20
0.333044848948566
 11
1.911770600302059
 21
0.3650136723335662
 72
     1
 10
1.911770600302059
 20
0.3650136723335662
 11
2.026708344139745
 21
0.3650136723335662
 72
     1
 10
2.026708344139745
 20
0.3650136723335662
 11
2.026708344139745
 21
0.3865765014202565
 97
        0
 75
     0
 76
     1
 98
        1
 10
-7.279586802153931
 20
-0.4081141432880261
  0
HATCH
  5
848
330
9427
100
AcDbEntity
  8
TITLEBLOCK
  6
Continuous
 62
     0
100
AcDbHatch
 10
0.0
 20
0.0
 30
0.0
210
0.0
220
0.0
230
1.0
  2
SOLID
 70
     1
 71
     0
 91
        2
 92
        1
 93
        8
 72
     1
 10
1.614830743814064
 20
0.3865765014202565
 11
1.531145595393223
 21
0.2579509955155343
 72
     1
 10
1.531145595393223
 20
0.2579509955155343
 11
1.556870855949323
 21
0.2579511736405264
 72
     1
 10
1.556870855949323
 20
0.2579511736405264
 11
1.570898996363819
 21
0.2795135546020104
 72
     1
 10
1.570898996363819
 20
0.2795135546020104
 11
1.673830432358027
 21
0.2795135546020104
 72
     1
 10
1.673830432358027
 20
0.2795135546020104
 11
1.687858760272586
 21
0.2579514417655899
 72
     1
 10
1.687858760272586
 20
0.2579514417655899
 11
1.713583120827973
 21
0.2579514417655899
 72
     1
 10
1.713583120827973
 20
0.2579514417655899
 11
1.629898141157394
 21
0.3865765014202565
 72
     1
 10
1.629898141157394
 20
0.3865765014202565
 11
1.614830743814064
 21
0.3865765014202565
 97
        0
 92
       16
 93
        3
 72
     1
 10
1.622364536235675
 20
0.3586169575295115
 11
1.659801223192726
 21
0.3010763836888712
 72
     1
 10
1.659801223192726
 20
0.3010763836888712
 11
1.584928205528949
 21
0.3010762055637086
 72
     1
 10
1.584928205528949
 20
0.3010762055637086
 11
1.622364348735612
 21
0.3586165994043766
 97
        0
 75
     0
 76
     1
 98
        1
 10
-7.279586802153931
 20
-0.4081141432880261
  0
HATCH
  5
849
330
9427
100
AcDbEntity
  8
TITLEBLOCK
  6
Continuous
 62
     0
100
AcDbHatch
 10
0.0
 20
0.0
 30
0.0
210
0.0
220
0.0
230
1.0
  2
SOLID
 70
     1
 71
     0
 91
        1
 92
        1
 93
       12
 72
     1
 10
1.392021104504447
 20
0.3865765014202565
 11
1.370458815418015
 21
0.3865765014202565
 72
     1
 10
1.370458815418015
 20
0.3865765014202565
 11
1.370458627917951
 21
0.2795138227272444
 72
     2
 10
1.39202114575308
 20
0.2795135133528436
 40
0.0215625178373483
 50
179.999177932392
 51
269.9998903944058
 73
     1
 72
     1
 10
1.392021104504447
 20
0.2579509955155343
 11
1.509583287556818
 21
0.2579511736405264
 72
     2
 10
1.509583335369764
 20
0.2795136024146219
 40
0.0215624287741484
 50
269.9998729512306
 51
359.9996387857453
 73
     1
 72
     1
 10
1.531145764143484
 20
0.2795134664769192
 11
1.531146120393639
 21
0.3865765014202565
 72
     1
 10
1.531146120393639
 20
0.3865765014202565
 11
1.509583287556818
 21
0.3865765014202565
 72
     1
 10
1.509583287556818
 20
0.3865765014202565
 11
1.509583287556818
 21
0.2902950591455122
 72
     2
 10
1.498801916139266
 20
0.290294926019563
 40
0.0107813714183743
 50
359.9992925246018
 51
449.9992925333428
 73
     0
 72
     1
 10
1.49880204926357
 20
0.2795135546020104
 11
1.402802342797695
 21
0.2795135546020104
 72
     2
 10
1.402802382172719
 20
0.2902950197703451
 40
0.0107814651684066
 50
90.00020925010334
 51
180.0002092508632
 73
     0
 72
     1
 10
1.392020917004384
 20
0.2902950591455122
 11
1.392021104504447
 21
0.3865765014202565
 97
        0
 75
     0
 76
     1
 98
        1
 10
-7.279586802153931
 20
-0.4081141432880261
  0
HATCH
  5
84A
330
9427
100
AcDbEntity
  8
TITLEBLOCK
  6
Continuous
 62
     0
100
AcDbHatch
 10
0.0
 20
0.0
 30
0.0
210
0.0
220
0.0
230
1.0
  2
SOLID
 70
     1
 71
     0
 91
        2
 92
        1
 93
       13
 72
     2
 10
1.851958289039648
 20
0.2899198104641797
 40
0.0215625675244637
 50
0.0002565813902296
 51
90.00070498518821
 73
     1
 72
     2
 10
1.851958289040149
 20
0.3330449455099156
 40
0.0215625675245372
 50
269.9992950134807
 51
359.9995092535441
 73
     1
 72
     1
 10
1.873520856563896
 20
0.3330447608234748
 11
1.873520856563896
 21
0.3650136657708798
 72
     2
 10
1.851957894958188
 20
0.3650135398162329
 40
0.0215629616060761
 50
0.0003346789653151
 51
89.99920945081219
 73
     1
 72
     1
 10
1.851958192477166
 20
0.3865765014202565
 11
1.720333350237904
 21
0.3865765014202565
 72
     1
 10
1.720333350237904
 20
0.3865765014202565
 11
1.720333350237904
 21
0.2579511736405264
 72
     1
 10
1.720333350237904
 20
0.2579511736405264
 11
1.741896183074725
 21
0.2579511736405264
 72
     1
 10
1.741896183074725
 20
0.2579511736405264
 11
1.741896183074725
 21
0.3007013215688856
 72
     1
 10
1.741896183074725
 20
0.3007013215688856
 11
1.841176785433827
 21
0.3007013215688856
 72
     2
 10
1.841176693559081
 20
0.2899201789011263
 40
0.0107811426681508
 50
270.0004882631974
 51
360.0004882673548
 73
     0
 72
     1
 10
1.851957836226841
 20
0.289920087025598
 11
1.851958192477166
 21
0.2579511736405264
 72
     1
 10
1.851958192477166
 20
0.2579511736405264
 11
1.873520856563896
 21
0.2579511736405264
 72
     1
 10
1.873520856563896
 20
0.2579511736405264
 11
1.873520856563896
 21
0.2899199070254552
 97
        0
 92
       16
 93
        6
 72
     2
 10
1.841176693559081
 20
0.3542325296658069
 40
0.0107811426681508
 50
270.0004882631974
 51
360.0004882673548
 73
     0
 72
     1
 10
1.851957836226841
 20
0.3542324377902786
 11
1.851958192477166
 21
0.333044848948566
 72
     2
 10
1.841176871684197
 20
0.333044935198247
 40
0.0107813207933138
 50
0.0004583615308307
 51
90.00045836519477
 73
     0
 72
     1
 10
1.841176785433827
 20
0.3222636144052784
 11
1.741896183074725
 21
0.3222638825303419
 72
     1
 10
1.741896183074725
 20
0.3222638825303419
 11
1.741896183074725
 21
0.3650136723335662
 72
     1
 10
1.741896183074725
 20
0.3650136723335662
 11
1.841176785433827
 21
0.3650136723335662
 97
        0
 75
     0
 76
     1
 98
        1
 10
-7.279586802153931
 20
-0.4081141432880261
  0
HATCH
  5
84B
330
9427
100
AcDbEntity
  8
TITLEBLOCK
  6
Continuous
 62
     0
100
AcDbHatch
 10
0.0
 20
0.0
 30
0.0
210
0.0
220
0.0
230
1.0
  2
SOLID
 70
     1
 71
     0
 91
        2
 92
        1
 93
       10
 72
     1
 10
2.168832611988261
 20
0.3650136723335662
 11
2.168832611988261
 21
0.2795135546021492
 72
     1
 10
2.168832611988261
 20
0.2795135546021492
 11
2.148020079641632
 21
0.2795135546021492
 72
     1
 10
2.148020079641632
 20
0.2795135546021492
 11
2.148020079641632
 21
0.2579511736406499
 72
     1
 10
2.148020079641632
 20
0.2579511736406499
 11
2.314895263659607
 21
0.2579511736406499
 72
     2
 10
2.314895311472477
 20
0.2795136024147182
 40
0.0215624287741214
 50
269.9998729514336
 51
359.9996387859474
 73
     1
 72
     1
 10
2.336457740246171
 20
0.2795134664770916
 11
2.336457740246171
 21
0.3650136723335662
 72
     2
 10
2.314895087410214
 20
0.3650138485844006
 40
0.0215626528366775
 50
359.9995316703829
 51
449.999531674211
 73
     1
 72
     1
 10
2.314895263659607
 20
0.386576501420358
 11
2.148020079641632
 21
0.386576501420358
 72
     1
 10
2.148020079641632
 20
0.386576501420358
 11
2.148020079641632
 21
0.3650136723335662
 72
     1
 10
2.148020079641632
 20
0.3650136723335662
 11
2.168832611988261
 21
0.3650136723335662
 97
        0
 92
       16
 93
        6
 72
     1
 10
2.190395257324933
 20
0.3650136723335662
 11
2.304113856616218
 21
0.3650136723335662
 72
     2
 10
2.304113942866619
 20
0.3542323515405775
 40
0.0107813207933337
 50
269.9995416346447
 51
359.9995416383139
 73
     0
 72
     1
 10
2.314895263659607
 20
0.3542324377902877
 11
2.314895263659607
 21
0.2902949691455452
 72
     2
 10
2.304113807866077
 20
0.2902950103956483
 40
0.0107814557936096
 50
0.0002192149982456
 51
89.99974092762393
 73
     0
 72
     1
 10
2.304113856616218
 20
0.2795135546021492
 11
2.190395257324933
 21
0.2795135546021492
 72
     1
 10
2.190395257324933
 20
0.2795135546021492
 11
2.190395257324933
 21
0.3650136723335662
 97
        0
 75
     0
 76
     1
 98
        1
 10
-7.279586802153931
 20
-0.4081141432880261
  0
HATCH
  5
84C
330
9427
100
AcDbEntity
  8
TITLEBLOCK
  6
Continuous
 62
     0
100
AcDbHatch
 10
0.0
 20
0.0
 30
0.0
210
0.0
220
0.0
230
1.0
  2
SOLID
 70
     1
 71
     0
 91
        2
 92
        1
 93
        8
 72
     1
 10
3.241392303571654
 20
0.3865765014202565
 11
3.157707226761072
 21
0.2579509955155343
 72
     1
 10
3.157707226761072
 20
0.2579509955155343
 11
3.183432299816939
 21
0.2579511736405264
 72
     1
 10
3.183432299816939
 20
0.2579511736405264
 11
3.197460983981823
 21
0.2795133764768478
 72
     1
 10
3.197460983981823
 20
0.2795133764768478
 11
3.30039082622498
 21
0.2795135546020104
 72
     1
 10
3.30039082622498
 20
0.2795135546020104
 11
3.314419679139785
 21
0.2579514417655899
 72
     1
 10
3.314419679139785
 20
0.2579514417655899
 11
3.340144583445731
 21
0.2579511736405264
 72
     1
 10
3.340144583445731
 20
0.2579511736405264
 11
3.256459603774981
 21
0.3865765014202565
 72
     1
 10
3.256459603774981
 20
0.3865765014202565
 11
3.241392303571654
 21
0.3865765014202565
 97
        0
 92
       16
 93
        3
 72
     1
 10
3.248925740352245
 20
0.358616778466603
 11
3.211489480646473
 21
0.3010762055637086
 72
     1
 10
3.211489480646473
 20
0.3010762055637086
 11
3.28636178580994
 21
0.3010763836888712
 72
     1
 10
3.28636178580994
 20
0.3010763836888712
 11
3.248925740352245
 21
0.358616778466603
 97
        0
 75
     0
 76
     1
 98
        1
 10
-7.279586802153931
 20
-0.4081141432880261
  0
HATCH
  5
84D
330
9427
100
AcDbEntity
  8
TITLEBLOCK
  6
Continuous
 62
     0
100
AcDbHatch
 10
0.0
 20
0.0
 30
0.0
210
0.0
220
0.0
230
1.0
  2
SOLID
 70
     1
 71
     0
 91
        1
 92
        1
 93
       13
 72
     1
 10
2.838488736968525
 20
0.3865765014202565
 11
2.806145209588674
 21
0.3865765014202565
 72
     1
 10
2.806145209588674
 20
0.3865765014202565
 11
2.806145209588674
 21
0.2579511736405264
 72
     1
 10
2.806145209588674
 20
0.2579511736405264
 11
2.827707667425368
 21
0.2579511736405264
 72
     1
 10
2.827707667425368
 20
0.2579511736405264
 11
2.827707667425368
 21
0.3640633654626753
 72
     1
 10
2.827707667425368
 20
0.3640633654626753
 11
2.899718420719221
 21
0.2579514417655899
 72
     1
 10
2.899718420719221
 20
0.2579514417655899
 11
2.922570860648686
 21
0.2579511736405264
 72
     1
 10
2.922570860648686
 20
0.2579511736405264
 11
2.994582138942956
 21
0.3640642598382782
 72
     1
 10
2.994582138942956
 20
0.3640642598382782
 11
2.994582138942956
 21
0.2579511736405264
 72
     1
 10
2.994582138942956
 20
0.2579511736405264
 11
3.016144596779479
 21
0.2579511736405264
 72
     1
 10
3.016144596779479
 20
0.2579511736405264
 11
3.016144596779479
 21
0.3865765014202565
 72
     1
 10
3.016144596779479
 20
0.3865765014202565
 11
2.983801425649954
 21
0.3865765014202565
 72
     1
 10
2.983801425649954
 20
0.3865765014202565
 11
2.911144640683954
 21
0.2795135546020104
 72
     1
 10
2.911144640683954
 20
0.2795135546020104
 11
2.838488380718199
 21
0.3865765014202565
 97
        0
 75
     0
 76
     1
 98
        1
 10
-7.279586802153931
 20
-0.4081141432880261
  0
HATCH
  5
84E
330
9427
100
AcDbEntity
  8
TITLEBLOCK
  6
Continuous
 62
     0
100
AcDbHatch
 10
0.0
 20
0.0
 30
0.0
210
0.0
220
0.0
230
1.0
  2
SOLID
 70
     1
 71
     0
 91
        2
 92
        1
 93
        8
 72
     1
 10
2.79358243888161
 20
0.2795134664769192
 11
2.793582795131936
 21
0.3650136723335662
 72
     2
 10
2.772020240733041
 20
0.3650137688961994
 40
0.0215625543991104
 50
359.9997434148459
 51
449.999743415997
 73
     1
 72
     1
 10
2.772020337295241
 20
0.3865763232950938
 11
2.640957676673206
 21
0.3865763232950938
 72
     2
 10
2.640957763860811
 20
0.3650137595211699
 40
0.0215625637741002
 50
90.00023167383188
 51
179.9999925267453
 73
     1
 72
     1
 10
2.61939520008671
 20
0.3650137623336376
 11
2.61939520008671
 21
0.2795135546020104
 72
     2
 10
2.640957628860649
 20
0.2795136024144641
 40
0.0215624287739915
 50
180.0001270474597
 51
270.0001270477355
 73
     1
 72
     1
 10
2.640957676673206
 20
0.2579511736405264
 11
2.772020337295241
 21
0.2579511736405264
 72
     2
 10
2.772020197607671
 20
0.2795134149140743
 40
0.0215622412740004
 50
270.000371181646
 51
360.000137014207
 73
     1
 97
        0
 92
       16
 93
        8
 72
     2
 10
2.651738913091431
 20
0.3542324359149649
 40
0.0107812364186015
 50
89.9999900344766
 51
179.999521702949
 73
     1
 72
     1
 10
2.640957676673206
 20
0.3542325259151993
 11
2.640957676673206
 21
0.2902950591455122
 72
     2
 10
2.651738958091508
 20
0.2902950160204556
 40
0.010781281418388
 50
179.9997708172488
 51
269.9997708181704
 73
     1
 72
     1
 10
2.651738914966625
 20
0.2795137346021532
 11
2.761238742751839
 21
0.2795135546020104
 72
     2
 10
2.761238956501978
 20
0.2902951041442614
 40
0.0107815495443698
 50
269.9988640797126
 51
359.9992825833961
 73
     1
 72
     1
 10
2.772020506045503
 20
0.2902949691454408
 11
2.772020337295241
 21
0.3542324377902786
 72
     2
 10
2.761239007127366
 20
0.3542323421656908
 40
0.0107813301682991
 50
0.0005081826837109
 51
90.00050818719378
 73
     1
 72
     1
 10
2.76123891150193
 20
0.3650136723335662
 11
2.651738914966625
 21
0.3650136723335662
 97
        0
 75
     0
 76
     1
 98
        1
 10
-7.279586802153931
 20
-0.4081141432880261
  0
HATCH
  5
84F
330
9427
100
AcDbEntity
  8
TITLEBLOCK
  6
Continuous
 62
     0
100
AcDbHatch
 10
0.0
 20
0.0
 30
0.0
210
0.0
220
0.0
230
1.0
  2
SOLID
 70
     1
 71
     0
 91
        2
 92
        1
 93
        8
 72
     2
 10
3.162769048174736
 20
0.3650134554401196
 40
0.0215630459811904
 50
270.0005663490367
 51
359.9994236862867
 73
     0
 72
     1
 10
3.184332094154836
 20
0.3650136723335662
 11
3.184332094154836
 21
0.3222638825303419
 72
     2
 10
3.162769397256125
 20
0.3222640184675962
 40
0.0215626968991391
 50
0.0003612085718475
 51
90.00036121084693
 73
     0
 72
     1
 10
3.162769261318015
 20
0.3007013215688856
 11
3.052707420665665
 21
0.3007013215688856
 72
     1
 10
3.052707420665665
 20
0.3007013215688856
 11
3.052707420665665
 21
0.2579511736405264
 72
     1
 10
3.052707420665665
 20
0.2579511736405264
 11
3.031144250328662
 21
0.2579511736405264
 72
     1
 10
3.031144250328662
 20
0.2579511736405264
 11
3.031144250328662
 21
0.3865765014202565
 72
     1
 10
3.031144250328662
 20
0.3865765014202565
 11
3.162769261318015
 21
0.3865765014202565
 97
        0
 92
       16
 93
        6
 72
     2
 10
3.151988118650169
 20
0.3542325296657216
 40
0.0107811426682361
 50
270.0004882627443
 51
360.0004882669015
 73
     0
 72
     1
 10
3.162769261318015
 20
0.3542324377902786
 11
3.162769261318015
 21
0.333044848948566
 72
     2
 10
3.151988118650169
 20
0.333044757073123
 40
0.0107811426682367
 50
359.9995117330984
 51
449.9995117372556
 73
     0
 72
     1
 10
3.15198821052483
 20
0.3222636144052784
 11
3.052707420665665
 21
0.3222638825303419
 72
     1
 10
3.052707420665665
 20
0.3222638825303419
 11
3.052707420665665
 21
0.3650136723335662
 72
     1
 10
3.052707420665665
 20
0.3650136723335662
 11
3.15198821052483
 21
0.3650136723335662
 97
        0
 75
     0
 76
     1
 98
        1
 10
-7.279586802153931
 20
-0.4081141432880261
  0
HATCH
  5
850
330
9427
100
AcDbEntity
  8
TITLEBLOCK
  6
Continuous
 62
     0
100
AcDbHatch
 10
0.0
 20
0.0
 30
0.0
210
0.0
220
0.0
230
1.0
  2
SOLID
 70
     1
 71
     0
 91
        1
 92
        1
 93
        9
 72
     1
 10
3.556847887515953
 20
0.3865763232950938
 11
3.525206566844968
 21
0.3865765014202565
 72
     1
 10
3.525206566844968
 20
0.3865765014202565
 11
3.60348814923547
 21
0.3136817019238036
 72
     1
 10
3.60348814923547
 20
0.3136817019238036
 11
3.603486349234383
 21
0.2579511736405264
 72
     1
 10
3.603486349234383
 20
0.2579511736405264
 11
3.625050607072164
 21
0.2579511736405264
 72
     1
 10
3.625050607072164
 20
0.2579511736405264
 11
3.625050607072164
 21
0.3136813437984982
 72
     1
 10
3.625050607072164
 20
0.3136813437984982
 11
3.703331833212512
 21
0.3865766795454191
 72
     1
 10
3.703331833212512
 20
0.3865766795454191
 11
3.671691225042007
 21
0.3865765014202565
 72
     1
 10
3.671691225042007
 20
0.3865765014202565
 11
3.61426955627898
 21
0.3331056458632473
 72
     1
 10
3.61426955627898
 20
0.3331056458632473
 11
3.556847887515953
 21
0.3865763232950938
 97
        0
 75
     0
 76
     1
 98
        1
 10
-7.279586802153931
 20
-0.4081141432880261
  0
HATCH
  5
851
330
9427
100
AcDbEntity
  8
TITLEBLOCK
  6
Continuous
 62
     0
100
AcDbHatch
 10
0.0
 20
0.0
 30
0.0
210
0.0
220
0.0
230
1.0
  2
SOLID
 70
     1
 71
     0
 91
        1
 92
        1
 93
       10
 72
     1
 10
3.376247484495632
 20
0.3865765014202565
 11
3.345207161752892
 21
0.3865765014202565
 72
     1
 10
3.345207161752892
 20
0.3865765014202565
 11
3.345207161752892
 21
0.2579511736405264
 72
     1
 10
3.345207161752892
 20
0.2579511736405264
 11
3.366769638339558
 21
0.2579511736405264
 72
     1
 10
3.366769638339558
 20
0.2579511736405264
 11
3.366769638339558
 21
0.3659393041881229
 72
     1
 10
3.366769638339558
 20
0.3659393041881229
 11
3.48273627034943
 21
0.2579509955155343
 72
     1
 10
3.48273627034943
 20
0.2579509955155343
 11
3.515082122730785
 21
0.2579511736405264
 72
     1
 10
3.515082122730785
 20
0.2579511736405264
 11
3.515082122730785
 21
0.3865765014202565
 72
     1
 10
3.515082122730785
 20
0.3865765014202565
 11
3.49351767739277
 21
0.3865765014202565
 72
     1
 10
3.49351767739277
 20
0.3865765014202565
 11
3.49351767739277
 21
0.277374671329744
 72
     1
 10
3.49351767739277
 20
0.277374671329744
 11
3.376247484495632
 21
0.3865765014202565
 97
        0
 75
     0
 76
     1
 98
        1
 10
-7.279586802153931
 20
-0.4081141432880261
  0
ENDBLK
  5
853
330
9427
100
AcDbEntity
  8
0
100
AcDbBlockEnd
  0
BLOCK
  5
AF5
330
9428
100
AcDbEntity
  8
0
100
AcDbBlockBegin
  2
TITLE-PAD
 70
     2
 10
0.0
 20
0.0
 30
0.0
  3
TITLE-PAD
  1

  0
LWPOLYLINE
  5
B1D
330
9428
100
AcDbEntity
  8
CONTINUOUS2
 62
     0
100
AcDbPolyline
 90
        7
 70
     1
 43
0.0
 10
16.40000099999999
 20
0.0
 10
16.40000099999999
 20
0.0
 10
16.40000099999999
 20
0.0
 10
8.002461
 20
0.0
 10
8.002461
 20
0.9120019999999993
 10
16.40000099999999
 20
0.9120019999999993
 10
16.40000099999999
 20
0.0
  0
INSERT
  5
B1E
330
9428
100
AcDbEntity
  8
TITLEBLOCK
 62
     0
100
AcDbBlockReference
  2
LOGO-PAD
 10
12.245701
 20
0.3040000000000003
 30
0.0
  0
LINE
  5
B1F
330
9428
100
AcDbEntity
  8
CONTINUOUS2
 62
     0
100
AcDbLine
 10
16.40000099999999
 20
0.3040000000000003
 30
0.0
 11
12.245701
 21
0.3040000000000003
 31
0.0
  0
LINE
  5
B20
330
9428
100
AcDbEntity
  8
CONTINUOUS2
 62
     0
100
AcDbLine
 10
12.245701
 20
0.9120019999999993
 30
0.0
 11
12.245701
 21
0.0
 31
0.0
  0
TEXT
  5
B21
330
9428
100
AcDbEntity
  8
TEXT1
  6
Continuous
 62
     0
100
AcDbText
 10
12.36897712113656
 20
0.0611566731182909
 30
0.0
 40
0.0699999951940822
  1
NO.
  7
ROMANS
 11
12.36897712113656
 21
0.096156670715332
 31
0.0
100
AcDbText
 73
     2
  0
TEXT
  5
B22
330
9428
100
AcDbEntity
  8
TEXT1
  6
Continuous
 62
     0
100
AcDbText
 10
12.36897712113656
 20
0.1661566731182908
 30
0.0
 40
0.0699999951940822
  1
DWG#
  7
ROMANS
 11
12.36897712113656
 21
0.2011566707153319
 31
0.0
100
AcDbText
 73
     2
  0
ATTDEF
  5
B23
330
9428
100
AcDbEntity
  8
TEXT1
 62
     0
100
AcDbText
 10
10.10183834893798
 20
0.7474460884590166
 30
0.0
 40
0.1
  1

  7
ROMANS
 72
     4
 11
10.10183834893798
 21
0.7474460884590166
 31
0.0
100
AcDbAttributeDefinition
  3
DESCRIPTION 1
  2
DESCRIPTION 1
 70
     0
  0
ATTDEF
  5
B24
330
9428
100
AcDbEntity
  8
TEXT1
 62
     0
100
AcDbText
 10
10.10183834893798
 20
0.6017231711406717
 30
0.0
 40
0.1
  1

  7
ROMANS
 72
     4
 11
10.10183834893798
 21
0.6017231711406717
 31
0.0
100
AcDbAttributeDefinition
  3
DESCRIPTION 2
  2
DESCRIPTION 2
 70
     0
  0
ATTDEF
  5
B25
330
9428
100
AcDbEntity
  8
TEXT1
 62
     0
100
AcDbText
 10
10.10183834893798
 20
0.4560002538223267
 30
0.0
 40
0.08
  1

  7
ROMANS
 72
     4
 11
10.10183834893798
 21
0.4560002538223267
 31
0.0
100
AcDbAttributeDefinition
  3
DESCRIPTION 3
  2
DESCRIPTION 3
 70
     0
  0
ATTDEF
  5
B26
330
9428
100
AcDbEntity
  8
TEXT1
 62
     0
100
AcDbText
 10
10.10183834893798
 20
0.3202773365039833
 30
0.0
 40
0.08
  1

  7
ROMANS
 72
     4
 11
10.10183834893798
 21
0.3202773365039833
 31
0.0
100
AcDbAttributeDefinition
  3
DESCRIPTION 4
  2
DESCRIPTION 4
 70
     0
  0
ATTDEF
  5
B27
330
9428
100
AcDbEntity
  8
TEXT1
 62
     0
100
AcDbText
 10
10.10183834893798
 20
0.1845544191856399
 30
0.0
 40
0.08
  1

  7
ROMANS
 72
     4
 11
10.10183834893798
 21
0.1845544191856399
 31
0.0
100
AcDbAttributeDefinition
  3
DESCRIPTION 5
  2
DESCRIPTION 5
 70
     0
  0
ATTDEF
  5
B28
330
9428
100
AcDbEntity
  8
TEXT1
 62
     0
100
AcDbText
 10
12.74772367103195
 20
0.096540546036505
 30
0.0
 40
0.12
  1

 41
0.9512024731840066
  7
M_STANDARD
 11
12.74772367103195
 21
0.156540546036505
 31
0.0
100
AcDbAttributeDefinition
  3
DRAWING NUMBER
  2
DWGNO
 70
     0
 74
     2
  0
ATTDEF
  5
B29
330
9428
100
AcDbEntity
  8
TEXT1
 62
     0
100
AcDbText
 10
16.35506454949325
 20
-0.1507193079929352
 30
0.0
 40
0.08
  1

  7
ROMANS
 72
     2
 11
16.35506454949325
 21
-0.1107193079929352
 31
0.0
100
AcDbAttributeDefinition
  3
REF DWG #
  2
REF
 70
     0
 74
     2
  0
ATTDEF
  5
B2A
330
9428
100
AcDbEntity
  8
TEXT1
 62
     0
100
AcDbText
 10
0.0266402374038712
 20
-0.1507193079929352
 30
0.0
 40
0.08
  1

  7
ROMANS
 11
0.0266402374038712
 21
-0.1107193079929352
 31
0.0
100
AcDbAttributeDefinition
  3
DATE MODIFIED
  2
DATE
 70
     0
 74
     2
  0
LWPOLYLINE
  5
B2B
330
9428
100
AcDbEntity
  8
CONTINUOUS3
 62
     0
100
AcDbPolyline
 90
        4
 70
   129
 43
0.0
 10
0.0
 20
0.0
 10
16.40000099999999
 20
0.0
 10
16.40000099999999
 20
10.25
 10
0.0
 20
10.25
  0
ENDBLK
  5
AF6
330
9428
100
AcDbEntity
  8
0
100
AcDbBlockEnd
  0
BLOCK
  5
D84
330
9429
100
AcDbEntity
  8
0
100
AcDbBlockBegin
  2
OEM-NOTES
 70
     0
 10
0.0
 20
0.0
 30
0.0
  3
OEM-NOTES
  1

  0
LWPOLYLINE
  5
D53
330
9429
100
AcDbEntity
  8
TITLEBLOCK
100
AcDbPolyline
 90
        2
 70
     0
 43
0.0128
 10
8.625
 20
1.599999999999996
 10
0.0
 20
1.6
  0
TEXT
  5
D57
330
9429
100
AcDbEntity
  8
TITLEBLOCK
100
AcDbText
 10
0.3131249999999959
 20
0.7406249999999998
 30
0.0
 40
0.13125
  1
BE USED ONLY IN CONFORMANCE WITH INSTRUCTIONS ISSUED BY SQUARE D COMPANY.
 41
0.9
  7
SIMPLEX
 72
     4
 11
4.3125
 21
0.7999999999999999
 31
0.0
100
AcDbText
  0
TEXT
  5
D58
330
9429
100
AcDbEntity
  8
TITLEBLOCK
100
AcDbText
 10
0.2540625000000007
 20
1.045625000000001
 30
0.0
 40
0.13125
  1
HEREON. THIS INFORMATION REMAINS THE PROPERTY OF SQUARE D COMPANY AND MAY
 41
0.9
  7
SIMPLEX
 72
     4
 11
4.3125
 21
1.105000000000001
 31
0.0
100
AcDbText
  0
TEXT
  5
D59
330
9429
100
AcDbEntity
  8
TITLEBLOCK
100
AcDbText
 10
0.3046875
 20
1.338124999999997
 30
0.0
 40
0.13125
  1
"THE SQUARE D COMPANY HAS PROPRIETARY RIGHTS TO THE INFORMATION CONTAINED
 41
0.9
  7
SIMPLEX
 72
     4
 11
4.3125
 21
1.409999999999997
 31
0.0
100
AcDbText
  0
TEXT
  5
D5A
330
9429
100
AcDbEntity
  8
TITLEBLOCK
100
AcDbText
 10
0.6309374999999977
 20
0.4387499999999984
 30
0.0
 40
0.13125
  1
USER SHOULD VERIFY DRAWINGS ARE TO THE LATEST/CURRENT REVISION PRIOR
 41
0.9
  7
SIMPLEX
 72
     4
 11
4.3125
 21
0.4949999999999984
 31
0.0
100
AcDbText
  0
TEXT
  5
D5B
330
9429
100
AcDbEntity
  8
TITLEBLOCK
100
AcDbText
 10
2.5490625
 20
0.1368749999999972
 30
0.0
 40
0.13125
  1
TO INCORPORATING IN A DESIGN FILE."
 41
0.9
  7
SIMPLEX
 72
     4
 11
4.3125
 21
0.2149999999999972
 31
0.0
100
AcDbText
  0
TEXT
  5
D5C
330
9429
100
AcDbEntity
  8
TITLEBLOCK
100
AcDbText
 10
9.046378855339687
 20
0.2629426489623099
 30
0.0
 40
0.112
  1
UNLESS OTHERWISE SPECIFIED DIMENSIONS ARE IN INCHES
 41
0.8
  7
SIMPLEX
 72
     4
 11
11.06451218867302
 21
0.3189426489623099
 31
0.0
100
AcDbText
  0
LWPOLYLINE
  5
D5D
330
9429
100
AcDbEntity
  8
TITLEBLOCK
100
AcDbPolyline
 90
        2
 70
     0
 43
0.0128
 10
8.625
 20
0.9599999999999964
 10
16.00492200000007
 20
0.9599999999999964
  0
TEXT
  5
D61
330
9429
100
AcDbEntity
  8
TITLEBLOCK
100
AcDbText
 10
8.7837120071254
 20
0.5472199999999967
 30
0.0
 40
0.2433162500000002
  1
%%uDO NOT SCALE DRAWING
  7
SIMPLEX
 72
     1
 11
11.06451218867302
 21
0.5472199999999967
 31
0.0
100
AcDbText
  0
LWPOLYLINE
  5
D62
330
9429
100
AcDbEntity
  8
TITLEBLOCK
100
AcDbPolyline
 90
        2
 70
     0
 43
0.0128
 10
8.625
 20
0.9599999999999964
 10
8.625
 20
0.0000000000000009
  0
LWPOLYLINE
  5
D66
330
9429
100
AcDbEntity
  8
TITLEBLOCK
100
AcDbPolyline
 90
        2
 70
     0
 43
0.0128
 10
8.625
 20
0.0000000000000009
 10
8.625
 20
1.6
  0
LWPOLYLINE
  5
D6A
330
9429
100
AcDbEntity
  8
TITLEBLOCK
100
AcDbPolyline
 90
        2
 70
     0
 43
0.0128
 10
13.49242200000007
 20
1.599999999999995
 10
13.49242200000007
 20
0.0000000000000009
  0
TEXT
  5
D6E
330
9429
100
AcDbEntity
  8
TITLEBLOCK
100
AcDbText
 10
13.77242200000007
 20
0.2099999999999964
 30
0.0
 40
0.1
  1
2 PLACE DECIMALS
  7
SIMPLEX
100
AcDbText
  0
TEXT
  5
D6F
330
9429
100
AcDbEntity
  8
TITLEBLOCK
100
AcDbText
 10
13.62242200000007
 20
0.4474999999999972
 30
0.0
 40
0.1
  1
UNLESS OTHERWISE SPECIFIED
  7
SIMPLEX
100
AcDbText
  0
TEXT
  5
D70
330
9429
100
AcDbEntity
  8
TITLEBLOCK
100
AcDbText
 10
15.57242200000007
 20
0.2099999999999964
 30
0.0
 40
0.1
  1
.01
  7
SIMPLEX
100
AcDbText
  0
LINE
  5
D71
330
9429
100
AcDbEntity
  8
TITLEBLOCK
100
AcDbLine
 10
15.35492200000008
 20
0.2187499999999973
 30
0.0
 11
15.45492200000008
 21
0.2187499999999973
 31
0.0
  0
TEXT
  5
D72
330
9429
100
AcDbEntity
  8
TITLEBLOCK
100
AcDbText
 10
15.35992200000007
 20
0.2474999999999961
 30
0.0
 40
0.1
  1
+
  7
SIMPLEX
100
AcDbText
  0
LWPOLYLINE
  5
D73
330
9429
100
AcDbEntity
  8
TITLEBLOCK
100
AcDbPolyline
 90
        2
 70
     0
 43
0.0128
 10
16.00492200000007
 20
1.599999999999995
 10
13.49242200000007
 20
1.599999999999995
  0
TEXT
  5
D77
330
9429
100
AcDbEntity
  8
TITLEBLOCK
100
AcDbText
 10
13.62242200000007
 20
1.147499999999996
 30
0.0
 40
0.1
  1
PROJECTION
  7
SIMPLEX
100
AcDbText
  0
TEXT
  5
D78
330
9429
100
AcDbEntity
  8
TITLEBLOCK
100
AcDbText
 10
13.55992200000007
 20
1.347499999999997
 30
0.0
 40
0.1
  1
THIRD ANGLE
  7
SIMPLEX
100
AcDbText
  0
LINE
  5
D79
330
9429
100
AcDbEntity
  8
TITLEBLOCK
100
AcDbLine
 10
14.69692486880008
 20
1.300351715199997
 30
0.0
 11
15.91292523520008
 21
1.300351715199997
 31
0.0
  0
TEXT
  5
D7A
330
9429
100
AcDbEntity
  8
TITLEBLOCK
100
AcDbText
 10
14.04742200000008
 20
0.6974999999999972
 30
0.0
 40
0.15
  1
%%uTOLERANCES
  7
SIMPLEX
100
AcDbText
  0
LINE
  5
D7B
330
9429
100
AcDbEntity
  8
TITLEBLOCK
100
AcDbLine
 10
14.95292615040008
 20
1.396354294399999
 30
0.0
 11
14.95292615040008
 21
1.524354553599997
 31
0.0
  0
CIRCLE
  5
D7C
330
9429
100
AcDbEntity
  8
TITLEBLOCK
100
AcDbCircle
 10
14.95292615040008
 20
1.300352668799996
 30
0.0
 40
0.1279999615999998
  0
CIRCLE
  5
D7D
330
9429
100
AcDbEntity
  8
TITLEBLOCK
100
AcDbCircle
 10
14.95292615040008
 20
1.300352668799996
 30
0.0
 40
0.064000004799999
  0
LINE
  5
D7E
330
9429
100
AcDbEntity
  8
TITLEBLOCK
100
AcDbLine
 10
14.95292615040008
 20
1.332351302399996
 30
0.0
 11
14.95292615040008
 21
1.268351172799996
 31
0.0
  0
LINE
  5
D7F
330
9429
100
AcDbEntity
  8
TITLEBLOCK
100
AcDbLine
 10
14.95292615040008
 20
1.204351996799997
 30
0.0
 11
14.95292615040008
 21
1.076351737599998
 31
0.0
  0
LINE
  5
D80
330
9429
100
AcDbEntity
  8
TITLEBLOCK
100
AcDbLine
 10
15.78492230560007
 20
1.172351455999998
 30
0.0
 11
15.33692425760007
 21
1.236351585599996
 31
0.0
  0
LINE
  5
D81
330
9429
100
AcDbEntity
  8
TITLEBLOCK
100
AcDbLine
 10
15.33692425760007
 20
1.364351844799998
 30
0.0
 11
15.78492230560007
 21
1.428351020799996
 31
0.0
  0
LINE
  5
D82
330
9429
100
AcDbEntity
  8
TITLEBLOCK
100
AcDbLine
 10
15.33692425760007
 20
1.236351585599996
 30
0.0
 11
15.33692425760007
 21
1.364351844799998
 31
0.0
  0
LINE
  5
D83
330
9429
100
AcDbEntity
  8
TITLEBLOCK
100
AcDbLine
 10
15.78492230560007
 20
1.428351020799996
 30
0.0
 11
15.78492230560007
 21
1.172351455999998
 31
0.0
  0
ENDBLK
  5
D85
330
9429
100
AcDbEntity
  8
0
100
AcDbBlockEnd
  0
BLOCK
  5
8909
330
942A
100
AcDbEntity
  8
0
100
AcDbBlockBegin
  2
REF2
 70
     2
 10
0.0
 20
0.0
 30
0.0
  3
REF2
  1

  0
ATTDEF
  5
88F7
330
942A
100
AcDbEntity
  8
TEXT1
100
AcDbText
 10
1.999999999999999
 20
0.2204373050885353
 30
0.0
 40
0.125
  1

100
AcDbAttributeDefinition
  3
Mounting Hardware?
  2
MOUNTING_HWD
 70
     0
  0
ATTDEF
  5
88F8
330
942A
100
AcDbEntity
  8
TEXT1
100
AcDbText
 10
1.999999999999999
 20
0.4484790897328282
 30
0.0
 40
0.125
  1

100
AcDbAttributeDefinition
  3
Terminal Torque
  2
TERM_TORQUE
 70
     0
  0
ATTDEF
  5
88F9
330
942A
100
AcDbEntity
  8
TEXT1
100
AcDbText
 10
1.999999999999999
 20
0.6579373050885355
 30
0.0
 40
0.125
  1

100
AcDbAttributeDefinition
  3
Wire Size?
  2
WIRE_SIZE
 70
     0
  0
ATTDEF
  5
88FA
330
942A
100
AcDbEntity
  8
TEXT1
100
AcDbText
 10
1.999999999999999
 20
0.8564164127663893
 30
0.0
 40
0.125
  1

100
AcDbAttributeDefinition
  3
Weight?
  2
WEIGHT
 70
     0
  0
ATTDEF
  5
88FB
330
942A
100
AcDbEntity
  8
TEXT1
100
AcDbText
 10
1.999999999999999
 20
1.0625
 30
0.0
 40
0.125
  1

100
AcDbAttributeDefinition
  3
Meets Standards
  2
STANDARDS
 70
     0
  0
ATTDEF
  5
88FC
330
942A
100
AcDbEntity
  8
TEXT1
100
AcDbText
 10
1.999999999999999
 20
1.293916394821363
 30
0.0
 40
0.125
  1

100
AcDbAttributeDefinition
  3
CSA File/Guide
  2
CSA
 70
     0
  0
ATTDEF
  5
88FD
330
942A
100
AcDbEntity
  8
TEXT1
100
AcDbText
 10
2.010983301335642
 20
1.5
 30
0.0
 40
0.125
  1

100
AcDbAttributeDefinition
  3
UL File/Guide?
  2
UL
 70
     0
  0
ATTDEF
  5
88FE
330
942A
100
AcDbEntity
  8
TEXT1
100
AcDbText
 10
1.999999999999999
 20
1.720437305088535
 30
0.0
 40
0.125
  1

100
AcDbAttributeDefinition
  3
Ratings?
  2
RATING
 70
     0
  0
ATTDEF
  5
88FF
330
942A
100
AcDbEntity
  8
TEXT1
100
AcDbText
 10
1.999999999999999
 20
1.9375
 30
0.0
 40
0.125
  1

100
AcDbAttributeDefinition
  3
Catalog Number?
  2
CATALOG
 70
     0
  0
TEXT
  5
8900
330
942A
100
AcDbEntity
  8
TEXT1
100
AcDbText
 10
0.1875
 20
0.223214285714286
 30
0.0
 40
0.125
  1
Mounting Hwd.:
100
AcDbText
  0
TEXT
  5
8901
330
942A
100
AcDbEntity
  8
TEXT1
100
AcDbText
 10
0.1875
 20
0.4375000000000002
 30
0.0
 40
0.125
  1
Terminal torque:
100
AcDbText
  0
TEXT
  5
8902
330
942A
100
AcDbEntity
  8
TEXT1
100
AcDbText
 10
0.1875
 20
0.6517857142857146
 30
0.0
 40
0.125
  1
Wire Size:
100
AcDbText
  0
TEXT
  5
8903
330
942A
100
AcDbEntity
  8
TEXT1
100
AcDbText
 10
0.1875
 20
0.8660714285714286
 30
0.0
 40
0.125
  1
Weight:
100
AcDbText
  0
TEXT
  5
8904
330
942A
100
AcDbEntity
  8
TEXT1
100
AcDbText
 10
0.1875
 20
1.080357142857142
 30
0.0
 40
0.125
  1
Meets Standards:
100
AcDbText
  0
TEXT
  5
8905
330
942A
100
AcDbEntity
  8
TEXT1
100
AcDbText
 10
0.1875
 20
1.294642857142857
 30
0.0
 40
0.125
  1
CSA File/Class:
100
AcDbText
  0
TEXT
  5
8906
330
942A
100
AcDbEntity
  8
TEXT1
100
AcDbText
 10
0.1875
 20
1.508928571428572
 30
0.0
 40
0.125
  1
UL File/CCN:
100
AcDbText
  0
TEXT
  5
8907
330
942A
100
AcDbEntity
  8
TEXT1
100
AcDbText
 10
0.1875
 20
1.723214285714286
 30
0.0
 40
0.125
  1
Ratings:
100
AcDbText
  0
TEXT
  5
8908
330
942A
100
AcDbEntity
  8
TEXT1
100
AcDbText
 10
0.1875
 20
1.9375
 30
0.0
 40
0.125
  1
Catalog Number:
100
AcDbText
  0
ENDBLK
  5
890A
330
942A
100
AcDbEntity
  8
0
100
AcDbBlockEnd
  0
BLOCK
  5
921C
330
942B
100
AcDbEntity
  8
0
100
AcDbBlockBegin
  2
*D4
 70
     1
 10
0.0
 20
0.0
 30
0.0
  3
*D4
  1

  0
LINE
  5
921D
330
942B
100
AcDbEntity
  8
0
  6
ByBlock
100
AcDbLine
 10
27.05914390495777
 20
12.00208849553687
 30
0.0
 11
30.1495302941413
 21
12.00208849553687
 31
0.0
  0
LINE
  5
921E
330
942B
100
AcDbEntity
  8
0
  6
ByBlock
100
AcDbLine
 10
27.51807967195338
 20
7.450088495536874
 30
0.0
 11
30.1495302941413
 21
7.450088495536874
 31
0.0
  0
LINE
  5
921F
330
942B
100
AcDbEntity
  8
0
  6
ByBlock
100
AcDbLine
 10
30.0245302941413
 20
11.86208849553687
 30
0.0
 11
30.0245302941413
 21
9.886088495536874
 31
0.0
  0
LINE
  5
9220
330
942B
100
AcDbEntity
  8
0
  6
ByBlock
100
AcDbLine
 10
30.0245302941413
 20
7.590088495536874
 30
0.0
 11
30.0245302941413
 21
9.566088495536874
 31
0.0
  0
SOLID
  5
9221
330
942B
100
AcDbEntity
  8
0
  6
ByBlock
100
AcDbTrace
 10
30.00119696080796
 20
11.86208849553687
 30
0.0
 11
30.04786362747463
 21
11.86208849553687
 31
0.0
 12
30.0245302941413
 22
12.00208849553687
 32
0.0
 13
30.0245302941413
 23
12.00208849553687
 33
0.0
  0
SOLID
  5
9222
330
942B
100
AcDbEntity
  8
0
  6
ByBlock
100
AcDbTrace
 10
30.00119696080796
 20
7.590088495536874
 30
0.0
 11
30.04786362747463
 21
7.590088495536874
 31
0.0
 12
30.0245302941413
 22
7.450088495536874
 32
0.0
 13
30.0245302941413
 23
7.450088495536874
 33
0.0
  0
TEXT
  5
9223
330
942B
100
AcDbEntity
  8
0
  6
ByBlock
100
AcDbText
 10
29.75786362747463
 20
9.646088495536874
 30
0.0
 40
0.16
  1
4.55
  7
ROMANS
100
AcDbText
  0
POINT
  5
9224
330
942B
100
AcDbEntity
  8
DEFPOINTS
  6
ByBlock
 62
     0
100
AcDbPoint
 10
26.93414390495777
 20
12.00208849553687
 30
0.0
  0
POINT
  5
9225
330
942B
100
AcDbEntity
  8
DEFPOINTS
  6
ByBlock
 62
     0
100
AcDbPoint
 10
27.39307967195339
 20
7.450088495536874
 30
0.0
  0
POINT
  5
9226
330
942B
100
AcDbEntity
  8
DEFPOINTS
  6
ByBlock
 62
     0
100
AcDbPoint
 10
30.0245302941413
 20
7.450088495536874
 30
0.0
  0
ENDBLK
  5
9227
330
942B
100
AcDbEntity
  8
0
100
AcDbBlockEnd
  0
BLOCK
  5
9228
330
942C
100
AcDbEntity
  8
0
100
AcDbBlockBegin
  2
*D5
 70
     1
 10
0.0
 20
0.0
 30
0.0
  3
*D5
  1

  0
LINE
  5
9229
330
942C
100
AcDbEntity
  8
0
  6
ByBlock
100
AcDbLine
 10
24.2749454443715
 20
8.277914142899277
 30
0.0
 11
24.2749454443715
 21
6.0197411558912
 31
0.0
  0
LINE
  5
922A
330
942C
100
AcDbEntity
  8
0
  6
ByBlock
100
AcDbLine
 10
29.1345068923723
 20
9.372088495536878
 30
0.0
 11
29.1345068923723
 21
6.0197411558912
 31
0.0
  0
LINE
  5
922B
330
942C
100
AcDbEntity
  8
0
  6
ByBlock
100
AcDbLine
 10
24.4149454443715
 20
6.1447411558912
 30
0.0
 11
26.38091664456237
 21
6.1447411558912
 31
0.0
  0
LINE
  5
922C
330
942C
100
AcDbEntity
  8
0
  6
ByBlock
100
AcDbLine
 10
28.99450689237229
 20
6.1447411558912
 30
0.0
 11
27.02853569218142
 21
6.1447411558912
 31
0.0
  0
SOLID
  5
922D
330
942C
100
AcDbEntity
  8
0
  6
ByBlock
100
AcDbTrace
 10
24.4149454443715
 20
6.168074489224533
 30
0.0
 11
24.4149454443715
 21
6.121407822557866
 31
0.0
 12
24.2749454443715
 22
6.1447411558912
 32
0.0
 13
24.2749454443715
 23
6.1447411558912
 33
0.0
  0
SOLID
  5
922E
330
942C
100
AcDbEntity
  8
0
  6
ByBlock
100
AcDbTrace
 10
28.99450689237229
 20
6.168074489224533
 30
0.0
 11
28.99450689237229
 21
6.121407822557866
 31
0.0
 12
29.1345068923723
 22
6.1447411558912
 32
0.0
 13
29.1345068923723
 23
6.1447411558912
 33
0.0
  0
TEXT
  5
922F
330
942C
100
AcDbEntity
  8
0
  6
ByBlock
100
AcDbText
 10
26.43805950170523
 20
6.0647411558912
 30
0.0
 40
0.16
  1
4.86
  7
ROMANS
100
AcDbText
  0
POINT
  5
9230
330
942C
100
AcDbEntity
  8
DEFPOINTS
  6
ByBlock
 62
     0
100
AcDbPoint
 10
24.2749454443715
 20
8.402914142899277
 30
0.0
  0
POINT
  5
9231
330
942C
100
AcDbEntity
  8
DEFPOINTS
  6
ByBlock
 62
     0
100
AcDbPoint
 10
29.1345068923723
 20
9.497088495536878
 30
0.0
  0
POINT
  5
9232
330
942C
100
AcDbEntity
  8
DEFPOINTS
  6
ByBlock
 62
     0
100
AcDbPoint
 10
29.1345068923723
 20
6.1447411558912
 30
0.0
  0
ENDBLK
  5
9233
330
942C
100
AcDbEntity
  8
0
100
AcDbBlockEnd
  0
BLOCK
  5
9234
330
942D
100
AcDbEntity
  8
0
100
AcDbBlockBegin
  2
*D6
 70
     1
 10
0.0
 20
0.0
 30
0.0
  3
*D6
  1

  0
LINE
  5
9235
330
942D
100
AcDbEntity
  8
0
  6
ByBlock
100
AcDbLine
 10
24.2749454443715
 20
8.277914142899277
 30
0.0
 11
24.2749454443715
 21
6.669619960897408
 31
0.0
  0
LINE
  5
9236
330
942D
100
AcDbEntity
  8
0
  6
ByBlock
100
AcDbLine
 10
28.56614932902304
 20
8.213124047082972
 30
0.0
 11
28.56614932902304
 21
6.669619960897408
 31
0.0
  0
LINE
  5
9237
330
942D
100
AcDbEntity
  8
0
  6
ByBlock
100
AcDbLine
 10
24.4149454443715
 20
6.794619960897408
 30
0.0
 11
26.10054738669727
 21
6.794619960897408
 31
0.0
  0
LINE
  5
9238
330
942D
100
AcDbEntity
  8
0
  6
ByBlock
100
AcDbLine
 10
28.42614932902304
 20
6.794619960897408
 30
0.0
 11
26.74054738669727
 21
6.794619960897408
 31
0.0
  0
SOLID
  5
9239
330
942D
100
AcDbEntity
  8
0
  6
ByBlock
100
AcDbTrace
 10
24.4149454443715
 20
6.817953294230742
 30
0.0
 11
24.4149454443715
 21
6.771286627564075
 31
0.0
 12
24.2749454443715
 22
6.794619960897408
 32
0.0
 13
24.2749454443715
 23
6.794619960897408
 33
0.0
  0
SOLID
  5
923A
330
942D
100
AcDbEntity
  8
0
  6
ByBlock
100
AcDbTrace
 10
28.42614932902304
 20
6.817953294230742
 30
0.0
 11
28.42614932902304
 21
6.771286627564075
 31
0.0
 12
28.56614932902304
 22
6.794619960897408
 32
0.0
 13
28.56614932902304
 23
6.794619960897408
 33
0.0
  0
TEXT
  5
923B
330
942D
100
AcDbEntity
  8
0
  6
ByBlock
100
AcDbText
 10
26.15769024384013
 20
6.714619960897408
 30
0.0
 40
0.16
  1
4.29
  7
ROMANS
100
AcDbText
  0
POINT
  5
923C
330
942D
100
AcDbEntity
  8
DEFPOINTS
  6
ByBlock
 62
     0
100
AcDbPoint
 10
24.2749454443715
 20
8.402914142899277
 30
0.0
  0
POINT
  5
923D
330
942D
100
AcDbEntity
  8
DEFPOINTS
  6
ByBlock
 62
     0
100
AcDbPoint
 10
28.56614932902304
 20
8.338124047082972
 30
0.0
  0
POINT
  5
923E
330
942D
100
AcDbEntity
  8
DEFPOINTS
  6
ByBlock
 62
     0
100
AcDbPoint
 10
28.56614932902304
 20
6.794619960897408
 30
0.0
  0
ENDBLK
  5
923F
330
942D
100
AcDbEntity
  8
0
100
AcDbBlockEnd
  0
BLOCK
  5
9240
330
942E
100
AcDbEntity
  8
0
100
AcDbBlockBegin
  2
*D7
 70
     1
 10
0.0
 20
0.0
 30
0.0
  3
*D7
  1

  0
LINE
  5
9241
330
942E
100
AcDbEntity
  8
0
  6
ByBlock
100
AcDbLine
 10
15.87643525580777
 20
7.32508849553688
 30
0.0
 11
15.87643525580777
 21
5.87206349553687
 31
0.0
  0
LINE
  5
9242
330
942E
100
AcDbEntity
  8
0
  6
ByBlock
100
AcDbLine
 10
18.63643525580777
 20
7.32508849553688
 30
0.0
 11
18.63643525580777
 21
5.87206349553687
 31
0.0
  0
LINE
  5
9243
330
942E
100
AcDbEntity
  8
0
  6
ByBlock
100
AcDbLine
 10
16.01643525580777
 20
5.99706349553687
 30
0.0
 11
16.93262573199825
 21
5.99706349553687
 31
0.0
  0
LINE
  5
9244
330
942E
100
AcDbEntity
  8
0
  6
ByBlock
100
AcDbLine
 10
18.49643525580777
 20
5.99706349553687
 30
0.0
 11
17.5802447796173
 21
5.99706349553687
 31
0.0
  0
SOLID
  5
9245
330
942E
100
AcDbEntity
  8
0
  6
ByBlock
100
AcDbTrace
 10
16.01643525580777
 20
6.020396828870204
 30
0.0
 11
16.01643525580777
 21
5.973730162203537
 31
0.0
 12
15.87643525580777
 22
5.99706349553687
 32
0.0
 13
15.87643525580777
 23
5.99706349553687
 33
0.0
  0
SOLID
  5
9246
330
942E
100
AcDbEntity
  8
0
  6
ByBlock
100
AcDbTrace
 10
18.49643525580777
 20
6.020396828870204
 30
0.0
 11
18.49643525580777
 21
5.973730162203537
 31
0.0
 12
18.63643525580777
 22
5.99706349553687
 32
0.0
 13
18.63643525580777
 23
5.99706349553687
 33
0.0
  0
TEXT
  5
9247
330
942E
100
AcDbEntity
  8
0
  6
ByBlock
100
AcDbText
 10
16.98976858914111
 20
5.91706349553687
 30
0.0
 40
0.16
  1
2.76
  7
ROMANS
100
AcDbText
  0
POINT
  5
9248
330
942E
100
AcDbEntity
  8
DEFPOINTS
  6
ByBlock
 62
     0
100
AcDbPoint
 10
15.87643525580777
 20
7.45008849553688
 30
0.0
  0
POINT
  5
9249
330
942E
100
AcDbEntity
  8
DEFPOINTS
  6
ByBlock
 62
     0
100
AcDbPoint
 10
18.63643525580777
 20
7.45008849553688
 30
0.0
  0
POINT
  5
924A
330
942E
100
AcDbEntity
  8
DEFPOINTS
  6
ByBlock
 62
     0
100
AcDbPoint
 10
18.63643525580777
 20
5.99706349553687
 30
0.0
  0
ENDBLK
  5
924B
330
942E
100
AcDbEntity
  8
0
100
AcDbBlockEnd
  0
BLOCK
  5
924C
330
942F
100
AcDbEntity
  8
0
100
AcDbBlockBegin
  2
*D8
 70
     1
 10
0.0
 20
0.0
 30
0.0
  3
*D8
  1

  0
LINE
  5
924D
330
942F
100
AcDbEntity
  8
0
  6
ByBlock
100
AcDbLine
 10
17.80344878936459
 20
8.847586995536881
 30
0.0
 11
17.80344878936459
 21
6.43456349553687
 31
0.0
  0
LINE
  5
924E
330
942F
100
AcDbEntity
  8
0
  6
ByBlock
100
AcDbLine
 10
18.63643525580777
 20
8.88758699553688
 30
0.0
 11
18.63643525580777
 21
6.43456349553687
 31
0.0
  0
LINE
  5
924F
330
942F
100
AcDbEntity
  8
0
  6
ByBlock
100
AcDbLine
 10
17.66344878936459
 20
6.55956349553687
 30
0.0
 11
17.52344878936459
 21
6.55956349553687
 31
0.0
  0
LINE
  5
9250
330
942F
100
AcDbEntity
  8
0
  6
ByBlock
100
AcDbLine
 10
18.77643525580777
 20
6.55956349553687
 30
0.0
 11
18.91643525580777
 21
6.55956349553687
 31
0.0
  0
SOLID
  5
9251
330
942F
100
AcDbEntity
  8
0
  6
ByBlock
100
AcDbTrace
 10
17.66344878936459
 20
6.582896828870204
 30
0.0
 11
17.66344878936459
 21
6.536230162203537
 31
0.0
 12
17.80344878936459
 22
6.55956349553687
 32
0.0
 13
17.80344878936459
 23
6.55956349553687
 33
0.0
  0
SOLID
  5
9252
330
942F
100
AcDbEntity
  8
0
  6
ByBlock
100
AcDbTrace
 10
18.77643525580777
 20
6.582896828870204
 30
0.0
 11
18.77643525580777
 21
6.536230162203537
 31
0.0
 12
18.63643525580777
 22
6.55956349553687
 32
0.0
 13
18.63643525580777
 23
6.55956349553687
 33
0.0
  0
TEXT
  5
9253
330
942F
100
AcDbEntity
  8
0
  6
ByBlock
100
AcDbText
 10
18.02565630830047
 20
6.47956349553687
 30
0.0
 40
0.16
  1
.83
  7
ROMANS
100
AcDbText
  0
POINT
  5
9254
330
942F
100
AcDbEntity
  8
DEFPOINTS
  6
ByBlock
 62
     0
100
AcDbPoint
 10
17.80344878936459
 20
8.972586995536881
 30
0.0
  0
POINT
  5
9255
330
942F
100
AcDbEntity
  8
DEFPOINTS
  6
ByBlock
 62
     0
100
AcDbPoint
 10
18.63643525580777
 20
9.01258699553688
 30
0.0
  0
POINT
  5
9256
330
942F
100
AcDbEntity
  8
DEFPOINTS
  6
ByBlock
 62
     0
100
AcDbPoint
 10
18.63643525580777
 20
6.55956349553687
 30
0.0
  0
ENDBLK
  5
9257
330
942F
100
AcDbEntity
  8
0
100
AcDbBlockEnd
  0
BLOCK
  5
9258
330
9430
100
AcDbEntity
  8
0
100
AcDbBlockBegin
  2
*D9
 70
     1
 10
0.0
 20
0.0
 30
0.0
  3
*D9
  1

  0
LINE
  5
9259
330
9430
100
AcDbEntity
  8
0
  6
ByBlock
100
AcDbLine
 10
17.45877029994273
 20
8.722587245536882
 30
0.0
 11
17.45877029994273
 21
7.05956349553687
 31
0.0
  0
LINE
  5
925A
330
9430
100
AcDbEntity
  8
0
  6
ByBlock
100
AcDbLine
 10
18.63643525580777
 20
8.762587245536881
 30
0.0
 11
18.63643525580777
 21
7.05956349553687
 31
0.0
  0
LINE
  5
925B
330
9430
100
AcDbEntity
  8
0
  6
ByBlock
100
AcDbLine
 10
17.59877029994273
 20
7.18456349553687
 30
0.0
 11
17.7352218254943
 21
7.18456349553687
 31
0.0
  0
LINE
  5
925C
330
9430
100
AcDbEntity
  8
0
  6
ByBlock
100
AcDbLine
 10
18.49643525580777
 20
7.18456349553687
 30
0.0
 11
18.3599837302562
 21
7.18456349553687
 31
0.0
  0
SOLID
  5
925D
330
9430
100
AcDbEntity
  8
0
  6
ByBlock
100
AcDbTrace
 10
17.59877029994273
 20
7.207896828870204
 30
0.0
 11
17.59877029994273
 21
7.161230162203537
 31
0.0
 12
17.45877029994273
 22
7.18456349553687
 32
0.0
 13
17.45877029994273
 23
7.18456349553687
 33
0.0
  0
SOLID
  5
925E
330
9430
100
AcDbEntity
  8
0
  6
ByBlock
100
AcDbTrace
 10
18.49643525580777
 20
7.207896828870204
 30
0.0
 11
18.49643525580777
 21
7.161230162203537
 31
0.0
 12
18.63643525580777
 22
7.18456349553687
 32
0.0
 13
18.63643525580777
 23
7.18456349553687
 33
0.0
  0
TEXT
  5
925F
330
9430
100
AcDbEntity
  8
0
  6
ByBlock
100
AcDbText
 10
17.76950753978001
 20
7.10456349553687
 30
0.0
 40
0.16
  1
1.18
  7
ROMANS
100
AcDbText
  0
POINT
  5
9260
330
9430
100
AcDbEntity
  8
DEFPOINTS
  6
ByBlock
 62
     0
100
AcDbPoint
 10
17.45877029994273
 20
8.847587245536882
 30
0.0
  0
POINT
  5
9261
330
9430
100
AcDbEntity
  8
DEFPOINTS
  6
ByBlock
 62
     0
100
AcDbPoint
 10
18.63643525580777
 20
8.887587245536881
 30
0.0
  0
POINT
  5
9262
330
9430
100
AcDbEntity
  8
DEFPOINTS
  6
ByBlock
 62
     0
100
AcDbPoint
 10
18.63643525580777
 20
7.18456349553687
 30
0.0
  0
ENDBLK
  5
9263
330
9430
100
AcDbEntity
  8
0
100
AcDbBlockEnd
  0
BLOCK
  5
9264
330
9431
100
AcDbEntity
  8
0
100
AcDbBlockBegin
  2
*D10
 70
     1
 10
0.0
 20
0.0
 30
0.0
  3
*D10
  1

  0
LINE
  5
9265
330
9431
100
AcDbEntity
  8
0
  6
ByBlock
100
AcDbLine
 10
19.15793525580777
 20
12.00208849553688
 30
0.0
 11
20.06745820621025
 21
12.00208849553688
 31
0.0
  0
LINE
  5
9266
330
9431
100
AcDbEntity
  8
0
  6
ByBlock
100
AcDbLine
 10
17.92844878936459
 20
8.972586995536881
 30
0.0
 11
20.06745820621025
 21
8.972586995536881
 31
0.0
  0
LINE
  5
9267
330
9431
100
AcDbEntity
  8
0
  6
ByBlock
100
AcDbLine
 10
19.94245820621025
 20
11.86208849553687
 30
0.0
 11
19.94245820621025
 21
10.64733774553688
 31
0.0
  0
LINE
  5
9268
330
9431
100
AcDbEntity
  8
0
  6
ByBlock
100
AcDbLine
 10
19.94245820621025
 20
9.112586995536881
 30
0.0
 11
19.94245820621025
 21
10.32733774553687
 31
0.0
  0
SOLID
  5
9269
330
9431
100
AcDbEntity
  8
0
  6
ByBlock
100
AcDbTrace
 10
19.91912487287692
 20
11.86208849553687
 30
0.0
 11
19.96579153954359
 21
11.86208849553687
 31
0.0
 12
19.94245820621025
 22
12.00208849553688
 32
0.0
 13
19.94245820621025
 23
12.00208849553688
 33
0.0
  0
SOLID
  5
926A
330
9431
100
AcDbEntity
  8
0
  6
ByBlock
100
AcDbTrace
 10
19.91912487287692
 20
9.112586995536881
 30
0.0
 11
19.96579153954359
 21
9.112586995536881
 31
0.0
 12
19.94245820621025
 22
8.972586995536881
 32
0.0
 13
19.94245820621025
 23
8.972586995536881
 33
0.0
  0
TEXT
  5
926B
330
9431
100
AcDbEntity
  8
0
  6
ByBlock
100
AcDbText
 10
19.67579153954359
 20
10.40733774553687
 30
0.0
 40
0.16
  1
3.03
  7
ROMANS
100
AcDbText
  0
POINT
  5
926C
330
9431
100
AcDbEntity
  8
DEFPOINTS
  6
ByBlock
 62
     0
100
AcDbPoint
 10
19.03293525580777
 20
12.00208849553688
 30
0.0
  0
POINT
  5
926D
330
9431
100
AcDbEntity
  8
DEFPOINTS
  6
ByBlock
 62
     0
100
AcDbPoint
 10
17.80344878936459
 20
8.972586995536881
 30
0.0
  0
POINT
  5
926E
330
9431
100
AcDbEntity
  8
DEFPOINTS
  6
ByBlock
 62
     0
100
AcDbPoint
 10
19.94245820621025
 20
8.972586995536881
 30
0.0
  0
ENDBLK
  5
926F
330
9431
100
AcDbEntity
  8
0
100
AcDbBlockEnd
  0
BLOCK
  5
9270
330
9432
100
AcDbEntity
  8
0
100
AcDbBlockBegin
  2
*D11
 70
     1
 10
0.0
 20
0.0
 30
0.0
  3
*D11
  1

  0
LINE
  5
9271
330
9432
100
AcDbEntity
  8
0
  6
ByBlock
100
AcDbLine
 10
27.51807967195338
 20
7.450088495536874
 30
0.0
 11
31.0968163136596
 21
7.450088495536874
 31
0.0
  0
LINE
  5
9272
330
9432
100
AcDbEntity
  8
0
  6
ByBlock
100
AcDbLine
 10
29.2595068923723
 20
14.49708849553688
 30
0.0
 11
31.0968163136596
 21
14.49708849553688
 31
0.0
  0
LINE
  5
9273
330
9432
100
AcDbEntity
  8
0
  6
ByBlock
100
AcDbLine
 10
30.9718163136596
 20
7.590088495536874
 30
0.0
 11
30.9718163136596
 21
10.81358849553687
 31
0.0
  0
LINE
  5
9274
330
9432
100
AcDbEntity
  8
0
  6
ByBlock
100
AcDbLine
 10
30.9718163136596
 20
14.35708849553687
 30
0.0
 11
30.9718163136596
 21
11.13358849553687
 31
0.0
  0
SOLID
  5
9275
330
9432
100
AcDbEntity
  8
0
  6
ByBlock
100
AcDbTrace
 10
30.94848298032626
 20
7.590088495536874
 30
0.0
 11
30.99514964699293
 21
7.590088495536874
 31
0.0
 12
30.9718163136596
 22
7.450088495536874
 32
0.0
 13
30.9718163136596
 23
7.450088495536874
 33
0.0
  0
SOLID
  5
9276
330
9432
100
AcDbEntity
  8
0
  6
ByBlock
100
AcDbTrace
 10
30.94848298032626
 20
14.35708849553687
 30
0.0
 11
30.99514964699293
 21
14.35708849553687
 31
0.0
 12
30.9718163136596
 22
14.49708849553688
 32
0.0
 13
30.9718163136596
 23
14.49708849553688
 33
0.0
  0
TEXT
  5
9277
330
9432
100
AcDbEntity
  8
0
  6
ByBlock
100
AcDbText
 10
30.70514964699293
 20
10.89358849553687
 30
0.0
 40
0.16
  1
7.05
  7
ROMANS
100
AcDbText
  0
POINT
  5
9278
330
9432
100
AcDbEntity
  8
DEFPOINTS
  6
ByBlock
 62
     0
100
AcDbPoint
 10
27.39307967195339
 20
7.450088495536874
 30
0.0
  0
POINT
  5
9279
330
9432
100
AcDbEntity
  8
DEFPOINTS
  6
ByBlock
 62
     0
100
AcDbPoint
 10
29.1345068923723
 20
14.49708849553688
 30
0.0
  0
POINT
  5
927A
330
9432
100
AcDbEntity
  8
DEFPOINTS
  6
ByBlock
 62
     0
100
AcDbPoint
 10
30.9718163136596
 20
14.49708849553688
 30
0.0
  0
ENDBLK
  5
927B
330
9432
100
AcDbEntity
  8
0
100
AcDbBlockEnd
  0
BLOCK
  5
927C
330
9433
100
AcDbEntity
  8
0
100
AcDbBlockBegin
  2
*D12
 70
     1
 10
0.0
 20
0.0
 30
0.0
  3
*D12
  1

  0
LINE
  5
927D
330
9433
100
AcDbEntity
  8
0
  6
ByBlock
100
AcDbLine
 10
24.11744544437151
 20
8.762587245536881
 30
0.0
 11
24.11744544437151
 21
5.30956349553687
 31
0.0
  0
LINE
  5
927E
330
9433
100
AcDbEntity
  8
0
  6
ByBlock
100
AcDbLine
 10
24.2749454443715
 20
8.277914142899277
 30
0.0
 11
24.2749454443715
 21
5.30956349553687
 31
0.0
  0
LINE
  5
927F
330
9433
100
AcDbEntity
  8
0
  6
ByBlock
100
AcDbLine
 10
23.9774454443715
 20
5.43456349553687
 30
0.0
 11
23.83744544437151
 21
5.43456349553687
 31
0.0
  0
LINE
  5
9280
330
9433
100
AcDbEntity
  8
0
  6
ByBlock
100
AcDbLine
 10
24.4149454443715
 20
5.43456349553687
 30
0.0
 11
24.55494544437151
 21
5.43456349553687
 31
0.0
  0
SOLID
  5
9281
330
9433
100
AcDbEntity
  8
0
  6
ByBlock
100
AcDbTrace
 10
23.9774454443715
 20
5.457896828870204
 30
0.0
 11
23.9774454443715
 21
5.411230162203537
 31
0.0
 12
24.11744544437151
 22
5.43456349553687
 32
0.0
 13
24.11744544437151
 23
5.43456349553687
 33
0.0
  0
SOLID
  5
9282
330
9433
100
AcDbEntity
  8
0
  6
ByBlock
100
AcDbTrace
 10
24.4149454443715
 20
5.457896828870204
 30
0.0
 11
24.4149454443715
 21
5.411230162203537
 31
0.0
 12
24.2749454443715
 22
5.43456349553687
 32
0.0
 13
24.2749454443715
 23
5.43456349553687
 33
0.0
  0
TEXT
  5
9283
330
9433
100
AcDbEntity
  8
0
  6
ByBlock
100
AcDbText
 10
24.60446925389532
 20
5.35456349553687
 30
0.0
 40
0.16
  1
.16
  7
ROMANS
100
AcDbText
  0
POINT
  5
9284
330
9433
100
AcDbEntity
  8
DEFPOINTS
  6
ByBlock
 62
     0
100
AcDbPoint
 10
24.11744544437151
 20
8.887587245536881
 30
0.0
  0
POINT
  5
9285
330
9433
100
AcDbEntity
  8
DEFPOINTS
  6
ByBlock
 62
     0
100
AcDbPoint
 10
24.2749454443715
 20
8.402914142899277
 30
0.0
  0
POINT
  5
9286
330
9433
100
AcDbEntity
  8
DEFPOINTS
  6
ByBlock
 62
     0
100
AcDbPoint
 10
24.2749454443715
 20
5.43456349553687
 30
0.0
  0
ENDBLK
  5
9287
330
9433
100
AcDbEntity
  8
0
100
AcDbBlockEnd
  0
BLOCK
  5
9288
330
9434
100
AcDbEntity
  8
0
100
AcDbBlockBegin
  2
*D13
 70
     1
 10
0.0
 20
0.0
 30
0.0
  3
*D13
  1

  0
LINE
  5
9289
330
9434
100
AcDbEntity
  8
0
  6
ByBlock
100
AcDbLine
 10
15.87643525580777
 20
14.32458849553688
 30
0.0
 11
15.87643525580777
 21
15.65320504240833
 31
0.0
  0
LINE
  5
928A
330
9434
100
AcDbEntity
  8
0
  6
ByBlock
100
AcDbLine
 10
19.21943525580777
 20
14.10658849553688
 30
0.0
 11
19.21943525580777
 21
15.65320504240833
 31
0.0
  0
LINE
  5
928B
330
9434
100
AcDbEntity
  8
0
  6
ByBlock
100
AcDbLine
 10
16.01643525580777
 20
15.52820504240833
 30
0.0
 11
17.22031620818873
 21
15.52820504240833
 31
0.0
  0
LINE
  5
928C
330
9434
100
AcDbEntity
  8
0
  6
ByBlock
100
AcDbLine
 10
19.07943525580777
 20
15.52820504240833
 30
0.0
 11
17.87555430342682
 21
15.52820504240833
 31
0.0
  0
SOLID
  5
928D
330
9434
100
AcDbEntity
  8
0
  6
ByBlock
100
AcDbTrace
 10
16.01643525580777
 20
15.55153837574166
 30
0.0
 11
16.01643525580777
 21
15.50487170907499
 31
0.0
 12
15.87643525580777
 22
15.52820504240833
 32
0.0
 13
15.87643525580777
 23
15.52820504240833
 33
0.0
  0
SOLID
  5
928E
330
9434
100
AcDbEntity
  8
0
  6
ByBlock
100
AcDbTrace
 10
19.07943525580777
 20
15.55153837574166
 30
0.0
 11
19.07943525580777
 21
15.50487170907499
 31
0.0
 12
19.21943525580777
 22
15.52820504240833
 32
0.0
 13
19.21943525580777
 23
15.52820504240833
 33
0.0
  0
TEXT
  5
928F
330
9434
100
AcDbEntity
  8
0
  6
ByBlock
100
AcDbText
 10
17.27745906533159
 20
15.44820504240833
 30
0.0
 40
0.16
  1
3.34
  7
ROMANS
100
AcDbText
  0
POINT
  5
9290
330
9434
100
AcDbEntity
  8
DEFPOINTS
  6
ByBlock
 62
     0
100
AcDbPoint
 10
15.87643525580777
 20
14.19958849553688
 30
0.0
  0
POINT
  5
9291
330
9434
100
AcDbEntity
  8
DEFPOINTS
  6
ByBlock
 62
     0
100
AcDbPoint
 10
19.21943525580777
 20
13.98158849553688
 30
0.0
  0
POINT
  5
9292
330
9434
100
AcDbEntity
  8
DEFPOINTS
  6
ByBlock
 62
     0
100
AcDbPoint
 10
19.21943525580777
 20
15.52820504240833
 30
0.0
  0
ENDBLK
  5
9293
330
9434
100
AcDbEntity
  8
0
100
AcDbBlockEnd
  0
BLOCK
  5
9488
330
947D
100
AcDbEntity
  8
0
100
AcDbBlockBegin
  2
*D14
 70
     1
 10
0.0
 20
0.0
 30
0.0
  3
*D14
  1

  0
LINE
  5
947E
330
947D
100
AcDbEntity
  8
DIM
370
    -2
100
AcDbLine
 10
27.05914390495777
 20
12.00208849553687
 30
0.0
 11
30.1495302941413
 21
12.00208849553687
 31
0.0
  0
LINE
  5
947F
330
947D
100
AcDbEntity
  8
DIM
370
    -2
100
AcDbLine
 10
27.51807967195338
 20
7.450088495536874
 30
0.0
 11
30.1495302941413
 21
7.450088495536873
 31
0.0
  0
LINE
  5
9480
330
947D
100
AcDbEntity
  8
DIM
370
    -2
100
AcDbLine
 10
30.0245302941413
 20
11.86208849553687
 30
0.0
 11
30.0245302941413
 21
9.886088495536874
 31
0.0
  0
LINE
  5
9481
330
947D
100
AcDbEntity
  8
DIM
370
    -2
100
AcDbLine
 10
30.0245302941413
 20
7.590088495536873
 30
0.0
 11
30.0245302941413
 21
9.566088495536874
 31
0.0
  0
SOLID
  5
9482
330
947D
100
AcDbEntity
  8
DIM
100
AcDbTrace
 10
30.00119696080797
 20
11.86208849553687
 30
0.0
 11
30.04786362747463
 21
11.86208849553687
 31
0.0
 12
30.0245302941413
 22
12.00208849553687
 32
0.0
 13
30.0245302941413
 23
12.00208849553687
 33
0.0
  0
SOLID
  5
9483
330
947D
100
AcDbEntity
  8
DIM
100
AcDbTrace
 10
30.00119696080796
 20
7.590088495536873
 30
0.0
 11
30.04786362747463
 21
7.590088495536873
 31
0.0
 12
30.0245302941413
 22
7.450088495536873
 32
0.0
 13
30.0245302941413
 23
7.450088495536873
 33
0.0
  0
MTEXT
  5
9484
330
947D
100
AcDbEntity
  8
DIM
100
AcDbMText
 10
30.0245302941413
 20
9.726088495536879
 30
0.0
 40
0.16
 41
0.0
 71
     5
 72
     1
  1
\A1;4.5500
  7
ROMANS
 73
     1
 44
1.0
  0
POINT
  5
9485
330
947D
100
AcDbEntity
  8
DEFPOINTS
 62
     0
100
AcDbPoint
 10
26.93414390495777
 20
12.00208849553687
 30
0.0
  0
POINT
  5
9486
330
947D
100
AcDbEntity
  8
DEFPOINTS
 62
     0
100
AcDbPoint
 10
27.39307967195339
 20
7.450088495536874
 30
0.0
  0
POINT
  5
9487
330
947D
100
AcDbEntity
  8
DEFPOINTS
 62
     0
100
AcDbPoint
 10
30.0245302941413
 20
7.450088495536873
 30
0.0
  0
ENDBLK
  5
9489
330
947D
100
AcDbEntity
  8
0
100
AcDbBlockEnd
  0
BLOCK
  5
9495
330
948A
100
AcDbEntity
  8
0
100
AcDbBlockBegin
  2
*D15
 70
     1
 10
0.0
 20
0.0
 30
0.0
  3
*D15
  1

  0
LINE
  5
948B
330
948A
100
AcDbEntity
  8
DIM
370
    -2
100
AcDbLine
 10
24.2749454443715
 20
8.277914142899277
 30
0.0
 11
24.2749454443715
 21
6.0197411558912
 31
0.0
  0
LINE
  5
948C
330
948A
100
AcDbEntity
  8
DIM
370
    -2
100
AcDbLine
 10
29.1345068923723
 20
9.372088495536878
 30
0.0
 11
29.1345068923723
 21
6.0197411558912
 31
0.0
  0
LINE
  5
948D
330
948A
100
AcDbEntity
  8
DIM
370
    -2
100
AcDbLine
 10
24.4149454443715
 20
6.1447411558912
 30
0.0
 11
26.22853569218142
 21
6.1447411558912
 31
0.0
  0
LINE
  5
948E
330
948A
100
AcDbEntity
  8
DIM
370
    -2
100
AcDbLine
 10
28.99450689237229
 20
6.1447411558912
 30
0.0
 11
27.18091664456238
 21
6.1447411558912
 31
0.0
  0
SOLID
  5
948F
330
948A
100
AcDbEntity
  8
DIM
100
AcDbTrace
 10
24.4149454443715
 20
6.168074489224533
 30
0.0
 11
24.4149454443715
 21
6.121407822557866
 31
0.0
 12
24.2749454443715
 22
6.1447411558912
 32
0.0
 13
24.2749454443715
 23
6.1447411558912
 33
0.0
  0
SOLID
  5
9490
330
948A
100
AcDbEntity
  8
DIM
100
AcDbTrace
 10
28.99450689237229
 20
6.168074489224533
 30
0.0
 11
28.99450689237229
 21
6.121407822557866
 31
0.0
 12
29.1345068923723
 22
6.1447411558912
 32
0.0
 13
29.1345068923723
 23
6.1447411558912
 33
0.0
  0
MTEXT
  5
9491
330
948A
100
AcDbEntity
  8
DIM
100
AcDbMText
 10
26.7047261683719
 20
6.1447411558912
 30
0.0
 40
0.16
 41
0.0
 71
     5
 72
     1
  1
\A1;4.8600
  7
ROMANS
 73
     1
 44
1.0
  0
POINT
  5
9492
330
948A
100
AcDbEntity
  8
DEFPOINTS
 62
     0
100
AcDbPoint
 10
24.2749454443715
 20
8.402914142899277
 30
0.0
  0
POINT
  5
9493
330
948A
100
AcDbEntity
  8
DEFPOINTS
 62
     0
100
AcDbPoint
 10
29.1345068923723
 20
9.497088495536878
 30
0.0
  0
POINT
  5
9494
330
948A
100
AcDbEntity
  8
DEFPOINTS
 62
     0
100
AcDbPoint
 10
29.1345068923723
 20
6.1447411558912
 30
0.0
  0
ENDBLK
  5
9496
330
948A
100
AcDbEntity
  8
0
100
AcDbBlockEnd
  0
BLOCK
  5
94A2
330
9497
100
AcDbEntity
  8
0
100
AcDbBlockBegin
  2
*D16
 70
     1
 10
0.0
 20
0.0
 30
0.0
  3
*D16
  1

  0
LINE
  5
9498
330
9497
100
AcDbEntity
  8
DIM
370
    -2
100
AcDbLine
 10
24.2749454443715
 20
8.277914142899277
 30
0.0
 11
24.2749454443715
 21
6.669619960897408
 31
0.0
  0
LINE
  5
9499
330
9497
100
AcDbEntity
  8
DIM
370
    -2
100
AcDbLine
 10
28.56614932902304
 20
8.213124047082972
 30
0.0
 11
28.56614932902304
 21
6.669619960897408
 31
0.0
  0
LINE
  5
949A
330
9497
100
AcDbEntity
  8
DIM
370
    -2
100
AcDbLine
 10
24.4149454443715
 20
6.794619960897408
 30
0.0
 11
25.9443569105068
 21
6.794619960897408
 31
0.0
  0
LINE
  5
949B
330
9497
100
AcDbEntity
  8
DIM
370
    -2
100
AcDbLine
 10
28.42614932902304
 20
6.794619960897408
 30
0.0
 11
26.89673786288774
 21
6.794619960897408
 31
0.0
  0
SOLID
  5
949C
330
9497
100
AcDbEntity
  8
DIM
100
AcDbTrace
 10
24.4149454443715
 20
6.817953294230742
 30
0.0
 11
24.4149454443715
 21
6.771286627564075
 31
0.0
 12
24.2749454443715
 22
6.794619960897408
 32
0.0
 13
24.2749454443715
 23
6.794619960897408
 33
0.0
  0
SOLID
  5
949D
330
9497
100
AcDbEntity
  8
DIM
100
AcDbTrace
 10
28.42614932902304
 20
6.817953294230742
 30
0.0
 11
28.42614932902304
 21
6.771286627564075
 31
0.0
 12
28.56614932902304
 22
6.794619960897408
 32
0.0
 13
28.56614932902304
 23
6.794619960897408
 33
0.0
  0
MTEXT
  5
949E
330
9497
100
AcDbEntity
  8
DIM
100
AcDbMText
 10
26.42054738669727
 20
6.794619960897408
 30
0.0
 40
0.16
 41
0.0
 71
     5
 72
     1
  1
\A1;4.2900
  7
ROMANS
 73
     1
 44
1.0
  0
POINT
  5
949F
330
9497
100
AcDbEntity
  8
DEFPOINTS
 62
     0
100
AcDbPoint
 10
24.2749454443715
 20
8.402914142899277
 30
0.0
  0
POINT
  5
94A0
330
9497
100
AcDbEntity
  8
DEFPOINTS
 62
     0
100
AcDbPoint
 10
28.56614932902304
 20
8.338124047082972
 30
0.0
  0
POINT
  5
94A1
330
9497
100
AcDbEntity
  8
DEFPOINTS
 62
     0
100
AcDbPoint
 10
28.56614932902304
 20
6.794619960897408
 30
0.0
  0
ENDBLK
  5
94A3
330
9497
100
AcDbEntity
  8
0
100
AcDbBlockEnd
  0
BLOCK
  5
94AF
330
94A4
100
AcDbEntity
  8
0
100
AcDbBlockBegin
  2
*D17
 70
     1
 10
0.0
 20
0.0
 30
0.0
  3
*D17
  1

  0
LINE
  5
94A5
330
94A4
100
AcDbEntity
  8
DIM
370
    -2
100
AcDbLine
 10
15.87643525580777
 20
7.32508849553688
 30
0.0
 11
15.87643525580777
 21
5.87206349553687
 31
0.0
  0
LINE
  5
94A6
330
94A4
100
AcDbEntity
  8
DIM
370
    -2
100
AcDbLine
 10
18.63643525580777
 20
7.32508849553688
 30
0.0
 11
18.63643525580777
 21
5.87206349553687
 31
0.0
  0
LINE
  5
94A7
330
94A4
100
AcDbEntity
  8
DIM
370
    -2
100
AcDbLine
 10
16.01643525580777
 20
5.99706349553687
 30
0.0
 11
16.7802447796173
 21
5.99706349553687
 31
0.0
  0
LINE
  5
94A8
330
94A4
100
AcDbEntity
  8
DIM
370
    -2
100
AcDbLine
 10
18.49643525580777
 20
5.99706349553687
 30
0.0
 11
17.73262573199825
 21
5.99706349553687
 31
0.0
  0
SOLID
  5
94A9
330
94A4
100
AcDbEntity
  8
DIM
100
AcDbTrace
 10
16.01643525580777
 20
6.020396828870204
 30
0.0
 11
16.01643525580777
 21
5.973730162203537
 31
0.0
 12
15.87643525580777
 22
5.99706349553687
 32
0.0
 13
15.87643525580777
 23
5.99706349553687
 33
0.0
  0
SOLID
  5
94AA
330
94A4
100
AcDbEntity
  8
DIM
100
AcDbTrace
 10
18.49643525580777
 20
6.020396828870204
 30
0.0
 11
18.49643525580777
 21
5.973730162203537
 31
0.0
 12
18.63643525580777
 22
5.99706349553687
 32
0.0
 13
18.63643525580777
 23
5.99706349553687
 33
0.0
  0
MTEXT
  5
94AB
330
94A4
100
AcDbEntity
  8
DIM
100
AcDbMText
 10
17.25643525580778
 20
5.99706349553687
 30
0.0
 40
0.16
 41
0.0
 71
     5
 72
     1
  1
\A1;2.7600
  7
ROMANS
 73
     1
 44
1.0
  0
POINT
  5
94AC
330
94A4
100
AcDbEntity
  8
DEFPOINTS
 62
     0
100
AcDbPoint
 10
15.87643525580777
 20
7.45008849553688
 30
0.0
  0
POINT
  5
94AD
330
94A4
100
AcDbEntity
  8
DEFPOINTS
 62
     0
100
AcDbPoint
 10
18.63643525580777
 20
7.45008849553688
 30
0.0
  0
POINT
  5
94AE
330
94A4
100
AcDbEntity
  8
DEFPOINTS
 62
     0
100
AcDbPoint
 10
18.63643525580777
 20
5.99706349553687
 30
0.0
  0
ENDBLK
  5
94B0
330
94A4
100
AcDbEntity
  8
0
100
AcDbBlockEnd
  0
BLOCK
  5
94BC
330
94B1
100
AcDbEntity
  8
0
100
AcDbBlockBegin
  2
*D18
 70
     1
 10
0.0
 20
0.0
 30
0.0
  3
*D18
  1

  0
LINE
  5
94B2
330
94B1
100
AcDbEntity
  8
DIM
370
    -2
100
AcDbLine
 10
17.80344878936459
 20
8.847586995536881
 30
0.0
 11
17.80344878936459
 21
6.43456349553687
 31
0.0
  0
LINE
  5
94B3
330
94B1
100
AcDbEntity
  8
DIM
370
    -2
100
AcDbLine
 10
18.63643525580777
 20
8.88758699553688
 30
0.0
 11
18.63643525580777
 21
6.43456349553687
 31
0.0
  0
LINE
  5
94B4
330
94B1
100
AcDbEntity
  8
DIM
370
    -2
100
AcDbLine
 10
17.66344878936459
 20
6.55956349553687
 30
0.0
 11
17.52344878936459
 21
6.55956349553687
 31
0.0
  0
LINE
  5
94B5
330
94B1
100
AcDbEntity
  8
DIM
370
    -2
100
AcDbLine
 10
18.77643525580777
 20
6.55956349553687
 30
0.0
 11
18.91643525580777
 21
6.55956349553687
 31
0.0
  0
SOLID
  5
94B6
330
94B1
100
AcDbEntity
  8
DIM
100
AcDbTrace
 10
17.66344878936459
 20
6.582896828870204
 30
0.0
 11
17.66344878936459
 21
6.536230162203537
 31
0.0
 12
17.80344878936459
 22
6.55956349553687
 32
0.0
 13
17.80344878936459
 23
6.55956349553687
 33
0.0
  0
SOLID
  5
94B7
330
94B1
100
AcDbEntity
  8
DIM
100
AcDbTrace
 10
18.77643525580777
 20
6.582896828870204
 30
0.0
 11
18.77643525580777
 21
6.536230162203537
 31
0.0
 12
18.63643525580777
 22
6.55956349553687
 32
0.0
 13
18.63643525580777
 23
6.55956349553687
 33
0.0
  0
MTEXT
  5
94B8
330
94B1
100
AcDbEntity
  8
DIM
100
AcDbMText
 10
18.21994202258618
 20
6.55956349553687
 30
0.0
 40
0.16
 41
0.0
 71
     5
 72
     1
  1
\A1;.8300
  7
ROMANS
 73
     1
 44
1.0
  0
POINT
  5
94B9
330
94B1
100
AcDbEntity
  8
DEFPOINTS
 62
     0
100
AcDbPoint
 10
17.80344878936459
 20
8.972586995536881
 30
0.0
  0
POINT
  5
94BA
330
94B1
100
AcDbEntity
  8
DEFPOINTS
 62
     0
100
AcDbPoint
 10
18.63643525580777
 20
9.01258699553688
 30
0.0
  0
POINT
  5
94BB
330
94B1
100
AcDbEntity
  8
DEFPOINTS
 62
     0
100
AcDbPoint
 10
18.63643525580777
 20
6.55956349553687
 30
0.0
  0
ENDBLK
  5
94BD
330
94B1
100
AcDbEntity
  8
0
100
AcDbBlockEnd
  0
BLOCK
  5
94C9
330
94BE
100
AcDbEntity
  8
0
100
AcDbBlockBegin
  2
*D19
 70
     1
 10
0.0
 20
0.0
 30
0.0
  3
*D19
  1

  0
LINE
  5
94BF
330
94BE
100
AcDbEntity
  8
DIM
370
    -2
100
AcDbLine
 10
17.45877029994273
 20
8.722587245536882
 30
0.0
 11
17.45877029994273
 21
7.05956349553687
 31
0.0
  0
LINE
  5
94C0
330
94BE
100
AcDbEntity
  8
DIM
370
    -2
100
AcDbLine
 10
18.63643525580777
 20
8.762587245536881
 30
0.0
 11
18.63643525580777
 21
7.05956349553687
 31
0.0
  0
LINE
  5
94C1
330
94BE
100
AcDbEntity
  8
DIM
370
    -2
100
AcDbLine
 10
17.31877029994273
 20
7.18456349553687
 30
0.0
 11
17.17877029994273
 21
7.18456349553687
 31
0.0
  0
LINE
  5
94C2
330
94BE
100
AcDbEntity
  8
DIM
370
    -2
100
AcDbLine
 10
18.77643525580777
 20
7.18456349553687
 30
0.0
 11
18.91643525580778
 21
7.18456349553687
 31
0.0
  0
SOLID
  5
94C3
330
94BE
100
AcDbEntity
  8
DIM
100
AcDbTrace
 10
17.31877029994273
 20
7.207896828870204
 30
0.0
 11
17.31877029994273
 21
7.161230162203537
 31
0.0
 12
17.45877029994273
 22
7.18456349553687
 32
0.0
 13
17.45877029994273
 23
7.18456349553687
 33
0.0
  0
SOLID
  5
94C4
330
94BE
100
AcDbEntity
  8
DIM
100
AcDbTrace
 10
18.77643525580777
 20
7.207896828870204
 30
0.0
 11
18.77643525580777
 21
7.161230162203537
 31
0.0
 12
18.63643525580777
 22
7.18456349553687
 32
0.0
 13
18.63643525580777
 23
7.18456349553687
 33
0.0
  0
MTEXT
  5
94C5
330
94BE
100
AcDbEntity
  8
DIM
100
AcDbMText
 10
18.04760277787525
 20
7.18456349553687
 30
0.0
 40
0.16
 41
0.0
 71
     5
 72
     1
  1
\A1;1.1800
  7
ROMANS
 73
     1
 44
1.0
  0
POINT
  5
94C6
330
94BE
100
AcDbEntity
  8
DEFPOINTS
 62
     0
100
AcDbPoint
 10
17.45877029994273
 20
8.847587245536882
 30
0.0
  0
POINT
  5
94C7
330
94BE
100
AcDbEntity
  8
DEFPOINTS
 62
     0
100
AcDbPoint
 10
18.63643525580777
 20
8.887587245536881
 30
0.0
  0
POINT
  5
94C8
330
94BE
100
AcDbEntity
  8
DEFPOINTS
 62
     0
100
AcDbPoint
 10
18.63643525580777
 20
7.18456349553687
 30
0.0
  0
ENDBLK
  5
94CA
330
94BE
100
AcDbEntity
  8
0
100
AcDbBlockEnd
  0
BLOCK
  5
94D6
330
94CB
100
AcDbEntity
  8
0
100
AcDbBlockBegin
  2
*D20
 70
     1
 10
0.0
 20
0.0
 30
0.0
  3
*D20
  1

  0
LINE
  5
94CC
330
94CB
100
AcDbEntity
  8
DIM
370
    -2
100
AcDbLine
 10
19.15793525580777
 20
12.00208849553688
 30
0.0
 11
20.06745820621025
 21
12.00208849553687
 31
0.0
  0
LINE
  5
94CD
330
94CB
100
AcDbEntity
  8
DIM
370
    -2
100
AcDbLine
 10
17.92844878936459
 20
8.972586995536881
 30
0.0
 11
20.06745820621025
 21
8.972586995536879
 31
0.0
  0
LINE
  5
94CE
330
94CB
100
AcDbEntity
  8
DIM
370
    -2
100
AcDbLine
 10
19.94245820621025
 20
11.86208849553687
 30
0.0
 11
19.94245820621025
 21
10.64733774553688
 31
0.0
  0
LINE
  5
94CF
330
94CB
100
AcDbEntity
  8
DIM
370
    -2
100
AcDbLine
 10
19.94245820621025
 20
9.112586995536881
 30
0.0
 11
19.94245820621025
 21
10.32733774553687
 31
0.0
  0
SOLID
  5
94D0
330
94CB
100
AcDbEntity
  8
DIM
100
AcDbTrace
 10
19.91912487287692
 20
11.86208849553687
 30
0.0
 11
19.96579153954359
 21
11.86208849553687
 31
0.0
 12
19.94245820621025
 22
12.00208849553688
 32
0.0
 13
19.94245820621025
 23
12.00208849553688
 33
0.0
  0
SOLID
  5
94D1
330
94CB
100
AcDbEntity
  8
DIM
100
AcDbTrace
 10
19.91912487287692
 20
9.112586995536881
 30
0.0
 11
19.96579153954359
 21
9.112586995536881
 31
0.0
 12
19.94245820621025
 22
8.972586995536881
 32
0.0
 13
19.94245820621025
 23
8.972586995536881
 33
0.0
  0
MTEXT
  5
94D2
330
94CB
100
AcDbEntity
  8
DIM
100
AcDbMText
 10
19.94245820621025
 20
10.48733774553688
 30
0.0
 40
0.16
 41
0.0
 71
     5
 72
     1
  1
\A1;3.0300
  7
ROMANS
 73
     1
 44
1.0
  0
POINT
  5
94D3
330
94CB
100
AcDbEntity
  8
DEFPOINTS
 62
     0
100
AcDbPoint
 10
19.03293525580777
 20
12.00208849553688
 30
0.0
  0
POINT
  5
94D4
330
94CB
100
AcDbEntity
  8
DEFPOINTS
 62
     0
100
AcDbPoint
 10
17.80344878936459
 20
8.972586995536881
 30
0.0
  0
POINT
  5
94D5
330
94CB
100
AcDbEntity
  8
DEFPOINTS
 62
     0
100
AcDbPoint
 10
19.94245820621025
 20
8.972586995536881
 30
0.0
  0
ENDBLK
  5
94D7
330
94CB
100
AcDbEntity
  8
0
100
AcDbBlockEnd
  0
BLOCK
  5
94E3
330
94D8
100
AcDbEntity
  8
0
100
AcDbBlockBegin
  2
*D21
 70
     1
 10
0.0
 20
0.0
 30
0.0
  3
*D21
  1

  0
LINE
  5
94D9
330
94D8
100
AcDbEntity
  8
DIM
370
    -2
100
AcDbLine
 10
27.51807967195338
 20
7.450088495536874
 30
0.0
 11
31.0968163136596
 21
7.450088495536873
 31
0.0
  0
LINE
  5
94DA
330
94D8
100
AcDbEntity
  8
DIM
370
    -2
100
AcDbLine
 10
29.2595068923723
 20
14.49708849553688
 30
0.0
 11
31.0968163136596
 21
14.49708849553688
 31
0.0
  0
LINE
  5
94DB
330
94D8
100
AcDbEntity
  8
DIM
370
    -2
100
AcDbLine
 10
30.97181631365959
 20
7.590088495536873
 30
0.0
 11
30.9718163136596
 21
10.81358849553687
 31
0.0
  0
LINE
  5
94DC
330
94D8
100
AcDbEntity
  8
DIM
370
    -2
100
AcDbLine
 10
30.9718163136596
 20
14.35708849553687
 30
0.0
 11
30.9718163136596
 21
11.13358849553687
 31
0.0
  0
SOLID
  5
94DD
330
94D8
100
AcDbEntity
  8
DIM
100
AcDbTrace
 10
30.94848298032626
 20
7.590088495536873
 30
0.0
 11
30.99514964699293
 21
7.590088495536873
 31
0.0
 12
30.97181631365959
 22
7.450088495536873
 32
0.0
 13
30.97181631365959
 23
7.450088495536873
 33
0.0
  0
SOLID
  5
94DE
330
94D8
100
AcDbEntity
  8
DIM
100
AcDbTrace
 10
30.94848298032626
 20
14.35708849553687
 30
0.0
 11
30.99514964699293
 21
14.35708849553687
 31
0.0
 12
30.9718163136596
 22
14.49708849553688
 32
0.0
 13
30.9718163136596
 23
14.49708849553688
 33
0.0
  0
MTEXT
  5
94DF
330
94D8
100
AcDbEntity
  8
DIM
100
AcDbMText
 10
30.97181631365959
 20
10.97358849553688
 30
0.0
 40
0.16
 41
0.0
 71
     5
 72
     1
  1
\A1;7.0500
  7
ROMANS
 73
     1
 44
1.0
  0
POINT
  5
94E0
330
94D8
100
AcDbEntity
  8
DEFPOINTS
 62
     0
100
AcDbPoint
 10
27.39307967195339
 20
7.450088495536874
 30
0.0
  0
POINT
  5
94E1
330
94D8
100
AcDbEntity
  8
DEFPOINTS
 62
     0
100
AcDbPoint
 10
29.1345068923723
 20
14.49708849553688
 30
0.0
  0
POINT
  5
94E2
330
94D8
100
AcDbEntity
  8
DEFPOINTS
 62
     0
100
AcDbPoint
 10
30.9718163136596
 20
14.49708849553688
 30
0.0
  0
ENDBLK
  5
94E4
330
94D8
100
AcDbEntity
  8
0
100
AcDbBlockEnd
  0
BLOCK
  5
94F0
330
94E5
100
AcDbEntity
  8
0
100
AcDbBlockBegin
  2
*D22
 70
     1
 10
0.0
 20
0.0
 30
0.0
  3
*D22
  1

  0
LINE
  5
94E6
330
94E5
100
AcDbEntity
  8
DIM
370
    -2
100
AcDbLine
 10
24.11744544437151
 20
8.762587245536881
 30
0.0
 11
24.11744544437151
 21
5.30956349553687
 31
0.0
  0
LINE
  5
94E7
330
94E5
100
AcDbEntity
  8
DIM
370
    -2
100
AcDbLine
 10
24.2749454443715
 20
8.277914142899277
 30
0.0
 11
24.2749454443715
 21
5.30956349553687
 31
0.0
  0
LINE
  5
94E8
330
94E5
100
AcDbEntity
  8
DIM
370
    -2
100
AcDbLine
 10
23.9774454443715
 20
5.43456349553687
 30
0.0
 11
23.83744544437151
 21
5.43456349553687
 31
0.0
  0
LINE
  5
94E9
330
94E5
100
AcDbEntity
  8
DIM
370
    -2
100
AcDbLine
 10
24.4149454443715
 20
5.43456349553687
 30
0.0
 11
24.55494544437151
 21
5.43456349553687
 31
0.0
  0
MTEXT
  5
94EA
330
94E5
100
AcDbEntity
  8
DIM
100
AcDbMText
 10
24.1961954443715
 20
4.94956349553687
 30
0.0
 40
0.16
 41
0.0
 71
     5
 72
     1
  1
\A1;.1600
  7
ROMANS
 73
     1
 44
1.0
  0
SOLID
  5
94EB
330
94E5
100
AcDbEntity
  8
DIM
100
AcDbTrace
 10
23.9774454443715
 20
5.457896828870204
 30
0.0
 11
23.9774454443715
 21
5.411230162203537
 31
0.0
 12
24.11744544437151
 22
5.43456349553687
 32
0.0
 13
24.11744544437151
 23
5.43456349553687
 33
0.0
  0
SOLID
  5
94EC
330
94E5
100
AcDbEntity
  8
DIM
100
AcDbTrace
 10
24.4149454443715
 20
5.457896828870204
 30
0.0
 11
24.4149454443715
 21
5.411230162203537
 31
0.0
 12
24.2749454443715
 22
5.43456349553687
 32
0.0
 13
24.2749454443715
 23
5.43456349553687
 33
0.0
  0
POINT
  5
94ED
330
94E5
100
AcDbEntity
  8
DEFPOINTS
 62
     0
100
AcDbPoint
 10
24.11744544437151
 20
8.887587245536881
 30
0.0
  0
POINT
  5
94EE
330
94E5
100
AcDbEntity
  8
DEFPOINTS
 62
     0
100
AcDbPoint
 10
24.2749454443715
 20
8.402914142899277
 30
0.0
  0
POINT
  5
94EF
330
94E5
100
AcDbEntity
  8
DEFPOINTS
 62
     0
100
AcDbPoint
 10
24.2749454443715
 20
5.43456349553687
 30
0.0
  0
ENDBLK
  5
94F1
330
94E5
100
AcDbEntity
  8
0
100
AcDbBlockEnd
  0
BLOCK
  5
94FD
330
94F2
100
AcDbEntity
  8
0
100
AcDbBlockBegin
  2
*D23
 70
     1
 10
0.0
 20
0.0
 30
0.0
  3
*D23
  1

  0
LINE
  5
94F3
330
94F2
100
AcDbEntity
  8
DIM
370
    -2
100
AcDbLine
 10
15.87643525580777
 20
14.32458849553688
 30
0.0
 11
15.87643525580777
 21
15.65320504240833
 31
0.0
  0
LINE
  5
94F4
330
94F2
100
AcDbEntity
  8
DIM
370
    -2
100
AcDbLine
 10
19.21943525580777
 20
14.10658849553688
 30
0.0
 11
19.21943525580777
 21
15.65320504240833
 31
0.0
  0
LINE
  5
94F5
330
94F2
100
AcDbEntity
  8
DIM
370
    -2
100
AcDbLine
 10
16.01643525580777
 20
15.52820504240833
 30
0.0
 11
17.0717447796173
 21
15.52820504240833
 31
0.0
  0
LINE
  5
94F6
330
94F2
100
AcDbEntity
  8
DIM
370
    -2
100
AcDbLine
 10
19.07943525580777
 20
15.52820504240833
 30
0.0
 11
18.02412573199825
 21
15.52820504240833
 31
0.0
  0
SOLID
  5
94F7
330
94F2
100
AcDbEntity
  8
DIM
100
AcDbTrace
 10
16.01643525580777
 20
15.55153837574166
 30
0.0
 11
16.01643525580777
 21
15.50487170907499
 31
0.0
 12
15.87643525580777
 22
15.52820504240833
 32
0.0
 13
15.87643525580777
 23
15.52820504240833
 33
0.0
  0
SOLID
  5
94F8
330
94F2
100
AcDbEntity
  8
DIM
100
AcDbTrace
 10
19.07943525580777
 20
15.55153837574166
 30
0.0
 11
19.07943525580777
 21
15.50487170907499
 31
0.0
 12
19.21943525580777
 22
15.52820504240833
 32
0.0
 13
19.21943525580777
 23
15.52820504240833
 33
0.0
  0
MTEXT
  5
94F9
330
94F2
100
AcDbEntity
  8
DIM
100
AcDbMText
 10
17.54793525580778
 20
15.52820504240833
 30
0.0
 40
0.16
 41
0.0
 71
     5
 72
     1
  1
\A1;3.3400
  7
ROMANS
 73
     1
 44
1.0
  0
POINT
  5
94FA
330
94F2
100
AcDbEntity
  8
DEFPOINTS
 62
     0
100
AcDbPoint
 10
15.87643525580777
 20
14.19958849553688
 30
0.0
  0
POINT
  5
94FB
330
94F2
100
AcDbEntity
  8
DEFPOINTS
 62
     0
100
AcDbPoint
 10
19.21943525580777
 20
13.98158849553688
 30
0.0
  0
POINT
  5
94FC
330
94F2
100
AcDbEntity
  8
DEFPOINTS
 62
     0
100
AcDbPoint
 10
19.21943525580777
 20
15.52820504240833
 30
0.0
  0
ENDBLK
  5
94FE
330
94F2
100
AcDbEntity
  8
0
100
AcDbBlockEnd
  0
ENDSEC
  0
SECTION
  2
ENTITIES
  0
LWPOLYLINE
  5
BF7
330
9422
100
AcDbEntity
  8
VIEWPORT
100
AcDbPolyline
 90
        6
 70
     1
 43
0.0
 10
32.80000199999999
 20
20.59504577749923
 10
32.80000199999999
 20
1.919049777499234
 10
16.004922
 20
1.919049777499234
 10
16.004922
 20
0.0950457774992355
 10
0.0
 20
0.0950457774992355
 10
0.0
 20
20.59504577749923
1001
GENIUS_GENOREF_13
1005
0
1005
0
1005
0
1005
0
1005
0
1005
0
1005
0
  0
VIEWPORT
  5
BF8
330
9422
100
AcDbEntity
  8
VIEWPORT
100
AcDbViewport
 10
16.40000099999999
 20
10.34504577749923
 30
0.0
 40
32.80000199999999
 41
20.5
 69
     0
 12
16.39338663516309
 22
10.36637624741381
 13
0.0
 23
0.0
 14
0.5
 24
0.5
 15
0.5
 25
0.5
 16
0.0
 26
0.0
 36
1.0
 17
0.0
 27
0.0
 37
0.0
 42
50.0
 43
0.0
 44
0.0
 45
20.5
 50
0.0
 51
0.0
 72
   100
 90
    32832
  1

281
     0
 71
     1
 74
     0
110
0.0
120
0.0
130
0.0
111
1.0
121
0.0
131
0.0
112
0.0
122
1.0
132
0.0
 79
     0
146
0.0
1001
GENIUS_GENOREF_13
1005
0
1005
0
1005
0
1005
0
1005
0
1005
0
1005
0
1001
GENIUS_GENSCREG_15
1000
PF
1040
0.0
1000
DF
1040
0.0
1000
MIN
1011
0.0
1021
0.0950457774992355
1031
0.0
1000
MAX
1011
32.80000199999999
1021
20.59504577749923
1031
0.0
1000
FLAGS
1070
     2
  0
TEXT
  5
8BCC
330
9422
100
AcDbEntity
  8
MOUNTING
100
AcDbText
 10
14.5
 20
2.758928571428571
 30
0.0
 40
0.125
  1
 
100
AcDbText
  0
INSERT
  5
8BCD
330
9422
100
AcDbEntity
  8
TEXT1
100
AcDbBlockReference
 66
     1
  2
REF2
 10
0.32
 20
1.360016000000004
 30
0.0
 41
1.27999744
 42
1.27999744
 43
1.27999744
  0
ATTRIB
  5
8BCE
330
8BCD
100
AcDbEntity
  8
TEXT1
100
AcDbText
 10
3.044215551475608
 20
1.642175186193829
 30
0.0
 40
0.15999968
  1
35mm DIN rail, #10 screws
100
AcDbAttribute
  2
MOUNTING_HWD
 70
     0
  0
ATTRIB
  5
8BCF
330
8BCD
100
AcDbEntity
  8
TEXT1
100
AcDbText
 10
3.044215551475608
 20
1.934068086751555
 30
0.0
 40
0.15999968
  1
75 LB-IN
100
AcDbAttribute
  2
TERM_TORQUE
 70
     0
  0
ATTRIB
  5
8BD0
330
8BCD
100
AcDbEntity
  8
TEXT1
100
AcDbText
 10
3.044215551475608
 20
2.202174066193829
 30
0.0
 40
0.15999968
  1
Power #4-#6 / Control #10-#18
100
AcDbAttribute
  2
WIRE_SIZE
 70
     0
  0
ATTRIB
  5
8BD1
330
8BCD
100
AcDbEntity
  8
TEXT1
100
AcDbText
 10
3.044215551475608
 20
2.456226815914967
 30
0.0
 40
0.15999968
  1
.51kg
100
AcDbAttribute
  2
WEIGHT
 70
     0
  0
ATTRIB
  5
8BD2
330
8BCD
100
AcDbEntity
  8
TEXT1
100
AcDbText
 10
3.044215551475608
 20
2.720013280000005
 30
0.0
 40
0.15999968
  1
IEC 947
100
AcDbAttribute
  2
STANDARDS
 70
     0
  0
ATTRIB
  5
8BD3
330
8BCD
100
AcDbEntity
  8
TEXT1
100
AcDbText
 10
3.044215551475608
 20
3.016225672945379
 30
0.0
 40
0.15999968
  1
LR43364/3211 03
100
AcDbAttribute
  2
CSA
 70
     0
  0
ATTRIB
  5
8BD4
330
8BCD
100
AcDbEntity
  8
TEXT1
100
AcDbText
 10
3.044215551475608
 20
3.280012160000004
 30
0.0
 40
0.15999968
  1
E39281/NKCR
100
AcDbAttribute
  2
UL
 70
     0
  0
ATTRIB
  5
8BD5
330
8BCD
100
AcDbEntity
  8
TEXT1
100
AcDbText
 10
3.044215551475608
 20
3.562171346193829
 30
0.0
 40
0.15999968
  1
Ratings shown are for LR2 D3(1) only. For contactor ratings see contactor file.
100
AcDbAttribute
  2
RATING
 70
     0
  0
ATTRIB
  5
8BD6
330
8BCD
100
AcDbEntity
  8
TEXT1
100
AcDbText
 10
3.044215551475608
 20
3.840011040000005
 30
0.0
 40
0.15999968
  1
LR2 D3(1) on LC1 D80
100
AcDbAttribute
  2
CATALOG
 70
     0
  0
SEQEND
  5
8BD7
330
8BCD
100
AcDbEntity
  8
MOUNTING
  0
LINE
  5
8BD8
330
9422
100
AcDbEntity
  8
CONTINUOUS1
100
AcDbLine
 10
24.11744544437151
 20
9.13758674553688
 30
0.0
 11
24.11744544437151
 21
8.887587245536881
 31
0.0
  0
LINE
  5
8BD9
330
9422
100
AcDbEntity
  8
CONTINUOUS1
100
AcDbLine
 10
24.2749454443715
 20
8.715413517899278
 30
0.0
 11
24.3529454443715
 21
8.715413517899278
 31
0.0
  0
LINE
  5
8BDA
330
9422
100
AcDbEntity
  8
CONTINUOUS1
100
AcDbLine
 10
24.2949454443715
 20
9.70275927836192
 30
0.0
 11
28.7595068923723
 21
9.702759278361916
 31
0.0
  0
LINE
  5
8BDB
330
9422
100
AcDbEntity
  8
CONTINUOUS1
100
AcDbLine
 10
24.66864390495777
 20
14.20574000060176
 30
0.0
 11
28.7595068923723
 21
14.20574000060175
 31
0.0
  0
LINE
  5
8BDC
330
9422
100
AcDbEntity
  8
CONTINUOUS1
100
AcDbLine
 10
24.11744544437151
 20
9.13758674553688
 30
0.0
 11
24.2749454443715
 21
9.13758674553688
 31
0.0
  0
LINE
  5
8BDD
330
9422
100
AcDbEntity
  8
CONTINUOUS1
100
AcDbLine
 10
24.11744544437151
 20
8.887587245536881
 30
0.0
 11
24.2749454443715
 21
8.887587245536881
 31
0.0
  0
LINE
  5
8BDE
330
9422
100
AcDbEntity
  8
CONTINUOUS1
100
AcDbLine
 10
24.2749454443715
 20
9.702759278361922
 30
0.0
 11
24.2749454443715
 21
8.402914142899277
 31
0.0
  0
LINE
  5
8BDF
330
9422
100
AcDbEntity
  8
CONTINUOUS1
100
AcDbLine
 10
25.0249454443715
 20
8.402914142899277
 30
0.0
 11
25.0249454443715
 21
7.571008081477661
 31
0.0
  0
LINE
  5
8BE0
330
9422
100
AcDbEntity
  8
CONTINUOUS1
100
AcDbLine
 10
24.3529454443715
 20
8.715413517899277
 30
0.0
 11
24.3529454443715
 21
8.402914142899277
 31
0.0
  0
LINE
  5
8BE1
330
9422
100
AcDbEntity
  8
CONTINUOUS1
100
AcDbLine
 10
25.0249454443715
 20
7.571008081477661
 30
0.0
 11
25.2124454443715
 21
7.571008081477661
 31
0.0
  0
LINE
  5
8BE2
330
9422
100
AcDbEntity
  8
CONTINUOUS1
100
AcDbLine
 10
28.56614932902304
 20
9.34510261417402
 30
0.0
 11
28.56614932902304
 21
8.338124047082972
 31
0.0
  0
LINE
  5
8BE3
330
9422
100
AcDbEntity
  8
CONTINUOUS1
100
AcDbLine
 10
24.2749454443715
 20
8.402914142899277
 30
0.0
 11
25.2124454443715
 21
8.402914142899277
 31
0.0
  0
ARC
  5
8BE4
330
9422
100
AcDbEntity
  8
CONTINUOUS1
100
AcDbCircle
 10
28.44114932902304
 20
9.34510261417402
 30
0.0
 40
0.125
100
AcDbArc
 50
0.0
 51
63.79086069283324
  0
LINE
  5
8BE5
330
9422
100
AcDbEntity
  8
CONTINUOUS1
100
AcDbLine
 10
28.24314932902304
 20
9.702759278361916
 30
0.0
 11
28.49635545024247
 21
9.457251105826408
 31
0.0
  0
LINE
  5
8BE6
330
9422
100
AcDbEntity
  8
CONTINUOUS1
100
AcDbLine
 10
24.66864390495777
 20
14.20574000060176
 30
0.0
 11
24.66864390495777
 21
9.70275927836192
 31
0.0
  0
LINE
  5
8BE7
330
9422
100
AcDbEntity
  8
CONTINUOUS1
100
AcDbLine
 10
24.35614390495777
 20
12.54908849553688
 30
0.0
 11
24.35614390495777
 21
11.45508849553688
 31
0.0
  0
LINE
  5
8BE8
330
9422
100
AcDbEntity
  8
CONTINUOUS1
100
AcDbLine
 10
24.57564390495777
 20
11.47083849553688
 30
0.0
 11
24.66864390495777
 21
11.56383849553688
 31
0.0
  0
LINE
  5
8BE9
330
9422
100
AcDbEntity
  8
CONTINUOUS1
100
AcDbLine
 10
24.57564390495777
 20
12.53333849553688
 30
0.0
 11
24.66864390495777
 21
12.44033849553688
 31
0.0
  0
LINE
  5
8BEA
330
9422
100
AcDbEntity
  8
CONTINUOUS1
100
AcDbLine
 10
24.57564390495777
 20
12.53333849553688
 30
0.0
 11
24.57564390495777
 21
11.47083849553688
 31
0.0
  0
LINE
  5
8BEB
330
9422
100
AcDbEntity
  8
CONTINUOUS1
100
AcDbLine
 10
24.35614390495777
 20
12.54908849553688
 30
0.0
 11
24.66864390495777
 21
12.54908849553688
 31
0.0
  0
LINE
  5
8BEC
330
9422
100
AcDbEntity
  8
CONTINUOUS1
100
AcDbLine
 10
24.35614390495777
 20
11.45508849553688
 30
0.0
 11
24.66864390495777
 21
11.45508849553688
 31
0.0
  0
LINE
  5
8BED
330
9422
100
AcDbEntity
  8
CONTINUOUS1
100
AcDbLine
 10
27.41864390495777
 20
12.72083849553687
 30
0.0
 11
28.7595068923723
 21
12.72083849553687
 31
0.0
  0
LINE
  5
8BEE
330
9422
100
AcDbEntity
  8
CONTINUOUS1
100
AcDbLine
 10
27.41864390495777
 20
11.28333849553687
 30
0.0
 11
28.7595068923723
 21
11.28333849553687
 31
0.0
  0
LINE
  5
8BEF
330
9422
100
AcDbEntity
  8
CONTINUOUS1
100
AcDbLine
 10
27.41864390495777
 20
12.72083849553687
 30
0.0
 11
27.41864390495777
 21
12.53333849553687
 31
0.0
  0
LINE
  5
8BF0
330
9422
100
AcDbEntity
  8
CONTINUOUS1
100
AcDbLine
 10
26.93414390495777
 20
12.08008849553687
 30
0.0
 11
27.35614390495777
 21
12.08008849553687
 31
0.0
  0
LINE
  5
8BF1
330
9422
100
AcDbEntity
  8
CONTINUOUS1
100
AcDbLine
 10
26.93414390495777
 20
11.92408849553687
 30
0.0
 11
27.35614390495777
 21
11.92408849553687
 31
0.0
  0
ARC
  5
8BF2
330
9422
100
AcDbEntity
  8
CONTINUOUS1
100
AcDbCircle
 10
26.93414390495777
 20
12.00208849553687
 30
0.0
 40
0.0780000000000011
100
AcDbArc
 50
90.0
 51
270.0
  0
LWPOLYLINE
  5
8BF3
330
9422
100
AcDbEntity
  8
CONTINUOUS1
100
AcDbPolyline
 90
        4
 70
     1
 43
0.0
 10
27.41864390495777
 20
11.28333849553687
 10
27.41864390495777
 20
11.47083849553687
 10
27.23114390495777
 20
11.47083849553687
 10
27.23114390495777
 20
11.28333849553687
  0
LWPOLYLINE
  5
8BF4
330
9422
100
AcDbEntity
  8
CONTINUOUS1
100
AcDbPolyline
 90
        4
 70
     1
 43
0.0
 10
27.41864390495777
 20
12.53333849553687
 10
27.41864390495777
 20
12.72083849553687
 10
27.23114390495777
 20
12.72083849553687
 10
27.23114390495777
 20
12.53333849553687
  0
LINE
  5
8BF5
330
9422
100
AcDbEntity
  8
CONTINUOUS1
100
AcDbLine
 10
27.41864390495777
 20
14.20574000060175
 30
0.0
 11
27.41864390495777
 21
12.72083849553687
 31
0.0
  0
LINE
  5
8BF6
330
9422
100
AcDbEntity
  8
CONTINUOUS1
100
AcDbLine
 10
27.41864390495777
 20
11.47083849553687
 30
0.0
 11
27.41864390495777
 21
11.28333849553687
 31
0.0
  0
LINE
  5
8BF7
330
9422
100
AcDbEntity
  8
CONTINUOUS1
100
AcDbLine
 10
27.35614390495777
 20
12.53333849553687
 30
0.0
 11
27.35614390495777
 21
11.47083849553687
 31
0.0
  0
LINE
  5
8BF8
330
9422
100
AcDbEntity
  8
CONTINUOUS1
100
AcDbLine
 10
27.41864390495777
 20
11.28333849553687
 30
0.0
 11
27.41864390495777
 21
9.702759278361916
 31
0.0
  0
LINE
  5
8BF9
330
9422
100
AcDbEntity
  8
CONTINUOUS1
100
AcDbLine
 10
27.60614390495777
 20
12.53333849553687
 30
0.0
 11
27.60614390495776
 21
12.37708849553687
 31
0.0
  0
LINE
  5
8BFA
330
9422
100
AcDbEntity
  8
CONTINUOUS1
100
AcDbLine
 10
27.60614390495777
 20
11.62708849553687
 30
0.0
 11
28.7595068923723
 21
11.62708849553687
 31
0.0
  0
LINE
  5
8BFB
330
9422
100
AcDbEntity
  8
CONTINUOUS1
100
AcDbLine
 10
27.60614390495777
 20
12.37708849553687
 30
0.0
 11
28.7595068923723
 21
12.37708849553687
 31
0.0
  0
LINE
  5
8BFC
330
9422
100
AcDbEntity
  8
CONTINUOUS1
100
AcDbLine
 10
27.60614390495777
 20
12.53308849553687
 30
0.0
 11
28.7595068923723
 21
12.53308849553687
 31
0.0
  0
LINE
  5
8BFD
330
9422
100
AcDbEntity
  8
CONTINUOUS1
100
AcDbLine
 10
27.60614390495777
 20
11.47108849553687
 30
0.0
 11
28.7595068923723
 21
11.47108849553687
 31
0.0
  0
LINE
  5
8BFE
330
9422
100
AcDbEntity
  8
CONTINUOUS1
100
AcDbLine
 10
27.60614390495777
 20
11.62708849553687
 30
0.0
 11
27.60614390495777
 21
11.47083849553687
 31
0.0
  0
LINE
  5
8BFF
330
9422
100
AcDbEntity
  8
CONTINUOUS1
100
AcDbLine
 10
24.29364390495777
 20
13.98158849553688
 30
0.0
 11
24.66864390495777
 21
13.98158849553688
 31
0.0
  0
LINE
  5
8C00
330
9422
100
AcDbEntity
  8
CONTINUOUS1
100
AcDbLine
 10
24.29364390495777
 20
10.01258849553687
 30
0.0
 11
24.66864390495777
 21
10.01258849553687
 31
0.0
  0
LINE
  5
8C01
330
9422
100
AcDbEntity
  8
CONTINUOUS1
100
AcDbLine
 10
29.0577845718046
 20
11.29908849553687
 30
0.0
 11
28.93278457180461
 21
11.42408849553687
 31
0.0
  0
LINE
  5
8C02
330
9422
100
AcDbEntity
  8
CONTINUOUS1
100
AcDbLine
 10
28.93278457180461
 20
11.42408849553687
 30
0.0
 11
28.93278457180461
 21
11.29908849553687
 31
0.0
  0
LINE
  5
8C03
330
9422
100
AcDbEntity
  8
CONTINUOUS1
100
AcDbLine
 10
25.30544544437151
 20
7.45008849553688
 30
0.0
 11
27.37307967195338
 21
7.450088495536874
 31
0.0
  0
LINE
  5
8C04
330
9422
100
AcDbEntity
  8
CONTINUOUS2
100
AcDbLine
 10
15.87643525580777
 20
7.45008849553688
 30
0.0
 11
15.87643525580777
 21
9.70008849553688
 31
0.0
  0
LINE
  5
8C05
330
9422
100
AcDbEntity
  8
CONTINUOUS2
100
AcDbLine
 10
15.87643525580777
 20
9.70008849553688
 30
0.0
 11
16.09543525580777
 21
9.70008849553688
 31
0.0
  0
LINE
  5
8C06
330
9422
100
AcDbEntity
  8
CONTINUOUS2
100
AcDbLine
 10
18.63643525580777
 20
9.497009267900843
 30
0.0
 11
18.63643525580777
 21
7.45008849553688
 31
0.0
  0
LINE
  5
8C07
330
9422
100
AcDbEntity
  8
CONTINUOUS2
100
AcDbLine
 10
18.63643525580777
 20
7.45008849553688
 30
0.0
 11
15.87643525580777
 21
7.45008849553688
 31
0.0
  0
LINE
  5
8C08
330
9422
100
AcDbEntity
  8
CONTINUOUS1
100
AcDbLine
 10
18.90693525580777
 20
12.18958849553688
 30
0.0
 11
18.90693525580777
 21
11.81458849553687
 31
0.0
  0
LINE
  5
8C09
330
9422
100
AcDbEntity
  8
CONTINUOUS1
100
AcDbLine
 10
16.03243525580777
 20
11.81458849553687
 30
0.0
 11
16.03243525580777
 21
12.18958849553688
 31
0.0
  0
LINE
  5
8C0A
330
9422
100
AcDbEntity
  8
CONTINUOUS2
100
AcDbLine
 10
19.03293525580777
 20
9.684588495536878
 30
0.0
 11
19.03293525580777
 21
10.01258849553687
 31
0.0
  0
LINE
  5
8C0B
330
9422
100
AcDbEntity
  8
CONTINUOUS2
100
AcDbLine
 10
16.09543525580777
 20
14.49708849553688
 30
0.0
 11
16.09543525580777
 21
13.98158849553688
 31
0.0
  0
TEXT
  5
8C0C
330
9422
100
AcDbEntity
  8
TEXT2
100
AcDbText
 10
17.44295397332047
 20
12.00208849553688
 30
0.0
 40
0.125
  1
C
 72
     1
 11
17.48462063998714
 21
12.00208849553688
 31
0.0
100
AcDbText
  0
TEXT
  5
8C0D
330
9422
100
AcDbEntity
  8
TEXT2
100
AcDbText
 10
17.47410610184303
 20
11.93678678572585
 30
0.0
 40
0.125
  1
L
 72
     1
 11
17.51577276850969
 21
11.93678678572585
 31
0.0
100
AcDbText
  0
LINE
  5
8C0E
330
9422
100
AcDbEntity
  8
CONTINUOUS2
100
AcDbLine
 10
19.21943525580777
 20
13.98158849553687
 30
0.0
 11
19.21943525580777
 21
10.01258849553687
 31
0.0
  0
LINE
  5
8C0F
330
9422
100
AcDbEntity
  8
CONTINUOUS2
100
AcDbLine
 10
15.87643525580777
 20
9.79458849553688
 30
0.0
 11
15.87643525580777
 21
14.19958849553688
 31
0.0
  0
LINE
  5
8C10
330
9422
100
AcDbEntity
  8
CONTINUOUS2
100
AcDbLine
 10
16.88553525580778
 20
9.777949177899262
 30
0.0
 11
18.21033525580777
 21
9.777949177899262
 31
0.0
  0
LINE
  5
8C11
330
9422
100
AcDbEntity
  8
CONTINUOUS1
100
AcDbLine
 10
16.03243525580777
 20
11.81458849553687
 30
0.0
 11
18.90693525580777
 21
11.81458849553687
 31
0.0
  0
LINE
  5
8C12
330
9422
100
AcDbEntity
  8
HIDDEN2
100
AcDbLine
 10
15.71364788926873
 20
11.31311349553688
 30
0.0
 11
19.44645519425871
 21
11.31311349553688
 31
0.0
  0
LINE
  5
8C13
330
9422
100
AcDbEntity
  8
CONTINUOUS1
100
AcDbLine
 10
15.87643525580777
 20
11.45508849553688
 30
0.0
 11
19.21943525580777
 21
11.45508849553688
 31
0.0
  0
LINE
  5
8C14
330
9422
100
AcDbEntity
  8
CONTINUOUS2
100
AcDbLine
 10
16.03243525580777
 20
10.01258849553687
 30
0.0
 11
16.09543525580777
 21
10.01258849553687
 31
0.0
  0
LINE
  5
8C15
330
9422
100
AcDbEntity
  8
CONTINUOUS1
100
AcDbLine
 10
15.87643525580777
 20
10.76258849553687
 30
0.0
 11
18.71943525580777
 21
10.76258849553687
 31
0.0
  0
LINE
  5
8C16
330
9422
100
AcDbEntity
  8
CONTINUOUS1
100
AcDbLine
 10
17.13663852974636
 20
10.2442225956513
 30
0.0
 11
17.37917615569335
 21
10.48676022159829
 31
0.0
  0
LINE
  5
8C17
330
9422
100
AcDbEntity
  8
CONTINUOUS1
100
AcDbLine
 10
17.0924443559222
 20
10.28841676947546
 30
0.0
 11
17.33498198186919
 21
10.53095439542245
 31
0.0
  0
LINE
  5
8C18
330
9422
100
AcDbEntity
  8
CONTINUOUS1
100
AcDbLine
 10
16.19913852974636
 20
10.2442225956513
 30
0.0
 11
16.44167615569335
 21
10.48676022159829
 31
0.0
  0
LINE
  5
8C19
330
9422
100
AcDbEntity
  8
CONTINUOUS1
100
AcDbLine
 10
16.1549443559222
 20
10.28841676947546
 30
0.0
 11
16.39748198186919
 21
10.53095439542245
 31
0.0
  0
CIRCLE
  5
8C1A
330
9422
100
AcDbEntity
  8
CONTINUOUS1
100
AcDbCircle
 10
17.23581025580777
 20
10.38758849553687
 30
0.0
 40
0.1715
  0
CIRCLE
  5
8C1B
330
9422
100
AcDbEntity
  8
CONTINUOUS1
100
AcDbCircle
 10
16.29831025580777
 20
10.38758849553687
 30
0.0
 40
0.1715
  0
LINE
  5
8C1C
330
9422
100
AcDbEntity
  8
CONTINUOUS2
100
AcDbLine
 10
16.28293525580778
 20
9.497088495536878
 30
0.0
 11
16.63553525580778
 21
9.496949177899264
 31
0.0
  0
LINE
  5
8C1D
330
9422
100
AcDbEntity
  8
CONTINUOUS2
100
AcDbLine
 10
16.03243525580777
 20
10.01258849553687
 30
0.0
 11
16.03243525580777
 21
9.794588495536878
 31
0.0
  0
LINE
  5
8C1E
330
9422
100
AcDbEntity
  8
CONTINUOUS2
100
AcDbLine
 10
15.87643525580777
 20
9.794588495536878
 30
0.0
 11
16.03243525580777
 21
9.794588495536878
 31
0.0
  0
LINE
  5
8C1F
330
9422
100
AcDbEntity
  8
CONTINUOUS2
100
AcDbLine
 10
16.88553525580778
 20
9.996949177899264
 30
0.0
 11
16.88553525580778
 21
9.777949177899262
 31
0.0
  0
LINE
  5
8C20
330
9422
100
AcDbEntity
  8
CONTINUOUS2
100
AcDbLine
 10
16.63553525580778
 20
9.996949177899264
 30
0.0
 11
16.63553525580778
 21
9.496949177899264
 31
0.0
  0
LINE
  5
8C21
330
9422
100
AcDbEntity
  8
CONTINUOUS1
100
AcDbLine
 10
16.87593525580777
 20
10.01258849553687
 30
0.0
 11
16.87593525580777
 21
9.70008849553688
 31
0.0
  0
LINE
  5
8C22
330
9422
100
AcDbEntity
  8
CONTINUOUS1
100
AcDbLine
 10
16.75093525580777
 20
10.01258849553687
 30
0.0
 11
16.75093525580777
 21
9.70008849553688
 31
0.0
  0
LINE
  5
8C23
330
9422
100
AcDbEntity
  8
CONTINUOUS1
100
AcDbLine
 10
16.93843525580778
 20
10.01258849553687
 30
0.0
 11
16.93843525580778
 21
9.70008849553688
 31
0.0
  0
LINE
  5
8C24
330
9422
100
AcDbEntity
  8
CONTINUOUS1
100
AcDbLine
 10
16.68843525580777
 20
10.01258849553687
 30
0.0
 11
16.68843525580777
 21
9.70008849553688
 31
0.0
  0
ARC
  5
8C25
330
9422
100
AcDbEntity
  8
CONTINUOUS2
100
AcDbCircle
 10
16.76053525580777
 20
9.996949177899264
 30
0.0
 40
0.1250000000000013
100
AcDbArc
 50
0.0
 51
180.0
  0
LINE
  5
8C26
330
9422
100
AcDbEntity
  8
CENTER2
100
AcDbLine
 10
15.71364788926873
 20
12.00208849553688
 30
0.0
 11
17.32116159951784
 21
12.00208849553688
 31
0.0
  0
LINE
  5
8C27
330
9422
100
AcDbEntity
  8
CONTINUOUS1
100
AcDbLine
 10
17.00143525580777
 20
10.76258849553687
 30
0.0
 11
17.00143525580777
 21
11.45508849553688
 31
0.0
  0
LINE
  5
8C28
330
9422
100
AcDbEntity
  8
CONTINUOUS1
100
AcDbLine
 10
18.07413852974636
 20
10.2442225956513
 30
0.0
 11
18.31667615569335
 21
10.48676022159829
 31
0.0
  0
LINE
  5
8C29
330
9422
100
AcDbEntity
  8
CONTINUOUS1
100
AcDbLine
 10
18.0299443559222
 20
10.28841676947546
 30
0.0
 11
18.27248198186919
 21
10.53095439542245
 31
0.0
  0
CIRCLE
  5
8C2A
330
9422
100
AcDbEntity
  8
CONTINUOUS1
100
AcDbCircle
 10
18.17331025580777
 20
10.38758849553687
 30
0.0
 40
0.1715
  0
LINE
  5
8C2B
330
9422
100
AcDbEntity
  8
CONTINUOUS1
100
AcDbLine
 10
18.71943525580777
 20
9.794588495536878
 30
0.0
 11
18.71943525580777
 21
10.88758849553687
 31
0.0
  0
LINE
  5
8C2C
330
9422
100
AcDbEntity
  8
CONTINUOUS2
100
AcDbLine
 10
18.63643525580777
 20
9.497009267900843
 30
0.0
 11
18.84543525580777
 21
9.497088495536878
 31
0.0
  0
LINE
  5
8C2D
330
9422
100
AcDbEntity
  8
CONTINUOUS1
100
AcDbLine
 10
18.50043525580777
 20
9.794588495536878
 30
0.0
 11
18.71943525580777
 21
9.794588495536878
 31
0.0
  0
LINE
  5
8C2E
330
9422
100
AcDbEntity
  8
CONTINUOUS1
100
AcDbLine
 10
17.78193525580777
 20
10.01258849553687
 30
0.0
 11
17.78193525580777
 21
9.70008849553688
 31
0.0
  0
LINE
  5
8C2F
330
9422
100
AcDbEntity
  8
CONTINUOUS1
100
AcDbLine
 10
17.65693525580777
 20
10.01258849553687
 30
0.0
 11
17.65693525580777
 21
9.752911442899279
 31
0.0
  0
LINE
  5
8C30
330
9422
100
AcDbEntity
  8
CONTINUOUS1
100
AcDbLine
 10
17.59443525580777
 20
10.01258849553687
 30
0.0
 11
17.59443525580777
 21
9.752911442899279
 31
0.0
  0
LINE
  5
8C31
330
9422
100
AcDbEntity
  8
CONTINUOUS1
100
AcDbLine
 10
17.84443525580777
 20
10.01258849553687
 30
0.0
 11
17.84443525580777
 21
9.70008849553688
 31
0.0
  0
LINE
  5
8C32
330
9422
100
AcDbEntity
  8
CONTINUOUS2
100
AcDbLine
 10
18.46033525580777
 20
9.496949177899264
 30
0.0
 11
18.46033525580777
 21
9.996949177899264
 31
0.0
  0
LINE
  5
8C33
330
9422
100
AcDbEntity
  8
CONTINUOUS2
100
AcDbLine
 10
18.21033525580777
 20
9.777949177899262
 30
0.0
 11
18.21033525580777
 21
9.996949177899264
 31
0.0
  0
LINE
  5
8C34
330
9422
100
AcDbEntity
  8
CONTINUOUS1
100
AcDbLine
 10
18.50043525580777
 20
10.01258849553687
 30
0.0
 11
18.50043525580777
 21
9.794588495536878
 31
0.0
  0
ARC
  5
8C35
330
9422
100
AcDbEntity
  8
CONTINUOUS2
100
AcDbCircle
 10
18.33533525580777
 20
9.996949177899264
 30
0.0
 40
0.1250000000000012
100
AcDbArc
 50
0.0
 51
180.0
  0
ARC
  5
8C36
330
9422
100
AcDbEntity
  8
CONTINUOUS2
100
AcDbCircle
 10
18.84543525580777
 20
9.684588495536878
 30
0.0
 40
0.1875
100
AcDbArc
 50
270.0
 51
0.0
  0
LINE
  5
8C37
330
9422
100
AcDbEntity
  8
CENTER2
100
AcDbLine
 10
17.71038393750154
 20
12.00208849553688
 30
0.0
 11
19.44645519425871
 21
12.00208849553688
 31
0.0
  0
LINE
  5
8C38
330
9422
100
AcDbEntity
  8
CONTINUOUS1
100
AcDbLine
 10
17.93893525580777
 20
10.76258849553687
 30
0.0
 11
17.93893525580777
 21
11.45508849553688
 31
0.0
  0
LINE
  5
8C39
330
9422
100
AcDbEntity
  8
CONTINUOUS1
100
AcDbLine
 10
18.71943525580777
 20
10.88758849553687
 30
0.0
 11
19.21943525580777
 21
10.88758849553688
 31
0.0
  0
LINE
  5
8C3A
330
9422
100
AcDbEntity
  8
CONTINUOUS1
100
AcDbLine
 10
18.71943525580777
 20
10.51258849553688
 30
0.0
 11
19.21943525580777
 21
10.51258849553688
 31
0.0
  0
LINE
  5
8C3C
330
9422
100
AcDbEntity
  8
CONTINUOUS1
100
AcDbLine
 10
16.03243525580777
 20
12.18958849553688
 30
0.0
 11
18.90693525580777
 21
12.18958849553688
 31
0.0
  0
ARC
  5
8C3D
330
9422
100
AcDbEntity
  8
CONTINUOUS2
100
AcDbCircle
 10
17.54793525580778
 20
14.18458849553688
 30
0.0
 40
0.1250000000000005
100
AcDbArc
 50
0.0
 51
180.0
  0
ARC
  5
8C3E
330
9422
100
AcDbEntity
  8
CONTINUOUS2
100
AcDbCircle
 10
17.54793525580777
 20
13.57558849553688
 30
0.0
 40
0.2965000000000012
100
AcDbArc
 50
180.0
 51
0.0
  0
LINE
  5
8C3F
330
9422
100
AcDbEntity
  8
CONTINUOUS2
100
AcDbLine
 10
18.84543525580777
 20
14.49708849553688
 30
0.0
 11
16.09543525580777
 21
14.49708849553688
 31
0.0
  0
LINE
  5
8C40
330
9422
100
AcDbEntity
  8
HIDDEN2
100
AcDbLine
 10
15.71364788926873
 20
12.69106349553688
 30
0.0
 11
19.44645519425871
 21
12.69106349553688
 31
0.0
  0
LINE
  5
8C41
330
9422
100
AcDbEntity
  8
CONTINUOUS1
100
AcDbLine
 10
15.87643525580777
 20
12.54908849553688
 30
0.0
 11
19.21943525580777
 21
12.54908849553688
 31
0.0
  0
LINE
  5
8C42
330
9422
100
AcDbEntity
  8
CONTINUOUS1
100
AcDbLine
 10
15.87643525580777
 20
13.23158849553688
 30
0.0
 11
18.71943525580777
 21
13.23158849553688
 31
0.0
  0
LINE
  5
8C43
330
9422
100
AcDbEntity
  8
CONTINUOUS2
100
AcDbLine
 10
16.03243525580777
 20
13.98158849553688
 30
0.0
 11
16.09543525580777
 21
13.98158849553688
 31
0.0
  0
LINE
  5
8C44
330
9422
100
AcDbEntity
  8
CONTINUOUS2
100
AcDbLine
 10
17.25143525580777
 20
13.80958849553687
 30
0.0
 11
17.25143525580777
 21
13.57558849553688
 31
0.0
  0
LINE
  5
8C45
330
9422
100
AcDbEntity
  8
CONTINUOUS1
100
AcDbLine
 10
17.0924443559222
 20
13.50741676947546
 30
0.0
 11
17.33498198186919
 21
13.74995439542245
 31
0.0
  0
LINE
  5
8C46
330
9422
100
AcDbEntity
  8
CONTINUOUS1
100
AcDbLine
 10
16.1549443559222
 20
13.50741676947546
 30
0.0
 11
16.39748198186919
 21
13.74995439542245
 31
0.0
  0
CIRCLE
  5
8C47
330
9422
100
AcDbEntity
  8
CONTINUOUS1
100
AcDbCircle
 10
17.23581025580777
 20
13.60658849553687
 30
0.0
 40
0.1715
  0
CIRCLE
  5
8C48
330
9422
100
AcDbEntity
  8
CONTINUOUS1
100
AcDbCircle
 10
16.29831025580777
 20
13.60658849553687
 30
0.0
 40
0.1715
  0
LINE
  5
8C49
330
9422
100
AcDbEntity
  8
CONTINUOUS1
100
AcDbLine
 10
16.19913852974636
 20
13.4632225956513
 30
0.0
 11
16.44167615569335
 21
13.70576022159829
 31
0.0
  0
LINE
  5
8C4A
330
9422
100
AcDbEntity
  8
CONTINUOUS1
100
AcDbLine
 10
17.00143525580777
 20
12.54908849553688
 30
0.0
 11
17.00143525580777
 21
13.23158849553688
 31
0.0
  0
LINE
  5
8C4B
330
9422
100
AcDbEntity
  8
CONTINUOUS1
100
AcDbLine
 10
17.13663852974636
 20
13.4632225956513
 30
0.0
 11
17.37917615569335
 21
13.70576022159829
 31
0.0
  0
LINE
  5
8C4C
330
9422
100
AcDbEntity
  8
CONTINUOUS2
100
AcDbLine
 10
16.03243525580777
 20
13.98158849553688
 30
0.0
 11
16.03243525580777
 21
14.19958849553688
 31
0.0
  0
LINE
  5
8C4D
330
9422
100
AcDbEntity
  8
CONTINUOUS2
100
AcDbLine
 10
15.87643525580777
 20
14.19958849553688
 30
0.0
 11
16.03243525580777
 21
14.19958849553688
 31
0.0
  0
CIRCLE
  5
8C4E
330
9422
100
AcDbEntity
  8
CONTINUOUS2
100
AcDbCircle
 10
16.37643525580777
 20
14.21608849553688
 30
0.0
 40
0.125
  0
LINE
  5
8C4F
330
9422
100
AcDbEntity
  8
CONTINUOUS1
100
AcDbLine
 10
16.75093525580777
 20
13.98158849553688
 30
0.0
 11
16.75093525580777
 21
14.38758849553688
 31
0.0
  0
LINE
  5
8C50
330
9422
100
AcDbEntity
  8
CONTINUOUS1
100
AcDbLine
 10
16.87593525580777
 20
13.98158849553688
 30
0.0
 11
16.87593525580777
 21
14.38758849553688
 31
0.0
  0
LINE
  5
8C51
330
9422
100
AcDbEntity
  8
CONTINUOUS1
100
AcDbLine
 10
16.93843525580778
 20
13.98158849553688
 30
0.0
 11
16.93843525580778
 21
14.38758849553688
 31
0.0
  0
LINE
  5
8C52
330
9422
100
AcDbEntity
  8
CONTINUOUS1
100
AcDbLine
 10
16.68843525580777
 20
13.98158849553688
 30
0.0
 11
16.68843525580777
 21
14.38758849553688
 31
0.0
  0
LINE
  5
8C53
330
9422
100
AcDbEntity
  8
CONTINUOUS1
100
AcDbLine
 10
16.68843525580777
 20
14.38758849553688
 30
0.0
 11
16.93843525580778
 21
14.38758849553688
 31
0.0
  0
LINE
  5
8C54
330
9422
100
AcDbEntity
  8
CONTINUOUS2
100
AcDbLine
 10
17.42293525580778
 20
14.18458849553688
 30
0.0
 11
17.42293525580778
 21
13.80958849553688
 31
0.0
  0
LINE
  5
8C55
330
9422
100
AcDbEntity
  8
CONTINUOUS2
100
AcDbLine
 10
17.42293525580778
 20
13.80958849553687
 30
0.0
 11
17.25143525580777
 21
13.80958849553687
 31
0.0
  0
LINE
  5
8C56
330
9422
100
AcDbEntity
  8
CONTINUOUS2
100
AcDbLine
 10
17.84443525580778
 20
13.80958849553687
 30
0.0
 11
17.84443525580777
 21
13.57558849553688
 31
0.0
  0
LINE
  5
8C57
330
9422
100
AcDbEntity
  8
CONTINUOUS1
100
AcDbLine
 10
18.71943525580777
 20
13.10658849553687
 30
0.0
 11
18.71943525580777
 21
14.19958849553688
 31
0.0
  0
LINE
  5
8C58
330
9422
100
AcDbEntity
  8
CONTINUOUS1
100
AcDbLine
 10
18.0299443559222
 20
13.50741676947546
 30
0.0
 11
18.27248198186919
 21
13.74995439542245
 31
0.0
  0
CIRCLE
  5
8C59
330
9422
100
AcDbEntity
  8
CONTINUOUS1
100
AcDbCircle
 10
18.17331025580777
 20
13.60658849553687
 30
0.0
 40
0.1715
  0
LINE
  5
8C5A
330
9422
100
AcDbEntity
  8
CONTINUOUS1
100
AcDbLine
 10
17.93893525580777
 20
12.54908849553688
 30
0.0
 11
17.93893525580777
 21
13.23158849553688
 31
0.0
  0
LINE
  5
8C5B
330
9422
100
AcDbEntity
  8
CONTINUOUS1
100
AcDbLine
 10
18.07413852974636
 20
13.4632225956513
 30
0.0
 11
18.31667615569335
 21
13.70576022159829
 31
0.0
  0
LINE
  5
8C5C
330
9422
100
AcDbEntity
  8
CONTINUOUS1
100
AcDbLine
 10
18.71943525580777
 20
13.10658849553687
 30
0.0
 11
19.21943525580777
 21
13.10658849553687
 31
0.0
  0
LINE
  5
8C5D
330
9422
100
AcDbEntity
  8
CONTINUOUS1
100
AcDbLine
 10
18.71943525580777
 20
13.48158849553688
 30
0.0
 11
19.21943525580777
 21
13.48158849553688
 31
0.0
  0
LINE
  5
8C5F
330
9422
100
AcDbEntity
  8
CONTINUOUS1
100
AcDbLine
 10
18.50043525580777
 20
14.19958849553688
 30
0.0
 11
18.71943525580777
 21
14.19958849553688
 31
0.0
  0
LINE
  5
8C60
330
9422
100
AcDbEntity
  8
CONTINUOUS2
100
AcDbLine
 10
17.67293525580778
 20
14.18458849553688
 30
0.0
 11
17.67293525580778
 21
13.80958849553687
 31
0.0
  0
LINE
  5
8C61
330
9422
100
AcDbEntity
  8
CONTINUOUS1
100
AcDbLine
 10
17.65693525580777
 20
13.98158849553688
 30
0.0
 11
17.65693525580777
 21
14.38758849553688
 31
0.0
  0
LINE
  5
8C62
330
9422
100
AcDbEntity
  8
CONTINUOUS1
100
AcDbLine
 10
17.78193525580777
 20
13.98158849553688
 30
0.0
 11
17.78193525580777
 21
14.38758849553688
 31
0.0
  0
LINE
  5
8C63
330
9422
100
AcDbEntity
  8
CONTINUOUS1
100
AcDbLine
 10
17.84443525580777
 20
13.98158849553688
 30
0.0
 11
17.84443525580777
 21
14.38758849553688
 31
0.0
  0
LINE
  5
8C64
330
9422
100
AcDbEntity
  8
CONTINUOUS1
100
AcDbLine
 10
17.59443525580777
 20
13.98158849553688
 30
0.0
 11
17.59443525580777
 21
14.38758849553688
 31
0.0
  0
LINE
  5
8C65
330
9422
100
AcDbEntity
  8
CONTINUOUS2
100
AcDbLine
 10
17.84443525580778
 20
13.80958849553688
 30
0.0
 11
17.67293525580778
 21
13.80958849553687
 31
0.0
  0
LINE
  5
8C66
330
9422
100
AcDbEntity
  8
CONTINUOUS1
100
AcDbLine
 10
17.59443525580777
 20
14.38758849553688
 30
0.0
 11
17.84443525580777
 21
14.38758849553688
 31
0.0
  0
LINE
  5
8C67
330
9422
100
AcDbEntity
  8
CONTINUOUS1
100
AcDbLine
 10
18.50043525580777
 20
13.98158849553688
 30
0.0
 11
18.50043525580777
 21
14.19958849553688
 31
0.0
  0
ARC
  5
8C68
330
9422
100
AcDbEntity
  8
CONTINUOUS2
100
AcDbCircle
 10
18.84543525580777
 20
14.30958849553688
 30
0.0
 40
0.1875
100
AcDbArc
 50
0.0
 51
90.0
  0
CIRCLE
  5
8C69
330
9422
100
AcDbEntity
  8
CONTINUOUS1
100
AcDbCircle
 10
17.26543525580777
 20
7.95008849553688
 30
0.0
 40
0.1715
  0
LINE
  5
8C6A
330
9422
100
AcDbEntity
  8
CONTINUOUS1
100
AcDbLine
 10
17.1220693559222
 20
7.850916769475466
 30
0.0
 11
17.36460698186919
 21
8.093454395422451
 31
0.0
  0
LINE
  5
8C6B
330
9422
100
AcDbEntity
  8
CONTINUOUS1
100
AcDbLine
 10
17.16626352974636
 20
7.806722595651308
 30
0.0
 11
17.40880115569335
 21
8.049260221598292
 31
0.0
  0
CIRCLE
  5
8C6C
330
9422
100
AcDbEntity
  8
CONTINUOUS1
100
AcDbCircle
 10
16.42243525580777
 20
7.95008849553688
 30
0.0
 40
0.1715
  0
LINE
  5
8C6D
330
9422
100
AcDbEntity
  8
CONTINUOUS1
100
AcDbLine
 10
16.2790693559222
 20
7.850916769475466
 30
0.0
 11
16.52160698186919
 21
8.093454395422451
 31
0.0
  0
LINE
  5
8C6E
330
9422
100
AcDbEntity
  8
CONTINUOUS1
100
AcDbLine
 10
16.32326352974636
 20
7.806722595651308
 30
0.0
 11
16.56580115569335
 21
8.049260221598292
 31
0.0
  0
CIRCLE
  5
8C6F
330
9422
100
AcDbEntity
  8
CONTINUOUS1
100
AcDbCircle
 10
18.10843525580777
 20
7.95008849553688
 30
0.0
 40
0.1715
  0
LINE
  5
8C70
330
9422
100
AcDbEntity
  8
CONTINUOUS1
100
AcDbLine
 10
17.9650693559222
 20
7.850916769475466
 30
0.0
 11
18.20760698186919
 21
8.093454395422451
 31
0.0
  0
LINE
  5
8C71
330
9422
100
AcDbEntity
  8
CONTINUOUS1
100
AcDbLine
 10
18.00926352974636
 20
7.806722595651308
 30
0.0
 11
18.25180115569335
 21
8.049260221598292
 31
0.0
  0
LINE
  5
8C72
330
9422
100
AcDbEntity
  8
CONTINUOUS1
100
AcDbLine
 10
18.63643525580777
 20
7.57508849553688
 30
0.0
 11
15.87643525580777
 21
7.57508849553688
 31
0.0
  0
LINE
  5
8C73
330
9422
100
AcDbEntity
  8
CONTINUOUS1
100
AcDbLine
 10
18.63643525580777
 20
8.26258849553688
 30
0.0
 11
15.87643525580777
 21
8.26258849553688
 31
0.0
  0
ARC
  5
8C74
330
9422
100
AcDbEntity
  8
CONTINUOUS1
100
AcDbCircle
 10
16.76452902750683
 20
9.13758674553688
 30
0.0
 40
0.23437453125
100
AcDbArc
 50
350.7931037786547
 51
9.206896221346028
  0
ARC
  5
8C75
330
9422
100
AcDbEntity
  8
CONTINUOUS1
100
AcDbCircle
 10
16.76452902750683
 20
9.13758674553688
 30
0.0
 40
0.23437453125
100
AcDbArc
 50
170.793103778654
 51
189.206896221346
  0
CIRCLE
  5
8C77
330
9422
100
AcDbEntity
  8
CONTINUOUS1
100
AcDbCircle
 10
16.76452902750683
 20
9.13758674553688
 30
0.0
 40
0.312499375
  0
LINE
  5
8C78
330
9422
100
AcDbEntity
  8
CONTINUOUS1
100
AcDbLine
 10
16.37643525580777
 20
8.715413517899275
 30
0.0
 11
18.09543525580777
 21
8.715413517899278
 31
0.0
  0
LINE
  5
8C79
330
9422
100
AcDbEntity
  8
CONTINUOUS1
100
AcDbLine
 10
16.53317393998193
 20
9.100086820536882
 30
0.0
 11
16.72702910250683
 21
9.10008682053688
 31
0.0
  0
LINE
  5
8C7C
330
9422
100
AcDbEntity
  8
CONTINUOUS1
100
AcDbLine
 10
16.80202895250683
 20
9.100086820536882
 30
0.0
 11
16.99588411503173
 21
9.100086820536885
 31
0.0
  0
LINE
  5
8C7D
330
9422
100
AcDbEntity
  8
CONTINUOUS1
100
AcDbLine
 10
16.72702910250683
 20
8.906231658011984
 30
0.0
 11
16.72702910250683
 21
9.10008682053688
 31
0.0
  0
LINE
  5
8C7E
330
9422
100
AcDbEntity
  8
CONTINUOUS1
100
AcDbLine
 10
16.80202895250683
 20
8.906231658011988
 30
0.0
 11
16.80202895250683
 21
9.100086820536882
 31
0.0
  0
ARC
  5
8C7F
330
9422
100
AcDbEntity
  8
CONTINUOUS1
100
AcDbCircle
 10
16.76452902750683
 20
9.13758674553688
 30
0.0
 40
0.23437453125
100
AcDbArc
 50
260.7931037786547
 51
279.206896221346
  0
CIRCLE
  5
8C80
330
9422
100
AcDbEntity
  8
CONTINUOUS1
100
AcDbCircle
 10
17.80344878936459
 20
8.972586995536881
 30
0.0
 40
0.0883881708716232
  0
LINE
  5
8C84
330
9422
100
AcDbEntity
  8
CONTINUOUS1
100
AcDbLine
 10
16.53317393998193
 20
9.175086670536883
 30
0.0
 11
16.72702910250683
 21
9.175086670536879
 31
0.0
  0
LINE
  5
8C85
330
9422
100
AcDbEntity
  8
CONTINUOUS1
100
AcDbLine
 10
16.80202895250683
 20
9.175086670536883
 30
0.0
 11
16.99588411503173
 21
9.175086670536883
 31
0.0
  0
LINE
  5
8C86
330
9422
100
AcDbEntity
  8
CONTINUOUS1
100
AcDbLine
 10
16.72702910250683
 20
9.175086670536879
 30
0.0
 11
16.72702910250683
 21
9.368941833061777
 31
0.0
  0
LINE
  5
8C87
330
9422
100
AcDbEntity
  8
CONTINUOUS1
100
AcDbLine
 10
16.80202895250683
 20
9.175086670536883
 30
0.0
 11
16.80202895250683
 21
9.368941833061773
 31
0.0
  0
ARC
  5
8C88
330
9422
100
AcDbEntity
  8
CONTINUOUS1
100
AcDbCircle
 10
16.76452902750683
 20
9.13758674553688
 30
0.0
 40
0.23437453125
100
AcDbArc
 50
80.79310377865477
 51
99.20689622134601
  0
LINE
  5
8C89
330
9422
100
AcDbEntity
  8
CONTINUOUS1
100
AcDbLine
 10
18.09543525580777
 20
9.315412317899276
 30
0.0
 11
17.82702690250683
 21
9.315412317899276
 31
0.0
  0
LINE
  5
8C8A
330
9422
100
AcDbEntity
  8
CONTINUOUS1
100
AcDbLine
 10
17.82702690250683
 20
9.315412317899276
 30
0.0
 11
17.82702690250683
 21
9.70008849553688
 31
0.0
  0
LINE
  5
8C8B
330
9422
100
AcDbEntity
  8
CONTINUOUS1
100
AcDbLine
 10
17.82702690250683
 20
9.501643901292133
 30
0.0
 11
17.82702690250683
 21
9.596911567899276
 31
0.0
  0
LINE
  5
8C8C
330
9422
100
AcDbEntity
  8
CONTINUOUS1
100
AcDbLine
 10
16.37643525580777
 20
8.402914142899275
 30
0.0
 11
18.09543525580777
 21
8.402914142899275
 31
0.0
  0
LINE
  5
8C8D
330
9422
100
AcDbEntity
  8
CONTINUOUS1
100
AcDbLine
 10
17.76452702750683
 20
9.70008849553688
 30
0.0
 11
18.63643525580777
 21
9.70008849553688
 31
0.0
  0
LINE
  5
8C8E
330
9422
100
AcDbEntity
  8
CONTINUOUS1
100
AcDbLine
 10
24.29364390495777
 20
13.98158849553688
 30
0.0
 11
24.29364390495777
 21
13.23158849553688
 31
0.0
  0
LINE
  5
8C8F
330
9422
100
AcDbEntity
  8
CONTINUOUS1
100
AcDbLine
 10
24.29364390495777
 20
13.23158849553688
 30
0.0
 11
24.66864390495777
 21
13.23158849553688
 31
0.0
  0
LINE
  5
8C90
330
9422
100
AcDbEntity
  8
CONTINUOUS1
100
AcDbLine
 10
24.29364390495777
 20
10.76258849553687
 30
0.0
 11
24.66864390495777
 21
10.76258849553687
 31
0.0
  0
LINE
  5
8C91
330
9422
100
AcDbEntity
  8
CONTINUOUS1
100
AcDbLine
 10
24.29364390495777
 20
10.76258849553687
 30
0.0
 11
24.29364390495777
 21
10.01258849553687
 31
0.0
  0
LINE
  5
8C92
330
9422
100
AcDbEntity
  8
CONTINUOUS1
100
AcDbLine
 10
26.30564932902304
 20
8.758663478595284
 30
0.0
 11
26.61814932902304
 21
8.758663478595284
 31
0.0
  0
LINE
  5
8C93
330
9422
100
AcDbEntity
  8
CONTINUOUS1
100
AcDbLine
 10
26.61814932902304
 20
8.758663478595284
 30
0.0
 11
26.64939932902304
 21
7.446163478595284
 31
0.0
  0
LINE
  5
8C94
330
9422
100
AcDbEntity
  8
CONTINUOUS1
100
AcDbLine
 10
26.30564932902304
 20
8.758663478595284
 30
0.0
 11
26.27439932902304
 21
7.446163478595284
 31
0.0
  0
LINE
  5
8C95
330
9422
100
AcDbEntity
  8
CONTINUOUS1
100
AcDbLine
 10
25.2124454443715
 20
8.402914142899277
 30
0.0
 11
25.2124454443715
 21
7.543088495536879
 31
0.0
  0
LINE
  5
8C96
330
9422
100
AcDbEntity
  8
CONTINUOUS1
100
AcDbLine
 10
27.46034237711776
 20
7.483473536146714
 30
0.0
 11
28.44753802100688
 21
8.125434104634404
 31
0.0
  0
ARC
  5
8C97
330
9422
100
AcDbEntity
  8
CONTINUOUS1
100
AcDbCircle
 10
28.31614932902304
 20
8.338124047082974
 30
0.0
 40
0.25
100
AcDbArc
 50
301.7055974693928
 51
359.9999999999998
  0
ARC
  5
8C98
330
9422
100
AcDbEntity
  8
CONTINUOUS1
100
AcDbCircle
 10
27.32895368513392
 20
7.696163478595282
 30
0.0
 40
0.25
100
AcDbArc
 50
280.1661904348956
 51
301.7055974693928
  0
LINE
  5
8C99
330
9422
100
AcDbEntity
  8
CONTINUOUS1
100
AcDbLine
 10
24.66864390495777
 20
13.48158849553688
 30
0.0
 11
25.23114390495777
 21
13.48158849553688
 31
0.0
  0
LINE
  5
8C9A
330
9422
100
AcDbEntity
  8
CONTINUOUS1
100
AcDbLine
 10
24.66864390495777
 20
10.51258849553688
 30
0.0
 11
25.23114390495777
 21
10.51258849553688
 31
0.0
  0
LINE
  5
8C9B
330
9422
100
AcDbEntity
  8
CONTINUOUS1
100
AcDbLine
 10
27.41864390495777
 20
13.69208849553687
 30
0.0
 11
25.23114390495777
 21
13.69208849553687
 31
0.0
  0
LINE
  5
8C9C
330
9422
100
AcDbEntity
  8
CONTINUOUS1
100
AcDbLine
 10
27.41864390495777
 20
10.30208849553687
 30
0.0
 11
25.23114390495777
 21
10.30208849553687
 31
0.0
  0
LINE
  5
8C9D
330
9422
100
AcDbEntity
  8
CONTINUOUS1
100
AcDbLine
 10
25.23114390495777
 20
13.69208849553687
 30
0.0
 11
25.23114390495777
 21
13.48158849553688
 31
0.0
  0
LINE
  5
8C9E
330
9422
100
AcDbEntity
  8
CONTINUOUS1
100
AcDbLine
 10
25.23114390495777
 20
10.51258849553688
 30
0.0
 11
25.23114390495777
 21
10.30208849553687
 31
0.0
  0
LINE
  5
8C9F
330
9422
100
AcDbEntity
  8
CONTINUOUS1
100
AcDbLine
 10
19.21943525580777
 20
10.30208849553687
 30
0.0
 11
18.71943525580777
 21
10.30208849553687
 31
0.0
  0
LINE
  5
8CA0
330
9422
100
AcDbEntity
  8
CONTINUOUS1
100
AcDbLine
 10
18.92309391325927
 20
10.47782809102091
 30
0.0
 11
18.95837820963364
 21
10.51258849553688
 31
0.0
  0
LINE
  5
8CA1
330
9422
100
AcDbEntity
  8
CONTINUOUS1
100
AcDbLine
 10
18.92277659835628
 20
10.43540287079458
 30
0.0
 11
18.97719560606123
 21
10.38016368635475
 31
0.0
  0
ARC
  5
8CA2
330
9422
100
AcDbEntity
  8
CONTINUOUS1
100
AcDbCircle
 10
18.92293525580777
 20
10.45661548090774
 30
0.0
 40
0.125
100
AcDbArc
 50
153.398396163447
 51
26.60160383655335
  0
LINE
  5
8CA3
330
9422
100
AcDbEntity
  8
CONTINUOUS1
100
AcDbLine
 10
18.88884962199457
 20
10.51258849553688
 30
0.0
 11
18.92309391325927
 21
10.47782809102091
 31
0.0
  0
LINE
  5
8CA4
330
9422
100
AcDbEntity
  8
CONTINUOUS1
100
AcDbLine
 10
18.84730363798967
 20
10.51201332279906
 30
0.0
 11
18.90172264569461
 21
10.45677413835923
 31
0.0
  0
LINE
  5
8CA5
330
9422
100
AcDbEntity
  8
CONTINUOUS1
100
AcDbLine
 10
18.8240047941841
 20
10.38021022086024
 30
0.0
 11
18.90172264569461
 21
10.45677413835923
 31
0.0
  0
ARC
  5
8CA6
330
9422
100
AcDbEntity
  8
CONTINUOUS1
100
AcDbCircle
 10
18.92293525580777
 20
10.45661548090774
 30
0.0
 40
0.09375
100
AcDbArc
 50
215.3645741066227
 51
233.7783665493139
  0
LINE
  5
8CA7
330
9422
100
AcDbEntity
  8
CONTINUOUS1
100
AcDbLine
 10
18.84505874684577
 20
10.35883895329558
 30
0.0
 11
18.92277659835628
 21
10.43540287079458
 31
0.0
  0
ARC
  5
8CA8
330
9422
100
AcDbEntity
  8
CONTINUOUS1
100
AcDbCircle
 10
18.92293525580777
 20
10.45661548090774
 30
0.0
 40
0.09375
100
AcDbArc
 50
143.3414118253697
 51
143.7783665493139
  0
ARC
  5
8CA9
330
9422
100
AcDbEntity
  8
CONTINUOUS1
100
AcDbCircle
 10
18.92293525580777
 20
10.45661548090774
 30
0.0
 40
0.09375
100
AcDbArc
 50
35.36457410662271
 51
36.65858817463028
  0
LINE
  5
8CAA
330
9422
100
AcDbEntity
  8
CONTINUOUS1
100
AcDbLine
 10
18.94414786592093
 20
10.45645682345625
 30
0.0
 11
19.00112552717835
 21
10.51258849553688
 31
0.0
  0
ARC
  5
8CAB
330
9422
100
AcDbEntity
  8
CONTINUOUS1
100
AcDbCircle
 10
18.92293525580777
 20
10.45661548090774
 30
0.0
 40
0.09375
100
AcDbArc
 50
305.3645741066227
 51
323.7783665493139
  0
LINE
  5
8CAC
330
9422
100
AcDbEntity
  8
CONTINUOUS1
100
AcDbLine
 10
18.94414786592093
 20
10.45645682345625
 30
0.0
 11
18.99856687362589
 21
10.40121763901643
 31
0.0
  0
LINE
  5
8CAD
330
9422
100
AcDbEntity
  8
CONTINUOUS1
100
AcDbLine
 10
18.71943525580777
 20
13.48158849553688
 30
0.0
 11
19.21943525580777
 21
13.48158849553687
 31
0.0
  0
LINE
  5
8CAE
330
9422
100
AcDbEntity
  8
CONTINUOUS1
100
AcDbLine
 10
19.21943525580777
 20
13.69208849553688
 30
0.0
 11
18.71943525580777
 21
13.69208849553688
 31
0.0
  0
LINE
  5
8CAF
330
9422
100
AcDbEntity
  8
CONTINUOUS1
100
AcDbLine
 10
18.92309391325927
 20
13.51634890005285
 30
0.0
 11
18.95837820963364
 21
13.48158849553688
 31
0.0
  0
ARC
  5
8CB0
330
9422
100
AcDbEntity
  8
CONTINUOUS1
100
AcDbCircle
 10
18.92293525580777
 20
13.53756151016601
 30
0.0
 40
0.125
100
AcDbArc
 50
333.3983961634466
 51
206.6016038365529
  0
LINE
  5
8CB1
330
9422
100
AcDbEntity
  8
CONTINUOUS1
100
AcDbLine
 10
18.92277659835628
 20
13.55877412027917
 30
0.0
 11
18.97719560606123
 21
13.61401330471899
 31
0.0
  0
ARC
  5
8CB2
330
9422
100
AcDbEntity
  8
CONTINUOUS1
100
AcDbCircle
 10
18.92293525580777
 20
13.53756151016601
 30
0.0
 40
0.09375
100
AcDbArc
 50
216.221633450686
 51
216.6585881746303
  0
LINE
  5
8CB3
330
9422
100
AcDbEntity
  8
CONTINUOUS1
100
AcDbLine
 10
18.88884962199457
 20
13.48158849553688
 30
0.0
 11
18.92309391325927
 21
13.51634890005285
 31
0.0
  0
LINE
  5
8CB4
330
9422
100
AcDbEntity
  8
CONTINUOUS1
100
AcDbLine
 10
18.84505874684577
 20
13.63533803777817
 30
0.0
 11
18.92277659835628
 21
13.55877412027917
 31
0.0
  0
ARC
  5
8CB5
330
9422
100
AcDbEntity
  8
CONTINUOUS1
100
AcDbCircle
 10
18.92293525580777
 20
13.53756151016601
 30
0.0
 40
0.09375
100
AcDbArc
 50
126.221633450686
 51
144.6354258933773
  0
LINE
  5
8CB6
330
9422
100
AcDbEntity
  8
CONTINUOUS1
100
AcDbLine
 10
18.8240047941841
 20
13.61396677021351
 30
0.0
 11
18.90172264569461
 21
13.53740285271452
 31
0.0
  0
LINE
  5
8CB7
330
9422
100
AcDbEntity
  8
CONTINUOUS1
100
AcDbLine
 10
18.84730363798967
 20
13.48216366827469
 30
0.0
 11
18.90172264569461
 21
13.53740285271452
 31
0.0
  0
ARC
  5
8CB8
330
9422
100
AcDbEntity
  8
CONTINUOUS1
100
AcDbCircle
 10
18.92293525580777
 20
13.53756151016601
 30
0.0
 40
0.09375
100
AcDbArc
 50
323.3414118253697
 51
324.6354258933773
  0
LINE
  5
8CB9
330
9422
100
AcDbEntity
  8
CONTINUOUS1
100
AcDbLine
 10
18.94414786592093
 20
13.5377201676175
 30
0.0
 11
19.00112552717835
 21
13.48158849553688
 31
0.0
  0
LINE
  5
8CBA
330
9422
100
AcDbEntity
  8
CONTINUOUS1
100
AcDbLine
 10
18.94414786592093
 20
13.5377201676175
 30
0.0
 11
18.99856687362589
 21
13.59295935205732
 31
0.0
  0
ARC
  5
8CBB
330
9422
100
AcDbEntity
  8
CONTINUOUS1
100
AcDbCircle
 10
18.92293525580777
 20
13.53756151016601
 30
0.0
 40
0.09375
100
AcDbArc
 50
36.22163345068602
 51
54.63542589337726
  0
LINE
  5
8CBC
330
9422
100
AcDbEntity
  8
CONTINUOUS1
100
AcDbLine
 10
29.1345068923723
 20
14.49708849553688
 30
0.0
 11
29.1345068923723
 21
14.30958849553688
 31
0.0
  0
LINE
  5
8CBD
330
9422
100
AcDbEntity
  8
CONTINUOUS1
100
AcDbLine
 10
29.0720068923723
 20
9.497088495536878
 30
0.0
 11
29.1345068923723
 21
9.497088495536878
 31
0.0
  0
LINE
  5
8CBE
330
9422
100
AcDbEntity
  8
CONTINUOUS1
100
AcDbLine
 10
29.0720068923723
 20
14.49708849553688
 30
0.0
 11
29.1345068923723
 21
14.49708849553688
 31
0.0
  0
LINE
  5
8CBF
330
9422
100
AcDbEntity
  8
CONTINUOUS1
100
AcDbLine
 10
29.0720068923723
 20
14.49708849553688
 30
0.0
 11
29.0720068923723
 21
14.30958849553688
 31
0.0
  0
LINE
  5
8CC0
330
9422
100
AcDbEntity
  8
CONTINUOUS1
100
AcDbLine
 10
28.8220068923723
 20
13.99708849553688
 30
0.0
 11
28.8220068923723
 21
10.55958849553688
 31
0.0
  0
LINE
  5
8CC1
330
9422
100
AcDbEntity
  8
CONTINUOUS1
100
AcDbLine
 10
28.7595068923723
 20
13.99708849553688
 30
0.0
 11
28.7595068923723
 21
10.55958849553688
 31
0.0
  0
LINE
  5
8CC2
330
9422
100
AcDbEntity
  8
CONTINUOUS1
100
AcDbLine
 10
29.1345068923723
 20
10.24708849553688
 30
0.0
 11
29.1345068923723
 21
9.497088495536878
 31
0.0
  0
LINE
  5
8CC3
330
9422
100
AcDbEntity
  8
CONTINUOUS1
100
AcDbLine
 10
29.0720068923723
 20
10.24708849553688
 30
0.0
 11
29.0720068923723
 21
9.497088495536878
 31
0.0
  0
ARC
  5
8CC4
330
9422
100
AcDbEntity
  8
CONTINUOUS1
100
AcDbCircle
 10
28.94700689237229
 20
14.30958849553688
 30
0.0
 40
0.125
100
AcDbArc
 50
270.0
 51
359.9999999999998
  0
ARC
  5
8CC5
330
9422
100
AcDbEntity
  8
CONTINUOUS1
100
AcDbCircle
 10
28.9470068923723
 20
10.24708849553688
 30
0.0
 40
0.125
100
AcDbArc
 50
0.0000000000000509
 51
90.0
  0
ARC
  5
8CC6
330
9422
100
AcDbEntity
  8
CONTINUOUS1
100
AcDbCircle
 10
28.9470068923723
 20
10.55958849553688
 30
0.0
 40
0.125
100
AcDbArc
 50
179.9999999999999
 51
270.0
  0
ARC
  5
8CC7
330
9422
100
AcDbEntity
  8
CONTINUOUS1
100
AcDbCircle
 10
28.94700689237229
 20
13.99708849553688
 30
0.0
 40
0.125
100
AcDbArc
 50
90.0
 51
180.0
  0
ARC
  5
8CC8
330
9422
100
AcDbEntity
  8
CONTINUOUS1
100
AcDbCircle
 10
28.94700689237229
 20
14.30958849553688
 30
0.0
 40
0.1875
100
AcDbArc
 50
270.0
 51
359.9999999999998
  0
ARC
  5
8CC9
330
9422
100
AcDbEntity
  8
CONTINUOUS1
100
AcDbCircle
 10
28.9470068923723
 20
10.24708849553688
 30
0.0
 40
0.1875
100
AcDbArc
 50
0.0000000000000509
 51
90.0
  0
ARC
  5
8CCA
330
9422
100
AcDbEntity
  8
CONTINUOUS1
100
AcDbCircle
 10
28.9470068923723
 20
10.55958849553688
 30
0.0
 40
0.1875
100
AcDbArc
 50
179.9999999999999
 51
270.0
  0
ARC
  5
8CCB
330
9422
100
AcDbEntity
  8
CONTINUOUS1
100
AcDbCircle
 10
28.94700689237229
 20
13.99708849553688
 30
0.0
 40
0.1875
100
AcDbArc
 50
90.0
 51
180.0
  0
LINE
  5
8CCC
330
9422
100
AcDbEntity
  8
CONTINUOUS1
100
AcDbLine
 10
28.88450689237229
 20
12.70508849553687
 30
0.0
 11
28.91749839518482
 21
12.70508849553687
 31
0.0
  0
LINE
  5
8CCD
330
9422
100
AcDbEntity
  8
CONTINUOUS1
100
AcDbLine
 10
28.8220068923723
 20
11.29908849553687
 30
0.0
 11
29.05700689237229
 21
11.29908849553687
 31
0.0
  0
LINE
  5
8CCE
330
9422
100
AcDbEntity
  8
CONTINUOUS1
100
AcDbLine
 10
28.8220068923723
 20
11.23658849553687
 30
0.0
 11
29.05700689237229
 21
11.23658849553687
 31
0.0
  0
LINE
  5
8CCF
330
9422
100
AcDbEntity
  8
CONTINUOUS1
100
AcDbLine
 10
28.8845068923723
 20
12.76758849553687
 30
0.0
 11
28.91749839518482
 21
12.76758849553687
 31
0.0
  0
LINE
  5
8CD0
330
9422
100
AcDbEntity
  8
CONTINUOUS1
100
AcDbLine
 10
29.0720068923723
 20
11.28408849553687
 30
0.0
 11
29.0720068923723
 21
11.25158849553687
 31
0.0
  0
LINE
  5
8CD1
330
9422
100
AcDbEntity
  8
CONTINUOUS1
100
AcDbLine
 10
29.0720068923723
 20
12.62783424694313
 30
0.0
 11
29.0720068923723
 21
12.59508849553687
 31
0.0
  0
LINE
  5
8CD2
330
9422
100
AcDbEntity
  8
CONTINUOUS1
100
AcDbLine
 10
29.0245068923723
 20
12.58008849553687
 30
0.0
 11
29.05700689237229
 21
12.58008849553687
 31
0.0
  0
LINE
  5
8CD3
330
9422
100
AcDbEntity
  8
CONTINUOUS1
100
AcDbLine
 10
28.97340009462231
 20
12.75439189441186
 30
0.0
 11
29.00290859180979
 21
12.73963764581812
 31
0.0
  0
LINE
  5
8CD4
330
9422
100
AcDbEntity
  8
CONTINUOUS1
100
AcDbLine
 10
28.94544924490356
 20
12.69849019497437
 30
0.0
 11
28.97495774209104
 21
12.68373594638063
 31
0.0
  0
LINE
  5
8CD5
330
9422
100
AcDbEntity
  8
CONTINUOUS1
100
AcDbLine
 10
29.0095068923723
 20
12.62783424694313
 30
0.0
 11
29.0095068923723
 21
12.59508849553687
 31
0.0
  0
ARC
  5
8CD6
330
9422
100
AcDbEntity
  8
CONTINUOUS1
100
AcDbCircle
 10
28.91749839518482
 20
12.64258849553687
 30
0.0
 40
0.0625
100
AcDbArc
 50
63.43494882293438
 51
90.0
  0
ARC
  5
8CD7
330
9422
100
AcDbEntity
  8
CONTINUOUS1
100
AcDbCircle
 10
28.9470068923723
 20
12.62783424694313
 30
0.0
 40
0.0625
100
AcDbArc
 50
0.0
 51
63.43494882293526
  0
ARC
  5
8CD8
330
9422
100
AcDbEntity
  8
CONTINUOUS1
100
AcDbCircle
 10
28.9470068923723
 20
12.62783424694313
 30
0.0
 40
0.125
100
AcDbArc
 50
0.0
 51
63.43494882293526
  0
ARC
  5
8CD9
330
9422
100
AcDbEntity
  8
CONTINUOUS1
100
AcDbCircle
 10
28.91749839518482
 20
12.64258849553687
 30
0.0
 40
0.125
100
AcDbArc
 50
63.43494882293438
 51
90.0
  0
ARC
  5
8CDA
330
9422
100
AcDbEntity
  8
CONTINUOUS1
100
AcDbCircle
 10
29.0245068923723
 20
12.59508849553687
 30
0.0
 40
0.015
100
AcDbArc
 50
180.0
 51
270.0000000000001
  0
ARC
  5
8CDB
330
9422
100
AcDbEntity
  8
CONTINUOUS1
100
AcDbCircle
 10
29.05700689237229
 20
12.59508849553687
 30
0.0
 40
0.015
100
AcDbArc
 50
270.0000000000002
 51
0.0
  0
ARC
  5
8CDC
330
9422
100
AcDbEntity
  8
CONTINUOUS1
100
AcDbCircle
 10
29.05700689237229
 20
11.25158849553687
 30
0.0
 40
0.015
100
AcDbArc
 50
270.0
 51
359.9999999999983
  0
ARC
  5
8CDD
330
9422
100
AcDbEntity
  8
CONTINUOUS1
100
AcDbCircle
 10
29.05700689237229
 20
11.28408849553687
 30
0.0
 40
0.015
100
AcDbArc
 50
0.0
 51
89.9999999999998
  0
ARC
  5
8CDE
330
9422
100
AcDbEntity
  8
CONTINUOUS1
100
AcDbCircle
 10
28.88040490767615
 20
12.82584720782367
 30
0.0
 40
0.0584029437251529
100
AcDbArc
 50
180.7443500610732
 51
274.0275379997038
  0
ARC
  5
8CDF
330
9422
100
AcDbEntity
  8
CONTINUOUS1
100
AcDbCircle
 10
28.8845068923723
 20
12.83008849553687
 30
0.0
 40
0.125
100
AcDbArc
 50
240.0
 51
270.0
  0
LINE
  5
8CE0
330
9422
100
AcDbEntity
  8
CONTINUOUS1
100
AcDbLine
 10
28.7700068923723
 20
9.497088495536878
 30
0.0
 11
29.04708518238643
 21
9.497088495536878
 31
0.0
  0
LINE
  5
8CE1
330
9422
100
AcDbEntity
  8
CONTINUOUS1
100
AcDbLine
 10
29.04708518238643
 20
9.497088495536878
 30
0.0
 11
29.04708518238643
 21
10.32198399518703
 31
0.0
  0
LINE
  5
8CE2
330
9422
100
AcDbEntity
  8
CONTINUOUS1
100
AcDbLine
 10
29.04708518238643
 20
10.40564632684093
 30
0.0
 11
29.04708518238643
 21
11.23658849553687
 31
0.0
  0
LINE
  5
8CE3
330
9422
100
AcDbEntity
  8
CONTINUOUS1
100
AcDbLine
 10
28.7595068923723
 20
10.55958849553688
 30
0.0
 11
28.7595068923723
 21
9.702759278361916
 31
0.0
  0
LINE
  5
8CE4
330
9422
100
AcDbEntity
  8
CONTINUOUS1
100
AcDbLine
 10
28.7595068923723
 20
13.99708849553688
 30
0.0
 11
28.7595068923723
 21
14.20574000060175
 31
0.0
  0
ARC
  5
8CE5
330
9422
100
AcDbEntity
  8
CONTINUOUS1
100
AcDbCircle
 10
25.30544544437151
 20
7.543088495536879
 30
0.0
 40
0.093
100
AcDbArc
 50
180.0000000000001
 51
269.9999999999998
  0
DIMENSION
  5
8CE6
330
9422
100
AcDbEntity
  8
DIM
100
AcDbDimension
  2
*D14
 10
30.0245302941413
 20
7.450088495536873
 30
0.0
 11
30.0245302941413
 21
9.726088495536879
 31
0.0
 70
    32
 71
     5
 42
4.552
  3
SCHNEIDERELECTRIC
100
AcDbAlignedDimension
 13
26.93414390495777
 23
12.00208849553687
 33
0.0
 14
27.39307967195339
 24
7.450088495536874
 34
0.0
 50
90.0
100
AcDbRotatedDimension
1001
ACAD
1000
DSTYLE
1002
{
1070
    40
1040
2.0
1002
}
  0
DIMENSION
  5
8CE7
330
9422
100
AcDbEntity
  8
DIM
100
AcDbDimension
  2
*D15
 10
29.1345068923723
 20
6.1447411558912
 30
0.0
 11
26.7047261683719
 21
6.1447411558912
 31
0.0
 70
    32
 71
     5
 42
4.859561448000789
  3
SCHNEIDERELECTRIC
100
AcDbAlignedDimension
 13
24.2749454443715
 23
8.402914142899277
 33
0.0
 14
29.1345068923723
 24
9.497088495536878
 34
0.0
100
AcDbRotatedDimension
1001
ACAD
1000
DSTYLE
1002
{
1070
    40
1040
2.0
1002
}
  0
DIMENSION
  5
8CE8
330
9422
100
AcDbEntity
  8
DIM
100
AcDbDimension
  2
*D16
 10
28.56614932902304
 20
6.794619960897408
 30
0.0
 11
26.42054738669727
 21
6.794619960897408
 31
0.0
 70
    32
 71
     5
 42
4.291203884651533
  3
SCHNEIDERELECTRIC
100
AcDbAlignedDimension
 13
24.2749454443715
 23
8.402914142899277
 33
0.0
 14
28.56614932902304
 24
8.338124047082972
 34
0.0
100
AcDbRotatedDimension
1001
ACAD
1000
DSTYLE
1002
{
1070
    40
1040
2.0
1002
}
  0
DIMENSION
  5
8CE9
330
9422
100
AcDbEntity
  8
DIM
100
AcDbDimension
  2
*D17
 10
18.63643525580777
 20
5.99706349553687
 30
0.0
 11
17.25643525580778
 21
5.99706349553687
 31
0.0
 70
    32
 71
     5
 42
2.760000000000001
  3
SCHNEIDERELECTRIC
100
AcDbAlignedDimension
 13
15.87643525580777
 23
7.45008849553688
 33
0.0
 14
18.63643525580777
 24
7.45008849553688
 34
0.0
100
AcDbRotatedDimension
1001
ACAD
1000
DSTYLE
1002
{
1070
    40
1040
2.0
1002
}
  0
LINE
  5
8CEA
330
9422
100
AcDbEntity
  8
CONTINUOUS1
100
AcDbLine
 10
18.09543525580777
 20
9.315412317899276
 30
0.0
 11
18.09543525580777
 21
8.402914142899275
 31
0.0
  0
LINE
  5
8CEB
330
9422
100
AcDbEntity
  8
CONTINUOUS1
100
AcDbLine
 10
16.37643525580777
 20
8.402914142899275
 30
0.0
 11
16.37643525580777
 21
9.70008849553688
 31
0.0
  0
DIMENSION
  5
8CEC
330
9422
100
AcDbEntity
  8
DIM
100
AcDbDimension
  2
*D18
 10
18.63643525580777
 20
6.55956349553687
 30
0.0
 11
18.21994202258618
 21
6.55956349553687
 31
0.0
 70
    32
 71
     5
 42
0.8329864664431845
  3
SCHNEIDERELECTRIC
100
AcDbAlignedDimension
 13
17.80344878936459
 23
8.972586995536881
 33
0.0
 14
18.63643525580777
 24
9.01258699553688
 34
0.0
100
AcDbRotatedDimension
1001
ACAD
1000
DSTYLE
1002
{
1070
    40
1040
2.0
1002
}
  0
DIMENSION
  5
8CED
330
9422
100
AcDbEntity
  8
DIM
100
AcDbDimension
  2
*D19
 10
18.63643525580777
 20
7.18456349553687
 30
0.0
 11
18.04760277787525
 21
7.18456349553687
 31
0.0
 70
    32
 71
     5
 42
1.177664955865047
  3
SCHNEIDERELECTRIC
100
AcDbAlignedDimension
 13
17.45877029994273
 23
8.847587245536882
 33
0.0
 14
18.63643525580777
 24
8.887587245536881
 34
0.0
100
AcDbRotatedDimension
1001
ACAD
1000
DSTYLE
1002
{
1070
    40
1040
2.0
1002
}
  0
LINE
  5
8CEE
330
9422
100
AcDbEntity
  8
CONTINUOUS1
100
AcDbLine
 10
28.7700068923723
 20
9.497088495536878
 30
0.0
 11
28.7700068923723
 21
10.49772372365504
 31
0.0
  0
DIMENSION
  5
8CEF
330
9422
100
AcDbEntity
  8
DIM
100
AcDbDimension
  2
*D20
 10
19.94245820621025
 20
8.972586995536881
 30
0.0
 11
19.94245820621025
 21
10.48733774553688
 31
0.0
 70
    32
 71
     5
 42
3.029501499999998
  3
SCHNEIDERELECTRIC
100
AcDbAlignedDimension
 13
19.03293525580777
 23
12.00208849553688
 33
0.0
 14
17.80344878936459
 24
8.972586995536881
 34
0.0
 50
90.0
100
AcDbRotatedDimension
1001
ACAD
1000
DSTYLE
1002
{
1070
    40
1040
2.0
1002
}
  0
TEXT
  5
8CF1
330
9422
100
AcDbEntity
  8
MOUNTING
100
AcDbText
 10
15.75
 20
18.07142857142857
 30
0.0
 40
0.125
  1
 
100
AcDbText
  0
TEXT
  5
8CF2
330
9422
100
AcDbEntity
  8
MOUNTING
100
AcDbText
 10
46.69274991407782
 20
17.44642855527803
 30
0.0
 40
0.125
  1
 
100
AcDbText
  0
LINE
  5
8CF3
330
9422
100
AcDbEntity
  8
CONTINUOUS2
100
AcDbLine
 10
18.84543525580777
 20
14.49708849553688
 30
0.0
 11
16.09543525580777
 21
14.49708849553688
 31
0.0
  0
ARC
  5
8CF4
330
9422
100
AcDbEntity
  8
CONTINUOUS2
100
AcDbCircle
 10
18.84543525580777
 20
14.30958849553688
 30
0.0
 40
0.1875
100
AcDbArc
 50
0.0
 51
90.0
  0
LINE
  5
8CF5
330
9422
100
AcDbEntity
  8
CONTINUOUS2
100
AcDbLine
 10
19.03293525580777
 20
9.684588495536878
 30
0.0
 11
19.03293525580777
 21
14.30958849553688
 31
0.0
  0
LINE
  5
8CF6
330
9422
100
AcDbEntity
  8
CONTINUOUS2
100
AcDbLine
 10
16.09543525580777
 20
14.49708849553688
 30
0.0
 11
16.09543525580777
 21
9.684588495536878
 31
0.0
  0
LINE
  5
8CF7
330
9422
100
AcDbEntity
  8
CONTINUOUS1
100
AcDbLine
 10
15.87643525580777
 20
14.19958849553688
 30
0.0
 11
16.03243525580777
 21
14.19958849553688
 31
0.0
  0
LINE
  5
8CF8
330
9422
100
AcDbEntity
  8
CONTINUOUS1
100
AcDbLine
 10
15.87643525580777
 20
9.79458849553688
 30
0.0
 11
15.87643525580777
 21
14.19958849553688
 31
0.0
  0
LINE
  5
8CF9
330
9422
100
AcDbEntity
  8
CONTINUOUS1
100
AcDbLine
 10
15.87643525580777
 20
13.98158849553688
 30
0.0
 11
19.03293525580777
 21
13.98158849553688
 31
0.0
  0
LINE
  5
8CFA
330
9422
100
AcDbEntity
  8
CONTINUOUS1
100
AcDbLine
 10
19.21943525580777
 20
13.98158849553688
 30
0.0
 11
19.21943525580777
 21
10.01258849553687
 31
0.0
  0
LINE
  5
8CFB
330
9422
100
AcDbEntity
  8
CONTINUOUS1
100
AcDbLine
 10
15.87643525580777
 20
10.01258849553687
 30
0.0
 11
19.03293525580777
 21
10.01258849553687
 31
0.0
  0
ARC
  5
8CFC
330
9422
100
AcDbEntity
  8
CONTINUOUS2
100
AcDbCircle
 10
18.84543525580777
 20
9.684588495536878
 30
0.0
 40
0.1875
100
AcDbArc
 50
270.0
 51
0.0
  0
LINE
  5
8CFD
330
9422
100
AcDbEntity
  8
CONTINUOUS2
100
AcDbLine
 10
18.46033525580777
 20
9.496949177899264
 30
0.0
 11
18.84543525580777
 21
9.497088495536878
 31
0.0
  0
LINE
  5
8CFE
330
9422
100
AcDbEntity
  8
CONTINUOUS1
100
AcDbLine
 10
18.63643525580777
 20
9.70008849553688
 30
0.0
 11
18.63643525580777
 21
7.45008849553688
 31
0.0
  0
LINE
  5
8CFF
330
9422
100
AcDbEntity
  8
CONTINUOUS1
100
AcDbLine
 10
18.63643525580777
 20
7.45008849553688
 30
0.0
 11
15.87643525580777
 21
7.45008849553688
 31
0.0
  0
LINE
  5
8D00
330
9422
100
AcDbEntity
  8
CONTINUOUS1
100
AcDbLine
 10
15.87643525580777
 20
7.45008849553688
 30
0.0
 11
15.87643525580777
 21
9.70008849553688
 31
0.0
  0
LINE
  5
8D01
330
9422
100
AcDbEntity
  8
CONTINUOUS1
100
AcDbLine
 10
15.87643525580777
 20
9.70008849553688
 30
0.0
 11
17.07702840250683
 21
9.70008849553688
 31
0.0
  0
ARC
  5
8D02
330
9422
100
AcDbEntity
  8
CONTINUOUS2
100
AcDbCircle
 10
16.28293525580778
 20
9.684588495536878
 30
0.0
 40
0.1875
100
AcDbArc
 50
180.0
 51
270.0
  0
LINE
  5
8D03
330
9422
100
AcDbEntity
  8
CONTINUOUS1
100
AcDbLine
 10
15.87643525580777
 20
9.794588495536878
 30
0.0
 11
16.03243525580777
 21
9.794588495536878
 31
0.0
  0
LINE
  5
8D04
330
9422
100
AcDbEntity
  8
CONTINUOUS1
100
AcDbLine
 10
16.03243525580777
 20
10.01258849553687
 30
0.0
 11
16.03243525580777
 21
9.794588495536878
 31
0.0
  0
LINE
  5
8D05
330
9422
100
AcDbEntity
  8
CONTINUOUS2
100
AcDbLine
 10
19.03293525580777
 20
10.01258849553687
 30
0.0
 11
19.21943525580777
 21
10.01258849553687
 31
0.0
  0
LINE
  5
8D06
330
9422
100
AcDbEntity
  8
CONTINUOUS2
100
AcDbLine
 10
19.03293525580777
 20
13.98158849553688
 30
0.0
 11
19.21943525580777
 21
13.98158849553687
 31
0.0
  0
LINE
  5
8D07
330
9422
100
AcDbEntity
  8
CONTINUOUS2
100
AcDbLine
 10
16.09543525580777
 20
10.01258849553687
 30
0.0
 11
16.09543525580777
 21
9.70008849553688
 31
0.0
  0
LINE
  5
8D08
330
9422
100
AcDbEntity
  8
CONTINUOUS2
100
AcDbLine
 10
19.03293525580777
 20
13.98158849553688
 30
0.0
 11
19.03293525580777
 21
14.30958849553688
 31
0.0
  0
LINE
  5
8D09
330
9422
100
AcDbEntity
  8
CONTINUOUS1
100
AcDbLine
 10
16.03243525580777
 20
13.98158849553688
 30
0.0
 11
16.03243525580777
 21
14.19958849553688
 31
0.0
  0
SOLID
  5
8D0A
330
9422
100
AcDbEntity
  8
DIM
100
AcDbTrace
 10
17.44043525580777
 20
14.67708849553687
 30
0.0
 11
17.50043525580777
 21
14.67708849553687
 31
0.0
 12
17.47043525580777
 22
14.49708849553688
 32
0.0
 13
17.47043525580777
 23
14.49708849553688
 33
0.0
  0
LINE
  5
8D0B
330
9422
100
AcDbEntity
  8
DIM
100
AcDbLine
 10
17.47043525580777
 20
14.49708849553688
 30
0.0
 11
17.47043525580777
 21
15.38619065380037
 31
0.0
  0
TEXT
  5
8D0C
330
9422
100
AcDbEntity
  8
DIM
100
AcDbText
 10
17.25710192247444
 20
16.41708849553688
 30
0.0
 40
0.16
  1
2.00
 72
     4
 11
17.47043525580777
 21
16.49708849553688
 31
0.0
100
AcDbText
  0
LINE
  5
8D0D
330
9422
100
AcDbEntity
  8
DIM
100
AcDbLine
 10
17.06555523146183
 20
17.13643352978838
 30
0.0
 11
17.34543525580777
 21
16.96521349553687
 31
0.0
  0
LINE
  5
8D0E
330
9422
100
AcDbEntity
  8
DIM
100
AcDbLine
 10
17.06555523146183
 20
17.32393352978838
 30
0.0
 11
17.34543525580777
 21
17.15271349553687
 31
0.0
  0
LINE
  5
8D0F
330
9422
100
AcDbEntity
  8
DIM
100
AcDbLine
 10
17.47043525580777
 20
18.49708849553687
 30
0.0
 11
17.47043525580777
 21
17.22304278235864
 31
0.0
  0
LINE
  5
8D10
330
9422
100
AcDbEntity
  8
DIM
100
AcDbLine
 10
17.34543525580777
 20
17.15271349553687
 30
0.0
 11
17.60867905299709
 21
17.3008234836695
 31
0.0
  0
LINE
  5
8D11
330
9422
100
AcDbEntity
  8
DIM
100
AcDbLine
 10
17.60867905299709
 20
17.3008234836695
 30
0.0
 11
17.87531528015372
 21
17.16256095501402
 31
0.0
  0
LINE
  5
8D12
330
9422
100
AcDbEntity
  8
DIM
100
AcDbLine
 10
17.34543525580777
 20
16.96521349553687
 30
0.0
 11
17.60867905299709
 21
17.1133234836695
 31
0.0
  0
LINE
  5
8D13
330
9422
100
AcDbEntity
  8
DIM
100
AcDbLine
 10
17.47043525580777
 20
17.03554278235864
 30
0.0
 11
17.47043525580777
 21
16.80208849553688
 31
0.0
  0
LINE
  5
8D14
330
9422
100
AcDbEntity
  8
DIM
100
AcDbLine
 10
17.60867905299709
 20
17.1133234836695
 30
0.0
 11
17.87531528015372
 21
16.97506095501402
 31
0.0
  0
SOLID
  5
8D15
330
9422
100
AcDbEntity
  8
DIM
100
AcDbTrace
 10
17.44043525580777
 20
18.31708849553687
 30
0.0
 11
17.50043525580777
 21
18.31708849553687
 31
0.0
 12
17.47043525580777
 22
18.49708849553687
 32
0.0
 13
17.47043525580777
 23
18.49708849553687
 33
0.0
  0
TEXT
  5
8D16
330
9422
100
AcDbEntity
  8
TEXT1
100
AcDbText
 10
14.63856025580778
 20
18.63125516220354
 30
0.0
 40
0.16
  1
Electrical Clearance/Wire Bending Space
 72
     4
 11
17.47856025580778
 21
18.68458849553688
 31
0.0
100
AcDbText
  0
LINE
  5
8D17
330
9422
100
AcDbEntity
  8
HIDDEN1
100
AcDbLine
 10
13.50168525580778
 20
18.49708849553687
 30
0.0
 11
21.43918525580777
 21
18.49708849553687
 31
0.0
  0
LINE
  5
8D18
330
9422
100
AcDbEntity
  8
CENTER1
100
AcDbLine
 10
17.59201169664179
 20
8.972586995536881
 30
0.0
 11
17.97342665250683
 21
8.972586995536881
 31
0.0
  0
LINE
  5
8D19
330
9422
100
AcDbEntity
  8
CENTER1
100
AcDbLine
 10
17.80344878936459
 20
8.792586995536881
 30
0.0
 11
17.80344878936459
 21
9.15258699553688
 31
0.0
  0
LINE
  5
8D1A
330
9422
100
AcDbEntity
  8
CENTER1
100
AcDbLine
 10
17.28151044227153
 20
8.972586995536881
 30
0.0
 11
17.65153257912928
 21
8.972586995536881
 31
0.0
  0
LINE
  5
8D1B
330
9422
100
AcDbEntity
  8
CENTER1
100
AcDbLine
 10
17.46151044227152
 20
8.792586995536881
 30
0.0
 11
17.46151044227152
 21
9.15258699553688
 31
0.0
  0
LINE
  5
8D1C
330
9422
100
AcDbEntity
  8
CONTINUOUS1
100
AcDbLine
 10
3.278340312133861
 20
14.200016
 30
0.0
 11
3.278340312133861
 21
11.280016
 31
0.0
  0
LINE
  5
8D1D
330
9422
100
AcDbEntity
  8
CONTINUOUS1
100
AcDbLine
 10
5.984770361417691
 20
14.200016
 30
0.0
 11
5.984770361417691
 21
11.280016
 31
0.0
  0
LINE
  5
8D1E
330
9422
100
AcDbEntity
  8
CONTINUOUS1
100
AcDbLine
 10
8.155020936401584
 20
14.200016
 30
0.0
 11
8.155020936401584
 21
11.280016
 31
0.0
  0
TEXT
  5
8D1F
330
9422
100
AcDbEntity
  8
TEXT1
100
AcDbText
 10
4.416962419619745
 20
10.5751279541962
 30
0.0
 40
0.16
  1
COMPLETE CATALOG NUMBER
100
AcDbText
  0
TEXT
  5
8D20
330
9422
100
AcDbEntity
  8
TEXT1
100
AcDbText
 10
3.616962419619746
 20
10.8551279541962
 30
0.0
 40
0.16
  1
(1) = SELECT DESIRED SUFFIX FOR
100
AcDbText
  0
LINE
  5
8D21
330
9422
100
AcDbEntity
  8
CONTINUOUS1
100
AcDbLine
 10
3.278340312133861
 20
11.920016
 30
0.0
 11
8.155020936401584
 21
11.920016
 31
0.0
  0
LINE
  5
8D22
330
9422
100
AcDbEntity
  8
CONTINUOUS1
100
AcDbLine
 10
3.278340312133861
 20
11.600016
 30
0.0
 11
8.155020936401584
 21
11.600016
 31
0.0
  0
LINE
  5
8D23
330
9422
100
AcDbEntity
  8
CONTINUOUS1
100
AcDbLine
 10
3.278340312133861
 20
11.280016
 30
0.0
 11
8.155020936401584
 21
11.280016
 31
0.0
  0
TEXT
  5
8D24
330
9422
100
AcDbEntity
  8
TEXT1
100
AcDbText
 10
4.191033426426383
 20
11.360016
 30
0.0
 40
0.16
  1
63-80
100
AcDbText
  0
TEXT
  5
8D25
330
9422
100
AcDbEntity
  8
TEXT1
100
AcDbText
 10
4.191033426426383
 20
11.680016
 30
0.0
 40
0.16
  1
55-70
100
AcDbText
  0
TEXT
  5
8D26
330
9422
100
AcDbEntity
  8
TEXT1
100
AcDbText
 10
6.345732832728637
 20
11.680016
 30
0.0
 40
0.16
  1
LR2 D35 61
100
AcDbText
  0
TEXT
  5
8D27
330
9422
100
AcDbEntity
  8
TEXT1
100
AcDbText
 10
6.345732832728637
 20
11.360016
 30
0.0
 40
0.16
  1
LR2 D35 63
100
AcDbText
  0
LINE
  5
8D28
330
9422
100
AcDbEntity
  8
CONTINUOUS1
100
AcDbLine
 10
3.278340312133861
 20
13.200016
 30
0.0
 11
8.155020936401584
 21
13.200016
 31
0.0
  0
TEXT
  5
8D29
330
9422
100
AcDbEntity
  8
TEXT1
100
AcDbText
 10
3.896962419619746
 20
14.3351279541962
 30
0.0
 40
0.16
  1
CLASS 20 OVERLOAD RELAYS
100
AcDbText
  0
LINE
  5
8D2A
330
9422
100
AcDbEntity
  8
CONTINUOUS1
100
AcDbLine
 10
3.278340312133861
 20
14.200016
 30
0.0
 11
8.155020936401584
 21
14.200016
 31
0.0
  0
LINE
  5
8D2B
330
9422
100
AcDbEntity
  8
CONTINUOUS1
100
AcDbLine
 10
3.278340312133861
 20
12.240016
 30
0.0
 11
8.155020936401584
 21
12.240016
 31
0.0
  0
LINE
  5
8D2C
330
9422
100
AcDbEntity
  8
CONTINUOUS1
100
AcDbLine
 10
3.278340312133861
 20
12.560016
 30
0.0
 11
8.155020936401584
 21
12.560016
 31
0.0
  0
LINE
  5
8D2D
330
9422
100
AcDbEntity
  8
CONTINUOUS1
100
AcDbLine
 10
3.278340312133861
 20
12.880016
 30
0.0
 11
8.155020936401584
 21
12.880016
 31
0.0
  0
LINE
  5
8D2E
330
9422
100
AcDbEntity
  8
CONTINUOUS1
100
AcDbLine
 10
3.278340312133861
 20
13.520016
 30
0.0
 11
8.155020936401584
 21
13.520016
 31
0.0
  0
TEXT
  5
8D2F
330
9422
100
AcDbEntity
  8
TEXT1
100
AcDbText
 10
3.896962419619746
 20
17.8151279541962
 30
0.0
 40
0.16
  1
CLASS 10 OVERLOAD RELAYS
100
AcDbText
  0
LINE
  5
8D30
330
9422
100
AcDbEntity
  8
CONTINUOUS1
100
AcDbLine
 10
3.278340312133861
 20
16.040016
 30
0.0
 11
8.155020936401584
 21
16.040016
 31
0.0
  0
LINE
  5
8D31
330
9422
100
AcDbEntity
  8
CONTINUOUS1
100
AcDbLine
 10
3.278340312133861
 20
16.360016
 30
0.0
 11
8.155020936401584
 21
16.360016
 31
0.0
  0
LINE
  5
8D32
330
9422
100
AcDbEntity
  8
CONTINUOUS1
100
AcDbLine
 10
3.278340312133861
 20
16.680016
 30
0.0
 11
8.155020936401584
 21
16.680016
 31
0.0
  0
LINE
  5
8D33
330
9422
100
AcDbEntity
  8
CONTINUOUS1
100
AcDbLine
 10
3.278340312133861
 20
17.680016
 30
0.0
 11
8.155020936401584
 21
17.680016
 31
0.0
  0
LINE
  5
8D34
330
9422
100
AcDbEntity
  8
CONTINUOUS1
100
AcDbLine
 10
3.278340312133861
 20
17.000016
 30
0.0
 11
8.155020936401584
 21
17.000016
 31
0.0
  0
LINE
  5
8D35
330
9422
100
AcDbEntity
  8
CONTINUOUS1
100
AcDbLine
 10
3.278340312133861
 20
15.720016
 30
0.0
 11
8.155020936401584
 21
15.720016
 31
0.0
  0
LINE
  5
8D36
330
9422
100
AcDbEntity
  8
CONTINUOUS1
100
AcDbLine
 10
3.278340312133861
 20
15.400016
 30
0.0
 11
8.155020936401584
 21
15.400016
 31
0.0
  0
LINE
  5
8D37
330
9422
100
AcDbEntity
  8
CONTINUOUS1
100
AcDbLine
 10
3.278340312133861
 20
15.080016
 30
0.0
 11
8.155020936401584
 21
15.080016
 31
0.0
  0
LINE
  5
8D38
330
9422
100
AcDbEntity
  8
CONTINUOUS1
100
AcDbLine
 10
3.278340312133861
 20
17.680016
 30
0.0
 11
3.278340312133861
 21
15.080016
 31
0.0
  0
TEXT
  5
8D39
330
9422
100
AcDbEntity
  8
TEXT1
100
AcDbText
 10
3.745368856294425
 20
13.66419510660852
 30
0.0
 40
0.16
  1
RANGE (AMPS)
100
AcDbText
  0
TEXT
  5
8D3A
330
9422
100
AcDbEntity
  8
TEXT1
100
AcDbText
 10
3.545368856294425
 20
13.90419510660852
 30
0.0
 40
0.16
  1
CURRENT SETTING
100
AcDbText
  0
TEXT
  5
8D3B
330
9422
100
AcDbEntity
  8
TEXT1
100
AcDbText
 10
4.199746036925116
 20
12.960016
 30
0.0
 40
0.16
  1
23-32
100
AcDbText
  0
TEXT
  5
8D3C
330
9422
100
AcDbEntity
  8
TEXT1
100
AcDbText
 10
4.191033426426383
 20
12.000016
 30
0.0
 40
0.16
  1
48-65
100
AcDbText
  0
TEXT
  5
8D3D
330
9422
100
AcDbEntity
  8
TEXT1
100
AcDbText
 10
4.191033426426383
 20
12.320016
 30
0.0
 40
0.16
  1
37-50
100
AcDbText
  0
TEXT
  5
8D3E
330
9422
100
AcDbEntity
  8
TEXT1
100
AcDbText
 10
4.191033426426383
 20
12.640016
 30
0.0
 40
0.16
  1
30-40
100
AcDbText
  0
TEXT
  5
8D3F
330
9422
100
AcDbEntity
  8
TEXT1
100
AcDbText
 10
4.199746036925116
 20
13.280016
 30
0.0
 40
0.16
  1
17-25
100
AcDbText
  0
TEXT
  5
8D40
330
9422
100
AcDbEntity
  8
TEXT1
100
AcDbText
 10
4.191033426426383
 20
15.160016
 30
0.0
 40
0.16
  1
63-80
100
AcDbText
  0
TEXT
  5
8D41
330
9422
100
AcDbEntity
  8
TEXT1
100
AcDbText
 10
4.191033426426383
 20
15.800016
 30
0.0
 40
0.16
  1
48-65
100
AcDbText
  0
TEXT
  5
8D42
330
9422
100
AcDbEntity
  8
TEXT1
100
AcDbText
 10
4.191033426426383
 20
15.480016
 30
0.0
 40
0.16
  1
55-70
100
AcDbText
  0
TEXT
  5
8D43
330
9422
100
AcDbEntity
  8
TEXT1
100
AcDbText
 10
4.191033426426383
 20
16.120016
 30
0.0
 40
0.16
  1
37-50
100
AcDbText
  0
TEXT
  5
8D44
330
9422
100
AcDbEntity
  8
TEXT1
100
AcDbText
 10
3.745368856294425
 20
17.14419510660852
 30
0.0
 40
0.16
  1
RANGE (AMPS)
100
AcDbText
  0
TEXT
  5
8D45
330
9422
100
AcDbEntity
  8
TEXT1
100
AcDbText
 10
3.545368856294425
 20
17.38419510660852
 30
0.0
 40
0.16
  1
CURRENT SETTING
100
AcDbText
  0
TEXT
  5
8D46
330
9422
100
AcDbEntity
  8
TEXT1
100
AcDbText
 10
4.199746036925116
 20
16.760016
 30
0.0
 40
0.16
  1
23-32
100
AcDbText
  0
TEXT
  5
8D47
330
9422
100
AcDbEntity
  8
TEXT1
100
AcDbText
 10
4.191033426426383
 20
16.440016
 30
0.0
 40
0.16
  1
30-40
100
AcDbText
  0
LINE
  5
8D48
330
9422
100
AcDbEntity
  8
CONTINUOUS1
100
AcDbLine
 10
5.984770361417691
 20
17.680016
 30
0.0
 11
5.98477036141769
 21
15.080016
 31
0.0
  0
LINE
  5
8D49
330
9422
100
AcDbEntity
  8
CONTINUOUS1
100
AcDbLine
 10
8.155020936401584
 20
17.680016
 30
0.0
 11
8.155020936401584
 21
15.080016
 31
0.0
  0
TEXT
  5
8D4A
330
9422
100
AcDbEntity
  8
TEXT1
100
AcDbText
 10
6.345732832728637
 20
13.280016
 30
0.0
 40
0.16
  1
LR2 D35 22
100
AcDbText
  0
TEXT
  5
8D4B
330
9422
100
AcDbEntity
  8
TEXT1
100
AcDbText
 10
6.345732832728637
 20
12.960016
 30
0.0
 40
0.16
  1
LR2 D35 53
100
AcDbText
  0
TEXT
  5
8D4C
330
9422
100
AcDbEntity
  8
TEXT1
100
AcDbText
 10
6.345732832728637
 20
12.640016
 30
0.0
 40
0.16
  1
LR2 D35 55
100
AcDbText
  0
TEXT
  5
8D4D
330
9422
100
AcDbEntity
  8
TEXT1
100
AcDbText
 10
6.345732832728637
 20
12.320016
 30
0.0
 40
0.16
  1
LR2 D35 57
100
AcDbText
  0
TEXT
  5
8D4E
330
9422
100
AcDbEntity
  8
TEXT1
100
AcDbText
 10
6.345732832728637
 20
12.000016
 30
0.0
 40
0.16
  1
LR2 D35 59
100
AcDbText
  0
TEXT
  5
8D4F
330
9422
100
AcDbEntity
  8
TEXT1
100
AcDbText
 10
6.562631270557299
 20
13.900016
 30
0.0
 40
0.16
  1
CATALOG
100
AcDbText
  0
TEXT
  5
8D50
330
9422
100
AcDbEntity
  8
TEXT1
100
AcDbText
 10
6.602631270557299
 20
13.660016
 30
0.0
 40
0.16
  1
NUMBER
100
AcDbText
  0
TEXT
  5
8D51
330
9422
100
AcDbEntity
  8
TEXT1
100
AcDbText
 10
6.345732832728637
 20
15.480016
 30
0.0
 40
0.16
  1
LR2 D33 61
100
AcDbText
  0
TEXT
  5
8D52
330
9422
100
AcDbEntity
  8
TEXT1
100
AcDbText
 10
6.345732832728637
 20
15.160016
 30
0.0
 40
0.16
  1
LR2 D33 63
100
AcDbText
  0
TEXT
  5
8D53
330
9422
100
AcDbEntity
  8
TEXT1
100
AcDbText
 10
6.345732832728637
 20
16.120016
 30
0.0
 40
0.16
  1
LR2 D33 57
100
AcDbText
  0
TEXT
  5
8D54
330
9422
100
AcDbEntity
  8
TEXT1
100
AcDbText
 10
6.345732832728637
 20
15.800016
 30
0.0
 40
0.16
  1
LR2 D33 59
100
AcDbText
  0
TEXT
  5
8D55
330
9422
100
AcDbEntity
  8
TEXT1
100
AcDbText
 10
6.345732832728637
 20
16.440016
 30
0.0
 40
0.16
  1
LR2 D33 55
100
AcDbText
  0
TEXT
  5
8D56
330
9422
100
AcDbEntity
  8
TEXT1
100
AcDbText
 10
6.562631270557299
 20
17.380016
 30
0.0
 40
0.16
  1
CATALOG
100
AcDbText
  0
TEXT
  5
8D57
330
9422
100
AcDbEntity
  8
TEXT1
100
AcDbText
 10
6.345732832728637
 20
16.760016
 30
0.0
 40
0.16
  1
LR2 D33 53
100
AcDbText
  0
TEXT
  5
8D58
330
9422
100
AcDbEntity
  8
TEXT1
100
AcDbText
 10
6.602631270557299
 20
17.140016
 30
0.0
 40
0.16
  1
NUMBER
100
AcDbText
  0
LINE
  5
8D59
330
9422
100
AcDbEntity
  8
CONTINUOUS1
100
AcDbLine
 10
18.77764786592094
 20
13.84018738045766
 30
0.0
 11
18.85536571743145
 21
13.91675129795665
 31
0.0
  0
ARC
  5
8D5A
330
9422
100
AcDbEntity
  8
CONTINUOUS1
100
AcDbCircle
 10
18.75643525580778
 20
13.84034603790915
 30
0.0
 40
0.125
100
AcDbArc
 50
257.5257982895026
 51
102.4742017104973
  0
LINE
  5
8D5B
330
9422
100
AcDbEntity
  8
CONTINUOUS1
100
AcDbLine
 10
18.75627659835629
 20
13.81913342779599
 30
0.0
 11
18.81069560606123
 21
13.76389424335616
 31
0.0
  0
LINE
  5
8D5C
330
9422
100
AcDbEntity
  8
CONTINUOUS1
100
AcDbLine
 10
18.72943525580778
 20
13.84637930996437
 30
0.0
 11
18.73522264569461
 21
13.84050469536064
 31
0.0
  0
LINE
  5
8D5D
330
9422
100
AcDbEntity
  8
CONTINUOUS1
100
AcDbLine
 10
18.72943525580778
 20
13.83480323510128
 30
0.0
 11
18.73522264569461
 21
13.84050469536064
 31
0.0
  0
LINE
  5
8D5E
330
9422
100
AcDbEntity
  8
CONTINUOUS1
100
AcDbLine
 10
18.72943525580778
 20
13.79269061837056
 30
0.0
 11
18.75627659835629
 21
13.81913342779599
 31
0.0
  0
ARC
  5
8D5F
330
9422
100
AcDbEntity
  8
CONTINUOUS1
100
AcDbCircle
 10
18.75643525580778
 20
13.84034603790915
 30
0.0
 40
0.09375
100
AcDbArc
 50
305.3645741066227
 51
323.7783665493139
  0
LINE
  5
8D60
330
9422
100
AcDbEntity
  8
CONTINUOUS1
100
AcDbLine
 10
18.77764786592094
 20
13.84018738045766
 30
0.0
 11
18.83206687362589
 21
13.78494819601784
 31
0.0
  0
LINE
  5
8D61
330
9422
100
AcDbEntity
  8
CONTINUOUS1
100
AcDbLine
 10
18.75659391325926
 20
13.86155864802231
 30
0.0
 11
18.83431176476978
 21
13.93812256552131
 31
0.0
  0
LINE
  5
8D62
330
9422
100
AcDbEntity
  8
CONTINUOUS1
100
AcDbLine
 10
18.72943525580778
 20
13.88912662750909
 30
0.0
 11
18.75659391325926
 21
13.86155864802231
 31
0.0
  0
ARC
  5
8D63
330
9422
100
AcDbEntity
  8
CONTINUOUS1
100
AcDbCircle
 10
18.75643525580778
 20
13.84034603790915
 30
0.0
 40
0.09375
100
AcDbArc
 50
35.36457410662271
 51
53.77836654931397
  0
ARC
  5
8D64
330
9422
100
AcDbEntity
  8
CONTINUOUS1
100
AcDbCircle
 10
18.74643525580777
 20
10.16084603790915
 30
0.0
 40
0.125
100
AcDbArc
 50
257.5257982895026
 51
102.4742017104973
  0
LINE
  5
8D65
330
9422
100
AcDbEntity
  8
CONTINUOUS1
100
AcDbLine
 10
18.76764786592094
 20
10.16068738045765
 30
0.0
 11
18.82206687362589
 21
10.10544819601783
 31
0.0
  0
LINE
  5
8D66
330
9422
100
AcDbEntity
  8
CONTINUOUS1
100
AcDbLine
 10
18.76764786592094
 20
10.16068738045765
 30
0.0
 11
18.84536571743145
 21
10.23725129795665
 31
0.0
  0
LINE
  5
8D67
330
9422
100
AcDbEntity
  8
CONTINUOUS1
100
AcDbLine
 10
18.74627659835629
 20
10.13963342779598
 30
0.0
 11
18.80069560606123
 21
10.08439424335616
 31
0.0
  0
LINE
  5
8D68
330
9422
100
AcDbEntity
  8
CONTINUOUS1
100
AcDbLine
 10
18.74659391325926
 20
10.18205864802231
 30
0.0
 11
18.82431176476978
 21
10.2586225655213
 31
0.0
  0
LINE
  5
8D69
330
9422
100
AcDbEntity
  8
CONTINUOUS1
100
AcDbLine
 10
18.71943525580778
 20
10.11319061837055
 30
0.0
 11
18.74627659835629
 21
10.13963342779598
 31
0.0
  0
LINE
  5
8D6A
330
9422
100
AcDbEntity
  8
CONTINUOUS1
100
AcDbLine
 10
18.71943525580778
 20
10.15530323510128
 30
0.0
 11
18.72522264569461
 21
10.16100469536064
 31
0.0
  0
LINE
  5
8D6B
330
9422
100
AcDbEntity
  8
CONTINUOUS1
100
AcDbLine
 10
18.71943525580778
 20
10.16687930996437
 30
0.0
 11
18.72522264569461
 21
10.16100469536064
 31
0.0
  0
LINE
  5
8D6C
330
9422
100
AcDbEntity
  8
CONTINUOUS1
100
AcDbLine
 10
18.71943525580778
 20
10.20962662750908
 30
0.0
 11
18.74659391325926
 21
10.18205864802231
 31
0.0
  0
ARC
  5
8D6D
330
9422
100
AcDbEntity
  8
CONTINUOUS1
100
AcDbCircle
 10
18.74643525580777
 20
10.16084603790915
 30
0.0
 40
0.09375
100
AcDbArc
 50
305.3645741066227
 51
323.7783665493139
  0
ARC
  5
8D6E
330
9422
100
AcDbEntity
  8
CONTINUOUS1
100
AcDbCircle
 10
18.74643525580777
 20
10.16084603790915
 30
0.0
 40
0.09375
100
AcDbArc
 50
35.36457410662271
 51
53.77836654931397
  0
DIMENSION
  5
8D6F
330
9422
100
AcDbEntity
  8
DIM
100
AcDbDimension
  2
*D21
 10
30.9718163136596
 20
14.49708849553688
 30
0.0
 11
30.97181631365959
 21
10.97358849553688
 31
0.0
 70
    32
 71
     5
 42
7.047000000000005
  3
SCHNEIDERELECTRIC
100
AcDbAlignedDimension
 13
27.39307967195339
 23
7.450088495536874
 33
0.0
 14
29.1345068923723
 24
14.49708849553688
 34
0.0
 50
90.0
100
AcDbRotatedDimension
1001
ACAD
1000
DSTYLE
1002
{
1070
    40
1040
2.0
1002
}
  0
TEXT
  5
8D7A
330
9422
100
AcDbEntity
  8
TEXT1
100
AcDbText
 10
20.4375
 20
17.49712599553687
 30
0.0
 40
0.16
  1
Minimum to wall or barrier to insure adequate
100
AcDbText
  0
TEXT
  5
8D7B
330
9422
100
AcDbEntity
  8
TEXT1
100
AcDbText
 10
20.4375
 20
16.89328621872502
 30
0.0
 40
0.16
  1
the maximum wire size is used. REF. NEC 430-10
100
AcDbText
  0
TEXT
  5
8D7C
330
9422
100
AcDbEntity
  8
TEXT1
100
AcDbText
 10
20.4375
 20
17.23820377025703
 30
0.0
 40
0.16
  1
wire bending space to lug surface when
100
AcDbText
  0
DIMENSION
  5
8D88
330
9422
100
AcDbEntity
  8
DIM
100
AcDbDimension
  2
*D22
 10
24.2749454443715
 20
5.43456349553687
 30
0.0
 11
24.1961954443715
 21
4.94956349553687
 31
0.0
 70
    32
 71
     5
 42
0.1574999999999989
  3
SCHNEIDERELECTRIC
100
AcDbAlignedDimension
 13
24.11744544437151
 23
8.887587245536881
 33
0.0
 14
24.2749454443715
 24
8.402914142899277
 34
0.0
100
AcDbRotatedDimension
1001
ACAD
1000
DSTYLE
1002
{
1070
    40
1040
2.0
1002
}
  0
LINE
  5
8E7D
330
9422
100
AcDbEntity
  8
CONTINUOUS1
100
AcDbLine
 10
17.4395542486584
 20
8.590997296302838
 30
0.0
 11
17.49784252071451
 21
8.648420119581208
 31
0.0
  0
LINE
  5
8E7E
330
9422
100
AcDbEntity
  8
CONTINUOUS1
100
AcDbLine
 10
17.43931626295714
 20
8.559178444770925
 30
0.0
 11
17.48013043710734
 21
8.517749139299832
 31
0.0
  0
CIRCLE
  5
8E7F
330
9422
100
AcDbEntity
  8
CONTINUOUS1
100
AcDbCircle
 10
17.43943525580777
 20
8.575087870536881
 30
0.0
 40
0.0937498125
  0
LINE
  5
8E80
330
9422
100
AcDbEntity
  8
CONTINUOUS1
100
AcDbLine
 10
17.39874007450821
 20
8.63242660177393
 30
0.0
 11
17.4395542486584
 21
8.590997296302838
 31
0.0
  0
LINE
  5
8E81
330
9422
100
AcDbEntity
  8
CONTINUOUS1
100
AcDbLine
 10
17.38271165589162
 20
8.616636168858605
 30
0.0
 11
17.42352583004181
 21
8.575206863387514
 31
0.0
  0
LINE
  5
8E82
330
9422
100
AcDbEntity
  8
CONTINUOUS1
100
AcDbLine
 10
17.36523755798571
 20
8.517784040109143
 30
0.0
 11
17.42352583004181
 21
8.575206863387514
 31
0.0
  0
ARC
  5
8E83
330
9422
100
AcDbEntity
  8
CONTINUOUS1
100
AcDbCircle
 10
17.43943525580777
 20
8.575087870536881
 30
0.0
 40
0.070312359375
100
AcDbArc
 50
215.3645741066227
 51
233.7783665493139
  0
LINE
  5
8E84
330
9422
100
AcDbEntity
  8
CONTINUOUS1
100
AcDbLine
 10
17.38102799090103
 20
8.501755621492554
 30
0.0
 11
17.43931626295714
 21
8.559178444770925
 31
0.0
  0
ARC
  5
8E85
330
9422
100
AcDbEntity
  8
CONTINUOUS1
100
AcDbCircle
 10
17.43943525580777
 20
8.575087870536881
 30
0.0
 40
0.070312359375
100
AcDbArc
 50
125.364574106622
 51
143.778366549314
  0
ARC
  5
8E86
330
9422
100
AcDbEntity
  8
CONTINUOUS1
100
AcDbCircle
 10
17.43943525580777
 20
8.575087870536881
 30
0.0
 40
0.070312359375
100
AcDbArc
 50
35.36457410662267
 51
53.77836654931392
  0
LINE
  5
8E87
330
9422
100
AcDbEntity
  8
CONTINUOUS1
100
AcDbLine
 10
17.45534468157373
 20
8.574968877686249
 30
0.0
 11
17.51363295362984
 21
8.632391700964619
 31
0.0
  0
ARC
  5
8E88
330
9422
100
AcDbEntity
  8
CONTINUOUS1
100
AcDbCircle
 10
17.43943525580777
 20
8.575087870536881
 30
0.0
 40
0.070312359375
100
AcDbArc
 50
305.3645741066227
 51
323.778366549314
  0
LINE
  5
8E89
330
9422
100
AcDbEntity
  8
CONTINUOUS1
100
AcDbLine
 10
17.45534468157373
 20
8.574968877686249
 30
0.0
 11
17.49615885572393
 21
8.533539572215158
 31
0.0
  0
LINE
  5
8E8A
330
9422
100
AcDbEntity
  8
CONTINUOUS1
100
AcDbLine
 10
17.8455534366584
 20
8.590997296302838
 30
0.0
 11
17.90384170871451
 21
8.648420119581208
 31
0.0
  0
LINE
  5
8E8B
330
9422
100
AcDbEntity
  8
CONTINUOUS1
100
AcDbLine
 10
17.84531545095714
 20
8.559178444770925
 30
0.0
 11
17.88612962510734
 21
8.517749139299832
 31
0.0
  0
CIRCLE
  5
8E8C
330
9422
100
AcDbEntity
  8
CONTINUOUS1
100
AcDbCircle
 10
17.84543444380777
 20
8.575087870536881
 30
0.0
 40
0.0937498125
  0
LINE
  5
8E8D
330
9422
100
AcDbEntity
  8
CONTINUOUS1
100
AcDbLine
 10
17.80473926250821
 20
8.63242660177393
 30
0.0
 11
17.8455534366584
 21
8.590997296302838
 31
0.0
  0
LINE
  5
8E8E
330
9422
100
AcDbEntity
  8
CONTINUOUS1
100
AcDbLine
 10
17.78871084389161
 20
8.616636168858605
 30
0.0
 11
17.82952501804181
 21
8.575206863387514
 31
0.0
  0
LINE
  5
8E8F
330
9422
100
AcDbEntity
  8
CONTINUOUS1
100
AcDbLine
 10
17.77123674598571
 20
8.517784040109143
 30
0.0
 11
17.82952501804181
 21
8.575206863387514
 31
0.0
  0
ARC
  5
8E90
330
9422
100
AcDbEntity
  8
CONTINUOUS1
100
AcDbCircle
 10
17.84543444380777
 20
8.575087870536881
 30
0.0
 40
0.070312359375
100
AcDbArc
 50
215.3645741066227
 51
233.7783665493139
  0
LINE
  5
8E91
330
9422
100
AcDbEntity
  8
CONTINUOUS1
100
AcDbLine
 10
17.78702717890103
 20
8.501755621492554
 30
0.0
 11
17.84531545095714
 21
8.559178444770925
 31
0.0
  0
ARC
  5
8E92
330
9422
100
AcDbEntity
  8
CONTINUOUS1
100
AcDbCircle
 10
17.84543444380777
 20
8.575087870536881
 30
0.0
 40
0.070312359375
100
AcDbArc
 50
125.364574106622
 51
143.778366549314
  0
ARC
  5
8E93
330
9422
100
AcDbEntity
  8
CONTINUOUS1
100
AcDbCircle
 10
17.84543444380777
 20
8.575087870536881
 30
0.0
 40
0.070312359375
100
AcDbArc
 50
35.36457410662267
 51
53.77836654931392
  0
LINE
  5
8E94
330
9422
100
AcDbEntity
  8
CONTINUOUS1
100
AcDbLine
 10
17.86134386957373
 20
8.574968877686249
 30
0.0
 11
17.91963214162984
 21
8.632391700964619
 31
0.0
  0
ARC
  5
8E95
330
9422
100
AcDbEntity
  8
CONTINUOUS1
100
AcDbCircle
 10
17.84543444380777
 20
8.575087870536881
 30
0.0
 40
0.070312359375
100
AcDbArc
 50
305.3645741066227
 51
323.778366549314
  0
LINE
  5
8E96
330
9422
100
AcDbEntity
  8
CONTINUOUS1
100
AcDbLine
 10
17.86134386957373
 20
8.574968877686249
 30
0.0
 11
17.90215804372393
 21
8.533539572215158
 31
0.0
  0
LINE
  5
8E97
330
9422
100
AcDbEntity
  8
CONTINUOUS1
100
AcDbLine
 10
17.0325534366584
 20
8.590997296302838
 30
0.0
 11
17.09084170871451
 21
8.648420119581208
 31
0.0
  0
LINE
  5
8E98
330
9422
100
AcDbEntity
  8
CONTINUOUS1
100
AcDbLine
 10
17.03231545095714
 20
8.559178444770925
 30
0.0
 11
17.07312962510734
 21
8.517749139299832
 31
0.0
  0
CIRCLE
  5
8E99
330
9422
100
AcDbEntity
  8
CONTINUOUS1
100
AcDbCircle
 10
17.03243444380777
 20
8.575087870536881
 30
0.0
 40
0.0937498125
  0
LINE
  5
8E9A
330
9422
100
AcDbEntity
  8
CONTINUOUS1
100
AcDbLine
 10
16.9917392625082
 20
8.63242660177393
 30
0.0
 11
17.0325534366584
 21
8.590997296302838
 31
0.0
  0
LINE
  5
8E9B
330
9422
100
AcDbEntity
  8
CONTINUOUS1
100
AcDbLine
 10
16.97571084389161
 20
8.616636168858605
 30
0.0
 11
17.01652501804181
 21
8.575206863387514
 31
0.0
  0
LINE
  5
8E9C
330
9422
100
AcDbEntity
  8
CONTINUOUS1
100
AcDbLine
 10
16.95823674598571
 20
8.517784040109143
 30
0.0
 11
17.01652501804181
 21
8.575206863387514
 31
0.0
  0
ARC
  5
8E9D
330
9422
100
AcDbEntity
  8
CONTINUOUS1
100
AcDbCircle
 10
17.03243444380777
 20
8.575087870536881
 30
0.0
 40
0.070312359375
100
AcDbArc
 50
215.3645741066227
 51
233.7783665493139
  0
LINE
  5
8E9E
330
9422
100
AcDbEntity
  8
CONTINUOUS1
100
AcDbLine
 10
16.97402717890103
 20
8.501755621492554
 30
0.0
 11
17.03231545095714
 21
8.559178444770925
 31
0.0
  0
ARC
  5
8E9F
330
9422
100
AcDbEntity
  8
CONTINUOUS1
100
AcDbCircle
 10
17.03243444380777
 20
8.575087870536881
 30
0.0
 40
0.070312359375
100
AcDbArc
 50
125.364574106622
 51
143.778366549314
  0
ARC
  5
8EA0
330
9422
100
AcDbEntity
  8
CONTINUOUS1
100
AcDbCircle
 10
17.03243444380777
 20
8.575087870536881
 30
0.0
 40
0.070312359375
100
AcDbArc
 50
35.36457410662267
 51
53.77836654931392
  0
LINE
  5
8EA1
330
9422
100
AcDbEntity
  8
CONTINUOUS1
100
AcDbLine
 10
17.04834386957373
 20
8.574968877686249
 30
0.0
 11
17.10663214162983
 21
8.632391700964619
 31
0.0
  0
ARC
  5
8EA2
330
9422
100
AcDbEntity
  8
CONTINUOUS1
100
AcDbCircle
 10
17.03243444380777
 20
8.575087870536881
 30
0.0
 40
0.070312359375
100
AcDbArc
 50
305.3645741066227
 51
323.778366549314
  0
LINE
  5
8EA3
330
9422
100
AcDbEntity
  8
CONTINUOUS1
100
AcDbLine
 10
17.04834386957373
 20
8.574968877686249
 30
0.0
 11
17.08915804372393
 21
8.533539572215158
 31
0.0
  0
LINE
  5
8EA4
330
9422
100
AcDbEntity
  8
CONTINUOUS1
100
AcDbLine
 10
16.6265542486584
 20
8.590997296302838
 30
0.0
 11
16.68484252071451
 21
8.648420119581208
 31
0.0
  0
LINE
  5
8EA5
330
9422
100
AcDbEntity
  8
CONTINUOUS1
100
AcDbLine
 10
16.62631626295714
 20
8.559178444770925
 30
0.0
 11
16.66713043710734
 21
8.517749139299832
 31
0.0
  0
CIRCLE
  5
8EA6
330
9422
100
AcDbEntity
  8
CONTINUOUS1
100
AcDbCircle
 10
16.62643525580777
 20
8.575087870536881
 30
0.0
 40
0.0937498125
  0
LINE
  5
8EA7
330
9422
100
AcDbEntity
  8
CONTINUOUS1
100
AcDbLine
 10
16.58574007450821
 20
8.63242660177393
 30
0.0
 11
16.6265542486584
 21
8.590997296302838
 31
0.0
  0
LINE
  5
8EA8
330
9422
100
AcDbEntity
  8
CONTINUOUS1
100
AcDbLine
 10
16.56971165589162
 20
8.616636168858605
 30
0.0
 11
16.61052583004182
 21
8.575206863387514
 31
0.0
  0
LINE
  5
8EA9
330
9422
100
AcDbEntity
  8
CONTINUOUS1
100
AcDbLine
 10
16.55223755798571
 20
8.517784040109143
 30
0.0
 11
16.61052583004182
 21
8.575206863387514
 31
0.0
  0
ARC
  5
8EAA
330
9422
100
AcDbEntity
  8
CONTINUOUS1
100
AcDbCircle
 10
16.62643525580777
 20
8.575087870536881
 30
0.0
 40
0.070312359375
100
AcDbArc
 50
215.3645741066227
 51
233.7783665493139
  0
LINE
  5
8EAB
330
9422
100
AcDbEntity
  8
CONTINUOUS1
100
AcDbLine
 10
16.56802799090104
 20
8.501755621492554
 30
0.0
 11
16.62631626295714
 21
8.559178444770925
 31
0.0
  0
ARC
  5
8EAC
330
9422
100
AcDbEntity
  8
CONTINUOUS1
100
AcDbCircle
 10
16.62643525580777
 20
8.575087870536881
 30
0.0
 40
0.070312359375
100
AcDbArc
 50
125.364574106622
 51
143.778366549314
  0
ARC
  5
8EAD
330
9422
100
AcDbEntity
  8
CONTINUOUS1
100
AcDbCircle
 10
16.62643525580777
 20
8.575087870536881
 30
0.0
 40
0.070312359375
100
AcDbArc
 50
35.36457410662267
 51
53.77836654931392
  0
LINE
  5
8EAE
330
9422
100
AcDbEntity
  8
CONTINUOUS1
100
AcDbLine
 10
16.64234468157373
 20
8.574968877686249
 30
0.0
 11
16.70063295362984
 21
8.632391700964619
 31
0.0
  0
ARC
  5
8EAF
330
9422
100
AcDbEntity
  8
CONTINUOUS1
100
AcDbCircle
 10
16.62643525580777
 20
8.575087870536881
 30
0.0
 40
0.070312359375
100
AcDbArc
 50
305.3645741066227
 51
323.778366549314
  0
LINE
  5
8EB0
330
9422
100
AcDbEntity
  8
CONTINUOUS1
100
AcDbLine
 10
16.64234468157373
 20
8.574968877686249
 30
0.0
 11
16.68315885572393
 21
8.533539572215158
 31
0.0
  0
LINE
  5
8EB1
330
9422
100
AcDbEntity
  8
CONTINUOUS1
100
AcDbLine
 10
17.07702840250683
 20
9.440412067899275
 30
0.0
 11
17.76452702750683
 21
9.440412067899275
 31
0.0
  0
LINE
  5
8EB2
330
9422
100
AcDbEntity
  8
CONTINUOUS1
100
AcDbLine
 10
17.76452702750683
 20
9.440412067899275
 30
0.0
 11
17.76452702750683
 21
9.752911442899277
 31
0.0
  0
LINE
  5
8EB3
330
9422
100
AcDbEntity
  8
CONTINUOUS1
100
AcDbLine
 10
17.76452702750683
 20
9.752911442899277
 30
0.0
 11
17.07702840250683
 21
9.752911442899277
 31
0.0
  0
LINE
  5
8EB4
330
9422
100
AcDbEntity
  8
CONTINUOUS1
100
AcDbLine
 10
17.07702840250683
 20
9.752911442899277
 30
0.0
 11
17.07702840250683
 21
9.440412067899275
 31
0.0
  0
LINE
  5
8EB5
330
9422
100
AcDbEntity
  8
CONTINUOUS1
100
AcDbLine
 10
17.33377054994273
 20
8.847587245536882
 30
0.0
 11
17.33377054994273
 21
9.097586745536881
 31
0.0
  0
LINE
  5
8EB6
330
9422
100
AcDbEntity
  8
CONTINUOUS1
100
AcDbLine
 10
17.33377054994273
 20
9.097586745536881
 30
0.0
 11
17.58377004994273
 21
9.097586745536881
 31
0.0
  0
LINE
  5
8EB7
330
9422
100
AcDbEntity
  8
CONTINUOUS1
100
AcDbLine
 10
17.58377004994273
 20
9.097586745536881
 30
0.0
 11
17.58377004994273
 21
8.847587245536882
 31
0.0
  0
LINE
  5
8EB8
330
9422
100
AcDbEntity
  8
CONTINUOUS1
100
AcDbLine
 10
17.58377004994273
 20
8.847587245536882
 30
0.0
 11
17.33377054994273
 21
8.847587245536882
 31
0.0
  0
LINE
  5
8EB9
330
9422
100
AcDbEntity
  8
CONTINUOUS1
100
AcDbLine
 10
18.92309391325927
 20
13.28380110565004
 30
0.0
 11
19.00081176476978
 21
13.36036502314903
 31
0.0
  0
LINE
  5
8EBA
330
9422
100
AcDbEntity
  8
CONTINUOUS1
100
AcDbLine
 10
18.92277659835628
 20
13.24137588542371
 30
0.0
 11
18.97719560606123
 21
13.18613670098389
 31
0.0
  0
CIRCLE
  5
8EBB
330
9422
100
AcDbEntity
  8
CONTINUOUS1
100
AcDbCircle
 10
18.92293525580777
 20
13.26258849553688
 30
0.0
 40
0.125
  0
LINE
  5
8EBC
330
9422
100
AcDbEntity
  8
CONTINUOUS1
100
AcDbLine
 10
18.86867490555432
 20
13.33904029008986
 30
0.0
 11
18.92309391325927
 21
13.28380110565004
 31
0.0
  0
LINE
  5
8EBD
330
9422
100
AcDbEntity
  8
CONTINUOUS1
100
AcDbLine
 10
18.84730363798967
 20
13.31798633742819
 30
0.0
 11
18.90172264569461
 21
13.26274715298837
 31
0.0
  0
LINE
  5
8EBE
330
9422
100
AcDbEntity
  8
CONTINUOUS1
100
AcDbLine
 10
18.8240047941841
 20
13.18618323548937
 30
0.0
 11
18.90172264569461
 21
13.26274715298837
 31
0.0
  0
ARC
  5
8EBF
330
9422
100
AcDbEntity
  8
CONTINUOUS1
100
AcDbCircle
 10
18.92293525580777
 20
13.26258849553688
 30
0.0
 40
0.09375
100
AcDbArc
 50
215.3645741066227
 51
233.7783665493139
  0
LINE
  5
8EC0
330
9422
100
AcDbEntity
  8
CONTINUOUS1
100
AcDbLine
 10
18.84505874684577
 20
13.16481196792472
 30
0.0
 11
18.92277659835628
 21
13.24137588542371
 31
0.0
  0
ARC
  5
8EC1
330
9422
100
AcDbEntity
  8
CONTINUOUS1
100
AcDbCircle
 10
18.92293525580777
 20
13.26258849553688
 30
0.0
 40
0.09375
100
AcDbArc
 50
125.3645741066219
 51
143.7783665493139
  0
ARC
  5
8EC2
330
9422
100
AcDbEntity
  8
CONTINUOUS1
100
AcDbCircle
 10
18.92293525580777
 20
13.26258849553688
 30
0.0
 40
0.09375
100
AcDbArc
 50
35.36457410662272
 51
53.77836654931401
  0
LINE
  5
8EC3
330
9422
100
AcDbEntity
  8
CONTINUOUS1
100
AcDbLine
 10
18.94414786592094
 20
13.26242983808538
 30
0.0
 11
19.02186571743145
 21
13.33899375558438
 31
0.0
  0
ARC
  5
8EC4
330
9422
100
AcDbEntity
  8
CONTINUOUS1
100
AcDbCircle
 10
18.92293525580777
 20
13.26258849553688
 30
0.0
 40
0.09375
100
AcDbArc
 50
305.3645741066227
 51
323.7783665493139
  0
LINE
  5
8EC5
330
9422
100
AcDbEntity
  8
CONTINUOUS1
100
AcDbLine
 10
18.94414786592094
 20
13.26242983808538
 30
0.0
 11
18.99856687362589
 21
13.20719065364556
 31
0.0
  0
LINE
  5
8EC6
330
9422
100
AcDbEntity
  8
CONTINUOUS1
100
AcDbLine
 10
18.92309391325927
 20
10.72130110565004
 30
0.0
 11
19.00081176476978
 21
10.79786502314903
 31
0.0
  0
LINE
  5
8EC7
330
9422
100
AcDbEntity
  8
CONTINUOUS1
100
AcDbLine
 10
18.92277659835628
 20
10.67887588542371
 30
0.0
 11
18.97719560606123
 21
10.62363670098389
 31
0.0
  0
CIRCLE
  5
8EC8
330
9422
100
AcDbEntity
  8
CONTINUOUS1
100
AcDbCircle
 10
18.92293525580777
 20
10.70008849553688
 30
0.0
 40
0.125
  0
LINE
  5
8EC9
330
9422
100
AcDbEntity
  8
CONTINUOUS1
100
AcDbLine
 10
18.86867490555432
 20
10.77654029008986
 30
0.0
 11
18.92309391325927
 21
10.72130110565004
 31
0.0
  0
LINE
  5
8ECA
330
9422
100
AcDbEntity
  8
CONTINUOUS1
100
AcDbLine
 10
18.84730363798967
 20
10.75548633742819
 30
0.0
 11
18.90172264569461
 21
10.70024715298837
 31
0.0
  0
LINE
  5
8ECB
330
9422
100
AcDbEntity
  8
CONTINUOUS1
100
AcDbLine
 10
18.8240047941841
 20
10.62368323548937
 30
0.0
 11
18.90172264569461
 21
10.70024715298837
 31
0.0
  0
ARC
  5
8ECC
330
9422
100
AcDbEntity
  8
CONTINUOUS1
100
AcDbCircle
 10
18.92293525580777
 20
10.70008849553688
 30
0.0
 40
0.09375
100
AcDbArc
 50
215.3645741066227
 51
233.7783665493139
  0
LINE
  5
8ECD
330
9422
100
AcDbEntity
  8
CONTINUOUS1
100
AcDbLine
 10
18.84505874684577
 20
10.60231196792472
 30
0.0
 11
18.92277659835628
 21
10.67887588542371
 31
0.0
  0
ARC
  5
8ECE
330
9422
100
AcDbEntity
  8
CONTINUOUS1
100
AcDbCircle
 10
18.92293525580777
 20
10.70008849553688
 30
0.0
 40
0.09375
100
AcDbArc
 50
125.3645741066219
 51
143.7783665493139
  0
ARC
  5
8ECF
330
9422
100
AcDbEntity
  8
CONTINUOUS1
100
AcDbCircle
 10
18.92293525580777
 20
10.70008849553688
 30
0.0
 40
0.09375
100
AcDbArc
 50
35.36457410662272
 51
53.77836654931401
  0
LINE
  5
8ED0
330
9422
100
AcDbEntity
  8
CONTINUOUS1
100
AcDbLine
 10
18.94414786592094
 20
10.69992983808538
 30
0.0
 11
19.02186571743145
 21
10.77649375558438
 31
0.0
  0
ARC
  5
8ED1
330
9422
100
AcDbEntity
  8
CONTINUOUS1
100
AcDbCircle
 10
18.92293525580777
 20
10.70008849553688
 30
0.0
 40
0.09375
100
AcDbArc
 50
305.3645741066227
 51
323.7783665493139
  0
LINE
  5
8ED2
330
9422
100
AcDbEntity
  8
CONTINUOUS1
100
AcDbLine
 10
18.94414786592094
 20
10.69992983808538
 30
0.0
 11
18.99856687362589
 21
10.64469065364556
 31
0.0
  0
LINE
  5
8FE2
330
9422
100
AcDbEntity
  8
CONTINUOUS2
100
AcDbLine
 10
29.11554021943295
 20
12.45583849553687
 30
0.0
 11
29.11554021943295
 21
11.54833849553688
 31
0.0
  0
LINE
  5
8FE3
330
9422
100
AcDbEntity
  8
CONTINUOUS2
100
AcDbLine
 10
29.14679021943295
 20
12.45583849553687
 30
0.0
 11
29.14679021943295
 21
11.54833849553688
 31
0.0
  0
LINE
  5
8FE4
330
9422
100
AcDbEntity
  8
CONTINUOUS2
100
AcDbLine
 10
28.83454021943295
 20
11.43958849553688
 30
0.0
 11
28.83454021943295
 21
11.32458849553688
 31
0.0
  0
LINE
  5
8FE5
330
9422
100
AcDbEntity
  8
CONTINUOUS2
100
AcDbLine
 10
28.86579021943295
 20
11.43958849553688
 30
0.0
 11
28.86579021943295
 21
11.32458849553688
 31
0.0
  0
ARC
  5
8FE6
330
9422
100
AcDbEntity
  8
CONTINUOUS2
100
AcDbCircle
 10
28.84454021943295
 20
11.32458849553688
 30
0.0
 40
0.01
100
AcDbArc
 50
180.0
 51
270.0
  0
LINE
  5
8FE7
330
9422
100
AcDbEntity
  8
CONTINUOUS2
100
AcDbLine
 10
28.84454021943295
 20
11.31458849553687
 30
0.0
 11
28.85579021943295
 21
11.31458849553687
 31
0.0
  0
ARC
  5
8FE8
330
9422
100
AcDbEntity
  8
CONTINUOUS2
100
AcDbCircle
 10
28.85579021943295
 20
11.32458849553688
 30
0.0
 40
0.01
100
AcDbArc
 50
270.0
 51
0.0
  0
LINE
  5
8FE9
330
9422
100
AcDbEntity
  8
CONTINUOUS2
100
AcDbLine
 10
28.89704021943295
 20
11.47083849553687
 30
0.0
 11
29.08429021943295
 21
11.48583849553687
 31
0.0
  0
LINE
  5
8FEA
330
9422
100
AcDbEntity
  8
CONTINUOUS2
100
AcDbLine
 10
28.89704021943295
 20
11.50208849553687
 30
0.0
 11
29.08429021943295
 21
11.51708849553688
 31
0.0
  0
ARC
  5
8FEB
330
9422
100
AcDbEntity
  8
CONTINUOUS2
100
AcDbCircle
 10
28.89704021943295
 20
11.43958849553688
 30
0.0
 40
0.03125
100
AcDbArc
 50
90.0
 51
180.0
  0
ARC
  5
8FEC
330
9422
100
AcDbEntity
  8
CONTINUOUS2
100
AcDbCircle
 10
28.89704021943295
 20
11.43958849553688
 30
0.0
 40
0.0625
100
AcDbArc
 50
90.0
 51
180.0
  0
ARC
  5
8FED
330
9422
100
AcDbEntity
  8
CONTINUOUS2
100
AcDbCircle
 10
29.08429021943295
 20
11.54833849553688
 30
0.0
 40
0.03125
100
AcDbArc
 50
270.0
 51
0.0
  0
ARC
  5
8FEE
330
9422
100
AcDbEntity
  8
CONTINUOUS2
100
AcDbCircle
 10
29.08429021943295
 20
11.54833849553688
 30
0.0
 40
0.0625
100
AcDbArc
 50
270.0
 51
0.0
  0
LINE
  5
8FEF
330
9422
100
AcDbEntity
  8
CONTINUOUS2
100
AcDbLine
 10
28.89704021943295
 20
12.50208849553688
 30
0.0
 11
29.08429021943295
 21
12.48708849553687
 31
0.0
  0
LINE
  5
8FF0
330
9422
100
AcDbEntity
  8
CONTINUOUS2
100
AcDbLine
 10
28.89704021943295
 20
12.53333849553688
 30
0.0
 11
29.08429021943295
 21
12.51833849553688
 31
0.0
  0
ARC
  5
8FF1
330
9422
100
AcDbEntity
  8
CONTINUOUS2
100
AcDbCircle
 10
28.89704021943295
 20
12.56458849553688
 30
0.0
 40
0.03125
100
AcDbArc
 50
180.0
 51
270.0
  0
ARC
  5
8FF2
330
9422
100
AcDbEntity
  8
CONTINUOUS2
100
AcDbCircle
 10
28.89704021943295
 20
12.56458849553688
 30
0.0
 40
0.0625
100
AcDbArc
 50
180.0
 51
270.0
  0
LINE
  5
8FF3
330
9422
100
AcDbEntity
  8
CONTINUOUS2
100
AcDbLine
 10
28.83454021943295
 20
12.67958849553687
 30
0.0
 11
28.83454021943295
 21
12.56458849553688
 31
0.0
  0
ARC
  5
8FF4
330
9422
100
AcDbEntity
  8
CONTINUOUS2
100
AcDbCircle
 10
28.84454021943295
 20
12.67958849553687
 30
0.0
 40
0.01
100
AcDbArc
 50
90.0
 51
180.0
  0
LINE
  5
8FF5
330
9422
100
AcDbEntity
  8
CONTINUOUS2
100
AcDbLine
 10
28.86579021943295
 20
12.67958849553687
 30
0.0
 11
28.86579021943295
 21
12.56458849553688
 31
0.0
  0
LINE
  5
8FF6
330
9422
100
AcDbEntity
  8
CONTINUOUS2
100
AcDbLine
 10
28.84454021943295
 20
12.68958849553688
 30
0.0
 11
28.85579021943295
 21
12.68958849553688
 31
0.0
  0
ARC
  5
8FF7
330
9422
100
AcDbEntity
  8
CONTINUOUS2
100
AcDbCircle
 10
28.85579021943295
 20
12.67958849553687
 30
0.0
 40
0.01
100
AcDbArc
 50
0.0
 51
90.0
  0
ARC
  5
8FF8
330
9422
100
AcDbEntity
  8
CONTINUOUS2
100
AcDbCircle
 10
29.08429021943295
 20
12.45583849553687
 30
0.0
 40
0.0625
100
AcDbArc
 50
0.0
 51
90.0
  0
ARC
  5
8FF9
330
9422
100
AcDbEntity
  8
CONTINUOUS2
100
AcDbCircle
 10
29.08429021943295
 20
12.45583849553687
 30
0.0
 40
0.03125
100
AcDbArc
 50
0.0
 51
90.0
  0
DIMENSION
  5
9054
330
9422
100
AcDbEntity
  8
DIM
100
AcDbDimension
  2
*D23
 10
19.21943525580777
 20
15.52820504240833
 30
0.0
 11
17.54793525580778
 21
15.52820504240833
 31
0.0
 70
    32
 71
     5
 42
3.342999999999999
  3
SCHNEIDERELECTRIC
100
AcDbAlignedDimension
 13
15.87643525580777
 23
14.19958849553688
 33
0.0
 14
19.21943525580777
 24
13.98158849553688
 34
0.0
100
AcDbRotatedDimension
1001
ACAD
1000
DSTYLE
1002
{
1070
    40
1040
2.0
1002
}
  0
LINE
  5
906E
330
9422
100
AcDbEntity
  8
DIM
100
AcDbLine
 10
17.47043525580777
 20
15.66417833380244
 30
0.0
 11
17.47043525580777
 21
16.19208849553688
 31
0.0
  0
VIEWPORT
  5
32
330
941F
100
AcDbEntity
 67
     1
  8
0
100
AcDbViewport
 10
8.241274625810955
 20
5.075844902210881
 30
0.0
 40
16.56461064270452
 41
10.66619254378095
 68
     1
 69
     1
 12
8.241274625810955
 22
5.075844902210881
 13
0.0
 23
0.0
 14
0.5
 24
0.5
 15
0.5
 25
0.5
 16
0.0
 26
0.0
 36
1.0
 17
0.0
 27
0.0
 37
0.0
 42
50.0
 43
0.0
 44
0.0
 45
10.66619254378095
 50
0.0
 51
0.0
 72
   100
 90
    32768
  1

281
     0
 71
     1
 74
     0
110
0.0
120
0.0
130
0.0
111
1.0
121
0.0
131
0.0
112
0.0
122
1.0
132
0.0
 79
     0
146
0.0
  0
LWPOLYLINE
  5
175
330
941F
100
AcDbEntity
 67
     1
  8
VIEWPORT
100
AcDbPolyline
 90
        6
 70
     1
 43
0.0
 10
16.40000099999999
 20
10.25
 10
16.40000099999999
 20
0.9120019999999993
 10
8.002461
 20
0.9120019999999993
 10
8.002461
 20
0.0
 10
0.0
 20
0.0
 10
0.0
 20
10.25
1001
GENIUS_GENOREF_13
1005
0
1005
0
1005
0
1005
0
1005
0
1005
0
1005
0
  0
VIEWPORT
  5
177
330
941F
100
AcDbEntity
 67
     1
  8
VIEWPORT
100
AcDbViewport
 10
8.200000499999999
 20
5.125
 30
0.0
 40
16.40000099999999
 41
10.25
 68
     2
 69
     2
 12
16.40000115274158
 22
10.34497697373774
 13
0.0
 23
0.0
 14
0.5
 24
0.5
 15
0.5
 25
0.5
 16
0.0
 26
0.0
 36
1.0
 17
0.0
 27
0.0
 37
0.0
 42
50.0
 43
0.0
 44
0.0
 45
20.5
 50
0.0
 51
0.0
 72
   100
 90
    32832
  1

281
     0
 71
     1
 74
     0
110
0.0
120
0.0
130
0.0
111
1.0
121
0.0
131
0.0
112
0.0
122
1.0
132
0.0
 79
     0
146
0.0
1001
GENIUS_GENOREF_13
1005
0
1005
0
1005
0
1005
0
1005
0
1005
0
1005
0
1001
GENIUS_GENSCREG_15
1000
PF
1040
0.0
1000
DF
1040
0.0
1000
MIN
1011
0.0
1021
0.0
1031
0.0
1000
MAX
1011
16.40000099999999
1021
10.25
1031
0.0
1000
FLAGS
1070
     2
  0
INSERT
  5
B2C
330
941F
100
AcDbEntity
 67
     1
  8
TITLEBLOCK
100
AcDbBlockReference
 66
     1
  2
TITLE-PAD
 10
0.0
 20
0.0
 30
0.0
  0
ATTRIB
  5
B2D
330
B2C
100
AcDbEntity
 67
     1
  8
TEXT1
 62
     0
100
AcDbText
 10
9.62326692036656
 20
0.6974460884590166
 30
0.0
 40
0.1
  1
IEC STARTER
  7
ROMANS
 72
     4
 11
10.10183834893798
 21
0.7474460884590166
 31
0.0
100
AcDbAttribute
  2
DESCRIPTION 1
 70
     0
  0
ATTRIB
  5
B2E
330
B2C
100
AcDbEntity
 67
     1
  8
TEXT1
 62
     0
100
AcDbText
 10
8.673266920366561
 20
0.5588660282835287
 30
0.0
 40
0.1
  1
LC1 D80 WITH LR2 D3(1) OVERLOAD
  7
ROMANS
 72
     4
 11
10.10183834893798
 21
0.6017231711406717
 31
0.0
100
AcDbAttribute
  2
DESCRIPTION 2
 70
     0
  0
ATTRIB
  5
B2F
330
B2C
100
AcDbEntity
 67
     1
  8
TEXT1
 62
     0
100
AcDbText
 10
10.10183834893798
 20
0.4560002538223267
 30
0.0
 40
0.08
  1

  7
ROMANS
 72
     4
 11
10.10183834893798
 21
0.4560002538223267
 31
0.0
100
AcDbAttribute
  2
DESCRIPTION 3
 70
     0
  0
ATTRIB
  5
B30
330
B2C
100
AcDbEntity
 67
     1
  8
TEXT1
 62
     0
100
AcDbText
 10
9.981838348937989
 20
0.3202773365039833
 30
0.0
 40
0.08
  1
   
  7
ROMANS
 72
     4
 11
10.10183834893798
 21
0.3202773365039833
 31
0.0
100
AcDbAttribute
  2
DESCRIPTION 4
 70
     0
  0
ATTRIB
  5
B31
330
B2C
100
AcDbEntity
 67
     1
  8
TEXT1
 62
     0
100
AcDbText
 10
10.10183834893798
 20
0.1845544191856399
 30
0.0
 40
0.08
  1

  7
ROMANS
 72
     4
 11
10.10183834893798
 21
0.1845544191856399
 31
0.0
100
AcDbAttribute
  2
DESCRIPTION 5
 70
     0
  0
ATTRIB
  5
B32
330
B2C
100
AcDbEntity
 67
     1
  8
TEXT1
 62
     0
100
AcDbText
 10
12.74772367103195
 20
0.096540546036505
 30
0.0
 40
0.12
  1
E0202001-01
 41
0.9512024731840066
  7
M_STANDARD
 11
12.74772367103195
 21
0.156540546036505
 31
0.0
100
AcDbAttribute
  2
DWGNO
 70
     0
 74
     2
  0
ATTRIB
  5
B33
330
B2C
100
AcDbEntity
 67
     1
  8
TEXT1
 62
     0
100
AcDbText
 10
15.78363597806468
 20
-0.1507193079929352
 30
0.0
 40
0.08
  1
E0202001
  7
ROMANS
 72
     2
 11
16.35506454949325
 21
-0.1107193079929352
 31
0.0
100
AcDbAttribute
  2
REF
 70
     0
 74
     2
  0
ATTRIB
  5
B34
330
B2C
100
AcDbEntity
 67
     1
  8
TEXT1
 62
     0
100
AcDbText
 10
0.0266402374038712
 20
-0.1507193079929352
 30
0.0
 40
0.08
  1
NOVEMBER 2000
  7
ROMANS
 11
0.0266402374038712
 21
-0.1107193079929352
 31
0.0
100
AcDbAttribute
  2
DATE
 70
     0
 74
     2
  0
SEQEND
  5
B35
330
B2C
100
AcDbEntity
 67
     1
  8
0
  0
INSERT
  5
D86
330
941F
100
AcDbEntity
 67
     1
  8
TITLEBLOCK
100
AcDbBlockReference
  2
OEM-NOTES
 10
0.0
 20
0.0
 30
0.0
 41
0.5
 42
0.5
 43
0.5
  0
ENDSEC
  0
SECTION
  2
OBJECTS
  0
DICTIONARY
  5
9417
330
0
100
AcDbDictionary
281
     1
  3
ACAD_GROUP
350
9418
  3
ACAD_MLINESTYLE
350
9425
  3
ACDBVARIABLEDICTIONARY
350
946E
  3
ACAD_PLOTSTYLENAME
350
9474
  3
ACAD_LAYOUT
350
9476
  3
ACAD_PLOTSETTINGS
350
9477
  0
DICTIONARY
  5
9418
102
{ACAD_REACTORS
330
9417
102
}
330
9417
100
AcDbDictionary
281
     1
  0
DICTIONARY
  5
9425
102
{ACAD_REACTORS
330
9417
102
}
330
9417
100
AcDbDictionary
281
     1
  3
STANDARD
350
9426
  0
DICTIONARY
  5
946E
102
{ACAD_REACTORS
330
9417
102
}
330
9417
100
AcDbDictionary
281
     1
  3
DIMADEC
350
946F
  0
ACDBDICTIONARYWDFLT
  5
9474
102
{ACAD_REACTORS
330
9417
102
}
330
9417
100
AcDbDictionary
281
     1
  3
Normal
350
9475
100
AcDbDictionaryWithDefault
340
9475
  0
DICTIONARY
  5
9476
102
{ACAD_REACTORS
330
9417
102
}
330
9417
100
AcDbDictionary
281
     1
  3
Model
350
9478
  3
Layout1
350
9479
  0
DICTIONARY
  5
9477
102
{ACAD_REACTORS
330
9417
102
}
330
9417
100
AcDbDictionary
281
     1
  0
MLINESTYLE
  5
9426
102
{ACAD_REACTORS
330
9425
102
}
330
9425
100
AcDbMlineStyle
  2
STANDARD
 70
     0
  3

 62
   256
 51
90.0
 52
90.0
 71
     2
 49
0.5
 62
   256
  6
BYLAYER
 49
-0.5
 62
   256
  6
BYLAYER
  0
DICTIONARYVAR
  5
946F
102
{ACAD_REACTORS
330
946E
102
}
330
946E
100
DictionaryVariables
280
     0
  1
0
  0
ACDBPLACEHOLDER
  5
9475
102
{ACAD_REACTORS
330
9474
102
}
330
9474
  0
LAYOUT
  5
9478
102
{ACAD_REACTORS
330
9476
102
}
330
9476
100
AcDbPlotSettings
  1

  2
HP LaserJet 5Si MX
  4

  6

 40
0.0
 41
0.0
 42
0.0
 43
0.0
 44
0.0
 45
0.0
 46
0.0
 47
0.0
 48
0.0
 49
0.0
140
0.0
141
0.0
142
1.0
143
1.0
 70
  1712
 72
     0
 73
     0
 74
     0
  7
Default R14 pen assignments.ctb
 75
     0
147
1.0
148
0.0
149
0.0
100
AcDbLayout
  1
Model
 70
     1
 71
     0
 10
0.0
 20
0.0
 11
12.0
 21
9.0
 12
0.0
 22
0.0
 32
0.0
 14
0.0
 24
0.0
 34
0.0
 15
0.0
 25
0.0
 35
0.0
146
0.0
 13
0.0
 23
0.0
 33
0.0
 16
1.0
 26
0.0
 36
0.0
 17
0.0
 27
1.0
 37
0.0
 76
     0
330
9422
  0
LAYOUT
  5
9479
102
{ACAD_REACTORS
330
9476
102
}
330
9476
100
AcDbPlotSettings
  1

  2
HP LaserJet 5Si MX
  4
Letter
  6

 40
7.143749713897705
 41
6.127734661102294
 42
7.14373779296875
 43
7.14373779296875
 44
215.8999938964843
 45
279.3999938964843
 46
0.0
 47
0.0
 48
0.0
 49
0.0
140
0.0
141
0.0
142
1.0
143
1.56543289575492
 70
   688
 72
     0
 73
     1
 74
     1
  7
Default R14 pen assignments.ctb
 75
     0
147
0.6388009366046674
148
0.0156789521332257
149
3.842302519086636
100
AcDbLayout
  1
Layout1
 70
     1
 71
     1
 10
-0.4408945311769357
 20
-0.5915497370181854
 11
16.7788669459601
 21
12.71462950073154
 12
0.0
 22
0.0
 32
0.0
 14
-0.0006172815800483
 24
-0.1512717527199463
 34
-0.0015258207003583
 15
16.40120720521414
 25
10.25018675959692
 35
0.0000000349246037
146
0.0
 13
0.0
 23
0.0
 33
0.0
 16
1.0
 26
0.0
 36
0.0
 17
0.0
 27
1.0
 37
0.0
 76
     0
330
941F
331
32
  0
ENDSEC
  0
EOF
