  0
SECTION
  2
HEADER
  9
$ACADVER
  1
AC1012
  9
$DWGCODEPAGE
  3
ANSI_1252
  9
$INSBASE
 10
402.590624
 20
-1.041018
 30
0.0
  9
$EXTMIN
 10
11.17249
 20
19.920465
 30
0.0
  9
$EXTMAX
 10
126.734648
 20
132.024959
 30
0.0
  9
$LIMMIN
 10
-407.970438
 20
-367.832444
  9
$LIMMAX
 10
429.804077
 20
234.370848
  9
$ORTHOMODE
 70
     0
  9
$REGENMODE
 70
     1
  9
$FILLMODE
 70
     1
  9
$QTEXTMODE
 70
     0
  9
$MIRRTEXT
 70
     1
  9
$DRAGMODE
 70
     2
  9
$LTSCALE
 40
10.0
  9
$OSMODE
 70
    37
  9
$ATTMODE
 70
     1
  9
$TEXTSIZE
 40
6.0
  9
$TRACEWID
 40
1.0
  9
$TEXTSTYLE
  7
ROMANS
  9
$CLAYER
  8
COTATION1
  9
$CELTYPE
  6
BYLAYER
  9
$CECOLOR
 62
   256
  9
$CELTSCALE
 40
1.0
  9
$DELOBJ
 70
     1
  9
$DISPSILH
 70
     0
  9
$DIMSCALE
 40
1.0
  9
$DIMASZ
 40
5.0
  9
$DIMEXO
 40
2.0
  9
$DIMDLI
 40
0.38
  9
$DIMRND
 40
0.0
  9
$DIMDLE
 40
0.0
  9
$DIMEXE
 40
2.5
  9
$DIMTP
 40
0.0
  9
$DIMTM
 40
0.0
  9
$DIMTXT
 40
2.5
  9
$DIMCEN
 40
0.0
  9
$DIMTSZ
 40
0.0
  9
$DIMTOL
 70
     0
  9
$DIMLIM
 70
     0
  9
$DIMTIH
 70
     1
  9
$DIMTOH
 70
     1
  9
$DIMSE1
 70
     0
  9
$DIMSE2
 70
     0
  9
$DIMTAD
 70
     1
  9
$DIMZIN
 70
    12
  9
$DIMBLK
  1
OPEN30
  9
$DIMASO
 70
     1
  9
$DIMSHO
 70
     1
  9
$DIMPOST
  1

  9
$DIMAPOST
  1

  9
$DIMALT
 70
     0
  9
$DIMALTD
 70
     2
  9
$DIMALTF
 40
25.4
  9
$DIMLFAC
 40
1.0
  9
$DIMTOFL
 70
     0
  9
$DIMTVP
 40
0.0
  9
$DIMTIX
 70
     0
  9
$DIMSOXD
 70
     0
  9
$DIMSAH
 70
     0
  9
$DIMBLK1
  1

  9
$DIMBLK2
  1

  9
$DIMSTYLE
  2
SC_DEFAUT
  9
$DIMCLRD
 70
     0
  9
$DIMCLRE
 70
     0
  9
$DIMCLRT
 70
     0
  9
$DIMTFAC
 40
1.0
  9
$DIMGAP
 40
2.0
  9
$DIMJUST
 70
     0
  9
$DIMSD1
 70
     0
  9
$DIMSD2
 70
     0
  9
$DIMTOLJ
 70
     1
  9
$DIMTZIN
 70
    12
  9
$DIMALTZ
 70
    12
  9
$DIMALTTZ
 70
    12
  9
$DIMFIT
 70
     5
  9
$DIMUPT
 70
     0
  9
$DIMUNIT
 70
     2
  9
$DIMDEC
 70
     1
  9
$DIMTDEC
 70
     1
  9
$DIMALTU
 70
     2
  9
$DIMALTTD
 70
     2
  9
$DIMTXSTY
  7
ROMANS
  9
$DIMAUNIT
 70
     0
  9
$LUNITS
 70
     2
  9
$LUPREC
 70
     1
  9
$SKETCHINC
 40
0.1
  9
$FILLETRAD
 40
0.0
  9
$AUNITS
 70
     0
  9
$AUPREC
 70
     0
  9
$MENU
  1
acad
  9
$ELEVATION
 40
0.0
  9
$PELEVATION
 40
0.0
  9
$THICKNESS
 40
0.0
  9
$LIMCHECK
 70
     0
  9
$BLIPMODE
 70
     0
  9
$CHAMFERA
 40
0.0
  9
$CHAMFERB
 40
0.0
  9
$CHAMFERC
 40
0.0
  9
$CHAMFERD
 40
0.0
  9
$SKPOLY
 70
     0
  9
$TDCREATE
 40
2450373.687919444
  9
$TDUPDATE
 40
2453644.601611748
  9
$TDINDWG
 40
1.0843371875
  9
$TDUSRTIMER
 40
1.0843371875
  9
$USRTIMER
 70
     1
  9
$ANGBASE
 50
0.0
  9
$ANGDIR
 70
     0
  9
$PDMODE
 70
    32
  9
$PDSIZE
 40
0.0
  9
$PLINEWID
 40
0.0
  9
$COORDS
 70
     1
  9
$SPLFRAME
 70
     0
  9
$SPLINETYPE
 70
     6
  9
$SPLINESEGS
 70
     8
  9
$ATTDIA
 70
     0
  9
$ATTREQ
 70
     1
  9
$HANDLING
 70
     1
  9
$HANDSEED
  5
C3C6
  9
$SURFTAB1
 70
     6
  9
$SURFTAB2
 70
     6
  9
$SURFTYPE
 70
     6
  9
$SURFU
 70
     6
  9
$SURFV
 70
     6
  9
$UCSNAME
  2

  9
$UCSORG
 10
0.0
 20
0.0
 30
0.0
  9
$UCSXDIR
 10
1.0
 20
0.0
 30
0.0
  9
$UCSYDIR
 10
0.0
 20
1.0
 30
0.0
  9
$PUCSNAME
  2

  9
$PUCSORG
 10
0.0
 20
0.0
 30
0.0
  9
$PUCSXDIR
 10
1.0
 20
0.0
 30
0.0
  9
$PUCSYDIR
 10
0.0
 20
1.0
 30
0.0
  9
$USERI1
 70
     0
  9
$USERI2
 70
     0
  9
$USERI3
 70
     0
  9
$USERI4
 70
     0
  9
$USERI5
 70
     0
  9
$USERR1
 40
0.0
  9
$USERR2
 40
0.0
  9
$USERR3
 40
0.0
  9
$USERR4
 40
0.0
  9
$USERR5
 40
0.0
  9
$WORLDVIEW
 70
     1
  9
$SHADEDGE
 70
     3
  9
$SHADEDIF
 70
    70
  9
$TILEMODE
 70
     1
  9
$MAXACTVP
 70
    16
  9
$PINSBASE
 10
0.0
 20
0.0
 30
0.0
  9
$PLIMCHECK
 70
     0
  9
$PEXTMIN
 10
1.000000E+20
 20
1.000000E+20
 30
1.000000E+20
  9
$PEXTMAX
 10
-1.000000E+20
 20
-1.000000E+20
 30
-1.000000E+20
  9
$PLIMMIN
 10
0.0
 20
0.0
  9
$PLIMMAX
 10
12.0
 20
9.0
  9
$UNITMODE
 70
     0
  9
$VISRETAIN
 70
     0
  9
$PLINEGEN
 70
     0
  9
$PSLTSCALE
 70
     0
  9
$TREEDEPTH
 70
  3020
  9
$PICKSTYLE
 70
     0
  9
$CMLSTYLE
  2
STANDARD
  9
$CMLJUST
 70
     0
  9
$CMLSCALE
 40
1.0
  9
$SAVEIMAGES
 70
     1
  0
ENDSEC
  0
SECTION
  2
CLASSES
  0
CLASS
  1
ACDBDICTIONARYWDFLT
  2
AcDbDictionaryWithDefault
  3
AutoCAD 2000
 90
    32768
280
     0
281
     0
  0
CLASS
  1
ACDBPLACEHOLDER
  2
AcDbPlaceHolder
  3
AutoCAD 2000
 90
    32768
280
     0
281
     0
  0
CLASS
  1
LAYOUT
  2
AcDbLayout
  3
AutoCAD 2000
 90
    32768
280
     0
281
     0
  0
CLASS
  1
DICTIONARYVAR
  2
AcDbDictionaryVar
  3
"AutoCAD"
 90
    32768
280
     0
281
     0
  0
CLASS
  1
LONG_TRANSACTION
  2
AcDbLongTransaction
  3
AutoCAD 2000
 90
    32768
280
     0
281
     0
  0
CLASS
  1
LWPOLYLINE
  2
AcDbPolyline
  3
"AutoCAD"
 90
    32768
280
     0
281
     1
  0
CLASS
  1
HATCH
  2
AcDbHatch
  3
"ACAD_SEDONA"
 90
    32768
280
     0
281
     1
  0
CLASS
  1
XRECORD
  2
AcDbXrecord
  3
"<Built In>"
 90
    32768
280
     0
281
     0
  0
CLASS
  1
LONG_TRANSACTION
  2
AcDbLongTransaction
  3
AutoCAD 2000
 90
    32768
280
     0
281
     0
  0
CLASS
  1
LWPOLYLINE
  2
AcDbPolyline
  3
"AutoCAD"
 90
    32768
280
     0
281
     1
  0
CLASS
  1
HATCH
  2
AcDbHatch
  3
"ACAD_SEDONA"
 90
    32768
280
     0
281
     1
  0
CLASS
  1
XRECORD
  2
AcDbXrecord
  3
"<Built In>"
 90
    32768
280
     0
281
     0
  0
CLASS
  1
LONG_TRANSACTION
  2
AcDbLongTransaction
  3
AutoCAD 2000
 90
    32768
280
     0
281
     0
  0
CLASS
  1
LWPOLYLINE
  2
AcDbPolyline
  3
"AutoCAD"
 90
    32768
280
     0
281
     1
  0
CLASS
  1
HATCH
  2
AcDbHatch
  3
"ACAD_SEDONA"
 90
    32768
280
     0
281
     1
  0
CLASS
  1
XRECORD
  2
AcDbXrecord
  3
"<Built In>"
 90
    32768
280
     0
281
     0
  0
CLASS
  1
LONG_TRANSACTION
  2
AcDbLongTransaction
  3
AutoCAD 2000
 90
    32768
280
     0
281
     0
  0
CLASS
  1
LWPOLYLINE
  2
AcDbPolyline
  3
"AutoCAD"
 90
    32768
280
     0
281
     1
  0
CLASS
  1
HATCH
  2
AcDbHatch
  3
"ACAD_SEDONA"
 90
    32768
280
     0
281
     1
  0
CLASS
  1
XRECORD
  2
AcDbXrecord
  3
"<Built In>"
 90
    32768
280
     0
281
     0
  0
CLASS
  1
LONG_TRANSACTION
  2
AcDbLongTransaction
  3
AutoCAD 2000
 90
    32768
280
     0
281
     0
  0
CLASS
  1
LWPOLYLINE
  2
AcDbPolyline
  3
"AutoCAD"
 90
    32768
280
     0
281
     1
  0
CLASS
  1
HATCH
  2
AcDbHatch
  3
"ACAD_SEDONA"
 90
    32768
280
     0
281
     1
  0
CLASS
  1
XRECORD
  2
AcDbXrecord
  3
"<Built In>"
 90
    32768
280
     0
281
     0
  0
CLASS
  1
LONG_TRANSACTION
  2
AcDbLongTransaction
  3
AutoCAD 2000
 90
    32768
280
     0
281
     0
  0
CLASS
  1
LWPOLYLINE
  2
AcDbPolyline
  3
"AutoCAD"
 90
    32768
280
     0
281
     1
  0
CLASS
  1
HATCH
  2
AcDbHatch
  3
"ACAD_SEDONA"
 90
    32768
280
     0
281
     1
  0
CLASS
  1
XRECORD
  2
AcDbXrecord
  3
"<Built In>"
 90
    32768
280
     0
281
     0
  0
CLASS
  1
LONG_TRANSACTION
  2
AcDbLongTransaction
  3
AutoCAD 2000
 90
    32768
280
     0
281
     0
  0
CLASS
  1
LWPOLYLINE
  2
AcDbPolyline
  3
"AutoCAD"
 90
    32768
280
     0
281
     1
  0
CLASS
  1
HATCH
  2
AcDbHatch
  3
"ACAD_SEDONA"
 90
    32768
280
     0
281
     1
  0
CLASS
  1
XRECORD
  2
AcDbXrecord
  3
"<Built In>"
 90
    32768
280
     0
281
     0
  0
CLASS
  1
LONG_TRANSACTION
  2
AcDbLongTransaction
  3
AutoCAD 2000
 90
    32768
280
     0
281
     0
  0
CLASS
  1
LWPOLYLINE
  2
AcDbPolyline
  3
"AutoCAD"
 90
    32768
280
     0
281
     1
  0
CLASS
  1
HATCH
  2
AcDbHatch
  3
"ACAD_SEDONA"
 90
    32768
280
     0
281
     1
  0
CLASS
  1
XRECORD
  2
AcDbXrecord
  3
"<Built In>"
 90
    32768
280
     0
281
     0
  0
CLASS
  1
LONG_TRANSACTION
  2
AcDbLongTransaction
  3
AutoCAD 2000
 90
    32768
280
     0
281
     0
  0
CLASS
  1
LWPOLYLINE
  2
AcDbPolyline
  3
"AutoCAD"
 90
    32768
280
     0
281
     1
  0
CLASS
  1
HATCH
  2
AcDbHatch
  3
"ACAD_SEDONA"
 90
    32768
280
     0
281
     1
  0
CLASS
  1
XRECORD
  2
AcDbXrecord
  3
"<Built In>"
 90
    32768
280
     0
281
     0
  0
CLASS
  1
LONG_TRANSACTION
  2
AcDbLongTransaction
  3
AutoCAD 2000
 90
    32768
280
     0
281
     0
  0
CLASS
  1
LWPOLYLINE
  2
AcDbPolyline
  3
"AutoCAD"
 90
    32768
280
     0
281
     1
  0
CLASS
  1
HATCH
  2
AcDbHatch
  3
"ACAD_SEDONA"
 90
    32768
280
     0
281
     1
  0
CLASS
  1
XRECORD
  2
AcDbXrecord
  3
"<Built In>"
 90
    32768
280
     0
281
     0
  0
CLASS
  1
LONG_TRANSACTION
  2
AcDbLongTransaction
  3
AutoCAD 2000
 90
    32768
280
     0
281
     0
  0
CLASS
  1
LWPOLYLINE
  2
AcDbPolyline
  3
"AutoCAD"
 90
    32768
280
     0
281
     1
  0
CLASS
  1
HATCH
  2
AcDbHatch
  3
"ACAD_SEDONA"
 90
    32768
280
     0
281
     1
  0
CLASS
  1
XRECORD
  2
AcDbXrecord
  3
"<Built In>"
 90
    32768
280
     0
281
     0
  0
CLASS
  1
LONG_TRANSACTION
  2
AcDbLongTransaction
  3
AutoCAD 2000
 90
    32768
280
     0
281
     0
  0
CLASS
  1
LWPOLYLINE
  2
AcDbPolyline
  3
"AutoCAD"
 90
    32768
280
     0
281
     1
  0
CLASS
  1
HATCH
  2
AcDbHatch
  3
"ACAD_SEDONA"
 90
    32768
280
     0
281
     1
  0
CLASS
  1
XRECORD
  2
AcDbXrecord
  3
"<Built In>"
 90
    32768
280
     0
281
     0
  0
CLASS
  1
LONG_TRANSACTION
  2
AcDbLongTransaction
  3
AutoCAD 2000
 90
    32768
280
     0
281
     0
  0
CLASS
  1
LWPOLYLINE
  2
AcDbPolyline
  3
"AutoCAD"
 90
    32768
280
     0
281
     1
  0
CLASS
  1
HATCH
  2
AcDbHatch
  3
"ACAD_SEDONA"
 90
    32768
280
     0
281
     1
  0
CLASS
  1
XRECORD
  2
AcDbXrecord
  3
"<Built In>"
 90
    32768
280
     0
281
     0
  0
CLASS
  1
LONG_TRANSACTION
  2
AcDbLongTransaction
  3
AutoCAD 2000
 90
    32768
280
     0
281
     0
  0
CLASS
  1
LWPOLYLINE
  2
AcDbPolyline
  3
"AutoCAD"
 90
    32768
280
     0
281
     1
  0
CLASS
  1
HATCH
  2
AcDbHatch
  3
"ACAD_SEDONA"
 90
    32768
280
     0
281
     1
  0
CLASS
  1
XRECORD
  2
AcDbXrecord
  3
"<Built In>"
 90
    32768
280
     0
281
     0
  0
CLASS
  1
LONG_TRANSACTION
  2
AcDbLongTransaction
  3
AutoCAD 2000
 90
    32768
280
     0
281
     0
  0
CLASS
  1
LWPOLYLINE
  2
AcDbPolyline
  3
"AutoCAD"
 90
    32768
280
     0
281
     1
  0
CLASS
  1
HATCH
  2
AcDbHatch
  3
"ACAD_SEDONA"
 90
    32768
280
     0
281
     1
  0
CLASS
  1
XRECORD
  2
AcDbXrecord
  3
"<Built In>"
 90
    32768
280
     0
281
     0
  0
CLASS
  1
LONG_TRANSACTION
  2
AcDbLongTransaction
  3
AutoCAD 2000
 90
    32768
280
     0
281
     0
  0
CLASS
  1
LWPOLYLINE
  2
AcDbPolyline
  3
"AutoCAD"
 90
    32768
280
     0
281
     1
  0
CLASS
  1
HATCH
  2
AcDbHatch
  3
"ACAD_SEDONA"
 90
    32768
280
     0
281
     1
  0
CLASS
  1
XRECORD
  2
AcDbXrecord
  3
"<Built In>"
 90
    32768
280
     0
281
     0
  0
CLASS
  1
TABLESTYLE
  2
AcDbTableStyle
  3
ObjectDBX Classes
 90
    34815
280
     0
281
     0
  0
CLASS
  1
SORTENTSTABLE
  2
AcDbSortentsTable
  3
"AutoCAD"
 90
    32768
280
     0
281
     0
  0
CLASS
  1
DIMASSOC
  2
AcDbDimAssoc
  3
"AcDbDimAssoc|Product Desc:     AcDim ARX App For Dimension|Company:          Autodesk, Inc.|WEB Address:      www.autodesk.com"
 90
    32768
280
     0
281
     0
  0
CLASS
  1
ACAD_PROXY_OBJECT_WRAPPER
  2
AcDbProxyObjectWrapper
  3
AutoCAD 2000
 90
    32768
280
     0
281
     0
  0
CLASS
  1
LONG_TRANSACTION
  2
AcDbLongTransaction
  3
AutoCAD 2000
 90
    32768
280
     0
281
     0
  0
CLASS
  1
LWPOLYLINE
  2
AcDbPolyline
  3
"AutoCAD"
 90
    32768
280
     0
281
     1
  0
CLASS
  1
HATCH
  2
AcDbHatch
  3
"ACAD_SEDONA"
 90
    32768
280
     0
281
     1
  0
CLASS
  1
XRECORD
  2
AcDbXrecord
  3
"<Built In>"
 90
    32768
280
     0
281
     0
  0
CLASS
  1
LONG_TRANSACTION
  2
AcDbLongTransaction
  3
AutoCAD 2000
 90
    32768
280
     0
281
     0
  0
CLASS
  1
LWPOLYLINE
  2
AcDbPolyline
  3
"AutoCAD"
 90
    32768
280
     0
281
     1
  0
CLASS
  1
HATCH
  2
AcDbHatch
  3
"ACAD_SEDONA"
 90
    32768
280
     0
281
     1
  0
CLASS
  1
XRECORD
  2
AcDbXrecord
  3
"<Built In>"
 90
    32768
280
     0
281
     0
  0
ENDSEC
  0
SECTION
  2
TABLES
  0
TABLE
  2
VPORT
  5
7CF0
100
AcDbSymbolTable
 70
     2
  0
VPORT
  5
C3C5
100
AcDbSymbolTableRecord
100
AcDbViewportTableRecord
  2
*ACTIVE
 70
     0
 10
0.0
 20
0.0
 11
1.0
 21
1.0
 12
68.953569
 22
75.972712
 13
0.0
 23
0.0
 14
1.0
 24
1.0
 15
10.0
 25
10.0
 16
0.0
 26
0.0
 36
1.0
 17
0.0
 27
0.0
 37
0.0
 40
113.270225
 41
1.673611
 42
50.0
 43
0.0
 44
0.0
 50
0.0
 51
0.0
 71
     0
 72
   100
 73
     1
 74
     3
 75
     0
 76
     0
 77
     0
 78
     0
  0
ENDTAB
  0
TABLE
  2
LTYPE
  5
7CED
100
AcDbSymbolTable
 70
     3
  0
LTYPE
  5
7CFB
102
{ACAD_XDICTIONARY
360
C38A
102
}
100
AcDbSymbolTableRecord
100
AcDbLinetypeTableRecord
  2
BYBLOCK
 70
     0
  3

 72
    65
 73
     0
 40
0.0
  0
LTYPE
  5
7CFC
102
{ACAD_XDICTIONARY
360
C38C
102
}
100
AcDbSymbolTableRecord
100
AcDbLinetypeTableRecord
  2
BYLAYER
 70
     0
  3

 72
    65
 73
     0
 40
0.0
  0
LTYPE
  5
7CFD
100
AcDbSymbolTableRecord
100
AcDbLinetypeTableRecord
  2
CONTINUOUS
 70
     0
  3
Solid line
 72
    65
 73
     0
 40
0.0
  0
LTYPE
  5
7D15
100
AcDbSymbolTableRecord
100
AcDbLinetypeTableRecord
  2
AXES2
 70
     0
  3
___ _ ___ _ ___ _ ___ _ ___ _ ___ _ ___ _ ___ _
 72
    65
 73
     4
 40
1.125
 49
0.75
 74
     0
 49
-0.125
 74
     0
 49
0.125
 74
     0
 49
-0.125
 74
     0
  0
LTYPE
  5
B527
100
AcDbSymbolTableRecord
100
AcDbLinetypeTableRecord
  2
CACHE2
 70
     0
  3
Caché (x.5) _ _ _ _ _ _ _ _ _ _ _ _ _ _ _ _ _
 72
    65
 73
     2
 40
0.1875
 49
0.125
 74
     0
 49
-0.0625
 74
     0
  0
ENDTAB
  0
TABLE
  2
LAYER
  5
7CEA
100
AcDbSymbolTable
 70
     6
  0
LAYER
  5
7CF8
100
AcDbSymbolTableRecord
100
AcDbLayerTableRecord
  2
0
 70
     0
 62
   255
  6
CONTINUOUS
  0
LAYER
  5
7D1C
100
AcDbSymbolTableRecord
100
AcDbLayerTableRecord
  2
COTATION1
 70
     0
 62
     2
  6
CONTINUOUS
  0
LAYER
  5
7D1D
100
AcDbSymbolTableRecord
100
AcDbLayerTableRecord
  2
AXE
 70
     0
 62
    80
  6
AXES2
  0
LAYER
  5
7D1E
102
{ACAD_XDICTIONARY
360
C3BB
102
}
100
AcDbSymbolTableRecord
100
AcDbLayerTableRecord
  2
DEFPOINTS
 70
     0
 62
     7
  6
CONTINUOUS
  0
LAYER
  5
7D1F
100
AcDbSymbolTableRecord
100
AcDbLayerTableRecord
  2
ALPHA
 70
     0
 62
   254
  6
CONTINUOUS
  0
LAYER
  5
B528
100
AcDbSymbolTableRecord
100
AcDbLayerTableRecord
  2
POINTILLE_COURT
 70
     0
 62
    41
  6
CACHE2
  0
ENDTAB
  0
TABLE
  2
STYLE
  5
7CEB
100
AcDbSymbolTable
 70
     1
  0
STYLE
  5
7CF9
100
AcDbSymbolTableRecord
100
AcDbTextStyleTableRecord
  2
ROMANS
 70
     0
 40
0.0
 41
1.0
 50
0.0
 71
     0
 42
6.0
  3
romans
  4

  0
ENDTAB
  0
TABLE
  2
VIEW
  5
7CEE
100
AcDbSymbolTable
 70
     0
  0
ENDTAB
  0
TABLE
  2
UCS
  5
7CEF
100
AcDbSymbolTable
 70
     0
  0
ENDTAB
  0
TABLE
  2
APPID
  5
7CF1
100
AcDbSymbolTable
 70
     2
  0
APPID
  5
7CFA
100
AcDbSymbolTableRecord
100
AcDbRegAppTableRecord
  2
ACAD
 70
     0
  0
APPID
  5
BDDF
100
AcDbSymbolTableRecord
100
AcDbRegAppTableRecord
  2
DCO15
 70
     0
  0
ENDTAB
  0
TABLE
  2
DIMSTYLE
  5
7CF2
100
AcDbSymbolTable
 70
     1
  0
DIMSTYLE
105
7D18
102
{ACAD_XDICTIONARY
360
C3B9
102
}
102
{ACAD_REACTORS
330
BECA
330
BECB
330
BFD7
330
BFD8
330
BFD9
330
C051
330
C0D6
330
C10C
102
}
100
AcDbSymbolTableRecord
100
AcDbDimStyleTableRecord
  2
SC_DEFAUT
 70
     0
  3

  4

  5
OPEN30
  6

  7

 40
1.0
 41
5.0
 42
2.0
 43
0.38
 44
2.5
 45
0.0
 46
0.0
 47
0.0
 48
0.0
140
2.5
141
0.0
142
0.0
143
25.4
144
1.0
145
0.0
146
1.0
147
2.0
 71
     0
 72
     0
 73
     1
 74
     1
 75
     0
 76
     0
 77
     1
 78
    12
170
     0
171
     2
172
     0
173
     0
174
     0
175
     0
176
     0
177
     0
178
     0
270
     2
271
     1
272
     1
273
     2
274
     2
340
7CF9
275
     0
280
     0
281
     0
282
     0
283
     1
284
    12
285
    12
286
    12
287
     5
288
     0
  0
ENDTAB
  0
TABLE
  2
BLOCK_RECORD
  5
7CE9
100
AcDbSymbolTable
 70
    11
  0
BLOCK_RECORD
  5
7D06
102
{ACAD_XDICTIONARY
360
800F
102
}
100
AcDbSymbolTableRecord
100
AcDbBlockTableRecord
  2
*MODEL_SPACE
  0
BLOCK_RECORD
  5
7D02
102
{ACAD_XDICTIONARY
360
8011
102
}
100
AcDbSymbolTableRecord
100
AcDbBlockTableRecord
  2
*PAPER_SPACE
  0
BLOCK_RECORD
  5
7D0A
100
AcDbSymbolTableRecord
100
AcDbBlockTableRecord
  2
COTE
  0
BLOCK_RECORD
  5
7D0B
100
AcDbSymbolTableRecord
100
AcDbBlockTableRecord
  2
FOND
  0
BLOCK_RECORD
  5
7D0C
100
AcDbSymbolTableRecord
100
AcDbBlockTableRecord
  2
_OPEN30
  0
BLOCK_RECORD
  5
BECC
100
AcDbSymbolTableRecord
100
AcDbBlockTableRecord
  2
*D3
  0
BLOCK_RECORD
  5
BED9
100
AcDbSymbolTableRecord
100
AcDbBlockTableRecord
  2
*D4
  0
BLOCK_RECORD
  5
BFDA
100
AcDbSymbolTableRecord
100
AcDbBlockTableRecord
  2
*D5
  0
BLOCK_RECORD
  5
BFE6
100
AcDbSymbolTableRecord
100
AcDbBlockTableRecord
  2
*D6
  0
BLOCK_RECORD
  5
BFF2
100
AcDbSymbolTableRecord
100
AcDbBlockTableRecord
  2
*D7
  0
BLOCK_RECORD
  5
C052
100
AcDbSymbolTableRecord
100
AcDbBlockTableRecord
  2
*D8
  0
BLOCK_RECORD
  5
C0D7
100
AcDbSymbolTableRecord
100
AcDbBlockTableRecord
  2
*D9
  0
BLOCK_RECORD
  5
C10D
100
AcDbSymbolTableRecord
100
AcDbBlockTableRecord
  2
*D10
  0
ENDTAB
  0
ENDSEC
  0
SECTION
  2
BLOCKS
  0
BLOCK
  5
7D24
100
AcDbEntity
  8
0
100
AcDbBlockBegin
  2
*MODEL_SPACE
 70
     0
 10
0.0
 20
0.0
 30
0.0
  3
*MODEL_SPACE
  1

  0
ENDBLK
  5
7D25
100
AcDbEntity
  8
0
100
AcDbBlockEnd
  0
BLOCK
  5
7D22
100
AcDbEntity
 67
     1
  8
0
100
AcDbBlockBegin
  2
*PAPER_SPACE
 70
     0
 10
0.0
 20
0.0
 30
0.0
  3
*PAPER_SPACE
  1

  0
ENDBLK
  5
7D23
100
AcDbEntity
 67
     1
  8
0
100
AcDbBlockEnd
  0
BLOCK
  5
E
100
AcDbEntity
  8
0
100
AcDbBlockBegin
  2
COTE
 70
     0
 10
0.0
 20
0.0
 30
0.0
  3
COTE
  1

  0
ENDBLK
  5
F
100
AcDbEntity
  8
0
100
AcDbBlockEnd
  0
BLOCK
  5
74
100
AcDbEntity
  8
0
100
AcDbBlockBegin
  2
FOND
 70
     0
 10
0.0
 20
0.0
 30
0.0
  3
FOND
  1

  0
ENDBLK
  5
75
100
AcDbEntity
  8
0
100
AcDbBlockEnd
  0
BLOCK
  5
4B08
100
AcDbEntity
  8
0
100
AcDbBlockBegin
  2
_OPEN30
 70
     0
 10
0.0
 20
0.0
 30
0.0
  3
_OPEN30
  1

  0
LINE
  5
4B05
100
AcDbEntity
  8
COTATION1
 62
     0
100
AcDbLine
 10
-1.0
 20
0.267949
 30
0.0
 11
0.0
 21
0.0
 31
0.0
1001
ACAD
1000
RTLwPs
1070
   158
  0
LINE
  5
4B06
100
AcDbEntity
  8
COTATION1
 62
     0
100
AcDbLine
 10
0.0
 20
0.0
 30
0.0
 11
-1.0
 21
-0.267949
 31
0.0
1001
ACAD
1000
RTLwPs
1070
   158
  0
LINE
  5
4B07
100
AcDbEntity
  8
COTATION1
 62
     0
100
AcDbLine
 10
0.0
 20
0.0
 30
0.0
 11
-1.0
 21
0.0
 31
0.0
1001
ACAD
1000
RTLwPs
1070
   158
  0
ENDBLK
  5
4B09
100
AcDbEntity
  8
0
100
AcDbBlockEnd
  0
BLOCK
  5
BED7
100
AcDbEntity
  8
0
100
AcDbBlockBegin
  2
*D3
 70
     1
 10
0.0
 20
0.0
 30
0.0
  3
*D3
  1

  0
LINE
  5
C2AD
100
AcDbEntity
  8
COTATION1
 62
     0
100
AcDbLine
 10
106.212491
 20
91.055666
 30
0.0
 11
126.712491
 21
91.055666
 31
0.0
1001
ACAD
1000
RTLwPs
1070
   158
  0
LINE
  5
C2AE
100
AcDbEntity
  8
COTATION1
 62
     0
100
AcDbLine
 10
75.202418
 20
57.060893
 30
0.0
 11
126.712491
 21
57.060893
 31
0.0
1001
ACAD
1000
RTLwPs
1070
   158
  0
LINE
  5
C2AF
100
AcDbEntity
  8
COTATION1
 62
     0
100
AcDbLine
 10
124.212491
 20
86.055666
 30
0.0
 11
124.212491
 21
77.308279
 31
0.0
1001
ACAD
1000
RTLwPs
1070
   158
  0
LINE
  5
C2B0
100
AcDbEntity
  8
COTATION1
 62
     0
100
AcDbLine
 10
124.212491
 20
62.060893
 30
0.0
 11
124.212491
 21
70.808279
 31
0.0
1001
ACAD
1000
RTLwPs
1070
   158
  0
INSERT
  5
C2B1
100
AcDbEntity
  8
COTATION1
 62
     0
100
AcDbBlockReference
  2
_OPEN30
 10
124.212491
 20
91.055666
 30
0.0
 41
5.0
 42
5.0
 43
5.0
 50
90.0
1001
ACAD
1000
RTLwPs
1070
   158
  0
INSERT
  5
C2B2
100
AcDbEntity
  8
COTATION1
 62
     0
100
AcDbBlockReference
  2
_OPEN30
 10
124.212491
 20
57.060893
 30
0.0
 41
5.0
 42
5.0
 43
5.0
 50
270.0
1001
ACAD
1000
RTLwPs
1070
   158
  0
MTEXT
  5
C2B3
100
AcDbEntity
  8
COTATION1
 62
     0
100
AcDbMText
 10
124.212491
 20
74.058279
 30
0.0
 40
2.5
 41
0.0
 71
     5
 72
     1
  1
\A1;=
1001
ACAD
1000
MTEXTBEGIN
1070
    73
1070
     1
1070
    44
1040
1.0
1070
    74
1070
     0
1000
MTEXTEND
1000
MTEXTBEGIN
1070
    73
1070
     1
1070
    44
1040
1.0
1070
    74
1070
     0
1000
MTEXTEND
1000
MTEXTBEGIN
1070
    73
1070
     1
1070
    44
1040
1.0
1070
    74
1070
     0
1000
MTEXTEND
  0
POINT
  5
C2B4
100
AcDbEntity
  8
DEFPOINTS
 62
     0
100
AcDbPoint
 10
104.212491
 20
91.055666
 30
0.0
  0
POINT
  5
C2B5
100
AcDbEntity
  8
DEFPOINTS
 62
     0
100
AcDbPoint
 10
73.202418
 20
57.060893
 30
0.0
  0
POINT
  5
C2B6
100
AcDbEntity
  8
DEFPOINTS
 62
     0
100
AcDbPoint
 10
124.212491
 20
57.060893
 30
0.0
  0
ENDBLK
  5
BED8
100
AcDbEntity
  8
0
100
AcDbBlockEnd
  0
BLOCK
  5
BEE4
100
AcDbEntity
  8
0
100
AcDbBlockBegin
  2
*D4
 70
     1
 10
0.0
 20
0.0
 30
0.0
  3
*D4
  1

  0
LINE
  5
C2B7
100
AcDbEntity
  8
COTATION1
 62
     0
100
AcDbLine
 10
106.212491
 20
91.055666
 30
0.0
 11
126.712491
 21
91.055666
 31
0.0
1001
ACAD
1000
RTLwPs
1070
   158
  0
LINE
  5
C2B8
100
AcDbEntity
  8
COTATION1
 62
     0
100
AcDbLine
 10
75.202418
 20
125.050439
 30
0.0
 11
126.712491
 21
125.050439
 31
0.0
1001
ACAD
1000
RTLwPs
1070
   158
  0
LINE
  5
C2B9
100
AcDbEntity
  8
COTATION1
 62
     0
100
AcDbLine
 10
124.212491
 20
96.055666
 30
0.0
 11
124.212491
 21
104.803052
 31
0.0
1001
ACAD
1000
RTLwPs
1070
   158
  0
LINE
  5
C2BA
100
AcDbEntity
  8
COTATION1
 62
     0
100
AcDbLine
 10
124.212491
 20
120.050439
 30
0.0
 11
124.212491
 21
111.303052
 31
0.0
1001
ACAD
1000
RTLwPs
1070
   158
  0
INSERT
  5
C2BB
100
AcDbEntity
  8
COTATION1
 62
     0
100
AcDbBlockReference
  2
_OPEN30
 10
124.212491
 20
91.055666
 30
0.0
 41
5.0
 42
5.0
 43
5.0
 50
270.0
1001
ACAD
1000
RTLwPs
1070
   158
  0
INSERT
  5
C2BC
100
AcDbEntity
  8
COTATION1
 62
     0
100
AcDbBlockReference
  2
_OPEN30
 10
124.212491
 20
125.050439
 30
0.0
 41
5.0
 42
5.0
 43
5.0
 50
90.0
1001
ACAD
1000
RTLwPs
1070
   158
  0
MTEXT
  5
C2BD
100
AcDbEntity
  8
COTATION1
 62
     0
100
AcDbMText
 10
124.212491
 20
108.053052
 30
0.0
 40
2.5
 41
0.0
 71
     5
 72
     1
  1
\A1;=
1001
ACAD
1000
MTEXTBEGIN
1070
    73
1070
     1
1070
    44
1040
1.0
1070
    74
1070
     0
1000
MTEXTEND
1000
MTEXTBEGIN
1070
    73
1070
     1
1070
    44
1040
1.0
1070
    74
1070
     0
1000
MTEXTEND
1000
MTEXTBEGIN
1070
    73
1070
     1
1070
    44
1040
1.0
1070
    74
1070
     0
1000
MTEXTEND
  0
POINT
  5
C2BE
100
AcDbEntity
  8
DEFPOINTS
 62
     0
100
AcDbPoint
 10
104.212491
 20
91.055666
 30
0.0
  0
POINT
  5
C2BF
100
AcDbEntity
  8
DEFPOINTS
 62
     0
100
AcDbPoint
 10
73.202418
 20
125.050439
 30
0.0
  0
POINT
  5
C2C0
100
AcDbEntity
  8
DEFPOINTS
 62
     0
100
AcDbPoint
 10
124.212491
 20
125.050439
 30
0.0
  0
ENDBLK
  5
BEE5
100
AcDbEntity
  8
0
100
AcDbBlockEnd
  0
BLOCK
  5
BFE4
100
AcDbEntity
  8
0
100
AcDbBlockBegin
  2
*D5
 70
     1
 10
0.0
 20
0.0
 30
0.0
  3
*D5
  1

  0
LINE
  5
C2FA
100
AcDbEntity
  8
COTATION1
 62
     0
100
AcDbLine
 10
28.343055
 20
80.937535
 30
0.0
 11
28.343055
 21
19.925214
 31
0.0
1001
ACAD
1000
RTLwPs
1070
   158
  0
LINE
  5
C2FB
100
AcDbEntity
  8
COTATION1
 62
     0
100
AcDbLine
 10
82.113668
 20
80.937535
 30
0.0
 11
82.113668
 21
19.925214
 31
0.0
1001
ACAD
1000
RTLwPs
1070
   158
  0
LINE
  5
C2FC
100
AcDbEntity
  8
COTATION1
 62
     0
100
AcDbLine
 10
33.343055
 20
22.425214
 30
0.0
 11
77.113668
 21
22.425214
 31
0.0
1001
ACAD
1000
RTLwPs
1070
   158
  0
INSERT
  5
C2FD
100
AcDbEntity
  8
COTATION1
 62
     0
100
AcDbBlockReference
  2
_OPEN30
 10
28.343055
 20
22.425214
 30
0.0
 41
5.0
 42
5.0
 43
5.0
 50
180.0
1001
ACAD
1000
RTLwPs
1070
   158
  0
INSERT
  5
C2FE
100
AcDbEntity
  8
COTATION1
 62
     0
100
AcDbBlockReference
  2
_OPEN30
 10
82.113668
 20
22.425214
 30
0.0
 41
5.0
 42
5.0
 43
5.0
1001
ACAD
1000
RTLwPs
1070
   158
  0
MTEXT
  5
C2FF
100
AcDbEntity
  8
COTATION1
 62
     0
100
AcDbMText
 10
55.228361
 20
25.675214
 30
0.0
 40
2.5
 41
0.0
 71
     5
 72
     1
  1
\A1;54
1001
ACAD
1000
MTEXTBEGIN
1070
    73
1070
     1
1070
    44
1040
1.0
1070
    74
1070
     0
1000
MTEXTEND
1000
MTEXTBEGIN
1070
    73
1070
     1
1070
    44
1040
1.0
1070
    74
1070
     0
1000
MTEXTEND
1000
MTEXTBEGIN
1070
    73
1070
     1
1070
    44
1040
1.0
1070
    74
1070
     0
1000
MTEXTEND
  0
POINT
  5
C300
100
AcDbEntity
  8
DEFPOINTS
 62
     0
100
AcDbPoint
 10
28.343055
 20
82.937535
 30
0.0
  0
POINT
  5
C301
100
AcDbEntity
  8
DEFPOINTS
 62
     0
100
AcDbPoint
 10
82.113668
 20
82.937535
 30
0.0
  0
POINT
  5
C302
100
AcDbEntity
  8
DEFPOINTS
 62
     0
100
AcDbPoint
 10
82.113668
 20
22.425214
 30
0.0
  0
ENDBLK
  5
BFE5
100
AcDbEntity
  8
0
100
AcDbBlockEnd
  0
BLOCK
  5
BFF0
100
AcDbEntity
  8
0
100
AcDbBlockBegin
  2
*D6
 70
     1
 10
0.0
 20
0.0
 30
0.0
  3
*D6
  1

  0
LINE
  5
C2CA
100
AcDbEntity
  8
COTATION1
 62
     0
100
AcDbLine
 10
55.218346
 20
40.425214
 30
0.0
 11
55.218346
 21
29.925214
 31
0.0
1001
ACAD
1000
RTLwPs
1070
   158
  0
LINE
  5
C2CB
100
AcDbEntity
  8
COTATION1
 62
     0
100
AcDbLine
 10
28.343055
 20
82.937535
 30
0.0
 11
28.343055
 21
29.925214
 31
0.0
1001
ACAD
1000
RTLwPs
1070
   158
  0
LINE
  5
C2CC
100
AcDbEntity
  8
COTATION1
 62
     0
100
AcDbLine
 10
50.218346
 20
32.425214
 30
0.0
 11
33.343055
 21
32.425214
 31
0.0
1001
ACAD
1000
RTLwPs
1070
   158
  0
INSERT
  5
C2CD
100
AcDbEntity
  8
COTATION1
 62
     0
100
AcDbBlockReference
  2
_OPEN30
 10
55.218346
 20
32.425214
 30
0.0
 41
5.0
 42
5.0
 43
5.0
1001
ACAD
1000
RTLwPs
1070
   158
  0
INSERT
  5
C2CE
100
AcDbEntity
  8
COTATION1
 62
     0
100
AcDbBlockReference
  2
_OPEN30
 10
28.343055
 20
32.425214
 30
0.0
 41
5.0
 42
5.0
 43
5.0
 50
180.0
1001
ACAD
1000
RTLwPs
1070
   158
  0
MTEXT
  5
C2CF
100
AcDbEntity
  8
COTATION1
 62
     0
100
AcDbMText
 10
41.7807
 20
35.675214
 30
0.0
 40
2.5
 41
0.0
 71
     5
 72
     1
  1
\A1;=
1001
ACAD
1000
MTEXTBEGIN
1070
    73
1070
     1
1070
    44
1040
1.0
1070
    74
1070
     0
1000
MTEXTEND
1000
MTEXTBEGIN
1070
    73
1070
     1
1070
    44
1040
1.0
1070
    74
1070
     0
1000
MTEXTEND
1000
MTEXTBEGIN
1070
    73
1070
     1
1070
    44
1040
1.0
1070
    74
1070
     0
1000
MTEXTEND
  0
POINT
  5
C2D0
100
AcDbEntity
  8
DEFPOINTS
 62
     0
100
AcDbPoint
 10
55.218346
 20
42.425214
 30
0.0
  0
POINT
  5
C2D1
100
AcDbEntity
  8
DEFPOINTS
 62
     0
100
AcDbPoint
 10
28.343055
 20
84.937535
 30
0.0
  0
POINT
  5
C2D2
100
AcDbEntity
  8
DEFPOINTS
 62
     0
100
AcDbPoint
 10
28.343055
 20
32.425214
 30
0.0
  0
ENDBLK
  5
BFF1
100
AcDbEntity
  8
0
100
AcDbBlockEnd
  0
BLOCK
  5
BFFC
100
AcDbEntity
  8
0
100
AcDbBlockBegin
  2
*D7
 70
     1
 10
0.0
 20
0.0
 30
0.0
  3
*D7
  1

  0
LINE
  5
C2D3
100
AcDbEntity
  8
COTATION1
 62
     0
100
AcDbLine
 10
55.218346
 20
40.425214
 30
0.0
 11
55.218346
 21
29.925214
 31
0.0
1001
ACAD
1000
RTLwPs
1070
   158
  0
LINE
  5
C2D4
100
AcDbEntity
  8
COTATION1
 62
     0
100
AcDbLine
 10
82.113668
 20
82.937535
 30
0.0
 11
82.113668
 21
29.925214
 31
0.0
1001
ACAD
1000
RTLwPs
1070
   158
  0
LINE
  5
C2D5
100
AcDbEntity
  8
COTATION1
 62
     0
100
AcDbLine
 10
60.218346
 20
32.425214
 30
0.0
 11
77.113668
 21
32.425214
 31
0.0
1001
ACAD
1000
RTLwPs
1070
   158
  0
INSERT
  5
C2D6
100
AcDbEntity
  8
COTATION1
 62
     0
100
AcDbBlockReference
  2
_OPEN30
 10
55.218346
 20
32.425214
 30
0.0
 41
5.0
 42
5.0
 43
5.0
 50
180.0
1001
ACAD
1000
RTLwPs
1070
   158
  0
INSERT
  5
C2D7
100
AcDbEntity
  8
COTATION1
 62
     0
100
AcDbBlockReference
  2
_OPEN30
 10
82.113668
 20
32.425214
 30
0.0
 41
5.0
 42
5.0
 43
5.0
1001
ACAD
1000
RTLwPs
1070
   158
  0
MTEXT
  5
C2D8
100
AcDbEntity
  8
COTATION1
 62
     0
100
AcDbMText
 10
68.666007
 20
35.675214
 30
0.0
 40
2.5
 41
0.0
 71
     5
 72
     1
  1
\A1;=
1001
ACAD
1000
MTEXTBEGIN
1070
    73
1070
     1
1070
    44
1040
1.0
1070
    74
1070
     0
1000
MTEXTEND
1000
MTEXTBEGIN
1070
    73
1070
     1
1070
    44
1040
1.0
1070
    74
1070
     0
1000
MTEXTEND
1000
MTEXTBEGIN
1070
    73
1070
     1
1070
    44
1040
1.0
1070
    74
1070
     0
1000
MTEXTEND
  0
POINT
  5
C2D9
100
AcDbEntity
  8
DEFPOINTS
 62
     0
100
AcDbPoint
 10
55.218346
 20
42.425214
 30
0.0
  0
POINT
  5
C2DA
100
AcDbEntity
  8
DEFPOINTS
 62
     0
100
AcDbPoint
 10
82.113668
 20
84.937535
 30
0.0
  0
POINT
  5
C2DB
100
AcDbEntity
  8
DEFPOINTS
 62
     0
100
AcDbPoint
 10
82.113668
 20
32.425214
 30
0.0
  0
ENDBLK
  5
BFFD
100
AcDbEntity
  8
0
100
AcDbBlockEnd
  0
BLOCK
  5
C05C
100
AcDbEntity
  8
0
100
AcDbBlockBegin
  2
*D8
 70
     1
 10
0.0
 20
0.0
 30
0.0
  3
*D8
  1

  0
LINE
  5
C2DC
100
AcDbEntity
  8
COTATION1
 62
     0
100
AcDbLine
 10
28.343055
 20
78.937535
 30
0.0
 11
28.343055
 21
19.925214
 31
0.0
1001
ACAD
1000
RTLwPs
1070
   158
  0
LINE
  5
C2DD
100
AcDbEntity
  8
COTATION1
 62
     0
100
AcDbLine
 10
21.21306
 20
62.051423
 30
0.0
 11
21.21306
 21
19.925214
 31
0.0
1001
ACAD
1000
RTLwPs
1070
   158
  0
LINE
  5
C2DE
100
AcDbEntity
  8
COTATION1
 62
     0
100
AcDbLine
 10
33.343055
 20
22.425214
 30
0.0
 11
38.343055
 21
22.425214
 31
0.0
1001
ACAD
1000
RTLwPs
1070
   158
  0
LINE
  5
C2DF
100
AcDbEntity
  8
COTATION1
 62
     0
100
AcDbLine
 10
16.21306
 20
22.425214
 30
0.0
 11
11.21306
 21
22.425214
 31
0.0
1001
ACAD
1000
RTLwPs
1070
   158
  0
INSERT
  5
C2E0
100
AcDbEntity
  8
COTATION1
 62
     0
100
AcDbBlockReference
  2
_OPEN30
 10
28.343055
 20
22.425214
 30
0.0
 41
5.0
 42
5.0
 43
5.0
 50
180.0
1001
ACAD
1000
RTLwPs
1070
   158
  0
INSERT
  5
C2E1
100
AcDbEntity
  8
COTATION1
 62
     0
100
AcDbBlockReference
  2
_OPEN30
 10
21.21306
 20
22.425214
 30
0.0
 41
5.0
 42
5.0
 43
5.0
1001
ACAD
1000
RTLwPs
1070
   158
  0
MTEXT
  5
C2E2
100
AcDbEntity
  8
COTATION1
 62
     0
100
AcDbMText
 10
24.778057
 20
25.675214
 30
0.0
 40
2.5
 41
0.0
 71
     5
 72
     1
  1
\A1;=
1001
ACAD
1000
MTEXTBEGIN
1070
    73
1070
     1
1070
    44
1040
1.0
1070
    74
1070
     0
1000
MTEXTEND
1000
MTEXTBEGIN
1070
    73
1070
     1
1070
    44
1040
1.0
1070
    74
1070
     0
1000
MTEXTEND
1000
MTEXTBEGIN
1070
    73
1070
     1
1070
    44
1040
1.0
1070
    74
1070
     0
1000
MTEXTEND
  0
POINT
  5
C2E3
100
AcDbEntity
  8
DEFPOINTS
 62
     0
100
AcDbPoint
 10
28.343055
 20
80.937535
 30
0.0
  0
POINT
  5
C2E4
100
AcDbEntity
  8
DEFPOINTS
 62
     0
100
AcDbPoint
 10
21.21306
 20
64.051423
 30
0.0
  0
POINT
  5
C2E5
100
AcDbEntity
  8
DEFPOINTS
 62
     0
100
AcDbPoint
 10
21.21306
 20
22.425214
 30
0.0
  0
ENDBLK
  5
C05D
100
AcDbEntity
  8
0
100
AcDbBlockEnd
  0
BLOCK
  5
C0E2
100
AcDbEntity
  8
0
100
AcDbBlockBegin
  2
*D9
 70
     1
 10
0.0
 20
0.0
 30
0.0
  3
*D9
  1

  0
LINE
  5
C2E6
100
AcDbEntity
  8
COTATION1
 62
     0
100
AcDbLine
 10
82.113668
 20
80.937535
 30
0.0
 11
82.113668
 21
19.925214
 31
0.0
1001
ACAD
1000
RTLwPs
1070
   158
  0
LINE
  5
C2E7
100
AcDbEntity
  8
COTATION1
 62
     0
100
AcDbLine
 10
89.214213
 20
62.051423
 30
0.0
 11
89.214213
 21
19.925214
 31
0.0
1001
ACAD
1000
RTLwPs
1070
   158
  0
LINE
  5
C2E8
100
AcDbEntity
  8
COTATION1
 62
     0
100
AcDbLine
 10
77.113668
 20
22.425214
 30
0.0
 11
72.113668
 21
22.425214
 31
0.0
1001
ACAD
1000
RTLwPs
1070
   158
  0
LINE
  5
C2E9
100
AcDbEntity
  8
COTATION1
 62
     0
100
AcDbLine
 10
94.214213
 20
22.425214
 30
0.0
 11
99.214213
 21
22.425214
 31
0.0
1001
ACAD
1000
RTLwPs
1070
   158
  0
INSERT
  5
C2EA
100
AcDbEntity
  8
COTATION1
 62
     0
100
AcDbBlockReference
  2
_OPEN30
 10
82.113668
 20
22.425214
 30
0.0
 41
5.0
 42
5.0
 43
5.0
1001
ACAD
1000
RTLwPs
1070
   158
  0
INSERT
  5
C2EB
100
AcDbEntity
  8
COTATION1
 62
     0
100
AcDbBlockReference
  2
_OPEN30
 10
89.214213
 20
22.425214
 30
0.0
 41
5.0
 42
5.0
 43
5.0
 50
180.0
1001
ACAD
1000
RTLwPs
1070
   158
  0
MTEXT
  5
C2EC
100
AcDbEntity
  8
COTATION1
 62
     0
100
AcDbMText
 10
85.66394
 20
25.675214
 30
0.0
 40
2.5
 41
0.0
 71
     5
 72
     1
  1
\A1;=
1001
ACAD
1000
MTEXTBEGIN
1070
    73
1070
     1
1070
    44
1040
1.0
1070
    74
1070
     0
1000
MTEXTEND
1000
MTEXTBEGIN
1070
    73
1070
     1
1070
    44
1040
1.0
1070
    74
1070
     0
1000
MTEXTEND
1000
MTEXTBEGIN
1070
    73
1070
     1
1070
    44
1040
1.0
1070
    74
1070
     0
1000
MTEXTEND
  0
POINT
  5
C2ED
100
AcDbEntity
  8
DEFPOINTS
 62
     0
100
AcDbPoint
 10
82.113668
 20
82.937535
 30
0.0
  0
POINT
  5
C2EE
100
AcDbEntity
  8
DEFPOINTS
 62
     0
100
AcDbPoint
 10
89.214213
 20
64.051423
 30
0.0
  0
POINT
  5
C2EF
100
AcDbEntity
  8
DEFPOINTS
 62
     0
100
AcDbPoint
 10
89.214213
 20
22.425214
 30
0.0
  0
ENDBLK
  5
C0E3
100
AcDbEntity
  8
0
100
AcDbBlockEnd
  0
BLOCK
  5
C118
100
AcDbEntity
  8
0
100
AcDbBlockBegin
  2
*D10
 70
     1
 10
0.0
 20
0.0
 30
0.0
  3
*D10
  1

  0
LINE
  5
C31E
100
AcDbEntity
  8
COTATION1
 62
     0
100
AcDbLine
 10
106.212491
 20
91.055666
 30
0.0
 11
116.712491
 21
91.055666
 31
0.0
1001
ACAD
1000
RTLwPs
1070
   158
  0
LINE
  5
C31F
100
AcDbEntity
  8
COTATION1
 62
     0
100
AcDbLine
 10
67.178586
 20
113.005841
 30
0.0
 11
116.712491
 21
113.005841
 31
0.0
1001
ACAD
1000
RTLwPs
1070
   158
  0
LINE
  5
C320
100
AcDbEntity
  8
COTATION1
 62
     0
100
AcDbLine
 10
114.212491
 20
96.055666
 30
0.0
 11
114.212491
 21
98.780753
 31
0.0
1001
ACAD
1000
RTLwPs
1070
   158
  0
LINE
  5
C321
100
AcDbEntity
  8
COTATION1
 62
     0
100
AcDbLine
 10
114.212491
 20
108.005841
 30
0.0
 11
114.212491
 21
105.280753
 31
0.0
1001
ACAD
1000
RTLwPs
1070
   158
  0
INSERT
  5
C322
100
AcDbEntity
  8
COTATION1
 62
     0
100
AcDbBlockReference
  2
_OPEN30
 10
114.212491
 20
91.055666
 30
0.0
 41
5.0
 42
5.0
 43
5.0
 50
270.0
1001
ACAD
1000
RTLwPs
1070
   158
  0
INSERT
  5
C323
100
AcDbEntity
  8
COTATION1
 62
     0
100
AcDbBlockReference
  2
_OPEN30
 10
114.212491
 20
113.005841
 30
0.0
 41
5.0
 42
5.0
 43
5.0
 50
90.0
1001
ACAD
1000
RTLwPs
1070
   158
  0
MTEXT
  5
C324
100
AcDbEntity
  8
COTATION1
 62
     0
100
AcDbMText
 10
114.212491
 20
102.030753
 30
0.0
 40
2.5
 41
0.0
 71
     5
 72
     1
  1
\A1;22
1001
ACAD
1000
MTEXTBEGIN
1070
    73
1070
     1
1070
    44
1040
1.0
1070
    74
1070
     0
1000
MTEXTEND
1000
MTEXTBEGIN
1070
    73
1070
     1
1070
    44
1040
1.0
1070
    74
1070
     0
1000
MTEXTEND
1000
MTEXTBEGIN
1070
    73
1070
     1
1070
    44
1040
1.0
1070
    74
1070
     0
1000
MTEXTEND
  0
POINT
  5
C325
100
AcDbEntity
  8
DEFPOINTS
 62
     0
100
AcDbPoint
 10
104.212491
 20
91.055666
 30
0.0
  0
POINT
  5
C326
100
AcDbEntity
  8
DEFPOINTS
 62
     0
100
AcDbPoint
 10
65.178586
 20
113.005841
 30
0.0
  0
POINT
  5
C327
100
AcDbEntity
  8
DEFPOINTS
 62
     0
100
AcDbPoint
 10
114.212491
 20
113.005841
 30
0.0
  0
ENDBLK
  5
C119
100
AcDbEntity
  8
0
100
AcDbBlockEnd
  0
ENDSEC
  0
SECTION
  2
ENTITIES
  0
INSERT
  5
A
100
AcDbEntity
  8
0
100
AcDbBlockReference
  2
COTE
 10
0.0
 20
0.0
 30
0.0
  0
INSERT
  5
17
100
AcDbEntity
  8
0
100
AcDbBlockReference
  2
COTE
 10
284.010391
 20
6.373258
 30
0.0
  0
INSERT
  5
72
100
AcDbEntity
  8
0
100
AcDbBlockReference
  2
FOND
 10
0.0
 20
0.0
 30
0.0
  0
SPLINE
  5
BB91
100
AcDbEntity
  8
ALPHA
100
AcDbSpline
210
-1.0
220
0.0
230
0.0
 70
    24
 71
     3
 72
     8
 73
     4
 74
     0
 42
0.0000001
 43
0.0000001
 40
8.0
 40
8.0
 40
8.0
 40
8.0
 40
9.0
 40
9.0
 40
9.0
 40
9.0
 10
21.21305952911507
 20
64.05142335024781
 30
0.0
 10
21.21305952911507
 20
64.05142335024781
 30
0.0
 10
21.21305952911507
 20
118.0580304434469
 30
0.0
 10
21.21305952911507
 20
118.0580304434469
 30
0.0
  0
SPLINE
  5
BB92
100
AcDbEntity
  8
ALPHA
100
AcDbSpline
210
-1.0
220
0.0
230
0.0
 70
    24
 71
     3
 72
     8
 73
     4
 74
     0
 42
0.0000001
 43
0.0000001
 40
2.0
 40
2.0
 40
2.0
 40
2.0
 40
3.0
 40
3.0
 40
3.0
 40
3.0
 10
89.21249092821813
 20
118.0580304434469
 30
0.0
 10
89.21249092821813
 20
118.0580304434469
 30
0.0
 10
89.21249092821813
 20
64.05142335024781
 30
0.0
 10
89.21249092821813
 20
64.05142335024781
 30
0.0
  0
SPLINE
  5
BB93
100
AcDbEntity
  8
ALPHA
100
AcDbSpline
210
0.0
220
0.0
230
1.0
 70
     8
 71
     3
 72
    11
 73
     7
 74
     0
 42
0.0000001
 43
0.0000001
 40
3.0
 40
3.0
 40
3.0
 40
3.0
 40
4.0
 40
4.0
 40
4.0
 40
5.0
 40
5.0
 40
5.0
 40
5.0
 10
84.37737798109708
 20
88.90723895467621
 30
0.0
 10
84.9147164062448
 20
89.46976511850291
 30
0.0
 10
85.24775428433144
 20
90.23239387294465
 30
0.0
 10
85.24775428433144
 20
91.0719851622383
 30
0.0
 10
85.24775428433144
 20
91.91344220995269
 30
0.0
 10
84.9147164062448
 20
92.67467164557892
 30
0.0
 10
84.37737798109708
 20
93.23766424901085
 30
0.0
  0
SPLINE
  5
BB94
100
AcDbEntity
  8
ALPHA
100
AcDbSpline
210
0.0
220
0.0
230
-1.0
 70
     8
 71
     3
 72
    11
 73
     7
 74
     0
 42
0.0000001
 43
0.0000001
 40
0.0
 40
0.0
 40
0.0
 40
0.0
 40
1.0
 40
1.0
 40
1.0
 40
2.0
 40
2.0
 40
2.0
 40
2.0
 10
79.85011517338353
 20
93.23766424901085
 30
0.0
 10
79.31091098981494
 20
92.67467164557892
 30
0.0
 10
78.97880599093878
 20
91.91344220995269
 30
0.0
 10
78.97880599093878
 20
91.0719851622383
 30
0.0
 10
78.97880599093878
 20
90.23239387294465
 30
0.0
 10
79.31091098981494
 20
89.46976511850291
 30
0.0
 10
79.85011517338353
 20
88.90723895467621
 30
0.0
  0
SPLINE
  5
BB95
100
AcDbEntity
  8
ALPHA
100
AcDbSpline
210
-1.0
220
0.0
230
0.0
 70
    24
 71
     3
 72
     8
 73
     4
 74
     0
 42
0.0000001
 43
0.0000001
 40
5.0
 40
5.0
 40
5.0
 40
5.0
 40
6.0
 40
6.0
 40
6.0
 40
6.0
 10
26.17784268647142
 20
93.33608300570022
 30
0.0
 10
26.17784268647142
 20
93.33608300570022
 30
0.0
 10
26.17784268647142
 20
88.80882019798674
 30
0.0
 10
26.17784268647142
 20
88.80882019798674
 30
0.0
  0
SPLINE
  5
BB96
100
AcDbEntity
  8
ALPHA
100
AcDbSpline
210
-1.0
220
0.0
230
0.0
 70
    24
 71
     3
 72
     8
 73
     4
 74
     0
 42
0.0000001
 43
0.0000001
 40
2.0
 40
2.0
 40
2.0
 40
2.0
 40
3.0
 40
3.0
 40
3.0
 40
3.0
 10
30.50826798080618
 20
88.80882019798674
 30
0.0
 10
30.50826798080618
 20
88.80882019798674
 30
0.0
 10
30.50826798080618
 20
93.33608300570022
 30
0.0
 10
30.50826798080618
 20
93.33608300570022
 30
0.0
  0
SPLINE
  5
BB97
100
AcDbEntity
  8
ALPHA
100
AcDbSpline
210
-1.0
220
0.0
230
0.0
 70
    24
 71
     3
 72
     8
 73
     4
 74
     0
 42
0.0000001
 43
0.0000001
 40
5.0
 40
5.0
 40
5.0
 40
5.0
 40
6.0
 40
6.0
 40
6.0
 40
6.0
 10
35.80702189545934
 20
118.0235139126647
 30
0.0
 10
35.80702189545934
 20
118.0235139126647
 30
0.0
 10
35.80702189545934
 20
64.08500700181962
 30
0.0
 10
35.80702189545934
 20
64.08500700181962
 30
0.0
  0
SPLINE
  5
BB98
100
AcDbEntity
  8
ALPHA
100
AcDbSpline
210
-1.0
220
0.0
230
0.0
 70
    24
 71
     3
 72
     8
 73
     4
 74
     0
 42
0.0000001
 43
0.0000001
 40
1.0
 40
1.0
 40
1.0
 40
1.0
 40
2.0
 40
2.0
 40
2.0
 40
2.0
 10
74.61852856187386
 20
64.08500700181962
 30
0.0
 10
74.61852856187386
 20
64.08500700181962
 30
0.0
 10
74.61852856187386
 20
118.0235139126647
 30
0.0
 10
74.61852856187386
 20
118.0235139126647
 30
0.0
  0
CIRCLE
  5
BBA6
100
AcDbEntity
  8
ALPHA
100
AcDbCircle
 10
80.785794
 20
67.54972
 30
0.0
 40
2.048137
  0
SPLINE
  5
BBA7
100
AcDbEntity
  8
ALPHA
100
AcDbSpline
210
-0.1953779686278531
220
0.9807280200824557
230
0.0
 70
    24
 71
     3
 72
     8
 73
     4
 74
     0
 42
0.0000001
 43
0.0000001
 40
4.0
 40
4.0
 40
4.0
 40
4.0
 40
5.0
 40
5.0
 40
5.0
 40
5.0
 10
85.59665110899345
 20
59.53022425740148
 30
0.0
 10
85.59665110899345
 20
59.53022425740148
 30
0.0
 10
73.20148504138831
 20
57.06089298766783
 30
0.0
 10
73.20148504138831
 20
57.06089298766783
 30
0.0
  0
SPLINE
  5
BBA8
100
AcDbEntity
  8
ALPHA
100
AcDbSpline
210
0.1953779686278513
220
0.980728020082456
230
0.0
 70
    24
 71
     3
 72
     8
 73
     4
 74
     0
 42
0.0000001
 43
0.0000001
 40
6.0
 40
6.0
 40
6.0
 40
6.0
 40
7.0
 40
7.0
 40
7.0
 40
7.0
 10
37.22406541594489
 20
57.06089298766783
 30
0.0
 10
37.22406541594489
 20
57.06089298766783
 30
0.0
 10
24.82889934833963
 20
59.53022425740148
 30
0.0
 10
24.82889934833963
 20
59.53022425740148
 30
0.0
  0
SPLINE
  5
BBA9
100
AcDbEntity
  8
ALPHA
100
AcDbSpline
210
0.0
220
1.0
230
0.0
 70
    24
 71
     3
 72
     8
 73
     4
 74
     0
 42
0.0000001
 43
0.0000001
 40
5.0
 40
5.0
 40
5.0
 40
5.0
 40
6.0
 40
6.0
 40
6.0
 40
6.0
 10
73.20148504138831
 20
57.06089298766783
 30
0.0
 10
73.20148504138831
 20
57.06089298766783
 30
0.0
 10
37.22406541594489
 20
57.06089298766783
 30
0.0
 10
37.22406541594489
 20
57.06089298766783
 30
0.0
  0
SPLINE
  5
BBAA
100
AcDbEntity
  8
ALPHA
100
AcDbSpline
210
0.0
220
1.0
230
0.0
 70
    24
 71
     3
 72
     8
 73
     4
 74
     0
 42
0.0000001
 43
0.0000001
 40
7.0
 40
7.0
 40
7.0
 40
7.0
 40
8.0
 40
8.0
 40
8.0
 40
8.0
 10
39.29039286681756
 20
60.60210247006638
 30
0.0
 10
39.29039286681756
 20
60.60210247006638
 30
0.0
 10
71.13609046972579
 20
60.60210247006638
 30
0.0
 10
71.13609046972579
 20
60.60210247006638
 30
0.0
  0
SPLINE
  5
BBAB
100
AcDbEntity
  8
ALPHA
100
AcDbSpline
210
0.0
220
0.0
230
-1.0
 70
     8
 71
     3
 72
     8
 73
     4
 74
     0
 42
0.0000001
 43
0.0000001
 40
7.0
 40
7.0
 40
7.0
 40
7.0
 40
8.0
 40
8.0
 40
8.0
 40
8.0
 10
24.82889934833963
 20
59.53022425740148
 30
0.0
 10
22.7691020519394
 20
60.00692553387823
 30
0.0
 10
21.21305952911507
 20
61.84563045743134
 30
0.0
 10
21.21305952911507
 20
64.05142335024781
 30
0.0
  0
SPLINE
  5
BBAC
100
AcDbEntity
  8
ALPHA
100
AcDbSpline
210
0.0
220
0.0
230
1.0
 70
     8
 71
     3
 72
     8
 73
     4
 74
     0
 42
0.0000001
 43
0.0000001
 40
6.0
 40
6.0
 40
6.0
 40
6.0
 40
7.0
 40
7.0
 40
7.0
 40
7.0
 10
35.80702189545934
 20
64.08500700181962
 30
0.0
 10
35.80702189545934
 20
62.16094363052168
 30
0.0
 10
37.3658630559147
 20
60.60210247006638
 30
0.0
 10
39.29039286681756
 20
60.60210247006638
 30
0.0
  0
SPLINE
  5
BBAD
100
AcDbEntity
  8
ALPHA
100
AcDbSpline
210
0.0
220
0.0
230
1.0
 70
     8
 71
     3
 72
     8
 73
     4
 74
     0
 42
0.0000001
 43
0.0000001
 40
0.0
 40
0.0
 40
0.0
 40
0.0
 40
1.0
 40
1.0
 40
1.0
 40
1.0
 10
71.13609046972579
 20
60.60210247006638
 30
0.0
 10
73.05875452220823
 20
60.60210247006638
 30
0.0
 10
74.61852856187386
 20
62.16094363052168
 30
0.0
 10
74.61852856187386
 20
64.08500700181962
 30
0.0
  0
SPLINE
  5
BBAE
100
AcDbEntity
  8
ALPHA
100
AcDbSpline
210
0.0
220
0.0
230
1.0
 70
     8
 71
     3
 72
     8
 73
     4
 74
     0
 42
0.0000001
 43
0.0000001
 40
3.0
 40
3.0
 40
3.0
 40
3.0
 40
4.0
 40
4.0
 40
4.0
 40
4.0
 10
89.21249092821813
 20
64.05142335024781
 30
0.0
 10
89.21249092821813
 20
61.84563045743134
 30
0.0
 10
87.65644840539392
 20
60.00692553387823
 30
0.0
 10
85.59665110899345
 20
59.53022425740148
 30
0.0
  0
SPLINE
  5
BBAF
100
AcDbEntity
  8
ALPHA
100
AcDbSpline
210
0.0
220
0.0
230
1.0
 70
     8
 71
     3
 72
    11
 73
     7
 74
     0
 42
0.0000001
 43
0.0000001
 40
0.0
 40
0.0
 40
0.0
 40
0.0
 40
1.0
 40
1.0
 40
1.0
 40
2.0
 40
2.0
 40
2.0
 40
2.0
 10
26.17784268647142
 20
88.80882019798674
 30
0.0
 10
26.74036885029829
 20
88.27008245402344
 30
0.0
 10
27.50346404434515
 20
87.93751101554205
 30
0.0
 10
28.34398821284912
 20
87.93751101554205
 30
0.0
 10
29.18357950214272
 20
87.93751101554205
 30
0.0
 10
29.94574181697931
 20
88.27008245402344
 30
0.0
 10
30.50826798080618
 20
88.80882019798674
 30
0.0
  0
SPLINE
  5
BBB0
100
AcDbEntity
  8
ALPHA
100
AcDbSpline
210
0.0
220
1.0
230
0.0
 70
    24
 71
     3
 72
     8
 73
     4
 74
     0
 42
0.0000001
 43
0.0000001
 40
2.0
 40
2.0
 40
2.0
 40
2.0
 40
3.0
 40
3.0
 40
3.0
 40
3.0
 10
79.85011517338353
 20
88.90723895467621
 30
0.0
 10
79.85011517338353
 20
88.90723895467621
 30
0.0
 10
84.37737798109708
 20
88.90723895467621
 30
0.0
 10
84.37737798109708
 20
88.90723895467621
 30
0.0
  0
CIRCLE
  5
BBBA
100
AcDbEntity
  8
POINTILLE_COURT
100
AcDbCircle
 10
55.212777
 20
113.005841
 30
0.0
 40
6.96581
  0
SPLINE
  5
BBBC
100
AcDbEntity
  8
ALPHA
100
AcDbSpline
210
0.0
220
0.0
230
-1.0
 70
     8
 71
     3
 72
    11
 73
     7
 74
     0
 42
0.0000001
 43
0.0000001
 40
3.0
 40
3.0
 40
3.0
 40
3.0
 40
4.0
 40
4.0
 40
4.0
 40
5.0
 40
5.0
 40
5.0
 40
5.0
 10
30.50826798080618
 20
93.33608300570022
 30
0.0
 10
29.94574181697931
 20
93.87482074966362
 30
0.0
 10
29.18357950214272
 20
94.20692574853992
 30
0.0
 10
28.34398821284912
 20
94.20692574853992
 30
0.0
 10
27.50346404434515
 20
94.20692574853992
 30
0.0
 10
26.74036885029829
 20
93.87482074966362
 30
0.0
 10
26.17784268647142
 20
93.33608300570022
 30
0.0
  0
SPLINE
  5
BBBE
100
AcDbEntity
  8
ALPHA
100
AcDbSpline
210
0.0
220
1.0
230
0.0
 70
    24
 71
     3
 72
     8
 73
     4
 74
     0
 42
0.0000001
 43
0.0000001
 40
5.0
 40
5.0
 40
5.0
 40
5.0
 40
6.0
 40
6.0
 40
6.0
 40
6.0
 10
84.37737798109708
 20
93.23766424901085
 30
0.0
 10
84.37737798109708
 20
93.23766424901085
 30
0.0
 10
79.85011517338353
 20
93.23766424901085
 30
0.0
 10
79.85011517338353
 20
93.23766424901085
 30
0.0
  0
SPLINE
  5
BBBF
100
AcDbEntity
  8
ALPHA
100
AcDbSpline
210
0.1953069735550056
220
0.9807421608561469
230
0.0
 70
    24
 71
     3
 72
     8
 73
     4
 74
     0
 42
0.0000001
 43
0.0000001
 40
0.0
 40
0.0
 40
0.0
 40
0.0
 40
1.0
 40
1.0
 40
1.0
 40
1.0
 10
73.20148504138831
 20
125.0476279268164
 30
0.0
 10
73.20148504138831
 20
125.0476279268164
 30
0.0
 10
85.59665110899345
 20
122.5792295362931
 30
0.0
 10
85.59665110899345
 20
122.5792295362931
 30
0.0
  0
SPLINE
  5
BBC0
100
AcDbEntity
  8
ALPHA
100
AcDbSpline
210
-0.1953069735550039
220
0.9807421608561472
230
0.0
 70
    24
 71
     3
 72
     8
 73
     4
 74
     0
 42
0.0000001
 43
0.0000001
 40
10.0
 40
10.0
 40
10.0
 40
10.0
 40
11.0
 40
11.0
 40
11.0
 40
11.0
 10
24.82889934833963
 20
122.5792295362931
 30
0.0
 10
24.82889934833963
 20
122.5792295362931
 30
0.0
 10
37.22406541594489
 20
125.0476279268164
 30
0.0
 10
37.22406541594489
 20
125.0476279268164
 30
0.0
  0
SPLINE
  5
BBC1
100
AcDbEntity
  8
ALPHA
100
AcDbSpline
210
0.0
220
1.0
230
0.0
 70
    24
 71
     3
 72
     8
 73
     4
 74
     0
 42
0.0000001
 43
0.0000001
 40
3.0
 40
3.0
 40
3.0
 40
3.0
 40
4.0
 40
4.0
 40
4.0
 40
4.0
 10
71.13609046972579
 20
121.5073513236283
 30
0.0
 10
71.13609046972579
 20
121.5073513236283
 30
0.0
 10
39.29039286681756
 20
121.5073513236283
 30
0.0
 10
39.29039286681756
 20
121.5073513236283
 30
0.0
  0
CIRCLE
  5
BBC2
100
AcDbEntity
  8
ALPHA
100
AcDbCircle
 10
29.638825
 20
114.559733
 30
0.0
 40
2.048137
  0
SPLINE
  5
BBC3
100
AcDbEntity
  8
ALPHA
100
AcDbSpline
210
0.0
220
0.0
230
-1.0
 70
     8
 71
     3
 72
     8
 73
     4
 74
     0
 42
0.0000001
 43
0.0000001
 40
9.0
 40
9.0
 40
9.0
 40
9.0
 40
10.0
 40
10.0
 40
10.0
 40
10.0
 10
21.21305952911507
 20
118.0580304434469
 30
0.0
 10
21.21305952911507
 20
120.2628904570529
 30
0.0
 10
22.7691020519394
 20
122.101595380606
 30
0.0
 10
24.82889934833963
 20
122.5792295362931
 30
0.0
  0
SPLINE
  5
BBC4
100
AcDbEntity
  8
ALPHA
100
AcDbSpline
210
0.0
220
0.0
230
-1.0
 70
     8
 71
     3
 72
     8
 73
     4
 74
     0
 42
0.0000001
 43
0.0000001
 40
4.0
 40
4.0
 40
4.0
 40
4.0
 40
5.0
 40
5.0
 40
5.0
 40
5.0
 10
39.29039286681756
 20
121.5073513236283
 30
0.0
 10
37.3658630559147
 20
121.5073513236283
 30
0.0
 10
35.80702189545934
 20
119.9475772839626
 30
0.0
 10
35.80702189545934
 20
118.0235139126647
 30
0.0
  0
LINE
  5
BBC5
100
AcDbEntity
  8
AXE
100
AcDbLine
 10
45.246967
 20
113.005841
 30
0.0
 11
65.178586
 21
113.005841
 31
0.0
  0
SPLINE
  5
BBC6
100
AcDbEntity
  8
ALPHA
100
AcDbSpline
210
0.0
220
0.0
230
-1.0
 70
     8
 71
     3
 72
     8
 73
     4
 74
     0
 42
0.0000001
 43
0.0000001
 40
2.0
 40
2.0
 40
2.0
 40
2.0
 40
3.0
 40
3.0
 40
3.0
 40
3.0
 10
74.61852856187386
 20
118.0235139126647
 30
0.0
 10
74.61852856187386
 20
119.9475772839626
 30
0.0
 10
73.05875452220823
 20
121.5073513236283
 30
0.0
 10
71.13609046972579
 20
121.5073513236283
 30
0.0
  0
SPLINE
  5
BBC7
100
AcDbEntity
  8
ALPHA
100
AcDbSpline
210
0.0
220
1.0
230
0.0
 70
    24
 71
     3
 72
     8
 73
     4
 74
     0
 42
0.0000001
 43
0.0000001
 40
11.0
 40
11.0
 40
11.0
 40
11.0
 40
12.0
 40
12.0
 40
12.0
 40
12.0
 10
37.22406541594489
 20
125.0476279268164
 30
0.0
 10
37.22406541594489
 20
125.0476279268164
 30
0.0
 10
73.20148504138831
 20
125.0476279268164
 30
0.0
 10
73.20148504138831
 20
125.0476279268164
 30
0.0
  0
SPLINE
  5
BBC8
100
AcDbEntity
  8
ALPHA
100
AcDbSpline
210
0.0
220
0.0
230
1.0
 70
     8
 71
     3
 72
     8
 73
     4
 74
     0
 42
0.0000001
 43
0.0000001
 40
1.0
 40
1.0
 40
1.0
 40
1.0
 40
2.0
 40
2.0
 40
2.0
 40
2.0
 10
85.59665110899345
 20
122.5792295362931
 30
0.0
 10
87.65644840539392
 20
122.101595380606
 30
0.0
 10
89.21249092821813
 20
120.2628904570529
 30
0.0
 10
89.21249092821813
 20
118.0580304434469
 30
0.0
  0
LEADER
  5
BDE3
100
AcDbEntity
  8
COTATION1
100
AcDbLeader
  3
SC_DEFAUT
 73
     0
 74
     0
 75
     1
 40
2.97619
 41
11.904762
 76
     3
 10
84.377378
 20
93.237664
 30
0.0
 10
97.84259
 20
130.74274
 30
0.0
 10
102.84259
 20
130.74274
 30
0.0
 77
   256
340
BDE4
213
0.0
223
-1.25
233
0.0
1001
ACAD
1000
DSTYLE
1002
{
1070
     5
1000
OPEN30
1070
    77
1070
     0
1070
   147
1040
2.0
1070
   342
1005
7D0C
1002
}
1000
LEANOF
1010
0.0
1020
-1.25
1030
0.0
  0
MTEXT
  5
BDE4
102
{ACAD_REACTORS
330
BDE3
102
}
100
AcDbEntity
  8
COTATION1
100
AcDbMText
 10
104.84259
 20
131.99274
 30
0.0
 40
2.5
 41
0.0
 71
     1
 72
     1
  1
2x%%c4,3
1001
ACAD
1000
MTEXTBEGIN
1070
    73
1070
     1
1070
    44
1040
1.0
1070
    74
1070
     0
1000
MTEXTEND
1000
MTEXTBEGIN
1070
    73
1070
     1
1070
    44
1040
1.0
1070
    74
1070
     0
1000
MTEXTEND
1000
MTEXTBEGIN
1070
    73
1070
     1
1070
    44
1040
1.0
1070
    74
1070
     0
1000
MTEXTEND
  0
TEXT
  5
BDE8
100
AcDbEntity
  8
AXE
100
AcDbText
 10
47.737446
 20
42.068854
 30
0.0
 40
8.0
  1
Y
 72
     2
 11
54.213636
 21
42.068854
 31
0.0
100
AcDbText
  0
LINE
  5
BDE9
100
AcDbEntity
  8
AXE
100
AcDbLine
 10
55.213636
 20
42.068854
 30
0.0
 11
55.213636
 21
130.047628
 31
0.0
  0
LINE
  5
BDEA
100
AcDbEntity
  8
AXE
100
AcDbLine
 10
16.212593
 20
91.055666
 30
0.0
 11
104.212491
 21
91.055666
 31
0.0
  0
TEXT
  5
BDEB
100
AcDbEntity
  8
AXE
100
AcDbText
 10
97.7363
 20
92.055666
 30
0.0
 40
8.0
  1
X
 72
     2
 11
104.212491
 21
92.055666
 31
0.0
100
AcDbText
  0
DIMENSION
  5
BECA
100
AcDbEntity
  8
COTATION1
100
AcDbDimension
  2
*D3
 10
124.212491
 20
57.060893
 30
0.0
 11
124.212491
 21
74.058279
 31
0.0
 70
    32
  1
=
  3
SC_DEFAUT
100
AcDbAlignedDimension
 13
104.212491
 23
91.055666
 33
0.0
 14
73.202418
 24
57.060893
 34
0.0
 50
90.0
100
AcDbRotatedDimension
  0
DIMENSION
  5
BECB
100
AcDbEntity
  8
COTATION1
100
AcDbDimension
  2
*D4
 10
124.212491
 20
125.050439
 30
0.0
 11
124.212491
 21
108.053052
 31
0.0
 70
    32
  1
=
  3
SC_DEFAUT
100
AcDbAlignedDimension
 13
104.212491
 23
91.055666
 33
0.0
 14
73.202418
 24
125.050439
 34
0.0
 50
270.0
100
AcDbRotatedDimension
  0
LINE
  5
BFD4
100
AcDbEntity
  8
AXE
100
AcDbLine
 10
28.343055
 20
97.206906
 30
0.0
 11
28.343055
 21
84.937535
 31
0.0
  0
LINE
  5
BFD6
100
AcDbEntity
  8
AXE
100
AcDbLine
 10
82.113668
 20
97.206906
 30
0.0
 11
82.113668
 21
84.937535
 31
0.0
  0
DIMENSION
  5
BFD7
100
AcDbEntity
  8
COTATION1
100
AcDbDimension
  2
*D5
 10
82.113668
 20
22.425214
 30
0.0
 11
55.228361
 21
25.675214
 31
0.0
 70
    32
  3
SC_DEFAUT
100
AcDbAlignedDimension
 13
28.343055
 23
82.937535
 33
0.0
 14
82.113668
 24
82.937535
 34
0.0
100
AcDbRotatedDimension
1001
ACAD
1000
DSTYLE
1002
{
1070
   271
1070
     0
1002
}
  0
DIMENSION
  5
BFD8
100
AcDbEntity
  8
COTATION1
100
AcDbDimension
  2
*D6
 10
28.343055
 20
32.425214
 30
0.0
 11
41.7807
 21
35.675214
 31
0.0
 70
    32
  1
=
  3
SC_DEFAUT
100
AcDbAlignedDimension
 13
55.218346
 23
42.425214
 33
0.0
 14
28.343055
 24
84.937535
 34
0.0
100
AcDbRotatedDimension
  0
DIMENSION
  5
BFD9
100
AcDbEntity
  8
COTATION1
100
AcDbDimension
  2
*D7
 10
82.113668
 20
32.425214
 30
0.0
 11
68.666007
 21
35.675214
 31
0.0
 70
    32
  1
=
  3
SC_DEFAUT
100
AcDbAlignedDimension
 13
55.218346
 23
42.425214
 33
0.0
 14
82.113668
 24
84.937535
 34
0.0
 50
180.0
100
AcDbRotatedDimension
  0
DIMENSION
  5
C051
100
AcDbEntity
  8
COTATION1
100
AcDbDimension
  2
*D8
 10
21.21306
 20
22.425214
 30
0.0
 11
24.778057
 21
25.675214
 31
0.0
 70
    32
  1
=
  3
SC_DEFAUT
100
AcDbAlignedDimension
 13
28.343055
 23
80.937535
 33
0.0
 14
21.21306
 24
64.051423
 34
0.0
100
AcDbRotatedDimension
  0
DIMENSION
  5
C0D6
100
AcDbEntity
  8
COTATION1
100
AcDbDimension
  2
*D9
 10
89.214213
 20
22.425214
 30
0.0
 11
85.66394
 21
25.675214
 31
0.0
 70
    32
  1
=
  3
SC_DEFAUT
100
AcDbAlignedDimension
 13
82.113668
 23
82.937535
 33
0.0
 14
89.214213
 24
64.051423
 34
0.0
 50
180.0
100
AcDbRotatedDimension
  0
DIMENSION
  5
C10C
100
AcDbEntity
  8
COTATION1
100
AcDbDimension
  2
*D10
 10
114.212491
 20
113.005841
 30
0.0
 11
114.212491
 21
102.030753
 31
0.0
 70
    32
  3
SC_DEFAUT
100
AcDbAlignedDimension
 13
104.212491
 23
91.055666
 33
0.0
 14
65.178586
 24
113.005841
 34
0.0
 50
270.0
100
AcDbRotatedDimension
  0
VIEWPORT
  5
494D
102
{ACAD_XDICTIONARY
360
C337
102
}
100
AcDbEntity
 67
     1
  8
0
100
AcDbViewport
 10
6.0
 20
4.5
 30
0.0
 40
13.37404
 41
9.064748
 68
    -1
 69
     1
1001
ACAD
1000
MVIEW
1002
{
1070
    16
1010
0.0
1020
0.0
1030
0.0
1010
0.0
1020
0.0
1030
1.0
1040
0.0
1040
9.064748
1040
6.0
1040
4.5
1040
50.0
1040
0.0
1040
0.0
1070
     0
1070
   100
1070
     1
1070
     1
1070
     0
1070
     0
1070
     0
1070
     0
1040
0.0
1040
0.0
1040
0.0
1040
10.0
1040
10.0
1040
10.0
1040
10.0
1070
     0
1002
{
1002
}
1002
}
  0
ENDSEC
  0
SECTION
  2
OBJECTS
  0
DICTIONARY
  5
7CF4
102
{ACAD_XDICTIONARY
360
C3B1
102
}
100
AcDbDictionary
  3
ACAD_COLOR
350
BD9E
  3
ACAD_GROUP
350
7CF5
  3
ACAD_LAYOUT
350
7D01
  3
ACAD_MATERIAL
350
BD9D
  3
ACAD_MLINESTYLE
350
7CFE
  3
ACAD_PLOTSETTINGS
350
7D00
  3
ACAD_PLOTSTYLENAME
350
7CF6
  3
ACAD_TABLESTYLE
350
BD9F
  3
ACDBHEADERROUNDTRIPXREC
350
C390
  3
ACDBVARIABLEDICTIONARY
350
8048
  3
ASE_INDEX_DICTIONARY
350
BDDE
  0
DICTIONARY
  5
C38A
100
AcDbDictionary
  3
ACAD_XREC_ROUNDTRIP
360
C38B
  0
DICTIONARY
  5
C38C
100
AcDbDictionary
  3
ACAD_XREC_ROUNDTRIP
360
C38D
  0
DICTIONARY
  5
C3BB
100
AcDbDictionary
  3
ACAD_XREC_ROUNDTRIP
360
C3BC
  0
DICTIONARY
  5
C3B9
100
AcDbDictionary
  3
ACAD_XREC_ROUNDTRIP
360
C3BA
  0
DICTIONARY
  5
800F
100
AcDbDictionary
  3
ACAD_LAYOUTSELFREF
360
C3B8
  3
ACAD_SORTENTS
360
BDC4
  3
ACAD_XREC_ROUNDTRIP
360
C388
  0
DICTIONARY
  5
8011
100
AcDbDictionary
  3
ACAD_LAYOUTSELFREF
360
C3B7
  3
ACAD_XREC_ROUNDTRIP
360
C389
  0
DICTIONARY
  5
C337
100
AcDbDictionary
  3
ACAD_XREC_ROUNDTRIP
360
C338
  0
DICTIONARY
  5
C3B1
100
AcDbDictionary
  3
ACAD_XREC_ROUNDTRIP
360
C3B2
  0
DICTIONARY
  5
BD9E
102
{ACAD_REACTORS
330
7CF4
102
}
100
AcDbDictionary
  0
DICTIONARY
  5
7CF5
102
{ACAD_REACTORS
330
7CF4
102
}
100
AcDbDictionary
  0
DICTIONARY
  5
7D01
102
{ACAD_XDICTIONARY
360
C3B5
102
}
102
{ACAD_REACTORS
330
7CF4
102
}
100
AcDbDictionary
  3
MODEL
350
7D09
  3
PRÉSENTATION1
350
7D05
  0
DICTIONARY
  5
BD9D
102
{ACAD_REACTORS
330
7CF4
102
}
100
AcDbDictionary
  0
DICTIONARY
  5
7CFE
102
{ACAD_XDICTIONARY
360
C3B3
102
}
102
{ACAD_REACTORS
330
7CF4
102
}
100
AcDbDictionary
  3
STANDARD
350
7CFF
  0
DICTIONARY
  5
7D00
102
{ACAD_REACTORS
330
7CF4
102
}
100
AcDbDictionary
  0
ACAD_ZOMBIE_OBJECT
  5
7CF6
102
{ACAD_REACTORS
330
7CF4
102
}
100
AcDbZombieObject
 90
      499
 91
      500
 93
       86
310
405010041939BDC9B585B0
350
7CF7
340
7CF7
 94
        0
  0
DICTIONARY
  5
BD9F
102
{ACAD_XDICTIONARY
360
C3BD
102
}
102
{ACAD_REACTORS
330
7CF4
102
}
100
AcDbDictionary
  3
STANDARD
350
BDA0
  0
DICTIONARY
  5
C390
102
{ACAD_REACTORS
330
7CF4
102
}
100
AcDbDictionary
  3
CEPSNTYPE
350
C39A
  3
DIMSTYLEDATA
350
C39E
  3
FINGERPRINTGUID
350
C39B
  3
HYPERLINKBASE
350
C393
  3
INSUNITS
350
C399
  3
LAYOUTDICT
350
C395
  3
LWETCUNION
350
C398
  3
PLOTSETDICT
350
C396
  3
PLOTSTYLNAMDICT
350
C397
  3
PSVPSCALE
350
C39D
  3
PUCSBASE
350
C3A1
  3
PUCSORGBACK
350
C3A7
  3
PUCSORGBOTTOM
350
C3A3
  3
PUCSORGFRONT
350
C3A6
  3
PUCSORGLEFT
350
C3A4
  3
PUCSORGRIGHT
350
C3A5
  3
PUCSORGTOP
350
C3A2
  3
PUCSORTHOREF
350
C39F
  3
PUCSORTHOVIEW
350
C3A0
  3
STYLESHEET
350
C394
  3
TSTACKALIGN
350
C391
  3
TSTACKSIZE
350
C392
  3
UCSBASE
350
C3AA
  3
UCSORGBACK
350
C3B0
  3
UCSORGBOTTOM
350
C3AC
  3
UCSORGFRONT
350
C3AF
  3
UCSORGLEFT
350
C3AD
  3
UCSORGRIGHT
350
C3AE
  3
UCSORGTOP
350
C3AB
  3
UCSORTHOREF
350
C3A8
  3
UCSORTHOVIEW
350
C3A9
  3
VERSIONGUID
350
C39C
  0
DICTIONARY
  5
8048
102
{ACAD_REACTORS
330
7CF4
102
}
100
AcDbDictionary
  3
CTABLESTYLE
350
BDE2
  3
DIMASSOC
350
804A
  3
HIDETEXT
350
8049
  3
PROJECTNAME
350
C30B
  0
DICTIONARY
  5
BDDE
102
{ACAD_XDICTIONARY
360
C3BF
102
}
102
{ACAD_REACTORS
330
7CF4
102
}
100
AcDbDictionary
  3
ASEBLOCKHIERARCHYINDEXRECORD
350
BDE0
1001
DCO15
1040
1538222681.453
  0
XRECORD
  5
C38B
102
{ACAD_REACTORS
330
C38A
102
}
100
AcDbXrecord
102
EXTNAMES
  1
BYBLOCK
  2
ByBlock
  0
XRECORD
  5
C38D
102
{ACAD_REACTORS
330
C38C
102
}
100
AcDbXrecord
102
EXTNAMES
  1
BYLAYER
  2
ByLayer
  0
XRECORD
  5
C3BC
102
{ACAD_REACTORS
330
C3BB
102
}
100
AcDbXrecord
102
PLOTBIT
280
     0
  0
XRECORD
  5
C3BA
102
{ACAD_REACTORS
330
C3B9
102
}
100
AcDbXrecord
102
ACADR14ROUNDTRIP
1000
DSTYLE
1002
{
1070
   279
 70
     2
1070
   341
340
7D0C
1070
   342
340
7D0C
1002
}
  0
XRECORD
  5
C3B8
102
{ACAD_REACTORS
330
800F
102
}
100
AcDbXrecord
340
7D06
  0
SORTENTSTABLE
  5
BDC4
102
{ACAD_REACTORS
330
800F
102
}
100
AcDbSortentsTable
330
7D06
331
BBC1
  5
BBC4
331
BBA9
  5
BBA9
331
BBAB
  5
BBAB
331
BBC3
  5
BBC6
331
BBC5
  5
BBC8
331
BBAD
  5
BBAD
331
BBC7
  5
BD2B
331
BBAF
  5
BBAF
331
BDE3
  5
BDE8
331
BDE9
  5
BDEB
331
BDEB
  5
BE34
331
BB92
  5
BB92
331
BB94
  5
BB94
331
BB96
  5
BB96
331
BBB0
  5
BBB1
331
BB98
  5
BB98
331
BECB
  5
BF58
331
17
  5
17
331
BBBA
  5
BBBD
331
BBBC
  5
BBBF
331
BBA6
  5
BBA6
331
BBBE
  5
BBC1
331
BBC0
  5
BBC3
331
BBA8
  5
BBA8
331
BBC2
  5
BBC5
331
BBAA
  5
BBAA
331
BBC4
  5
BBC7
331
BBAC
  5
BBAC
331
BBC6
  5
BCDE
331
BBAE
  5
BBAE
331
BBC8
  5
BD2E
331
BDE4
  5
BDE9
331
BDE8
  5
BDEA
331
BDEA
  5
BDEC
331
BB91
  5
BB91
331
BB93
  5
BB93
331
BB95
  5
BB95
331
A
  5
A
331
BB97
  5
BB97
331
BECA
  5
BEFA
331
72
  5
72
331
BBBF
  5
BBC2
331
BBA7
  5
BBA7
  0
XRECORD
  5
C388
102
{ACAD_REACTORS
330
800F
102
}
100
AcDbXrecord
102
EXTNAMES
  1
*MODEL_SPACE
  2
*Model_Space
  0
XRECORD
  5
C3B7
102
{ACAD_REACTORS
330
8011
102
}
100
AcDbXrecord
340
7D02
  0
XRECORD
  5
C389
102
{ACAD_REACTORS
330
8011
102
}
100
AcDbXrecord
102
EXTNAMES
  1
*PAPER_SPACE
  2
*Paper_Space
  0
XRECORD
  5
C338
102
{ACAD_REACTORS
330
C337
102
}
100
AcDbXrecord
102
SHADEPLOT
 70
     0
102
UCS
 74
     0
 71
     0
 10
0.0
 20
0.0
 30
0.0
 10
0.0
 20
0.0
 30
0.0
 10
0.0
 20
0.0
 30
0.0
146
0.0
 79
     0
102
VIEW
281
     0
102
NEWVIEWCONTROL
280
     4
  0
XRECORD
  5
C3B2
102
{ACAD_REACTORS
330
C3B1
102
}
100
AcDbXrecord
102
EXTNAMES
  1
ACDBVARIABLEDICTIONARY
  2
AcDbVariableDictionary
  0
DICTIONARY
  5
C3B5
100
AcDbDictionary
  3
ACAD_XREC_ROUNDTRIP
360
C3B6
  0
ACAD_ZOMBIE_OBJECT
  5
7D09
102
{ACAD_XDICTIONARY
360
C33B
102
}
102
{ACAD_REACTORS
330
7D01
102
}
100
AcDbZombieObject
 90
      499
 91
      502
 93
      428
310
A2C01AAAAAAAAA5A69054D6F64656C901A800000000000000000000000000000000000000000000A1000000000000008902A6A6AAAA0
330
7D06
330
0
340
0
340
0
 94
        0
  0
ACAD_ZOMBIE_OBJECT
  5
7D05
102
{ACAD_XDICTIONARY
360
C339
102
}
102
{ACAD_REACTORS
330
7D01
102
}
100
AcDbZombieObject
 90
      499
 91
      502
 93
     1484
310
9154850204C617365724A65742035303030204E2050532C00800000040B87E17400000003838A84550000000000444F1640000000000611C510000000080253F6A40000000101FA3DC901024134A901416AA5910690D5072E973656E746174696F6E31406A800000000000000000000000000000000000000000000A100000
310
0000000008902A6A6A10232D5E076BC5510408CB5781DAF154410232D5E076BC5510408CB5781DAF15C410232D5E076BC5710408CB5781DAF15C40
330
7D02
330
494D
340
0
340
0
 94
        0
  0
DICTIONARY
  5
C3B3
100
AcDbDictionary
  3
ACAD_XREC_ROUNDTRIP
360
C3B4
  0
MLINESTYLE
  5
7CFF
102
{ACAD_REACTORS
330
7CFE
102
}
100
AcDbMlineStyle
  2
STANDARD
 70
     0
  3

 62
   256
 51
90.0
 52
90.0
 71
     2
 49
0.5
 62
   256
  6
BYLAYER
 49
-0.5
 62
   256
  6
BYLAYER
  0
ACAD_ZOMBIE_OBJECT
  5
7CF7
102
{ACAD_REACTORS
330
7CF6
102
}
100
AcDbZombieObject
 90
      499
 91
      501
 93
        0
 94
        0
  0
DICTIONARY
  5
C3BD
100
AcDbDictionary
  3
ACAD_XREC_ROUNDTRIP
360
C3BE
  0
ACAD_ZOMBIE_OBJECT
  5
BDA0
102
{ACAD_REACTORS
330
BD9F
102
}
100
AcDbZombieObject
 90
      499
 91
      571
 93
     1841
310
4214DD185B99185C9928B81E85EB51B8AE3F2E07A17AD46E2B8FC02B5E8DC0F42B1CFD028000000C1008070000C3001FDFF8000000C1003FBFF000000182007F7FE00000030400FEFFC00000060801FDFF8000000C1003FBFF00000018200000000000000681FA0B0000001820100E000186003FBFF000000182007F7FE000
310
00030400FEFFC00000060801FDFF8000000C1003FBFF000000182007F7FE000000304000AD7A3703D0AC73F4160000003040201C00030C007F7FE00000030400FEFFC00000060801FDFF8000000C1003FBFF000000182007F7FE00000030400FEFFC000000608040
340
7CF9
340
7CF9
340
7CF9
 94
        0
1001
ACAD
1000
AcadProxyRoundTripData
1071
      568
1071
   393239
1070
     0
  0
XRECORD
  5
C39A
102
{ACAD_REACTORS
330
C390
102
}
100
AcDbXrecord
 90
        0
  0
XRECORD
  5
C39E
102
{ACAD_REACTORS
330
C390
102
}
100
AcDbXrecord
1000
DSTYLE
1002
{
1070
   279
 70
     2
1070
   341
340
7D0C
1070
   342
340
7D0C
1002
}
  0
XRECORD
  5
C39B
102
{ACAD_REACTORS
330
C390
102
}
100
AcDbXrecord
  1
{20110D97-5561-4CA7-8FED-06A9B97BF164}
  0
XRECORD
  5
C393
102
{ACAD_REACTORS
330
C390
102
}
100
AcDbXrecord
  1

  0
XRECORD
  5
C399
102
{ACAD_REACTORS
330
C390
102
}
100
AcDbXrecord
 90
        0
  0
XRECORD
  5
C395
102
{ACAD_REACTORS
330
C390
102
}
100
AcDbXrecord
340
7D01
  0
XRECORD
  5
C398
102
{ACAD_REACTORS
330
C390
102
}
100
AcDbXrecord
 90
    14877
  0
XRECORD
  5
C396
102
{ACAD_REACTORS
330
C390
102
}
100
AcDbXrecord
340
7D00
  0
XRECORD
  5
C397
102
{ACAD_REACTORS
330
C390
102
}
100
AcDbXrecord
340
7CF6
  0
XRECORD
  5
C39D
102
{ACAD_REACTORS
330
C390
102
}
100
AcDbXrecord
 40
0.0
  0
XRECORD
  5
C3A1
102
{ACAD_REACTORS
330
C390
102
}
100
AcDbXrecord
340
0
  0
XRECORD
  5
C3A7
102
{ACAD_REACTORS
330
C390
102
}
100
AcDbXrecord
 10
0.0
 20
0.0
 30
0.0
  0
XRECORD
  5
C3A3
102
{ACAD_REACTORS
330
C390
102
}
100
AcDbXrecord
 10
0.0
 20
0.0
 30
0.0
  0
XRECORD
  5
C3A6
102
{ACAD_REACTORS
330
C390
102
}
100
AcDbXrecord
 10
0.0
 20
0.0
 30
0.0
  0
XRECORD
  5
C3A4
102
{ACAD_REACTORS
330
C390
102
}
100
AcDbXrecord
 10
0.0
 20
0.0
 30
0.0
  0
XRECORD
  5
C3A5
102
{ACAD_REACTORS
330
C390
102
}
100
AcDbXrecord
 10
0.0
 20
0.0
 30
0.0
  0
XRECORD
  5
C3A2
102
{ACAD_REACTORS
330
C390
102
}
100
AcDbXrecord
 10
0.0
 20
0.0
 30
0.0
  0
XRECORD
  5
C39F
102
{ACAD_REACTORS
330
C390
102
}
100
AcDbXrecord
340
0
  0
XRECORD
  5
C3A0
102
{ACAD_REACTORS
330
C390
102
}
100
AcDbXrecord
 70
     0
  0
XRECORD
  5
C394
102
{ACAD_REACTORS
330
C390
102
}
100
AcDbXrecord
  1

  0
XRECORD
  5
C391
102
{ACAD_REACTORS
330
C390
102
}
100
AcDbXrecord
 90
        1
  0
XRECORD
  5
C392
102
{ACAD_REACTORS
330
C390
102
}
100
AcDbXrecord
 90
       70
  0
XRECORD
  5
C3AA
102
{ACAD_REACTORS
330
C390
102
}
100
AcDbXrecord
340
0
  0
XRECORD
  5
C3B0
102
{ACAD_REACTORS
330
C390
102
}
100
AcDbXrecord
 10
0.0
 20
0.0
 30
0.0
  0
XRECORD
  5
C3AC
102
{ACAD_REACTORS
330
C390
102
}
100
AcDbXrecord
 10
0.0
 20
0.0
 30
0.0
  0
XRECORD
  5
C3AF
102
{ACAD_REACTORS
330
C390
102
}
100
AcDbXrecord
 10
0.0
 20
0.0
 30
0.0
  0
XRECORD
  5
C3AD
102
{ACAD_REACTORS
330
C390
102
}
100
AcDbXrecord
 10
0.0
 20
0.0
 30
0.0
  0
XRECORD
  5
C3AE
102
{ACAD_REACTORS
330
C390
102
}
100
AcDbXrecord
 10
0.0
 20
0.0
 30
0.0
  0
XRECORD
  5
C3AB
102
{ACAD_REACTORS
330
C390
102
}
100
AcDbXrecord
 10
0.0
 20
0.0
 30
0.0
  0
XRECORD
  5
C3A8
102
{ACAD_REACTORS
330
C390
102
}
100
AcDbXrecord
340
0
  0
XRECORD
  5
C3A9
102
{ACAD_REACTORS
330
C390
102
}
100
AcDbXrecord
 70
     0
  0
XRECORD
  5
C39C
102
{ACAD_REACTORS
330
C390
102
}
100
AcDbXrecord
  1
{B4D5C901-89C8-4C2D-A478-0AED57C4C073}
  0
DICTIONARYVAR
  5
BDE2
102
{ACAD_REACTORS
330
8048
102
}
100
DictionaryVariables
280
     0
  1
STANDARD
  0
DICTIONARYVAR
  5
804A
102
{ACAD_REACTORS
330
8048
102
}
100
DictionaryVariables
280
     0
  1
2
  0
DICTIONARYVAR
  5
8049
102
{ACAD_REACTORS
330
8048
102
}
100
DictionaryVariables
280
     0
  1
1
  0
DICTIONARYVAR
  5
C30B
102
{ACAD_REACTORS
330
8048
102
}
100
DictionaryVariables
280
     0
  1

  0
DICTIONARY
  5
C3BF
100
AcDbDictionary
  3
ACAD_XREC_ROUNDTRIP
360
C3C0
  0
XRECORD
  5
BDE0
102
{ACAD_REACTORS
330
BDDE
102
}
100
AcDbXrecord
330
A
330
17
330
72
330
0
330
0
330
0
330
0
330
0
330
0
330
0
330
0
330
0
330
0
330
0
330
0
330
0
330
0
330
0
330
0
330
0
330
0
330
0
330
0
330
0
330
0
330
0
330
0
330
0
330
0
330
0
330
0
330
0
330
0
330
0
330
0
330
0
330
0
330
0
330
0
330
0
330
0
330
0
330
0
330
0
330
0
330
0
330
0
330
0
330
0
330
0
330
0
330
0
330
0
330
0
330
0
330
0
330
0
  0
XRECORD
  5
C3B6
102
{ACAD_REACTORS
330
C3B5
102
}
100
AcDbXrecord
102
EXTNAMES
  1
MODEL
  2
Model
  1
PRÉSENTATION1
  2
Présentation1
  0
DICTIONARY
  5
C33B
100
AcDbDictionary
  3
ACAD_XREC_ROUNDTRIP
360
C33C
  0
DICTIONARY
  5
C339
100
AcDbDictionary
  3
ACAD_XREC_ROUNDTRIP
360
C33A
  0
XRECORD
  5
C3B4
102
{ACAD_REACTORS
330
C3B3
102
}
100
AcDbXrecord
102
EXTNAMES
  1
STANDARD
  2
Standard
  0
XRECORD
  5
C3BE
102
{ACAD_REACTORS
330
C3BD
102
}
100
AcDbXrecord
102
EXTNAMES
  1
STANDARD
  2
Standard
  0
XRECORD
  5
C3C0
102
{ACAD_REACTORS
330
C3BF
102
}
100
AcDbXrecord
102
EXTNAMES
  1
ASEBLOCKHIERARCHYINDEXRECORD
  2
ASEBlockHierarchyIndexRecord
  0
XRECORD
  5
C33C
102
{ACAD_REACTORS
330
C33B
102
}
100
AcDbXrecord
102
SHADEPLOT
 70
     0
102
SHADEPLOTRESLEVEL
 70
     2
102
SHADEPLOTCUSTOMDPI
 70
   300
  0
XRECORD
  5
C33A
102
{ACAD_REACTORS
330
C339
102
}
100
AcDbXrecord
102
SHADEPLOT
 70
     0
102
SHADEPLOTRESLEVEL
 70
     2
102
SHADEPLOTCUSTOMDPI
 70
   300
  0
ENDSEC
  0
EOF
