  0
SECTION
  2
HEADER
  9
$ACADVER
  1
AC1012
  9
$DWGCODEPAGE
  3
ANSI_1252
  9
$INSBASE
 10
0.0
 20
0.0
 30
0.0
  9
$EXTMIN
 10
4.280807
 20
5.771812
 30
0.0
  9
$EXTMAX
 10
159.293917
 20
201.283744
 30
0.0
  9
$LIMMIN
 10
19.077216
 20
43.616976
  9
$LIMMAX
 10
194.084622
 20
146.65737
  9
$ORTHOMODE
 70
     0
  9
$REGENMODE
 70
     1
  9
$FILLMODE
 70
     1
  9
$QTEXTMODE
 70
     0
  9
$MIRRTEXT
 70
     1
  9
$DRAGMODE
 70
     2
  9
$LTSCALE
 40
10.0
  9
$OSMODE
 70
    37
  9
$ATTMODE
 70
     1
  9
$TEXTSIZE
 40
0.2
  9
$TRACEWID
 40
0.05
  9
$TEXTSTYLE
  7
STANDARD
  9
$CLAYER
  8
ALPHA
  9
$CELTYPE
  6
CONTINUOUS
  9
$CECOLOR
 62
   256
  9
$CELTSCALE
 40
1.0
  9
$DELOBJ
 70
     1
  9
$DISPSILH
 70
     0
  9
$DIMSCALE
 40
1.0
  9
$DIMASZ
 40
0.18
  9
$DIMEXO
 40
0.0625
  9
$DIMDLI
 40
0.38
  9
$DIMRND
 40
0.0
  9
$DIMDLE
 40
0.0
  9
$DIMEXE
 40
0.18
  9
$DIMTP
 40
0.0
  9
$DIMTM
 40
0.0
  9
$DIMTXT
 40
0.18
  9
$DIMCEN
 40
0.09
  9
$DIMTSZ
 40
0.0
  9
$DIMTOL
 70
     0
  9
$DIMLIM
 70
     0
  9
$DIMTIH
 70
     1
  9
$DIMTOH
 70
     1
  9
$DIMSE1
 70
     0
  9
$DIMSE2
 70
     0
  9
$DIMTAD
 70
     0
  9
$DIMZIN
 70
     0
  9
$DIMBLK
  1

  9
$DIMASO
 70
     1
  9
$DIMSHO
 70
     1
  9
$DIMPOST
  1

  9
$DIMAPOST
  1

  9
$DIMALT
 70
     0
  9
$DIMALTD
 70
     2
  9
$DIMALTF
 40
25.4
  9
$DIMLFAC
 40
1.0
  9
$DIMTOFL
 70
     0
  9
$DIMTVP
 40
0.0
  9
$DIMTIX
 70
     0
  9
$DIMSOXD
 70
     0
  9
$DIMSAH
 70
     0
  9
$DIMBLK1
  1

  9
$DIMBLK2
  1

  9
$DIMSTYLE
  2
STANDARD
  9
$DIMCLRD
 70
     0
  9
$DIMCLRE
 70
     0
  9
$DIMCLRT
 70
     0
  9
$DIMTFAC
 40
1.0
  9
$DIMGAP
 40
0.09
  9
$DIMJUST
 70
     0
  9
$DIMSD1
 70
     0
  9
$DIMSD2
 70
     0
  9
$DIMTOLJ
 70
     1
  9
$DIMTZIN
 70
     0
  9
$DIMALTZ
 70
     0
  9
$DIMALTTZ
 70
     0
  9
$DIMFIT
 70
     3
  9
$DIMUPT
 70
     0
  9
$DIMUNIT
 70
     2
  9
$DIMDEC
 70
     4
  9
$DIMTDEC
 70
     4
  9
$DIMALTU
 70
     2
  9
$DIMALTTD
 70
     2
  9
$DIMTXSTY
  7
STANDARD
  9
$DIMAUNIT
 70
     0
  9
$LUNITS
 70
     2
  9
$LUPREC
 70
     4
  9
$SKETCHINC
 40
0.1
  9
$FILLETRAD
 40
4.5
  9
$AUNITS
 70
     0
  9
$AUPREC
 70
     0
  9
$MENU
  1
acad
  9
$ELEVATION
 40
0.0
  9
$PELEVATION
 40
0.0
  9
$THICKNESS
 40
0.0
  9
$LIMCHECK
 70
     0
  9
$BLIPMODE
 70
     0
  9
$CHAMFERA
 40
0.0
  9
$CHAMFERB
 40
0.0
  9
$CHAMFERC
 40
0.0
  9
$CHAMFERD
 40
0.0
  9
$SKPOLY
 70
     0
  9
$TDCREATE
 40
2453634.371764132
  9
$TDUPDATE
 40
2454062.347215382
  9
$TDINDWG
 40
2.6377478009
  9
$TDUSRTIMER
 40
2.6377467130
  9
$USRTIMER
 70
     1
  9
$ANGBASE
 50
0.0
  9
$ANGDIR
 70
     0
  9
$PDMODE
 70
     0
  9
$PDSIZE
 40
0.0
  9
$PLINEWID
 40
0.0
  9
$COORDS
 70
     1
  9
$SPLFRAME
 70
     0
  9
$SPLINETYPE
 70
     6
  9
$SPLINESEGS
 70
     8
  9
$ATTDIA
 70
     0
  9
$ATTREQ
 70
     1
  9
$HANDLING
 70
     1
  9
$HANDSEED
  5
1EC69
  9
$SURFTAB1
 70
     6
  9
$SURFTAB2
 70
     6
  9
$SURFTYPE
 70
     6
  9
$SURFU
 70
     6
  9
$SURFV
 70
     6
  9
$UCSNAME
  2

  9
$UCSORG
 10
0.0
 20
0.0
 30
0.0
  9
$UCSXDIR
 10
1.0
 20
0.0
 30
0.0
  9
$UCSYDIR
 10
0.0
 20
1.0
 30
0.0
  9
$PUCSNAME
  2

  9
$PUCSORG
 10
0.0
 20
0.0
 30
0.0
  9
$PUCSXDIR
 10
1.0
 20
0.0
 30
0.0
  9
$PUCSYDIR
 10
0.0
 20
1.0
 30
0.0
  9
$USERI1
 70
     0
  9
$USERI2
 70
     0
  9
$USERI3
 70
     0
  9
$USERI4
 70
     0
  9
$USERI5
 70
     0
  9
$USERR1
 40
0.0
  9
$USERR2
 40
0.0
  9
$USERR3
 40
0.0
  9
$USERR4
 40
0.0
  9
$USERR5
 40
0.0
  9
$WORLDVIEW
 70
     1
  9
$SHADEDGE
 70
     3
  9
$SHADEDIF
 70
    70
  9
$TILEMODE
 70
     1
  9
$MAXACTVP
 70
    16
  9
$PINSBASE
 10
0.0
 20
0.0
 30
0.0
  9
$PLIMCHECK
 70
     0
  9
$PEXTMIN
 10
1.000000E+20
 20
1.000000E+20
 30
1.000000E+20
  9
$PEXTMAX
 10
-1.000000E+20
 20
-1.000000E+20
 30
-1.000000E+20
  9
$PLIMMIN
 10
0.0
 20
0.0
  9
$PLIMMAX
 10
12.0
 20
9.0
  9
$UNITMODE
 70
     0
  9
$VISRETAIN
 70
     0
  9
$PLINEGEN
 70
     1
  9
$PSLTSCALE
 70
     0
  9
$TREEDEPTH
 70
  3020
  9
$PICKSTYLE
 70
     0
  9
$CMLSTYLE
  2
STANDARD
  9
$CMLJUST
 70
     0
  9
$CMLSCALE
 40
1.0
  9
$SAVEIMAGES
 70
     0
  0
ENDSEC
  0
SECTION
  2
CLASSES
  0
CLASS
  1
LWPOLYLINE
  2
AcDbPolyline
  3
"AutoCAD"
 90
    32768
280
     0
281
     1
  0
CLASS
  1
IMAGE
  2
AcDbRasterImage
  3
ISM
 90
    32895
280
     0
281
     1
  0
CLASS
  1
OLE2FRAME
  2
AcDbOle2Frame
  3
""
 90
    32768
280
     0
281
     1
  0
CLASS
  1
HATCH
  2
AcDbHatch
  3
"ACAD_SEDONA"
 90
    32768
280
     0
281
     1
  0
CLASS
  1
DICTIONARYVAR
  2
AcDbDictionaryVar
  3
"AutoCAD"
 90
    32768
280
     0
281
     0
  0
CLASS
  1
RASTERVARIABLES
  2
AcDbRasterVariables
  3
ISM
 90
    32768
280
     0
281
     0
  0
CLASS
  1
IMAGEDEF
  2
AcDbRasterImageDef
  3
ISM
 90
    32768
280
     0
281
     0
  0
CLASS
  1
IMAGEDEF_REACTOR
  2
AcDbRasterImageDefReactor
  3
ISM
 90
    32769
280
     0
281
     0
  0
CLASS
  1
SPATIAL_FILTER
  2
AcDbSpatialFilter
  3
"Acad"
 90
    32768
280
     0
281
     0
  0
CLASS
  1
XRECORD
  2
AcDbXrecord
  3
"<Built In>"
 90
    32768
280
     0
281
     0
  0
CLASS
  1
SORTENTSTABLE
  2
AcDbSortentsTable
  3
"AutoCAD"
 90
    32768
280
     0
281
     0
  0
CLASS
  1
LAYER_INDEX
  2
AcDbLayerIndex
  3
"Acad"
 90
    32768
280
     0
281
     0
  0
CLASS
  1
SPATIAL_INDEX
  2
AcDbSpatialIndex
  3
"Acad"
 90
    32768
280
     0
281
     0
  0
CLASS
  1
OBJECT_PTR
  2
CAseDLPNTableRecord
  3
ASE-LPNTableRecord
 90
    32769
280
     0
281
     0
  0
CLASS
  1
LAYOUT
  2
AcDbLayout
  3
AutoCAD 2000
 90
    32768
280
     0
281
     0
  0
CLASS
  1
PLOTSETTINGS
  2
AcDbPlotSettings
  3
AutoCAD 2000
 90
    32768
280
     0
281
     0
  0
CLASS
  1
ACDBDICTIONARYWDFLT
  2
AcDbDictionaryWithDefault
  3
AutoCAD 2000
 90
    32768
280
     0
281
     0
  0
CLASS
  1
ACDBPLACEHOLDER
  2
AcDbPlaceHolder
  3
AutoCAD 2000
 90
    32768
280
     0
281
     0
  0
CLASS
  1
VBA_PROJECT
  2
AcDbVbaProject
  3
acad
 90
    32768
280
     0
281
     0
  0
CLASS
  1
WIPEOUT
  2
AcDbWipeout
  3
WipeOut|AutoCAD Express Tool|expresstools@autodesk.com
 90
    32895
280
     0
281
     1
  0
CLASS
  1
WIPEOUTVARIABLES
  2
AcDbWipeoutVariables
  3
WipeOut|AutoCAD Express Tool|expresstools@autodesk.com
 90
    32768
280
     0
281
     0
  0
CLASS
  1
RTEXT
  2
RText
  3
RText|AutoCAD Express Tool|expresstools@autodesk.com
 90
    32768
280
     0
281
     1
  0
CLASS
  1
ARCALIGNEDTEXT
  2
AcDbArcAlignedText
  3
ATEXT|AutoCAD Express Tool|expresstools@autodesk.com
 90
    32768
280
     0
281
     1
  0
CLASS
  1
TABLESTYLE
  2
AcDbTableStyle
  3
ObjectDBX Classes
 90
    34815
280
     0
281
     0
  0
CLASS
  1
ACAD_PROXY_OBJECT_WRAPPER
  2
AcDbProxyObjectWrapper
  3
AutoCAD 2000
 90
    32768
280
     0
281
     0
  0
CLASS
  1
LONG_TRANSACTION
  2
AcDbLongTransaction
  3
AutoCAD 2000
 90
    32768
280
     0
281
     0
  0
CLASS
  1
LWPOLYLINE
  2
AcDbPolyline
  3
"AutoCAD"
 90
    32768
280
     0
281
     1
  0
CLASS
  1
HATCH
  2
AcDbHatch
  3
"ACAD_SEDONA"
 90
    32768
280
     0
281
     1
  0
CLASS
  1
XRECORD
  2
AcDbXrecord
  3
"<Built In>"
 90
    32768
280
     0
281
     0
  0
ENDSEC
  0
SECTION
  2
TABLES
  0
TABLE
  2
VPORT
  5
7
100
AcDbSymbolTable
 70
     2
  0
VPORT
  5
1EC68
100
AcDbSymbolTableRecord
100
AcDbViewportTableRecord
  2
*ACTIVE
 70
     0
 10
0.0
 20
0.0
 11
1.0
 21
1.0
 12
81.787362
 22
103.527778
 13
0.0
 23
0.0
 14
1.0
 24
1.0
 15
0.0
 25
0.0
 16
0.0
 26
0.0
 36
1.0
 17
0.0
 27
0.0
 37
0.0
 40
197.544985
 41
1.673611
 42
50.0
 43
0.0
 44
0.0
 50
0.0
 51
0.0
 71
     0
 72
   100
 73
     1
 74
     2
 75
     0
 76
     0
 77
     0
 78
     0
  0
ENDTAB
  0
TABLE
  2
LTYPE
  5
4
100
AcDbSymbolTable
 70
     2
  0
LTYPE
  5
11
102
{ACAD_XDICTIONARY
360
1EC25
102
}
100
AcDbSymbolTableRecord
100
AcDbLinetypeTableRecord
  2
BYBLOCK
 70
     0
  3

 72
    65
 73
     0
 40
0.0
  0
LTYPE
  5
12
102
{ACAD_XDICTIONARY
360
1EC27
102
}
100
AcDbSymbolTableRecord
100
AcDbLinetypeTableRecord
  2
BYLAYER
 70
     0
  3

 72
    65
 73
     0
 40
0.0
  0
LTYPE
  5
13
102
{ACAD_XDICTIONARY
360
1EC29
102
}
100
AcDbSymbolTableRecord
100
AcDbLinetypeTableRecord
  2
CONTINUOUS
 70
     0
  3
Solid line
 72
    65
 73
     0
 40
0.0
  0
LTYPE
  5
725
100
AcDbSymbolTableRecord
100
AcDbLinetypeTableRecord
  2
AXES2
 70
     0
  3
___ _ ___ _ ___ _ ___ _ ___ _ ___ _ ___ _ ___ _
 72
    65
 73
     4
 40
1.125
 49
0.75
 74
     0
 49
-0.125
 74
     0
 49
0.125
 74
     0
 49
-0.125
 74
     0
  0
ENDTAB
  0
TABLE
  2
LAYER
  5
2
102
{ACAD_XDICTIONARY
360
26F0
102
}
100
AcDbSymbolTable
 70
     5
  0
LAYER
  5
14
100
AcDbSymbolTableRecord
100
AcDbLayerTableRecord
  2
0
 70
     0
 62
     7
  6
CONTINUOUS
  0
LAYER
  5
6EC
102
{ACAD_XDICTIONARY
360
1EC23
102
}
100
AcDbSymbolTableRecord
100
AcDbLayerTableRecord
  2
DEFPOINTS
 70
     0
 62
     7
  6
CONTINUOUS
  0
LAYER
  5
727
100
AcDbSymbolTableRecord
100
AcDbLayerTableRecord
  2
COTATION1
 70
     0
 62
     2
  6
CONTINUOUS
  0
LAYER
  5
728
100
AcDbSymbolTableRecord
100
AcDbLayerTableRecord
  2
AXE
 70
     0
 62
    80
  6
AXES2
  0
LAYER
  5
729
100
AcDbSymbolTableRecord
100
AcDbLayerTableRecord
  2
ALPHA
 70
     0
 62
   254
  6
CONTINUOUS
  0
ENDTAB
  0
TABLE
  2
STYLE
  5
3
100
AcDbSymbolTable
 70
     2
  0
STYLE
  5
17
102
{ACAD_XDICTIONARY
360
1EC2F
102
}
100
AcDbSymbolTableRecord
100
AcDbTextStyleTableRecord
  2
STANDARD
 70
     0
 40
0.0
 41
1.0
 50
0.0
 71
     0
 42
0.0
  3
txt
  4

  0
STYLE
  5
72B
100
AcDbSymbolTableRecord
100
AcDbTextStyleTableRecord
  2
ROMANS
 70
     0
 40
0.0
 41
1.0
 50
0.0
 71
     0
 42
6.0
  3
romans
  4

  0
ENDTAB
  0
TABLE
  2
VIEW
  5
5
100
AcDbSymbolTable
 70
     0
  0
ENDTAB
  0
TABLE
  2
UCS
  5
6
100
AcDbSymbolTable
 70
     0
  0
ENDTAB
  0
TABLE
  2
APPID
  5
8
100
AcDbSymbolTable
 70
     4
  0
APPID
  5
16
100
AcDbSymbolTableRecord
100
AcDbRegAppTableRecord
  2
ACAD
 70
     0
  0
APPID
  5
26EF
102
{ACAD_XDICTIONARY
360
1EC2B
102
}
100
AcDbSymbolTableRecord
100
AcDbRegAppTableRecord
  2
ACAECLAYERSTANDARD
 70
     0
  0
APPID
  5
320E
100
AcDbSymbolTableRecord
100
AcDbRegAppTableRecord
  2
DCO15
 70
     0
  0
APPID
  5
3569
102
{ACAD_XDICTIONARY
360
1EC2D
102
}
100
AcDbSymbolTableRecord
100
AcDbRegAppTableRecord
  2
ACAD_EXEMPT_FROM_CAD_STAND
 70
     0
  0
ENDTAB
  0
TABLE
  2
DIMSTYLE
  5
9
100
AcDbSymbolTable
 70
     2
  0
DIMSTYLE
105
18
102
{ACAD_XDICTIONARY
360
1EC21
102
}
100
AcDbSymbolTableRecord
100
AcDbDimStyleTableRecord
  2
STANDARD
 70
     0
  3

  4

  5

  6

  7

 40
1.0
 41
0.18
 42
0.0625
 43
0.38
 44
0.18
 45
0.0
 46
0.0
 47
0.0
 48
0.0
140
0.18
141
0.09
142
0.0
143
25.4
144
1.0
145
0.0
146
1.0
147
0.09
 71
     0
 72
     0
 73
     1
 74
     1
 75
     0
 76
     0
 77
     0
 78
     0
170
     0
171
     2
172
     0
173
     0
174
     0
175
     0
176
     0
177
     0
178
     0
270
     2
271
     4
272
     4
273
     2
274
     2
340
17
275
     0
280
     0
281
     0
282
     0
283
     1
284
     0
285
     0
286
     0
287
     3
288
     0
  0
DIMSTYLE
105
72C
102
{ACAD_XDICTIONARY
360
1EC5F
102
}
102
{ACAD_REACTORS
330
1DD3E
330
1DD3F
102
}
100
AcDbSymbolTableRecord
100
AcDbDimStyleTableRecord
  2
SC_DEFAUT
 70
     0
  3

  4

  5
OPEN30
  6

  7

 40
1.0
 41
5.0
 42
2.0
 43
0.38
 44
2.5
 45
0.0
 46
0.0
 47
0.0
 48
0.0
140
2.5
141
0.0
142
0.0
143
25.4
144
1.0
145
0.0
146
1.0
147
2.0
 71
     0
 72
     0
 73
     1
 74
     1
 75
     0
 76
     0
 77
     1
 78
    12
170
     0
171
     2
172
     0
173
     0
174
     0
175
     0
176
     0
177
     0
178
     0
270
     2
271
     1
272
     1
273
     2
274
     2
340
72B
275
     0
280
     0
281
     0
282
     0
283
     1
284
    12
285
    12
286
    12
287
     5
288
     0
  0
ENDTAB
  0
TABLE
  2
BLOCK_RECORD
  5
1
100
AcDbSymbolTable
 70
     3
  0
BLOCK_RECORD
  5
A
102
{ACAD_XDICTIONARY
360
7D7
102
}
100
AcDbSymbolTableRecord
100
AcDbBlockTableRecord
  2
*MODEL_SPACE
  0
BLOCK_RECORD
  5
B
102
{ACAD_XDICTIONARY
360
1EC55
102
}
100
AcDbSymbolTableRecord
100
AcDbBlockTableRecord
  2
*PAPER_SPACE
  0
BLOCK_RECORD
  5
6FA
100
AcDbSymbolTableRecord
100
AcDbBlockTableRecord
  2
_OPEN30
  0
BLOCK_RECORD
  5
1DD81
100
AcDbSymbolTableRecord
100
AcDbBlockTableRecord
  2
*D1
  0
BLOCK_RECORD
  5
1DD8D
100
AcDbSymbolTableRecord
100
AcDbBlockTableRecord
  2
*D2
  0
ENDTAB
  0
ENDSEC
  0
SECTION
  2
BLOCKS
  0
BLOCK
  5
D
100
AcDbEntity
  8
0
100
AcDbBlockBegin
  2
*MODEL_SPACE
 70
     0
 10
0.0
 20
0.0
 30
0.0
  3
*MODEL_SPACE
  1

  0
ENDBLK
  5
E
100
AcDbEntity
  8
0
100
AcDbBlockEnd
  0
BLOCK
  5
F
100
AcDbEntity
 67
     1
  8
0
100
AcDbBlockBegin
  2
*PAPER_SPACE
 70
     0
 10
0.0
 20
0.0
 30
0.0
  3
*PAPER_SPACE
  1

  0
ENDBLK
  5
10
100
AcDbEntity
 67
     1
  8
0
100
AcDbBlockEnd
  0
BLOCK
  5
6FB
100
AcDbEntity
  8
0
100
AcDbBlockBegin
  2
_OPEN30
 70
     0
 10
0.0
 20
0.0
 30
0.0
  3
_OPEN30
  1

  0
LINE
  5
6FC
100
AcDbEntity
  8
COTATION1
 62
     0
100
AcDbLine
 10
-1.0
 20
0.267949
 30
0.0
 11
0.0
 21
0.0
 31
0.0
1001
ACAD
1000
RTLwPs
1070
   158
  0
LINE
  5
6FD
100
AcDbEntity
  8
COTATION1
 62
     0
100
AcDbLine
 10
0.0
 20
0.0
 30
0.0
 11
-1.0
 21
-0.267949
 31
0.0
1001
ACAD
1000
RTLwPs
1070
   158
  0
LINE
  5
6FE
100
AcDbEntity
  8
COTATION1
 62
     0
100
AcDbLine
 10
0.0
 20
0.0
 30
0.0
 11
-1.0
 21
0.0
 31
0.0
1001
ACAD
1000
RTLwPs
1070
   158
  0
ENDBLK
  5
6FF
100
AcDbEntity
  8
0
100
AcDbBlockEnd
  0
BLOCK
  5
1DD8B
100
AcDbEntity
  8
0
100
AcDbBlockBegin
  2
*D1
 70
     1
 10
0.0
 20
0.0
 30
0.0
  3
*D1
  1

1001
ACAD
1000
RTLwPs
1070
   128
  0
LINE
  5
1EBF4
100
AcDbEntity
  8
COTATION1
 62
     0
100
AcDbLine
 10
145.286599
 20
167.277777
 30
0.0
 11
145.286599
 21
199.277777
 31
0.0
1001
ACAD
1000
RTLwPs
1070
   158
  0
LINE
  5
1EBF5
100
AcDbEntity
  8
COTATION1
 62
     0
100
AcDbLine
 10
14.286599
 20
97.777777
 30
0.0
 11
14.286599
 21
199.277777
 31
0.0
1001
ACAD
1000
RTLwPs
1070
   158
  0
LINE
  5
1EBF6
100
AcDbEntity
  8
COTATION1
 62
     0
100
AcDbLine
 10
140.286599
 20
196.777777
 30
0.0
 11
19.286599
 21
196.777777
 31
0.0
1001
ACAD
1000
RTLwPs
1070
   158
  0
INSERT
  5
1EBF7
100
AcDbEntity
  8
COTATION1
 62
     0
100
AcDbBlockReference
  2
_OPEN30
 10
145.286599
 20
196.777777
 30
0.0
 41
5.0
 42
5.0
 43
5.0
1001
ACAD
1000
RTLwPs
1070
   158
  0
INSERT
  5
1EBF8
100
AcDbEntity
  8
COTATION1
 62
     0
100
AcDbBlockReference
  2
_OPEN30
 10
14.286599
 20
196.777777
 30
0.0
 41
5.0
 42
5.0
 43
5.0
 50
180.0
1001
ACAD
1000
RTLwPs
1070
   158
  0
MTEXT
  5
1EBF9
100
AcDbEntity
  8
COTATION1
 62
     0
100
AcDbMText
 10
79.786599
 20
200.027777
 30
0.0
 40
2.5
 41
0.0
 71
     5
 72
     1
  1
\A1;131
  7
ROMANS
1001
ACAD
1000
MTEXTBEGIN
1070
    73
1070
     1
1070
    44
1040
1.0
1070
    74
1070
     0
1000
MTEXTEND
1000
MTEXTBEGIN
1070
    73
1070
     1
1070
    44
1040
1.0
1070
    74
1070
     0
1000
MTEXTEND
  0
POINT
  5
1EBFA
100
AcDbEntity
  8
DEFPOINTS
 62
     0
100
AcDbPoint
 10
145.286599
 20
165.277777
 30
0.0
1001
ACAD
1000
RTLwPs
1070
   128
  0
POINT
  5
1EBFB
100
AcDbEntity
  8
DEFPOINTS
 62
     0
100
AcDbPoint
 10
14.286599
 20
95.777777
 30
0.0
1001
ACAD
1000
RTLwPs
1070
   128
  0
POINT
  5
1EBFC
100
AcDbEntity
  8
DEFPOINTS
 62
     0
100
AcDbPoint
 10
14.286599
 20
196.777777
 30
0.0
1001
ACAD
1000
RTLwPs
1070
   128
  0
ENDBLK
  5
1DD8C
100
AcDbEntity
  8
0
100
AcDbBlockEnd
1001
ACAD
1000
RTLwPs
1070
   128
  0
BLOCK
  5
1DD97
100
AcDbEntity
  8
0
100
AcDbBlockBegin
  2
*D2
 70
     1
 10
0.0
 20
0.0
 30
0.0
  3
*D2
  1

1001
ACAD
1000
RTLwPs
1070
   128
  0
LINE
  5
1EBFD
100
AcDbEntity
  8
COTATION1
 62
     0
100
AcDbLine
 10
145.286599
 20
167.277777
 30
0.0
 11
145.286599
 21
189.277777
 31
0.0
1001
ACAD
1000
RTLwPs
1070
   158
  0
LINE
  5
1EBFE
100
AcDbEntity
  8
COTATION1
 62
     0
100
AcDbLine
 10
60.286599
 20
155.777777
 30
0.0
 11
60.286599
 21
189.277777
 31
0.0
1001
ACAD
1000
RTLwPs
1070
   158
  0
LINE
  5
1EBFF
100
AcDbEntity
  8
COTATION1
 62
     0
100
AcDbLine
 10
140.286599
 20
186.777777
 30
0.0
 11
65.286599
 21
186.777777
 31
0.0
1001
ACAD
1000
RTLwPs
1070
   158
  0
INSERT
  5
1EC00
100
AcDbEntity
  8
COTATION1
 62
     0
100
AcDbBlockReference
  2
_OPEN30
 10
145.286599
 20
186.777777
 30
0.0
 41
5.0
 42
5.0
 43
5.0
1001
ACAD
1000
RTLwPs
1070
   158
  0
INSERT
  5
1EC01
100
AcDbEntity
  8
COTATION1
 62
     0
100
AcDbBlockReference
  2
_OPEN30
 10
60.286599
 20
186.777777
 30
0.0
 41
5.0
 42
5.0
 43
5.0
 50
180.0
1001
ACAD
1000
RTLwPs
1070
   158
  0
MTEXT
  5
1EC02
100
AcDbEntity
  8
COTATION1
 62
     0
100
AcDbMText
 10
102.786599
 20
190.027777
 30
0.0
 40
2.5
 41
0.0
 71
     5
 72
     1
  1
\A1;85
  7
ROMANS
1001
ACAD
1000
MTEXTBEGIN
1070
    73
1070
     1
1070
    44
1040
1.0
1070
    74
1070
     0
1000
MTEXTEND
1000
MTEXTBEGIN
1070
    73
1070
     1
1070
    44
1040
1.0
1070
    74
1070
     0
1000
MTEXTEND
  0
POINT
  5
1EC03
100
AcDbEntity
  8
DEFPOINTS
 62
     0
100
AcDbPoint
 10
145.286599
 20
165.277777
 30
0.0
1001
ACAD
1000
RTLwPs
1070
   128
  0
POINT
  5
1EC04
100
AcDbEntity
  8
DEFPOINTS
 62
     0
100
AcDbPoint
 10
60.286599
 20
153.777777
 30
0.0
1001
ACAD
1000
RTLwPs
1070
   128
  0
POINT
  5
1EC05
100
AcDbEntity
  8
DEFPOINTS
 62
     0
100
AcDbPoint
 10
60.286599
 20
186.777777
 30
0.0
1001
ACAD
1000
RTLwPs
1070
   128
  0
ENDBLK
  5
1DD98
100
AcDbEntity
  8
0
100
AcDbBlockEnd
1001
ACAD
1000
RTLwPs
1070
   128
  0
ENDSEC
  0
SECTION
  2
ENTITIES
  0
LINE
  5
1DC9E
100
AcDbEntity
  8
ALPHA
  6
CONTINUOUS
100
AcDbLine
 10
55.786599
 20
112.277777
 30
0.0
 11
49.286599
 21
112.277777
 31
0.0
1001
ACAD
1000
RTLwPs
1070
   128
  0
ARC
  5
1DC9F
100
AcDbEntity
  8
ALPHA
  6
CONTINUOUS
100
AcDbCircle
 10
49.286599
 20
109.777777
 30
0.0
 40
2.5
100
AcDbArc
 50
90.0
 51
180.0
1001
ACAD
1000
RTLwPs
1070
   128
  0
LINE
  5
1DCA0
100
AcDbEntity
  8
ALPHA
  6
CONTINUOUS
100
AcDbLine
 10
36.682442
 20
98.277777
 30
0.0
 11
16.786599
 21
98.277777
 31
0.0
1001
ACAD
1000
RTLwPs
1070
   128
  0
ARC
  5
1DCA1
100
AcDbEntity
  8
ALPHA
  6
CONTINUOUS
100
AcDbCircle
 10
16.786599
 20
95.777777
 30
0.0
 40
2.5
100
AcDbArc
 50
90.0
 51
180.0
1001
ACAD
1000
RTLwPs
1070
   128
  0
LINE
  5
1DCA2
100
AcDbEntity
  8
ALPHA
  6
CONTINUOUS
100
AcDbLine
 10
60.286599
 20
120.277777
 30
0.0
 11
55.786599
 21
120.277777
 31
0.0
1001
ACAD
1000
RTLwPs
1070
   128
  0
LINE
  5
1DCA3
100
AcDbEntity
  8
ALPHA
  6
CONTINUOUS
100
AcDbLine
 10
82.80326
 20
166.777777
 30
0.0
 11
60.286599
 21
153.777777
 31
0.0
1001
ACAD
1000
RTLwPs
1070
   128
  0
LINE
  5
1DCA4
100
AcDbEntity
  8
ALPHA
  6
CONTINUOUS
100
AcDbLine
 10
144.286599
 20
166.777777
 30
0.0
 11
82.80326
 21
166.777777
 31
0.0
1001
ACAD
1000
RTLwPs
1070
   128
  0
LINE
  5
1DCA5
100
AcDbEntity
  8
ALPHA
  6
CONTINUOUS
100
AcDbLine
 10
145.286599
 20
165.277777
 30
0.0
 11
111.286599
 21
165.277777
 31
0.0
1001
ACAD
1000
RTLwPs
1070
   128
  0
LINE
  5
1DCA6
100
AcDbEntity
  8
ALPHA
  6
CONTINUOUS
100
AcDbLine
 10
145.286599
 20
153.277777
 30
0.0
 11
144.286599
 21
153.277777
 31
0.0
1001
ACAD
1000
RTLwPs
1070
   128
  0
LINE
  5
1DCA7
100
AcDbEntity
  8
ALPHA
  6
CONTINUOUS
100
AcDbLine
 10
145.286599
 20
153.277777
 30
0.0
 11
145.286599
 21
165.277777
 31
0.0
1001
ACAD
1000
RTLwPs
1070
   128
  0
LINE
  5
1DCA8
100
AcDbEntity
  8
ALPHA
  6
CONTINUOUS
100
AcDbLine
 10
144.286599
 20
93.777777
 30
0.0
 11
144.286599
 21
166.777777
 31
0.0
1001
ACAD
1000
RTLwPs
1070
   128
  0
LINE
  5
1DCA9
100
AcDbEntity
  8
ALPHA
  6
CONTINUOUS
100
AcDbLine
 10
14.286599
 20
93.777777
 30
0.0
 11
14.286599
 21
95.777777
 31
0.0
1001
ACAD
1000
RTLwPs
1070
   128
  0
LINE
  5
1DCAA
100
AcDbEntity
  8
ALPHA
  6
CONTINUOUS
100
AcDbLine
 10
60.286599
 20
93.777777
 30
0.0
 11
60.286599
 21
153.777777
 31
0.0
1001
ACAD
1000
RTLwPs
1070
   128
  0
LINE
  5
1DCAB
100
AcDbEntity
  8
ALPHA
  6
CONTINUOUS
100
AcDbLine
 10
55.786599
 20
93.777777
 30
0.0
 11
55.786599
 21
120.277777
 31
0.0
1001
ACAD
1000
RTLwPs
1070
   128
  0
LINE
  5
1DCAC
100
AcDbEntity
  8
ALPHA
  6
CONTINUOUS
100
AcDbLine
 10
46.786599
 20
107.277777
 30
0.0
 11
46.786599
 21
109.777777
 31
0.0
1001
ACAD
1000
RTLwPs
1070
   128
  0
LINE
  5
1DCAD
100
AcDbEntity
  8
ALPHA
  6
CONTINUOUS
100
AcDbLine
 10
107.286599
 20
93.777777
 30
0.0
 11
107.286599
 21
166.777777
 31
0.0
1001
ACAD
1000
RTLwPs
1070
   128
  0
LINE
  5
1DCAE
100
AcDbEntity
  8
ALPHA
  6
CONTINUOUS
100
AcDbLine
 10
111.286599
 20
93.777777
 30
0.0
 11
111.286599
 21
165.277777
 31
0.0
1001
ACAD
1000
RTLwPs
1070
   128
  0
LINE
  5
1DCAF
100
AcDbEntity
  8
ALPHA
  6
CONTINUOUS
100
AcDbLine
 10
111.286599
 20
165.277777
 30
0.0
 11
108.688523
 21
166.777777
 31
0.0
1001
ACAD
1000
RTLwPs
1070
   128
  0
ARC
  5
1DCB0
100
AcDbEntity
  8
ALPHA
  6
CONTINUOUS
100
AcDbCircle
 10
36.484521
 20
108.671869
 30
0.0
 40
10.395976
100
AcDbArc
 50
268.909121
 51
352.293469
1001
ACAD
1000
RTLwPs
1070
   128
  0
ELLIPSE
  5
1DCB1
100
AcDbEntity
  8
ALPHA
  6
CONTINUOUS
100
AcDbEllipse
 10
42.786599
 20
93.777777
 30
0.0
 11
3.5
 21
0.0
 31
0.0
210
0.0
220
0.0
230
1.0
 40
0.857143
 41
0.0
 42
6.283185307179586
1001
ACAD
1000
RTLwPs
1070
   128
  0
LINE
  5
1DCB2
100
AcDbEntity
  8
ALPHA
  6
CONTINUOUS
100
AcDbLine
 10
55.786599
 20
75.277777
 30
0.0
 11
49.286599
 21
75.277777
 31
0.0
1001
ACAD
1000
RTLwPs
1070
   128
  0
ARC
  5
1DCB3
100
AcDbEntity
  8
ALPHA
  6
CONTINUOUS
100
AcDbCircle
 10
49.286599
 20
77.777777
 30
0.0
 40
2.5
100
AcDbArc
 50
180.0
 51
270.0
1001
ACAD
1000
RTLwPs
1070
   128
  0
LINE
  5
1DCB4
100
AcDbEntity
  8
ALPHA
  6
CONTINUOUS
100
AcDbLine
 10
36.682442
 20
89.277777
 30
0.0
 11
16.786599
 21
89.277777
 31
0.0
1001
ACAD
1000
RTLwPs
1070
   128
  0
ARC
  5
1DCB5
100
AcDbEntity
  8
ALPHA
  6
CONTINUOUS
100
AcDbCircle
 10
16.786599
 20
91.777777
 30
0.0
 40
2.5
100
AcDbArc
 50
180.0
 51
270.0
1001
ACAD
1000
RTLwPs
1070
   128
  0
LINE
  5
1DCB6
100
AcDbEntity
  8
ALPHA
  6
CONTINUOUS
100
AcDbLine
 10
60.286599
 20
67.277777
 30
0.0
 11
55.786599
 21
67.277777
 31
0.0
1001
ACAD
1000
RTLwPs
1070
   128
  0
LINE
  5
1DCB7
100
AcDbEntity
  8
ALPHA
  6
CONTINUOUS
100
AcDbLine
 10
82.80326
 20
20.777777
 30
0.0
 11
60.286599
 21
33.777777
 31
0.0
1001
ACAD
1000
RTLwPs
1070
   128
  0
LINE
  5
1DCB8
100
AcDbEntity
  8
ALPHA
  6
CONTINUOUS
100
AcDbLine
 10
144.286599
 20
20.777777
 30
0.0
 11
82.80326
 21
20.777777
 31
0.0
1001
ACAD
1000
RTLwPs
1070
   128
  0
LINE
  5
1DCB9
100
AcDbEntity
  8
ALPHA
  6
CONTINUOUS
100
AcDbLine
 10
145.286599
 20
22.277777
 30
0.0
 11
111.286599
 21
22.277777
 31
0.0
1001
ACAD
1000
RTLwPs
1070
   128
  0
LINE
  5
1DCBA
100
AcDbEntity
  8
ALPHA
  6
CONTINUOUS
100
AcDbLine
 10
145.286599
 20
34.277777
 30
0.0
 11
144.286599
 21
34.277777
 31
0.0
1001
ACAD
1000
RTLwPs
1070
   128
  0
LINE
  5
1DCBB
100
AcDbEntity
  8
ALPHA
  6
CONTINUOUS
100
AcDbLine
 10
145.286599
 20
34.277777
 30
0.0
 11
145.286599
 21
22.277777
 31
0.0
1001
ACAD
1000
RTLwPs
1070
   128
  0
LINE
  5
1DCBC
100
AcDbEntity
  8
ALPHA
  6
CONTINUOUS
100
AcDbLine
 10
144.286599
 20
93.777777
 30
0.0
 11
144.286599
 21
20.777777
 31
0.0
1001
ACAD
1000
RTLwPs
1070
   128
  0
LINE
  5
1DCBD
100
AcDbEntity
  8
ALPHA
  6
CONTINUOUS
100
AcDbLine
 10
14.286599
 20
93.777777
 30
0.0
 11
14.286599
 21
91.777777
 31
0.0
1001
ACAD
1000
RTLwPs
1070
   128
  0
LINE
  5
1DCBE
100
AcDbEntity
  8
ALPHA
  6
CONTINUOUS
100
AcDbLine
 10
60.286599
 20
93.777777
 30
0.0
 11
60.286599
 21
33.777777
 31
0.0
1001
ACAD
1000
RTLwPs
1070
   128
  0
LINE
  5
1DCBF
100
AcDbEntity
  8
ALPHA
  6
CONTINUOUS
100
AcDbLine
 10
55.786599
 20
93.777777
 30
0.0
 11
55.786599
 21
67.277777
 31
0.0
1001
ACAD
1000
RTLwPs
1070
   128
  0
LINE
  5
1DCC0
100
AcDbEntity
  8
ALPHA
  6
CONTINUOUS
100
AcDbLine
 10
46.786599
 20
80.277777
 30
0.0
 11
46.786599
 21
77.777777
 31
0.0
1001
ACAD
1000
RTLwPs
1070
   128
  0
LINE
  5
1DCC1
100
AcDbEntity
  8
ALPHA
  6
CONTINUOUS
100
AcDbLine
 10
107.286599
 20
93.777777
 30
0.0
 11
107.286599
 21
20.777777
 31
0.0
1001
ACAD
1000
RTLwPs
1070
   128
  0
LINE
  5
1DCC2
100
AcDbEntity
  8
ALPHA
  6
CONTINUOUS
100
AcDbLine
 10
111.286599
 20
93.777777
 30
0.0
 11
111.286599
 21
22.277777
 31
0.0
1001
ACAD
1000
RTLwPs
1070
   128
  0
LINE
  5
1DCC3
100
AcDbEntity
  8
ALPHA
  6
CONTINUOUS
100
AcDbLine
 10
111.286599
 20
22.277777
 30
0.0
 11
108.688523
 21
20.777777
 31
0.0
1001
ACAD
1000
RTLwPs
1070
   128
  0
ARC
  5
1DCC4
100
AcDbEntity
  8
ALPHA
  6
CONTINUOUS
100
AcDbCircle
 10
36.484521
 20
78.883686
 30
0.0
 40
10.395976
100
AcDbArc
 50
7.706531
 51
91.090879
1001
ACAD
1000
RTLwPs
1070
   128
  0
LINE
  5
1DD3C
100
AcDbEntity
  8
AXE
100
AcDbLine
 10
94.80326
 20
176.777777
 30
0.0
 11
94.80326
 21
5.777777
 31
0.0
  0
TEXT
  5
1DD3D
100
AcDbEntity
  8
AXE
100
AcDbText
 10
87.327069
 20
5.777777
 30
0.0
 40
8.0
  1
Y
  7
ROMANS
 72
     2
 11
93.80326
 21
5.777777
 31
0.0
100
AcDbText
  0
DIMENSION
  5
1DD3E
100
AcDbEntity
  8
COTATION1
100
AcDbDimension
  2
*D1
 10
14.286599
 20
196.777777
 30
0.0
 11
79.786599
 21
200.027777
 31
0.0
 70
    32
  3
SC_DEFAUT
100
AcDbAlignedDimension
 13
145.286599
 23
165.277777
 33
0.0
 14
14.286599
 24
95.777777
 34
0.0
100
AcDbRotatedDimension
  0
DIMENSION
  5
1DD3F
100
AcDbEntity
  8
COTATION1
100
AcDbDimension
  2
*D2
 10
60.286599
 20
186.777777
 30
0.0
 11
102.786599
 21
190.027777
 31
0.0
 70
    32
  3
SC_DEFAUT
100
AcDbAlignedDimension
 13
145.286599
 23
165.277777
 33
0.0
 14
60.286599
 24
153.777777
 34
0.0
100
AcDbRotatedDimension
  0
LINE
  5
1DD40
100
AcDbEntity
  8
AXE
100
AcDbLine
 10
159.286599
 20
93.777777
 30
0.0
 11
4.286599
 21
93.777777
 31
0.0
  0
TEXT
  5
1DD41
100
AcDbEntity
  8
AXE
100
AcDbText
 10
152.770727
 20
94.782047
 30
0.0
 40
8.0
  1
Z
  7
ROMANS
 72
     2
 11
159.246917
 21
94.782047
 31
0.0
100
AcDbText
  0
ENDSEC
  0
SECTION
  2
OBJECTS
  0
DICTIONARY
  5
19
102
{ACAD_XDICTIONARY
360
1EC57
102
}
100
AcDbDictionary
  3
ACAD_COLOR
350
6DB
  3
ACAD_GROUP
350
1A
  3
ACAD_LAYOUT
350
1E
  3
ACAD_MATERIAL
350
6DA
  3
ACAD_MLINESTYLE
350
1B
  3
ACAD_PLOTSETTINGS
350
22
  3
ACAD_PLOTSTYLENAME
350
1F
  3
ACAD_TABLESTYLE
350
6DC
  3
ACAD_WIPEOUT_VARS
350
23
  3
ACDBHEADERROUNDTRIPXREC
350
1EC33
  3
ACDBVARIABLEDICTIONARY
350
7DA
  3
ASE_INDEX_DICTIONARY
350
3571
  0
DICTIONARY
  5
1EC25
100
AcDbDictionary
  3
ACAD_XREC_ROUNDTRIP
360
1EC26
  0
DICTIONARY
  5
1EC27
100
AcDbDictionary
  3
ACAD_XREC_ROUNDTRIP
360
1EC28
  0
DICTIONARY
  5
1EC29
100
AcDbDictionary
  3
ACAD_XREC_ROUNDTRIP
360
1EC2A
  0
DICTIONARY
  5
26F0
100
AcDbDictionary
  3
ACAD_LAYERFILTERS
360
26F2
  3
ACAD_LAYERSTATES
360
3474
  3
ACLYDICTIONARY
360
26F1
  0
DICTIONARY
  5
1EC23
100
AcDbDictionary
  3
ACAD_XREC_ROUNDTRIP
360
1EC24
  0
DICTIONARY
  5
1EC2F
100
AcDbDictionary
  3
ACAD_XREC_ROUNDTRIP
360
1EC30
  0
DICTIONARY
  5
1EC2B
100
AcDbDictionary
  3
ACAD_XREC_ROUNDTRIP
360
1EC2C
  0
DICTIONARY
  5
1EC2D
100
AcDbDictionary
  3
ACAD_XREC_ROUNDTRIP
360
1EC2E
  0
DICTIONARY
  5
1EC21
100
AcDbDictionary
  3
ACAD_XREC_ROUNDTRIP
360
1EC22
  0
DICTIONARY
  5
1EC5F
100
AcDbDictionary
  3
ACAD_XREC_ROUNDTRIP
360
1EC60
  0
DICTIONARY
  5
7D7
100
AcDbDictionary
  3
ACAD_LAYOUTSELFREF
360
1EC54
  3
ACAD_SORTENTS
360
7D8
  0
DICTIONARY
  5
1EC55
100
AcDbDictionary
  3
ACAD_LAYOUTSELFREF
360
1EC56
  0
DICTIONARY
  5
1EC57
100
AcDbDictionary
  3
ACAD_XREC_ROUNDTRIP
360
1EC58
  0
DICTIONARY
  5
6DB
102
{ACAD_REACTORS
330
19
102
}
100
AcDbDictionary
  0
DICTIONARY
  5
1A
102
{ACAD_REACTORS
330
19
102
}
100
AcDbDictionary
  0
DICTIONARY
  5
1E
102
{ACAD_XDICTIONARY
360
1EC5B
102
}
102
{ACAD_REACTORS
330
19
102
}
100
AcDbDictionary
  3
LAYOUT1
350
21
  3
MODEL
350
20
  0
DICTIONARY
  5
6DA
102
{ACAD_REACTORS
330
19
102
}
100
AcDbDictionary
  0
DICTIONARY
  5
1B
102
{ACAD_XDICTIONARY
360
1EC59
102
}
102
{ACAD_REACTORS
330
19
102
}
100
AcDbDictionary
  3
STANDARD
350
1C
  0
DICTIONARY
  5
22
102
{ACAD_REACTORS
330
19
102
}
100
AcDbDictionary
  0
ACAD_ZOMBIE_OBJECT
  5
1F
102
{ACAD_REACTORS
330
19
102
}
100
AcDbZombieObject
 90
      499
 91
      517
 93
       86
310
405010041939BDC9B585B0
350
1D
340
1D
 94
        0
  0
DICTIONARY
  5
6DC
102
{ACAD_XDICTIONARY
360
1EC5D
102
}
102
{ACAD_REACTORS
330
19
102
}
100
AcDbDictionary
  3
STANDARD
350
6DD
  0
ACAD_ZOMBIE_OBJECT
  5
23
102
{ACAD_REACTORS
330
19
102
}
100
AcDbZombieObject
 90
      499
 91
      521
 93
       10
310
407F
 94
        0
  0
DICTIONARY
  5
1EC33
102
{ACAD_REACTORS
330
19
102
}
100
AcDbDictionary
  3
CEPSNTYPE
350
1EC3D
  3
DIMSTYLEDATA
350
1EC41
  3
FINGERPRINTGUID
350
1EC3E
  3
HYPERLINKBASE
350
1EC36
  3
INSUNITS
350
1EC3C
  3
LAYOUTDICT
350
1EC38
  3
LWETCUNION
350
1EC3B
  3
PLOTSETDICT
350
1EC39
  3
PLOTSTYLNAMDICT
350
1EC3A
  3
PSVPSCALE
350
1EC40
  3
PUCSBASE
350
1EC44
  3
PUCSORGBACK
350
1EC4A
  3
PUCSORGBOTTOM
350
1EC46
  3
PUCSORGFRONT
350
1EC49
  3
PUCSORGLEFT
350
1EC47
  3
PUCSORGRIGHT
350
1EC48
  3
PUCSORGTOP
350
1EC45
  3
PUCSORTHOREF
350
1EC42
  3
PUCSORTHOVIEW
350
1EC43
  3
STYLESHEET
350
1EC37
  3
TSTACKALIGN
350
1EC34
  3
TSTACKSIZE
350
1EC35
  3
UCSBASE
350
1EC4D
  3
UCSORGBACK
350
1EC53
  3
UCSORGBOTTOM
350
1EC4F
  3
UCSORGFRONT
350
1EC52
  3
UCSORGLEFT
350
1EC50
  3
UCSORGRIGHT
350
1EC51
  3
UCSORGTOP
350
1EC4E
  3
UCSORTHOREF
350
1EC4B
  3
UCSORTHOVIEW
350
1EC4C
  3
VERSIONGUID
350
1EC3F
  0
DICTIONARY
  5
7DA
102
{ACAD_REACTORS
330
19
102
}
100
AcDbDictionary
  3
CTABLESTYLE
350
7DB
  3
DIMASSOC
350
1A71
  3
PROJECTNAME
350
1A72
  0
DICTIONARY
  5
3571
102
{ACAD_XDICTIONARY
360
1EC61
102
}
102
{ACAD_REACTORS
330
19
102
}
100
AcDbDictionary
  3
ASEBLOCKHIERARCHYINDEXRECORD
350
3572
1001
DCO15
1040
1558939622.437
  0
XRECORD
  5
1EC26
102
{ACAD_REACTORS
330
1EC25
102
}
100
AcDbXrecord
102
EXTNAMES
  1
BYBLOCK
  2
ByBlock
  0
XRECORD
  5
1EC28
102
{ACAD_REACTORS
330
1EC27
102
}
100
AcDbXrecord
102
EXTNAMES
  1
BYLAYER
  2
ByLayer
  0
XRECORD
  5
1EC2A
102
{ACAD_REACTORS
330
1EC29
102
}
100
AcDbXrecord
102
EXTNAMES
  1
CONTINUOUS
  2
Continuous
  0
DICTIONARY
  5
26F2
102
{ACAD_REACTORS
330
26F0
102
}
100
AcDbDictionary
  0
DICTIONARY
  5
3474
102
{ACAD_REACTORS
330
26F0
102
}
100
AcDbDictionary
  0
DICTIONARY
  5
26F1
102
{ACAD_REACTORS
330
26F0
102
}
100
AcDbDictionary
1001
ACAD
1000
<All
  0
XRECORD
  5
1EC24
102
{ACAD_REACTORS
330
1EC23
102
}
100
AcDbXrecord
102
EXTNAMES
  1
DEFPOINTS
  2
Defpoints
102
PLOTBIT
280
     0
  0
XRECORD
  5
1EC30
102
{ACAD_REACTORS
330
1EC2F
102
}
100
AcDbXrecord
102
EXTNAMES
  1
STANDARD
  2
Standard
  0
XRECORD
  5
1EC2C
102
{ACAD_REACTORS
330
1EC2B
102
}
100
AcDbXrecord
102
EXTNAMES
  1
ACAECLAYERSTANDARD
  2
AcAecLayerStandard
  0
XRECORD
  5
1EC2E
102
{ACAD_REACTORS
330
1EC2D
102
}
100
AcDbXrecord
102
EXTNAMES
  1
ACAD_EXEMPT_FROM_CAD_STAND
  2
ACAD_EXEMPT_FROM_CAD_STANDARDS
  0
XRECORD
  5
1EC22
102
{ACAD_REACTORS
330
1EC21
102
}
100
AcDbXrecord
102
EXTNAMES
  1
STANDARD
  2
Standard
  0
XRECORD
  5
1EC60
102
{ACAD_REACTORS
330
1EC5F
102
}
100
AcDbXrecord
102
ACADR14ROUNDTRIP
1000
DSTYLE
1002
{
1070
   279
 70
     2
1070
   341
340
6FA
1070
   342
340
6FA
1002
}
  0
XRECORD
  5
1EC54
102
{ACAD_REACTORS
330
7D7
102
}
100
AcDbXrecord
340
A
  0
SORTENTSTABLE
  5
7D8
102
{ACAD_REACTORS
330
7D7
102
}
100
AcDbSortentsTable
330
A
331
1DCA0
  5
1DCA0
331
1DCBE
  5
1DCBE
331
1DCB1
  5
1DCB1
331
1DD3F
  5
1DD3F
331
1DCA6
  5
1DCA6
331
1DCC4
  5
1DCC4
331
1DCB7
  5
1DCB7
331
1DCB9
  5
1DCB9
331
1DCAC
  5
1DCAC
331
1DCA1
  5
1DCA1
331
1DCBF
  5
1DCBF
331
1DCB2
  5
1DCB2
331
1DD40
  5
1DD40
331
1DCA7
  5
1DCA7
331
1DCBA
  5
1DCBA
331
1DCAD
  5
1DCAD
331
1DCA2
  5
1DCA2
331
1DCC0
  5
1DCC0
331
1DCB3
  5
1DCB3
331
1DD41
  5
1DD41
331
1DCA8
  5
1DCA8
331
1DCBB
  5
1DCBB
331
1DCAE
  5
1DCAE
331
1DD3C
  5
1DD3C
331
1DCA3
  5
1DCA3
331
1DCC1
  5
1DCC1
331
1DCB4
  5
1DCB4
331
1DCA9
  5
1DCA9
331
1DC9E
  5
1DC9E
331
1DCBC
  5
1DCBC
331
1DCAF
  5
1DCAF
331
1DD3D
  5
1DD3D
331
1DCA4
  5
1DCA4
331
1DCC2
  5
1DCC2
331
1DCB5
  5
1DCB5
331
1DCAA
  5
1DCAA
331
1DC9F
  5
1DC9F
331
1DCBD
  5
1DCBD
331
1DCB0
  5
1DCB0
331
1DD3E
  5
1DD3E
331
1DCA5
  5
1DCA5
331
1DCC3
  5
1DCC3
331
1DCB6
  5
1DCB6
331
1DCB8
  5
1DCB8
331
1DCAB
  5
1DCAB
  0
XRECORD
  5
1EC56
102
{ACAD_REACTORS
330
1EC55
102
}
100
AcDbXrecord
340
B
  0
XRECORD
  5
1EC58
102
{ACAD_REACTORS
330
1EC57
102
}
100
AcDbXrecord
102
EXTNAMES
  1
ACDBVARIABLEDICTIONARY
  2
AcDbVariableDictionary
  0
DICTIONARY
  5
1EC5B
100
AcDbDictionary
  3
ACAD_XREC_ROUNDTRIP
360
1EC5C
  0
ACAD_ZOMBIE_OBJECT
  5
21
102
{ACAD_XDICTIONARY
360
1EC1A
102
}
102
{ACAD_REACTORS
330
1E
102
}
100
AcDbZombieObject
 90
      499
 91
      515
 93
      812
310
AAAAAAAAAA5A69074C61796F757431406A800000000000000000000000000000000000000000000A1000000000000008902A6A6A10232D5E076BC5510408CB5781DAF154410232D5E076BC5510408CB5781DAF15C410232D5E076BC5710408CB5781DAF15C40
330
B
330
0
340
0
340
0
 94
        0
  0
ACAD_ZOMBIE_OBJECT
  5
20
102
{ACAD_XDICTIONARY
360
1EC18
102
}
102
{ACAD_REACTORS
330
1E
102
}
100
AcDbZombieObject
 90
      499
 91
      515
 93
      420
310
A00012AAAAAAAA5A69054D6F64656CAA80000000000000000000000000000000000000000000000000000000000000002AAAAAAAAF
330
A
330
0
340
0
340
0
 94
        0
  0
DICTIONARY
  5
1EC59
100
AcDbDictionary
  3
ACAD_XREC_ROUNDTRIP
360
1EC5A
  0
MLINESTYLE
  5
1C
102
{ACAD_REACTORS
330
1B
102
}
100
AcDbMlineStyle
  2
STANDARD
 70
     0
  3

 62
     0
 51
90.0
 52
90.0
 71
     2
 49
0.5
 62
   256
  6
BYLAYER
 49
-0.5
 62
   256
  6
BYLAYER
  0
ACAD_ZOMBIE_OBJECT
  5
1D
102
{ACAD_REACTORS
330
1F
102
}
100
AcDbZombieObject
 90
      499
 91
      518
 93
        0
 94
        0
  0
DICTIONARY
  5
1EC5D
100
AcDbDictionary
  3
ACAD_XREC_ROUNDTRIP
360
1EC5E
  0
ACAD_ZOMBIE_OBJECT
  5
6DD
102
{ACAD_REACTORS
330
6DC
102
}
100
AcDbZombieObject
 90
      499
 91
      525
 93
     1841
310
4214DD185B99185C9928000000000000F83F0000000000003E0FC00000000000004901028000000C1008070000C3001FDFF8000000C1003FBFF000000182007F7FE00000030400FEFFC00000060801FDFF8000000C1003FBFF000000182000000000000000C2020B0000001820100E000186003FBFF000000182007F7FE000
310
00030400FEFFC00000060801FDFF8000000C1003FBFF000000182007F7FE0000003040000000000000012404160000003040201C00030C007F7FE00000030400FEFFC00000060801FDFF8000000C1003FBFF000000182007F7FE00000030400FEFFC000000608064
340
17
340
17
340
17
 94
        0
1001
ACAD
1000
AcadProxyRoundTripData
1071
      524
1071
   393239
1070
     0
  0
XRECORD
  5
1EC3D
102
{ACAD_REACTORS
330
1EC33
102
}
100
AcDbXrecord
 90
        0
  0
XRECORD
  5
1EC41
102
{ACAD_REACTORS
330
1EC33
102
}
100
AcDbXrecord
1000
DSTYLE
1002
{
1070
   278
 70
     0
1070
   371
 70
     0
1070
   372
 70
     0
1002
}
  0
XRECORD
  5
1EC3E
102
{ACAD_REACTORS
330
1EC33
102
}
100
AcDbXrecord
  1

  0
XRECORD
  5
1EC36
102
{ACAD_REACTORS
330
1EC33
102
}
100
AcDbXrecord
  1

  0
XRECORD
  5
1EC3C
102
{ACAD_REACTORS
330
1EC33
102
}
100
AcDbXrecord
 90
        0
  0
XRECORD
  5
1EC38
102
{ACAD_REACTORS
330
1EC33
102
}
100
AcDbXrecord
340
1E
  0
XRECORD
  5
1EC3B
102
{ACAD_REACTORS
330
1EC33
102
}
100
AcDbXrecord
 90
    10752
  0
XRECORD
  5
1EC39
102
{ACAD_REACTORS
330
1EC33
102
}
100
AcDbXrecord
340
22
  0
XRECORD
  5
1EC3A
102
{ACAD_REACTORS
330
1EC33
102
}
100
AcDbXrecord
340
1F
  0
XRECORD
  5
1EC40
102
{ACAD_REACTORS
330
1EC33
102
}
100
AcDbXrecord
 40
0.0
  0
XRECORD
  5
1EC44
102
{ACAD_REACTORS
330
1EC33
102
}
100
AcDbXrecord
340
0
  0
XRECORD
  5
1EC4A
102
{ACAD_REACTORS
330
1EC33
102
}
100
AcDbXrecord
 10
0.0
 20
0.0
 30
0.0
  0
XRECORD
  5
1EC46
102
{ACAD_REACTORS
330
1EC33
102
}
100
AcDbXrecord
 10
0.0
 20
0.0
 30
0.0
  0
XRECORD
  5
1EC49
102
{ACAD_REACTORS
330
1EC33
102
}
100
AcDbXrecord
 10
0.0
 20
0.0
 30
0.0
  0
XRECORD
  5
1EC47
102
{ACAD_REACTORS
330
1EC33
102
}
100
AcDbXrecord
 10
0.0
 20
0.0
 30
0.0
  0
XRECORD
  5
1EC48
102
{ACAD_REACTORS
330
1EC33
102
}
100
AcDbXrecord
 10
0.0
 20
0.0
 30
0.0
  0
XRECORD
  5
1EC45
102
{ACAD_REACTORS
330
1EC33
102
}
100
AcDbXrecord
 10
0.0
 20
0.0
 30
0.0
  0
XRECORD
  5
1EC42
102
{ACAD_REACTORS
330
1EC33
102
}
100
AcDbXrecord
340
0
  0
XRECORD
  5
1EC43
102
{ACAD_REACTORS
330
1EC33
102
}
100
AcDbXrecord
 70
     0
  0
XRECORD
  5
1EC37
102
{ACAD_REACTORS
330
1EC33
102
}
100
AcDbXrecord
  1

  0
XRECORD
  5
1EC34
102
{ACAD_REACTORS
330
1EC33
102
}
100
AcDbXrecord
 90
        1
  0
XRECORD
  5
1EC35
102
{ACAD_REACTORS
330
1EC33
102
}
100
AcDbXrecord
 90
       70
  0
XRECORD
  5
1EC4D
102
{ACAD_REACTORS
330
1EC33
102
}
100
AcDbXrecord
340
0
  0
XRECORD
  5
1EC53
102
{ACAD_REACTORS
330
1EC33
102
}
100
AcDbXrecord
 10
0.0
 20
0.0
 30
0.0
  0
XRECORD
  5
1EC4F
102
{ACAD_REACTORS
330
1EC33
102
}
100
AcDbXrecord
 10
0.0
 20
0.0
 30
0.0
  0
XRECORD
  5
1EC52
102
{ACAD_REACTORS
330
1EC33
102
}
100
AcDbXrecord
 10
0.0
 20
0.0
 30
0.0
  0
XRECORD
  5
1EC50
102
{ACAD_REACTORS
330
1EC33
102
}
100
AcDbXrecord
 10
0.0
 20
0.0
 30
0.0
  0
XRECORD
  5
1EC51
102
{ACAD_REACTORS
330
1EC33
102
}
100
AcDbXrecord
 10
0.0
 20
0.0
 30
0.0
  0
XRECORD
  5
1EC4E
102
{ACAD_REACTORS
330
1EC33
102
}
100
AcDbXrecord
 10
0.0
 20
0.0
 30
0.0
  0
XRECORD
  5
1EC4B
102
{ACAD_REACTORS
330
1EC33
102
}
100
AcDbXrecord
340
0
  0
XRECORD
  5
1EC4C
102
{ACAD_REACTORS
330
1EC33
102
}
100
AcDbXrecord
 70
     0
  0
XRECORD
  5
1EC3F
102
{ACAD_REACTORS
330
1EC33
102
}
100
AcDbXrecord
  1
{8E941333-2639-4FAD-9E31-084A7E76737A}
  0
DICTIONARYVAR
  5
7DB
102
{ACAD_REACTORS
330
7DA
102
}
100
DictionaryVariables
280
     0
  1
STANDARD
  0
DICTIONARYVAR
  5
1A71
102
{ACAD_REACTORS
330
7DA
102
}
100
DictionaryVariables
280
     0
  1
1
  0
DICTIONARYVAR
  5
1A72
102
{ACAD_REACTORS
330
7DA
102
}
100
DictionaryVariables
280
     0
  1

  0
DICTIONARY
  5
1EC61
100
AcDbDictionary
  3
ACAD_XREC_ROUNDTRIP
360
1EC62
  0
XRECORD
  5
3572
102
{ACAD_REACTORS
330
3571
102
}
100
AcDbXrecord
330
0
330
0
330
0
330
0
330
0
330
0
330
0
330
0
330
0
330
0
330
0
330
0
330
0
330
0
330
0
330
0
330
0
330
0
330
0
330
0
330
0
330
0
330
0
330
0
330
0
330
0
330
0
330
0
330
0
330
0
330
0
  0
XRECORD
  5
1EC5C
102
{ACAD_REACTORS
330
1EC5B
102
}
100
AcDbXrecord
102
EXTNAMES
  1
LAYOUT1
  2
Layout1
  1
MODEL
  2
Model
  0
DICTIONARY
  5
1EC1A
100
AcDbDictionary
  3
ACAD_XREC_ROUNDTRIP
360
1EC1B
  0
DICTIONARY
  5
1EC18
100
AcDbDictionary
  3
ACAD_XREC_ROUNDTRIP
360
1EC19
  0
XRECORD
  5
1EC5A
102
{ACAD_REACTORS
330
1EC59
102
}
100
AcDbXrecord
102
EXTNAMES
  1
STANDARD
  2
Standard
  0
XRECORD
  5
1EC5E
102
{ACAD_REACTORS
330
1EC5D
102
}
100
AcDbXrecord
102
EXTNAMES
  1
STANDARD
  2
Standard
  0
XRECORD
  5
1EC62
102
{ACAD_REACTORS
330
1EC61
102
}
100
AcDbXrecord
102
EXTNAMES
  1
ASEBLOCKHIERARCHYINDEXRECORD
  2
ASEBlockHierarchyIndexRecord
  0
XRECORD
  5
1EC1B
102
{ACAD_REACTORS
330
1EC1A
102
}
100
AcDbXrecord
102
SHADEPLOT
 70
     0
102
SHADEPLOTRESLEVEL
 70
     2
102
SHADEPLOTCUSTOMDPI
 70
   300
  0
XRECORD
  5
1EC19
102
{ACAD_REACTORS
330
1EC18
102
}
100
AcDbXrecord
102
SHADEPLOT
 70
     0
102
SHADEPLOTRESLEVEL
 70
     2
102
SHADEPLOTCUSTOMDPI
 70
   300
  0
ENDSEC
  0
EOF
