  0
SECTION
  2
HEADER
  9
$ACADVER
  1
AC1014
  9
$ACADMAINTVER
 70
     0
  9
$DWGCODEPAGE
  3
ANSI_1252
  9
$INSBASE
 10
93.894301
 20
236.06014
 30
0.0
  9
$EXTMIN
 10
-1.038239
 20
-0.697873
 30
0.0
  9
$EXTMAX
 10
64.667692
 20
83.228824
 30
0.0
  9
$LIMMIN
 10
0.0
 20
0.0
  9
$LIMMAX
 10
210.0
 20
297.0
  9
$ORTHOMODE
 70
     0
  9
$REGENMODE
 70
     1
  9
$FILLMODE
 70
     1
  9
$QTEXTMODE
 70
     0
  9
$MIRRTEXT
 70
     0
  9
$DRAGMODE
 70
     1
  9
$LTSCALE
 40
7.0
  9
$OSMODE
 70
  4095
  9
$ATTMODE
 70
     1
  9
$TEXTSIZE
 40
2.5
  9
$TRACEWID
 40
0.05
  9
$TEXTSTYLE
  7
STANDARD
  9
$CLAYER
  8
COTATION1
  9
$CELTYPE
  6
BYLAYER
  9
$CECOLOR
 62
   256
  9
$CELTSCALE
 40
1.0
  9
$DELOBJ
 70
     1
  9
$DISPSILH
 70
     0
  9
$DIMSCALE
 40
1.0
  9
$DIMASZ
 40
3.0
  9
$DIMEXO
 40
0.0625
  9
$DIMDLI
 40
0.38
  9
$DIMRND
 40
0.01
  9
$DIMDLE
 40
0.0
  9
$DIMEXE
 40
0.18
  9
$DIMTP
 40
0.0
  9
$DIMTM
 40
0.0
  9
$DIMTXT
 40
2.5
  9
$DIMCEN
 40
0.09
  9
$DIMTSZ
 40
0.0
  9
$DIMTOL
 70
     0
  9
$DIMLIM
 70
     0
  9
$DIMTIH
 70
     0
  9
$DIMTOH
 70
     0
  9
$DIMSE1
 70
     0
  9
$DIMSE2
 70
     0
  9
$DIMTAD
 70
     1
  9
$DIMZIN
 70
    12
  9
$DIMBLK
  1

  9
$DIMASO
 70
     1
  9
$DIMSHO
 70
     0
  9
$DIMPOST
  1

  9
$DIMAPOST
  1

  9
$DIMALT
 70
     0
  9
$DIMALTD
 70
     2
  9
$DIMALTF
 40
25.4
  9
$DIMLFAC
 40
1.0
  9
$DIMTOFL
 70
     1
  9
$DIMTVP
 40
0.0
  9
$DIMTIX
 70
     0
  9
$DIMSOXD
 70
     0
  9
$DIMSAH
 70
     0
  9
$DIMBLK1
  1

  9
$DIMBLK2
  1

  9
$DIMSTYLE
  2
SC_STAND
  9
$DIMCLRD
 70
     0
  9
$DIMCLRE
 70
     0
  9
$DIMCLRT
 70
     0
  9
$DIMTFAC
 40
1.0
  9
$DIMGAP
 40
1.0
  9
$DIMJUST
 70
     0
  9
$DIMSD1
 70
     0
  9
$DIMSD2
 70
     0
  9
$DIMTOLJ
 70
     1
  9
$DIMTZIN
 70
    12
  9
$DIMALTZ
 70
    12
  9
$DIMALTTZ
 70
    12
  9
$DIMFIT
 70
     5
  9
$DIMUPT
 70
     0
  9
$DIMUNIT
 70
     2
  9
$DIMDEC
 70
     3
  9
$DIMTDEC
 70
     3
  9
$DIMALTU
 70
     2
  9
$DIMALTTD
 70
     2
  9
$DIMTXSTY
  7
STANDARD
  9
$DIMAUNIT
 70
     0
  9
$LUNITS
 70
     2
  9
$LUPREC
 70
     3
  9
$SKETCHINC
 40
0.1
  9
$FILLETRAD
 40
0.0625
  9
$AUNITS
 70
     0
  9
$AUPREC
 70
     0
  9
$MENU
  1
ACAD
  9
$ELEVATION
 40
0.0
  9
$PELEVATION
 40
0.0
  9
$THICKNESS
 40
0.0
  9
$LIMCHECK
 70
     0
  9
$BLIPMODE
 70
     1
  9
$CHAMFERA
 40
0.0
  9
$CHAMFERB
 40
0.0
  9
$CHAMFERC
 40
0.0
  9
$CHAMFERD
 40
0.0
  9
$SKPOLY
 70
     0
  9
$TDCREATE
 40
2450953.590960648
  9
$TDUPDATE
 40
2453877.886434271
  9
$TDINDWG
 40
0.0043399884
  9
$TDUSRTIMER
 40
0.0043399884
  9
$USRTIMER
 70
     1
  9
$ANGBASE
 50
0.0
  9
$ANGDIR
 70
     0
  9
$PDMODE
 70
     0
  9
$PDSIZE
 40
0.0
  9
$PLINEWID
 40
0.0
  9
$COORDS
 70
     0
  9
$SPLFRAME
 70
     0
  9
$SPLINETYPE
 70
     6
  9
$SPLINESEGS
 70
     8
  9
$ATTDIA
 70
     0
  9
$ATTREQ
 70
     1
  9
$HANDLING
 70
     1
  9
$HANDSEED
  5
23A9
  9
$SURFTAB1
 70
     6
  9
$SURFTAB2
 70
     6
  9
$SURFTYPE
 70
     6
  9
$SURFU
 70
     6
  9
$SURFV
 70
     6
  9
$UCSNAME
  2

  9
$UCSORG
 10
0.0
 20
0.0
 30
0.0
  9
$UCSXDIR
 10
1.0
 20
0.0
 30
0.0
  9
$UCSYDIR
 10
0.0
 20
1.0
 30
0.0
  9
$PUCSNAME
  2

  9
$PUCSORG
 10
0.0
 20
0.0
 30
0.0
  9
$PUCSXDIR
 10
1.0
 20
0.0
 30
0.0
  9
$PUCSYDIR
 10
0.0
 20
1.0
 30
0.0
  9
$USERI1
 70
     0
  9
$USERI2
 70
     0
  9
$USERI3
 70
     0
  9
$USERI4
 70
     0
  9
$USERI5
 70
     0
  9
$USERR1
 40
0.0
  9
$USERR2
 40
0.0
  9
$USERR3
 40
0.0
  9
$USERR4
 40
0.0
  9
$USERR5
 40
0.0
  9
$WORLDVIEW
 70
     1
  9
$SHADEDGE
 70
     3
  9
$SHADEDIF
 70
    70
  9
$TILEMODE
 70
     1
  9
$MAXACTVP
 70
    32
  9
$PINSBASE
 10
0.0
 20
0.0
 30
0.0
  9
$PLIMCHECK
 70
     0
  9
$PEXTMIN
 10
-3.174999
 20
-3.175
 30
0.0
  9
$PEXTMAX
 10
203.812116
 20
370.276807
 30
0.0
  9
$PLIMMIN
 10
-3.175
 20
-3.175
  9
$PLIMMAX
 10
203.812115
 20
370.276807
  9
$UNITMODE
 70
     0
  9
$VISRETAIN
 70
     0
  9
$PLINEGEN
 70
     0
  9
$PSLTSCALE
 70
     1
  9
$TREEDEPTH
 70
  3020
  9
$PICKSTYLE
 70
     1
  9
$CMLSTYLE
  2
STANDARD
  9
$CMLJUST
 70
     0
  9
$CMLSCALE
 40
1.0
  9
$PROXYGRAPHICS
 70
     1
  9
$MEASUREMENT
 70
     0
  0
ENDSEC
  0
SECTION
  2
CLASSES
  0
CLASS
  1
DICTIONARYVAR
  2
AcDbDictionaryVar
  3
"AutoCAD"
 90
        0
280
     0
281
     0
  0
CLASS
  1
HATCH
  2
AcDbHatch
  3
"ACAD_SEDONA"
 90
        0
280
     0
281
     1
  0
ENDSEC
  0
SECTION
  2
TABLES
  0
TABLE
  2
VPORT
  5
F4
100
AcDbSymbolTable
 70
     2
  0
VPORT
  5
23A8
100
AcDbSymbolTableRecord
100
AcDbViewportTableRecord
  2
*ACTIVE
 70
     0
 10
0.0
 20
0.0
 11
1.0
 21
1.0
 12
31.814727
 22
41.265476
 13
0.0
 23
0.0
 14
1.0
 24
1.0
 15
10.0
 25
10.0
 16
0.0
 26
0.0
 36
1.0
 17
0.0
 27
0.0
 37
0.0
 40
84.912137
 41
1.966667
 42
50.0
 43
0.0
 44
0.0
 50
0.0
 51
0.0
 71
     0
 72
   100
 73
     1
 74
     1
 75
     0
 76
     1
 77
     0
 78
     0
  0
ENDTAB
  0
TABLE
  2
LTYPE
  5
F1
100
AcDbSymbolTable
 70
     5
  0
LTYPE
  5
FD
100
AcDbSymbolTableRecord
100
AcDbLinetypeTableRecord
  2
BYBLOCK
 70
     0
  3

 72
    65
 73
     0
 40
0.0
  0
LTYPE
  5
FE
100
AcDbSymbolTableRecord
100
AcDbLinetypeTableRecord
  2
BYLAYER
 70
     0
  3

 72
    65
 73
     0
 40
0.0
  0
LTYPE
  5
FF
100
AcDbSymbolTableRecord
100
AcDbLinetypeTableRecord
  2
CONTINUOUS
 70
     0
  3
Solid line
 72
    65
 73
     0
 40
0.0
  0
ENDTAB
  0
TABLE
  2
LAYER
  5
EE
100
AcDbSymbolTable
 70
     5
  0
LAYER
  5
FA
100
AcDbSymbolTableRecord
100
AcDbLayerTableRecord
  2
0
 70
     0
 62
     7
  6
CONTINUOUS
  0
LAYER
  5
12C
100
AcDbSymbolTableRecord
100
AcDbLayerTableRecord
  2
ALPHA
 70
     0
 62
   255
  6
CONTINUOUS
  0
LAYER
  5
12F
100
AcDbSymbolTableRecord
100
AcDbLayerTableRecord
  2
COTATION1
 70
     0
 62
     2
  6
CONTINUOUS
  0
LAYER
  5
13B
100
AcDbSymbolTableRecord
100
AcDbLayerTableRecord
  2
ASHADE
 70
     0
 62
     7
  6
CONTINUOUS
  0
LAYER
  5
13E
100
AcDbSymbolTableRecord
100
AcDbLayerTableRecord
  2
DEFPOINTS
 70
     0
 62
     7
  6
CONTINUOUS
  0
ENDTAB
  0
TABLE
  2
STYLE
  5
EF
100
AcDbSymbolTable
 70
     2
  0
STYLE
  5
FB
100
AcDbSymbolTableRecord
100
AcDbTextStyleTableRecord
  2
STANDARD
 70
     0
 40
0.0
 41
1.0
 50
0.0
 71
     0
 42
2.5
  3
txt
  4

  0
ENDTAB
  0
TABLE
  2
VIEW
  5
F2
100
AcDbSymbolTable
 70
     0
  0
ENDTAB
  0
TABLE
  2
UCS
  5
F3
100
AcDbSymbolTable
 70
     0
  0
ENDTAB
  0
TABLE
  2
APPID
  5
F5
100
AcDbSymbolTable
 70
     3
  0
APPID
  5
FC
100
AcDbSymbolTableRecord
100
AcDbRegAppTableRecord
  2
ACAD
 70
     0
  0
APPID
  5
127
100
AcDbSymbolTableRecord
100
AcDbRegAppTableRecord
  2
AVE_RENDER
 70
     0
  0
APPID
  5
128
100
AcDbSymbolTableRecord
100
AcDbRegAppTableRecord
  2
AVE_MATERIAL
 70
     0
  0
ENDTAB
  0
TABLE
  2
DIMSTYLE
  5
F6
100
AcDbSymbolTable
 70
     2
  0
DIMSTYLE
105
129
100
AcDbSymbolTableRecord
100
AcDbDimStyleTableRecord
  2
STANDARD
 70
     0
  3

  4

  5

  6

  7

 40
1.0
 41
0.18
 42
0.0625
 43
0.38
 44
0.18
 45
0.0
 46
0.0
 47
0.0
 48
0.0
140
0.18
141
0.09
142
0.0
143
25.4
144
1.0
145
0.0
146
1.0
147
0.09
 71
     0
 72
     0
 73
     1
 74
     1
 75
     0
 76
     0
 77
     0
 78
     0
170
     0
171
     2
172
     0
173
     0
174
     0
175
     0
176
     0
177
     0
178
     0
270
     2
271
     3
272
     3
273
     2
274
     2
340
FB
275
     0
280
     0
281
     0
282
     0
283
     1
284
    12
285
    12
286
    12
287
     5
288
     0
  0
DIMSTYLE
105
12A
102
{ACAD_REACTORS
330
2373
330
2396
102
}
100
AcDbSymbolTableRecord
100
AcDbDimStyleTableRecord
  2
SC_STAND
 70
     0
  3

  4

  5

  6

  7

 40
1.0
 41
3.0
 42
0.0625
 43
0.38
 44
0.18
 45
0.01
 46
0.0
 47
0.0
 48
0.0
140
2.5
141
0.09
142
0.0
143
25.4
144
1.0
145
0.0
146
1.0
147
1.0
 71
     0
 72
     0
 73
     0
 74
     0
 75
     0
 76
     0
 77
     1
 78
    12
170
     0
171
     2
172
     1
173
     0
174
     0
175
     0
176
     0
177
     0
178
     0
270
     2
271
     3
272
     3
273
     2
274
     2
340
FB
275
     0
280
     0
281
     0
282
     0
283
     1
284
    12
285
    12
286
    12
287
     5
288
     0
  0
ENDTAB
  0
TABLE
  2
BLOCK_RECORD
  5
ED
100
AcDbSymbolTable
 70
     9
  0
BLOCK_RECORD
  5
103
100
AcDbSymbolTableRecord
100
AcDbBlockTableRecord
  2
*MODEL_SPACE
  0
BLOCK_RECORD
  5
100
100
AcDbSymbolTableRecord
100
AcDbBlockTableRecord
  2
*PAPER_SPACE
  0
BLOCK_RECORD
  5
108
100
AcDbSymbolTableRecord
100
AcDbBlockTableRecord
  2
AVE_RENDER
  0
BLOCK_RECORD
  5
109
100
AcDbSymbolTableRecord
100
AcDbBlockTableRecord
  2
AVE_GLOBAL
  0
BLOCK_RECORD
  5
10A
100
AcDbSymbolTableRecord
100
AcDbBlockTableRecord
  2
SCH_IS
  0
BLOCK_RECORD
  5
2367
100
AcDbSymbolTableRecord
100
AcDbBlockTableRecord
  2
*D7
  0
BLOCK_RECORD
  5
238A
100
AcDbSymbolTableRecord
100
AcDbBlockTableRecord
  2
*D8
  0
ENDTAB
  0
ENDSEC
  0
SECTION
  2
BLOCKS
  0
BLOCK
  5
141
100
AcDbEntity
  8
0
100
AcDbBlockBegin
  2
*MODEL_SPACE
 70
     0
 10
0.0
 20
0.0
 30
0.0
  3
*MODEL_SPACE
  1

  0
ENDBLK
  5
142
100
AcDbEntity
  8
0
100
AcDbBlockEnd
  0
BLOCK
  5
13F
100
AcDbEntity
 67
     1
  8
0
100
AcDbBlockBegin
  2
*PAPER_SPACE
 70
     0
 10
0.0
 20
0.0
 30
0.0
  3
*PAPER_SPACE
  1

  0
ENDBLK
  5
140
100
AcDbEntity
 67
     1
  8
0
100
AcDbBlockEnd
  0
BLOCK
  5
8D
100
AcDbEntity
  8
0
100
AcDbBlockBegin
  2
AVE_RENDER
 70
     0
 10
0.0
 20
0.0
 30
0.0
  3
AVE_RENDER
  1
AVE_RENDER
  0
ENDBLK
  5
8E
100
AcDbEntity
  8
0
100
AcDbBlockEnd
  0
BLOCK
  5
90
100
AcDbEntity
  8
0
100
AcDbBlockBegin
  2
AVE_GLOBAL
 70
     0
 10
0.0
 20
0.0
 30
0.0
  3
AVE_GLOBAL
  1
AVE_GLOBAL
  0
ENDBLK
  5
91
100
AcDbEntity
  8
0
100
AcDbBlockEnd
  0
BLOCK
  5
C9
100
AcDbEntity
  8
0
100
AcDbBlockBegin
  2
SCH_IS
 70
     0
 10
0.0
 20
0.0
 30
0.0
  3
SCH_IS
  1

  0
INSERT
  5
C0
100
AcDbEntity
  8
ASHADE
 62
     1
100
AcDbBlockReference
  2
AVE_RENDER
 10
0.0
 20
0.0
 30
0.0
1001
AVE_RENDER
1002
{
1070
     6
1000
Pref
1070
    50
1070
    20
1070
     1
1070
     0
1000

1070
    10
1070
     1
1070
    30
1040
25.4
1070
     1
1040
0.3
1040
0.7
1040
0.0
1040
10.0
1010
-1.0
1020
-1.0
1030
-1.0
1040
0.3
1070
    49
1070
     0
1070
     0
1010
1.0
1020
1.0
1030
1.0
1040
45.0
1070
     1
1070
     0
1000
WCS
1040
0.0
1002
}
  0
INSERT
  5
C1
100
AcDbEntity
  8
ASHADE
 62
     3
100
AcDbBlockReference
  2
AVE_RENDER
 10
0.0
 20
0.0
 30
0.0
1001
AVE_RENDER
1002
{
1070
     0
1000
Full Opt
1070
     0
1070
     1
1070
     1
1070
     1
1070
     0
1070
     0
1070
     0
1070
     1
1070
     1
1040
0.0001
1040
0.0001
1002
}
  0
INSERT
  5
C2
100
AcDbEntity
  8
ASHADE
 62
     4
100
AcDbBlockReference
  2
AVE_RENDER
 10
0.0
 20
0.0
 30
0.0
1001
AVE_RENDER
1002
{
1070
     0
1000
Quick Opt
1070
     0
1070
     1
1070
     1
1070
     1
1070
     0
1070
     0
1070
     1
1002
}
  0
INSERT
  5
C3
100
AcDbEntity
  8
ASHADE
 62
     5
100
AcDbBlockReference
  2
AVE_RENDER
 10
0.0
 20
0.0
 30
0.0
1001
AVE_RENDER
1002
{
1070
     1
1000
Scanl Opt
1070
     2
1070
     0
1070
     2
1040
2.0
1040
4.0
1070
     0
1070
     1
1070
     0
1040
0.03
1002
}
  0
INSERT
  5
C4
100
AcDbEntity
  8
ASHADE
 62
     6
100
AcDbBlockReference
  2
AVE_RENDER
 10
0.0
 20
0.0
 30
0.0
1001
AVE_RENDER
1002
{
1070
     2
1000
Raytr Opt
1070
     2
1070
     0
1070
     2
1040
2.0
1040
4.0
1070
     0
1070
     1
1070
     1
1040
0.03
1070
     3
1040
0.03
1002
}
  0
INSERT
  5
C5
100
AcDbEntity
  8
ASHADE
 62
     7
100
AcDbBlockReference
  2
AVE_RENDER
 10
0.0
 20
0.0
 30
0.0
1001
AVE_RENDER
1002
{
1070
     0
1000
RFile Opt
1070
     5
1070
   640
1070
   480
1070
 10000
1070
     3
1070
    32
1070
    24
1070
     0
1070
     0
1070
     0
1070
     1
1070
     0
1070
     0
1070
     0
1002
}
  0
INSERT
  5
C6
100
AcDbEntity
  8
ASHADE
 62
     8
100
AcDbBlockReference
  2
AVE_RENDER
 10
0.0
 20
0.0
 30
0.0
1001
AVE_RENDER
1002
{
1070
     0
1000
Fog Opt
1070
     0
1070
     0
1040
0.0
1040
1.0
1040
0.0
1040
1.0
1010
0.5
1020
0.5
1030
0.5
1002
}
  0
INSERT
  5
C7
100
AcDbEntity
  8
ASHADE
 62
     9
100
AcDbBlockReference
  2
AVE_RENDER
 10
0.0
 20
0.0
 30
0.0
1001
AVE_RENDER
1002
{
1070
     0
1000
BG Opt
1070
     0
1070
     1
1010
0.0
1020
0.0
1030
0.0
1010
1.0
1020
0.0
1030
0.0
1010
0.0
1020
1.0
1030
0.0
1010
0.0
1020
0.0
1030
1.0
1040
0.5
1040
0.33
1040
0.0
1000

1070
     1
1000

1070
     1
1070
     1
1040
1.0
1040
1.0
1040
0.0
1040
0.0
1070
     0
1002
}
  0
INSERT
  5
C8
100
AcDbEntity
  8
ASHADE
 62
     1
100
AcDbBlockReference
  2
AVE_GLOBAL
 10
0.0
 20
0.0
 30
0.0
1001
AVE_MATERIAL
1002
{
1000
*GLOBAL*
1000
1
1000
Finition globale.
1002
{
1002
}
1002
{
1070
    63
1002
{
1002
{
1010
-1.0
1020
-1.0
1030
-1.0
1002
}
1040
0.1
1000

1040
0.0
1002
{
1002
}
1040
0.0
1002
{
1002
}
1040
0.0
1002
}
1002
{
1002
{
1010
-1.0
1020
-1.0
1030
-1.0
1002
}
1040
0.7
1000

1040
0.0
1002
{
1002
}
1040
0.0
1002
{
1002
}
1040
0.0
1002
}
1002
{
1002
{
1010
-1.0
1020
-1.0
1030
-1.0
1002
}
1040
0.2
1000

1040
0.0
1002
{
1002
}
1040
0.0
1002
{
1002
}
1040
0.0
1002
}
1002
{
1070
     0
1002
{
1070
     1
1002
{
1040
1.0
1040
1.0
1000

1040
0.0
1002
{
1002
}
1040
0.0
1002
{
1002
}
1040
0.0
1002
}
1002
}
1040
1.0
1040
0.0
1040
0.0
1002
}
1002
{
1040
1.0
1040
1.0
1000

1040
0.0
1002
{
1002
}
1040
0.0
1002
{
1002
}
1040
0.0
1002
}
1002
{
1040
0.5
1040
1.0
1000

1040
0.0
1002
{
1002
}
1040
0.0
1002
{
1002
}
1040
0.0
1002
}
1002
{
1070
     0
1040
0.0
1002
{
1002
}
1040
1.0
1002
{
1002
}
1040
0.0
1002
}
1002
{
1040
0.0
1002
{
1002
{
1010
0.0
1020
0.0
1030
0.0
1002
}
1040
1.0
1000

1040
0.0
1002
{
1002
}
1040
0.0
1002
{
1002
}
1040
0.0
1002
}
1002
}
1002
{
1002
{
1070
     1
1002
{
1040
0.0
1040
1.0
1000

1040
0.0
1002
{
1002
}
1040
0.0
1002
{
1002
}
1040
0.0
1002
}
1002
}
1040
0.0
1002
{
1002
}
1010
1.0
1020
0.0
1030
0.0
1010
0.0
1020
1.0
1030
0.0
1010
0.0
1020
0.0
1030
1.0
1070
     0
1002
}
1002
{
1002
{
1040
1.0
1040
1.0
1002
{
1070
     1
1002
{
1040
1.0
1040
1.0
1000

1040
0.0
1002
{
1002
}
1040
0.0
1002
{
1002
}
1040
0.0
1002
}
1002
}
1002
}
1070
     0
1040
0.0
1002
{
1002
}
1002
}
1002
{
1002
}
1002
}
1002
{
1071
        3
1070
     3
1070
     0
1002
{
1070
     2
1070
     0
1070
     0
1040
0.0
1002
}
1070
     0
1070
     2
1002
{
1002
}
1002
}
1002
{
1040
8030.0
1040
190.300003
1040
0.305
1040
228.0
1040
545.0
1040
14.0
1040
17.4
1040
0.456
1002
}
1002
}
  0
ENDBLK
  5
CA
100
AcDbEntity
  8
0
100
AcDbBlockEnd
  0
BLOCK
  5
237F
100
AcDbEntity
  8
0
100
AcDbBlockBegin
  2
*D7
 70
     1
 10
0.0
 20
0.0
 30
0.0
  3
*D7
  1

  0
LINE
  5
2380
100
AcDbEntity
  8
0
  6
BYBLOCK
 62
     0
100
AcDbLine
 10
-1.027056
 20
60.801584
 30
0.0
 11
-1.027056
 21
79.895279
 31
0.0
  0
LINE
  5
2381
100
AcDbEntity
  8
0
  6
BYBLOCK
 62
     0
100
AcDbLine
 10
53.97286
 20
60.801584
 30
0.0
 11
53.97286
 21
79.895279
 31
0.0
  0
LINE
  5
2382
100
AcDbEntity
  8
0
  6
BYBLOCK
 62
     0
100
AcDbLine
 10
1.972944
 20
79.715279
 30
0.0
 11
50.97286
 21
79.715279
 31
0.0
  0
SOLID
  5
2383
100
AcDbEntity
  8
0
  6
BYBLOCK
 62
     0
100
AcDbTrace
 10
1.972944
 20
80.215279
 30
0.0
 11
1.972944
 21
79.215279
 31
0.0
 12
-1.027056
 22
79.715279
 32
0.0
 13
-1.027056
 23
79.715279
 33
0.0
  0
SOLID
  5
2384
100
AcDbEntity
  8
0
  6
BYBLOCK
 62
     0
100
AcDbTrace
 10
50.97286
 20
80.215279
 30
0.0
 11
50.97286
 21
79.215279
 31
0.0
 12
53.97286
 22
79.715279
 32
0.0
 13
53.97286
 23
79.715279
 33
0.0
  0
MTEXT
  5
2385
100
AcDbEntity
  8
0
  6
BYBLOCK
 62
     0
100
AcDbMText
 10
26.472902
 20
81.965279
 30
0.0
 40
2.5
 41
0.0
 71
     5
 72
     1
  1
\A1;55
  0
POINT
  5
2386
100
AcDbEntity
  8
DEFPOINTS
  6
BYBLOCK
 62
     0
100
AcDbPoint
 10
-1.027056
 20
60.739084
 30
0.0
  0
POINT
  5
2387
100
AcDbEntity
  8
DEFPOINTS
  6
BYBLOCK
 62
     0
100
AcDbPoint
 10
53.97286
 20
60.739084
 30
0.0
  0
POINT
  5
2388
100
AcDbEntity
  8
DEFPOINTS
  6
BYBLOCK
 62
     0
100
AcDbPoint
 10
53.97286
 20
79.715279
 30
0.0
  0
ENDBLK
  5
2389
100
AcDbEntity
  8
0
100
AcDbBlockEnd
  0
BLOCK
  5
2397
100
AcDbEntity
  8
0
100
AcDbBlockBegin
  2
*D8
 70
     1
 10
0.0
 20
0.0
 30
0.0
  3
*D8
  1

  0
LINE
  5
2398
100
AcDbEntity
  8
0
  6
BYBLOCK
 62
     0
100
AcDbLine
 10
46.58913
 20
73.302658
 30
0.0
 11
64.332434
 21
73.302658
 31
0.0
  0
LINE
  5
2399
100
AcDbEntity
  8
0
  6
BYBLOCK
 62
     0
100
AcDbLine
 10
46.58913
 20
-0.697304
 30
0.0
 11
64.332434
 21
-0.697304
 31
0.0
  0
LINE
  5
239A
100
AcDbEntity
  8
0
  6
BYBLOCK
 62
     0
100
AcDbLine
 10
64.152434
 20
70.302658
 30
0.0
 11
64.152434
 21
2.302696
 31
0.0
  0
SOLID
  5
239B
100
AcDbEntity
  8
0
  6
BYBLOCK
 62
     0
100
AcDbTrace
 10
63.652434
 20
70.302658
 30
0.0
 11
64.652434
 21
70.302658
 31
0.0
 12
64.152434
 22
73.302658
 32
0.0
 13
64.152434
 23
73.302658
 33
0.0
  0
SOLID
  5
239C
100
AcDbEntity
  8
0
  6
BYBLOCK
 62
     0
100
AcDbTrace
 10
63.652434
 20
2.302696
 30
0.0
 11
64.652434
 21
2.302696
 31
0.0
 12
64.152434
 22
-0.697304
 32
0.0
 13
64.152434
 23
-0.697304
 33
0.0
  0
MTEXT
  5
239D
100
AcDbEntity
  8
0
  6
BYBLOCK
 62
     0
100
AcDbMText
 10
61.902434
 20
36.302677
 30
0.0
 40
2.5
 41
0.0
 71
     5
 72
     1
  1
\A1;74
 11
0.0
 21
1.0
 31
0.0
  0
POINT
  5
239E
100
AcDbEntity
  8
DEFPOINTS
  6
BYBLOCK
 62
     0
100
AcDbPoint
 10
46.52663
 20
73.302658
 30
0.0
  0
POINT
  5
239F
100
AcDbEntity
  8
DEFPOINTS
  6
BYBLOCK
 62
     0
100
AcDbPoint
 10
46.52663
 20
-0.697304
 30
0.0
  0
POINT
  5
23A0
100
AcDbEntity
  8
DEFPOINTS
  6
BYBLOCK
 62
     0
100
AcDbPoint
 10
64.152434
 20
-0.697304
 30
0.0
  0
ENDBLK
  5
23A1
100
AcDbEntity
  8
0
100
AcDbBlockEnd
  0
ENDSEC
  0
SECTION
  2
ENTITIES
  0
INSERT
  5
CC
100
AcDbEntity
  8
0
100
AcDbBlockReference
  2
SCH_IS
 10
-68.718396
 20
-140.042541
 30
0.0
  0
INSERT
  5
EC
100
AcDbEntity
  8
COTATION1
100
AcDbBlockReference
  2
SCH_IS
 10
0.0
 20
0.0
 30
0.0
  0
POLYLINE
  5
1819
100
AcDbEntity
  8
ALPHA
100
AcDb2dPolyline
 66
     1
 10
0.0
 20
0.0
 30
0.0
  0
VERTEX
  5
181A
100
AcDbEntity
  8
ALPHA
100
AcDbVertex
100
AcDb2dVertex
 10
6.548192
 20
0.461282
 30
0.0
  0
VERTEX
  5
181B
100
AcDbEntity
  8
ALPHA
100
AcDbVertex
100
AcDb2dVertex
 10
46.332327
 20
0.461282
 30
0.0
  0
SEQEND
  5
181C
100
AcDbEntity
  8
ALPHA
  0
POLYLINE
  5
181D
100
AcDbEntity
  8
ALPHA
100
AcDb2dPolyline
 66
     1
 10
0.0
 20
0.0
 30
0.0
  0
VERTEX
  5
181E
100
AcDbEntity
  8
ALPHA
100
AcDbVertex
100
AcDb2dVertex
 10
6.548192
 20
72.129086
 30
0.0
  0
VERTEX
  5
181F
100
AcDbEntity
  8
ALPHA
100
AcDbVertex
100
AcDb2dVertex
 10
46.52663
 20
72.129086
 30
0.0
  0
SEQEND
  5
1820
100
AcDbEntity
  8
ALPHA
  0
POLYLINE
  5
1821
100
AcDbEntity
  8
ALPHA
100
AcDb2dPolyline
 66
     1
 10
0.0
 20
0.0
 30
0.0
  0
VERTEX
  5
1822
100
AcDbEntity
  8
ALPHA
100
AcDbVertex
100
AcDb2dVertex
 10
18.221037
 20
29.747005
 30
0.0
  0
VERTEX
  5
1823
100
AcDbEntity
  8
ALPHA
100
AcDbVertex
100
AcDb2dVertex
 10
8.974056
 20
29.747005
 30
0.0
  0
SEQEND
  5
1824
100
AcDbEntity
  8
ALPHA
  0
POLYLINE
  5
1825
100
AcDbEntity
  8
ALPHA
100
AcDb2dPolyline
 66
     1
 10
0.0
 20
0.0
 30
0.0
  0
VERTEX
  5
1826
100
AcDbEntity
  8
ALPHA
100
AcDbVertex
100
AcDb2dVertex
 10
8.974056
 20
34.2494
 30
0.0
  0
VERTEX
  5
1827
100
AcDbEntity
  8
ALPHA
100
AcDbVertex
100
AcDb2dVertex
 10
14.995222
 20
34.2494
 30
0.0
  0
SEQEND
  5
1828
100
AcDbEntity
  8
ALPHA
  0
POLYLINE
  5
1829
100
AcDbEntity
  8
ALPHA
100
AcDb2dPolyline
 66
     1
 10
0.0
 20
0.0
 30
0.0
  0
VERTEX
  5
182A
100
AcDbEntity
  8
ALPHA
100
AcDbVertex
100
AcDb2dVertex
 10
14.995222
 20
38.229175
 30
0.0
  0
VERTEX
  5
182B
100
AcDbEntity
  8
ALPHA
100
AcDbVertex
100
AcDb2dVertex
 10
8.974056
 20
38.229175
 30
0.0
  0
SEQEND
  5
182C
100
AcDbEntity
  8
ALPHA
  0
POLYLINE
  5
182D
100
AcDbEntity
  8
ALPHA
100
AcDb2dPolyline
 66
     1
 10
0.0
 20
0.0
 30
0.0
  0
VERTEX
  5
182E
100
AcDbEntity
  8
ALPHA
100
AcDbVertex
100
AcDb2dVertex
 10
8.974056
 20
42.73157
 30
0.0
  0
VERTEX
  5
182F
100
AcDbEntity
  8
ALPHA
100
AcDbVertex
100
AcDb2dVertex
 10
18.221037
 20
42.73157
 30
0.0
  0
SEQEND
  5
1830
100
AcDbEntity
  8
ALPHA
  0
POLYLINE
  5
1831
100
AcDbEntity
  8
ALPHA
100
AcDb2dPolyline
 66
     1
 10
0.0
 20
0.0
 30
0.0
  0
VERTEX
  5
1832
100
AcDbEntity
  8
ALPHA
100
AcDbVertex
100
AcDb2dVertex
 10
42.60749
 20
56.733127
 30
0.0
  0
VERTEX
  5
1833
100
AcDbEntity
  8
ALPHA
100
AcDbVertex
100
AcDb2dVertex
 10
10.265278
 20
56.733127
 30
0.0
  0
SEQEND
  5
1834
100
AcDbEntity
  8
ALPHA
  0
POLYLINE
  5
1835
100
AcDbEntity
  8
ALPHA
100
AcDb2dPolyline
 66
     1
 10
0.0
 20
0.0
 30
0.0
  0
VERTEX
  5
1836
100
AcDbEntity
  8
ALPHA
100
AcDbVertex
100
AcDb2dVertex
 10
2.411838
 20
9.697927
 30
0.0
  0
VERTEX
  5
1837
100
AcDbEntity
  8
ALPHA
100
AcDbVertex
100
AcDb2dVertex
 10
26.453782
 20
15.271747
 30
0.0
  0
SEQEND
  5
1838
100
AcDbEntity
  8
ALPHA
  0
POLYLINE
  5
1839
100
AcDbEntity
  8
ALPHA
100
AcDb2dPolyline
 66
     1
 10
0.0
 20
0.0
 30
0.0
  0
VERTEX
  5
183A
100
AcDbEntity
  8
ALPHA
100
AcDbVertex
100
AcDb2dVertex
 10
43.972092
 20
56.737606
 30
0.0
  0
VERTEX
  5
183B
100
AcDbEntity
  8
ALPHA
100
AcDbVertex
100
AcDb2dVertex
 10
8.974056
 20
56.737606
 30
0.0
  0
SEQEND
  5
183C
100
AcDbEntity
  8
ALPHA
  0
POLYLINE
  5
183D
100
AcDbEntity
  8
ALPHA
100
AcDb2dPolyline
 66
     1
 10
0.0
 20
0.0
 30
0.0
  0
VERTEX
  5
183E
100
AcDbEntity
  8
ALPHA
100
AcDbVertex
100
AcDb2dVertex
 10
8.974056
 20
15.740969
 30
0.0
  0
VERTEX
  5
183F
100
AcDbEntity
  8
ALPHA
100
AcDbVertex
100
AcDb2dVertex
 10
43.972092
 20
15.740969
 30
0.0
  0
SEQEND
  5
1840
100
AcDbEntity
  8
ALPHA
  0
POLYLINE
  5
1841
100
AcDbEntity
  8
ALPHA
100
AcDb2dPolyline
 66
     1
 10
0.0
 20
0.0
 30
0.0
  0
VERTEX
  5
1842
100
AcDbEntity
  8
ALPHA
100
AcDbVertex
100
AcDb2dVertex
 10
9.520448
 20
58.670649
 30
0.0
  0
VERTEX
  5
1843
100
AcDbEntity
  8
ALPHA
100
AcDbVertex
100
AcDb2dVertex
 10
43.446371
 20
58.670649
 30
0.0
  0
SEQEND
  5
1844
100
AcDbEntity
  8
ALPHA
  0
POLYLINE
  5
1845
100
AcDbEntity
  8
ALPHA
100
AcDb2dPolyline
 66
     1
 10
0.0
 20
0.0
 30
0.0
  0
VERTEX
  5
1846
100
AcDbEntity
  8
ALPHA
100
AcDbVertex
100
AcDb2dVertex
 10
26.47273
 20
14.239252
 30
0.0
  0
VERTEX
  5
1847
100
AcDbEntity
  8
ALPHA
100
AcDbVertex
100
AcDb2dVertex
 10
2.60907
 20
8.779465
 30
0.0
  0
SEQEND
  5
1848
100
AcDbEntity
  8
ALPHA
  0
POLYLINE
  5
1849
100
AcDbEntity
  8
ALPHA
100
AcDb2dPolyline
 66
     1
 10
0.0
 20
0.0
 30
0.0
  0
VERTEX
  5
184A
100
AcDbEntity
  8
ALPHA
100
AcDbVertex
100
AcDb2dVertex
 10
13.337097
 20
6.556
 30
0.0
  0
VERTEX
  5
184B
100
AcDbEntity
  8
ALPHA
100
AcDbVertex
100
AcDb2dVertex
 10
11.68638
 20
4.872382
 30
0.0
  0
SEQEND
  5
184C
100
AcDbEntity
  8
ALPHA
  0
POLYLINE
  5
184D
100
AcDbEntity
  8
ALPHA
100
AcDb2dPolyline
 66
     1
 10
0.0
 20
0.0
 30
0.0
  0
VERTEX
  5
184E
100
AcDbEntity
  8
ALPHA
100
AcDbVertex
100
AcDb2dVertex
 10
10.939483
 20
1.742857
 30
0.0
  0
VERTEX
  5
184F
100
AcDbEntity
  8
ALPHA
100
AcDbVertex
100
AcDb2dVertex
 10
11.249379
 20
1.758518
 30
0.0
  0
VERTEX
  5
1850
100
AcDbEntity
  8
ALPHA
100
AcDbVertex
100
AcDb2dVertex
 10
11.550312
 20
1.804482
 30
0.0
  0
VERTEX
  5
1851
100
AcDbEntity
  8
ALPHA
100
AcDbVertex
100
AcDb2dVertex
 10
11.84076
 20
1.879225
 30
0.0
  0
VERTEX
  5
1852
100
AcDbEntity
  8
ALPHA
100
AcDbVertex
100
AcDb2dVertex
 10
12.119202
 20
1.98122
 30
0.0
  0
VERTEX
  5
1853
100
AcDbEntity
  8
ALPHA
100
AcDbVertex
100
AcDb2dVertex
 10
12.384115
 20
2.108943
 30
0.0
  0
VERTEX
  5
1854
100
AcDbEntity
  8
ALPHA
100
AcDbVertex
100
AcDb2dVertex
 10
12.633977
 20
2.260867
 30
0.0
  0
VERTEX
  5
1855
100
AcDbEntity
  8
ALPHA
100
AcDbVertex
100
AcDb2dVertex
 10
12.867267
 20
2.435467
 30
0.0
  0
VERTEX
  5
1856
100
AcDbEntity
  8
ALPHA
100
AcDbVertex
100
AcDb2dVertex
 10
13.082462
 20
2.631218
 30
0.0
  0
VERTEX
  5
1857
100
AcDbEntity
  8
ALPHA
100
AcDbVertex
100
AcDb2dVertex
 10
13.278039
 20
2.846594
 30
0.0
  0
VERTEX
  5
1858
100
AcDbEntity
  8
ALPHA
100
AcDbVertex
100
AcDb2dVertex
 10
13.452478
 20
3.080069
 30
0.0
  0
VERTEX
  5
1859
100
AcDbEntity
  8
ALPHA
100
AcDbVertex
100
AcDb2dVertex
 10
13.604256
 20
3.330118
 30
0.0
  0
VERTEX
  5
185A
100
AcDbEntity
  8
ALPHA
100
AcDbVertex
100
AcDb2dVertex
 10
13.731851
 20
3.595215
 30
0.0
  0
VERTEX
  5
185B
100
AcDbEntity
  8
ALPHA
100
AcDbVertex
100
AcDb2dVertex
 10
13.833741
 20
3.873835
 30
0.0
  0
VERTEX
  5
185C
100
AcDbEntity
  8
ALPHA
100
AcDbVertex
100
AcDb2dVertex
 10
13.908404
 20
4.164452
 30
0.0
  0
VERTEX
  5
185D
100
AcDbEntity
  8
ALPHA
100
AcDbVertex
100
AcDb2dVertex
 10
13.954318
 20
4.46554
 30
0.0
  0
VERTEX
  5
185E
100
AcDbEntity
  8
ALPHA
100
AcDbVertex
100
AcDb2dVertex
 10
13.969961
 20
4.775575
 30
0.0
  0
VERTEX
  5
185F
100
AcDbEntity
  8
ALPHA
100
AcDbVertex
100
AcDb2dVertex
 10
13.954318
 20
5.085287
 30
0.0
  0
VERTEX
  5
1860
100
AcDbEntity
  8
ALPHA
100
AcDbVertex
100
AcDb2dVertex
 10
13.908404
 20
5.386055
 30
0.0
  0
VERTEX
  5
1861
100
AcDbEntity
  8
ALPHA
100
AcDbVertex
100
AcDb2dVertex
 10
13.833741
 20
5.676357
 30
0.0
  0
VERTEX
  5
1862
100
AcDbEntity
  8
ALPHA
100
AcDbVertex
100
AcDb2dVertex
 10
13.731851
 20
5.95467
 30
0.0
  0
VERTEX
  5
1863
100
AcDbEntity
  8
ALPHA
100
AcDbVertex
100
AcDb2dVertex
 10
13.604256
 20
6.219469
 30
0.0
  0
VERTEX
  5
1864
100
AcDbEntity
  8
ALPHA
100
AcDbVertex
100
AcDb2dVertex
 10
13.452478
 20
6.469234
 30
0.0
  0
VERTEX
  5
1865
100
AcDbEntity
  8
ALPHA
100
AcDbVertex
100
AcDb2dVertex
 10
13.278039
 20
6.702439
 30
0.0
  0
VERTEX
  5
1866
100
AcDbEntity
  8
ALPHA
100
AcDbVertex
100
AcDb2dVertex
 10
13.082462
 20
6.917563
 30
0.0
  0
VERTEX
  5
1867
100
AcDbEntity
  8
ALPHA
100
AcDbVertex
100
AcDb2dVertex
 10
12.867267
 20
7.113082
 30
0.0
  0
VERTEX
  5
1868
100
AcDbEntity
  8
ALPHA
100
AcDbVertex
100
AcDb2dVertex
 10
12.633977
 20
7.287473
 30
0.0
  0
VERTEX
  5
1869
100
AcDbEntity
  8
ALPHA
100
AcDbVertex
100
AcDb2dVertex
 10
12.384115
 20
7.439214
 30
0.0
  0
VERTEX
  5
186A
100
AcDbEntity
  8
ALPHA
100
AcDbVertex
100
AcDb2dVertex
 10
12.119202
 20
7.56678
 30
0.0
  0
VERTEX
  5
186B
100
AcDbEntity
  8
ALPHA
100
AcDbVertex
100
AcDb2dVertex
 10
11.84076
 20
7.66865
 30
0.0
  0
VERTEX
  5
186C
100
AcDbEntity
  8
ALPHA
100
AcDbVertex
100
AcDb2dVertex
 10
11.550312
 20
7.7433
 30
0.0
  0
VERTEX
  5
186D
100
AcDbEntity
  8
ALPHA
100
AcDbVertex
100
AcDb2dVertex
 10
11.249379
 20
7.789207
 30
0.0
  0
VERTEX
  5
186E
100
AcDbEntity
  8
ALPHA
100
AcDbVertex
100
AcDb2dVertex
 10
10.939483
 20
7.804847
 30
0.0
  0
VERTEX
  5
186F
100
AcDbEntity
  8
ALPHA
100
AcDbVertex
100
AcDb2dVertex
 10
10.62958
 20
7.789207
 30
0.0
  0
VERTEX
  5
1870
100
AcDbEntity
  8
ALPHA
100
AcDbVertex
100
AcDb2dVertex
 10
10.328625
 20
7.7433
 30
0.0
  0
VERTEX
  5
1871
100
AcDbEntity
  8
ALPHA
100
AcDbVertex
100
AcDb2dVertex
 10
10.038142
 20
7.66865
 30
0.0
  0
VERTEX
  5
1872
100
AcDbEntity
  8
ALPHA
100
AcDbVertex
100
AcDb2dVertex
 10
9.759656
 20
7.56678
 30
0.0
  0
VERTEX
  5
1873
100
AcDbEntity
  8
ALPHA
100
AcDbVertex
100
AcDb2dVertex
 10
9.494691
 20
7.439214
 30
0.0
  0
VERTEX
  5
1874
100
AcDbEntity
  8
ALPHA
100
AcDbVertex
100
AcDb2dVertex
 10
9.244771
 20
7.287473
 30
0.0
  0
VERTEX
  5
1875
100
AcDbEntity
  8
ALPHA
100
AcDbVertex
100
AcDb2dVertex
 10
9.011419
 20
7.113082
 30
0.0
  0
VERTEX
  5
1876
100
AcDbEntity
  8
ALPHA
100
AcDbVertex
100
AcDb2dVertex
 10
8.79616
 20
6.917563
 30
0.0
  0
VERTEX
  5
1877
100
AcDbEntity
  8
ALPHA
100
AcDbVertex
100
AcDb2dVertex
 10
8.600518
 20
6.702439
 30
0.0
  0
VERTEX
  5
1878
100
AcDbEntity
  8
ALPHA
100
AcDbVertex
100
AcDb2dVertex
 10
8.426017
 20
6.469234
 30
0.0
  0
VERTEX
  5
1879
100
AcDbEntity
  8
ALPHA
100
AcDbVertex
100
AcDb2dVertex
 10
8.274181
 20
6.219469
 30
0.0
  0
VERTEX
  5
187A
100
AcDbEntity
  8
ALPHA
100
AcDbVertex
100
AcDb2dVertex
 10
8.146533
 20
5.95467
 30
0.0
  0
VERTEX
  5
187B
100
AcDbEntity
  8
ALPHA
100
AcDbVertex
100
AcDb2dVertex
 10
8.044599
 20
5.676357
 30
0.0
  0
VERTEX
  5
187C
100
AcDbEntity
  8
ALPHA
100
AcDbVertex
100
AcDb2dVertex
 10
7.969902
 20
5.386055
 30
0.0
  0
VERTEX
  5
187D
100
AcDbEntity
  8
ALPHA
100
AcDbVertex
100
AcDb2dVertex
 10
7.923966
 20
5.085287
 30
0.0
  0
VERTEX
  5
187E
100
AcDbEntity
  8
ALPHA
100
AcDbVertex
100
AcDb2dVertex
 10
7.908316
 20
4.775575
 30
0.0
  0
VERTEX
  5
187F
100
AcDbEntity
  8
ALPHA
100
AcDbVertex
100
AcDb2dVertex
 10
7.923966
 20
4.46554
 30
0.0
  0
VERTEX
  5
1880
100
AcDbEntity
  8
ALPHA
100
AcDbVertex
100
AcDb2dVertex
 10
7.969902
 20
4.164452
 30
0.0
  0
VERTEX
  5
1881
100
AcDbEntity
  8
ALPHA
100
AcDbVertex
100
AcDb2dVertex
 10
8.044599
 20
3.873835
 30
0.0
  0
VERTEX
  5
1882
100
AcDbEntity
  8
ALPHA
100
AcDbVertex
100
AcDb2dVertex
 10
8.146533
 20
3.595215
 30
0.0
  0
VERTEX
  5
1883
100
AcDbEntity
  8
ALPHA
100
AcDbVertex
100
AcDb2dVertex
 10
8.274181
 20
3.330118
 30
0.0
  0
VERTEX
  5
1884
100
AcDbEntity
  8
ALPHA
100
AcDbVertex
100
AcDb2dVertex
 10
8.426017
 20
3.080069
 30
0.0
  0
VERTEX
  5
1885
100
AcDbEntity
  8
ALPHA
100
AcDbVertex
100
AcDb2dVertex
 10
8.600518
 20
2.846594
 30
0.0
  0
VERTEX
  5
1886
100
AcDbEntity
  8
ALPHA
100
AcDbVertex
100
AcDb2dVertex
 10
8.79616
 20
2.631218
 30
0.0
  0
VERTEX
  5
1887
100
AcDbEntity
  8
ALPHA
100
AcDbVertex
100
AcDb2dVertex
 10
9.011419
 20
2.435467
 30
0.0
  0
VERTEX
  5
1888
100
AcDbEntity
  8
ALPHA
100
AcDbVertex
100
AcDb2dVertex
 10
9.244771
 20
2.260867
 30
0.0
  0
VERTEX
  5
1889
100
AcDbEntity
  8
ALPHA
100
AcDbVertex
100
AcDb2dVertex
 10
9.494691
 20
2.108943
 30
0.0
  0
VERTEX
  5
188A
100
AcDbEntity
  8
ALPHA
100
AcDbVertex
100
AcDb2dVertex
 10
9.759656
 20
1.98122
 30
0.0
  0
VERTEX
  5
188B
100
AcDbEntity
  8
ALPHA
100
AcDbVertex
100
AcDb2dVertex
 10
10.038142
 20
1.879225
 30
0.0
  0
VERTEX
  5
188C
100
AcDbEntity
  8
ALPHA
100
AcDbVertex
100
AcDb2dVertex
 10
10.328625
 20
1.804482
 30
0.0
  0
VERTEX
  5
188D
100
AcDbEntity
  8
ALPHA
100
AcDbVertex
100
AcDb2dVertex
 10
10.62958
 20
1.758518
 30
0.0
  0
VERTEX
  5
188E
100
AcDbEntity
  8
ALPHA
100
AcDbVertex
100
AcDb2dVertex
 10
10.939483
 20
1.742857
 30
0.0
  0
SEQEND
  5
188F
100
AcDbEntity
  8
ALPHA
  0
POLYLINE
  5
1890
100
AcDbEntity
  8
ALPHA
100
AcDb2dPolyline
 66
     1
 10
0.0
 20
0.0
 30
0.0
  0
VERTEX
  5
1891
100
AcDbEntity
  8
ALPHA
100
AcDbVertex
100
AcDb2dVertex
 10
13.337097
 20
69.683758
 30
0.0
  0
VERTEX
  5
1892
100
AcDbEntity
  8
ALPHA
100
AcDbVertex
100
AcDb2dVertex
 10
11.68638
 20
67.99945
 30
0.0
  0
SEQEND
  5
1893
100
AcDbEntity
  8
ALPHA
  0
POLYLINE
  5
1894
100
AcDbEntity
  8
ALPHA
100
AcDb2dPolyline
 66
     1
 10
0.0
 20
0.0
 30
0.0
  0
VERTEX
  5
1895
100
AcDbEntity
  8
ALPHA
100
AcDbVertex
100
AcDb2dVertex
 10
10.939483
 20
64.871304
 30
0.0
  0
VERTEX
  5
1896
100
AcDbEntity
  8
ALPHA
100
AcDbVertex
100
AcDb2dVertex
 10
11.249379
 20
64.886945
 30
0.0
  0
VERTEX
  5
1897
100
AcDbEntity
  8
ALPHA
100
AcDbVertex
100
AcDb2dVertex
 10
11.550312
 20
64.932853
 30
0.0
  0
VERTEX
  5
1898
100
AcDbEntity
  8
ALPHA
100
AcDbVertex
100
AcDb2dVertex
 10
11.84076
 20
65.007508
 30
0.0
  0
VERTEX
  5
1899
100
AcDbEntity
  8
ALPHA
100
AcDbVertex
100
AcDb2dVertex
 10
12.119202
 20
65.109387
 30
0.0
  0
VERTEX
  5
189A
100
AcDbEntity
  8
ALPHA
100
AcDbVertex
100
AcDb2dVertex
 10
12.384115
 20
65.236969
 30
0.0
  0
VERTEX
  5
189B
100
AcDbEntity
  8
ALPHA
100
AcDbVertex
100
AcDb2dVertex
 10
12.633977
 20
65.388732
 30
0.0
  0
VERTEX
  5
189C
100
AcDbEntity
  8
ALPHA
100
AcDbVertex
100
AcDb2dVertex
 10
12.867267
 20
65.563156
 30
0.0
  0
VERTEX
  5
189D
100
AcDbEntity
  8
ALPHA
100
AcDbVertex
100
AcDb2dVertex
 10
13.082462
 20
65.758717
 30
0.0
  0
VERTEX
  5
189E
100
AcDbEntity
  8
ALPHA
100
AcDbVertex
100
AcDb2dVertex
 10
13.278039
 20
65.973896
 30
0.0
  0
VERTEX
  5
189F
100
AcDbEntity
  8
ALPHA
100
AcDbVertex
100
AcDb2dVertex
 10
13.452478
 20
66.20717
 30
0.0
  0
VERTEX
  5
18A0
100
AcDbEntity
  8
ALPHA
100
AcDbVertex
100
AcDb2dVertex
 10
13.604256
 20
66.457018
 30
0.0
  0
VERTEX
  5
18A1
100
AcDbEntity
  8
ALPHA
100
AcDbVertex
100
AcDb2dVertex
 10
13.731851
 20
66.721918
 30
0.0
  0
VERTEX
  5
18A2
100
AcDbEntity
  8
ALPHA
100
AcDbVertex
100
AcDb2dVertex
 10
13.833741
 20
67.000348
 30
0.0
  0
VERTEX
  5
18A3
100
AcDbEntity
  8
ALPHA
100
AcDbVertex
100
AcDb2dVertex
 10
13.908404
 20
67.290788
 30
0.0
  0
VERTEX
  5
18A4
100
AcDbEntity
  8
ALPHA
100
AcDbVertex
100
AcDb2dVertex
 10
13.954318
 20
67.591716
 30
0.0
  0
VERTEX
  5
18A5
100
AcDbEntity
  8
ALPHA
100
AcDbVertex
100
AcDb2dVertex
 10
13.969961
 20
67.90161
 30
0.0
  0
VERTEX
  5
18A6
100
AcDbEntity
  8
ALPHA
100
AcDbVertex
100
AcDb2dVertex
 10
13.954318
 20
68.211454
 30
0.0
  0
VERTEX
  5
18A7
100
AcDbEntity
  8
ALPHA
100
AcDbVertex
100
AcDb2dVertex
 10
13.908404
 20
68.512362
 30
0.0
  0
VERTEX
  5
18A8
100
AcDbEntity
  8
ALPHA
100
AcDbVertex
100
AcDb2dVertex
 10
13.833741
 20
68.802807
 30
0.0
  0
VERTEX
  5
18A9
100
AcDbEntity
  8
ALPHA
100
AcDbVertex
100
AcDb2dVertex
 10
13.731851
 20
69.081264
 30
0.0
  0
VERTEX
  5
18AA
100
AcDbEntity
  8
ALPHA
100
AcDbVertex
100
AcDb2dVertex
 10
13.604256
 20
69.346209
 30
0.0
  0
VERTEX
  5
18AB
100
AcDbEntity
  8
ALPHA
100
AcDbVertex
100
AcDb2dVertex
 10
13.452478
 20
69.596116
 30
0.0
  0
VERTEX
  5
18AC
100
AcDbEntity
  8
ALPHA
100
AcDbVertex
100
AcDb2dVertex
 10
13.278039
 20
69.829461
 30
0.0
  0
VERTEX
  5
18AD
100
AcDbEntity
  8
ALPHA
100
AcDbVertex
100
AcDb2dVertex
 10
13.082462
 20
70.044717
 30
0.0
  0
VERTEX
  5
18AE
100
AcDbEntity
  8
ALPHA
100
AcDbVertex
100
AcDb2dVertex
 10
12.867267
 20
70.240361
 30
0.0
  0
VERTEX
  5
18AF
100
AcDbEntity
  8
ALPHA
100
AcDbVertex
100
AcDb2dVertex
 10
12.633977
 20
70.414867
 30
0.0
  0
VERTEX
  5
18B0
100
AcDbEntity
  8
ALPHA
100
AcDbVertex
100
AcDb2dVertex
 10
12.384115
 20
70.566711
 30
0.0
  0
VERTEX
  5
18B1
100
AcDbEntity
  8
ALPHA
100
AcDbVertex
100
AcDb2dVertex
 10
12.119202
 20
70.694366
 30
0.0
  0
VERTEX
  5
18B2
100
AcDbEntity
  8
ALPHA
100
AcDbVertex
100
AcDb2dVertex
 10
11.84076
 20
70.796308
 30
0.0
  0
VERTEX
  5
18B3
100
AcDbEntity
  8
ALPHA
100
AcDbVertex
100
AcDb2dVertex
 10
11.550312
 20
70.871012
 30
0.0
  0
VERTEX
  5
18B4
100
AcDbEntity
  8
ALPHA
100
AcDbVertex
100
AcDb2dVertex
 10
11.249379
 20
70.916952
 30
0.0
  0
VERTEX
  5
18B5
100
AcDbEntity
  8
ALPHA
100
AcDbVertex
100
AcDb2dVertex
 10
10.939483
 20
70.932605
 30
0.0
  0
VERTEX
  5
18B6
100
AcDbEntity
  8
ALPHA
100
AcDbVertex
100
AcDb2dVertex
 10
10.62958
 20
70.916952
 30
0.0
  0
VERTEX
  5
18B7
100
AcDbEntity
  8
ALPHA
100
AcDbVertex
100
AcDb2dVertex
 10
10.328625
 20
70.871012
 30
0.0
  0
VERTEX
  5
18B8
100
AcDbEntity
  8
ALPHA
100
AcDbVertex
100
AcDb2dVertex
 10
10.038142
 20
70.796308
 30
0.0
  0
VERTEX
  5
18B9
100
AcDbEntity
  8
ALPHA
100
AcDbVertex
100
AcDb2dVertex
 10
9.759656
 20
70.694366
 30
0.0
  0
VERTEX
  5
18BA
100
AcDbEntity
  8
ALPHA
100
AcDbVertex
100
AcDb2dVertex
 10
9.494691
 20
70.566711
 30
0.0
  0
VERTEX
  5
18BB
100
AcDbEntity
  8
ALPHA
100
AcDbVertex
100
AcDb2dVertex
 10
9.244771
 20
70.414867
 30
0.0
  0
VERTEX
  5
18BC
100
AcDbEntity
  8
ALPHA
100
AcDbVertex
100
AcDb2dVertex
 10
9.011419
 20
70.240361
 30
0.0
  0
VERTEX
  5
18BD
100
AcDbEntity
  8
ALPHA
100
AcDbVertex
100
AcDb2dVertex
 10
8.79616
 20
70.044717
 30
0.0
  0
VERTEX
  5
18BE
100
AcDbEntity
  8
ALPHA
100
AcDbVertex
100
AcDb2dVertex
 10
8.600518
 20
69.829461
 30
0.0
  0
VERTEX
  5
18BF
100
AcDbEntity
  8
ALPHA
100
AcDbVertex
100
AcDb2dVertex
 10
8.426017
 20
69.596116
 30
0.0
  0
VERTEX
  5
18C0
100
AcDbEntity
  8
ALPHA
100
AcDbVertex
100
AcDb2dVertex
 10
8.274181
 20
69.346209
 30
0.0
  0
VERTEX
  5
18C1
100
AcDbEntity
  8
ALPHA
100
AcDbVertex
100
AcDb2dVertex
 10
8.146533
 20
69.081264
 30
0.0
  0
VERTEX
  5
18C2
100
AcDbEntity
  8
ALPHA
100
AcDbVertex
100
AcDb2dVertex
 10
8.044599
 20
68.802807
 30
0.0
  0
VERTEX
  5
18C3
100
AcDbEntity
  8
ALPHA
100
AcDbVertex
100
AcDb2dVertex
 10
7.969902
 20
68.512362
 30
0.0
  0
VERTEX
  5
18C4
100
AcDbEntity
  8
ALPHA
100
AcDbVertex
100
AcDb2dVertex
 10
7.923966
 20
68.211454
 30
0.0
  0
VERTEX
  5
18C5
100
AcDbEntity
  8
ALPHA
100
AcDbVertex
100
AcDb2dVertex
 10
7.908316
 20
67.90161
 30
0.0
  0
VERTEX
  5
18C6
100
AcDbEntity
  8
ALPHA
100
AcDbVertex
100
AcDb2dVertex
 10
7.923966
 20
67.591716
 30
0.0
  0
VERTEX
  5
18C7
100
AcDbEntity
  8
ALPHA
100
AcDbVertex
100
AcDb2dVertex
 10
7.969902
 20
67.290788
 30
0.0
  0
VERTEX
  5
18C8
100
AcDbEntity
  8
ALPHA
100
AcDbVertex
100
AcDb2dVertex
 10
8.044599
 20
67.000348
 30
0.0
  0
VERTEX
  5
18C9
100
AcDbEntity
  8
ALPHA
100
AcDbVertex
100
AcDb2dVertex
 10
8.146533
 20
66.721918
 30
0.0
  0
VERTEX
  5
18CA
100
AcDbEntity
  8
ALPHA
100
AcDbVertex
100
AcDb2dVertex
 10
8.274181
 20
66.457018
 30
0.0
  0
VERTEX
  5
18CB
100
AcDbEntity
  8
ALPHA
100
AcDbVertex
100
AcDb2dVertex
 10
8.426017
 20
66.20717
 30
0.0
  0
VERTEX
  5
18CC
100
AcDbEntity
  8
ALPHA
100
AcDbVertex
100
AcDb2dVertex
 10
8.600518
 20
65.973896
 30
0.0
  0
VERTEX
  5
18CD
100
AcDbEntity
  8
ALPHA
100
AcDbVertex
100
AcDb2dVertex
 10
8.79616
 20
65.758717
 30
0.0
  0
VERTEX
  5
18CE
100
AcDbEntity
  8
ALPHA
100
AcDbVertex
100
AcDb2dVertex
 10
9.011419
 20
65.563156
 30
0.0
  0
VERTEX
  5
18CF
100
AcDbEntity
  8
ALPHA
100
AcDbVertex
100
AcDb2dVertex
 10
9.244771
 20
65.388732
 30
0.0
  0
VERTEX
  5
18D0
100
AcDbEntity
  8
ALPHA
100
AcDbVertex
100
AcDb2dVertex
 10
9.494691
 20
65.236969
 30
0.0
  0
VERTEX
  5
18D1
100
AcDbEntity
  8
ALPHA
100
AcDbVertex
100
AcDb2dVertex
 10
9.759656
 20
65.109387
 30
0.0
  0
VERTEX
  5
18D2
100
AcDbEntity
  8
ALPHA
100
AcDbVertex
100
AcDb2dVertex
 10
10.038142
 20
65.007508
 30
0.0
  0
VERTEX
  5
18D3
100
AcDbEntity
  8
ALPHA
100
AcDbVertex
100
AcDb2dVertex
 10
10.328625
 20
64.932853
 30
0.0
  0
VERTEX
  5
18D4
100
AcDbEntity
  8
ALPHA
100
AcDbVertex
100
AcDb2dVertex
 10
10.62958
 20
64.886945
 30
0.0
  0
VERTEX
  5
18D5
100
AcDbEntity
  8
ALPHA
100
AcDbVertex
100
AcDb2dVertex
 10
10.939483
 20
64.871304
 30
0.0
  0
SEQEND
  5
18D6
100
AcDbEntity
  8
ALPHA
  0
POLYLINE
  5
18D7
100
AcDbEntity
  8
ALPHA
100
AcDb2dPolyline
 66
     1
 10
0.0
 20
0.0
 30
0.0
  0
VERTEX
  5
18D8
100
AcDbEntity
  8
ALPHA
100
AcDbVertex
100
AcDb2dVertex
 10
6.45104
 20
-0.697304
 30
0.0
  0
VERTEX
  5
18D9
100
AcDbEntity
  8
ALPHA
100
AcDbVertex
100
AcDb2dVertex
 10
17.703756
 20
-0.697304
 30
0.0
  0
SEQEND
  5
18DA
100
AcDbEntity
  8
ALPHA
  0
POLYLINE
  5
18DB
100
AcDbEntity
  8
ALPHA
100
AcDb2dPolyline
 66
     1
 10
0.0
 20
0.0
 30
0.0
  0
VERTEX
  5
18DC
100
AcDbEntity
  8
ALPHA
100
AcDbVertex
100
AcDb2dVertex
 10
6.45104
 20
73.302658
 30
0.0
  0
VERTEX
  5
18DD
100
AcDbEntity
  8
ALPHA
100
AcDbVertex
100
AcDb2dVertex
 10
17.636921
 20
73.302658
 30
0.0
  0
SEQEND
  5
18DE
100
AcDbEntity
  8
ALPHA
  0
POLYLINE
  5
18DF
100
AcDbEntity
  8
ALPHA
100
AcDb2dPolyline
 66
     1
 10
0.0
 20
0.0
 30
0.0
  0
VERTEX
  5
18E0
100
AcDbEntity
  8
ALPHA
100
AcDbVertex
100
AcDb2dVertex
 10
0.006817
 20
60.251258
 30
0.0
  0
VERTEX
  5
18E1
100
AcDbEntity
  8
ALPHA
100
AcDbVertex
100
AcDb2dVertex
 10
5.440077
 20
36.302677
 30
0.0
  0
SEQEND
  5
18E2
100
AcDbEntity
  8
ALPHA
  0
POLYLINE
  5
18E3
100
AcDbEntity
  8
ALPHA
100
AcDb2dPolyline
 66
     1
 10
0.0
 20
0.0
 30
0.0
  0
VERTEX
  5
18E4
100
AcDbEntity
  8
ALPHA
100
AcDbVertex
100
AcDb2dVertex
 10
5.974067
 20
53.737961
 30
0.0
  0
VERTEX
  5
18E5
100
AcDbEntity
  8
ALPHA
100
AcDbVertex
100
AcDb2dVertex
 10
5.974067
 20
18.740269
 30
0.0
  0
SEQEND
  5
18E6
100
AcDbEntity
  8
ALPHA
  0
POLYLINE
  5
18E7
100
AcDbEntity
  8
ALPHA
100
AcDb2dPolyline
 66
     1
 10
0.0
 20
0.0
 30
0.0
  0
VERTEX
  5
18E8
100
AcDbEntity
  8
ALPHA
100
AcDbVertex
100
AcDb2dVertex
 10
4.474072
 20
36.239287
 30
0.0
  0
VERTEX
  5
18E9
100
AcDbEntity
  8
ALPHA
100
AcDbVertex
100
AcDb2dVertex
 10
-0.877367
 20
60.030772
 30
0.0
  0
SEQEND
  5
18EA
100
AcDbEntity
  8
ALPHA
  0
POLYLINE
  5
18EB
100
AcDbEntity
  8
ALPHA
100
AcDb2dPolyline
 66
     1
 10
0.0
 20
0.0
 30
0.0
  0
VERTEX
  5
18EC
100
AcDbEntity
  8
ALPHA
100
AcDbVertex
100
AcDb2dVertex
 10
11.973356
 20
18.740269
 30
0.0
  0
VERTEX
  5
18ED
100
AcDbEntity
  8
ALPHA
100
AcDbVertex
100
AcDb2dVertex
 10
11.973356
 20
15.707896
 30
0.0
  0
SEQEND
  5
18EE
100
AcDbEntity
  8
ALPHA
  0
POLYLINE
  5
18EF
100
AcDbEntity
  8
ALPHA
100
AcDb2dPolyline
 66
     1
 10
0.0
 20
0.0
 30
0.0
  0
VERTEX
  5
18F0
100
AcDbEntity
  8
ALPHA
100
AcDbVertex
100
AcDb2dVertex
 10
8.974056
 20
17.315378
 30
0.0
  0
VERTEX
  5
18F1
100
AcDbEntity
  8
ALPHA
100
AcDbVertex
100
AcDb2dVertex
 10
9.118333
 20
17.32266
 30
0.0
  0
VERTEX
  5
18F2
100
AcDbEntity
  8
ALPHA
100
AcDbVertex
100
AcDb2dVertex
 10
9.258458
 20
17.344035
 30
0.0
  0
VERTEX
  5
18F3
100
AcDbEntity
  8
ALPHA
100
AcDbVertex
100
AcDb2dVertex
 10
9.393721
 20
17.378796
 30
0.0
  0
VERTEX
  5
18F4
100
AcDbEntity
  8
ALPHA
100
AcDbVertex
100
AcDb2dVertex
 10
9.523409
 20
17.426235
 30
0.0
  0
VERTEX
  5
18F5
100
AcDbEntity
  8
ALPHA
100
AcDbVertex
100
AcDb2dVertex
 10
9.646811
 20
17.485643
 30
0.0
  0
VERTEX
  5
18F6
100
AcDbEntity
  8
ALPHA
100
AcDbVertex
100
AcDb2dVertex
 10
9.763216
 20
17.556315
 30
0.0
  0
VERTEX
  5
18F7
100
AcDbEntity
  8
ALPHA
100
AcDbVertex
100
AcDb2dVertex
 10
9.871911
 20
17.637542
 30
0.0
  0
VERTEX
  5
18F8
100
AcDbEntity
  8
ALPHA
100
AcDbVertex
100
AcDb2dVertex
 10
9.972186
 20
17.728617
 30
0.0
  0
VERTEX
  5
18F9
100
AcDbEntity
  8
ALPHA
100
AcDbVertex
100
AcDb2dVertex
 10
10.063329
 20
17.828832
 30
0.0
  0
VERTEX
  5
18FA
100
AcDbEntity
  8
ALPHA
100
AcDbVertex
100
AcDb2dVertex
 10
10.144628
 20
17.93748
 30
0.0
  0
VERTEX
  5
18FB
100
AcDbEntity
  8
ALPHA
100
AcDbVertex
100
AcDb2dVertex
 10
10.215372
 20
18.053853
 30
0.0
  0
VERTEX
  5
18FC
100
AcDbEntity
  8
ALPHA
100
AcDbVertex
100
AcDb2dVertex
 10
10.274849
 20
18.177244
 30
0.0
  0
VERTEX
  5
18FD
100
AcDbEntity
  8
ALPHA
100
AcDbVertex
100
AcDb2dVertex
 10
10.322347
 20
18.306945
 30
0.0
  0
VERTEX
  5
18FE
100
AcDbEntity
  8
ALPHA
100
AcDbVertex
100
AcDb2dVertex
 10
10.357156
 20
18.442248
 30
0.0
  0
VERTEX
  5
18FF
100
AcDbEntity
  8
ALPHA
100
AcDbVertex
100
AcDb2dVertex
 10
10.378562
 20
18.582447
 30
0.0
  0
VERTEX
  5
1900
100
AcDbEntity
  8
ALPHA
100
AcDbVertex
100
AcDb2dVertex
 10
10.385856
 20
18.726834
 30
0.0
  0
VERTEX
  5
1901
100
AcDbEntity
  8
ALPHA
100
AcDbVertex
100
AcDb2dVertex
 10
10.378562
 20
18.871182
 30
0.0
  0
VERTEX
  5
1902
100
AcDbEntity
  8
ALPHA
100
AcDbVertex
100
AcDb2dVertex
 10
10.357156
 20
19.011394
 30
0.0
  0
VERTEX
  5
1903
100
AcDbEntity
  8
ALPHA
100
AcDbVertex
100
AcDb2dVertex
 10
10.322347
 20
19.146753
 30
0.0
  0
VERTEX
  5
1904
100
AcDbEntity
  8
ALPHA
100
AcDbVertex
100
AcDb2dVertex
 10
10.274849
 20
19.276547
 30
0.0
  0
VERTEX
  5
1905
100
AcDbEntity
  8
ALPHA
100
AcDbVertex
100
AcDb2dVertex
 10
10.215372
 20
19.400061
 30
0.0
  0
VERTEX
  5
1906
100
AcDbEntity
  8
ALPHA
100
AcDbVertex
100
AcDb2dVertex
 10
10.144628
 20
19.516581
 30
0.0
  0
VERTEX
  5
1907
100
AcDbEntity
  8
ALPHA
100
AcDbVertex
100
AcDb2dVertex
 10
10.063329
 20
19.625392
 30
0.0
  0
VERTEX
  5
1908
100
AcDbEntity
  8
ALPHA
100
AcDbVertex
100
AcDb2dVertex
 10
9.972186
 20
19.725782
 30
0.0
  0
VERTEX
  5
1909
100
AcDbEntity
  8
ALPHA
100
AcDbVertex
100
AcDb2dVertex
 10
9.871911
 20
19.817035
 30
0.0
  0
VERTEX
  5
190A
100
AcDbEntity
  8
ALPHA
100
AcDbVertex
100
AcDb2dVertex
 10
9.763216
 20
19.898438
 30
0.0
  0
VERTEX
  5
190B
100
AcDbEntity
  8
ALPHA
100
AcDbVertex
100
AcDb2dVertex
 10
9.646811
 20
19.969277
 30
0.0
  0
VERTEX
  5
190C
100
AcDbEntity
  8
ALPHA
100
AcDbVertex
100
AcDb2dVertex
 10
9.523409
 20
20.028837
 30
0.0
  0
VERTEX
  5
190D
100
AcDbEntity
  8
ALPHA
100
AcDbVertex
100
AcDb2dVertex
 10
9.393721
 20
20.076405
 30
0.0
  0
VERTEX
  5
190E
100
AcDbEntity
  8
ALPHA
100
AcDbVertex
100
AcDb2dVertex
 10
9.258458
 20
20.111266
 30
0.0
  0
VERTEX
  5
190F
100
AcDbEntity
  8
ALPHA
100
AcDbVertex
100
AcDb2dVertex
 10
9.118333
 20
20.132706
 30
0.0
  0
VERTEX
  5
1910
100
AcDbEntity
  8
ALPHA
100
AcDbVertex
100
AcDb2dVertex
 10
8.974056
 20
20.140012
 30
0.0
  0
VERTEX
  5
1911
100
AcDbEntity
  8
ALPHA
100
AcDbVertex
100
AcDb2dVertex
 10
8.829603
 20
20.132706
 30
0.0
  0
VERTEX
  5
1912
100
AcDbEntity
  8
ALPHA
100
AcDbVertex
100
AcDb2dVertex
 10
8.689335
 20
20.111266
 30
0.0
  0
VERTEX
  5
1913
100
AcDbEntity
  8
ALPHA
100
AcDbVertex
100
AcDb2dVertex
 10
8.55396
 20
20.076405
 30
0.0
  0
VERTEX
  5
1914
100
AcDbEntity
  8
ALPHA
100
AcDbVertex
100
AcDb2dVertex
 10
8.424187
 20
20.028837
 30
0.0
  0
VERTEX
  5
1915
100
AcDbEntity
  8
ALPHA
100
AcDbVertex
100
AcDb2dVertex
 10
8.300723
 20
19.969277
 30
0.0
  0
VERTEX
  5
1916
100
AcDbEntity
  8
ALPHA
100
AcDbVertex
100
AcDb2dVertex
 10
8.184279
 20
19.898438
 30
0.0
  0
VERTEX
  5
1917
100
AcDbEntity
  8
ALPHA
100
AcDbVertex
100
AcDb2dVertex
 10
8.075561
 20
19.817035
 30
0.0
  0
VERTEX
  5
1918
100
AcDbEntity
  8
ALPHA
100
AcDbVertex
100
AcDb2dVertex
 10
7.97528
 20
19.725782
 30
0.0
  0
VERTEX
  5
1919
100
AcDbEntity
  8
ALPHA
100
AcDbVertex
100
AcDb2dVertex
 10
7.884143
 20
19.625392
 30
0.0
  0
VERTEX
  5
191A
100
AcDbEntity
  8
ALPHA
100
AcDbVertex
100
AcDb2dVertex
 10
7.802858
 20
19.516581
 30
0.0
  0
VERTEX
  5
191B
100
AcDbEntity
  8
ALPHA
100
AcDbVertex
100
AcDb2dVertex
 10
7.732135
 20
19.400061
 30
0.0
  0
VERTEX
  5
191C
100
AcDbEntity
  8
ALPHA
100
AcDbVertex
100
AcDb2dVertex
 10
7.672682
 20
19.276547
 30
0.0
  0
VERTEX
  5
191D
100
AcDbEntity
  8
ALPHA
100
AcDbVertex
100
AcDb2dVertex
 10
7.625207
 20
19.146753
 30
0.0
  0
VERTEX
  5
191E
100
AcDbEntity
  8
ALPHA
100
AcDbVertex
100
AcDb2dVertex
 10
7.59042
 20
19.011394
 30
0.0
  0
VERTEX
  5
191F
100
AcDbEntity
  8
ALPHA
100
AcDbVertex
100
AcDb2dVertex
 10
7.569027
 20
18.871182
 30
0.0
  0
VERTEX
  5
1920
100
AcDbEntity
  8
ALPHA
100
AcDbVertex
100
AcDb2dVertex
 10
7.561739
 20
18.726834
 30
0.0
  0
VERTEX
  5
1921
100
AcDbEntity
  8
ALPHA
100
AcDbVertex
100
AcDb2dVertex
 10
7.569027
 20
18.582447
 30
0.0
  0
VERTEX
  5
1922
100
AcDbEntity
  8
ALPHA
100
AcDbVertex
100
AcDb2dVertex
 10
7.59042
 20
18.442248
 30
0.0
  0
VERTEX
  5
1923
100
AcDbEntity
  8
ALPHA
100
AcDbVertex
100
AcDb2dVertex
 10
7.625207
 20
18.306945
 30
0.0
  0
VERTEX
  5
1924
100
AcDbEntity
  8
ALPHA
100
AcDbVertex
100
AcDb2dVertex
 10
7.672682
 20
18.177244
 30
0.0
  0
VERTEX
  5
1925
100
AcDbEntity
  8
ALPHA
100
AcDbVertex
100
AcDb2dVertex
 10
7.732135
 20
18.053853
 30
0.0
  0
VERTEX
  5
1926
100
AcDbEntity
  8
ALPHA
100
AcDbVertex
100
AcDb2dVertex
 10
7.802858
 20
17.93748
 30
0.0
  0
VERTEX
  5
1927
100
AcDbEntity
  8
ALPHA
100
AcDbVertex
100
AcDb2dVertex
 10
7.884143
 20
17.828832
 30
0.0
  0
VERTEX
  5
1928
100
AcDbEntity
  8
ALPHA
100
AcDbVertex
100
AcDb2dVertex
 10
7.97528
 20
17.728617
 30
0.0
  0
VERTEX
  5
1929
100
AcDbEntity
  8
ALPHA
100
AcDbVertex
100
AcDb2dVertex
 10
8.075561
 20
17.637542
 30
0.0
  0
VERTEX
  5
192A
100
AcDbEntity
  8
ALPHA
100
AcDbVertex
100
AcDb2dVertex
 10
8.184279
 20
17.556315
 30
0.0
  0
VERTEX
  5
192B
100
AcDbEntity
  8
ALPHA
100
AcDbVertex
100
AcDb2dVertex
 10
8.300723
 20
17.485643
 30
0.0
  0
VERTEX
  5
192C
100
AcDbEntity
  8
ALPHA
100
AcDbVertex
100
AcDb2dVertex
 10
8.424187
 20
17.426235
 30
0.0
  0
VERTEX
  5
192D
100
AcDbEntity
  8
ALPHA
100
AcDbVertex
100
AcDb2dVertex
 10
8.55396
 20
17.378796
 30
0.0
  0
VERTEX
  5
192E
100
AcDbEntity
  8
ALPHA
100
AcDbVertex
100
AcDb2dVertex
 10
8.689335
 20
17.344035
 30
0.0
  0
VERTEX
  5
192F
100
AcDbEntity
  8
ALPHA
100
AcDbVertex
100
AcDb2dVertex
 10
8.829603
 20
17.32266
 30
0.0
  0
VERTEX
  5
1930
100
AcDbEntity
  8
ALPHA
100
AcDbVertex
100
AcDb2dVertex
 10
8.974056
 20
17.315378
 30
0.0
  0
SEQEND
  5
1931
100
AcDbEntity
  8
ALPHA
  0
POLYLINE
  5
1932
100
AcDbEntity
  8
ALPHA
100
AcDb2dPolyline
 66
     1
 10
0.0
 20
0.0
 30
0.0
  0
VERTEX
  5
1933
100
AcDbEntity
  8
ALPHA
100
AcDbVertex
100
AcDb2dVertex
 10
5.440077
 20
36.302677
 30
0.0
  0
VERTEX
  5
1934
100
AcDbEntity
  8
ALPHA
100
AcDbVertex
100
AcDb2dVertex
 10
0.006817
 20
12.228694
 30
0.0
  0
SEQEND
  5
1935
100
AcDbEntity
  8
ALPHA
  0
POLYLINE
  5
1936
100
AcDbEntity
  8
ALPHA
100
AcDb2dPolyline
 66
     1
 10
0.0
 20
0.0
 30
0.0
  0
VERTEX
  5
1937
100
AcDbEntity
  8
ALPHA
100
AcDbVertex
100
AcDb2dVertex
 10
5.974067
 20
18.740269
 30
0.0
  0
VERTEX
  5
1938
100
AcDbEntity
  8
ALPHA
100
AcDbVertex
100
AcDb2dVertex
 10
5.989551
 20
18.433562
 30
0.0
  0
VERTEX
  5
1939
100
AcDbEntity
  8
ALPHA
100
AcDbVertex
100
AcDb2dVertex
 10
6.034999
 20
18.135726
 30
0.0
  0
VERTEX
  5
193A
100
AcDbEntity
  8
ALPHA
100
AcDbVertex
100
AcDb2dVertex
 10
6.108905
 20
17.848266
 30
0.0
  0
VERTEX
  5
193B
100
AcDbEntity
  8
ALPHA
100
AcDbVertex
100
AcDb2dVertex
 10
6.209763
 20
17.572689
 30
0.0
  0
VERTEX
  5
193C
100
AcDbEntity
  8
ALPHA
100
AcDbVertex
100
AcDb2dVertex
 10
6.336066
 20
17.310501
 30
0.0
  0
VERTEX
  5
193D
100
AcDbEntity
  8
ALPHA
100
AcDbVertex
100
AcDb2dVertex
 10
6.486309
 20
17.06321
 30
0.0
  0
VERTEX
  5
193E
100
AcDbEntity
  8
ALPHA
100
AcDbVertex
100
AcDb2dVertex
 10
6.658985
 20
16.83232
 30
0.0
  0
VERTEX
  5
193F
100
AcDbEntity
  8
ALPHA
100
AcDbVertex
100
AcDb2dVertex
 10
6.852588
 20
16.619339
 30
0.0
  0
VERTEX
  5
1940
100
AcDbEntity
  8
ALPHA
100
AcDbVertex
100
AcDb2dVertex
 10
7.065612
 20
16.425774
 30
0.0
  0
VERTEX
  5
1941
100
AcDbEntity
  8
ALPHA
100
AcDbVertex
100
AcDb2dVertex
 10
7.296551
 20
16.253129
 30
0.0
  0
VERTEX
  5
1942
100
AcDbEntity
  8
ALPHA
100
AcDbVertex
100
AcDb2dVertex
 10
7.543899
 20
16.102912
 30
0.0
  0
VERTEX
  5
1943
100
AcDbEntity
  8
ALPHA
100
AcDbVertex
100
AcDb2dVertex
 10
7.80615
 20
15.97663
 30
0.0
  0
VERTEX
  5
1944
100
AcDbEntity
  8
ALPHA
100
AcDbVertex
100
AcDb2dVertex
 10
8.081797
 20
15.875788
 30
0.0
  0
VERTEX
  5
1945
100
AcDbEntity
  8
ALPHA
100
AcDbVertex
100
AcDb2dVertex
 10
8.369334
 20
15.801893
 30
0.0
  0
VERTEX
  5
1946
100
AcDbEntity
  8
ALPHA
100
AcDbVertex
100
AcDb2dVertex
 10
8.667256
 20
15.756451
 30
0.0
  0
VERTEX
  5
1947
100
AcDbEntity
  8
ALPHA
100
AcDbVertex
100
AcDb2dVertex
 10
8.974056
 20
15.740969
 30
0.0
  0
SEQEND
  5
1948
100
AcDbEntity
  8
ALPHA
  0
POLYLINE
  5
1949
100
AcDbEntity
  8
ALPHA
100
AcDb2dPolyline
 66
     1
 10
0.0
 20
0.0
 30
0.0
  0
VERTEX
  5
194A
100
AcDbEntity
  8
ALPHA
100
AcDbVertex
100
AcDb2dVertex
 10
-0.877367
 20
12.446769
 30
0.0
  0
VERTEX
  5
194B
100
AcDbEntity
  8
ALPHA
100
AcDbVertex
100
AcDb2dVertex
 10
4.474072
 20
36.239287
 30
0.0
  0
SEQEND
  5
194C
100
AcDbEntity
  8
ALPHA
  0
POLYLINE
  5
194D
100
AcDbEntity
  8
ALPHA
100
AcDb2dPolyline
 66
     1
 10
0.0
 20
0.0
 30
0.0
  0
VERTEX
  5
194E
100
AcDbEntity
  8
ALPHA
100
AcDbVertex
100
AcDb2dVertex
 10
9.096185
 20
5.89592
 30
0.0
  0
VERTEX
  5
194F
100
AcDbEntity
  8
ALPHA
100
AcDbVertex
100
AcDb2dVertex
 10
9.838775
 20
6.671066
 30
0.0
  0
SEQEND
  5
1950
100
AcDbEntity
  8
ALPHA
  0
POLYLINE
  5
1951
100
AcDbEntity
  8
ALPHA
100
AcDb2dPolyline
 66
     1
 10
0.0
 20
0.0
 30
0.0
  0
VERTEX
  5
1952
100
AcDbEntity
  8
ALPHA
100
AcDbVertex
100
AcDb2dVertex
 10
9.838775
 20
6.671066
 30
0.0
  0
VERTEX
  5
1953
100
AcDbEntity
  8
ALPHA
100
AcDbVertex
100
AcDb2dVertex
 10
10.908305
 20
5.601709
 30
0.0
  0
SEQEND
  5
1954
100
AcDbEntity
  8
ALPHA
  0
POLYLINE
  5
1955
100
AcDbEntity
  8
ALPHA
100
AcDb2dPolyline
 66
     1
 10
0.0
 20
0.0
 30
0.0
  0
VERTEX
  5
1956
100
AcDbEntity
  8
ALPHA
100
AcDbVertex
100
AcDb2dVertex
 10
10.951541
 20
5.592407
 30
0.0
  0
VERTEX
  5
1957
100
AcDbEntity
  8
ALPHA
100
AcDbVertex
100
AcDb2dVertex
 10
12.643944
 20
7.235718
 30
0.0
  0
SEQEND
  5
1958
100
AcDbEntity
  8
ALPHA
  0
POLYLINE
  5
1959
100
AcDbEntity
  8
ALPHA
100
AcDb2dPolyline
 66
     1
 10
0.0
 20
0.0
 30
0.0
  0
VERTEX
  5
195A
100
AcDbEntity
  8
ALPHA
100
AcDbVertex
100
AcDb2dVertex
 10
4.474072
 20
2.47494
 30
0.0
  0
VERTEX
  5
195B
100
AcDbEntity
  8
ALPHA
100
AcDbVertex
100
AcDb2dVertex
 10
4.474072
 20
9.206657
 30
0.0
  0
SEQEND
  5
195C
100
AcDbEntity
  8
ALPHA
  0
POLYLINE
  5
195D
100
AcDbEntity
  8
ALPHA
100
AcDb2dPolyline
 66
     1
 10
0.0
 20
0.0
 30
0.0
  0
VERTEX
  5
195E
100
AcDbEntity
  8
ALPHA
100
AcDbVertex
100
AcDb2dVertex
 10
6.45104
 20
9.65762
 30
0.0
  0
VERTEX
  5
195F
100
AcDbEntity
  8
ALPHA
100
AcDbVertex
100
AcDb2dVertex
 10
6.45104
 20
-0.697304
 30
0.0
  0
SEQEND
  5
1960
100
AcDbEntity
  8
ALPHA
  0
POLYLINE
  5
1961
100
AcDbEntity
  8
ALPHA
100
AcDb2dPolyline
 66
     1
 10
0.0
 20
0.0
 30
0.0
  0
VERTEX
  5
1962
100
AcDbEntity
  8
ALPHA
100
AcDbVertex
100
AcDb2dVertex
 10
6.548192
 20
2.47494
 30
0.0
  0
VERTEX
  5
1963
100
AcDbEntity
  8
ALPHA
100
AcDbVertex
100
AcDb2dVertex
 10
4.474072
 20
2.47494
 30
0.0
  0
SEQEND
  5
1964
100
AcDbEntity
  8
ALPHA
  0
POLYLINE
  5
1965
100
AcDbEntity
  8
ALPHA
100
AcDb2dPolyline
 66
     1
 10
0.0
 20
0.0
 30
0.0
  0
VERTEX
  5
1966
100
AcDbEntity
  8
ALPHA
100
AcDbVertex
100
AcDb2dVertex
 10
8.512758
 20
3.10367
 30
0.0
  0
VERTEX
  5
1967
100
AcDbEntity
  8
ALPHA
100
AcDbVertex
100
AcDb2dVertex
 10
10.173638
 20
4.814504
 30
0.0
  0
SEQEND
  5
1968
100
AcDbEntity
  8
ALPHA
  0
POLYLINE
  5
1969
100
AcDbEntity
  8
ALPHA
100
AcDb2dPolyline
 66
     1
 10
0.0
 20
0.0
 30
0.0
  0
VERTEX
  5
196A
100
AcDbEntity
  8
ALPHA
100
AcDbVertex
100
AcDb2dVertex
 10
11.000461
 20
4.038669
 30
0.0
  0
VERTEX
  5
196B
100
AcDbEntity
  8
ALPHA
100
AcDbVertex
100
AcDb2dVertex
 10
9.254487
 20
2.328523
 30
0.0
  0
SEQEND
  5
196C
100
AcDbEntity
  8
ALPHA
  0
POLYLINE
  5
196D
100
AcDbEntity
  8
ALPHA
100
AcDb3dPolyline
 66
     1
 10
0.0
 20
0.0
 30
0.0
 70
     8
  0
VERTEX
  5
196E
100
AcDbEntity
  8
ALPHA
100
AcDbVertex
100
AcDb3dPolylineVertex
 10
10.939483
 20
1.742857
 30
0.0
 70
    32
  0
VERTEX
  5
196F
100
AcDbEntity
  8
ALPHA
100
AcDbVertex
100
AcDb3dPolylineVertex
 10
10.939483
 20
1.742857
 30
0.0
 70
    32
  0
SEQEND
  5
1970
100
AcDbEntity
  8
ALPHA
  0
POLYLINE
  5
1971
100
AcDbEntity
  8
ALPHA
100
AcDb2dPolyline
 66
     1
 10
0.0
 20
0.0
 30
0.0
  0
VERTEX
  5
1972
100
AcDbEntity
  8
ALPHA
100
AcDbVertex
100
AcDb2dVertex
 10
12.206245
 20
2.882839
 30
0.0
  0
VERTEX
  5
1973
100
AcDbEntity
  8
ALPHA
100
AcDbVertex
100
AcDb2dVertex
 10
11.000461
 20
4.038669
 30
0.0
  0
SEQEND
  5
1974
100
AcDbEntity
  8
ALPHA
  0
POLYLINE
  5
1975
100
AcDbEntity
  8
ALPHA
100
AcDb2dPolyline
 66
     1
 10
0.0
 20
0.0
 30
0.0
  0
VERTEX
  5
1976
100
AcDbEntity
  8
ALPHA
100
AcDbVertex
100
AcDb2dVertex
 10
10.173638
 20
4.814504
 30
0.0
  0
VERTEX
  5
1977
100
AcDbEntity
  8
ALPHA
100
AcDbVertex
100
AcDb2dVertex
 10
10.197582
 20
4.793145
 30
0.0
  0
SEQEND
  5
1978
100
AcDbEntity
  8
ALPHA
  0
POLYLINE
  5
1979
100
AcDbEntity
  8
ALPHA
100
AcDb2dPolyline
 66
     1
 10
0.0
 20
0.0
 30
0.0
  0
VERTEX
  5
197A
100
AcDbEntity
  8
ALPHA
100
AcDbVertex
100
AcDb2dVertex
 10
10.197582
 20
4.793145
 30
0.0
  0
VERTEX
  5
197B
100
AcDbEntity
  8
ALPHA
100
AcDbVertex
100
AcDb2dVertex
 10
9.096185
 20
5.89592
 30
0.0
  0
SEQEND
  5
197C
100
AcDbEntity
  8
ALPHA
  0
POLYLINE
  5
197D
100
AcDbEntity
  8
ALPHA
100
AcDb2dPolyline
 66
     1
 10
0.0
 20
0.0
 30
0.0
  0
VERTEX
  5
197E
100
AcDbEntity
  8
ALPHA
100
AcDbVertex
100
AcDb2dVertex
 10
10.908305
 20
5.601709
 30
0.0
  0
VERTEX
  5
197F
100
AcDbEntity
  8
ALPHA
100
AcDbVertex
100
AcDb2dVertex
 10
10.951541
 20
5.592407
 30
0.0
  0
SEQEND
  5
1980
100
AcDbEntity
  8
ALPHA
  0
POLYLINE
  5
1981
100
AcDbEntity
  8
ALPHA
100
AcDb2dPolyline
 66
     1
 10
0.0
 20
0.0
 30
0.0
  0
VERTEX
  5
1982
100
AcDbEntity
  8
ALPHA
100
AcDbVertex
100
AcDb2dVertex
 10
11.68638
 20
4.872382
 30
0.0
  0
VERTEX
  5
1983
100
AcDbEntity
  8
ALPHA
100
AcDbVertex
100
AcDb2dVertex
 10
12.899398
 20
3.659364
 30
0.0
  0
SEQEND
  5
1984
100
AcDbEntity
  8
ALPHA
  0
POLYLINE
  5
1985
100
AcDbEntity
  8
ALPHA
100
AcDb2dPolyline
 66
     1
 10
0.0
 20
0.0
 30
0.0
  0
VERTEX
  5
1986
100
AcDbEntity
  8
ALPHA
100
AcDbVertex
100
AcDb2dVertex
 10
12.899398
 20
3.659364
 30
0.0
  0
VERTEX
  5
1987
100
AcDbEntity
  8
ALPHA
100
AcDbVertex
100
AcDb2dVertex
 10
12.206245
 20
2.882839
 30
0.0
  0
SEQEND
  5
1988
100
AcDbEntity
  8
ALPHA
  0
POLYLINE
  5
1989
100
AcDbEntity
  8
ALPHA
100
AcDb2dPolyline
 66
     1
 10
0.0
 20
0.0
 30
0.0
  0
VERTEX
  5
198A
100
AcDbEntity
  8
ALPHA
100
AcDbVertex
100
AcDb2dVertex
 10
0.006817
 20
12.228694
 30
0.0
  0
VERTEX
  5
198B
100
AcDbEntity
  8
ALPHA
100
AcDbVertex
100
AcDb2dVertex
 10
-0.096364
 20
11.738802
 30
0.0
  0
VERTEX
  5
198C
100
AcDbEntity
  8
ALPHA
100
AcDbVertex
100
AcDb2dVertex
 10
-0.085681
 20
11.52749
 30
0.0
  0
VERTEX
  5
198D
100
AcDbEntity
  8
ALPHA
100
AcDbVertex
100
AcDb2dVertex
 10
-0.054326
 20
11.322258
 30
0.0
  0
VERTEX
  5
198E
100
AcDbEntity
  8
ALPHA
100
AcDbVertex
100
AcDb2dVertex
 10
-0.00334
 20
11.124149
 30
0.0
  0
VERTEX
  5
198F
100
AcDbEntity
  8
ALPHA
100
AcDbVertex
100
AcDb2dVertex
 10
0.066237
 20
10.934205
 30
0.0
  0
VERTEX
  5
1990
100
AcDbEntity
  8
ALPHA
100
AcDbVertex
100
AcDb2dVertex
 10
0.153365
 20
10.753468
 30
0.0
  0
VERTEX
  5
1991
100
AcDbEntity
  8
ALPHA
100
AcDbVertex
100
AcDb2dVertex
 10
0.257003
 20
10.58298
 30
0.0
  0
VERTEX
  5
1992
100
AcDbEntity
  8
ALPHA
100
AcDbVertex
100
AcDb2dVertex
 10
0.376112
 20
10.423783
 30
0.0
  0
VERTEX
  5
1993
100
AcDbEntity
  8
ALPHA
100
AcDbVertex
100
AcDb2dVertex
 10
0.50965
 20
10.276919
 30
0.0
  0
VERTEX
  5
1994
100
AcDbEntity
  8
ALPHA
100
AcDbVertex
100
AcDb2dVertex
 10
0.656578
 20
10.14343
 30
0.0
  0
VERTEX
  5
1995
100
AcDbEntity
  8
ALPHA
100
AcDbVertex
100
AcDb2dVertex
 10
0.815855
 20
10.024359
 30
0.0
  0
VERTEX
  5
1996
100
AcDbEntity
  8
ALPHA
100
AcDbVertex
100
AcDb2dVertex
 10
0.986441
 20
9.920747
 30
0.0
  0
VERTEX
  5
1997
100
AcDbEntity
  8
ALPHA
100
AcDbVertex
100
AcDb2dVertex
 10
1.167295
 20
9.833637
 30
0.0
  0
VERTEX
  5
1998
100
AcDbEntity
  8
ALPHA
100
AcDbVertex
100
AcDb2dVertex
 10
1.357377
 20
9.764071
 30
0.0
  0
VERTEX
  5
1999
100
AcDbEntity
  8
ALPHA
100
AcDbVertex
100
AcDb2dVertex
 10
1.555647
 20
9.71309
 30
0.0
  0
VERTEX
  5
199A
100
AcDbEntity
  8
ALPHA
100
AcDbVertex
100
AcDb2dVertex
 10
1.761064
 20
9.681738
 30
0.0
  0
VERTEX
  5
199B
100
AcDbEntity
  8
ALPHA
100
AcDbVertex
100
AcDb2dVertex
 10
1.972589
 20
9.671056
 30
0.0
  0
VERTEX
  5
199C
100
AcDbEntity
  8
ALPHA
100
AcDbVertex
100
AcDb2dVertex
 10
2.411838
 20
9.697927
 30
0.0
  0
SEQEND
  5
199D
100
AcDbEntity
  8
ALPHA
  0
POLYLINE
  5
199E
100
AcDbEntity
  8
ALPHA
100
AcDb2dPolyline
 66
     1
 10
0.0
 20
0.0
 30
0.0
  0
VERTEX
  5
199F
100
AcDbEntity
  8
ALPHA
100
AcDbVertex
100
AcDb2dVertex
 10
1.972589
 20
10.24053
 30
0.0
  0
VERTEX
  5
19A0
100
AcDbEntity
  8
ALPHA
100
AcDbVertex
100
AcDb2dVertex
 10
2.125982
 20
10.248261
 30
0.0
  0
VERTEX
  5
19A1
100
AcDbEntity
  8
ALPHA
100
AcDbVertex
100
AcDb2dVertex
 10
2.274954
 20
10.270954
 30
0.0
  0
VERTEX
  5
19A2
100
AcDbEntity
  8
ALPHA
100
AcDbVertex
100
AcDb2dVertex
 10
2.41875
 20
10.307856
 30
0.0
  0
VERTEX
  5
19A3
100
AcDbEntity
  8
ALPHA
100
AcDbVertex
100
AcDb2dVertex
 10
2.556613
 20
10.358217
 30
0.0
  0
VERTEX
  5
19A4
100
AcDbEntity
  8
ALPHA
100
AcDbVertex
100
AcDb2dVertex
 10
2.687789
 20
10.421286
 30
0.0
  0
VERTEX
  5
19A5
100
AcDbEntity
  8
ALPHA
100
AcDbVertex
100
AcDb2dVertex
 10
2.811521
 20
10.49631
 30
0.0
  0
VERTEX
  5
19A6
100
AcDbEntity
  8
ALPHA
100
AcDbVertex
100
AcDb2dVertex
 10
2.927055
 20
10.582538
 30
0.0
  0
VERTEX
  5
19A7
100
AcDbEntity
  8
ALPHA
100
AcDbVertex
100
AcDb2dVertex
 10
3.033635
 20
10.67922
 30
0.0
  0
VERTEX
  5
19A8
100
AcDbEntity
  8
ALPHA
100
AcDbVertex
100
AcDb2dVertex
 10
3.130505
 20
10.785602
 30
0.0
  0
VERTEX
  5
19A9
100
AcDbEntity
  8
ALPHA
100
AcDbVertex
100
AcDb2dVertex
 10
3.216911
 20
10.900935
 30
0.0
  0
VERTEX
  5
19AA
100
AcDbEntity
  8
ALPHA
100
AcDbVertex
100
AcDb2dVertex
 10
3.292096
 20
11.024466
 30
0.0
  0
VERTEX
  5
19AB
100
AcDbEntity
  8
ALPHA
100
AcDbVertex
100
AcDb2dVertex
 10
3.355305
 20
11.155445
 30
0.0
  0
VERTEX
  5
19AC
100
AcDbEntity
  8
ALPHA
100
AcDbVertex
100
AcDb2dVertex
 10
3.405782
 20
11.293119
 30
0.0
  0
VERTEX
  5
19AD
100
AcDbEntity
  8
ALPHA
100
AcDbVertex
100
AcDb2dVertex
 10
3.442773
 20
11.436738
 30
0.0
  0
VERTEX
  5
19AE
100
AcDbEntity
  8
ALPHA
100
AcDbVertex
100
AcDb2dVertex
 10
3.465521
 20
11.585549
 30
0.0
  0
VERTEX
  5
19AF
100
AcDbEntity
  8
ALPHA
100
AcDbVertex
100
AcDb2dVertex
 10
3.473272
 20
11.738802
 30
0.0
  0
VERTEX
  5
19B0
100
AcDbEntity
  8
ALPHA
100
AcDbVertex
100
AcDb2dVertex
 10
3.465521
 20
11.892297
 30
0.0
  0
VERTEX
  5
19B1
100
AcDbEntity
  8
ALPHA
100
AcDbVertex
100
AcDb2dVertex
 10
3.442773
 20
12.041321
 30
0.0
  0
VERTEX
  5
19B2
100
AcDbEntity
  8
ALPHA
100
AcDbVertex
100
AcDb2dVertex
 10
3.405782
 20
12.185123
 30
0.0
  0
VERTEX
  5
19B3
100
AcDbEntity
  8
ALPHA
100
AcDbVertex
100
AcDb2dVertex
 10
3.355305
 20
12.322955
 30
0.0
  0
VERTEX
  5
19B4
100
AcDbEntity
  8
ALPHA
100
AcDbVertex
100
AcDb2dVertex
 10
3.292096
 20
12.454067
 30
0.0
  0
VERTEX
  5
19B5
100
AcDbEntity
  8
ALPHA
100
AcDbVertex
100
AcDb2dVertex
 10
3.216911
 20
12.57771
 30
0.0
  0
VERTEX
  5
19B6
100
AcDbEntity
  8
ALPHA
100
AcDbVertex
100
AcDb2dVertex
 10
3.130505
 20
12.693134
 30
0.0
  0
VERTEX
  5
19B7
100
AcDbEntity
  8
ALPHA
100
AcDbVertex
100
AcDb2dVertex
 10
3.033635
 20
12.79959
 30
0.0
  0
VERTEX
  5
19B8
100
AcDbEntity
  8
ALPHA
100
AcDbVertex
100
AcDb2dVertex
 10
2.927055
 20
12.896328
 30
0.0
  0
VERTEX
  5
19B9
100
AcDbEntity
  8
ALPHA
100
AcDbVertex
100
AcDb2dVertex
 10
2.811521
 20
12.982599
 30
0.0
  0
VERTEX
  5
19BA
100
AcDbEntity
  8
ALPHA
100
AcDbVertex
100
AcDb2dVertex
 10
2.687789
 20
13.057654
 30
0.0
  0
VERTEX
  5
19BB
100
AcDbEntity
  8
ALPHA
100
AcDbVertex
100
AcDb2dVertex
 10
2.556613
 20
13.120743
 30
0.0
  0
VERTEX
  5
19BC
100
AcDbEntity
  8
ALPHA
100
AcDbVertex
100
AcDb2dVertex
 10
2.41875
 20
13.171116
 30
0.0
  0
VERTEX
  5
19BD
100
AcDbEntity
  8
ALPHA
100
AcDbVertex
100
AcDb2dVertex
 10
2.274954
 20
13.208025
 30
0.0
  0
VERTEX
  5
19BE
100
AcDbEntity
  8
ALPHA
100
AcDbVertex
100
AcDb2dVertex
 10
2.125982
 20
13.23072
 30
0.0
  0
VERTEX
  5
19BF
100
AcDbEntity
  8
ALPHA
100
AcDbVertex
100
AcDb2dVertex
 10
1.972589
 20
13.238452
 30
0.0
  0
VERTEX
  5
19C0
100
AcDbEntity
  8
ALPHA
100
AcDbVertex
100
AcDb2dVertex
 10
1.819231
 20
13.23072
 30
0.0
  0
VERTEX
  5
19C1
100
AcDbEntity
  8
ALPHA
100
AcDbVertex
100
AcDb2dVertex
 10
1.670302
 20
13.208025
 30
0.0
  0
VERTEX
  5
19C2
100
AcDbEntity
  8
ALPHA
100
AcDbVertex
100
AcDb2dVertex
 10
1.526555
 20
13.171116
 30
0.0
  0
VERTEX
  5
19C3
100
AcDbEntity
  8
ALPHA
100
AcDbVertex
100
AcDb2dVertex
 10
1.388744
 20
13.120743
 30
0.0
  0
VERTEX
  5
19C4
100
AcDbEntity
  8
ALPHA
100
AcDbVertex
100
AcDb2dVertex
 10
1.257625
 20
13.057654
 30
0.0
  0
VERTEX
  5
19C5
100
AcDbEntity
  8
ALPHA
100
AcDbVertex
100
AcDb2dVertex
 10
1.13395
 20
12.982599
 30
0.0
  0
VERTEX
  5
19C6
100
AcDbEntity
  8
ALPHA
100
AcDbVertex
100
AcDb2dVertex
 10
1.018474
 20
12.896328
 30
0.0
  0
VERTEX
  5
19C7
100
AcDbEntity
  8
ALPHA
100
AcDbVertex
100
AcDb2dVertex
 10
0.911951
 20
12.79959
 30
0.0
  0
VERTEX
  5
19C8
100
AcDbEntity
  8
ALPHA
100
AcDbVertex
100
AcDb2dVertex
 10
0.815136
 20
12.693134
 30
0.0
  0
VERTEX
  5
19C9
100
AcDbEntity
  8
ALPHA
100
AcDbVertex
100
AcDb2dVertex
 10
0.728783
 20
12.57771
 30
0.0
  0
VERTEX
  5
19CA
100
AcDbEntity
  8
ALPHA
100
AcDbVertex
100
AcDb2dVertex
 10
0.653645
 20
12.454067
 30
0.0
  0
VERTEX
  5
19CB
100
AcDbEntity
  8
ALPHA
100
AcDbVertex
100
AcDb2dVertex
 10
0.590478
 20
12.322955
 30
0.0
  0
VERTEX
  5
19CC
100
AcDbEntity
  8
ALPHA
100
AcDbVertex
100
AcDb2dVertex
 10
0.540035
 20
12.185123
 30
0.0
  0
VERTEX
  5
19CD
100
AcDbEntity
  8
ALPHA
100
AcDbVertex
100
AcDb2dVertex
 10
0.503071
 20
12.041321
 30
0.0
  0
VERTEX
  5
19CE
100
AcDbEntity
  8
ALPHA
100
AcDbVertex
100
AcDb2dVertex
 10
0.480339
 20
11.892297
 30
0.0
  0
VERTEX
  5
19CF
100
AcDbEntity
  8
ALPHA
100
AcDbVertex
100
AcDb2dVertex
 10
0.472594
 20
11.738802
 30
0.0
  0
VERTEX
  5
19D0
100
AcDbEntity
  8
ALPHA
100
AcDbVertex
100
AcDb2dVertex
 10
0.480339
 20
11.585549
 30
0.0
  0
VERTEX
  5
19D1
100
AcDbEntity
  8
ALPHA
100
AcDbVertex
100
AcDb2dVertex
 10
0.503071
 20
11.436738
 30
0.0
  0
VERTEX
  5
19D2
100
AcDbEntity
  8
ALPHA
100
AcDbVertex
100
AcDb2dVertex
 10
0.540035
 20
11.293119
 30
0.0
  0
VERTEX
  5
19D3
100
AcDbEntity
  8
ALPHA
100
AcDbVertex
100
AcDb2dVertex
 10
0.590478
 20
11.155445
 30
0.0
  0
VERTEX
  5
19D4
100
AcDbEntity
  8
ALPHA
100
AcDbVertex
100
AcDb2dVertex
 10
0.653645
 20
11.024466
 30
0.0
  0
VERTEX
  5
19D5
100
AcDbEntity
  8
ALPHA
100
AcDbVertex
100
AcDb2dVertex
 10
0.728783
 20
10.900935
 30
0.0
  0
VERTEX
  5
19D6
100
AcDbEntity
  8
ALPHA
100
AcDbVertex
100
AcDb2dVertex
 10
0.815136
 20
10.785602
 30
0.0
  0
VERTEX
  5
19D7
100
AcDbEntity
  8
ALPHA
100
AcDbVertex
100
AcDb2dVertex
 10
0.911951
 20
10.67922
 30
0.0
  0
VERTEX
  5
19D8
100
AcDbEntity
  8
ALPHA
100
AcDbVertex
100
AcDb2dVertex
 10
1.018474
 20
10.582538
 30
0.0
  0
VERTEX
  5
19D9
100
AcDbEntity
  8
ALPHA
100
AcDbVertex
100
AcDb2dVertex
 10
1.13395
 20
10.49631
 30
0.0
  0
VERTEX
  5
19DA
100
AcDbEntity
  8
ALPHA
100
AcDbVertex
100
AcDb2dVertex
 10
1.257625
 20
10.421286
 30
0.0
  0
VERTEX
  5
19DB
100
AcDbEntity
  8
ALPHA
100
AcDbVertex
100
AcDb2dVertex
 10
1.388744
 20
10.358217
 30
0.0
  0
VERTEX
  5
19DC
100
AcDbEntity
  8
ALPHA
100
AcDbVertex
100
AcDb2dVertex
 10
1.526555
 20
10.307856
 30
0.0
  0
VERTEX
  5
19DD
100
AcDbEntity
  8
ALPHA
100
AcDbVertex
100
AcDb2dVertex
 10
1.670302
 20
10.270954
 30
0.0
  0
VERTEX
  5
19DE
100
AcDbEntity
  8
ALPHA
100
AcDbVertex
100
AcDb2dVertex
 10
1.819231
 20
10.248261
 30
0.0
  0
VERTEX
  5
19DF
100
AcDbEntity
  8
ALPHA
100
AcDbVertex
100
AcDb2dVertex
 10
1.972589
 20
10.24053
 30
0.0
  0
SEQEND
  5
19E0
100
AcDbEntity
  8
ALPHA
  0
POLYLINE
  5
19E1
100
AcDbEntity
  8
ALPHA
100
AcDb2dPolyline
 66
     1
 10
0.0
 20
0.0
 30
0.0
  0
VERTEX
  5
19E2
100
AcDbEntity
  8
ALPHA
100
AcDbVertex
100
AcDb2dVertex
 10
2.60907
 20
8.779465
 30
0.0
  0
VERTEX
  5
19E3
100
AcDbEntity
  8
ALPHA
100
AcDbVertex
100
AcDb2dVertex
 10
1.972589
 20
8.738813
 30
0.0
  0
VERTEX
  5
19E4
100
AcDbEntity
  8
ALPHA
100
AcDbVertex
100
AcDb2dVertex
 10
1.665906
 20
8.754302
 30
0.0
  0
VERTEX
  5
19E5
100
AcDbEntity
  8
ALPHA
100
AcDbVertex
100
AcDb2dVertex
 10
1.36808
 20
8.799766
 30
0.0
  0
VERTEX
  5
19E6
100
AcDbEntity
  8
ALPHA
100
AcDbVertex
100
AcDb2dVertex
 10
1.080617
 20
8.873695
 30
0.0
  0
VERTEX
  5
19E7
100
AcDbEntity
  8
ALPHA
100
AcDbVertex
100
AcDb2dVertex
 10
0.805027
 20
8.974581
 30
0.0
  0
VERTEX
  5
19E8
100
AcDbEntity
  8
ALPHA
100
AcDbVertex
100
AcDb2dVertex
 10
0.542817
 20
9.100916
 30
0.0
  0
VERTEX
  5
19E9
100
AcDbEntity
  8
ALPHA
100
AcDbVertex
100
AcDb2dVertex
 10
0.295496
 20
9.251191
 30
0.0
  0
VERTEX
  5
19EA
100
AcDbEntity
  8
ALPHA
100
AcDbVertex
100
AcDb2dVertex
 10
0.064571
 20
9.423897
 30
0.0
  0
VERTEX
  5
19EB
100
AcDbEntity
  8
ALPHA
100
AcDbVertex
100
AcDb2dVertex
 10
-0.148449
 20
9.617527
 30
0.0
  0
VERTEX
  5
19EC
100
AcDbEntity
  8
ALPHA
100
AcDbVertex
100
AcDb2dVertex
 10
-0.342056
 20
9.830572
 30
0.0
  0
VERTEX
  5
19ED
100
AcDbEntity
  8
ALPHA
100
AcDbVertex
100
AcDb2dVertex
 10
-0.514742
 20
10.061524
 30
0.0
  0
VERTEX
  5
19EE
100
AcDbEntity
  8
ALPHA
100
AcDbVertex
100
AcDb2dVertex
 10
-0.664998
 20
10.308874
 30
0.0
  0
VERTEX
  5
19EF
100
AcDbEntity
  8
ALPHA
100
AcDbVertex
100
AcDb2dVertex
 10
-0.791317
 20
10.571114
 30
0.0
  0
VERTEX
  5
19F0
100
AcDbEntity
  8
ALPHA
100
AcDbVertex
100
AcDb2dVertex
 10
-0.892191
 20
10.846735
 30
0.0
  0
VERTEX
  5
19F1
100
AcDbEntity
  8
ALPHA
100
AcDbVertex
100
AcDb2dVertex
 10
-0.966111
 20
11.134229
 30
0.0
  0
VERTEX
  5
19F2
100
AcDbEntity
  8
ALPHA
100
AcDbVertex
100
AcDb2dVertex
 10
-1.011568
 20
11.432087
 30
0.0
  0
VERTEX
  5
19F3
100
AcDbEntity
  8
ALPHA
100
AcDbVertex
100
AcDb2dVertex
 10
-1.027056
 20
11.738802
 30
0.0
  0
VERTEX
  5
19F4
100
AcDbEntity
  8
ALPHA
100
AcDbVertex
100
AcDb2dVertex
 10
-1.011903
 20
11.922431
 30
0.0
  0
VERTEX
  5
19F5
100
AcDbEntity
  8
ALPHA
100
AcDbVertex
100
AcDb2dVertex
 10
-0.974174
 20
12.099374
 30
0.0
  0
VERTEX
  5
19F6
100
AcDbEntity
  8
ALPHA
100
AcDbVertex
100
AcDb2dVertex
 10
-0.877367
 20
12.446769
 30
0.0
  0
SEQEND
  5
19F7
100
AcDbEntity
  8
ALPHA
  0
POLYLINE
  5
19F8
100
AcDbEntity
  8
ALPHA
100
AcDb3dPolyline
 66
     1
 10
0.0
 20
0.0
 30
0.0
 70
     8
  0
VERTEX
  5
19F9
100
AcDbEntity
  8
ALPHA
100
AcDbVertex
100
AcDb3dPolylineVertex
 10
2.60907
 20
8.779465
 30
0.0
 70
    32
  0
VERTEX
  5
19FA
100
AcDbEntity
  8
ALPHA
100
AcDbVertex
100
AcDb3dPolylineVertex
 10
2.60907
 20
8.779465
 30
0.0
 70
    32
  0
SEQEND
  5
19FB
100
AcDbEntity
  8
ALPHA
  0
POLYLINE
  5
19FC
100
AcDbEntity
  8
ALPHA
100
AcDb3dPolyline
 66
     1
 10
0.0
 20
0.0
 30
0.0
 70
     8
  0
VERTEX
  5
19FD
100
AcDbEntity
  8
ALPHA
100
AcDbVertex
100
AcDb3dPolylineVertex
 10
1.972589
 20
10.24053
 30
0.0
 70
    32
  0
VERTEX
  5
19FE
100
AcDbEntity
  8
ALPHA
100
AcDbVertex
100
AcDb3dPolylineVertex
 10
1.972589
 20
10.24053
 30
0.0
 70
    32
  0
SEQEND
  5
19FF
100
AcDbEntity
  8
ALPHA
  0
POLYLINE
  5
1A00
100
AcDbEntity
  8
ALPHA
100
AcDb3dPolyline
 66
     1
 10
0.0
 20
0.0
 30
0.0
 70
     8
  0
VERTEX
  5
1A01
100
AcDbEntity
  8
ALPHA
100
AcDbVertex
100
AcDb3dPolylineVertex
 10
8.974056
 20
17.315378
 30
0.0
 70
    32
  0
VERTEX
  5
1A02
100
AcDbEntity
  8
ALPHA
100
AcDbVertex
100
AcDb3dPolylineVertex
 10
8.974056
 20
17.315378
 30
0.0
 70
    32
  0
SEQEND
  5
1A03
100
AcDbEntity
  8
ALPHA
  0
POLYLINE
  5
1A04
100
AcDbEntity
  8
ALPHA
100
AcDb2dPolyline
 66
     1
 10
0.0
 20
0.0
 30
0.0
  0
VERTEX
  5
1A05
100
AcDbEntity
  8
ALPHA
100
AcDbVertex
100
AcDb2dVertex
 10
8.974056
 20
29.747005
 30
0.0
  0
VERTEX
  5
1A06
100
AcDbEntity
  8
ALPHA
100
AcDbVertex
100
AcDb2dVertex
 10
8.974056
 20
34.2494
 30
0.0
  0
SEQEND
  5
1A07
100
AcDbEntity
  8
ALPHA
  0
POLYLINE
  5
1A08
100
AcDbEntity
  8
ALPHA
100
AcDb2dPolyline
 66
     1
 10
0.0
 20
0.0
 30
0.0
  0
VERTEX
  5
1A09
100
AcDbEntity
  8
ALPHA
100
AcDbVertex
100
AcDb2dVertex
 10
5.941855
 20
21.739914
 30
0.0
  0
VERTEX
  5
1A0A
100
AcDbEntity
  8
ALPHA
100
AcDbVertex
100
AcDb2dVertex
 10
8.974056
 20
21.739914
 30
0.0
  0
SEQEND
  5
1A0B
100
AcDbEntity
  8
ALPHA
  0
POLYLINE
  5
1A0C
100
AcDbEntity
  8
ALPHA
100
AcDb2dPolyline
 66
     1
 10
0.0
 20
0.0
 30
0.0
  0
VERTEX
  5
1A0D
100
AcDbEntity
  8
ALPHA
100
AcDbVertex
100
AcDb2dVertex
 10
8.974056
 20
21.739914
 30
0.0
  0
VERTEX
  5
1A0E
100
AcDbEntity
  8
ALPHA
100
AcDbVertex
100
AcDb2dVertex
 10
9.280678
 20
21.724428
 30
0.0
  0
VERTEX
  5
1A0F
100
AcDbEntity
  8
ALPHA
100
AcDbVertex
100
AcDb2dVertex
 10
9.578451
 20
21.678976
 30
0.0
  0
VERTEX
  5
1A10
100
AcDbEntity
  8
ALPHA
100
AcDbVertex
100
AcDb2dVertex
 10
9.865868
 20
21.605064
 30
0.0
  0
VERTEX
  5
1A11
100
AcDbEntity
  8
ALPHA
100
AcDbVertex
100
AcDb2dVertex
 10
10.141419
 20
21.5042
 30
0.0
  0
VERTEX
  5
1A12
100
AcDbEntity
  8
ALPHA
100
AcDbVertex
100
AcDb2dVertex
 10
10.403595
 20
21.377891
 30
0.0
  0
VERTEX
  5
1A13
100
AcDbEntity
  8
ALPHA
100
AcDbVertex
100
AcDb2dVertex
 10
10.650889
 20
21.227645
 30
0.0
  0
VERTEX
  5
1A14
100
AcDbEntity
  8
ALPHA
100
AcDbVertex
100
AcDb2dVertex
 10
10.881791
 20
21.05497
 30
0.0
  0
VERTEX
  5
1A15
100
AcDbEntity
  8
ALPHA
100
AcDbVertex
100
AcDb2dVertex
 10
11.094792
 20
20.861372
 30
0.0
  0
VERTEX
  5
1A16
100
AcDbEntity
  8
ALPHA
100
AcDbVertex
100
AcDb2dVertex
 10
11.288385
 20
20.648359
 30
0.0
  0
VERTEX
  5
1A17
100
AcDbEntity
  8
ALPHA
100
AcDbVertex
100
AcDb2dVertex
 10
11.46106
 20
20.417438
 30
0.0
  0
VERTEX
  5
1A18
100
AcDbEntity
  8
ALPHA
100
AcDbVertex
100
AcDb2dVertex
 10
11.611309
 20
20.170117
 30
0.0
  0
VERTEX
  5
1A19
100
AcDbEntity
  8
ALPHA
100
AcDbVertex
100
AcDb2dVertex
 10
11.737623
 20
19.907904
 30
0.0
  0
VERTEX
  5
1A1A
100
AcDbEntity
  8
ALPHA
100
AcDbVertex
100
AcDb2dVertex
 10
11.838493
 20
19.632305
 30
0.0
  0
VERTEX
  5
1A1B
100
AcDbEntity
  8
ALPHA
100
AcDbVertex
100
AcDb2dVertex
 10
11.912411
 20
19.344828
 30
0.0
  0
VERTEX
  5
1A1C
100
AcDbEntity
  8
ALPHA
100
AcDbVertex
100
AcDb2dVertex
 10
11.957869
 20
19.04698
 30
0.0
  0
VERTEX
  5
1A1D
100
AcDbEntity
  8
ALPHA
100
AcDbVertex
100
AcDb2dVertex
 10
11.973356
 20
18.740269
 30
0.0
  0
SEQEND
  5
1A1E
100
AcDbEntity
  8
ALPHA
  0
POLYLINE
  5
1A1F
100
AcDbEntity
  8
ALPHA
100
AcDb2dPolyline
 66
     1
 10
0.0
 20
0.0
 30
0.0
  0
VERTEX
  5
1A20
100
AcDbEntity
  8
ALPHA
100
AcDbVertex
100
AcDb2dVertex
 10
8.974056
 20
38.229175
 30
0.0
  0
VERTEX
  5
1A21
100
AcDbEntity
  8
ALPHA
100
AcDbVertex
100
AcDb2dVertex
 10
8.974056
 20
42.73157
 30
0.0
  0
SEQEND
  5
1A22
100
AcDbEntity
  8
ALPHA
  0
POLYLINE
  5
1A23
100
AcDbEntity
  8
ALPHA
100
AcDb2dPolyline
 66
     1
 10
0.0
 20
0.0
 30
0.0
  0
VERTEX
  5
1A24
100
AcDbEntity
  8
ALPHA
100
AcDbVertex
100
AcDb2dVertex
 10
10.197582
 20
67.921591
 30
0.0
  0
VERTEX
  5
1A25
100
AcDbEntity
  8
ALPHA
100
AcDbVertex
100
AcDb2dVertex
 10
9.096185
 20
69.023333
 30
0.0
  0
SEQEND
  5
1A26
100
AcDbEntity
  8
ALPHA
  0
POLYLINE
  5
1A27
100
AcDbEntity
  8
ALPHA
100
AcDb2dPolyline
 66
     1
 10
0.0
 20
0.0
 30
0.0
  0
VERTEX
  5
1A28
100
AcDbEntity
  8
ALPHA
100
AcDbVertex
100
AcDb2dVertex
 10
4.474072
 20
62.553271
 30
0.0
  0
VERTEX
  5
1A29
100
AcDbEntity
  8
ALPHA
100
AcDbVertex
100
AcDb2dVertex
 10
4.474072
 20
70.107849
 30
0.0
  0
SEQEND
  5
1A2A
100
AcDbEntity
  8
ALPHA
  0
POLYLINE
  5
1A2B
100
AcDbEntity
  8
ALPHA
100
AcDb2dPolyline
 66
     1
 10
0.0
 20
0.0
 30
0.0
  0
VERTEX
  5
1A2C
100
AcDbEntity
  8
ALPHA
100
AcDbVertex
100
AcDb2dVertex
 10
6.45104
 20
61.032606
 30
0.0
  0
VERTEX
  5
1A2D
100
AcDbEntity
  8
ALPHA
100
AcDbVertex
100
AcDb2dVertex
 10
6.45104
 20
73.302658
 30
0.0
  0
SEQEND
  5
1A2E
100
AcDbEntity
  8
ALPHA
  0
POLYLINE
  5
1A2F
100
AcDbEntity
  8
ALPHA
100
AcDb2dPolyline
 66
     1
 10
0.0
 20
0.0
 30
0.0
  0
VERTEX
  5
1A30
100
AcDbEntity
  8
ALPHA
100
AcDbVertex
100
AcDb2dVertex
 10
11.973356
 20
53.737961
 30
0.0
  0
VERTEX
  5
1A31
100
AcDbEntity
  8
ALPHA
100
AcDbVertex
100
AcDb2dVertex
 10
11.973356
 20
56.770334
 30
0.0
  0
SEQEND
  5
1A32
100
AcDbEntity
  8
ALPHA
  0
POLYLINE
  5
1A33
100
AcDbEntity
  8
ALPHA
100
AcDb2dPolyline
 66
     1
 10
0.0
 20
0.0
 30
0.0
  0
VERTEX
  5
1A34
100
AcDbEntity
  8
ALPHA
100
AcDbVertex
100
AcDb2dVertex
 10
8.974056
 20
56.737606
 30
0.0
  0
VERTEX
  5
1A35
100
AcDbEntity
  8
ALPHA
100
AcDbVertex
100
AcDb2dVertex
 10
8.667256
 20
56.722123
 30
0.0
  0
VERTEX
  5
1A36
100
AcDbEntity
  8
ALPHA
100
AcDbVertex
100
AcDb2dVertex
 10
8.369334
 20
56.676681
 30
0.0
  0
VERTEX
  5
1A37
100
AcDbEntity
  8
ALPHA
100
AcDbVertex
100
AcDb2dVertex
 10
8.081797
 20
56.602785
 30
0.0
  0
VERTEX
  5
1A38
100
AcDbEntity
  8
ALPHA
100
AcDbVertex
100
AcDb2dVertex
 10
7.80615
 20
56.501939
 30
0.0
  0
VERTEX
  5
1A39
100
AcDbEntity
  8
ALPHA
100
AcDbVertex
100
AcDb2dVertex
 10
7.543899
 20
56.375652
 30
0.0
  0
VERTEX
  5
1A3A
100
AcDbEntity
  8
ALPHA
100
AcDbVertex
100
AcDb2dVertex
 10
7.296551
 20
56.225427
 30
0.0
  0
VERTEX
  5
1A3B
100
AcDbEntity
  8
ALPHA
100
AcDbVertex
100
AcDb2dVertex
 10
7.065612
 20
56.052772
 30
0.0
  0
VERTEX
  5
1A3C
100
AcDbEntity
  8
ALPHA
100
AcDbVertex
100
AcDb2dVertex
 10
6.852588
 20
55.859192
 30
0.0
  0
VERTEX
  5
1A3D
100
AcDbEntity
  8
ALPHA
100
AcDbVertex
100
AcDb2dVertex
 10
6.658985
 20
55.646193
 30
0.0
  0
VERTEX
  5
1A3E
100
AcDbEntity
  8
ALPHA
100
AcDbVertex
100
AcDb2dVertex
 10
6.486309
 20
55.415281
 30
0.0
  0
VERTEX
  5
1A3F
100
AcDbEntity
  8
ALPHA
100
AcDbVertex
100
AcDb2dVertex
 10
6.336066
 20
55.167961
 30
0.0
  0
VERTEX
  5
1A40
100
AcDbEntity
  8
ALPHA
100
AcDbVertex
100
AcDb2dVertex
 10
6.209763
 20
54.905741
 30
0.0
  0
VERTEX
  5
1A41
100
AcDbEntity
  8
ALPHA
100
AcDbVertex
100
AcDb2dVertex
 10
6.108905
 20
54.630124
 30
0.0
  0
VERTEX
  5
1A42
100
AcDbEntity
  8
ALPHA
100
AcDbVertex
100
AcDb2dVertex
 10
6.034999
 20
54.342618
 30
0.0
  0
VERTEX
  5
1A43
100
AcDbEntity
  8
ALPHA
100
AcDbVertex
100
AcDb2dVertex
 10
5.989551
 20
54.044728
 30
0.0
  0
VERTEX
  5
1A44
100
AcDbEntity
  8
ALPHA
100
AcDbVertex
100
AcDb2dVertex
 10
5.974067
 20
53.737961
 30
0.0
  0
SEQEND
  5
1A45
100
AcDbEntity
  8
ALPHA
  0
POLYLINE
  5
1A46
100
AcDbEntity
  8
ALPHA
100
AcDb2dPolyline
 66
     1
 10
0.0
 20
0.0
 30
0.0
  0
VERTEX
  5
1A47
100
AcDbEntity
  8
ALPHA
100
AcDbVertex
100
AcDb2dVertex
 10
5.941855
 20
50.738316
 30
0.0
  0
VERTEX
  5
1A48
100
AcDbEntity
  8
ALPHA
100
AcDbVertex
100
AcDb2dVertex
 10
8.974056
 20
50.738316
 30
0.0
  0
SEQEND
  5
1A49
100
AcDbEntity
  8
ALPHA
  0
POLYLINE
  5
1A4A
100
AcDbEntity
  8
ALPHA
100
AcDb2dPolyline
 66
     1
 10
0.0
 20
0.0
 30
0.0
  0
VERTEX
  5
1A4B
100
AcDbEntity
  8
ALPHA
100
AcDbVertex
100
AcDb2dVertex
 10
8.974056
 20
52.326161
 30
0.0
  0
VERTEX
  5
1A4C
100
AcDbEntity
  8
ALPHA
100
AcDbVertex
100
AcDb2dVertex
 10
9.118333
 20
52.333451
 30
0.0
  0
VERTEX
  5
1A4D
100
AcDbEntity
  8
ALPHA
100
AcDbVertex
100
AcDb2dVertex
 10
9.258458
 20
52.354847
 30
0.0
  0
VERTEX
  5
1A4E
100
AcDbEntity
  8
ALPHA
100
AcDbVertex
100
AcDb2dVertex
 10
9.393721
 20
52.38964
 30
0.0
  0
VERTEX
  5
1A4F
100
AcDbEntity
  8
ALPHA
100
AcDbVertex
100
AcDb2dVertex
 10
9.523409
 20
52.43712
 30
0.0
  0
VERTEX
  5
1A50
100
AcDbEntity
  8
ALPHA
100
AcDbVertex
100
AcDb2dVertex
 10
9.646811
 20
52.496576
 30
0.0
  0
VERTEX
  5
1A51
100
AcDbEntity
  8
ALPHA
100
AcDbVertex
100
AcDb2dVertex
 10
9.763216
 20
52.567298
 30
0.0
  0
VERTEX
  5
1A52
100
AcDbEntity
  8
ALPHA
100
AcDbVertex
100
AcDb2dVertex
 10
9.871911
 20
52.648577
 30
0.0
  0
VERTEX
  5
1A53
100
AcDbEntity
  8
ALPHA
100
AcDbVertex
100
AcDb2dVertex
 10
9.972186
 20
52.739701
 30
0.0
  0
VERTEX
  5
1A54
100
AcDbEntity
  8
ALPHA
100
AcDbVertex
100
AcDb2dVertex
 10
10.063329
 20
52.839963
 30
0.0
  0
VERTEX
  5
1A55
100
AcDbEntity
  8
ALPHA
100
AcDbVertex
100
AcDb2dVertex
 10
10.144628
 20
52.94865
 30
0.0
  0
VERTEX
  5
1A56
100
AcDbEntity
  8
ALPHA
100
AcDbVertex
100
AcDb2dVertex
 10
10.215372
 20
53.065053
 30
0.0
  0
VERTEX
  5
1A57
100
AcDbEntity
  8
ALPHA
100
AcDbVertex
100
AcDb2dVertex
 10
10.274849
 20
53.188463
 30
0.0
  0
VERTEX
  5
1A58
100
AcDbEntity
  8
ALPHA
100
AcDbVertex
100
AcDb2dVertex
 10
10.322347
 20
53.318168
 30
0.0
  0
VERTEX
  5
1A59
100
AcDbEntity
  8
ALPHA
100
AcDbVertex
100
AcDb2dVertex
 10
10.357156
 20
53.45346
 30
0.0
  0
VERTEX
  5
1A5A
100
AcDbEntity
  8
ALPHA
100
AcDbVertex
100
AcDb2dVertex
 10
10.378562
 20
53.593627
 30
0.0
  0
VERTEX
  5
1A5B
100
AcDbEntity
  8
ALPHA
100
AcDbVertex
100
AcDb2dVertex
 10
10.385856
 20
53.737961
 30
0.0
  0
VERTEX
  5
1A5C
100
AcDbEntity
  8
ALPHA
100
AcDbVertex
100
AcDb2dVertex
 10
10.378562
 20
53.882351
 30
0.0
  0
VERTEX
  5
1A5D
100
AcDbEntity
  8
ALPHA
100
AcDbVertex
100
AcDb2dVertex
 10
10.357156
 20
54.022561
 30
0.0
  0
VERTEX
  5
1A5E
100
AcDbEntity
  8
ALPHA
100
AcDbVertex
100
AcDb2dVertex
 10
10.322347
 20
54.157881
 30
0.0
  0
VERTEX
  5
1A5F
100
AcDbEntity
  8
ALPHA
100
AcDbVertex
100
AcDb2dVertex
 10
10.274849
 20
54.287604
 30
0.0
  0
VERTEX
  5
1A60
100
AcDbEntity
  8
ALPHA
100
AcDbVertex
100
AcDb2dVertex
 10
10.215372
 20
54.411021
 30
0.0
  0
VERTEX
  5
1A61
100
AcDbEntity
  8
ALPHA
100
AcDbVertex
100
AcDb2dVertex
 10
10.144628
 20
54.527423
 30
0.0
  0
VERTEX
  5
1A62
100
AcDbEntity
  8
ALPHA
100
AcDbVertex
100
AcDb2dVertex
 10
10.063329
 20
54.636102
 30
0.0
  0
VERTEX
  5
1A63
100
AcDbEntity
  8
ALPHA
100
AcDbVertex
100
AcDb2dVertex
 10
9.972186
 20
54.73635
 30
0.0
  0
VERTEX
  5
1A64
100
AcDbEntity
  8
ALPHA
100
AcDbVertex
100
AcDb2dVertex
 10
9.871911
 20
54.827457
 30
0.0
  0
VERTEX
  5
1A65
100
AcDbEntity
  8
ALPHA
100
AcDbVertex
100
AcDb2dVertex
 10
9.763216
 20
54.908715
 30
0.0
  0
VERTEX
  5
1A66
100
AcDbEntity
  8
ALPHA
100
AcDbVertex
100
AcDb2dVertex
 10
9.646811
 20
54.979416
 30
0.0
  0
VERTEX
  5
1A67
100
AcDbEntity
  8
ALPHA
100
AcDbVertex
100
AcDb2dVertex
 10
9.523409
 20
55.03885
 30
0.0
  0
VERTEX
  5
1A68
100
AcDbEntity
  8
ALPHA
100
AcDbVertex
100
AcDb2dVertex
 10
9.393721
 20
55.086311
 30
0.0
  0
VERTEX
  5
1A69
100
AcDbEntity
  8
ALPHA
100
AcDbVertex
100
AcDb2dVertex
 10
9.258458
 20
55.121089
 30
0.0
  0
VERTEX
  5
1A6A
100
AcDbEntity
  8
ALPHA
100
AcDbVertex
100
AcDb2dVertex
 10
9.118333
 20
55.142475
 30
0.0
  0
VERTEX
  5
1A6B
100
AcDbEntity
  8
ALPHA
100
AcDbVertex
100
AcDb2dVertex
 10
8.974056
 20
55.149761
 30
0.0
  0
VERTEX
  5
1A6C
100
AcDbEntity
  8
ALPHA
100
AcDbVertex
100
AcDb2dVertex
 10
8.829603
 20
55.142475
 30
0.0
  0
VERTEX
  5
1A6D
100
AcDbEntity
  8
ALPHA
100
AcDbVertex
100
AcDb2dVertex
 10
8.689335
 20
55.121089
 30
0.0
  0
VERTEX
  5
1A6E
100
AcDbEntity
  8
ALPHA
100
AcDbVertex
100
AcDb2dVertex
 10
8.55396
 20
55.086311
 30
0.0
  0
VERTEX
  5
1A6F
100
AcDbEntity
  8
ALPHA
100
AcDbVertex
100
AcDb2dVertex
 10
8.424187
 20
55.03885
 30
0.0
  0
VERTEX
  5
1A70
100
AcDbEntity
  8
ALPHA
100
AcDbVertex
100
AcDb2dVertex
 10
8.300723
 20
54.979416
 30
0.0
  0
VERTEX
  5
1A71
100
AcDbEntity
  8
ALPHA
100
AcDbVertex
100
AcDb2dVertex
 10
8.184279
 20
54.908715
 30
0.0
  0
VERTEX
  5
1A72
100
AcDbEntity
  8
ALPHA
100
AcDbVertex
100
AcDb2dVertex
 10
8.075561
 20
54.827457
 30
0.0
  0
VERTEX
  5
1A73
100
AcDbEntity
  8
ALPHA
100
AcDbVertex
100
AcDb2dVertex
 10
7.97528
 20
54.73635
 30
0.0
  0
VERTEX
  5
1A74
100
AcDbEntity
  8
ALPHA
100
AcDbVertex
100
AcDb2dVertex
 10
7.884143
 20
54.636102
 30
0.0
  0
VERTEX
  5
1A75
100
AcDbEntity
  8
ALPHA
100
AcDbVertex
100
AcDb2dVertex
 10
7.802858
 20
54.527423
 30
0.0
  0
VERTEX
  5
1A76
100
AcDbEntity
  8
ALPHA
100
AcDbVertex
100
AcDb2dVertex
 10
7.732135
 20
54.411021
 30
0.0
  0
VERTEX
  5
1A77
100
AcDbEntity
  8
ALPHA
100
AcDbVertex
100
AcDb2dVertex
 10
7.672682
 20
54.287604
 30
0.0
  0
VERTEX
  5
1A78
100
AcDbEntity
  8
ALPHA
100
AcDbVertex
100
AcDb2dVertex
 10
7.625207
 20
54.157881
 30
0.0
  0
VERTEX
  5
1A79
100
AcDbEntity
  8
ALPHA
100
AcDbVertex
100
AcDb2dVertex
 10
7.59042
 20
54.022561
 30
0.0
  0
VERTEX
  5
1A7A
100
AcDbEntity
  8
ALPHA
100
AcDbVertex
100
AcDb2dVertex
 10
7.569027
 20
53.882351
 30
0.0
  0
VERTEX
  5
1A7B
100
AcDbEntity
  8
ALPHA
100
AcDbVertex
100
AcDb2dVertex
 10
7.561739
 20
53.737961
 30
0.0
  0
VERTEX
  5
1A7C
100
AcDbEntity
  8
ALPHA
100
AcDbVertex
100
AcDb2dVertex
 10
7.569027
 20
53.593627
 30
0.0
  0
VERTEX
  5
1A7D
100
AcDbEntity
  8
ALPHA
100
AcDbVertex
100
AcDb2dVertex
 10
7.59042
 20
53.45346
 30
0.0
  0
VERTEX
  5
1A7E
100
AcDbEntity
  8
ALPHA
100
AcDbVertex
100
AcDb2dVertex
 10
7.625207
 20
53.318168
 30
0.0
  0
VERTEX
  5
1A7F
100
AcDbEntity
  8
ALPHA
100
AcDbVertex
100
AcDb2dVertex
 10
7.672682
 20
53.188463
 30
0.0
  0
VERTEX
  5
1A80
100
AcDbEntity
  8
ALPHA
100
AcDbVertex
100
AcDb2dVertex
 10
7.732135
 20
53.065053
 30
0.0
  0
VERTEX
  5
1A81
100
AcDbEntity
  8
ALPHA
100
AcDbVertex
100
AcDb2dVertex
 10
7.802858
 20
52.94865
 30
0.0
  0
VERTEX
  5
1A82
100
AcDbEntity
  8
ALPHA
100
AcDbVertex
100
AcDb2dVertex
 10
7.884143
 20
52.839963
 30
0.0
  0
VERTEX
  5
1A83
100
AcDbEntity
  8
ALPHA
100
AcDbVertex
100
AcDb2dVertex
 10
7.97528
 20
52.739701
 30
0.0
  0
VERTEX
  5
1A84
100
AcDbEntity
  8
ALPHA
100
AcDbVertex
100
AcDb2dVertex
 10
8.075561
 20
52.648577
 30
0.0
  0
VERTEX
  5
1A85
100
AcDbEntity
  8
ALPHA
100
AcDbVertex
100
AcDb2dVertex
 10
8.184279
 20
52.567298
 30
0.0
  0
VERTEX
  5
1A86
100
AcDbEntity
  8
ALPHA
100
AcDbVertex
100
AcDb2dVertex
 10
8.300723
 20
52.496576
 30
0.0
  0
VERTEX
  5
1A87
100
AcDbEntity
  8
ALPHA
100
AcDbVertex
100
AcDb2dVertex
 10
8.424187
 20
52.43712
 30
0.0
  0
VERTEX
  5
1A88
100
AcDbEntity
  8
ALPHA
100
AcDbVertex
100
AcDb2dVertex
 10
8.55396
 20
52.38964
 30
0.0
  0
VERTEX
  5
1A89
100
AcDbEntity
  8
ALPHA
100
AcDbVertex
100
AcDb2dVertex
 10
8.689335
 20
52.354847
 30
0.0
  0
VERTEX
  5
1A8A
100
AcDbEntity
  8
ALPHA
100
AcDbVertex
100
AcDb2dVertex
 10
8.829603
 20
52.333451
 30
0.0
  0
VERTEX
  5
1A8B
100
AcDbEntity
  8
ALPHA
100
AcDbVertex
100
AcDb2dVertex
 10
8.974056
 20
52.326161
 30
0.0
  0
SEQEND
  5
1A8C
100
AcDbEntity
  8
ALPHA
  0
POLYLINE
  5
1A8D
100
AcDbEntity
  8
ALPHA
100
AcDb2dPolyline
 66
     1
 10
0.0
 20
0.0
 30
0.0
  0
VERTEX
  5
1A8E
100
AcDbEntity
  8
ALPHA
100
AcDbVertex
100
AcDb2dVertex
 10
8.974056
 20
50.738316
 30
0.0
  0
VERTEX
  5
1A8F
100
AcDbEntity
  8
ALPHA
100
AcDbVertex
100
AcDb2dVertex
 10
9.280678
 20
50.753806
 30
0.0
  0
VERTEX
  5
1A90
100
AcDbEntity
  8
ALPHA
100
AcDbVertex
100
AcDb2dVertex
 10
9.578451
 20
50.799269
 30
0.0
  0
VERTEX
  5
1A91
100
AcDbEntity
  8
ALPHA
100
AcDbVertex
100
AcDb2dVertex
 10
9.865868
 20
50.873196
 30
0.0
  0
VERTEX
  5
1A92
100
AcDbEntity
  8
ALPHA
100
AcDbVertex
100
AcDb2dVertex
 10
10.141419
 20
50.974079
 30
0.0
  0
VERTEX
  5
1A93
100
AcDbEntity
  8
ALPHA
100
AcDbVertex
100
AcDb2dVertex
 10
10.403595
 20
51.100409
 30
0.0
  0
VERTEX
  5
1A94
100
AcDbEntity
  8
ALPHA
100
AcDbVertex
100
AcDb2dVertex
 10
10.650889
 20
51.250676
 30
0.0
  0
VERTEX
  5
1A95
100
AcDbEntity
  8
ALPHA
100
AcDbVertex
100
AcDb2dVertex
 10
10.881791
 20
51.423372
 30
0.0
  0
VERTEX
  5
1A96
100
AcDbEntity
  8
ALPHA
100
AcDbVertex
100
AcDb2dVertex
 10
11.094792
 20
51.616988
 30
0.0
  0
VERTEX
  5
1A97
100
AcDbEntity
  8
ALPHA
100
AcDbVertex
100
AcDb2dVertex
 10
11.288385
 20
51.830015
 30
0.0
  0
VERTEX
  5
1A98
100
AcDbEntity
  8
ALPHA
100
AcDbVertex
100
AcDb2dVertex
 10
11.46106
 20
52.060944
 30
0.0
  0
VERTEX
  5
1A99
100
AcDbEntity
  8
ALPHA
100
AcDbVertex
100
AcDb2dVertex
 10
11.611309
 20
52.308266
 30
0.0
  0
VERTEX
  5
1A9A
100
AcDbEntity
  8
ALPHA
100
AcDbVertex
100
AcDb2dVertex
 10
11.737623
 20
52.570472
 30
0.0
  0
VERTEX
  5
1A9B
100
AcDbEntity
  8
ALPHA
100
AcDbVertex
100
AcDb2dVertex
 10
11.838493
 20
52.846053
 30
0.0
  0
VERTEX
  5
1A9C
100
AcDbEntity
  8
ALPHA
100
AcDbVertex
100
AcDb2dVertex
 10
11.912411
 20
53.133501
 30
0.0
  0
VERTEX
  5
1A9D
100
AcDbEntity
  8
ALPHA
100
AcDbVertex
100
AcDb2dVertex
 10
11.957869
 20
53.431307
 30
0.0
  0
VERTEX
  5
1A9E
100
AcDbEntity
  8
ALPHA
100
AcDbVertex
100
AcDb2dVertex
 10
11.973356
 20
53.737961
 30
0.0
  0
SEQEND
  5
1A9F
100
AcDbEntity
  8
ALPHA
  0
POLYLINE
  5
1AA0
100
AcDbEntity
  8
ALPHA
100
AcDb3dPolyline
 66
     1
 10
0.0
 20
0.0
 30
0.0
 70
     8
  0
VERTEX
  5
1AA1
100
AcDbEntity
  8
ALPHA
100
AcDbVertex
100
AcDb3dPolylineVertex
 10
8.974056
 20
52.326161
 30
0.0
 70
    32
  0
VERTEX
  5
1AA2
100
AcDbEntity
  8
ALPHA
100
AcDbVertex
100
AcDb3dPolylineVertex
 10
8.974056
 20
52.326161
 30
0.0
 70
    32
  0
SEQEND
  5
1AA3
100
AcDbEntity
  8
ALPHA
  0
POLYLINE
  5
1AA4
100
AcDbEntity
  8
ALPHA
100
AcDb2dPolyline
 66
     1
 10
0.0
 20
0.0
 30
0.0
  0
VERTEX
  5
1AA5
100
AcDbEntity
  8
ALPHA
100
AcDbVertex
100
AcDb2dVertex
 10
10.265278
 20
56.733127
 30
0.0
  0
VERTEX
  5
1AA6
100
AcDbEntity
  8
ALPHA
100
AcDbVertex
100
AcDb2dVertex
 10
3.464143
 20
62.170177
 30
0.0
  0
SEQEND
  5
1AA7
100
AcDbEntity
  8
ALPHA
  0
POLYLINE
  5
1AA8
100
AcDbEntity
  8
ALPHA
100
AcDb2dPolyline
 66
     1
 10
0.0
 20
0.0
 30
0.0
  0
VERTEX
  5
1AA9
100
AcDbEntity
  8
ALPHA
100
AcDbVertex
100
AcDb2dVertex
 10
4.135936
 20
62.81372
 30
0.0
  0
VERTEX
  5
1AAA
100
AcDbEntity
  8
ALPHA
100
AcDbVertex
100
AcDb2dVertex
 10
9.520448
 20
58.670649
 30
0.0
  0
SEQEND
  5
1AAB
100
AcDbEntity
  8
ALPHA
  0
POLYLINE
  5
1AAC
100
AcDbEntity
  8
ALPHA
100
AcDb2dPolyline
 66
     1
 10
0.0
 20
0.0
 30
0.0
  0
VERTEX
  5
1AAD
100
AcDbEntity
  8
ALPHA
100
AcDbVertex
100
AcDb2dVertex
 10
3.464143
 20
62.170177
 30
0.0
  0
VERTEX
  5
1AAE
100
AcDbEntity
  8
ALPHA
100
AcDbVertex
100
AcDb2dVertex
 10
3.316069
 20
62.304996
 30
0.0
  0
VERTEX
  5
1AAF
100
AcDbEntity
  8
ALPHA
100
AcDbVertex
100
AcDb2dVertex
 10
3.153597
 20
62.427654
 30
0.0
  0
VERTEX
  5
1AB0
100
AcDbEntity
  8
ALPHA
100
AcDbVertex
100
AcDb2dVertex
 10
2.978444
 20
62.536361
 30
0.0
  0
VERTEX
  5
1AB1
100
AcDbEntity
  8
ALPHA
100
AcDbVertex
100
AcDb2dVertex
 10
2.792327
 20
62.629322
 30
0.0
  0
VERTEX
  5
1AB2
100
AcDbEntity
  8
ALPHA
100
AcDbVertex
100
AcDb2dVertex
 10
2.596966
 20
62.704745
 30
0.0
  0
VERTEX
  5
1AB3
100
AcDbEntity
  8
ALPHA
100
AcDbVertex
100
AcDb2dVertex
 10
2.394077
 20
62.760838
 30
0.0
  0
VERTEX
  5
1AB4
100
AcDbEntity
  8
ALPHA
100
AcDbVertex
100
AcDb2dVertex
 10
2.185379
 20
62.795809
 30
0.0
  0
VERTEX
  5
1AB5
100
AcDbEntity
  8
ALPHA
100
AcDbVertex
100
AcDb2dVertex
 10
1.972589
 20
62.807864
 30
0.0
  0
VERTEX
  5
1AB6
100
AcDbEntity
  8
ALPHA
100
AcDbVertex
100
AcDb2dVertex
 10
1.761064
 20
62.797181
 30
0.0
  0
VERTEX
  5
1AB7
100
AcDbEntity
  8
ALPHA
100
AcDbVertex
100
AcDb2dVertex
 10
1.555647
 20
62.765827
 30
0.0
  0
VERTEX
  5
1AB8
100
AcDbEntity
  8
ALPHA
100
AcDbVertex
100
AcDb2dVertex
 10
1.357377
 20
62.714842
 30
0.0
  0
VERTEX
  5
1AB9
100
AcDbEntity
  8
ALPHA
100
AcDbVertex
100
AcDb2dVertex
 10
1.167295
 20
62.645266
 30
0.0
  0
VERTEX
  5
1ABA
100
AcDbEntity
  8
ALPHA
100
AcDbVertex
100
AcDb2dVertex
 10
0.986441
 20
62.558141
 30
0.0
  0
VERTEX
  5
1ABB
100
AcDbEntity
  8
ALPHA
100
AcDbVertex
100
AcDb2dVertex
 10
0.815855
 20
62.454506
 30
0.0
  0
VERTEX
  5
1ABC
100
AcDbEntity
  8
ALPHA
100
AcDbVertex
100
AcDb2dVertex
 10
0.656578
 20
62.335403
 30
0.0
  0
VERTEX
  5
1ABD
100
AcDbEntity
  8
ALPHA
100
AcDbVertex
100
AcDb2dVertex
 10
0.50965
 20
62.201871
 30
0.0
  0
VERTEX
  5
1ABE
100
AcDbEntity
  8
ALPHA
100
AcDbVertex
100
AcDb2dVertex
 10
0.376112
 20
62.054953
 30
0.0
  0
VERTEX
  5
1ABF
100
AcDbEntity
  8
ALPHA
100
AcDbVertex
100
AcDb2dVertex
 10
0.257003
 20
61.895687
 30
0.0
  0
VERTEX
  5
1AC0
100
AcDbEntity
  8
ALPHA
100
AcDbVertex
100
AcDb2dVertex
 10
0.153365
 20
61.725116
 30
0.0
  0
VERTEX
  5
1AC1
100
AcDbEntity
  8
ALPHA
100
AcDbVertex
100
AcDb2dVertex
 10
0.066237
 20
61.544278
 30
0.0
  0
VERTEX
  5
1AC2
100
AcDbEntity
  8
ALPHA
100
AcDbVertex
100
AcDb2dVertex
 10
-0.00334
 20
61.354216
 30
0.0
  0
VERTEX
  5
1AC3
100
AcDbEntity
  8
ALPHA
100
AcDbVertex
100
AcDb2dVertex
 10
-0.054326
 20
61.155969
 30
0.0
  0
VERTEX
  5
1AC4
100
AcDbEntity
  8
ALPHA
100
AcDbVertex
100
AcDb2dVertex
 10
-0.085681
 20
60.950578
 30
0.0
  0
VERTEX
  5
1AC5
100
AcDbEntity
  8
ALPHA
100
AcDbVertex
100
AcDb2dVertex
 10
-0.096364
 20
60.739084
 30
0.0
  0
VERTEX
  5
1AC6
100
AcDbEntity
  8
ALPHA
100
AcDbVertex
100
AcDb2dVertex
 10
0.006817
 20
60.251258
 30
0.0
  0
SEQEND
  5
1AC7
100
AcDbEntity
  8
ALPHA
  0
POLYLINE
  5
1AC8
100
AcDbEntity
  8
ALPHA
100
AcDb2dPolyline
 66
     1
 10
0.0
 20
0.0
 30
0.0
  0
VERTEX
  5
1AC9
100
AcDbEntity
  8
ALPHA
100
AcDbVertex
100
AcDb2dVertex
 10
1.972589
 20
59.239089
 30
0.0
  0
VERTEX
  5
1ACA
100
AcDbEntity
  8
ALPHA
100
AcDbVertex
100
AcDb2dVertex
 10
2.125982
 20
59.24684
 30
0.0
  0
VERTEX
  5
1ACB
100
AcDbEntity
  8
ALPHA
100
AcDbVertex
100
AcDb2dVertex
 10
2.274954
 20
59.269587
 30
0.0
  0
VERTEX
  5
1ACC
100
AcDbEntity
  8
ALPHA
100
AcDbVertex
100
AcDb2dVertex
 10
2.41875
 20
59.306575
 30
0.0
  0
VERTEX
  5
1ACD
100
AcDbEntity
  8
ALPHA
100
AcDbVertex
100
AcDb2dVertex
 10
2.556613
 20
59.357046
 30
0.0
  0
VERTEX
  5
1ACE
100
AcDbEntity
  8
ALPHA
100
AcDbVertex
100
AcDb2dVertex
 10
2.687789
 20
59.420245
 30
0.0
  0
VERTEX
  5
1ACF
100
AcDbEntity
  8
ALPHA
100
AcDbVertex
100
AcDb2dVertex
 10
2.811521
 20
59.495415
 30
0.0
  0
VERTEX
  5
1AD0
100
AcDbEntity
  8
ALPHA
100
AcDbVertex
100
AcDb2dVertex
 10
2.927055
 20
59.581799
 30
0.0
  0
VERTEX
  5
1AD1
100
AcDbEntity
  8
ALPHA
100
AcDbVertex
100
AcDb2dVertex
 10
3.033635
 20
59.67864
 30
0.0
  0
VERTEX
  5
1AD2
100
AcDbEntity
  8
ALPHA
100
AcDbVertex
100
AcDb2dVertex
 10
3.130505
 20
59.785184
 30
0.0
  0
VERTEX
  5
1AD3
100
AcDbEntity
  8
ALPHA
100
AcDbVertex
100
AcDb2dVertex
 10
3.216911
 20
59.900672
 30
0.0
  0
VERTEX
  5
1AD4
100
AcDbEntity
  8
ALPHA
100
AcDbVertex
100
AcDb2dVertex
 10
3.292096
 20
60.024349
 30
0.0
  0
VERTEX
  5
1AD5
100
AcDbEntity
  8
ALPHA
100
AcDbVertex
100
AcDb2dVertex
 10
3.355305
 20
60.155458
 30
0.0
  0
VERTEX
  5
1AD6
100
AcDbEntity
  8
ALPHA
100
AcDbVertex
100
AcDb2dVertex
 10
3.405782
 20
60.293242
 30
0.0
  0
VERTEX
  5
1AD7
100
AcDbEntity
  8
ALPHA
100
AcDbVertex
100
AcDb2dVertex
 10
3.442773
 20
60.436946
 30
0.0
  0
VERTEX
  5
1AD8
100
AcDbEntity
  8
ALPHA
100
AcDbVertex
100
AcDb2dVertex
 10
3.465521
 20
60.585812
 30
0.0
  0
VERTEX
  5
1AD9
100
AcDbEntity
  8
ALPHA
100
AcDbVertex
100
AcDb2dVertex
 10
3.473272
 20
60.739084
 30
0.0
  0
VERTEX
  5
1ADA
100
AcDbEntity
  8
ALPHA
100
AcDbVertex
100
AcDb2dVertex
 10
3.465521
 20
60.892417
 30
0.0
  0
VERTEX
  5
1ADB
100
AcDbEntity
  8
ALPHA
100
AcDbVertex
100
AcDb2dVertex
 10
3.442773
 20
61.041336
 30
0.0
  0
VERTEX
  5
1ADC
100
AcDbEntity
  8
ALPHA
100
AcDbVertex
100
AcDb2dVertex
 10
3.405782
 20
61.185085
 30
0.0
  0
VERTEX
  5
1ADD
100
AcDbEntity
  8
ALPHA
100
AcDbVertex
100
AcDb2dVertex
 10
3.355305
 20
61.322909
 30
0.0
  0
VERTEX
  5
1ADE
100
AcDbEntity
  8
ALPHA
100
AcDbVertex
100
AcDb2dVertex
 10
3.292096
 20
61.454051
 30
0.0
  0
VERTEX
  5
1ADF
100
AcDbEntity
  8
ALPHA
100
AcDbVertex
100
AcDb2dVertex
 10
3.216911
 20
61.577756
 30
0.0
  0
VERTEX
  5
1AE0
100
AcDbEntity
  8
ALPHA
100
AcDbVertex
100
AcDb2dVertex
 10
3.130505
 20
61.693267
 30
0.0
  0
VERTEX
  5
1AE1
100
AcDbEntity
  8
ALPHA
100
AcDbVertex
100
AcDb2dVertex
 10
3.033635
 20
61.799829
 30
0.0
  0
VERTEX
  5
1AE2
100
AcDbEntity
  8
ALPHA
100
AcDbVertex
100
AcDb2dVertex
 10
2.927055
 20
61.896685
 30
0.0
  0
VERTEX
  5
1AE3
100
AcDbEntity
  8
ALPHA
100
AcDbVertex
100
AcDb2dVertex
 10
2.811521
 20
61.98308
 30
0.0
  0
VERTEX
  5
1AE4
100
AcDbEntity
  8
ALPHA
100
AcDbVertex
100
AcDb2dVertex
 10
2.687789
 20
62.058257
 30
0.0
  0
VERTEX
  5
1AE5
100
AcDbEntity
  8
ALPHA
100
AcDbVertex
100
AcDb2dVertex
 10
2.556613
 20
62.121461
 30
0.0
  0
VERTEX
  5
1AE6
100
AcDbEntity
  8
ALPHA
100
AcDbVertex
100
AcDb2dVertex
 10
2.41875
 20
62.171935
 30
0.0
  0
VERTEX
  5
1AE7
100
AcDbEntity
  8
ALPHA
100
AcDbVertex
100
AcDb2dVertex
 10
2.274954
 20
62.208925
 30
0.0
  0
VERTEX
  5
1AE8
100
AcDbEntity
  8
ALPHA
100
AcDbVertex
100
AcDb2dVertex
 10
2.125982
 20
62.231672
 30
0.0
  0
VERTEX
  5
1AE9
100
AcDbEntity
  8
ALPHA
100
AcDbVertex
100
AcDb2dVertex
 10
1.972589
 20
62.239423
 30
0.0
  0
VERTEX
  5
1AEA
100
AcDbEntity
  8
ALPHA
100
AcDbVertex
100
AcDb2dVertex
 10
1.819231
 20
62.231672
 30
0.0
  0
VERTEX
  5
1AEB
100
AcDbEntity
  8
ALPHA
100
AcDbVertex
100
AcDb2dVertex
 10
1.670302
 20
62.208925
 30
0.0
  0
VERTEX
  5
1AEC
100
AcDbEntity
  8
ALPHA
100
AcDbVertex
100
AcDb2dVertex
 10
1.526555
 20
62.171935
 30
0.0
  0
VERTEX
  5
1AED
100
AcDbEntity
  8
ALPHA
100
AcDbVertex
100
AcDb2dVertex
 10
1.388744
 20
62.121461
 30
0.0
  0
VERTEX
  5
1AEE
100
AcDbEntity
  8
ALPHA
100
AcDbVertex
100
AcDb2dVertex
 10
1.257625
 20
62.058257
 30
0.0
  0
VERTEX
  5
1AEF
100
AcDbEntity
  8
ALPHA
100
AcDbVertex
100
AcDb2dVertex
 10
1.13395
 20
61.98308
 30
0.0
  0
VERTEX
  5
1AF0
100
AcDbEntity
  8
ALPHA
100
AcDbVertex
100
AcDb2dVertex
 10
1.018474
 20
61.896685
 30
0.0
  0
VERTEX
  5
1AF1
100
AcDbEntity
  8
ALPHA
100
AcDbVertex
100
AcDb2dVertex
 10
0.911951
 20
61.799829
 30
0.0
  0
VERTEX
  5
1AF2
100
AcDbEntity
  8
ALPHA
100
AcDbVertex
100
AcDb2dVertex
 10
0.815136
 20
61.693267
 30
0.0
  0
VERTEX
  5
1AF3
100
AcDbEntity
  8
ALPHA
100
AcDbVertex
100
AcDb2dVertex
 10
0.728783
 20
61.577756
 30
0.0
  0
VERTEX
  5
1AF4
100
AcDbEntity
  8
ALPHA
100
AcDbVertex
100
AcDb2dVertex
 10
0.653645
 20
61.454051
 30
0.0
  0
VERTEX
  5
1AF5
100
AcDbEntity
  8
ALPHA
100
AcDbVertex
100
AcDb2dVertex
 10
0.590478
 20
61.322909
 30
0.0
  0
VERTEX
  5
1AF6
100
AcDbEntity
  8
ALPHA
100
AcDbVertex
100
AcDb2dVertex
 10
0.540035
 20
61.185085
 30
0.0
  0
VERTEX
  5
1AF7
100
AcDbEntity
  8
ALPHA
100
AcDbVertex
100
AcDb2dVertex
 10
0.503071
 20
61.041336
 30
0.0
  0
VERTEX
  5
1AF8
100
AcDbEntity
  8
ALPHA
100
AcDbVertex
100
AcDb2dVertex
 10
0.480339
 20
60.892417
 30
0.0
  0
VERTEX
  5
1AF9
100
AcDbEntity
  8
ALPHA
100
AcDbVertex
100
AcDb2dVertex
 10
0.472594
 20
60.739084
 30
0.0
  0
VERTEX
  5
1AFA
100
AcDbEntity
  8
ALPHA
100
AcDbVertex
100
AcDb2dVertex
 10
0.480339
 20
60.585812
 30
0.0
  0
VERTEX
  5
1AFB
100
AcDbEntity
  8
ALPHA
100
AcDbVertex
100
AcDb2dVertex
 10
0.503071
 20
60.436946
 30
0.0
  0
VERTEX
  5
1AFC
100
AcDbEntity
  8
ALPHA
100
AcDbVertex
100
AcDb2dVertex
 10
0.540035
 20
60.293242
 30
0.0
  0
VERTEX
  5
1AFD
100
AcDbEntity
  8
ALPHA
100
AcDbVertex
100
AcDb2dVertex
 10
0.590478
 20
60.155458
 30
0.0
  0
VERTEX
  5
1AFE
100
AcDbEntity
  8
ALPHA
100
AcDbVertex
100
AcDb2dVertex
 10
0.653645
 20
60.024349
 30
0.0
  0
VERTEX
  5
1AFF
100
AcDbEntity
  8
ALPHA
100
AcDbVertex
100
AcDb2dVertex
 10
0.728783
 20
59.900672
 30
0.0
  0
VERTEX
  5
1B00
100
AcDbEntity
  8
ALPHA
100
AcDbVertex
100
AcDb2dVertex
 10
0.815136
 20
59.785184
 30
0.0
  0
VERTEX
  5
1B01
100
AcDbEntity
  8
ALPHA
100
AcDbVertex
100
AcDb2dVertex
 10
0.911951
 20
59.67864
 30
0.0
  0
VERTEX
  5
1B02
100
AcDbEntity
  8
ALPHA
100
AcDbVertex
100
AcDb2dVertex
 10
1.018474
 20
59.581799
 30
0.0
  0
VERTEX
  5
1B03
100
AcDbEntity
  8
ALPHA
100
AcDbVertex
100
AcDb2dVertex
 10
1.13395
 20
59.495415
 30
0.0
  0
VERTEX
  5
1B04
100
AcDbEntity
  8
ALPHA
100
AcDbVertex
100
AcDb2dVertex
 10
1.257625
 20
59.420245
 30
0.0
  0
VERTEX
  5
1B05
100
AcDbEntity
  8
ALPHA
100
AcDbVertex
100
AcDb2dVertex
 10
1.388744
 20
59.357046
 30
0.0
  0
VERTEX
  5
1B06
100
AcDbEntity
  8
ALPHA
100
AcDbVertex
100
AcDb2dVertex
 10
1.526555
 20
59.306575
 30
0.0
  0
VERTEX
  5
1B07
100
AcDbEntity
  8
ALPHA
100
AcDbVertex
100
AcDb2dVertex
 10
1.670302
 20
59.269587
 30
0.0
  0
VERTEX
  5
1B08
100
AcDbEntity
  8
ALPHA
100
AcDbVertex
100
AcDb2dVertex
 10
1.819231
 20
59.24684
 30
0.0
  0
VERTEX
  5
1B09
100
AcDbEntity
  8
ALPHA
100
AcDbVertex
100
AcDb2dVertex
 10
1.972589
 20
59.239089
 30
0.0
  0
SEQEND
  5
1B0A
100
AcDbEntity
  8
ALPHA
  0
POLYLINE
  5
1B0B
100
AcDbEntity
  8
ALPHA
100
AcDb2dPolyline
 66
     1
 10
0.0
 20
0.0
 30
0.0
  0
VERTEX
  5
1B0C
100
AcDbEntity
  8
ALPHA
100
AcDbVertex
100
AcDb2dVertex
 10
-0.877367
 20
60.030772
 30
0.0
  0
VERTEX
  5
1B0D
100
AcDbEntity
  8
ALPHA
100
AcDbVertex
100
AcDb2dVertex
 10
-0.974174
 20
60.378469
 30
0.0
  0
VERTEX
  5
1B0E
100
AcDbEntity
  8
ALPHA
100
AcDbVertex
100
AcDb2dVertex
 10
-1.011903
 20
60.555643
 30
0.0
  0
VERTEX
  5
1B0F
100
AcDbEntity
  8
ALPHA
100
AcDbVertex
100
AcDb2dVertex
 10
-1.027056
 20
60.739084
 30
0.0
  0
VERTEX
  5
1B10
100
AcDbEntity
  8
ALPHA
100
AcDbVertex
100
AcDb2dVertex
 10
-1.011568
 20
61.045734
 30
0.0
  0
VERTEX
  5
1B11
100
AcDbEntity
  8
ALPHA
100
AcDbVertex
100
AcDb2dVertex
 10
-0.966111
 20
61.343529
 30
0.0
  0
VERTEX
  5
1B12
100
AcDbEntity
  8
ALPHA
100
AcDbVertex
100
AcDb2dVertex
 10
-0.892191
 20
61.63096
 30
0.0
  0
VERTEX
  5
1B13
100
AcDbEntity
  8
ALPHA
100
AcDbVertex
100
AcDb2dVertex
 10
-0.791317
 20
61.906519
 30
0.0
  0
VERTEX
  5
1B14
100
AcDbEntity
  8
ALPHA
100
AcDbVertex
100
AcDb2dVertex
 10
-0.664998
 20
62.168699
 30
0.0
  0
VERTEX
  5
1B15
100
AcDbEntity
  8
ALPHA
100
AcDbVertex
100
AcDb2dVertex
 10
-0.514742
 20
62.415992
 30
0.0
  0
VERTEX
  5
1B16
100
AcDbEntity
  8
ALPHA
100
AcDbVertex
100
AcDb2dVertex
 10
-0.342056
 20
62.64689
 30
0.0
  0
VERTEX
  5
1B17
100
AcDbEntity
  8
ALPHA
100
AcDbVertex
100
AcDb2dVertex
 10
-0.148449
 20
62.859885
 30
0.0
  0
VERTEX
  5
1B18
100
AcDbEntity
  8
ALPHA
100
AcDbVertex
100
AcDb2dVertex
 10
0.064571
 20
63.053468
 30
0.0
  0
VERTEX
  5
1B19
100
AcDbEntity
  8
ALPHA
100
AcDbVertex
100
AcDb2dVertex
 10
0.295496
 20
63.226133
 30
0.0
  0
VERTEX
  5
1B1A
100
AcDbEntity
  8
ALPHA
100
AcDbVertex
100
AcDb2dVertex
 10
0.542817
 20
63.376371
 30
0.0
  0
VERTEX
  5
1B1B
100
AcDbEntity
  8
ALPHA
100
AcDbVertex
100
AcDb2dVertex
 10
0.805027
 20
63.502675
 30
0.0
  0
VERTEX
  5
1B1C
100
AcDbEntity
  8
ALPHA
100
AcDbVertex
100
AcDb2dVertex
 10
1.080617
 20
63.603536
 30
0.0
  0
VERTEX
  5
1B1D
100
AcDbEntity
  8
ALPHA
100
AcDbVertex
100
AcDb2dVertex
 10
1.36808
 20
63.677446
 30
0.0
  0
VERTEX
  5
1B1E
100
AcDbEntity
  8
ALPHA
100
AcDbVertex
100
AcDb2dVertex
 10
1.665906
 20
63.722898
 30
0.0
  0
VERTEX
  5
1B1F
100
AcDbEntity
  8
ALPHA
100
AcDbVertex
100
AcDb2dVertex
 10
1.972589
 20
63.738384
 30
0.0
  0
VERTEX
  5
1B20
100
AcDbEntity
  8
ALPHA
100
AcDbVertex
100
AcDb2dVertex
 10
2.281152
 20
63.720922
 30
0.0
  0
VERTEX
  5
1B21
100
AcDbEntity
  8
ALPHA
100
AcDbVertex
100
AcDb2dVertex
 10
2.583778
 20
63.670257
 30
0.0
  0
VERTEX
  5
1B22
100
AcDbEntity
  8
ALPHA
100
AcDbVertex
100
AcDb2dVertex
 10
2.877987
 20
63.588975
 30
0.0
  0
VERTEX
  5
1B23
100
AcDbEntity
  8
ALPHA
100
AcDbVertex
100
AcDb2dVertex
 10
3.161297
 20
63.479657
 30
0.0
  0
VERTEX
  5
1B24
100
AcDbEntity
  8
ALPHA
100
AcDbVertex
100
AcDb2dVertex
 10
3.431228
 20
63.34489
 30
0.0
  0
VERTEX
  5
1B25
100
AcDbEntity
  8
ALPHA
100
AcDbVertex
100
AcDb2dVertex
 10
3.685299
 20
63.187255
 30
0.0
  0
VERTEX
  5
1B26
100
AcDbEntity
  8
ALPHA
100
AcDbVertex
100
AcDb2dVertex
 10
3.921029
 20
63.009337
 30
0.0
  0
VERTEX
  5
1B27
100
AcDbEntity
  8
ALPHA
100
AcDbVertex
100
AcDb2dVertex
 10
4.135936
 20
62.81372
 30
0.0
  0
SEQEND
  5
1B28
100
AcDbEntity
  8
ALPHA
  0
POLYLINE
  5
1B29
100
AcDbEntity
  8
ALPHA
100
AcDb3dPolyline
 66
     1
 10
0.0
 20
0.0
 30
0.0
 70
     8
  0
VERTEX
  5
1B2A
100
AcDbEntity
  8
ALPHA
100
AcDbVertex
100
AcDb3dPolylineVertex
 10
1.972589
 20
59.239089
 30
0.0
 70
    32
  0
VERTEX
  5
1B2B
100
AcDbEntity
  8
ALPHA
100
AcDbVertex
100
AcDb3dPolylineVertex
 10
1.972589
 20
59.239089
 30
0.0
 70
    32
  0
SEQEND
  5
1B2C
100
AcDbEntity
  8
ALPHA
  0
POLYLINE
  5
1B2D
100
AcDbEntity
  8
ALPHA
100
AcDb2dPolyline
 66
     1
 10
0.0
 20
0.0
 30
0.0
  0
VERTEX
  5
1B2E
100
AcDbEntity
  8
ALPHA
100
AcDbVertex
100
AcDb2dVertex
 10
8.512758
 20
66.231427
 30
0.0
  0
VERTEX
  5
1B2F
100
AcDbEntity
  8
ALPHA
100
AcDbVertex
100
AcDb2dVertex
 10
10.173638
 20
67.941228
 30
0.0
  0
SEQEND
  5
1B30
100
AcDbEntity
  8
ALPHA
  0
POLYLINE
  5
1B31
100
AcDbEntity
  8
ALPHA
100
AcDb3dPolyline
 66
     1
 10
0.0
 20
0.0
 30
0.0
 70
     8
  0
VERTEX
  5
1B32
100
AcDbEntity
  8
ALPHA
100
AcDbVertex
100
AcDb3dPolylineVertex
 10
10.939483
 20
64.871304
 30
0.0
 70
    32
  0
VERTEX
  5
1B33
100
AcDbEntity
  8
ALPHA
100
AcDbVertex
100
AcDb3dPolylineVertex
 10
10.939483
 20
64.871304
 30
0.0
 70
    32
  0
SEQEND
  5
1B34
100
AcDbEntity
  8
ALPHA
  0
POLYLINE
  5
1B35
100
AcDbEntity
  8
ALPHA
100
AcDb2dPolyline
 66
     1
 10
0.0
 20
0.0
 30
0.0
  0
VERTEX
  5
1B36
100
AcDbEntity
  8
ALPHA
100
AcDbVertex
100
AcDb2dVertex
 10
12.206245
 20
66.010252
 30
0.0
  0
VERTEX
  5
1B37
100
AcDbEntity
  8
ALPHA
100
AcDbVertex
100
AcDb2dVertex
 10
11.000461
 20
67.167115
 30
0.0
  0
SEQEND
  5
1B38
100
AcDbEntity
  8
ALPHA
  0
POLYLINE
  5
1B39
100
AcDbEntity
  8
ALPHA
100
AcDb2dPolyline
 66
     1
 10
0.0
 20
0.0
 30
0.0
  0
VERTEX
  5
1B3A
100
AcDbEntity
  8
ALPHA
100
AcDbVertex
100
AcDb2dVertex
 10
10.173638
 20
67.941228
 30
0.0
  0
VERTEX
  5
1B3B
100
AcDbEntity
  8
ALPHA
100
AcDbVertex
100
AcDb2dVertex
 10
10.197582
 20
67.921591
 30
0.0
  0
SEQEND
  5
1B3C
100
AcDbEntity
  8
ALPHA
  0
POLYLINE
  5
1B3D
100
AcDbEntity
  8
ALPHA
100
AcDb2dPolyline
 66
     1
 10
0.0
 20
0.0
 30
0.0
  0
VERTEX
  5
1B3E
100
AcDbEntity
  8
ALPHA
100
AcDbVertex
100
AcDb2dVertex
 10
11.000461
 20
67.167115
 30
0.0
  0
VERTEX
  5
1B3F
100
AcDbEntity
  8
ALPHA
100
AcDbVertex
100
AcDb2dVertex
 10
9.254487
 20
65.454558
 30
0.0
  0
SEQEND
  5
1B40
100
AcDbEntity
  8
ALPHA
  0
POLYLINE
  5
1B41
100
AcDbEntity
  8
ALPHA
100
AcDb2dPolyline
 66
     1
 10
0.0
 20
0.0
 30
0.0
  0
VERTEX
  5
1B42
100
AcDbEntity
  8
ALPHA
100
AcDbVertex
100
AcDb2dVertex
 10
11.68638
 20
67.99945
 30
0.0
  0
VERTEX
  5
1B43
100
AcDbEntity
  8
ALPHA
100
AcDbVertex
100
AcDb2dVertex
 10
12.899398
 20
66.786432
 30
0.0
  0
SEQEND
  5
1B44
100
AcDbEntity
  8
ALPHA
  0
POLYLINE
  5
1B45
100
AcDbEntity
  8
ALPHA
100
AcDb2dPolyline
 66
     1
 10
0.0
 20
0.0
 30
0.0
  0
VERTEX
  5
1B46
100
AcDbEntity
  8
ALPHA
100
AcDbVertex
100
AcDb2dVertex
 10
12.899398
 20
66.786432
 30
0.0
  0
VERTEX
  5
1B47
100
AcDbEntity
  8
ALPHA
100
AcDbVertex
100
AcDb2dVertex
 10
12.206245
 20
66.010252
 30
0.0
  0
SEQEND
  5
1B48
100
AcDbEntity
  8
ALPHA
  0
POLYLINE
  5
1B49
100
AcDbEntity
  8
ALPHA
100
AcDb2dPolyline
 66
     1
 10
0.0
 20
0.0
 30
0.0
  0
VERTEX
  5
1B4A
100
AcDbEntity
  8
ALPHA
100
AcDbVertex
100
AcDb2dVertex
 10
4.474072
 20
70.107849
 30
0.0
  0
VERTEX
  5
1B4B
100
AcDbEntity
  8
ALPHA
100
AcDbVertex
100
AcDb2dVertex
 10
6.45104
 20
70.107849
 30
0.0
  0
SEQEND
  5
1B4C
100
AcDbEntity
  8
ALPHA
  0
POLYLINE
  5
1B4D
100
AcDbEntity
  8
ALPHA
100
AcDb2dPolyline
 66
     1
 10
0.0
 20
0.0
 30
0.0
  0
VERTEX
  5
1B4E
100
AcDbEntity
  8
ALPHA
100
AcDbVertex
100
AcDb2dVertex
 10
10.951541
 20
68.719475
 30
0.0
  0
VERTEX
  5
1B4F
100
AcDbEntity
  8
ALPHA
100
AcDbVertex
100
AcDb2dVertex
 10
12.643944
 20
70.362786
 30
0.0
  0
SEQEND
  5
1B50
100
AcDbEntity
  8
ALPHA
  0
POLYLINE
  5
1B51
100
AcDbEntity
  8
ALPHA
100
AcDb2dPolyline
 66
     1
 10
0.0
 20
0.0
 30
0.0
  0
VERTEX
  5
1B52
100
AcDbEntity
  8
ALPHA
100
AcDbVertex
100
AcDb2dVertex
 10
9.096185
 20
69.023333
 30
0.0
  0
VERTEX
  5
1B53
100
AcDbEntity
  8
ALPHA
100
AcDbVertex
100
AcDb2dVertex
 10
9.838775
 20
69.799513
 30
0.0
  0
SEQEND
  5
1B54
100
AcDbEntity
  8
ALPHA
  0
POLYLINE
  5
1B55
100
AcDbEntity
  8
ALPHA
100
AcDb2dPolyline
 66
     1
 10
0.0
 20
0.0
 30
0.0
  0
VERTEX
  5
1B56
100
AcDbEntity
  8
ALPHA
100
AcDbVertex
100
AcDb2dVertex
 10
9.838775
 20
69.799513
 30
0.0
  0
VERTEX
  5
1B57
100
AcDbEntity
  8
ALPHA
100
AcDbVertex
100
AcDb2dVertex
 10
10.908305
 20
68.729122
 30
0.0
  0
SEQEND
  5
1B58
100
AcDbEntity
  8
ALPHA
  0
POLYLINE
  5
1B59
100
AcDbEntity
  8
ALPHA
100
AcDb2dPolyline
 66
     1
 10
0.0
 20
0.0
 30
0.0
  0
VERTEX
  5
1B5A
100
AcDbEntity
  8
ALPHA
100
AcDbVertex
100
AcDb2dVertex
 10
10.908305
 20
68.729122
 30
0.0
  0
VERTEX
  5
1B5B
100
AcDbEntity
  8
ALPHA
100
AcDbVertex
100
AcDb2dVertex
 10
10.951541
 20
68.719475
 30
0.0
  0
SEQEND
  5
1B5C
100
AcDbEntity
  8
ALPHA
  0
POLYLINE
  5
1B5D
100
AcDbEntity
  8
ALPHA
100
AcDb2dPolyline
 66
     1
 10
0.0
 20
0.0
 30
0.0
  0
VERTEX
  5
1B5E
100
AcDbEntity
  8
ALPHA
100
AcDbVertex
100
AcDb2dVertex
 10
30.347428
 20
45.637163
 30
0.0
  0
VERTEX
  5
1B5F
100
AcDbEntity
  8
ALPHA
100
AcDbVertex
100
AcDb2dVertex
 10
35.859926
 20
40.147059
 30
0.0
  0
SEQEND
  5
1B60
100
AcDbEntity
  8
ALPHA
  0
POLYLINE
  5
1B61
100
AcDbEntity
  8
ALPHA
100
AcDb2dPolyline
 66
     1
 10
0.0
 20
0.0
 30
0.0
  0
VERTEX
  5
1B62
100
AcDbEntity
  8
ALPHA
100
AcDbVertex
100
AcDb2dVertex
 10
17.07537
 20
40.124666
 30
0.0
  0
VERTEX
  5
1B63
100
AcDbEntity
  8
ALPHA
100
AcDbVertex
100
AcDb2dVertex
 10
22.587006
 20
45.637163
 30
0.0
  0
SEQEND
  5
1B64
100
AcDbEntity
  8
ALPHA
  0
POLYLINE
  5
1B65
100
AcDbEntity
  8
ALPHA
100
AcDb2dPolyline
 66
     1
 10
0.0
 20
0.0
 30
0.0
  0
VERTEX
  5
1B66
100
AcDbEntity
  8
ALPHA
100
AcDbVertex
100
AcDb2dVertex
 10
18.221037
 20
42.73157
 30
0.0
  0
VERTEX
  5
1B67
100
AcDbEntity
  8
ALPHA
100
AcDbVertex
100
AcDb2dVertex
 10
18.99029
 20
43.604338
 30
0.0
  0
VERTEX
  5
1B68
100
AcDbEntity
  8
ALPHA
100
AcDbVertex
100
AcDb2dVertex
 10
19.850726
 20
44.387105
 30
0.0
  0
VERTEX
  5
1B69
100
AcDbEntity
  8
ALPHA
100
AcDbVertex
100
AcDb2dVertex
 10
20.794211
 20
45.071743
 30
0.0
  0
VERTEX
  5
1B6A
100
AcDbEntity
  8
ALPHA
100
AcDbVertex
100
AcDb2dVertex
 10
21.812614
 20
45.650126
 30
0.0
  0
VERTEX
  5
1B6B
100
AcDbEntity
  8
ALPHA
100
AcDbVertex
100
AcDb2dVertex
 10
22.897799
 20
46.114125
 30
0.0
  0
VERTEX
  5
1B6C
100
AcDbEntity
  8
ALPHA
100
AcDbVertex
100
AcDb2dVertex
 10
24.041636
 20
46.455616
 30
0.0
  0
VERTEX
  5
1B6D
100
AcDbEntity
  8
ALPHA
100
AcDbVertex
100
AcDb2dVertex
 10
25.23599
 20
46.66647
 30
0.0
  0
VERTEX
  5
1B6E
100
AcDbEntity
  8
ALPHA
100
AcDbVertex
100
AcDb2dVertex
 10
26.47273
 20
46.73856
 30
0.0
  0
VERTEX
  5
1B6F
100
AcDbEntity
  8
ALPHA
100
AcDbVertex
100
AcDb2dVertex
 10
27.705217
 20
46.666989
 30
0.0
  0
VERTEX
  5
1B70
100
AcDbEntity
  8
ALPHA
100
AcDbVertex
100
AcDb2dVertex
 10
28.895552
 20
46.457634
 30
0.0
  0
VERTEX
  5
1B71
100
AcDbEntity
  8
ALPHA
100
AcDbVertex
100
AcDb2dVertex
 10
30.035721
 20
46.11854
 30
0.0
  0
VERTEX
  5
1B72
100
AcDbEntity
  8
ALPHA
100
AcDbVertex
100
AcDb2dVertex
 10
31.117709
 20
45.657748
 30
0.0
  0
VERTEX
  5
1B73
100
AcDbEntity
  8
ALPHA
100
AcDbVertex
100
AcDb2dVertex
 10
32.133503
 20
45.0833
 30
0.0
  0
VERTEX
  5
1B74
100
AcDbEntity
  8
ALPHA
100
AcDbVertex
100
AcDb2dVertex
 10
33.075088
 20
44.403238
 30
0.0
  0
VERTEX
  5
1B75
100
AcDbEntity
  8
ALPHA
100
AcDbVertex
100
AcDb2dVertex
 10
33.934452
 20
43.625604
 30
0.0
  0
VERTEX
  5
1B76
100
AcDbEntity
  8
ALPHA
100
AcDbVertex
100
AcDb2dVertex
 10
34.703579
 20
42.758442
 30
0.0
  0
SEQEND
  5
1B77
100
AcDbEntity
  8
ALPHA
  0
POLYLINE
  5
1B78
100
AcDbEntity
  8
ALPHA
100
AcDb2dPolyline
 66
     1
 10
0.0
 20
0.0
 30
0.0
  0
VERTEX
  5
1B79
100
AcDbEntity
  8
ALPHA
100
AcDbVertex
100
AcDb2dVertex
 10
47.484367
 20
36.170385
 30
0.0
  0
VERTEX
  5
1B7A
100
AcDbEntity
  8
ALPHA
100
AcDbVertex
100
AcDb2dVertex
 10
52.938987
 20
60.251258
 30
0.0
  0
SEQEND
  5
1B7B
100
AcDbEntity
  8
ALPHA
  0
POLYLINE
  5
1B7C
100
AcDbEntity
  8
ALPHA
100
AcDb2dPolyline
 66
     1
 10
0.0
 20
0.0
 30
0.0
  0
VERTEX
  5
1B7D
100
AcDbEntity
  8
ALPHA
100
AcDbVertex
100
AcDb2dVertex
 10
46.971737
 20
18.740269
 30
0.0
  0
VERTEX
  5
1B7E
100
AcDbEntity
  8
ALPHA
100
AcDbVertex
100
AcDb2dVertex
 10
46.971737
 20
53.737961
 30
0.0
  0
SEQEND
  5
1B7F
100
AcDbEntity
  8
ALPHA
  0
POLYLINE
  5
1B80
100
AcDbEntity
  8
ALPHA
100
AcDb2dPolyline
 66
     1
 10
0.0
 20
0.0
 30
0.0
  0
VERTEX
  5
1B81
100
AcDbEntity
  8
ALPHA
100
AcDbVertex
100
AcDb2dVertex
 10
53.823343
 20
60.030772
 30
0.0
  0
VERTEX
  5
1B82
100
AcDbEntity
  8
ALPHA
100
AcDbVertex
100
AcDb2dVertex
 10
48.471731
 20
36.239287
 30
0.0
  0
SEQEND
  5
1B83
100
AcDbEntity
  8
ALPHA
  0
POLYLINE
  5
1B84
100
AcDbEntity
  8
ALPHA
100
AcDb2dPolyline
 66
     1
 10
0.0
 20
0.0
 30
0.0
  0
VERTEX
  5
1B85
100
AcDbEntity
  8
ALPHA
100
AcDbVertex
100
AcDb2dVertex
 10
26.453782
 20
15.271747
 30
0.0
  0
VERTEX
  5
1B86
100
AcDbEntity
  8
ALPHA
100
AcDbVertex
100
AcDb2dVertex
 10
50.533965
 20
9.697927
 30
0.0
  0
SEQEND
  5
1B87
100
AcDbEntity
  8
ALPHA
  0
POLYLINE
  5
1B88
100
AcDbEntity
  8
ALPHA
100
AcDb2dPolyline
 66
     1
 10
0.0
 20
0.0
 30
0.0
  0
VERTEX
  5
1B89
100
AcDbEntity
  8
ALPHA
100
AcDbVertex
100
AcDb2dVertex
 10
50.336906
 20
8.779465
 30
0.0
  0
VERTEX
  5
1B8A
100
AcDbEntity
  8
ALPHA
100
AcDbVertex
100
AcDb2dVertex
 10
26.47273
 20
14.239252
 30
0.0
  0
SEQEND
  5
1B8B
100
AcDbEntity
  8
ALPHA
  0
POLYLINE
  5
1B8C
100
AcDbEntity
  8
ALPHA
100
AcDb2dPolyline
 66
     1
 10
0.0
 20
0.0
 30
0.0
  0
VERTEX
  5
1B8D
100
AcDbEntity
  8
ALPHA
100
AcDbVertex
100
AcDb2dVertex
 10
46.429823
 20
2.47494
 30
0.0
  0
VERTEX
  5
1B8E
100
AcDbEntity
  8
ALPHA
100
AcDbVertex
100
AcDb2dVertex
 10
48.471731
 20
2.47494
 30
0.0
  0
SEQEND
  5
1B8F
100
AcDbEntity
  8
ALPHA
  0
POLYLINE
  5
1B90
100
AcDbEntity
  8
ALPHA
100
AcDb2dPolyline
 66
     1
 10
0.0
 20
0.0
 30
0.0
  0
VERTEX
  5
1B91
100
AcDbEntity
  8
ALPHA
100
AcDbVertex
100
AcDb2dVertex
 10
40.972447
 20
18.740269
 30
0.0
  0
VERTEX
  5
1B92
100
AcDbEntity
  8
ALPHA
100
AcDbVertex
100
AcDb2dVertex
 10
40.972447
 20
15.707896
 30
0.0
  0
SEQEND
  5
1B93
100
AcDbEntity
  8
ALPHA
  0
POLYLINE
  5
1B94
100
AcDbEntity
  8
ALPHA
100
AcDb2dPolyline
 66
     1
 10
0.0
 20
0.0
 30
0.0
  0
VERTEX
  5
1B95
100
AcDbEntity
  8
ALPHA
100
AcDbVertex
100
AcDb2dVertex
 10
26.47273
 20
17.277826
 30
0.0
  0
VERTEX
  5
1B96
100
AcDbEntity
  8
ALPHA
100
AcDbVertex
100
AcDb2dVertex
 10
26.626204
 20
17.285562
 30
0.0
  0
VERTEX
  5
1B97
100
AcDbEntity
  8
ALPHA
100
AcDbVertex
100
AcDb2dVertex
 10
26.775229
 20
17.308268
 30
0.0
  0
VERTEX
  5
1B98
100
AcDbEntity
  8
ALPHA
100
AcDbVertex
100
AcDb2dVertex
 10
26.919051
 20
17.345194
 30
0.0
  0
VERTEX
  5
1B99
100
AcDbEntity
  8
ALPHA
100
AcDbVertex
100
AcDb2dVertex
 10
27.056918
 20
17.395589
 30
0.0
  0
VERTEX
  5
1B9A
100
AcDbEntity
  8
ALPHA
100
AcDbVertex
100
AcDb2dVertex
 10
27.188079
 20
17.458704
 30
0.0
  0
VERTEX
  5
1B9B
100
AcDbEntity
  8
ALPHA
100
AcDbVertex
100
AcDb2dVertex
 10
27.31178
 20
17.533788
 30
0.0
  0
VERTEX
  5
1B9C
100
AcDbEntity
  8
ALPHA
100
AcDbVertex
100
AcDb2dVertex
 10
27.427271
 20
17.62009
 30
0.0
  0
VERTEX
  5
1B9D
100
AcDbEntity
  8
ALPHA
100
AcDbVertex
100
AcDb2dVertex
 10
27.533797
 20
17.716861
 30
0.0
  0
VERTEX
  5
1B9E
100
AcDbEntity
  8
ALPHA
100
AcDbVertex
100
AcDb2dVertex
 10
27.630609
 20
17.823349
 30
0.0
  0
VERTEX
  5
1B9F
100
AcDbEntity
  8
ALPHA
100
AcDbVertex
100
AcDb2dVertex
 10
27.716952
 20
17.938804
 30
0.0
  0
VERTEX
  5
1BA0
100
AcDbEntity
  8
ALPHA
100
AcDbVertex
100
AcDb2dVertex
 10
27.792076
 20
18.062475
 30
0.0
  0
VERTEX
  5
1BA1
100
AcDbEntity
  8
ALPHA
100
AcDbVertex
100
AcDb2dVertex
 10
27.855228
 20
18.193613
 30
0.0
  0
VERTEX
  5
1BA2
100
AcDbEntity
  8
ALPHA
100
AcDbVertex
100
AcDb2dVertex
 10
27.905655
 20
18.331467
 30
0.0
  0
VERTEX
  5
1BA3
100
AcDbEntity
  8
ALPHA
100
AcDbVertex
100
AcDb2dVertex
 10
27.942605
 20
18.475287
 30
0.0
  0
VERTEX
  5
1BA4
100
AcDbEntity
  8
ALPHA
100
AcDbVertex
100
AcDb2dVertex
 10
27.965328
 20
18.624322
 30
0.0
  0
VERTEX
  5
1BA5
100
AcDbEntity
  8
ALPHA
100
AcDbVertex
100
AcDb2dVertex
 10
27.973069
 20
18.777821
 30
0.0
  0
VERTEX
  5
1BA6
100
AcDbEntity
  8
ALPHA
100
AcDbVertex
100
AcDb2dVertex
 10
27.965328
 20
18.931032
 30
0.0
  0
VERTEX
  5
1BA7
100
AcDbEntity
  8
ALPHA
100
AcDbVertex
100
AcDb2dVertex
 10
27.942605
 20
19.079845
 30
0.0
  0
VERTEX
  5
1BA8
100
AcDbEntity
  8
ALPHA
100
AcDbVertex
100
AcDb2dVertex
 10
27.905655
 20
19.223503
 30
0.0
  0
VERTEX
  5
1BA9
100
AcDbEntity
  8
ALPHA
100
AcDbVertex
100
AcDb2dVertex
 10
27.855228
 20
19.361248
 30
0.0
  0
VERTEX
  5
1BAA
100
AcDbEntity
  8
ALPHA
100
AcDbVertex
100
AcDb2dVertex
 10
27.792076
 20
19.492323
 30
0.0
  0
VERTEX
  5
1BAB
100
AcDbEntity
  8
ALPHA
100
AcDbVertex
100
AcDb2dVertex
 10
27.716952
 20
19.615972
 30
0.0
  0
VERTEX
  5
1BAC
100
AcDbEntity
  8
ALPHA
100
AcDbVertex
100
AcDb2dVertex
 10
27.630609
 20
19.731438
 30
0.0
  0
VERTEX
  5
1BAD
100
AcDbEntity
  8
ALPHA
100
AcDbVertex
100
AcDb2dVertex
 10
27.533797
 20
19.837963
 30
0.0
  0
VERTEX
  5
1BAE
100
AcDbEntity
  8
ALPHA
100
AcDbVertex
100
AcDb2dVertex
 10
27.427271
 20
19.934791
 30
0.0
  0
VERTEX
  5
1BAF
100
AcDbEntity
  8
ALPHA
100
AcDbVertex
100
AcDb2dVertex
 10
27.31178
 20
20.021164
 30
0.0
  0
VERTEX
  5
1BB0
100
AcDbEntity
  8
ALPHA
100
AcDbVertex
100
AcDb2dVertex
 10
27.188079
 20
20.096326
 30
0.0
  0
VERTEX
  5
1BB1
100
AcDbEntity
  8
ALPHA
100
AcDbVertex
100
AcDb2dVertex
 10
27.056918
 20
20.15952
 30
0.0
  0
VERTEX
  5
1BB2
100
AcDbEntity
  8
ALPHA
100
AcDbVertex
100
AcDb2dVertex
 10
26.919051
 20
20.209988
 30
0.0
  0
VERTEX
  5
1BB3
100
AcDbEntity
  8
ALPHA
100
AcDbVertex
100
AcDb2dVertex
 10
26.775229
 20
20.246974
 30
0.0
  0
VERTEX
  5
1BB4
100
AcDbEntity
  8
ALPHA
100
AcDbVertex
100
AcDb2dVertex
 10
26.626204
 20
20.269721
 30
0.0
  0
VERTEX
  5
1BB5
100
AcDbEntity
  8
ALPHA
100
AcDbVertex
100
AcDb2dVertex
 10
26.47273
 20
20.277471
 30
0.0
  0
VERTEX
  5
1BB6
100
AcDbEntity
  8
ALPHA
100
AcDbVertex
100
AcDb2dVertex
 10
26.319522
 20
20.269721
 30
0.0
  0
VERTEX
  5
1BB7
100
AcDbEntity
  8
ALPHA
100
AcDbVertex
100
AcDb2dVertex
 10
26.17072
 20
20.246974
 30
0.0
  0
VERTEX
  5
1BB8
100
AcDbEntity
  8
ALPHA
100
AcDbVertex
100
AcDb2dVertex
 10
26.027079
 20
20.209988
 30
0.0
  0
VERTEX
  5
1BB9
100
AcDbEntity
  8
ALPHA
100
AcDbVertex
100
AcDb2dVertex
 10
25.889356
 20
20.15952
 30
0.0
  0
VERTEX
  5
1BBA
100
AcDbEntity
  8
ALPHA
100
AcDbVertex
100
AcDb2dVertex
 10
25.758307
 20
20.096326
 30
0.0
  0
VERTEX
  5
1BBB
100
AcDbEntity
  8
ALPHA
100
AcDbVertex
100
AcDb2dVertex
 10
25.634687
 20
20.021164
 30
0.0
  0
VERTEX
  5
1BBC
100
AcDbEntity
  8
ALPHA
100
AcDbVertex
100
AcDb2dVertex
 10
25.519253
 20
19.934791
 30
0.0
  0
VERTEX
  5
1BBD
100
AcDbEntity
  8
ALPHA
100
AcDbVertex
100
AcDb2dVertex
 10
25.41276
 20
19.837963
 30
0.0
  0
VERTEX
  5
1BBE
100
AcDbEntity
  8
ALPHA
100
AcDbVertex
100
AcDb2dVertex
 10
25.315964
 20
19.731438
 30
0.0
  0
VERTEX
  5
1BBF
100
AcDbEntity
  8
ALPHA
100
AcDbVertex
100
AcDb2dVertex
 10
25.229622
 20
19.615972
 30
0.0
  0
VERTEX
  5
1BC0
100
AcDbEntity
  8
ALPHA
100
AcDbVertex
100
AcDb2dVertex
 10
25.154489
 20
19.492323
 30
0.0
  0
VERTEX
  5
1BC1
100
AcDbEntity
  8
ALPHA
100
AcDbVertex
100
AcDb2dVertex
 10
25.091322
 20
19.361248
 30
0.0
  0
VERTEX
  5
1BC2
100
AcDbEntity
  8
ALPHA
100
AcDbVertex
100
AcDb2dVertex
 10
25.040875
 20
19.223503
 30
0.0
  0
VERTEX
  5
1BC3
100
AcDbEntity
  8
ALPHA
100
AcDbVertex
100
AcDb2dVertex
 10
25.003906
 20
19.079845
 30
0.0
  0
VERTEX
  5
1BC4
100
AcDbEntity
  8
ALPHA
100
AcDbVertex
100
AcDb2dVertex
 10
24.981171
 20
18.931032
 30
0.0
  0
VERTEX
  5
1BC5
100
AcDbEntity
  8
ALPHA
100
AcDbVertex
100
AcDb2dVertex
 10
24.973424
 20
18.777821
 30
0.0
  0
VERTEX
  5
1BC6
100
AcDbEntity
  8
ALPHA
100
AcDbVertex
100
AcDb2dVertex
 10
24.981171
 20
18.624322
 30
0.0
  0
VERTEX
  5
1BC7
100
AcDbEntity
  8
ALPHA
100
AcDbVertex
100
AcDb2dVertex
 10
25.003906
 20
18.475287
 30
0.0
  0
VERTEX
  5
1BC8
100
AcDbEntity
  8
ALPHA
100
AcDbVertex
100
AcDb2dVertex
 10
25.040875
 20
18.331467
 30
0.0
  0
VERTEX
  5
1BC9
100
AcDbEntity
  8
ALPHA
100
AcDbVertex
100
AcDb2dVertex
 10
25.091322
 20
18.193613
 30
0.0
  0
VERTEX
  5
1BCA
100
AcDbEntity
  8
ALPHA
100
AcDbVertex
100
AcDb2dVertex
 10
25.154489
 20
18.062475
 30
0.0
  0
VERTEX
  5
1BCB
100
AcDbEntity
  8
ALPHA
100
AcDbVertex
100
AcDb2dVertex
 10
25.229622
 20
17.938804
 30
0.0
  0
VERTEX
  5
1BCC
100
AcDbEntity
  8
ALPHA
100
AcDbVertex
100
AcDb2dVertex
 10
25.315964
 20
17.823349
 30
0.0
  0
VERTEX
  5
1BCD
100
AcDbEntity
  8
ALPHA
100
AcDbVertex
100
AcDb2dVertex
 10
25.41276
 20
17.716861
 30
0.0
  0
VERTEX
  5
1BCE
100
AcDbEntity
  8
ALPHA
100
AcDbVertex
100
AcDb2dVertex
 10
25.519253
 20
17.62009
 30
0.0
  0
VERTEX
  5
1BCF
100
AcDbEntity
  8
ALPHA
100
AcDbVertex
100
AcDb2dVertex
 10
25.634687
 20
17.533788
 30
0.0
  0
VERTEX
  5
1BD0
100
AcDbEntity
  8
ALPHA
100
AcDbVertex
100
AcDb2dVertex
 10
25.758307
 20
17.458704
 30
0.0
  0
VERTEX
  5
1BD1
100
AcDbEntity
  8
ALPHA
100
AcDbVertex
100
AcDb2dVertex
 10
25.889356
 20
17.395589
 30
0.0
  0
VERTEX
  5
1BD2
100
AcDbEntity
  8
ALPHA
100
AcDbVertex
100
AcDb2dVertex
 10
26.027079
 20
17.345194
 30
0.0
  0
VERTEX
  5
1BD3
100
AcDbEntity
  8
ALPHA
100
AcDbVertex
100
AcDb2dVertex
 10
26.17072
 20
17.308268
 30
0.0
  0
VERTEX
  5
1BD4
100
AcDbEntity
  8
ALPHA
100
AcDbVertex
100
AcDb2dVertex
 10
26.319522
 20
17.285562
 30
0.0
  0
VERTEX
  5
1BD5
100
AcDbEntity
  8
ALPHA
100
AcDbVertex
100
AcDb2dVertex
 10
26.47273
 20
17.277826
 30
0.0
  0
SEQEND
  5
1BD6
100
AcDbEntity
  8
ALPHA
  0
POLYLINE
  5
1BD7
100
AcDbEntity
  8
ALPHA
100
AcDb2dPolyline
 66
     1
 10
0.0
 20
0.0
 30
0.0
  0
VERTEX
  5
1BD8
100
AcDbEntity
  8
ALPHA
100
AcDbVertex
100
AcDb2dVertex
 10
26.47273
 20
15.778176
 30
0.0
  0
VERTEX
  5
1BD9
100
AcDbEntity
  8
ALPHA
100
AcDbVertex
100
AcDb2dVertex
 10
26.779529
 20
15.793662
 30
0.0
  0
VERTEX
  5
1BDA
100
AcDbEntity
  8
ALPHA
100
AcDbVertex
100
AcDb2dVertex
 10
27.077451
 20
15.839115
 30
0.0
  0
VERTEX
  5
1BDB
100
AcDbEntity
  8
ALPHA
100
AcDbVertex
100
AcDb2dVertex
 10
27.364989
 20
15.913027
 30
0.0
  0
VERTEX
  5
1BDC
100
AcDbEntity
  8
ALPHA
100
AcDbVertex
100
AcDb2dVertex
 10
27.640636
 20
16.013891
 30
0.0
  0
VERTEX
  5
1BDD
100
AcDbEntity
  8
ALPHA
100
AcDbVertex
100
AcDb2dVertex
 10
27.902886
 20
16.140199
 30
0.0
  0
VERTEX
  5
1BDE
100
AcDbEntity
  8
ALPHA
100
AcDbVertex
100
AcDb2dVertex
 10
28.150234
 20
16.290445
 30
0.0
  0
VERTEX
  5
1BDF
100
AcDbEntity
  8
ALPHA
100
AcDbVertex
100
AcDb2dVertex
 10
28.381174
 20
16.463121
 30
0.0
  0
VERTEX
  5
1BE0
100
AcDbEntity
  8
ALPHA
100
AcDbVertex
100
AcDb2dVertex
 10
28.594198
 20
16.656719
 30
0.0
  0
VERTEX
  5
1BE1
100
AcDbEntity
  8
ALPHA
100
AcDbVertex
100
AcDb2dVertex
 10
28.787801
 20
16.869732
 30
0.0
  0
VERTEX
  5
1BE2
100
AcDbEntity
  8
ALPHA
100
AcDbVertex
100
AcDb2dVertex
 10
28.960477
 20
17.100652
 30
0.0
  0
VERTEX
  5
1BE3
100
AcDbEntity
  8
ALPHA
100
AcDbVertex
100
AcDb2dVertex
 10
29.11072
 20
17.347973
 30
0.0
  0
VERTEX
  5
1BE4
100
AcDbEntity
  8
ALPHA
100
AcDbVertex
100
AcDb2dVertex
 10
29.237023
 20
17.610187
 30
0.0
  0
VERTEX
  5
1BE5
100
AcDbEntity
  8
ALPHA
100
AcDbVertex
100
AcDb2dVertex
 10
29.337881
 20
17.885786
 30
0.0
  0
VERTEX
  5
1BE6
100
AcDbEntity
  8
ALPHA
100
AcDbVertex
100
AcDb2dVertex
 10
29.411787
 20
18.173263
 30
0.0
  0
VERTEX
  5
1BE7
100
AcDbEntity
  8
ALPHA
100
AcDbVertex
100
AcDb2dVertex
 10
29.457235
 20
18.47111
 30
0.0
  0
VERTEX
  5
1BE8
100
AcDbEntity
  8
ALPHA
100
AcDbVertex
100
AcDb2dVertex
 10
29.472719
 20
18.777821
 30
0.0
  0
VERTEX
  5
1BE9
100
AcDbEntity
  8
ALPHA
100
AcDbVertex
100
AcDb2dVertex
 10
29.457235
 20
19.084532
 30
0.0
  0
VERTEX
  5
1BEA
100
AcDbEntity
  8
ALPHA
100
AcDbVertex
100
AcDb2dVertex
 10
29.411787
 20
19.382379
 30
0.0
  0
VERTEX
  5
1BEB
100
AcDbEntity
  8
ALPHA
100
AcDbVertex
100
AcDb2dVertex
 10
29.337881
 20
19.669856
 30
0.0
  0
VERTEX
  5
1BEC
100
AcDbEntity
  8
ALPHA
100
AcDbVertex
100
AcDb2dVertex
 10
29.237023
 20
19.945455
 30
0.0
  0
VERTEX
  5
1BED
100
AcDbEntity
  8
ALPHA
100
AcDbVertex
100
AcDb2dVertex
 10
29.11072
 20
20.207669
 30
0.0
  0
VERTEX
  5
1BEE
100
AcDbEntity
  8
ALPHA
100
AcDbVertex
100
AcDb2dVertex
 10
28.960477
 20
20.45499
 30
0.0
  0
VERTEX
  5
1BEF
100
AcDbEntity
  8
ALPHA
100
AcDbVertex
100
AcDb2dVertex
 10
28.787801
 20
20.68591
 30
0.0
  0
VERTEX
  5
1BF0
100
AcDbEntity
  8
ALPHA
100
AcDbVertex
100
AcDb2dVertex
 10
28.594198
 20
20.898923
 30
0.0
  0
VERTEX
  5
1BF1
100
AcDbEntity
  8
ALPHA
100
AcDbVertex
100
AcDb2dVertex
 10
28.381174
 20
21.092521
 30
0.0
  0
VERTEX
  5
1BF2
100
AcDbEntity
  8
ALPHA
100
AcDbVertex
100
AcDb2dVertex
 10
28.150234
 20
21.265197
 30
0.0
  0
VERTEX
  5
1BF3
100
AcDbEntity
  8
ALPHA
100
AcDbVertex
100
AcDb2dVertex
 10
27.902886
 20
21.415442
 30
0.0
  0
VERTEX
  5
1BF4
100
AcDbEntity
  8
ALPHA
100
AcDbVertex
100
AcDb2dVertex
 10
27.640636
 20
21.541751
 30
0.0
  0
VERTEX
  5
1BF5
100
AcDbEntity
  8
ALPHA
100
AcDbVertex
100
AcDb2dVertex
 10
27.364989
 20
21.642615
 30
0.0
  0
VERTEX
  5
1BF6
100
AcDbEntity
  8
ALPHA
100
AcDbVertex
100
AcDb2dVertex
 10
27.077451
 20
21.716527
 30
0.0
  0
VERTEX
  5
1BF7
100
AcDbEntity
  8
ALPHA
100
AcDbVertex
100
AcDb2dVertex
 10
26.779529
 20
21.76198
 30
0.0
  0
VERTEX
  5
1BF8
100
AcDbEntity
  8
ALPHA
100
AcDbVertex
100
AcDb2dVertex
 10
26.47273
 20
21.777466
 30
0.0
  0
VERTEX
  5
1BF9
100
AcDbEntity
  8
ALPHA
100
AcDbVertex
100
AcDb2dVertex
 10
26.165987
 20
21.76198
 30
0.0
  0
VERTEX
  5
1BFA
100
AcDbEntity
  8
ALPHA
100
AcDbVertex
100
AcDb2dVertex
 10
25.868107
 20
21.716527
 30
0.0
  0
VERTEX
  5
1BFB
100
AcDbEntity
  8
ALPHA
100
AcDbVertex
100
AcDb2dVertex
 10
25.580598
 20
21.642615
 30
0.0
  0
VERTEX
  5
1BFC
100
AcDbEntity
  8
ALPHA
100
AcDbVertex
100
AcDb2dVertex
 10
25.304969
 20
21.541751
 30
0.0
  0
VERTEX
  5
1BFD
100
AcDbEntity
  8
ALPHA
100
AcDbVertex
100
AcDb2dVertex
 10
25.042725
 20
21.415442
 30
0.0
  0
VERTEX
  5
1BFE
100
AcDbEntity
  8
ALPHA
100
AcDbVertex
100
AcDb2dVertex
 10
24.795376
 20
21.265197
 30
0.0
  0
VERTEX
  5
1BFF
100
AcDbEntity
  8
ALPHA
100
AcDbVertex
100
AcDb2dVertex
 10
24.564429
 20
21.092521
 30
0.0
  0
VERTEX
  5
1C00
100
AcDbEntity
  8
ALPHA
100
AcDbVertex
100
AcDb2dVertex
 10
24.351391
 20
20.898923
 30
0.0
  0
VERTEX
  5
1C01
100
AcDbEntity
  8
ALPHA
100
AcDbVertex
100
AcDb2dVertex
 10
24.157769
 20
20.68591
 30
0.0
  0
VERTEX
  5
1C02
100
AcDbEntity
  8
ALPHA
100
AcDbVertex
100
AcDb2dVertex
 10
23.985073
 20
20.45499
 30
0.0
  0
VERTEX
  5
1C03
100
AcDbEntity
  8
ALPHA
100
AcDbVertex
100
AcDb2dVertex
 10
23.834809
 20
20.207669
 30
0.0
  0
VERTEX
  5
1C04
100
AcDbEntity
  8
ALPHA
100
AcDbVertex
100
AcDb2dVertex
 10
23.708485
 20
19.945455
 30
0.0
  0
VERTEX
  5
1C05
100
AcDbEntity
  8
ALPHA
100
AcDbVertex
100
AcDb2dVertex
 10
23.607608
 20
19.669856
 30
0.0
  0
VERTEX
  5
1C06
100
AcDbEntity
  8
ALPHA
100
AcDbVertex
100
AcDb2dVertex
 10
23.533687
 20
19.382379
 30
0.0
  0
VERTEX
  5
1C07
100
AcDbEntity
  8
ALPHA
100
AcDbVertex
100
AcDb2dVertex
 10
23.488228
 20
19.084532
 30
0.0
  0
VERTEX
  5
1C08
100
AcDbEntity
  8
ALPHA
100
AcDbVertex
100
AcDb2dVertex
 10
23.47274
 20
18.777821
 30
0.0
  0
VERTEX
  5
1C09
100
AcDbEntity
  8
ALPHA
100
AcDbVertex
100
AcDb2dVertex
 10
23.488228
 20
18.47111
 30
0.0
  0
VERTEX
  5
1C0A
100
AcDbEntity
  8
ALPHA
100
AcDbVertex
100
AcDb2dVertex
 10
23.533687
 20
18.173263
 30
0.0
  0
VERTEX
  5
1C0B
100
AcDbEntity
  8
ALPHA
100
AcDbVertex
100
AcDb2dVertex
 10
23.607608
 20
17.885786
 30
0.0
  0
VERTEX
  5
1C0C
100
AcDbEntity
  8
ALPHA
100
AcDbVertex
100
AcDb2dVertex
 10
23.708485
 20
17.610187
 30
0.0
  0
VERTEX
  5
1C0D
100
AcDbEntity
  8
ALPHA
100
AcDbVertex
100
AcDb2dVertex
 10
23.834809
 20
17.347973
 30
0.0
  0
VERTEX
  5
1C0E
100
AcDbEntity
  8
ALPHA
100
AcDbVertex
100
AcDb2dVertex
 10
23.985073
 20
17.100652
 30
0.0
  0
VERTEX
  5
1C0F
100
AcDbEntity
  8
ALPHA
100
AcDbVertex
100
AcDb2dVertex
 10
24.157769
 20
16.869732
 30
0.0
  0
VERTEX
  5
1C10
100
AcDbEntity
  8
ALPHA
100
AcDbVertex
100
AcDb2dVertex
 10
24.351391
 20
16.656719
 30
0.0
  0
VERTEX
  5
1C11
100
AcDbEntity
  8
ALPHA
100
AcDbVertex
100
AcDb2dVertex
 10
24.564429
 20
16.463121
 30
0.0
  0
VERTEX
  5
1C12
100
AcDbEntity
  8
ALPHA
100
AcDbVertex
100
AcDb2dVertex
 10
24.795376
 20
16.290445
 30
0.0
  0
VERTEX
  5
1C13
100
AcDbEntity
  8
ALPHA
100
AcDbVertex
100
AcDb2dVertex
 10
25.042725
 20
16.140199
 30
0.0
  0
VERTEX
  5
1C14
100
AcDbEntity
  8
ALPHA
100
AcDbVertex
100
AcDb2dVertex
 10
25.304969
 20
16.013891
 30
0.0
  0
VERTEX
  5
1C15
100
AcDbEntity
  8
ALPHA
100
AcDbVertex
100
AcDb2dVertex
 10
25.580598
 20
15.913027
 30
0.0
  0
VERTEX
  5
1C16
100
AcDbEntity
  8
ALPHA
100
AcDbVertex
100
AcDb2dVertex
 10
25.868107
 20
15.839115
 30
0.0
  0
VERTEX
  5
1C17
100
AcDbEntity
  8
ALPHA
100
AcDbVertex
100
AcDb2dVertex
 10
26.165987
 20
15.793662
 30
0.0
  0
VERTEX
  5
1C18
100
AcDbEntity
  8
ALPHA
100
AcDbVertex
100
AcDb2dVertex
 10
26.47273
 20
15.778176
 30
0.0
  0
SEQEND
  5
1C19
100
AcDbEntity
  8
ALPHA
  0
POLYLINE
  5
1C1A
100
AcDbEntity
  8
ALPHA
100
AcDb2dPolyline
 66
     1
 10
0.0
 20
0.0
 30
0.0
  0
VERTEX
  5
1C1B
100
AcDbEntity
  8
ALPHA
100
AcDbVertex
100
AcDb2dVertex
 10
43.972092
 20
17.315378
 30
0.0
  0
VERTEX
  5
1C1C
100
AcDbEntity
  8
ALPHA
100
AcDbVertex
100
AcDb2dVertex
 10
44.116482
 20
17.32266
 30
0.0
  0
VERTEX
  5
1C1D
100
AcDbEntity
  8
ALPHA
100
AcDbVertex
100
AcDb2dVertex
 10
44.256692
 20
17.344035
 30
0.0
  0
VERTEX
  5
1C1E
100
AcDbEntity
  8
ALPHA
100
AcDbVertex
100
AcDb2dVertex
 10
44.392013
 20
17.378796
 30
0.0
  0
VERTEX
  5
1C1F
100
AcDbEntity
  8
ALPHA
100
AcDbVertex
100
AcDb2dVertex
 10
44.521736
 20
17.426235
 30
0.0
  0
VERTEX
  5
1C20
100
AcDbEntity
  8
ALPHA
100
AcDbVertex
100
AcDb2dVertex
 10
44.645152
 20
17.485643
 30
0.0
  0
VERTEX
  5
1C21
100
AcDbEntity
  8
ALPHA
100
AcDbVertex
100
AcDb2dVertex
 10
44.761555
 20
17.556315
 30
0.0
  0
VERTEX
  5
1C22
100
AcDbEntity
  8
ALPHA
100
AcDbVertex
100
AcDb2dVertex
 10
44.870234
 20
17.637542
 30
0.0
  0
VERTEX
  5
1C23
100
AcDbEntity
  8
ALPHA
100
AcDbVertex
100
AcDb2dVertex
 10
44.970481
 20
17.728617
 30
0.0
  0
VERTEX
  5
1C24
100
AcDbEntity
  8
ALPHA
100
AcDbVertex
100
AcDb2dVertex
 10
45.061588
 20
17.828832
 30
0.0
  0
VERTEX
  5
1C25
100
AcDbEntity
  8
ALPHA
100
AcDbVertex
100
AcDb2dVertex
 10
45.142846
 20
17.93748
 30
0.0
  0
VERTEX
  5
1C26
100
AcDbEntity
  8
ALPHA
100
AcDbVertex
100
AcDb2dVertex
 10
45.213547
 20
18.053853
 30
0.0
  0
VERTEX
  5
1C27
100
AcDbEntity
  8
ALPHA
100
AcDbVertex
100
AcDb2dVertex
 10
45.272982
 20
18.177244
 30
0.0
  0
VERTEX
  5
1C28
100
AcDbEntity
  8
ALPHA
100
AcDbVertex
100
AcDb2dVertex
 10
45.320442
 20
18.306945
 30
0.0
  0
VERTEX
  5
1C29
100
AcDbEntity
  8
ALPHA
100
AcDbVertex
100
AcDb2dVertex
 10
45.35522
 20
18.442248
 30
0.0
  0
VERTEX
  5
1C2A
100
AcDbEntity
  8
ALPHA
100
AcDbVertex
100
AcDb2dVertex
 10
45.376606
 20
18.582447
 30
0.0
  0
VERTEX
  5
1C2B
100
AcDbEntity
  8
ALPHA
100
AcDbVertex
100
AcDb2dVertex
 10
45.383892
 20
18.726834
 30
0.0
  0
VERTEX
  5
1C2C
100
AcDbEntity
  8
ALPHA
100
AcDbVertex
100
AcDb2dVertex
 10
45.376606
 20
18.871182
 30
0.0
  0
VERTEX
  5
1C2D
100
AcDbEntity
  8
ALPHA
100
AcDbVertex
100
AcDb2dVertex
 10
45.35522
 20
19.011394
 30
0.0
  0
VERTEX
  5
1C2E
100
AcDbEntity
  8
ALPHA
100
AcDbVertex
100
AcDb2dVertex
 10
45.320442
 20
19.146753
 30
0.0
  0
VERTEX
  5
1C2F
100
AcDbEntity
  8
ALPHA
100
AcDbVertex
100
AcDb2dVertex
 10
45.272982
 20
19.276547
 30
0.0
  0
VERTEX
  5
1C30
100
AcDbEntity
  8
ALPHA
100
AcDbVertex
100
AcDb2dVertex
 10
45.213547
 20
19.400061
 30
0.0
  0
VERTEX
  5
1C31
100
AcDbEntity
  8
ALPHA
100
AcDbVertex
100
AcDb2dVertex
 10
45.142846
 20
19.516581
 30
0.0
  0
VERTEX
  5
1C32
100
AcDbEntity
  8
ALPHA
100
AcDbVertex
100
AcDb2dVertex
 10
45.061588
 20
19.625392
 30
0.0
  0
VERTEX
  5
1C33
100
AcDbEntity
  8
ALPHA
100
AcDbVertex
100
AcDb2dVertex
 10
44.970481
 20
19.725782
 30
0.0
  0
VERTEX
  5
1C34
100
AcDbEntity
  8
ALPHA
100
AcDbVertex
100
AcDb2dVertex
 10
44.870234
 20
19.817035
 30
0.0
  0
VERTEX
  5
1C35
100
AcDbEntity
  8
ALPHA
100
AcDbVertex
100
AcDb2dVertex
 10
44.761555
 20
19.898438
 30
0.0
  0
VERTEX
  5
1C36
100
AcDbEntity
  8
ALPHA
100
AcDbVertex
100
AcDb2dVertex
 10
44.645152
 20
19.969277
 30
0.0
  0
VERTEX
  5
1C37
100
AcDbEntity
  8
ALPHA
100
AcDbVertex
100
AcDb2dVertex
 10
44.521736
 20
20.028837
 30
0.0
  0
VERTEX
  5
1C38
100
AcDbEntity
  8
ALPHA
100
AcDbVertex
100
AcDb2dVertex
 10
44.392013
 20
20.076405
 30
0.0
  0
VERTEX
  5
1C39
100
AcDbEntity
  8
ALPHA
100
AcDbVertex
100
AcDb2dVertex
 10
44.256692
 20
20.111266
 30
0.0
  0
VERTEX
  5
1C3A
100
AcDbEntity
  8
ALPHA
100
AcDbVertex
100
AcDb2dVertex
 10
44.116482
 20
20.132706
 30
0.0
  0
VERTEX
  5
1C3B
100
AcDbEntity
  8
ALPHA
100
AcDbVertex
100
AcDb2dVertex
 10
43.972092
 20
20.140012
 30
0.0
  0
VERTEX
  5
1C3C
100
AcDbEntity
  8
ALPHA
100
AcDbVertex
100
AcDb2dVertex
 10
43.827751
 20
20.132706
 30
0.0
  0
VERTEX
  5
1C3D
100
AcDbEntity
  8
ALPHA
100
AcDbVertex
100
AcDb2dVertex
 10
43.687562
 20
20.111266
 30
0.0
  0
VERTEX
  5
1C3E
100
AcDbEntity
  8
ALPHA
100
AcDbVertex
100
AcDb2dVertex
 10
43.552236
 20
20.076405
 30
0.0
  0
VERTEX
  5
1C3F
100
AcDbEntity
  8
ALPHA
100
AcDbVertex
100
AcDb2dVertex
 10
43.422486
 20
20.028837
 30
0.0
  0
VERTEX
  5
1C40
100
AcDbEntity
  8
ALPHA
100
AcDbVertex
100
AcDb2dVertex
 10
43.299025
 20
19.969277
 30
0.0
  0
VERTEX
  5
1C41
100
AcDbEntity
  8
ALPHA
100
AcDbVertex
100
AcDb2dVertex
 10
43.182563
 20
19.898438
 30
0.0
  0
VERTEX
  5
1C42
100
AcDbEntity
  8
ALPHA
100
AcDbVertex
100
AcDb2dVertex
 10
43.073813
 20
19.817035
 30
0.0
  0
VERTEX
  5
1C43
100
AcDbEntity
  8
ALPHA
100
AcDbVertex
100
AcDb2dVertex
 10
42.973488
 20
19.725782
 30
0.0
  0
VERTEX
  5
1C44
100
AcDbEntity
  8
ALPHA
100
AcDbVertex
100
AcDb2dVertex
 10
42.882299
 20
19.625392
 30
0.0
  0
VERTEX
  5
1C45
100
AcDbEntity
  8
ALPHA
100
AcDbVertex
100
AcDb2dVertex
 10
42.800958
 20
19.516581
 30
0.0
  0
VERTEX
  5
1C46
100
AcDbEntity
  8
ALPHA
100
AcDbVertex
100
AcDb2dVertex
 10
42.730178
 20
19.400061
 30
0.0
  0
VERTEX
  5
1C47
100
AcDbEntity
  8
ALPHA
100
AcDbVertex
100
AcDb2dVertex
 10
42.67067
 20
19.276547
 30
0.0
  0
VERTEX
  5
1C48
100
AcDbEntity
  8
ALPHA
100
AcDbVertex
100
AcDb2dVertex
 10
42.623146
 20
19.146753
 30
0.0
  0
VERTEX
  5
1C49
100
AcDbEntity
  8
ALPHA
100
AcDbVertex
100
AcDb2dVertex
 10
42.588319
 20
19.011394
 30
0.0
  0
VERTEX
  5
1C4A
100
AcDbEntity
  8
ALPHA
100
AcDbVertex
100
AcDb2dVertex
 10
42.566901
 20
18.871182
 30
0.0
  0
VERTEX
  5
1C4B
100
AcDbEntity
  8
ALPHA
100
AcDbVertex
100
AcDb2dVertex
 10
42.559603
 20
18.726834
 30
0.0
  0
VERTEX
  5
1C4C
100
AcDbEntity
  8
ALPHA
100
AcDbVertex
100
AcDb2dVertex
 10
42.566901
 20
18.582447
 30
0.0
  0
VERTEX
  5
1C4D
100
AcDbEntity
  8
ALPHA
100
AcDbVertex
100
AcDb2dVertex
 10
42.588319
 20
18.442248
 30
0.0
  0
VERTEX
  5
1C4E
100
AcDbEntity
  8
ALPHA
100
AcDbVertex
100
AcDb2dVertex
 10
42.623146
 20
18.306945
 30
0.0
  0
VERTEX
  5
1C4F
100
AcDbEntity
  8
ALPHA
100
AcDbVertex
100
AcDb2dVertex
 10
42.67067
 20
18.177244
 30
0.0
  0
VERTEX
  5
1C50
100
AcDbEntity
  8
ALPHA
100
AcDbVertex
100
AcDb2dVertex
 10
42.730178
 20
18.053853
 30
0.0
  0
VERTEX
  5
1C51
100
AcDbEntity
  8
ALPHA
100
AcDbVertex
100
AcDb2dVertex
 10
42.800958
 20
17.93748
 30
0.0
  0
VERTEX
  5
1C52
100
AcDbEntity
  8
ALPHA
100
AcDbVertex
100
AcDb2dVertex
 10
42.882299
 20
17.828832
 30
0.0
  0
VERTEX
  5
1C53
100
AcDbEntity
  8
ALPHA
100
AcDbVertex
100
AcDb2dVertex
 10
42.973488
 20
17.728617
 30
0.0
  0
VERTEX
  5
1C54
100
AcDbEntity
  8
ALPHA
100
AcDbVertex
100
AcDb2dVertex
 10
43.073813
 20
17.637542
 30
0.0
  0
VERTEX
  5
1C55
100
AcDbEntity
  8
ALPHA
100
AcDbVertex
100
AcDb2dVertex
 10
43.182563
 20
17.556315
 30
0.0
  0
VERTEX
  5
1C56
100
AcDbEntity
  8
ALPHA
100
AcDbVertex
100
AcDb2dVertex
 10
43.299025
 20
17.485643
 30
0.0
  0
VERTEX
  5
1C57
100
AcDbEntity
  8
ALPHA
100
AcDbVertex
100
AcDb2dVertex
 10
43.422486
 20
17.426235
 30
0.0
  0
VERTEX
  5
1C58
100
AcDbEntity
  8
ALPHA
100
AcDbVertex
100
AcDb2dVertex
 10
43.552236
 20
17.378796
 30
0.0
  0
VERTEX
  5
1C59
100
AcDbEntity
  8
ALPHA
100
AcDbVertex
100
AcDb2dVertex
 10
43.687562
 20
17.344035
 30
0.0
  0
VERTEX
  5
1C5A
100
AcDbEntity
  8
ALPHA
100
AcDbVertex
100
AcDb2dVertex
 10
43.827751
 20
17.32266
 30
0.0
  0
VERTEX
  5
1C5B
100
AcDbEntity
  8
ALPHA
100
AcDbVertex
100
AcDb2dVertex
 10
43.972092
 20
17.315378
 30
0.0
  0
SEQEND
  5
1C5C
100
AcDbEntity
  8
ALPHA
  0
POLYLINE
  5
1C5D
100
AcDbEntity
  8
ALPHA
100
AcDb2dPolyline
 66
     1
 10
0.0
 20
0.0
 30
0.0
  0
VERTEX
  5
1C5E
100
AcDbEntity
  8
ALPHA
100
AcDbVertex
100
AcDb2dVertex
 10
43.972092
 20
15.740969
 30
0.0
  0
VERTEX
  5
1C5F
100
AcDbEntity
  8
ALPHA
100
AcDbVertex
100
AcDb2dVertex
 10
44.278803
 20
15.756451
 30
0.0
  0
VERTEX
  5
1C60
100
AcDbEntity
  8
ALPHA
100
AcDbVertex
100
AcDb2dVertex
 10
44.576651
 20
15.801893
 30
0.0
  0
VERTEX
  5
1C61
100
AcDbEntity
  8
ALPHA
100
AcDbVertex
100
AcDb2dVertex
 10
44.864127
 20
15.875788
 30
0.0
  0
VERTEX
  5
1C62
100
AcDbEntity
  8
ALPHA
100
AcDbVertex
100
AcDb2dVertex
 10
45.139726
 20
15.97663
 30
0.0
  0
VERTEX
  5
1C63
100
AcDbEntity
  8
ALPHA
100
AcDbVertex
100
AcDb2dVertex
 10
45.40194
 20
16.102912
 30
0.0
  0
VERTEX
  5
1C64
100
AcDbEntity
  8
ALPHA
100
AcDbVertex
100
AcDb2dVertex
 10
45.649261
 20
16.253129
 30
0.0
  0
VERTEX
  5
1C65
100
AcDbEntity
  8
ALPHA
100
AcDbVertex
100
AcDb2dVertex
 10
45.880181
 20
16.425774
 30
0.0
  0
VERTEX
  5
1C66
100
AcDbEntity
  8
ALPHA
100
AcDbVertex
100
AcDb2dVertex
 10
46.093194
 20
16.619339
 30
0.0
  0
VERTEX
  5
1C67
100
AcDbEntity
  8
ALPHA
100
AcDbVertex
100
AcDb2dVertex
 10
46.286792
 20
16.83232
 30
0.0
  0
VERTEX
  5
1C68
100
AcDbEntity
  8
ALPHA
100
AcDbVertex
100
AcDb2dVertex
 10
46.459468
 20
17.06321
 30
0.0
  0
VERTEX
  5
1C69
100
AcDbEntity
  8
ALPHA
100
AcDbVertex
100
AcDb2dVertex
 10
46.609714
 20
17.310501
 30
0.0
  0
VERTEX
  5
1C6A
100
AcDbEntity
  8
ALPHA
100
AcDbVertex
100
AcDb2dVertex
 10
46.736022
 20
17.572689
 30
0.0
  0
VERTEX
  5
1C6B
100
AcDbEntity
  8
ALPHA
100
AcDbVertex
100
AcDb2dVertex
 10
46.836886
 20
17.848266
 30
0.0
  0
VERTEX
  5
1C6C
100
AcDbEntity
  8
ALPHA
100
AcDbVertex
100
AcDb2dVertex
 10
46.910798
 20
18.135726
 30
0.0
  0
VERTEX
  5
1C6D
100
AcDbEntity
  8
ALPHA
100
AcDbVertex
100
AcDb2dVertex
 10
46.956251
 20
18.433562
 30
0.0
  0
VERTEX
  5
1C6E
100
AcDbEntity
  8
ALPHA
100
AcDbVertex
100
AcDb2dVertex
 10
46.971737
 20
18.740269
 30
0.0
  0
SEQEND
  5
1C6F
100
AcDbEntity
  8
ALPHA
  0
POLYLINE
  5
1C70
100
AcDbEntity
  8
ALPHA
100
AcDb2dPolyline
 66
     1
 10
0.0
 20
0.0
 30
0.0
  0
VERTEX
  5
1C71
100
AcDbEntity
  8
ALPHA
100
AcDbVertex
100
AcDb2dVertex
 10
19.908617
 20
-0.697304
 30
0.0
  0
VERTEX
  5
1C72
100
AcDbEntity
  8
ALPHA
100
AcDbVertex
100
AcDb2dVertex
 10
33.05424
 20
-0.697304
 30
0.0
  0
SEQEND
  5
1C73
100
AcDbEntity
  8
ALPHA
  0
POLYLINE
  5
1C74
100
AcDbEntity
  8
ALPHA
100
AcDb2dPolyline
 66
     1
 10
0.0
 20
0.0
 30
0.0
  0
VERTEX
  5
1C75
100
AcDbEntity
  8
ALPHA
100
AcDbVertex
100
AcDb2dVertex
 10
24.853879
 20
5.89592
 30
0.0
  0
VERTEX
  5
1C76
100
AcDbEntity
  8
ALPHA
100
AcDbVertex
100
AcDb2dVertex
 10
25.59647
 20
6.671066
 30
0.0
  0
SEQEND
  5
1C77
100
AcDbEntity
  8
ALPHA
  0
POLYLINE
  5
1C78
100
AcDbEntity
  8
ALPHA
100
AcDb2dPolyline
 66
     1
 10
0.0
 20
0.0
 30
0.0
  0
VERTEX
  5
1C79
100
AcDbEntity
  8
ALPHA
100
AcDbVertex
100
AcDb2dVertex
 10
25.59647
 20
6.671066
 30
0.0
  0
VERTEX
  5
1C7A
100
AcDbEntity
  8
ALPHA
100
AcDbVertex
100
AcDb2dVertex
 10
26.666688
 20
5.601709
 30
0.0
  0
SEQEND
  5
1C7B
100
AcDbEntity
  8
ALPHA
  0
POLYLINE
  5
1C7C
100
AcDbEntity
  8
ALPHA
100
AcDb2dPolyline
 66
     1
 10
0.0
 20
0.0
 30
0.0
  0
VERTEX
  5
1C7D
100
AcDbEntity
  8
ALPHA
100
AcDbVertex
100
AcDb2dVertex
 10
26.709924
 20
5.592407
 30
0.0
  0
VERTEX
  5
1C7E
100
AcDbEntity
  8
ALPHA
100
AcDbVertex
100
AcDb2dVertex
 10
28.401811
 20
7.235718
 30
0.0
  0
SEQEND
  5
1C7F
100
AcDbEntity
  8
ALPHA
  0
POLYLINE
  5
1C80
100
AcDbEntity
  8
ALPHA
100
AcDb2dPolyline
 66
     1
 10
0.0
 20
0.0
 30
0.0
  0
VERTEX
  5
1C81
100
AcDbEntity
  8
ALPHA
100
AcDbVertex
100
AcDb2dVertex
 10
29.094964
 20
6.556
 30
0.0
  0
VERTEX
  5
1C82
100
AcDbEntity
  8
ALPHA
100
AcDbVertex
100
AcDb2dVertex
 10
27.444074
 20
4.872382
 30
0.0
  0
SEQEND
  5
1C83
100
AcDbEntity
  8
ALPHA
  0
POLYLINE
  5
1C84
100
AcDbEntity
  8
ALPHA
100
AcDb2dPolyline
 66
     1
 10
0.0
 20
0.0
 30
0.0
  0
VERTEX
  5
1C85
100
AcDbEntity
  8
ALPHA
100
AcDbVertex
100
AcDb2dVertex
 10
26.696489
 20
1.742857
 30
0.0
  0
VERTEX
  5
1C86
100
AcDbEntity
  8
ALPHA
100
AcDbVertex
100
AcDb2dVertex
 10
27.006506
 20
1.758518
 30
0.0
  0
VERTEX
  5
1C87
100
AcDbEntity
  8
ALPHA
100
AcDbVertex
100
AcDb2dVertex
 10
27.307545
 20
1.804482
 30
0.0
  0
VERTEX
  5
1C88
100
AcDbEntity
  8
ALPHA
100
AcDbVertex
100
AcDb2dVertex
 10
27.598085
 20
1.879225
 30
0.0
  0
VERTEX
  5
1C89
100
AcDbEntity
  8
ALPHA
100
AcDbVertex
100
AcDb2dVertex
 10
27.876606
 20
1.98122
 30
0.0
  0
VERTEX
  5
1C8A
100
AcDbEntity
  8
ALPHA
100
AcDbVertex
100
AcDb2dVertex
 10
28.141586
 20
2.108943
 30
0.0
  0
VERTEX
  5
1C8B
100
AcDbEntity
  8
ALPHA
100
AcDbVertex
100
AcDb2dVertex
 10
28.391504
 20
2.260867
 30
0.0
  0
VERTEX
  5
1C8C
100
AcDbEntity
  8
ALPHA
100
AcDbVertex
100
AcDb2dVertex
 10
28.624839
 20
2.435467
 30
0.0
  0
VERTEX
  5
1C8D
100
AcDbEntity
  8
ALPHA
100
AcDbVertex
100
AcDb2dVertex
 10
28.84007
 20
2.631218
 30
0.0
  0
VERTEX
  5
1C8E
100
AcDbEntity
  8
ALPHA
100
AcDbVertex
100
AcDb2dVertex
 10
29.035676
 20
2.846594
 30
0.0
  0
VERTEX
  5
1C8F
100
AcDbEntity
  8
ALPHA
100
AcDbVertex
100
AcDb2dVertex
 10
29.210137
 20
3.080069
 30
0.0
  0
VERTEX
  5
1C90
100
AcDbEntity
  8
ALPHA
100
AcDbVertex
100
AcDb2dVertex
 10
29.36193
 20
3.330118
 30
0.0
  0
VERTEX
  5
1C91
100
AcDbEntity
  8
ALPHA
100
AcDbVertex
100
AcDb2dVertex
 10
29.489535
 20
3.595215
 30
0.0
  0
VERTEX
  5
1C92
100
AcDbEntity
  8
ALPHA
100
AcDbVertex
100
AcDb2dVertex
 10
29.591431
 20
3.873835
 30
0.0
  0
VERTEX
  5
1C93
100
AcDbEntity
  8
ALPHA
100
AcDbVertex
100
AcDb2dVertex
 10
29.666098
 20
4.164452
 30
0.0
  0
VERTEX
  5
1C94
100
AcDbEntity
  8
ALPHA
100
AcDbVertex
100
AcDb2dVertex
 10
29.712013
 20
4.46554
 30
0.0
  0
VERTEX
  5
1C95
100
AcDbEntity
  8
ALPHA
100
AcDbVertex
100
AcDb2dVertex
 10
29.727656
 20
4.775575
 30
0.0
  0
VERTEX
  5
1C96
100
AcDbEntity
  8
ALPHA
100
AcDbVertex
100
AcDb2dVertex
 10
29.712013
 20
5.085287
 30
0.0
  0
VERTEX
  5
1C97
100
AcDbEntity
  8
ALPHA
100
AcDbVertex
100
AcDb2dVertex
 10
29.666098
 20
5.386055
 30
0.0
  0
VERTEX
  5
1C98
100
AcDbEntity
  8
ALPHA
100
AcDbVertex
100
AcDb2dVertex
 10
29.591431
 20
5.676357
 30
0.0
  0
VERTEX
  5
1C99
100
AcDbEntity
  8
ALPHA
100
AcDbVertex
100
AcDb2dVertex
 10
29.489535
 20
5.95467
 30
0.0
  0
VERTEX
  5
1C9A
100
AcDbEntity
  8
ALPHA
100
AcDbVertex
100
AcDb2dVertex
 10
29.36193
 20
6.219469
 30
0.0
  0
VERTEX
  5
1C9B
100
AcDbEntity
  8
ALPHA
100
AcDbVertex
100
AcDb2dVertex
 10
29.210137
 20
6.469234
 30
0.0
  0
VERTEX
  5
1C9C
100
AcDbEntity
  8
ALPHA
100
AcDbVertex
100
AcDb2dVertex
 10
29.035676
 20
6.702439
 30
0.0
  0
VERTEX
  5
1C9D
100
AcDbEntity
  8
ALPHA
100
AcDbVertex
100
AcDb2dVertex
 10
28.84007
 20
6.917563
 30
0.0
  0
VERTEX
  5
1C9E
100
AcDbEntity
  8
ALPHA
100
AcDbVertex
100
AcDb2dVertex
 10
28.624839
 20
7.113082
 30
0.0
  0
VERTEX
  5
1C9F
100
AcDbEntity
  8
ALPHA
100
AcDbVertex
100
AcDb2dVertex
 10
28.391504
 20
7.287473
 30
0.0
  0
VERTEX
  5
1CA0
100
AcDbEntity
  8
ALPHA
100
AcDbVertex
100
AcDb2dVertex
 10
28.141586
 20
7.439214
 30
0.0
  0
VERTEX
  5
1CA1
100
AcDbEntity
  8
ALPHA
100
AcDbVertex
100
AcDb2dVertex
 10
27.876606
 20
7.56678
 30
0.0
  0
VERTEX
  5
1CA2
100
AcDbEntity
  8
ALPHA
100
AcDbVertex
100
AcDb2dVertex
 10
27.598085
 20
7.66865
 30
0.0
  0
VERTEX
  5
1CA3
100
AcDbEntity
  8
ALPHA
100
AcDbVertex
100
AcDb2dVertex
 10
27.307545
 20
7.7433
 30
0.0
  0
VERTEX
  5
1CA4
100
AcDbEntity
  8
ALPHA
100
AcDbVertex
100
AcDb2dVertex
 10
27.006506
 20
7.789207
 30
0.0
  0
VERTEX
  5
1CA5
100
AcDbEntity
  8
ALPHA
100
AcDbVertex
100
AcDb2dVertex
 10
26.696489
 20
7.804847
 30
0.0
  0
VERTEX
  5
1CA6
100
AcDbEntity
  8
ALPHA
100
AcDbVertex
100
AcDb2dVertex
 10
26.38671
 20
7.789207
 30
0.0
  0
VERTEX
  5
1CA7
100
AcDbEntity
  8
ALPHA
100
AcDbVertex
100
AcDb2dVertex
 10
26.085872
 20
7.7433
 30
0.0
  0
VERTEX
  5
1CA8
100
AcDbEntity
  8
ALPHA
100
AcDbVertex
100
AcDb2dVertex
 10
25.795499
 20
7.66865
 30
0.0
  0
VERTEX
  5
1CA9
100
AcDbEntity
  8
ALPHA
100
AcDbVertex
100
AcDb2dVertex
 10
25.517114
 20
7.56678
 30
0.0
  0
VERTEX
  5
1CAA
100
AcDbEntity
  8
ALPHA
100
AcDbVertex
100
AcDb2dVertex
 10
25.252242
 20
7.439214
 30
0.0
  0
VERTEX
  5
1CAB
100
AcDbEntity
  8
ALPHA
100
AcDbVertex
100
AcDb2dVertex
 10
25.002406
 20
7.287473
 30
0.0
  0
VERTEX
  5
1CAC
100
AcDbEntity
  8
ALPHA
100
AcDbVertex
100
AcDb2dVertex
 10
24.769131
 20
7.113082
 30
0.0
  0
VERTEX
  5
1CAD
100
AcDbEntity
  8
ALPHA
100
AcDbVertex
100
AcDb2dVertex
 10
24.553941
 20
6.917563
 30
0.0
  0
VERTEX
  5
1CAE
100
AcDbEntity
  8
ALPHA
100
AcDbVertex
100
AcDb2dVertex
 10
24.358359
 20
6.702439
 30
0.0
  0
VERTEX
  5
1CAF
100
AcDbEntity
  8
ALPHA
100
AcDbVertex
100
AcDb2dVertex
 10
24.18391
 20
6.469234
 30
0.0
  0
VERTEX
  5
1CB0
100
AcDbEntity
  8
ALPHA
100
AcDbVertex
100
AcDb2dVertex
 10
24.032119
 20
6.219469
 30
0.0
  0
VERTEX
  5
1CB1
100
AcDbEntity
  8
ALPHA
100
AcDbVertex
100
AcDb2dVertex
 10
23.904508
 20
5.95467
 30
0.0
  0
VERTEX
  5
1CB2
100
AcDbEntity
  8
ALPHA
100
AcDbVertex
100
AcDb2dVertex
 10
23.802602
 20
5.676357
 30
0.0
  0
VERTEX
  5
1CB3
100
AcDbEntity
  8
ALPHA
100
AcDbVertex
100
AcDb2dVertex
 10
23.727925
 20
5.386055
 30
0.0
  0
VERTEX
  5
1CB4
100
AcDbEntity
  8
ALPHA
100
AcDbVertex
100
AcDb2dVertex
 10
23.682001
 20
5.085287
 30
0.0
  0
VERTEX
  5
1CB5
100
AcDbEntity
  8
ALPHA
100
AcDbVertex
100
AcDb2dVertex
 10
23.666355
 20
4.775575
 30
0.0
  0
VERTEX
  5
1CB6
100
AcDbEntity
  8
ALPHA
100
AcDbVertex
100
AcDb2dVertex
 10
23.682001
 20
4.46554
 30
0.0
  0
VERTEX
  5
1CB7
100
AcDbEntity
  8
ALPHA
100
AcDbVertex
100
AcDb2dVertex
 10
23.727925
 20
4.164452
 30
0.0
  0
VERTEX
  5
1CB8
100
AcDbEntity
  8
ALPHA
100
AcDbVertex
100
AcDb2dVertex
 10
23.802602
 20
3.873835
 30
0.0
  0
VERTEX
  5
1CB9
100
AcDbEntity
  8
ALPHA
100
AcDbVertex
100
AcDb2dVertex
 10
23.904508
 20
3.595215
 30
0.0
  0
VERTEX
  5
1CBA
100
AcDbEntity
  8
ALPHA
100
AcDbVertex
100
AcDb2dVertex
 10
24.032119
 20
3.330118
 30
0.0
  0
VERTEX
  5
1CBB
100
AcDbEntity
  8
ALPHA
100
AcDbVertex
100
AcDb2dVertex
 10
24.18391
 20
3.080069
 30
0.0
  0
VERTEX
  5
1CBC
100
AcDbEntity
  8
ALPHA
100
AcDbVertex
100
AcDb2dVertex
 10
24.358359
 20
2.846594
 30
0.0
  0
VERTEX
  5
1CBD
100
AcDbEntity
  8
ALPHA
100
AcDbVertex
100
AcDb2dVertex
 10
24.553941
 20
2.631218
 30
0.0
  0
VERTEX
  5
1CBE
100
AcDbEntity
  8
ALPHA
100
AcDbVertex
100
AcDb2dVertex
 10
24.769131
 20
2.435467
 30
0.0
  0
VERTEX
  5
1CBF
100
AcDbEntity
  8
ALPHA
100
AcDbVertex
100
AcDb2dVertex
 10
25.002406
 20
2.260867
 30
0.0
  0
VERTEX
  5
1CC0
100
AcDbEntity
  8
ALPHA
100
AcDbVertex
100
AcDb2dVertex
 10
25.252242
 20
2.108943
 30
0.0
  0
VERTEX
  5
1CC1
100
AcDbEntity
  8
ALPHA
100
AcDbVertex
100
AcDb2dVertex
 10
25.517114
 20
1.98122
 30
0.0
  0
VERTEX
  5
1CC2
100
AcDbEntity
  8
ALPHA
100
AcDbVertex
100
AcDb2dVertex
 10
25.795499
 20
1.879225
 30
0.0
  0
VERTEX
  5
1CC3
100
AcDbEntity
  8
ALPHA
100
AcDbVertex
100
AcDb2dVertex
 10
26.085872
 20
1.804482
 30
0.0
  0
VERTEX
  5
1CC4
100
AcDbEntity
  8
ALPHA
100
AcDbVertex
100
AcDb2dVertex
 10
26.38671
 20
1.758518
 30
0.0
  0
VERTEX
  5
1CC5
100
AcDbEntity
  8
ALPHA
100
AcDbVertex
100
AcDb2dVertex
 10
26.696489
 20
1.742857
 30
0.0
  0
SEQEND
  5
1CC6
100
AcDbEntity
  8
ALPHA
  0
POLYLINE
  5
1CC7
100
AcDbEntity
  8
ALPHA
100
AcDb2dPolyline
 66
     1
 10
0.0
 20
0.0
 30
0.0
  0
VERTEX
  5
1CC8
100
AcDbEntity
  8
ALPHA
100
AcDbVertex
100
AcDb2dVertex
 10
22.208563
 20
13.263946
 30
0.0
  0
VERTEX
  5
1CC9
100
AcDbEntity
  8
ALPHA
100
AcDbVertex
100
AcDb2dVertex
 10
22.208563
 20
2.010197
 30
0.0
  0
SEQEND
  5
1CCA
100
AcDbEntity
  8
ALPHA
  0
POLYLINE
  5
1CCB
100
AcDbEntity
  8
ALPHA
100
AcDb2dPolyline
 66
     1
 10
0.0
 20
0.0
 30
0.0
  0
VERTEX
  5
1CCC
100
AcDbEntity
  8
ALPHA
100
AcDbVertex
100
AcDb2dVertex
 10
15.399159
 20
2.010197
 30
0.0
  0
VERTEX
  5
1CCD
100
AcDbEntity
  8
ALPHA
100
AcDbVertex
100
AcDb2dVertex
 10
15.399159
 20
11.723643
 30
0.0
  0
SEQEND
  5
1CCE
100
AcDbEntity
  8
ALPHA
  0
POLYLINE
  5
1CCF
100
AcDbEntity
  8
ALPHA
100
AcDb2dPolyline
 66
     1
 10
0.0
 20
0.0
 30
0.0
  0
VERTEX
  5
1CD0
100
AcDbEntity
  8
ALPHA
100
AcDbVertex
100
AcDb2dVertex
 10
22.208563
 20
2.010197
 30
0.0
  0
VERTEX
  5
1CD1
100
AcDbEntity
  8
ALPHA
100
AcDbVertex
100
AcDb2dVertex
 10
15.399159
 20
2.010197
 30
0.0
  0
SEQEND
  5
1CD2
100
AcDbEntity
  8
ALPHA
  0
POLYLINE
  5
1CD3
100
AcDbEntity
  8
ALPHA
100
AcDb2dPolyline
 66
     1
 10
0.0
 20
0.0
 30
0.0
  0
VERTEX
  5
1CD4
100
AcDbEntity
  8
ALPHA
100
AcDbVertex
100
AcDb2dVertex
 10
19.908617
 20
0.461282
 30
0.0
  0
VERTEX
  5
1CD5
100
AcDbEntity
  8
ALPHA
100
AcDbVertex
100
AcDb2dVertex
 10
19.908617
 20
-0.697304
 30
0.0
  0
SEQEND
  5
1CD6
100
AcDbEntity
  8
ALPHA
  0
POLYLINE
  5
1CD7
100
AcDbEntity
  8
ALPHA
100
AcDb2dPolyline
 66
     1
 10
0.0
 20
0.0
 30
0.0
  0
VERTEX
  5
1CD8
100
AcDbEntity
  8
ALPHA
100
AcDbVertex
100
AcDb2dVertex
 10
17.703756
 20
-0.697304
 30
0.0
  0
VERTEX
  5
1CD9
100
AcDbEntity
  8
ALPHA
100
AcDbVertex
100
AcDb2dVertex
 10
17.703756
 20
0.461282
 30
0.0
  0
SEQEND
  5
1CDA
100
AcDbEntity
  8
ALPHA
  0
POLYLINE
  5
1CDB
100
AcDbEntity
  8
ALPHA
100
AcDb2dPolyline
 66
     1
 10
0.0
 20
0.0
 30
0.0
  0
VERTEX
  5
1CDC
100
AcDbEntity
  8
ALPHA
100
AcDbVertex
100
AcDb2dVertex
 10
24.270452
 20
3.10367
 30
0.0
  0
VERTEX
  5
1CDD
100
AcDbEntity
  8
ALPHA
100
AcDbVertex
100
AcDb2dVertex
 10
25.93185
 20
4.814504
 30
0.0
  0
SEQEND
  5
1CDE
100
AcDbEntity
  8
ALPHA
  0
POLYLINE
  5
1CDF
100
AcDbEntity
  8
ALPHA
100
AcDb2dPolyline
 66
     1
 10
0.0
 20
0.0
 30
0.0
  0
VERTEX
  5
1CE0
100
AcDbEntity
  8
ALPHA
100
AcDbVertex
100
AcDb2dVertex
 10
25.955448
 20
4.793145
 30
0.0
  0
VERTEX
  5
1CE1
100
AcDbEntity
  8
ALPHA
100
AcDbVertex
100
AcDb2dVertex
 10
24.853879
 20
5.89592
 30
0.0
  0
SEQEND
  5
1CE2
100
AcDbEntity
  8
ALPHA
  0
POLYLINE
  5
1CE3
100
AcDbEntity
  8
ALPHA
100
AcDb2dPolyline
 66
     1
 10
0.0
 20
0.0
 30
0.0
  0
VERTEX
  5
1CE4
100
AcDbEntity
  8
ALPHA
100
AcDbVertex
100
AcDb2dVertex
 10
26.758673
 20
4.038669
 30
0.0
  0
VERTEX
  5
1CE5
100
AcDbEntity
  8
ALPHA
100
AcDbVertex
100
AcDb2dVertex
 10
25.012354
 20
2.328523
 30
0.0
  0
SEQEND
  5
1CE6
100
AcDbEntity
  8
ALPHA
  0
POLYLINE
  5
1CE7
100
AcDbEntity
  8
ALPHA
100
AcDb3dPolyline
 66
     1
 10
0.0
 20
0.0
 30
0.0
 70
     8
  0
VERTEX
  5
1CE8
100
AcDbEntity
  8
ALPHA
100
AcDbVertex
100
AcDb3dPolylineVertex
 10
26.696489
 20
1.742857
 30
0.0
 70
    32
  0
VERTEX
  5
1CE9
100
AcDbEntity
  8
ALPHA
100
AcDbVertex
100
AcDb3dPolylineVertex
 10
26.696489
 20
1.742857
 30
0.0
 70
    32
  0
SEQEND
  5
1CEA
100
AcDbEntity
  8
ALPHA
  0
POLYLINE
  5
1CEB
100
AcDbEntity
  8
ALPHA
100
AcDb2dPolyline
 66
     1
 10
0.0
 20
0.0
 30
0.0
  0
VERTEX
  5
1CEC
100
AcDbEntity
  8
ALPHA
100
AcDbVertex
100
AcDb2dVertex
 10
27.444074
 20
4.872382
 30
0.0
  0
VERTEX
  5
1CED
100
AcDbEntity
  8
ALPHA
100
AcDbVertex
100
AcDb2dVertex
 10
28.657437
 20
3.659364
 30
0.0
  0
SEQEND
  5
1CEE
100
AcDbEntity
  8
ALPHA
  0
POLYLINE
  5
1CEF
100
AcDbEntity
  8
ALPHA
100
AcDb2dPolyline
 66
     1
 10
0.0
 20
0.0
 30
0.0
  0
VERTEX
  5
1CF0
100
AcDbEntity
  8
ALPHA
100
AcDbVertex
100
AcDb2dVertex
 10
28.657437
 20
3.659364
 30
0.0
  0
VERTEX
  5
1CF1
100
AcDbEntity
  8
ALPHA
100
AcDbVertex
100
AcDb2dVertex
 10
27.964284
 20
2.882839
 30
0.0
  0
SEQEND
  5
1CF2
100
AcDbEntity
  8
ALPHA
  0
POLYLINE
  5
1CF3
100
AcDbEntity
  8
ALPHA
100
AcDb2dPolyline
 66
     1
 10
0.0
 20
0.0
 30
0.0
  0
VERTEX
  5
1CF4
100
AcDbEntity
  8
ALPHA
100
AcDbVertex
100
AcDb2dVertex
 10
25.93185
 20
4.814504
 30
0.0
  0
VERTEX
  5
1CF5
100
AcDbEntity
  8
ALPHA
100
AcDbVertex
100
AcDb2dVertex
 10
25.955448
 20
4.793145
 30
0.0
  0
SEQEND
  5
1CF6
100
AcDbEntity
  8
ALPHA
  0
POLYLINE
  5
1CF7
100
AcDbEntity
  8
ALPHA
100
AcDb2dPolyline
 66
     1
 10
0.0
 20
0.0
 30
0.0
  0
VERTEX
  5
1CF8
100
AcDbEntity
  8
ALPHA
100
AcDbVertex
100
AcDb2dVertex
 10
26.666688
 20
5.601709
 30
0.0
  0
VERTEX
  5
1CF9
100
AcDbEntity
  8
ALPHA
100
AcDbVertex
100
AcDb2dVertex
 10
26.709924
 20
5.592407
 30
0.0
  0
SEQEND
  5
1CFA
100
AcDbEntity
  8
ALPHA
  0
POLYLINE
  5
1CFB
100
AcDbEntity
  8
ALPHA
100
AcDb2dPolyline
 66
     1
 10
0.0
 20
0.0
 30
0.0
  0
VERTEX
  5
1CFC
100
AcDbEntity
  8
ALPHA
100
AcDbVertex
100
AcDb2dVertex
 10
27.964284
 20
2.882839
 30
0.0
  0
VERTEX
  5
1CFD
100
AcDbEntity
  8
ALPHA
100
AcDbVertex
100
AcDb2dVertex
 10
26.758673
 20
4.038669
 30
0.0
  0
SEQEND
  5
1CFE
100
AcDbEntity
  8
ALPHA
  0
POLYLINE
  5
1CFF
100
AcDbEntity
  8
ALPHA
100
AcDb2dPolyline
 66
     1
 10
0.0
 20
0.0
 30
0.0
  0
VERTEX
  5
1D00
100
AcDbEntity
  8
ALPHA
100
AcDbVertex
100
AcDb2dVertex
 10
15.594152
 20
11.723643
 30
0.0
  0
VERTEX
  5
1D01
100
AcDbEntity
  8
ALPHA
100
AcDbVertex
100
AcDb2dVertex
 10
22.111928
 20
11.723643
 30
0.0
  0
SEQEND
  5
1D02
100
AcDbEntity
  8
ALPHA
  0
POLYLINE
  5
1D03
100
AcDbEntity
  8
ALPHA
100
AcDb3dPolyline
 66
     1
 10
0.0
 20
0.0
 30
0.0
 70
     8
  0
VERTEX
  5
1D04
100
AcDbEntity
  8
ALPHA
100
AcDbVertex
100
AcDb3dPolylineVertex
 10
26.47273
 20
17.277826
 30
0.0
 70
    32
  0
VERTEX
  5
1D05
100
AcDbEntity
  8
ALPHA
100
AcDbVertex
100
AcDb3dPolylineVertex
 10
26.47273
 20
17.277826
 30
0.0
 70
    32
  0
SEQEND
  5
1D06
100
AcDbEntity
  8
ALPHA
  0
POLYLINE
  5
1D07
100
AcDbEntity
  8
ALPHA
100
AcDb3dPolyline
 66
     1
 10
0.0
 20
0.0
 30
0.0
 70
     8
  0
VERTEX
  5
1D08
100
AcDbEntity
  8
ALPHA
100
AcDbVertex
100
AcDb3dPolylineVertex
 10
26.47273
 20
15.778176
 30
0.0
 70
    32
  0
VERTEX
  5
1D09
100
AcDbEntity
  8
ALPHA
100
AcDbVertex
100
AcDb3dPolylineVertex
 10
26.47273
 20
15.778176
 30
0.0
 70
    32
  0
SEQEND
  5
1D0A
100
AcDbEntity
  8
ALPHA
  0
POLYLINE
  5
1D0B
100
AcDbEntity
  8
ALPHA
100
AcDb2dPolyline
 66
     1
 10
0.0
 20
0.0
 30
0.0
  0
VERTEX
  5
1D0C
100
AcDbEntity
  8
ALPHA
100
AcDbVertex
100
AcDb2dVertex
 10
40.125643
 20
5.89592
 30
0.0
  0
VERTEX
  5
1D0D
100
AcDbEntity
  8
ALPHA
100
AcDbVertex
100
AcDb2dVertex
 10
40.867717
 20
6.671066
 30
0.0
  0
SEQEND
  5
1D0E
100
AcDbEntity
  8
ALPHA
  0
POLYLINE
  5
1D0F
100
AcDbEntity
  8
ALPHA
100
AcDb2dPolyline
 66
     1
 10
0.0
 20
0.0
 30
0.0
  0
VERTEX
  5
1D10
100
AcDbEntity
  8
ALPHA
100
AcDbVertex
100
AcDb2dVertex
 10
40.867717
 20
6.671066
 30
0.0
  0
VERTEX
  5
1D11
100
AcDbEntity
  8
ALPHA
100
AcDbVertex
100
AcDb2dVertex
 10
41.937763
 20
5.601709
 30
0.0
  0
SEQEND
  5
1D12
100
AcDbEntity
  8
ALPHA
  0
POLYLINE
  5
1D13
100
AcDbEntity
  8
ALPHA
100
AcDb2dPolyline
 66
     1
 10
0.0
 20
0.0
 30
0.0
  0
VERTEX
  5
1D14
100
AcDbEntity
  8
ALPHA
100
AcDbVertex
100
AcDb2dVertex
 10
41.981516
 20
5.592407
 30
0.0
  0
VERTEX
  5
1D15
100
AcDbEntity
  8
ALPHA
100
AcDbVertex
100
AcDb2dVertex
 10
43.673402
 20
7.235718
 30
0.0
  0
SEQEND
  5
1D16
100
AcDbEntity
  8
ALPHA
  0
POLYLINE
  5
1D17
100
AcDbEntity
  8
ALPHA
100
AcDb2dPolyline
 66
     1
 10
0.0
 20
0.0
 30
0.0
  0
VERTEX
  5
1D18
100
AcDbEntity
  8
ALPHA
100
AcDbVertex
100
AcDb2dVertex
 10
44.366556
 20
6.556
 30
0.0
  0
VERTEX
  5
1D19
100
AcDbEntity
  8
ALPHA
100
AcDbVertex
100
AcDb2dVertex
 10
42.715666
 20
4.872382
 30
0.0
  0
SEQEND
  5
1D1A
100
AcDbEntity
  8
ALPHA
  0
POLYLINE
  5
1D1B
100
AcDbEntity
  8
ALPHA
100
AcDb2dPolyline
 66
     1
 10
0.0
 20
0.0
 30
0.0
  0
VERTEX
  5
1D1C
100
AcDbEntity
  8
ALPHA
100
AcDbVertex
100
AcDb2dVertex
 10
41.968769
 20
1.742857
 30
0.0
  0
VERTEX
  5
1D1D
100
AcDbEntity
  8
ALPHA
100
AcDbVertex
100
AcDb2dVertex
 10
42.278671
 20
1.758518
 30
0.0
  0
VERTEX
  5
1D1E
100
AcDbEntity
  8
ALPHA
100
AcDbVertex
100
AcDb2dVertex
 10
42.57962
 20
1.804482
 30
0.0
  0
VERTEX
  5
1D1F
100
AcDbEntity
  8
ALPHA
100
AcDbVertex
100
AcDb2dVertex
 10
42.870094
 20
1.879225
 30
0.0
  0
VERTEX
  5
1D20
100
AcDbEntity
  8
ALPHA
100
AcDbVertex
100
AcDb2dVertex
 10
43.148569
 20
1.98122
 30
0.0
  0
VERTEX
  5
1D21
100
AcDbEntity
  8
ALPHA
100
AcDbVertex
100
AcDb2dVertex
 10
43.413521
 20
2.108943
 30
0.0
  0
VERTEX
  5
1D22
100
AcDbEntity
  8
ALPHA
100
AcDbVertex
100
AcDb2dVertex
 10
43.663427
 20
2.260867
 30
0.0
  0
VERTEX
  5
1D23
100
AcDbEntity
  8
ALPHA
100
AcDbVertex
100
AcDb2dVertex
 10
43.896763
 20
2.435467
 30
0.0
  0
VERTEX
  5
1D24
100
AcDbEntity
  8
ALPHA
100
AcDbVertex
100
AcDb2dVertex
 10
44.112006
 20
2.631218
 30
0.0
  0
VERTEX
  5
1D25
100
AcDbEntity
  8
ALPHA
100
AcDbVertex
100
AcDb2dVertex
 10
44.307632
 20
2.846594
 30
0.0
  0
VERTEX
  5
1D26
100
AcDbEntity
  8
ALPHA
100
AcDbVertex
100
AcDb2dVertex
 10
44.482118
 20
3.080069
 30
0.0
  0
VERTEX
  5
1D27
100
AcDbEntity
  8
ALPHA
100
AcDbVertex
100
AcDb2dVertex
 10
44.633939
 20
3.330118
 30
0.0
  0
VERTEX
  5
1D28
100
AcDbEntity
  8
ALPHA
100
AcDbVertex
100
AcDb2dVertex
 10
44.761573
 20
3.595215
 30
0.0
  0
VERTEX
  5
1D29
100
AcDbEntity
  8
ALPHA
100
AcDbVertex
100
AcDb2dVertex
 10
44.863497
 20
3.873835
 30
0.0
  0
VERTEX
  5
1D2A
100
AcDbEntity
  8
ALPHA
100
AcDbVertex
100
AcDb2dVertex
 10
44.938185
 20
4.164452
 30
0.0
  0
VERTEX
  5
1D2B
100
AcDbEntity
  8
ALPHA
100
AcDbVertex
100
AcDb2dVertex
 10
44.984115
 20
4.46554
 30
0.0
  0
VERTEX
  5
1D2C
100
AcDbEntity
  8
ALPHA
100
AcDbVertex
100
AcDb2dVertex
 10
44.999764
 20
4.775575
 30
0.0
  0
VERTEX
  5
1D2D
100
AcDbEntity
  8
ALPHA
100
AcDbVertex
100
AcDb2dVertex
 10
44.984115
 20
5.085287
 30
0.0
  0
VERTEX
  5
1D2E
100
AcDbEntity
  8
ALPHA
100
AcDbVertex
100
AcDb2dVertex
 10
44.938185
 20
5.386055
 30
0.0
  0
VERTEX
  5
1D2F
100
AcDbEntity
  8
ALPHA
100
AcDbVertex
100
AcDb2dVertex
 10
44.863497
 20
5.676357
 30
0.0
  0
VERTEX
  5
1D30
100
AcDbEntity
  8
ALPHA
100
AcDbVertex
100
AcDb2dVertex
 10
44.761573
 20
5.95467
 30
0.0
  0
VERTEX
  5
1D31
100
AcDbEntity
  8
ALPHA
100
AcDbVertex
100
AcDb2dVertex
 10
44.633939
 20
6.219469
 30
0.0
  0
VERTEX
  5
1D32
100
AcDbEntity
  8
ALPHA
100
AcDbVertex
100
AcDb2dVertex
 10
44.482118
 20
6.469234
 30
0.0
  0
VERTEX
  5
1D33
100
AcDbEntity
  8
ALPHA
100
AcDbVertex
100
AcDb2dVertex
 10
44.307632
 20
6.702439
 30
0.0
  0
VERTEX
  5
1D34
100
AcDbEntity
  8
ALPHA
100
AcDbVertex
100
AcDb2dVertex
 10
44.112006
 20
6.917563
 30
0.0
  0
VERTEX
  5
1D35
100
AcDbEntity
  8
ALPHA
100
AcDbVertex
100
AcDb2dVertex
 10
43.896763
 20
7.113082
 30
0.0
  0
VERTEX
  5
1D36
100
AcDbEntity
  8
ALPHA
100
AcDbVertex
100
AcDb2dVertex
 10
43.663427
 20
7.287473
 30
0.0
  0
VERTEX
  5
1D37
100
AcDbEntity
  8
ALPHA
100
AcDbVertex
100
AcDb2dVertex
 10
43.413521
 20
7.439214
 30
0.0
  0
VERTEX
  5
1D38
100
AcDbEntity
  8
ALPHA
100
AcDbVertex
100
AcDb2dVertex
 10
43.148569
 20
7.56678
 30
0.0
  0
VERTEX
  5
1D39
100
AcDbEntity
  8
ALPHA
100
AcDbVertex
100
AcDb2dVertex
 10
42.870094
 20
7.66865
 30
0.0
  0
VERTEX
  5
1D3A
100
AcDbEntity
  8
ALPHA
100
AcDbVertex
100
AcDb2dVertex
 10
42.57962
 20
7.7433
 30
0.0
  0
VERTEX
  5
1D3B
100
AcDbEntity
  8
ALPHA
100
AcDbVertex
100
AcDb2dVertex
 10
42.278671
 20
7.789207
 30
0.0
  0
VERTEX
  5
1D3C
100
AcDbEntity
  8
ALPHA
100
AcDbVertex
100
AcDb2dVertex
 10
41.968769
 20
7.804847
 30
0.0
  0
VERTEX
  5
1D3D
100
AcDbEntity
  8
ALPHA
100
AcDbVertex
100
AcDb2dVertex
 10
41.6589
 20
7.789207
 30
0.0
  0
VERTEX
  5
1D3E
100
AcDbEntity
  8
ALPHA
100
AcDbVertex
100
AcDb2dVertex
 10
41.357982
 20
7.7433
 30
0.0
  0
VERTEX
  5
1D3F
100
AcDbEntity
  8
ALPHA
100
AcDbVertex
100
AcDb2dVertex
 10
41.06754
 20
7.66865
 30
0.0
  0
VERTEX
  5
1D40
100
AcDbEntity
  8
ALPHA
100
AcDbVertex
100
AcDb2dVertex
 10
40.789096
 20
7.56678
 30
0.0
  0
VERTEX
  5
1D41
100
AcDbEntity
  8
ALPHA
100
AcDbVertex
100
AcDb2dVertex
 10
40.524173
 20
7.439214
 30
0.0
  0
VERTEX
  5
1D42
100
AcDbEntity
  8
ALPHA
100
AcDbVertex
100
AcDb2dVertex
 10
40.274296
 20
7.287473
 30
0.0
  0
VERTEX
  5
1D43
100
AcDbEntity
  8
ALPHA
100
AcDbVertex
100
AcDb2dVertex
 10
40.040987
 20
7.113082
 30
0.0
  0
VERTEX
  5
1D44
100
AcDbEntity
  8
ALPHA
100
AcDbVertex
100
AcDb2dVertex
 10
39.825769
 20
6.917563
 30
0.0
  0
VERTEX
  5
1D45
100
AcDbEntity
  8
ALPHA
100
AcDbVertex
100
AcDb2dVertex
 10
39.630166
 20
6.702439
 30
0.0
  0
VERTEX
  5
1D46
100
AcDbEntity
  8
ALPHA
100
AcDbVertex
100
AcDb2dVertex
 10
39.455701
 20
6.469234
 30
0.0
  0
VERTEX
  5
1D47
100
AcDbEntity
  8
ALPHA
100
AcDbVertex
100
AcDb2dVertex
 10
39.303898
 20
6.219469
 30
0.0
  0
VERTEX
  5
1D48
100
AcDbEntity
  8
ALPHA
100
AcDbVertex
100
AcDb2dVertex
 10
39.17628
 20
5.95467
 30
0.0
  0
VERTEX
  5
1D49
100
AcDbEntity
  8
ALPHA
100
AcDbVertex
100
AcDb2dVertex
 10
39.074369
 20
5.676357
 30
0.0
  0
VERTEX
  5
1D4A
100
AcDbEntity
  8
ALPHA
100
AcDbVertex
100
AcDb2dVertex
 10
38.99969
 20
5.386055
 30
0.0
  0
VERTEX
  5
1D4B
100
AcDbEntity
  8
ALPHA
100
AcDbVertex
100
AcDb2dVertex
 10
38.953765
 20
5.085287
 30
0.0
  0
VERTEX
  5
1D4C
100
AcDbEntity
  8
ALPHA
100
AcDbVertex
100
AcDb2dVertex
 10
38.938119
 20
4.775575
 30
0.0
  0
VERTEX
  5
1D4D
100
AcDbEntity
  8
ALPHA
100
AcDbVertex
100
AcDb2dVertex
 10
38.953765
 20
4.46554
 30
0.0
  0
VERTEX
  5
1D4E
100
AcDbEntity
  8
ALPHA
100
AcDbVertex
100
AcDb2dVertex
 10
38.99969
 20
4.164452
 30
0.0
  0
VERTEX
  5
1D4F
100
AcDbEntity
  8
ALPHA
100
AcDbVertex
100
AcDb2dVertex
 10
39.074369
 20
3.873835
 30
0.0
  0
VERTEX
  5
1D50
100
AcDbEntity
  8
ALPHA
100
AcDbVertex
100
AcDb2dVertex
 10
39.17628
 20
3.595215
 30
0.0
  0
VERTEX
  5
1D51
100
AcDbEntity
  8
ALPHA
100
AcDbVertex
100
AcDb2dVertex
 10
39.303898
 20
3.330118
 30
0.0
  0
VERTEX
  5
1D52
100
AcDbEntity
  8
ALPHA
100
AcDbVertex
100
AcDb2dVertex
 10
39.455701
 20
3.080069
 30
0.0
  0
VERTEX
  5
1D53
100
AcDbEntity
  8
ALPHA
100
AcDbVertex
100
AcDb2dVertex
 10
39.630166
 20
2.846594
 30
0.0
  0
VERTEX
  5
1D54
100
AcDbEntity
  8
ALPHA
100
AcDbVertex
100
AcDb2dVertex
 10
39.825769
 20
2.631218
 30
0.0
  0
VERTEX
  5
1D55
100
AcDbEntity
  8
ALPHA
100
AcDbVertex
100
AcDb2dVertex
 10
40.040987
 20
2.435467
 30
0.0
  0
VERTEX
  5
1D56
100
AcDbEntity
  8
ALPHA
100
AcDbVertex
100
AcDb2dVertex
 10
40.274296
 20
2.260867
 30
0.0
  0
VERTEX
  5
1D57
100
AcDbEntity
  8
ALPHA
100
AcDbVertex
100
AcDb2dVertex
 10
40.524173
 20
2.108943
 30
0.0
  0
VERTEX
  5
1D58
100
AcDbEntity
  8
ALPHA
100
AcDbVertex
100
AcDb2dVertex
 10
40.789096
 20
1.98122
 30
0.0
  0
VERTEX
  5
1D59
100
AcDbEntity
  8
ALPHA
100
AcDbVertex
100
AcDb2dVertex
 10
41.06754
 20
1.879225
 30
0.0
  0
VERTEX
  5
1D5A
100
AcDbEntity
  8
ALPHA
100
AcDbVertex
100
AcDb2dVertex
 10
41.357982
 20
1.804482
 30
0.0
  0
VERTEX
  5
1D5B
100
AcDbEntity
  8
ALPHA
100
AcDbVertex
100
AcDb2dVertex
 10
41.6589
 20
1.758518
 30
0.0
  0
VERTEX
  5
1D5C
100
AcDbEntity
  8
ALPHA
100
AcDbVertex
100
AcDb2dVertex
 10
41.968769
 20
1.742857
 30
0.0
  0
SEQEND
  5
1D5D
100
AcDbEntity
  8
ALPHA
  0
POLYLINE
  5
1D5E
100
AcDbEntity
  8
ALPHA
100
AcDb2dPolyline
 66
     1
 10
0.0
 20
0.0
 30
0.0
  0
VERTEX
  5
1D5F
100
AcDbEntity
  8
ALPHA
100
AcDbVertex
100
AcDb2dVertex
 10
37.966946
 20
11.6103
 30
0.0
  0
VERTEX
  5
1D60
100
AcDbEntity
  8
ALPHA
100
AcDbVertex
100
AcDb2dVertex
 10
37.966946
 20
2.010197
 30
0.0
  0
SEQEND
  5
1D61
100
AcDbEntity
  8
ALPHA
  0
POLYLINE
  5
1D62
100
AcDbEntity
  8
ALPHA
100
AcDb2dPolyline
 66
     1
 10
0.0
 20
0.0
 30
0.0
  0
VERTEX
  5
1D63
100
AcDbEntity
  8
ALPHA
100
AcDbVertex
100
AcDb2dVertex
 10
30.962895
 20
2.010197
 30
0.0
  0
VERTEX
  5
1D64
100
AcDbEntity
  8
ALPHA
100
AcDbVertex
100
AcDb2dVertex
 10
30.962895
 20
13.21158
 30
0.0
  0
SEQEND
  5
1D65
100
AcDbEntity
  8
ALPHA
  0
POLYLINE
  5
1D66
100
AcDbEntity
  8
ALPHA
100
AcDb2dPolyline
 66
     1
 10
0.0
 20
0.0
 30
0.0
  0
VERTEX
  5
1D67
100
AcDbEntity
  8
ALPHA
100
AcDbVertex
100
AcDb2dVertex
 10
46.52663
 20
9.651763
 30
0.0
  0
VERTEX
  5
1D68
100
AcDbEntity
  8
ALPHA
100
AcDbVertex
100
AcDb2dVertex
 10
46.52663
 20
-0.697304
 30
0.0
  0
SEQEND
  5
1D69
100
AcDbEntity
  8
ALPHA
  0
POLYLINE
  5
1D6A
100
AcDbEntity
  8
ALPHA
100
AcDb2dPolyline
 66
     1
 10
0.0
 20
0.0
 30
0.0
  0
VERTEX
  5
1D6B
100
AcDbEntity
  8
ALPHA
100
AcDbVertex
100
AcDb2dVertex
 10
46.52663
 20
-0.697304
 30
0.0
  0
VERTEX
  5
1D6C
100
AcDbEntity
  8
ALPHA
100
AcDbVertex
100
AcDb2dVertex
 10
35.632205
 20
-0.697304
 30
0.0
  0
SEQEND
  5
1D6D
100
AcDbEntity
  8
ALPHA
  0
POLYLINE
  5
1D6E
100
AcDbEntity
  8
ALPHA
100
AcDb2dPolyline
 66
     1
 10
0.0
 20
0.0
 30
0.0
  0
VERTEX
  5
1D6F
100
AcDbEntity
  8
ALPHA
100
AcDbVertex
100
AcDb2dVertex
 10
35.632205
 20
-0.697304
 30
0.0
  0
VERTEX
  5
1D70
100
AcDbEntity
  8
ALPHA
100
AcDbVertex
100
AcDb2dVertex
 10
35.632205
 20
0.461282
 30
0.0
  0
SEQEND
  5
1D71
100
AcDbEntity
  8
ALPHA
  0
POLYLINE
  5
1D72
100
AcDbEntity
  8
ALPHA
100
AcDb2dPolyline
 66
     1
 10
0.0
 20
0.0
 30
0.0
  0
VERTEX
  5
1D73
100
AcDbEntity
  8
ALPHA
100
AcDbVertex
100
AcDb2dVertex
 10
33.05424
 20
-0.697304
 30
0.0
  0
VERTEX
  5
1D74
100
AcDbEntity
  8
ALPHA
100
AcDbVertex
100
AcDb2dVertex
 10
33.05424
 20
0.461282
 30
0.0
  0
SEQEND
  5
1D75
100
AcDbEntity
  8
ALPHA
  0
POLYLINE
  5
1D76
100
AcDbEntity
  8
ALPHA
100
AcDb2dPolyline
 66
     1
 10
0.0
 20
0.0
 30
0.0
  0
VERTEX
  5
1D77
100
AcDbEntity
  8
ALPHA
100
AcDbVertex
100
AcDb2dVertex
 10
35.632205
 20
-0.697304
 30
0.0
  0
VERTEX
  5
1D78
100
AcDbEntity
  8
ALPHA
100
AcDbVertex
100
AcDb2dVertex
 10
33.05424
 20
-0.697304
 30
0.0
  0
SEQEND
  5
1D79
100
AcDbEntity
  8
ALPHA
  0
POLYLINE
  5
1D7A
100
AcDbEntity
  8
ALPHA
100
AcDb2dPolyline
 66
     1
 10
0.0
 20
0.0
 30
0.0
  0
VERTEX
  5
1D7B
100
AcDbEntity
  8
ALPHA
100
AcDbVertex
100
AcDb2dVertex
 10
37.966946
 20
2.010197
 30
0.0
  0
VERTEX
  5
1D7C
100
AcDbEntity
  8
ALPHA
100
AcDbVertex
100
AcDb2dVertex
 10
30.962895
 20
2.010197
 30
0.0
  0
SEQEND
  5
1D7D
100
AcDbEntity
  8
ALPHA
  0
POLYLINE
  5
1D7E
100
AcDbEntity
  8
ALPHA
100
AcDb2dPolyline
 66
     1
 10
0.0
 20
0.0
 30
0.0
  0
VERTEX
  5
1D7F
100
AcDbEntity
  8
ALPHA
100
AcDbVertex
100
AcDb2dVertex
 10
42.715666
 20
4.872382
 30
0.0
  0
VERTEX
  5
1D80
100
AcDbEntity
  8
ALPHA
100
AcDbVertex
100
AcDb2dVertex
 10
43.928684
 20
3.659364
 30
0.0
  0
SEQEND
  5
1D81
100
AcDbEntity
  8
ALPHA
  0
POLYLINE
  5
1D82
100
AcDbEntity
  8
ALPHA
100
AcDb2dPolyline
 66
     1
 10
0.0
 20
0.0
 30
0.0
  0
VERTEX
  5
1D83
100
AcDbEntity
  8
ALPHA
100
AcDbVertex
100
AcDb2dVertex
 10
43.235531
 20
2.882839
 30
0.0
  0
VERTEX
  5
1D84
100
AcDbEntity
  8
ALPHA
100
AcDbVertex
100
AcDb2dVertex
 10
42.030436
 20
4.038669
 30
0.0
  0
SEQEND
  5
1D85
100
AcDbEntity
  8
ALPHA
  0
POLYLINE
  5
1D86
100
AcDbEntity
  8
ALPHA
100
AcDb2dPolyline
 66
     1
 10
0.0
 20
0.0
 30
0.0
  0
VERTEX
  5
1D87
100
AcDbEntity
  8
ALPHA
100
AcDbVertex
100
AcDb2dVertex
 10
42.030436
 20
4.038669
 30
0.0
  0
VERTEX
  5
1D88
100
AcDbEntity
  8
ALPHA
100
AcDbVertex
100
AcDb2dVertex
 10
40.283945
 20
2.328523
 30
0.0
  0
SEQEND
  5
1D89
100
AcDbEntity
  8
ALPHA
  0
POLYLINE
  5
1D8A
100
AcDbEntity
  8
ALPHA
100
AcDb3dPolyline
 66
     1
 10
0.0
 20
0.0
 30
0.0
 70
     8
  0
VERTEX
  5
1D8B
100
AcDbEntity
  8
ALPHA
100
AcDbVertex
100
AcDb3dPolylineVertex
 10
41.968769
 20
1.742857
 30
0.0
 70
    32
  0
VERTEX
  5
1D8C
100
AcDbEntity
  8
ALPHA
100
AcDbVertex
100
AcDb3dPolylineVertex
 10
41.968769
 20
1.742857
 30
0.0
 70
    32
  0
SEQEND
  5
1D8D
100
AcDbEntity
  8
ALPHA
  0
POLYLINE
  5
1D8E
100
AcDbEntity
  8
ALPHA
100
AcDb2dPolyline
 66
     1
 10
0.0
 20
0.0
 30
0.0
  0
VERTEX
  5
1D8F
100
AcDbEntity
  8
ALPHA
100
AcDbVertex
100
AcDb2dVertex
 10
39.542216
 20
3.10367
 30
0.0
  0
VERTEX
  5
1D90
100
AcDbEntity
  8
ALPHA
100
AcDbVertex
100
AcDb2dVertex
 10
41.203441
 20
4.814504
 30
0.0
  0
SEQEND
  5
1D91
100
AcDbEntity
  8
ALPHA
  0
POLYLINE
  5
1D92
100
AcDbEntity
  8
ALPHA
100
AcDb2dPolyline
 66
     1
 10
0.0
 20
0.0
 30
0.0
  0
VERTEX
  5
1D93
100
AcDbEntity
  8
ALPHA
100
AcDbVertex
100
AcDb2dVertex
 10
41.227729
 20
4.793145
 30
0.0
  0
VERTEX
  5
1D94
100
AcDbEntity
  8
ALPHA
100
AcDbVertex
100
AcDb2dVertex
 10
40.125643
 20
5.89592
 30
0.0
  0
SEQEND
  5
1D95
100
AcDbEntity
  8
ALPHA
  0
POLYLINE
  5
1D96
100
AcDbEntity
  8
ALPHA
100
AcDb2dPolyline
 66
     1
 10
0.0
 20
0.0
 30
0.0
  0
VERTEX
  5
1D97
100
AcDbEntity
  8
ALPHA
100
AcDbVertex
100
AcDb2dVertex
 10
41.203441
 20
4.814504
 30
0.0
  0
VERTEX
  5
1D98
100
AcDbEntity
  8
ALPHA
100
AcDbVertex
100
AcDb2dVertex
 10
41.227729
 20
4.793145
 30
0.0
  0
SEQEND
  5
1D99
100
AcDbEntity
  8
ALPHA
  0
POLYLINE
  5
1D9A
100
AcDbEntity
  8
ALPHA
100
AcDb2dPolyline
 66
     1
 10
0.0
 20
0.0
 30
0.0
  0
VERTEX
  5
1D9B
100
AcDbEntity
  8
ALPHA
100
AcDbVertex
100
AcDb2dVertex
 10
41.937763
 20
5.601709
 30
0.0
  0
VERTEX
  5
1D9C
100
AcDbEntity
  8
ALPHA
100
AcDbVertex
100
AcDb2dVertex
 10
41.981516
 20
5.592407
 30
0.0
  0
SEQEND
  5
1D9D
100
AcDbEntity
  8
ALPHA
  0
POLYLINE
  5
1D9E
100
AcDbEntity
  8
ALPHA
100
AcDb2dPolyline
 66
     1
 10
0.0
 20
0.0
 30
0.0
  0
VERTEX
  5
1D9F
100
AcDbEntity
  8
ALPHA
100
AcDbVertex
100
AcDb2dVertex
 10
43.928684
 20
3.659364
 30
0.0
  0
VERTEX
  5
1DA0
100
AcDbEntity
  8
ALPHA
100
AcDbVertex
100
AcDb2dVertex
 10
43.235531
 20
2.882839
 30
0.0
  0
SEQEND
  5
1DA1
100
AcDbEntity
  8
ALPHA
  0
POLYLINE
  5
1DA2
100
AcDbEntity
  8
ALPHA
100
AcDb2dPolyline
 66
     1
 10
0.0
 20
0.0
 30
0.0
  0
VERTEX
  5
1DA3
100
AcDbEntity
  8
ALPHA
100
AcDbVertex
100
AcDb2dVertex
 10
31.060908
 20
11.723643
 30
0.0
  0
VERTEX
  5
1DA4
100
AcDbEntity
  8
ALPHA
100
AcDbVertex
100
AcDb2dVertex
 10
37.467752
 20
11.723643
 30
0.0
  0
SEQEND
  5
1DA5
100
AcDbEntity
  8
ALPHA
  0
POLYLINE
  5
1DA6
100
AcDbEntity
  8
ALPHA
100
AcDb3dPolyline
 66
     1
 10
0.0
 20
0.0
 30
0.0
 70
     8
  0
VERTEX
  5
1DA7
100
AcDbEntity
  8
ALPHA
100
AcDbVertex
100
AcDb3dPolylineVertex
 10
43.972092
 20
17.315378
 30
0.0
 70
    32
  0
VERTEX
  5
1DA8
100
AcDbEntity
  8
ALPHA
100
AcDbVertex
100
AcDb3dPolylineVertex
 10
43.972092
 20
17.315378
 30
0.0
 70
    32
  0
SEQEND
  5
1DA9
100
AcDbEntity
  8
ALPHA
  0
POLYLINE
  5
1DAA
100
AcDbEntity
  8
ALPHA
100
AcDb3dPolyline
 66
     1
 10
0.0
 20
0.0
 30
0.0
 70
     8
  0
VERTEX
  5
1DAB
100
AcDbEntity
  8
ALPHA
100
AcDbVertex
100
AcDb3dPolylineVertex
 10
43.972092
 20
15.740969
 30
0.0
 70
    32
  0
VERTEX
  5
1DAC
100
AcDbEntity
  8
ALPHA
100
AcDbVertex
100
AcDb3dPolylineVertex
 10
43.972092
 20
15.740969
 30
0.0
 70
    32
  0
SEQEND
  5
1DAD
100
AcDbEntity
  8
ALPHA
  0
POLYLINE
  5
1DAE
100
AcDbEntity
  8
ALPHA
100
AcDb2dPolyline
 66
     1
 10
0.0
 20
0.0
 30
0.0
  0
VERTEX
  5
1DAF
100
AcDbEntity
  8
ALPHA
100
AcDbVertex
100
AcDb2dVertex
 10
30.369994
 20
26.852436
 30
0.0
  0
VERTEX
  5
1DB0
100
AcDbEntity
  8
ALPHA
100
AcDbVertex
100
AcDb2dVertex
 10
22.565302
 20
26.852436
 30
0.0
  0
SEQEND
  5
1DB1
100
AcDbEntity
  8
ALPHA
  0
POLYLINE
  5
1DB2
100
AcDbEntity
  8
ALPHA
100
AcDb2dPolyline
 66
     1
 10
0.0
 20
0.0
 30
0.0
  0
VERTEX
  5
1DB3
100
AcDbEntity
  8
ALPHA
100
AcDbVertex
100
AcDb2dVertex
 10
27.50488
 20
32.293964
 30
0.0
  0
VERTEX
  5
1DB4
100
AcDbEntity
  8
ALPHA
100
AcDbVertex
100
AcDb2dVertex
 10
28.138749
 20
32.517015
 30
0.0
  0
VERTEX
  5
1DB5
100
AcDbEntity
  8
ALPHA
100
AcDbVertex
100
AcDb2dVertex
 10
28.719833
 20
32.836782
 30
0.0
  0
VERTEX
  5
1DB6
100
AcDbEntity
  8
ALPHA
100
AcDbVertex
100
AcDb2dVertex
 10
29.238353
 20
33.243494
 30
0.0
  0
VERTEX
  5
1DB7
100
AcDbEntity
  8
ALPHA
100
AcDbVertex
100
AcDb2dVertex
 10
29.684528
 20
33.727382
 30
0.0
  0
VERTEX
  5
1DB8
100
AcDbEntity
  8
ALPHA
100
AcDbVertex
100
AcDb2dVertex
 10
30.048577
 20
34.278675
 30
0.0
  0
VERTEX
  5
1DB9
100
AcDbEntity
  8
ALPHA
100
AcDbVertex
100
AcDb2dVertex
 10
30.320721
 20
34.887604
 30
0.0
  0
VERTEX
  5
1DBA
100
AcDbEntity
  8
ALPHA
100
AcDbVertex
100
AcDb2dVertex
 10
30.491179
 20
35.544398
 30
0.0
  0
VERTEX
  5
1DBB
100
AcDbEntity
  8
ALPHA
100
AcDbVertex
100
AcDb2dVertex
 10
30.550172
 20
36.239287
 30
0.0
  0
VERTEX
  5
1DBC
100
AcDbEntity
  8
ALPHA
100
AcDbVertex
100
AcDb2dVertex
 10
30.491343
 20
36.933296
 30
0.0
  0
VERTEX
  5
1DBD
100
AcDbEntity
  8
ALPHA
100
AcDbVertex
100
AcDb2dVertex
 10
30.321348
 20
37.589286
 30
0.0
  0
VERTEX
  5
1DBE
100
AcDbEntity
  8
ALPHA
100
AcDbVertex
100
AcDb2dVertex
 10
30.04993
 20
38.197531
 30
0.0
  0
VERTEX
  5
1DBF
100
AcDbEntity
  8
ALPHA
100
AcDbVertex
100
AcDb2dVertex
 10
29.686831
 20
38.748307
 30
0.0
  0
VERTEX
  5
1DC0
100
AcDbEntity
  8
ALPHA
100
AcDbVertex
100
AcDb2dVertex
 10
29.241793
 20
39.231888
 30
0.0
  0
VERTEX
  5
1DC1
100
AcDbEntity
  8
ALPHA
100
AcDbVertex
100
AcDb2dVertex
 10
28.724557
 20
39.638547
 30
0.0
  0
VERTEX
  5
1DC2
100
AcDbEntity
  8
ALPHA
100
AcDbVertex
100
AcDb2dVertex
 10
28.144865
 20
39.958559
 30
0.0
  0
VERTEX
  5
1DC3
100
AcDbEntity
  8
ALPHA
100
AcDbVertex
100
AcDb2dVertex
 10
27.512459
 20
40.182199
 30
0.0
  0
SEQEND
  5
1DC4
100
AcDbEntity
  8
ALPHA
  0
POLYLINE
  5
1DC5
100
AcDbEntity
  8
ALPHA
100
AcDb2dPolyline
 66
     1
 10
0.0
 20
0.0
 30
0.0
  0
VERTEX
  5
1DC6
100
AcDbEntity
  8
ALPHA
100
AcDbVertex
100
AcDb2dVertex
 10
34.703579
 20
29.719789
 30
0.0
  0
VERTEX
  5
1DC7
100
AcDbEntity
  8
ALPHA
100
AcDbVertex
100
AcDb2dVertex
 10
33.934452
 20
28.852824
 30
0.0
  0
VERTEX
  5
1DC8
100
AcDbEntity
  8
ALPHA
100
AcDbVertex
100
AcDb2dVertex
 10
33.075088
 20
28.075283
 30
0.0
  0
VERTEX
  5
1DC9
100
AcDbEntity
  8
ALPHA
100
AcDbVertex
100
AcDb2dVertex
 10
32.133503
 20
27.395233
 30
0.0
  0
VERTEX
  5
1DCA
100
AcDbEntity
  8
ALPHA
100
AcDbVertex
100
AcDb2dVertex
 10
31.117709
 20
26.820741
 30
0.0
  0
VERTEX
  5
1DCB
100
AcDbEntity
  8
ALPHA
100
AcDbVertex
100
AcDb2dVertex
 10
30.035721
 20
26.359872
 30
0.0
  0
VERTEX
  5
1DCC
100
AcDbEntity
  8
ALPHA
100
AcDbVertex
100
AcDb2dVertex
 10
28.895552
 20
26.020693
 30
0.0
  0
VERTEX
  5
1DCD
100
AcDbEntity
  8
ALPHA
100
AcDbVertex
100
AcDb2dVertex
 10
27.705217
 20
25.81127
 30
0.0
  0
VERTEX
  5
1DCE
100
AcDbEntity
  8
ALPHA
100
AcDbVertex
100
AcDb2dVertex
 10
26.47273
 20
25.73967
 30
0.0
  0
VERTEX
  5
1DCF
100
AcDbEntity
  8
ALPHA
100
AcDbVertex
100
AcDb2dVertex
 10
25.23599
 20
25.811761
 30
0.0
  0
VERTEX
  5
1DD0
100
AcDbEntity
  8
ALPHA
100
AcDbVertex
100
AcDb2dVertex
 10
24.041636
 20
26.02262
 30
0.0
  0
VERTEX
  5
1DD1
100
AcDbEntity
  8
ALPHA
100
AcDbVertex
100
AcDb2dVertex
 10
22.897799
 20
26.364123
 30
0.0
  0
VERTEX
  5
1DD2
100
AcDbEntity
  8
ALPHA
100
AcDbVertex
100
AcDb2dVertex
 10
21.812614
 20
26.828148
 30
0.0
  0
VERTEX
  5
1DD3
100
AcDbEntity
  8
ALPHA
100
AcDbVertex
100
AcDb2dVertex
 10
20.794211
 20
27.406571
 30
0.0
  0
VERTEX
  5
1DD4
100
AcDbEntity
  8
ALPHA
100
AcDbVertex
100
AcDb2dVertex
 10
19.850726
 20
28.091271
 30
0.0
  0
VERTEX
  5
1DD5
100
AcDbEntity
  8
ALPHA
100
AcDbVertex
100
AcDb2dVertex
 10
18.99029
 20
28.874123
 30
0.0
  0
VERTEX
  5
1DD6
100
AcDbEntity
  8
ALPHA
100
AcDbVertex
100
AcDb2dVertex
 10
18.221037
 20
29.747005
 30
0.0
  0
SEQEND
  5
1DD7
100
AcDbEntity
  8
ALPHA
  0
POLYLINE
  5
1DD8
100
AcDbEntity
  8
ALPHA
100
AcDb2dPolyline
 66
     1
 10
0.0
 20
0.0
 30
0.0
  0
VERTEX
  5
1DD9
100
AcDbEntity
  8
ALPHA
100
AcDbVertex
100
AcDb2dVertex
 10
22.565302
 20
26.852436
 30
0.0
  0
VERTEX
  5
1DDA
100
AcDbEntity
  8
ALPHA
100
AcDbVertex
100
AcDb2dVertex
 10
17.07537
 20
32.364244
 30
0.0
  0
SEQEND
  5
1DDB
100
AcDbEntity
  8
ALPHA
  0
POLYLINE
  5
1DDC
100
AcDbEntity
  8
ALPHA
100
AcDb2dPolyline
 66
     1
 10
0.0
 20
0.0
 30
0.0
  0
VERTEX
  5
1DDD
100
AcDbEntity
  8
ALPHA
100
AcDbVertex
100
AcDb2dVertex
 10
27.50488
 20
30.313723
 30
0.0
  0
VERTEX
  5
1DDE
100
AcDbEntity
  8
ALPHA
100
AcDbVertex
100
AcDb2dVertex
 10
27.50488
 20
32.293964
 30
0.0
  0
SEQEND
  5
1DDF
100
AcDbEntity
  8
ALPHA
  0
POLYLINE
  5
1DE0
100
AcDbEntity
  8
ALPHA
100
AcDb2dPolyline
 66
     1
 10
0.0
 20
0.0
 30
0.0
  0
VERTEX
  5
1DE1
100
AcDbEntity
  8
ALPHA
100
AcDbVertex
100
AcDb2dVertex
 10
25.440923
 20
32.293964
 30
0.0
  0
VERTEX
  5
1DE2
100
AcDbEntity
  8
ALPHA
100
AcDbVertex
100
AcDb2dVertex
 10
25.440923
 20
30.313723
 30
0.0
  0
SEQEND
  5
1DE3
100
AcDbEntity
  8
ALPHA
  0
POLYLINE
  5
1DE4
100
AcDbEntity
  8
ALPHA
100
AcDb2dPolyline
 66
     1
 10
0.0
 20
0.0
 30
0.0
  0
VERTEX
  5
1DE5
100
AcDbEntity
  8
ALPHA
100
AcDbVertex
100
AcDb2dVertex
 10
19.457309
 20
19.064453
 30
0.0
  0
VERTEX
  5
1DE6
100
AcDbEntity
  8
ALPHA
100
AcDbVertex
100
AcDb2dVertex
 10
19.735412
 20
19.078512
 30
0.0
  0
VERTEX
  5
1DE7
100
AcDbEntity
  8
ALPHA
100
AcDbVertex
100
AcDb2dVertex
 10
20.005471
 20
19.119773
 30
0.0
  0
VERTEX
  5
1DE8
100
AcDbEntity
  8
ALPHA
100
AcDbVertex
100
AcDb2dVertex
 10
20.266121
 20
19.186863
 30
0.0
  0
VERTEX
  5
1DE9
100
AcDbEntity
  8
ALPHA
100
AcDbVertex
100
AcDb2dVertex
 10
20.515995
 20
19.278409
 30
0.0
  0
VERTEX
  5
1DEA
100
AcDbEntity
  8
ALPHA
100
AcDbVertex
100
AcDb2dVertex
 10
20.753729
 20
19.393039
 30
0.0
  0
VERTEX
  5
1DEB
100
AcDbEntity
  8
ALPHA
100
AcDbVertex
100
AcDb2dVertex
 10
20.977956
 20
19.529377
 30
0.0
  0
VERTEX
  5
1DEC
100
AcDbEntity
  8
ALPHA
100
AcDbVertex
100
AcDb2dVertex
 10
21.18731
 20
19.686052
 30
0.0
  0
VERTEX
  5
1DED
100
AcDbEntity
  8
ALPHA
100
AcDbVertex
100
AcDb2dVertex
 10
21.380426
 20
19.861691
 30
0.0
  0
VERTEX
  5
1DEE
100
AcDbEntity
  8
ALPHA
100
AcDbVertex
100
AcDb2dVertex
 10
21.555938
 20
20.05492
 30
0.0
  0
VERTEX
  5
1DEF
100
AcDbEntity
  8
ALPHA
100
AcDbVertex
100
AcDb2dVertex
 10
21.712479
 20
20.264365
 30
0.0
  0
VERTEX
  5
1DF0
100
AcDbEntity
  8
ALPHA
100
AcDbVertex
100
AcDb2dVertex
 10
21.848685
 20
20.488655
 30
0.0
  0
VERTEX
  5
1DF1
100
AcDbEntity
  8
ALPHA
100
AcDbVertex
100
AcDb2dVertex
 10
21.963188
 20
20.726415
 30
0.0
  0
VERTEX
  5
1DF2
100
AcDbEntity
  8
ALPHA
100
AcDbVertex
100
AcDb2dVertex
 10
22.054624
 20
20.976273
 30
0.0
  0
VERTEX
  5
1DF3
100
AcDbEntity
  8
ALPHA
100
AcDbVertex
100
AcDb2dVertex
 10
22.121627
 20
21.236855
 30
0.0
  0
VERTEX
  5
1DF4
100
AcDbEntity
  8
ALPHA
100
AcDbVertex
100
AcDb2dVertex
 10
22.16283
 20
21.506789
 30
0.0
  0
VERTEX
  5
1DF5
100
AcDbEntity
  8
ALPHA
100
AcDbVertex
100
AcDb2dVertex
 10
22.176868
 20
21.7847
 30
0.0
  0
VERTEX
  5
1DF6
100
AcDbEntity
  8
ALPHA
100
AcDbVertex
100
AcDb2dVertex
 10
22.16283
 20
22.062653
 30
0.0
  0
VERTEX
  5
1DF7
100
AcDbEntity
  8
ALPHA
100
AcDbVertex
100
AcDb2dVertex
 10
22.121627
 20
22.332585
 30
0.0
  0
VERTEX
  5
1DF8
100
AcDbEntity
  8
ALPHA
100
AcDbVertex
100
AcDb2dVertex
 10
22.054624
 20
22.593128
 30
0.0
  0
VERTEX
  5
1DF9
100
AcDbEntity
  8
ALPHA
100
AcDbVertex
100
AcDb2dVertex
 10
21.963188
 20
22.842915
 30
0.0
  0
VERTEX
  5
1DFA
100
AcDbEntity
  8
ALPHA
100
AcDbVertex
100
AcDb2dVertex
 10
21.848685
 20
23.080578
 30
0.0
  0
VERTEX
  5
1DFB
100
AcDbEntity
  8
ALPHA
100
AcDbVertex
100
AcDb2dVertex
 10
21.712479
 20
23.30475
 30
0.0
  0
VERTEX
  5
1DFC
100
AcDbEntity
  8
ALPHA
100
AcDbVertex
100
AcDb2dVertex
 10
21.555938
 20
23.514063
 30
0.0
  0
VERTEX
  5
1DFD
100
AcDbEntity
  8
ALPHA
100
AcDbVertex
100
AcDb2dVertex
 10
21.380426
 20
23.70715
 30
0.0
  0
VERTEX
  5
1DFE
100
AcDbEntity
  8
ALPHA
100
AcDbVertex
100
AcDb2dVertex
 10
21.18731
 20
23.882642
 30
0.0
  0
VERTEX
  5
1DFF
100
AcDbEntity
  8
ALPHA
100
AcDbVertex
100
AcDb2dVertex
 10
20.977956
 20
24.039172
 30
0.0
  0
VERTEX
  5
1E00
100
AcDbEntity
  8
ALPHA
100
AcDbVertex
100
AcDb2dVertex
 10
20.753729
 20
24.175373
 30
0.0
  0
VERTEX
  5
1E01
100
AcDbEntity
  8
ALPHA
100
AcDbVertex
100
AcDb2dVertex
 10
20.515995
 20
24.289877
 30
0.0
  0
VERTEX
  5
1E02
100
AcDbEntity
  8
ALPHA
100
AcDbVertex
100
AcDb2dVertex
 10
20.266121
 20
24.381316
 30
0.0
  0
VERTEX
  5
1E03
100
AcDbEntity
  8
ALPHA
100
AcDbVertex
100
AcDb2dVertex
 10
20.005471
 20
24.448323
 30
0.0
  0
VERTEX
  5
1E04
100
AcDbEntity
  8
ALPHA
100
AcDbVertex
100
AcDb2dVertex
 10
19.735412
 20
24.48953
 30
0.0
  0
VERTEX
  5
1E05
100
AcDbEntity
  8
ALPHA
100
AcDbVertex
100
AcDb2dVertex
 10
19.457309
 20
24.50357
 30
0.0
  0
VERTEX
  5
1E06
100
AcDbEntity
  8
ALPHA
100
AcDbVertex
100
AcDb2dVertex
 10
19.179235
 20
24.48953
 30
0.0
  0
VERTEX
  5
1E07
100
AcDbEntity
  8
ALPHA
100
AcDbVertex
100
AcDb2dVertex
 10
18.909197
 20
24.448323
 30
0.0
  0
VERTEX
  5
1E08
100
AcDbEntity
  8
ALPHA
100
AcDbVertex
100
AcDb2dVertex
 10
18.648562
 20
24.381316
 30
0.0
  0
VERTEX
  5
1E09
100
AcDbEntity
  8
ALPHA
100
AcDbVertex
100
AcDb2dVertex
 10
18.398696
 20
24.289877
 30
0.0
  0
VERTEX
  5
1E0A
100
AcDbEntity
  8
ALPHA
100
AcDbVertex
100
AcDb2dVertex
 10
18.160966
 20
24.175373
 30
0.0
  0
VERTEX
  5
1E0B
100
AcDbEntity
  8
ALPHA
100
AcDbVertex
100
AcDb2dVertex
 10
17.936738
 20
24.039172
 30
0.0
  0
VERTEX
  5
1E0C
100
AcDbEntity
  8
ALPHA
100
AcDbVertex
100
AcDb2dVertex
 10
17.72738
 20
23.882642
 30
0.0
  0
VERTEX
  5
1E0D
100
AcDbEntity
  8
ALPHA
100
AcDbVertex
100
AcDb2dVertex
 10
17.534257
 20
23.70715
 30
0.0
  0
VERTEX
  5
1E0E
100
AcDbEntity
  8
ALPHA
100
AcDbVertex
100
AcDb2dVertex
 10
17.358737
 20
23.514063
 30
0.0
  0
VERTEX
  5
1E0F
100
AcDbEntity
  8
ALPHA
100
AcDbVertex
100
AcDb2dVertex
 10
17.202185
 20
23.30475
 30
0.0
  0
VERTEX
  5
1E10
100
AcDbEntity
  8
ALPHA
100
AcDbVertex
100
AcDb2dVertex
 10
17.065969
 20
23.080578
 30
0.0
  0
VERTEX
  5
1E11
100
AcDbEntity
  8
ALPHA
100
AcDbVertex
100
AcDb2dVertex
 10
16.951455
 20
22.842915
 30
0.0
  0
VERTEX
  5
1E12
100
AcDbEntity
  8
ALPHA
100
AcDbVertex
100
AcDb2dVertex
 10
16.860009
 20
22.593128
 30
0.0
  0
VERTEX
  5
1E13
100
AcDbEntity
  8
ALPHA
100
AcDbVertex
100
AcDb2dVertex
 10
16.792999
 20
22.332585
 30
0.0
  0
VERTEX
  5
1E14
100
AcDbEntity
  8
ALPHA
100
AcDbVertex
100
AcDb2dVertex
 10
16.751791
 20
22.062653
 30
0.0
  0
VERTEX
  5
1E15
100
AcDbEntity
  8
ALPHA
100
AcDbVertex
100
AcDb2dVertex
 10
16.737751
 20
21.7847
 30
0.0
  0
VERTEX
  5
1E16
100
AcDbEntity
  8
ALPHA
100
AcDbVertex
100
AcDb2dVertex
 10
16.751791
 20
21.506789
 30
0.0
  0
VERTEX
  5
1E17
100
AcDbEntity
  8
ALPHA
100
AcDbVertex
100
AcDb2dVertex
 10
16.792999
 20
21.236855
 30
0.0
  0
VERTEX
  5
1E18
100
AcDbEntity
  8
ALPHA
100
AcDbVertex
100
AcDb2dVertex
 10
16.860009
 20
20.976273
 30
0.0
  0
VERTEX
  5
1E19
100
AcDbEntity
  8
ALPHA
100
AcDbVertex
100
AcDb2dVertex
 10
16.951455
 20
20.726415
 30
0.0
  0
VERTEX
  5
1E1A
100
AcDbEntity
  8
ALPHA
100
AcDbVertex
100
AcDb2dVertex
 10
17.065969
 20
20.488655
 30
0.0
  0
VERTEX
  5
1E1B
100
AcDbEntity
  8
ALPHA
100
AcDbVertex
100
AcDb2dVertex
 10
17.202185
 20
20.264365
 30
0.0
  0
VERTEX
  5
1E1C
100
AcDbEntity
  8
ALPHA
100
AcDbVertex
100
AcDb2dVertex
 10
17.358737
 20
20.05492
 30
0.0
  0
VERTEX
  5
1E1D
100
AcDbEntity
  8
ALPHA
100
AcDbVertex
100
AcDb2dVertex
 10
17.534257
 20
19.861691
 30
0.0
  0
VERTEX
  5
1E1E
100
AcDbEntity
  8
ALPHA
100
AcDbVertex
100
AcDb2dVertex
 10
17.72738
 20
19.686052
 30
0.0
  0
VERTEX
  5
1E1F
100
AcDbEntity
  8
ALPHA
100
AcDbVertex
100
AcDb2dVertex
 10
17.936738
 20
19.529377
 30
0.0
  0
VERTEX
  5
1E20
100
AcDbEntity
  8
ALPHA
100
AcDbVertex
100
AcDb2dVertex
 10
18.160966
 20
19.393039
 30
0.0
  0
VERTEX
  5
1E21
100
AcDbEntity
  8
ALPHA
100
AcDbVertex
100
AcDb2dVertex
 10
18.398696
 20
19.278409
 30
0.0
  0
VERTEX
  5
1E22
100
AcDbEntity
  8
ALPHA
100
AcDbVertex
100
AcDb2dVertex
 10
18.648562
 20
19.186863
 30
0.0
  0
VERTEX
  5
1E23
100
AcDbEntity
  8
ALPHA
100
AcDbVertex
100
AcDb2dVertex
 10
18.909197
 20
19.119773
 30
0.0
  0
VERTEX
  5
1E24
100
AcDbEntity
  8
ALPHA
100
AcDbVertex
100
AcDb2dVertex
 10
19.179235
 20
19.078512
 30
0.0
  0
VERTEX
  5
1E25
100
AcDbEntity
  8
ALPHA
100
AcDbVertex
100
AcDb2dVertex
 10
19.457309
 20
19.064453
 30
0.0
  0
SEQEND
  5
1E26
100
AcDbEntity
  8
ALPHA
  0
POLYLINE
  5
1E27
100
AcDbEntity
  8
ALPHA
100
AcDb2dPolyline
 66
     1
 10
0.0
 20
0.0
 30
0.0
  0
VERTEX
  5
1E28
100
AcDbEntity
  8
ALPHA
100
AcDbVertex
100
AcDb2dVertex
 10
19.472985
 20
18.777821
 30
0.0
  0
VERTEX
  5
1E29
100
AcDbEntity
  8
ALPHA
100
AcDbVertex
100
AcDb2dVertex
 10
19.779679
 20
18.793303
 30
0.0
  0
VERTEX
  5
1E2A
100
AcDbEntity
  8
ALPHA
100
AcDbVertex
100
AcDb2dVertex
 10
20.077538
 20
18.838745
 30
0.0
  0
VERTEX
  5
1E2B
100
AcDbEntity
  8
ALPHA
100
AcDbVertex
100
AcDb2dVertex
 10
20.365051
 20
18.912642
 30
0.0
  0
VERTEX
  5
1E2C
100
AcDbEntity
  8
ALPHA
100
AcDbVertex
100
AcDb2dVertex
 10
20.640708
 20
19.013487
 30
0.0
  0
VERTEX
  5
1E2D
100
AcDbEntity
  8
ALPHA
100
AcDbVertex
100
AcDb2dVertex
 10
20.902996
 20
19.139775
 30
0.0
  0
VERTEX
  5
1E2E
100
AcDbEntity
  8
ALPHA
100
AcDbVertex
100
AcDb2dVertex
 10
21.150405
 20
19.289999
 30
0.0
  0
VERTEX
  5
1E2F
100
AcDbEntity
  8
ALPHA
100
AcDbVertex
100
AcDb2dVertex
 10
21.381423
 20
19.462654
 30
0.0
  0
VERTEX
  5
1E30
100
AcDbEntity
  8
ALPHA
100
AcDbVertex
100
AcDb2dVertex
 10
21.594539
 20
19.656234
 30
0.0
  0
VERTEX
  5
1E31
100
AcDbEntity
  8
ALPHA
100
AcDbVertex
100
AcDb2dVertex
 10
21.788242
 20
19.869233
 30
0.0
  0
VERTEX
  5
1E32
100
AcDbEntity
  8
ALPHA
100
AcDbVertex
100
AcDb2dVertex
 10
21.961021
 20
20.100145
 30
0.0
  0
VERTEX
  5
1E33
100
AcDbEntity
  8
ALPHA
100
AcDbVertex
100
AcDb2dVertex
 10
22.111365
 20
20.347465
 30
0.0
  0
VERTEX
  5
1E34
100
AcDbEntity
  8
ALPHA
100
AcDbVertex
100
AcDb2dVertex
 10
22.237763
 20
20.609686
 30
0.0
  0
VERTEX
  5
1E35
100
AcDbEntity
  8
ALPHA
100
AcDbVertex
100
AcDb2dVertex
 10
22.338702
 20
20.885302
 30
0.0
  0
VERTEX
  5
1E36
100
AcDbEntity
  8
ALPHA
100
AcDbVertex
100
AcDb2dVertex
 10
22.412673
 20
21.172808
 30
0.0
  0
VERTEX
  5
1E37
100
AcDbEntity
  8
ALPHA
100
AcDbVertex
100
AcDb2dVertex
 10
22.458163
 20
21.470698
 30
0.0
  0
VERTEX
  5
1E38
100
AcDbEntity
  8
ALPHA
100
AcDbVertex
100
AcDb2dVertex
 10
22.473663
 20
21.777466
 30
0.0
  0
VERTEX
  5
1E39
100
AcDbEntity
  8
ALPHA
100
AcDbVertex
100
AcDb2dVertex
 10
22.458163
 20
22.08412
 30
0.0
  0
VERTEX
  5
1E3A
100
AcDbEntity
  8
ALPHA
100
AcDbVertex
100
AcDb2dVertex
 10
22.412673
 20
22.381925
 30
0.0
  0
VERTEX
  5
1E3B
100
AcDbEntity
  8
ALPHA
100
AcDbVertex
100
AcDb2dVertex
 10
22.338702
 20
22.669373
 30
0.0
  0
VERTEX
  5
1E3C
100
AcDbEntity
  8
ALPHA
100
AcDbVertex
100
AcDb2dVertex
 10
22.237763
 20
22.944955
 30
0.0
  0
VERTEX
  5
1E3D
100
AcDbEntity
  8
ALPHA
100
AcDbVertex
100
AcDb2dVertex
 10
22.111365
 20
23.207161
 30
0.0
  0
VERTEX
  5
1E3E
100
AcDbEntity
  8
ALPHA
100
AcDbVertex
100
AcDb2dVertex
 10
21.961021
 20
23.454483
 30
0.0
  0
VERTEX
  5
1E3F
100
AcDbEntity
  8
ALPHA
100
AcDbVertex
100
AcDb2dVertex
 10
21.788242
 20
23.685412
 30
0.0
  0
VERTEX
  5
1E40
100
AcDbEntity
  8
ALPHA
100
AcDbVertex
100
AcDb2dVertex
 10
21.594539
 20
23.898439
 30
0.0
  0
VERTEX
  5
1E41
100
AcDbEntity
  8
ALPHA
100
AcDbVertex
100
AcDb2dVertex
 10
21.381423
 20
24.092054
 30
0.0
  0
VERTEX
  5
1E42
100
AcDbEntity
  8
ALPHA
100
AcDbVertex
100
AcDb2dVertex
 10
21.150405
 20
24.26475
 30
0.0
  0
VERTEX
  5
1E43
100
AcDbEntity
  8
ALPHA
100
AcDbVertex
100
AcDb2dVertex
 10
20.902996
 20
24.415018
 30
0.0
  0
VERTEX
  5
1E44
100
AcDbEntity
  8
ALPHA
100
AcDbVertex
100
AcDb2dVertex
 10
20.640708
 20
24.541347
 30
0.0
  0
VERTEX
  5
1E45
100
AcDbEntity
  8
ALPHA
100
AcDbVertex
100
AcDb2dVertex
 10
20.365051
 20
24.64223
 30
0.0
  0
VERTEX
  5
1E46
100
AcDbEntity
  8
ALPHA
100
AcDbVertex
100
AcDb2dVertex
 10
20.077538
 20
24.716158
 30
0.0
  0
VERTEX
  5
1E47
100
AcDbEntity
  8
ALPHA
100
AcDbVertex
100
AcDb2dVertex
 10
19.779679
 20
24.761621
 30
0.0
  0
VERTEX
  5
1E48
100
AcDbEntity
  8
ALPHA
100
AcDbVertex
100
AcDb2dVertex
 10
19.472985
 20
24.77711
 30
0.0
  0
VERTEX
  5
1E49
100
AcDbEntity
  8
ALPHA
100
AcDbVertex
100
AcDb2dVertex
 10
19.166302
 20
24.761621
 30
0.0
  0
VERTEX
  5
1E4A
100
AcDbEntity
  8
ALPHA
100
AcDbVertex
100
AcDb2dVertex
 10
18.868476
 20
24.716158
 30
0.0
  0
VERTEX
  5
1E4B
100
AcDbEntity
  8
ALPHA
100
AcDbVertex
100
AcDb2dVertex
 10
18.581013
 20
24.64223
 30
0.0
  0
VERTEX
  5
1E4C
100
AcDbEntity
  8
ALPHA
100
AcDbVertex
100
AcDb2dVertex
 10
18.305423
 20
24.541347
 30
0.0
  0
VERTEX
  5
1E4D
100
AcDbEntity
  8
ALPHA
100
AcDbVertex
100
AcDb2dVertex
 10
18.043213
 20
24.415018
 30
0.0
  0
VERTEX
  5
1E4E
100
AcDbEntity
  8
ALPHA
100
AcDbVertex
100
AcDb2dVertex
 10
17.795892
 20
24.26475
 30
0.0
  0
VERTEX
  5
1E4F
100
AcDbEntity
  8
ALPHA
100
AcDbVertex
100
AcDb2dVertex
 10
17.564967
 20
24.092054
 30
0.0
  0
VERTEX
  5
1E50
100
AcDbEntity
  8
ALPHA
100
AcDbVertex
100
AcDb2dVertex
 10
17.351947
 20
23.898439
 30
0.0
  0
VERTEX
  5
1E51
100
AcDbEntity
  8
ALPHA
100
AcDbVertex
100
AcDb2dVertex
 10
17.15834
 20
23.685412
 30
0.0
  0
VERTEX
  5
1E52
100
AcDbEntity
  8
ALPHA
100
AcDbVertex
100
AcDb2dVertex
 10
16.985654
 20
23.454483
 30
0.0
  0
VERTEX
  5
1E53
100
AcDbEntity
  8
ALPHA
100
AcDbVertex
100
AcDb2dVertex
 10
16.835398
 20
23.207161
 30
0.0
  0
VERTEX
  5
1E54
100
AcDbEntity
  8
ALPHA
100
AcDbVertex
100
AcDb2dVertex
 10
16.709079
 20
22.944955
 30
0.0
  0
VERTEX
  5
1E55
100
AcDbEntity
  8
ALPHA
100
AcDbVertex
100
AcDb2dVertex
 10
16.608205
 20
22.669373
 30
0.0
  0
VERTEX
  5
1E56
100
AcDbEntity
  8
ALPHA
100
AcDbVertex
100
AcDb2dVertex
 10
16.534285
 20
22.381925
 30
0.0
  0
VERTEX
  5
1E57
100
AcDbEntity
  8
ALPHA
100
AcDbVertex
100
AcDb2dVertex
 10
16.488828
 20
22.08412
 30
0.0
  0
VERTEX
  5
1E58
100
AcDbEntity
  8
ALPHA
100
AcDbVertex
100
AcDb2dVertex
 10
16.47334
 20
21.777466
 30
0.0
  0
VERTEX
  5
1E59
100
AcDbEntity
  8
ALPHA
100
AcDbVertex
100
AcDb2dVertex
 10
16.488828
 20
21.470698
 30
0.0
  0
VERTEX
  5
1E5A
100
AcDbEntity
  8
ALPHA
100
AcDbVertex
100
AcDb2dVertex
 10
16.534285
 20
21.172808
 30
0.0
  0
VERTEX
  5
1E5B
100
AcDbEntity
  8
ALPHA
100
AcDbVertex
100
AcDb2dVertex
 10
16.608205
 20
20.885302
 30
0.0
  0
VERTEX
  5
1E5C
100
AcDbEntity
  8
ALPHA
100
AcDbVertex
100
AcDb2dVertex
 10
16.709079
 20
20.609686
 30
0.0
  0
VERTEX
  5
1E5D
100
AcDbEntity
  8
ALPHA
100
AcDbVertex
100
AcDb2dVertex
 10
16.835398
 20
20.347465
 30
0.0
  0
VERTEX
  5
1E5E
100
AcDbEntity
  8
ALPHA
100
AcDbVertex
100
AcDb2dVertex
 10
16.985654
 20
20.100145
 30
0.0
  0
VERTEX
  5
1E5F
100
AcDbEntity
  8
ALPHA
100
AcDbVertex
100
AcDb2dVertex
 10
17.15834
 20
19.869233
 30
0.0
  0
VERTEX
  5
1E60
100
AcDbEntity
  8
ALPHA
100
AcDbVertex
100
AcDb2dVertex
 10
17.351947
 20
19.656234
 30
0.0
  0
VERTEX
  5
1E61
100
AcDbEntity
  8
ALPHA
100
AcDbVertex
100
AcDb2dVertex
 10
17.564967
 20
19.462654
 30
0.0
  0
VERTEX
  5
1E62
100
AcDbEntity
  8
ALPHA
100
AcDbVertex
100
AcDb2dVertex
 10
17.795892
 20
19.289999
 30
0.0
  0
VERTEX
  5
1E63
100
AcDbEntity
  8
ALPHA
100
AcDbVertex
100
AcDb2dVertex
 10
18.043213
 20
19.139775
 30
0.0
  0
VERTEX
  5
1E64
100
AcDbEntity
  8
ALPHA
100
AcDbVertex
100
AcDb2dVertex
 10
18.305423
 20
19.013487
 30
0.0
  0
VERTEX
  5
1E65
100
AcDbEntity
  8
ALPHA
100
AcDbVertex
100
AcDb2dVertex
 10
18.581013
 20
18.912642
 30
0.0
  0
VERTEX
  5
1E66
100
AcDbEntity
  8
ALPHA
100
AcDbVertex
100
AcDb2dVertex
 10
18.868476
 20
18.838745
 30
0.0
  0
VERTEX
  5
1E67
100
AcDbEntity
  8
ALPHA
100
AcDbVertex
100
AcDb2dVertex
 10
19.166302
 20
18.793303
 30
0.0
  0
VERTEX
  5
1E68
100
AcDbEntity
  8
ALPHA
100
AcDbVertex
100
AcDb2dVertex
 10
19.472985
 20
18.777821
 30
0.0
  0
SEQEND
  5
1E69
100
AcDbEntity
  8
ALPHA
  0
POLYLINE
  5
1E6A
100
AcDbEntity
  8
ALPHA
100
AcDb2dPolyline
 66
     1
 10
0.0
 20
0.0
 30
0.0
  0
VERTEX
  5
1E6B
100
AcDbEntity
  8
ALPHA
100
AcDbVertex
100
AcDb2dVertex
 10
17.280181
 20
20.286428
 30
0.0
  0
VERTEX
  5
1E6C
100
AcDbEntity
  8
ALPHA
100
AcDbVertex
100
AcDb2dVertex
 10
18.771046
 20
21.819151
 30
0.0
  0
SEQEND
  5
1E6D
100
AcDbEntity
  8
ALPHA
  0
POLYLINE
  5
1E6E
100
AcDbEntity
  8
ALPHA
100
AcDb2dPolyline
 66
     1
 10
0.0
 20
0.0
 30
0.0
  0
VERTEX
  5
1E6F
100
AcDbEntity
  8
ALPHA
100
AcDbVertex
100
AcDb2dVertex
 10
20.128414
 20
21.872895
 30
0.0
  0
VERTEX
  5
1E70
100
AcDbEntity
  8
ALPHA
100
AcDbVertex
100
AcDb2dVertex
 10
21.216375
 20
20.7839
 30
0.0
  0
SEQEND
  5
1E71
100
AcDbEntity
  8
ALPHA
  0
POLYLINE
  5
1E72
100
AcDbEntity
  8
ALPHA
100
AcDb2dPolyline
 66
     1
 10
0.0
 20
0.0
 30
0.0
  0
VERTEX
  5
1E73
100
AcDbEntity
  8
ALPHA
100
AcDbVertex
100
AcDb2dVertex
 10
20.594019
 20
20.087991
 30
0.0
  0
VERTEX
  5
1E74
100
AcDbEntity
  8
ALPHA
100
AcDbVertex
100
AcDb2dVertex
 10
19.512603
 20
21.125998
 30
0.0
  0
SEQEND
  5
1E75
100
AcDbEntity
  8
ALPHA
  0
POLYLINE
  5
1E76
100
AcDbEntity
  8
ALPHA
100
AcDb2dPolyline
 66
     1
 10
0.0
 20
0.0
 30
0.0
  0
VERTEX
  5
1E77
100
AcDbEntity
  8
ALPHA
100
AcDbVertex
100
AcDb2dVertex
 10
19.512603
 20
21.125998
 30
0.0
  0
VERTEX
  5
1E78
100
AcDbEntity
  8
ALPHA
100
AcDbVertex
100
AcDb2dVertex
 10
17.945774
 20
19.588796
 30
0.0
  0
SEQEND
  5
1E79
100
AcDbEntity
  8
ALPHA
  0
POLYLINE
  5
1E7A
100
AcDbEntity
  8
ALPHA
100
AcDb3dPolyline
 66
     1
 10
0.0
 20
0.0
 30
0.0
 70
     8
  0
VERTEX
  5
1E7B
100
AcDbEntity
  8
ALPHA
100
AcDbVertex
100
AcDb3dPolylineVertex
 10
19.457309
 20
19.064453
 30
0.0
 70
    32
  0
VERTEX
  5
1E7C
100
AcDbEntity
  8
ALPHA
100
AcDbVertex
100
AcDb3dPolylineVertex
 10
19.457309
 20
19.064453
 30
0.0
 70
    32
  0
SEQEND
  5
1E7D
100
AcDbEntity
  8
ALPHA
  0
POLYLINE
  5
1E7E
100
AcDbEntity
  8
ALPHA
100
AcDb3dPolyline
 66
     1
 10
0.0
 20
0.0
 30
0.0
 70
     8
  0
VERTEX
  5
1E7F
100
AcDbEntity
  8
ALPHA
100
AcDbVertex
100
AcDb3dPolylineVertex
 10
19.472985
 20
18.777821
 30
0.0
 70
    32
  0
VERTEX
  5
1E80
100
AcDbEntity
  8
ALPHA
100
AcDbVertex
100
AcDb3dPolylineVertex
 10
19.472985
 20
18.777821
 30
0.0
 70
    32
  0
SEQEND
  5
1E81
100
AcDbEntity
  8
ALPHA
  0
POLYLINE
  5
1E82
100
AcDbEntity
  8
ALPHA
100
AcDb2dPolyline
 66
     1
 10
0.0
 20
0.0
 30
0.0
  0
VERTEX
  5
1E83
100
AcDbEntity
  8
ALPHA
100
AcDbVertex
100
AcDb2dVertex
 10
21.216375
 20
20.7839
 30
0.0
  0
VERTEX
  5
1E84
100
AcDbEntity
  8
ALPHA
100
AcDbVertex
100
AcDb2dVertex
 10
20.594019
 20
20.087991
 30
0.0
  0
SEQEND
  5
1E85
100
AcDbEntity
  8
ALPHA
  0
POLYLINE
  5
1E86
100
AcDbEntity
  8
ALPHA
100
AcDb2dPolyline
 66
     1
 10
0.0
 20
0.0
 30
0.0
  0
VERTEX
  5
1E87
100
AcDbEntity
  8
ALPHA
100
AcDbVertex
100
AcDb2dVertex
 10
19.468678
 20
22.518161
 30
0.0
  0
VERTEX
  5
1E88
100
AcDbEntity
  8
ALPHA
100
AcDbVertex
100
AcDb2dVertex
 10
20.987104
 20
23.992662
 30
0.0
  0
SEQEND
  5
1E89
100
AcDbEntity
  8
ALPHA
  0
POLYLINE
  5
1E8A
100
AcDbEntity
  8
ALPHA
100
AcDb2dPolyline
 66
     1
 10
0.0
 20
0.0
 30
0.0
  0
VERTEX
  5
1E8B
100
AcDbEntity
  8
ALPHA
100
AcDbVertex
100
AcDb2dVertex
 10
18.771046
 20
21.819151
 30
0.0
  0
VERTEX
  5
1E8C
100
AcDbEntity
  8
ALPHA
100
AcDbVertex
100
AcDb2dVertex
 10
18.791889
 20
21.802959
 30
0.0
  0
SEQEND
  5
1E8D
100
AcDbEntity
  8
ALPHA
  0
POLYLINE
  5
1E8E
100
AcDbEntity
  8
ALPHA
100
AcDb2dPolyline
 66
     1
 10
0.0
 20
0.0
 30
0.0
  0
VERTEX
  5
1E8F
100
AcDbEntity
  8
ALPHA
100
AcDbVertex
100
AcDb2dVertex
 10
18.791889
 20
21.802959
 30
0.0
  0
VERTEX
  5
1E90
100
AcDbEntity
  8
ALPHA
100
AcDbVertex
100
AcDb2dVertex
 10
17.803664
 20
22.791013
 30
0.0
  0
SEQEND
  5
1E91
100
AcDbEntity
  8
ALPHA
  0
POLYLINE
  5
1E92
100
AcDbEntity
  8
ALPHA
100
AcDb2dPolyline
 66
     1
 10
0.0
 20
0.0
 30
0.0
  0
VERTEX
  5
1E93
100
AcDbEntity
  8
ALPHA
100
AcDbVertex
100
AcDb2dVertex
 10
17.803664
 20
22.791013
 30
0.0
  0
VERTEX
  5
1E94
100
AcDbEntity
  8
ALPHA
100
AcDbVertex
100
AcDb2dVertex
 10
18.469256
 20
23.486922
 30
0.0
  0
SEQEND
  5
1E95
100
AcDbEntity
  8
ALPHA
  0
POLYLINE
  5
1E96
100
AcDbEntity
  8
ALPHA
100
AcDb2dPolyline
 66
     1
 10
0.0
 20
0.0
 30
0.0
  0
VERTEX
  5
1E97
100
AcDbEntity
  8
ALPHA
100
AcDbVertex
100
AcDb2dVertex
 10
18.469256
 20
23.486922
 30
0.0
  0
VERTEX
  5
1E98
100
AcDbEntity
  8
ALPHA
100
AcDbVertex
100
AcDb2dVertex
 10
19.429749
 20
22.526429
 30
0.0
  0
SEQEND
  5
1E99
100
AcDbEntity
  8
ALPHA
  0
POLYLINE
  5
1E9A
100
AcDbEntity
  8
ALPHA
100
AcDb2dPolyline
 66
     1
 10
0.0
 20
0.0
 30
0.0
  0
VERTEX
  5
1E9B
100
AcDbEntity
  8
ALPHA
100
AcDbVertex
100
AcDb2dVertex
 10
19.429749
 20
22.526429
 30
0.0
  0
VERTEX
  5
1E9C
100
AcDbEntity
  8
ALPHA
100
AcDbVertex
100
AcDb2dVertex
 10
19.468678
 20
22.518161
 30
0.0
  0
SEQEND
  5
1E9D
100
AcDbEntity
  8
ALPHA
  0
POLYLINE
  5
1E9E
100
AcDbEntity
  8
ALPHA
100
AcDb2dPolyline
 66
     1
 10
0.0
 20
0.0
 30
0.0
  0
VERTEX
  5
1E9F
100
AcDbEntity
  8
ALPHA
100
AcDbVertex
100
AcDb2dVertex
 10
21.609116
 20
23.383225
 30
0.0
  0
VERTEX
  5
1EA0
100
AcDbEntity
  8
ALPHA
100
AcDbVertex
100
AcDb2dVertex
 10
20.128414
 20
21.872895
 30
0.0
  0
SEQEND
  5
1EA1
100
AcDbEntity
  8
ALPHA
  0
POLYLINE
  5
1EA2
100
AcDbEntity
  8
ALPHA
100
AcDb2dPolyline
 66
     1
 10
0.0
 20
0.0
 30
0.0
  0
VERTEX
  5
1EA3
100
AcDbEntity
  8
ALPHA
100
AcDbVertex
100
AcDb2dVertex
 10
25.440923
 20
30.313723
 30
0.0
  0
VERTEX
  5
1EA4
100
AcDbEntity
  8
ALPHA
100
AcDbVertex
100
AcDb2dVertex
 10
27.50488
 20
30.313723
 30
0.0
  0
SEQEND
  5
1EA5
100
AcDbEntity
  8
ALPHA
  0
POLYLINE
  5
1EA6
100
AcDbEntity
  8
ALPHA
100
AcDb3dPolyline
 66
     1
 10
0.0
 20
0.0
 30
0.0
 70
     8
  0
VERTEX
  5
1EA7
100
AcDbEntity
  8
ALPHA
100
AcDbVertex
100
AcDb3dPolylineVertex
 10
27.50488
 20
30.313723
 30
0.0
 70
    32
  0
VERTEX
  5
1EA8
100
AcDbEntity
  8
ALPHA
100
AcDbVertex
100
AcDb3dPolylineVertex
 10
27.50488
 20
30.313723
 30
0.0
 70
    32
  0
SEQEND
  5
1EA9
100
AcDbEntity
  8
ALPHA
  0
POLYLINE
  5
1EAA
100
AcDbEntity
  8
ALPHA
100
AcDb2dPolyline
 66
     1
 10
0.0
 20
0.0
 30
0.0
  0
VERTEX
  5
1EAB
100
AcDbEntity
  8
ALPHA
100
AcDbVertex
100
AcDb2dVertex
 10
17.07537
 20
32.364244
 30
0.0
  0
VERTEX
  5
1EAC
100
AcDbEntity
  8
ALPHA
100
AcDbVertex
100
AcDb2dVertex
 10
17.07537
 20
40.124666
 30
0.0
  0
SEQEND
  5
1EAD
100
AcDbEntity
  8
ALPHA
  0
POLYLINE
  5
1EAE
100
AcDbEntity
  8
ALPHA
100
AcDb2dPolyline
 66
     1
 10
0.0
 20
0.0
 30
0.0
  0
VERTEX
  5
1EAF
100
AcDbEntity
  8
ALPHA
100
AcDbVertex
100
AcDb2dVertex
 10
16.024788
 20
35.249511
 30
0.0
  0
VERTEX
  5
1EB0
100
AcDbEntity
  8
ALPHA
100
AcDbVertex
100
AcDb2dVertex
 10
16.024788
 20
37.229063
 30
0.0
  0
SEQEND
  5
1EB1
100
AcDbEntity
  8
ALPHA
  0
POLYLINE
  5
1EB2
100
AcDbEntity
  8
ALPHA
100
AcDb2dPolyline
 66
     1
 10
0.0
 20
0.0
 30
0.0
  0
VERTEX
  5
1EB3
100
AcDbEntity
  8
ALPHA
100
AcDbVertex
100
AcDb2dVertex
 10
14.995222
 20
34.2494
 30
0.0
  0
VERTEX
  5
1EB4
100
AcDbEntity
  8
ALPHA
100
AcDbVertex
100
AcDb2dVertex
 10
16.024788
 20
35.249511
 30
0.0
  0
SEQEND
  5
1EB5
100
AcDbEntity
  8
ALPHA
  0
POLYLINE
  5
1EB6
100
AcDbEntity
  8
ALPHA
100
AcDb2dPolyline
 66
     1
 10
0.0
 20
0.0
 30
0.0
  0
VERTEX
  5
1EB7
100
AcDbEntity
  8
ALPHA
100
AcDbVertex
100
AcDb2dVertex
 10
16.024788
 20
37.229063
 30
0.0
  0
VERTEX
  5
1EB8
100
AcDbEntity
  8
ALPHA
100
AcDbVertex
100
AcDb2dVertex
 10
14.995222
 20
38.229175
 30
0.0
  0
SEQEND
  5
1EB9
100
AcDbEntity
  8
ALPHA
  0
POLYLINE
  5
1EBA
100
AcDbEntity
  8
ALPHA
100
AcDb2dPolyline
 66
     1
 10
0.0
 20
0.0
 30
0.0
  0
VERTEX
  5
1EBB
100
AcDbEntity
  8
ALPHA
100
AcDbVertex
100
AcDb2dVertex
 10
25.433689
 20
40.182199
 30
0.0
  0
VERTEX
  5
1EBC
100
AcDbEntity
  8
ALPHA
100
AcDbVertex
100
AcDb2dVertex
 10
24.801283
 20
39.958559
 30
0.0
  0
VERTEX
  5
1EBD
100
AcDbEntity
  8
ALPHA
100
AcDbVertex
100
AcDb2dVertex
 10
24.221591
 20
39.638547
 30
0.0
  0
VERTEX
  5
1EBE
100
AcDbEntity
  8
ALPHA
100
AcDbVertex
100
AcDb2dVertex
 10
23.704355
 20
39.231888
 30
0.0
  0
VERTEX
  5
1EBF
100
AcDbEntity
  8
ALPHA
100
AcDbVertex
100
AcDb2dVertex
 10
23.259317
 20
38.748307
 30
0.0
  0
VERTEX
  5
1EC0
100
AcDbEntity
  8
ALPHA
100
AcDbVertex
100
AcDb2dVertex
 10
22.896218
 20
38.197531
 30
0.0
  0
VERTEX
  5
1EC1
100
AcDbEntity
  8
ALPHA
100
AcDbVertex
100
AcDb2dVertex
 10
22.6248
 20
37.589286
 30
0.0
  0
VERTEX
  5
1EC2
100
AcDbEntity
  8
ALPHA
100
AcDbVertex
100
AcDb2dVertex
 10
22.454806
 20
36.933296
 30
0.0
  0
VERTEX
  5
1EC3
100
AcDbEntity
  8
ALPHA
100
AcDbVertex
100
AcDb2dVertex
 10
22.395976
 20
36.239287
 30
0.0
  0
VERTEX
  5
1EC4
100
AcDbEntity
  8
ALPHA
100
AcDbVertex
100
AcDb2dVertex
 10
22.45494
 20
35.544398
 30
0.0
  0
VERTEX
  5
1EC5
100
AcDbEntity
  8
ALPHA
100
AcDbVertex
100
AcDb2dVertex
 10
22.625325
 20
34.887604
 30
0.0
  0
VERTEX
  5
1EC6
100
AcDbEntity
  8
ALPHA
100
AcDbVertex
100
AcDb2dVertex
 10
22.897371
 20
34.278675
 30
0.0
  0
VERTEX
  5
1EC7
100
AcDbEntity
  8
ALPHA
100
AcDbVertex
100
AcDb2dVertex
 10
23.261319
 20
33.727382
 30
0.0
  0
VERTEX
  5
1EC8
100
AcDbEntity
  8
ALPHA
100
AcDbVertex
100
AcDb2dVertex
 10
23.707408
 20
33.243494
 30
0.0
  0
VERTEX
  5
1EC9
100
AcDbEntity
  8
ALPHA
100
AcDbVertex
100
AcDb2dVertex
 10
24.225879
 20
32.836782
 30
0.0
  0
VERTEX
  5
1ECA
100
AcDbEntity
  8
ALPHA
100
AcDbVertex
100
AcDb2dVertex
 10
24.80697
 20
32.517015
 30
0.0
  0
VERTEX
  5
1ECB
100
AcDbEntity
  8
ALPHA
100
AcDbVertex
100
AcDb2dVertex
 10
25.440923
 20
32.293964
 30
0.0
  0
SEQEND
  5
1ECC
100
AcDbEntity
  8
ALPHA
  0
POLYLINE
  5
1ECD
100
AcDbEntity
  8
ALPHA
100
AcDb2dPolyline
 66
     1
 10
0.0
 20
0.0
 30
0.0
  0
VERTEX
  5
1ECE
100
AcDbEntity
  8
ALPHA
100
AcDbVertex
100
AcDb2dVertex
 10
28.972491
 20
33.739182
 30
0.0
  0
VERTEX
  5
1ECF
100
AcDbEntity
  8
ALPHA
100
AcDbVertex
100
AcDb2dVertex
 10
28.972491
 20
38.739049
 30
0.0
  0
SEQEND
  5
1ED0
100
AcDbEntity
  8
ALPHA
  0
POLYLINE
  5
1ED1
100
AcDbEntity
  8
ALPHA
100
AcDb2dPolyline
 66
     1
 10
0.0
 20
0.0
 30
0.0
  0
VERTEX
  5
1ED2
100
AcDbEntity
  8
ALPHA
100
AcDbVertex
100
AcDb2dVertex
 10
23.973313
 20
38.739049
 30
0.0
  0
VERTEX
  5
1ED3
100
AcDbEntity
  8
ALPHA
100
AcDbVertex
100
AcDb2dVertex
 10
23.973313
 20
34.739293
 30
0.0
  0
SEQEND
  5
1ED4
100
AcDbEntity
  8
ALPHA
  0
POLYLINE
  5
1ED5
100
AcDbEntity
  8
ALPHA
100
AcDb2dPolyline
 66
     1
 10
0.0
 20
0.0
 30
0.0
  0
VERTEX
  5
1ED6
100
AcDbEntity
  8
ALPHA
100
AcDbVertex
100
AcDb2dVertex
 10
24.973424
 20
33.739182
 30
0.0
  0
VERTEX
  5
1ED7
100
AcDbEntity
  8
ALPHA
100
AcDbVertex
100
AcDb2dVertex
 10
28.972491
 20
33.739182
 30
0.0
  0
SEQEND
  5
1ED8
100
AcDbEntity
  8
ALPHA
  0
POLYLINE
  5
1ED9
100
AcDbEntity
  8
ALPHA
100
AcDb2dPolyline
 66
     1
 10
0.0
 20
0.0
 30
0.0
  0
VERTEX
  5
1EDA
100
AcDbEntity
  8
ALPHA
100
AcDbVertex
100
AcDb2dVertex
 10
23.973313
 20
34.739293
 30
0.0
  0
VERTEX
  5
1EDB
100
AcDbEntity
  8
ALPHA
100
AcDbVertex
100
AcDb2dVertex
 10
24.973424
 20
33.739182
 30
0.0
  0
SEQEND
  5
1EDC
100
AcDbEntity
  8
ALPHA
  0
POLYLINE
  5
1EDD
100
AcDbEntity
  8
ALPHA
100
AcDb2dPolyline
 66
     1
 10
0.0
 20
0.0
 30
0.0
  0
VERTEX
  5
1EDE
100
AcDbEntity
  8
ALPHA
100
AcDbVertex
100
AcDb2dVertex
 10
27.512459
 20
42.164507
 30
0.0
  0
VERTEX
  5
1EDF
100
AcDbEntity
  8
ALPHA
100
AcDbVertex
100
AcDb2dVertex
 10
25.433689
 20
42.164507
 30
0.0
  0
SEQEND
  5
1EE0
100
AcDbEntity
  8
ALPHA
  0
POLYLINE
  5
1EE1
100
AcDbEntity
  8
ALPHA
100
AcDb2dPolyline
 66
     1
 10
0.0
 20
0.0
 30
0.0
  0
VERTEX
  5
1EE2
100
AcDbEntity
  8
ALPHA
100
AcDbVertex
100
AcDb2dVertex
 10
28.972491
 20
38.739049
 30
0.0
  0
VERTEX
  5
1EE3
100
AcDbEntity
  8
ALPHA
100
AcDbVertex
100
AcDb2dVertex
 10
23.973313
 20
38.739049
 30
0.0
  0
SEQEND
  5
1EE4
100
AcDbEntity
  8
ALPHA
  0
POLYLINE
  5
1EE5
100
AcDbEntity
  8
ALPHA
100
AcDb2dPolyline
 66
     1
 10
0.0
 20
0.0
 30
0.0
  0
VERTEX
  5
1EE6
100
AcDbEntity
  8
ALPHA
100
AcDbVertex
100
AcDb2dVertex
 10
25.433689
 20
42.164507
 30
0.0
  0
VERTEX
  5
1EE7
100
AcDbEntity
  8
ALPHA
100
AcDbVertex
100
AcDb2dVertex
 10
25.433689
 20
40.182199
 30
0.0
  0
SEQEND
  5
1EE8
100
AcDbEntity
  8
ALPHA
  0
POLYLINE
  5
1EE9
100
AcDbEntity
  8
ALPHA
100
AcDb2dPolyline
 66
     1
 10
0.0
 20
0.0
 30
0.0
  0
VERTEX
  5
1EEA
100
AcDbEntity
  8
ALPHA
100
AcDbVertex
100
AcDb2dVertex
 10
27.512459
 20
40.182199
 30
0.0
  0
VERTEX
  5
1EEB
100
AcDbEntity
  8
ALPHA
100
AcDbVertex
100
AcDb2dVertex
 10
27.512459
 20
42.164507
 30
0.0
  0
SEQEND
  5
1EEC
100
AcDbEntity
  8
ALPHA
  0
POLYLINE
  5
1EED
100
AcDbEntity
  8
ALPHA
100
AcDb2dPolyline
 66
     1
 10
0.0
 20
0.0
 30
0.0
  0
VERTEX
  5
1EEE
100
AcDbEntity
  8
ALPHA
100
AcDbVertex
100
AcDb2dVertex
 10
35.859926
 20
32.34254
 30
0.0
  0
VERTEX
  5
1EEF
100
AcDbEntity
  8
ALPHA
100
AcDbVertex
100
AcDb2dVertex
 10
30.369994
 20
26.852436
 30
0.0
  0
SEQEND
  5
1EF0
100
AcDbEntity
  8
ALPHA
  0
POLYLINE
  5
1EF1
100
AcDbEntity
  8
ALPHA
100
AcDb2dPolyline
 66
     1
 10
0.0
 20
0.0
 30
0.0
  0
VERTEX
  5
1EF2
100
AcDbEntity
  8
ALPHA
100
AcDbVertex
100
AcDb2dVertex
 10
43.972781
 20
34.2494
 30
0.0
  0
VERTEX
  5
1EF3
100
AcDbEntity
  8
ALPHA
100
AcDbVertex
100
AcDb2dVertex
 10
43.972781
 20
29.719789
 30
0.0
  0
SEQEND
  5
1EF4
100
AcDbEntity
  8
ALPHA
  0
POLYLINE
  5
1EF5
100
AcDbEntity
  8
ALPHA
100
AcDb2dPolyline
 66
     1
 10
0.0
 20
0.0
 30
0.0
  0
VERTEX
  5
1EF6
100
AcDbEntity
  8
ALPHA
100
AcDbVertex
100
AcDb2dVertex
 10
43.972781
 20
29.719789
 30
0.0
  0
VERTEX
  5
1EF7
100
AcDbEntity
  8
ALPHA
100
AcDbVertex
100
AcDb2dVertex
 10
34.703579
 20
29.719789
 30
0.0
  0
SEQEND
  5
1EF8
100
AcDbEntity
  8
ALPHA
  0
POLYLINE
  5
1EF9
100
AcDbEntity
  8
ALPHA
100
AcDb2dPolyline
 66
     1
 10
0.0
 20
0.0
 30
0.0
  0
VERTEX
  5
1EFA
100
AcDbEntity
  8
ALPHA
100
AcDbVertex
100
AcDb2dVertex
 10
43.972092
 20
21.739914
 30
0.0
  0
VERTEX
  5
1EFB
100
AcDbEntity
  8
ALPHA
100
AcDbVertex
100
AcDb2dVertex
 10
43.665381
 20
21.724428
 30
0.0
  0
VERTEX
  5
1EFC
100
AcDbEntity
  8
ALPHA
100
AcDbVertex
100
AcDb2dVertex
 10
43.367534
 20
21.678976
 30
0.0
  0
VERTEX
  5
1EFD
100
AcDbEntity
  8
ALPHA
100
AcDbVertex
100
AcDb2dVertex
 10
43.080057
 20
21.605064
 30
0.0
  0
VERTEX
  5
1EFE
100
AcDbEntity
  8
ALPHA
100
AcDbVertex
100
AcDb2dVertex
 10
42.804458
 20
21.5042
 30
0.0
  0
VERTEX
  5
1EFF
100
AcDbEntity
  8
ALPHA
100
AcDbVertex
100
AcDb2dVertex
 10
42.542244
 20
21.377891
 30
0.0
  0
VERTEX
  5
1F00
100
AcDbEntity
  8
ALPHA
100
AcDbVertex
100
AcDb2dVertex
 10
42.294923
 20
21.227645
 30
0.0
  0
VERTEX
  5
1F01
100
AcDbEntity
  8
ALPHA
100
AcDbVertex
100
AcDb2dVertex
 10
42.064003
 20
21.05497
 30
0.0
  0
VERTEX
  5
1F02
100
AcDbEntity
  8
ALPHA
100
AcDbVertex
100
AcDb2dVertex
 10
41.85099
 20
20.861372
 30
0.0
  0
VERTEX
  5
1F03
100
AcDbEntity
  8
ALPHA
100
AcDbVertex
100
AcDb2dVertex
 10
41.657392
 20
20.648359
 30
0.0
  0
VERTEX
  5
1F04
100
AcDbEntity
  8
ALPHA
100
AcDbVertex
100
AcDb2dVertex
 10
41.484716
 20
20.417438
 30
0.0
  0
VERTEX
  5
1F05
100
AcDbEntity
  8
ALPHA
100
AcDbVertex
100
AcDb2dVertex
 10
41.334471
 20
20.170117
 30
0.0
  0
VERTEX
  5
1F06
100
AcDbEntity
  8
ALPHA
100
AcDbVertex
100
AcDb2dVertex
 10
41.208162
 20
19.907904
 30
0.0
  0
VERTEX
  5
1F07
100
AcDbEntity
  8
ALPHA
100
AcDbVertex
100
AcDb2dVertex
 10
41.107298
 20
19.632305
 30
0.0
  0
VERTEX
  5
1F08
100
AcDbEntity
  8
ALPHA
100
AcDbVertex
100
AcDb2dVertex
 10
41.033386
 20
19.344828
 30
0.0
  0
VERTEX
  5
1F09
100
AcDbEntity
  8
ALPHA
100
AcDbVertex
100
AcDb2dVertex
 10
40.987933
 20
19.04698
 30
0.0
  0
VERTEX
  5
1F0A
100
AcDbEntity
  8
ALPHA
100
AcDbVertex
100
AcDb2dVertex
 10
40.972447
 20
18.740269
 30
0.0
  0
SEQEND
  5
1F0B
100
AcDbEntity
  8
ALPHA
  0
POLYLINE
  5
1F0C
100
AcDbEntity
  8
ALPHA
100
AcDb2dPolyline
 66
     1
 10
0.0
 20
0.0
 30
0.0
  0
VERTEX
  5
1F0D
100
AcDbEntity
  8
ALPHA
100
AcDbVertex
100
AcDb2dVertex
 10
47.00481
 20
21.739914
 30
0.0
  0
VERTEX
  5
1F0E
100
AcDbEntity
  8
ALPHA
100
AcDbVertex
100
AcDb2dVertex
 10
43.972092
 20
21.739914
 30
0.0
  0
SEQEND
  5
1F0F
100
AcDbEntity
  8
ALPHA
  0
POLYLINE
  5
1F10
100
AcDbEntity
  8
ALPHA
100
AcDb2dPolyline
 66
     1
 10
0.0
 20
0.0
 30
0.0
  0
VERTEX
  5
1F11
100
AcDbEntity
  8
ALPHA
100
AcDbVertex
100
AcDb2dVertex
 10
37.983999
 20
34.2494
 30
0.0
  0
VERTEX
  5
1F12
100
AcDbEntity
  8
ALPHA
100
AcDbVertex
100
AcDb2dVertex
 10
43.972781
 20
34.2494
 30
0.0
  0
SEQEND
  5
1F13
100
AcDbEntity
  8
ALPHA
  0
POLYLINE
  5
1F14
100
AcDbEntity
  8
ALPHA
100
AcDb2dPolyline
 66
     1
 10
0.0
 20
0.0
 30
0.0
  0
VERTEX
  5
1F15
100
AcDbEntity
  8
ALPHA
100
AcDbVertex
100
AcDb2dVertex
 10
34.703579
 20
42.758442
 30
0.0
  0
VERTEX
  5
1F16
100
AcDbEntity
  8
ALPHA
100
AcDbVertex
100
AcDb2dVertex
 10
43.972781
 20
42.758442
 30
0.0
  0
SEQEND
  5
1F17
100
AcDbEntity
  8
ALPHA
  0
POLYLINE
  5
1F18
100
AcDbEntity
  8
ALPHA
100
AcDb2dPolyline
 66
     1
 10
0.0
 20
0.0
 30
0.0
  0
VERTEX
  5
1F19
100
AcDbEntity
  8
ALPHA
100
AcDbVertex
100
AcDb2dVertex
 10
43.972781
 20
38.229175
 30
0.0
  0
VERTEX
  5
1F1A
100
AcDbEntity
  8
ALPHA
100
AcDbVertex
100
AcDb2dVertex
 10
37.983999
 20
38.229175
 30
0.0
  0
SEQEND
  5
1F1B
100
AcDbEntity
  8
ALPHA
  0
POLYLINE
  5
1F1C
100
AcDbEntity
  8
ALPHA
100
AcDb2dPolyline
 66
     1
 10
0.0
 20
0.0
 30
0.0
  0
VERTEX
  5
1F1D
100
AcDbEntity
  8
ALPHA
100
AcDbVertex
100
AcDb2dVertex
 10
35.859926
 20
40.147059
 30
0.0
  0
VERTEX
  5
1F1E
100
AcDbEntity
  8
ALPHA
100
AcDbVertex
100
AcDb2dVertex
 10
35.859926
 20
32.34254
 30
0.0
  0
SEQEND
  5
1F1F
100
AcDbEntity
  8
ALPHA
  0
POLYLINE
  5
1F20
100
AcDbEntity
  8
ALPHA
100
AcDb2dPolyline
 66
     1
 10
0.0
 20
0.0
 30
0.0
  0
VERTEX
  5
1F21
100
AcDbEntity
  8
ALPHA
100
AcDbVertex
100
AcDb2dVertex
 10
36.936001
 20
37.225274
 30
0.0
  0
VERTEX
  5
1F22
100
AcDbEntity
  8
ALPHA
100
AcDbVertex
100
AcDb2dVertex
 10
36.936001
 20
35.253301
 30
0.0
  0
SEQEND
  5
1F23
100
AcDbEntity
  8
ALPHA
  0
POLYLINE
  5
1F24
100
AcDbEntity
  8
ALPHA
100
AcDb2dPolyline
 66
     1
 10
0.0
 20
0.0
 30
0.0
  0
VERTEX
  5
1F25
100
AcDbEntity
  8
ALPHA
100
AcDbVertex
100
AcDb2dVertex
 10
36.936001
 20
35.253301
 30
0.0
  0
VERTEX
  5
1F26
100
AcDbEntity
  8
ALPHA
100
AcDbVertex
100
AcDb2dVertex
 10
37.983999
 20
34.2494
 30
0.0
  0
SEQEND
  5
1F27
100
AcDbEntity
  8
ALPHA
  0
POLYLINE
  5
1F28
100
AcDbEntity
  8
ALPHA
100
AcDb3dPolyline
 66
     1
 10
0.0
 20
0.0
 30
0.0
 70
     8
  0
VERTEX
  5
1F29
100
AcDbEntity
  8
ALPHA
100
AcDbVertex
100
AcDb3dPolylineVertex
 10
36.936001
 20
35.253301
 30
0.0
 70
    32
  0
VERTEX
  5
1F2A
100
AcDbEntity
  8
ALPHA
100
AcDbVertex
100
AcDb3dPolylineVertex
 10
36.936001
 20
35.253301
 30
0.0
 70
    32
  0
SEQEND
  5
1F2B
100
AcDbEntity
  8
ALPHA
  0
POLYLINE
  5
1F2C
100
AcDbEntity
  8
ALPHA
100
AcDb2dPolyline
 66
     1
 10
0.0
 20
0.0
 30
0.0
  0
VERTEX
  5
1F2D
100
AcDbEntity
  8
ALPHA
100
AcDbVertex
100
AcDb2dVertex
 10
37.983999
 20
38.229175
 30
0.0
  0
VERTEX
  5
1F2E
100
AcDbEntity
  8
ALPHA
100
AcDbVertex
100
AcDb2dVertex
 10
36.936001
 20
37.225274
 30
0.0
  0
SEQEND
  5
1F2F
100
AcDbEntity
  8
ALPHA
  0
POLYLINE
  5
1F30
100
AcDbEntity
  8
ALPHA
100
AcDb2dPolyline
 66
     1
 10
0.0
 20
0.0
 30
0.0
  0
VERTEX
  5
1F31
100
AcDbEntity
  8
ALPHA
100
AcDbVertex
100
AcDb2dVertex
 10
43.972781
 20
42.758442
 30
0.0
  0
VERTEX
  5
1F32
100
AcDbEntity
  8
ALPHA
100
AcDbVertex
100
AcDb2dVertex
 10
43.972781
 20
38.229175
 30
0.0
  0
SEQEND
  5
1F33
100
AcDbEntity
  8
ALPHA
  0
POLYLINE
  5
1F34
100
AcDbEntity
  8
ALPHA
100
AcDb2dPolyline
 66
     1
 10
0.0
 20
0.0
 30
0.0
  0
VERTEX
  5
1F35
100
AcDbEntity
  8
ALPHA
100
AcDbVertex
100
AcDb2dVertex
 10
52.938987
 20
12.228694
 30
0.0
  0
VERTEX
  5
1F36
100
AcDbEntity
  8
ALPHA
100
AcDbVertex
100
AcDb2dVertex
 10
47.484367
 20
36.170385
 30
0.0
  0
SEQEND
  5
1F37
100
AcDbEntity
  8
ALPHA
  0
POLYLINE
  5
1F38
100
AcDbEntity
  8
ALPHA
100
AcDb2dPolyline
 66
     1
 10
0.0
 20
0.0
 30
0.0
  0
VERTEX
  5
1F39
100
AcDbEntity
  8
ALPHA
100
AcDbVertex
100
AcDb2dVertex
 10
48.471731
 20
36.239287
 30
0.0
  0
VERTEX
  5
1F3A
100
AcDbEntity
  8
ALPHA
100
AcDbVertex
100
AcDb2dVertex
 10
53.823343
 20
12.446769
 30
0.0
  0
SEQEND
  5
1F3B
100
AcDbEntity
  8
ALPHA
  0
POLYLINE
  5
1F3C
100
AcDbEntity
  8
ALPHA
100
AcDb2dPolyline
 66
     1
 10
0.0
 20
0.0
 30
0.0
  0
VERTEX
  5
1F3D
100
AcDbEntity
  8
ALPHA
100
AcDbVertex
100
AcDb2dVertex
 10
48.471731
 20
2.47494
 30
0.0
  0
VERTEX
  5
1F3E
100
AcDbEntity
  8
ALPHA
100
AcDbVertex
100
AcDb2dVertex
 10
48.471731
 20
9.206657
 30
0.0
  0
SEQEND
  5
1F3F
100
AcDbEntity
  8
ALPHA
  0
POLYLINE
  5
1F40
100
AcDbEntity
  8
ALPHA
100
AcDb2dPolyline
 66
     1
 10
0.0
 20
0.0
 30
0.0
  0
VERTEX
  5
1F41
100
AcDbEntity
  8
ALPHA
100
AcDbVertex
100
AcDb2dVertex
 10
50.533965
 20
9.697927
 30
0.0
  0
VERTEX
  5
1F42
100
AcDbEntity
  8
ALPHA
100
AcDbVertex
100
AcDb2dVertex
 10
50.973215
 20
9.671056
 30
0.0
  0
VERTEX
  5
1F43
100
AcDbEntity
  8
ALPHA
100
AcDbVertex
100
AcDb2dVertex
 10
51.184709
 20
9.681738
 30
0.0
  0
VERTEX
  5
1F44
100
AcDbEntity
  8
ALPHA
100
AcDbVertex
100
AcDb2dVertex
 10
51.3901
 20
9.71309
 30
0.0
  0
VERTEX
  5
1F45
100
AcDbEntity
  8
ALPHA
100
AcDbVertex
100
AcDb2dVertex
 10
51.588347
 20
9.764071
 30
0.0
  0
VERTEX
  5
1F46
100
AcDbEntity
  8
ALPHA
100
AcDbVertex
100
AcDb2dVertex
 10
51.778409
 20
9.833637
 30
0.0
  0
VERTEX
  5
1F47
100
AcDbEntity
  8
ALPHA
100
AcDbVertex
100
AcDb2dVertex
 10
51.959247
 20
9.920747
 30
0.0
  0
VERTEX
  5
1F48
100
AcDbEntity
  8
ALPHA
100
AcDbVertex
100
AcDb2dVertex
 10
52.129818
 20
10.024359
 30
0.0
  0
VERTEX
  5
1F49
100
AcDbEntity
  8
ALPHA
100
AcDbVertex
100
AcDb2dVertex
 10
52.289084
 20
10.14343
 30
0.0
  0
VERTEX
  5
1F4A
100
AcDbEntity
  8
ALPHA
100
AcDbVertex
100
AcDb2dVertex
 10
52.436003
 20
10.276919
 30
0.0
  0
VERTEX
  5
1F4B
100
AcDbEntity
  8
ALPHA
100
AcDbVertex
100
AcDb2dVertex
 10
52.569534
 20
10.423783
 30
0.0
  0
VERTEX
  5
1F4C
100
AcDbEntity
  8
ALPHA
100
AcDbVertex
100
AcDb2dVertex
 10
52.688637
 20
10.58298
 30
0.0
  0
VERTEX
  5
1F4D
100
AcDbEntity
  8
ALPHA
100
AcDbVertex
100
AcDb2dVertex
 10
52.792272
 20
10.753468
 30
0.0
  0
VERTEX
  5
1F4E
100
AcDbEntity
  8
ALPHA
100
AcDbVertex
100
AcDb2dVertex
 10
52.879397
 20
10.934205
 30
0.0
  0
VERTEX
  5
1F4F
100
AcDbEntity
  8
ALPHA
100
AcDbVertex
100
AcDb2dVertex
 10
52.948973
 20
11.124149
 30
0.0
  0
VERTEX
  5
1F50
100
AcDbEntity
  8
ALPHA
100
AcDbVertex
100
AcDb2dVertex
 10
52.999958
 20
11.322258
 30
0.0
  0
VERTEX
  5
1F51
100
AcDbEntity
  8
ALPHA
100
AcDbVertex
100
AcDb2dVertex
 10
53.031312
 20
11.52749
 30
0.0
  0
VERTEX
  5
1F52
100
AcDbEntity
  8
ALPHA
100
AcDbVertex
100
AcDb2dVertex
 10
53.041995
 20
11.738802
 30
0.0
  0
VERTEX
  5
1F53
100
AcDbEntity
  8
ALPHA
100
AcDbVertex
100
AcDb2dVertex
 10
52.938987
 20
12.228694
 30
0.0
  0
SEQEND
  5
1F54
100
AcDbEntity
  8
ALPHA
  0
POLYLINE
  5
1F55
100
AcDbEntity
  8
ALPHA
100
AcDb2dPolyline
 66
     1
 10
0.0
 20
0.0
 30
0.0
  0
VERTEX
  5
1F56
100
AcDbEntity
  8
ALPHA
100
AcDbVertex
100
AcDb2dVertex
 10
50.973215
 20
10.24053
 30
0.0
  0
VERTEX
  5
1F57
100
AcDbEntity
  8
ALPHA
100
AcDbVertex
100
AcDb2dVertex
 10
51.12654
 20
10.248261
 30
0.0
  0
VERTEX
  5
1F58
100
AcDbEntity
  8
ALPHA
100
AcDbVertex
100
AcDb2dVertex
 10
51.275437
 20
10.270954
 30
0.0
  0
VERTEX
  5
1F59
100
AcDbEntity
  8
ALPHA
100
AcDbVertex
100
AcDb2dVertex
 10
51.419153
 20
10.307856
 30
0.0
  0
VERTEX
  5
1F5A
100
AcDbEntity
  8
ALPHA
100
AcDbVertex
100
AcDb2dVertex
 10
51.556933
 20
10.358217
 30
0.0
  0
VERTEX
  5
1F5B
100
AcDbEntity
  8
ALPHA
100
AcDbVertex
100
AcDb2dVertex
 10
51.688023
 20
10.421286
 30
0.0
  0
VERTEX
  5
1F5C
100
AcDbEntity
  8
ALPHA
100
AcDbVertex
100
AcDb2dVertex
 10
51.811669
 20
10.49631
 30
0.0
  0
VERTEX
  5
1F5D
100
AcDbEntity
  8
ALPHA
100
AcDbVertex
100
AcDb2dVertex
 10
51.927118
 20
10.582538
 30
0.0
  0
VERTEX
  5
1F5E
100
AcDbEntity
  8
ALPHA
100
AcDbVertex
100
AcDb2dVertex
 10
52.033616
 20
10.67922
 30
0.0
  0
VERTEX
  5
1F5F
100
AcDbEntity
  8
ALPHA
100
AcDbVertex
100
AcDb2dVertex
 10
52.130407
 20
10.785602
 30
0.0
  0
VERTEX
  5
1F60
100
AcDbEntity
  8
ALPHA
100
AcDbVertex
100
AcDb2dVertex
 10
52.21674
 20
10.900935
 30
0.0
  0
VERTEX
  5
1F61
100
AcDbEntity
  8
ALPHA
100
AcDbVertex
100
AcDb2dVertex
 10
52.291859
 20
11.024466
 30
0.0
  0
VERTEX
  5
1F62
100
AcDbEntity
  8
ALPHA
100
AcDbVertex
100
AcDb2dVertex
 10
52.355011
 20
11.155445
 30
0.0
  0
VERTEX
  5
1F63
100
AcDbEntity
  8
ALPHA
100
AcDbVertex
100
AcDb2dVertex
 10
52.405441
 20
11.293119
 30
0.0
  0
VERTEX
  5
1F64
100
AcDbEntity
  8
ALPHA
100
AcDbVertex
100
AcDb2dVertex
 10
52.442396
 20
11.436738
 30
0.0
  0
VERTEX
  5
1F65
100
AcDbEntity
  8
ALPHA
100
AcDbVertex
100
AcDb2dVertex
 10
52.465122
 20
11.585549
 30
0.0
  0
VERTEX
  5
1F66
100
AcDbEntity
  8
ALPHA
100
AcDbVertex
100
AcDb2dVertex
 10
52.472865
 20
11.738802
 30
0.0
  0
VERTEX
  5
1F67
100
AcDbEntity
  8
ALPHA
100
AcDbVertex
100
AcDb2dVertex
 10
52.465122
 20
11.892297
 30
0.0
  0
VERTEX
  5
1F68
100
AcDbEntity
  8
ALPHA
100
AcDbVertex
100
AcDb2dVertex
 10
52.442396
 20
12.041321
 30
0.0
  0
VERTEX
  5
1F69
100
AcDbEntity
  8
ALPHA
100
AcDbVertex
100
AcDb2dVertex
 10
52.405441
 20
12.185123
 30
0.0
  0
VERTEX
  5
1F6A
100
AcDbEntity
  8
ALPHA
100
AcDbVertex
100
AcDb2dVertex
 10
52.355011
 20
12.322955
 30
0.0
  0
VERTEX
  5
1F6B
100
AcDbEntity
  8
ALPHA
100
AcDbVertex
100
AcDb2dVertex
 10
52.291859
 20
12.454067
 30
0.0
  0
VERTEX
  5
1F6C
100
AcDbEntity
  8
ALPHA
100
AcDbVertex
100
AcDb2dVertex
 10
52.21674
 20
12.57771
 30
0.0
  0
VERTEX
  5
1F6D
100
AcDbEntity
  8
ALPHA
100
AcDbVertex
100
AcDb2dVertex
 10
52.130407
 20
12.693134
 30
0.0
  0
VERTEX
  5
1F6E
100
AcDbEntity
  8
ALPHA
100
AcDbVertex
100
AcDb2dVertex
 10
52.033616
 20
12.79959
 30
0.0
  0
VERTEX
  5
1F6F
100
AcDbEntity
  8
ALPHA
100
AcDbVertex
100
AcDb2dVertex
 10
51.927118
 20
12.896328
 30
0.0
  0
VERTEX
  5
1F70
100
AcDbEntity
  8
ALPHA
100
AcDbVertex
100
AcDb2dVertex
 10
51.811669
 20
12.982599
 30
0.0
  0
VERTEX
  5
1F71
100
AcDbEntity
  8
ALPHA
100
AcDbVertex
100
AcDb2dVertex
 10
51.688023
 20
13.057654
 30
0.0
  0
VERTEX
  5
1F72
100
AcDbEntity
  8
ALPHA
100
AcDbVertex
100
AcDb2dVertex
 10
51.556933
 20
13.120743
 30
0.0
  0
VERTEX
  5
1F73
100
AcDbEntity
  8
ALPHA
100
AcDbVertex
100
AcDb2dVertex
 10
51.419153
 20
13.171116
 30
0.0
  0
VERTEX
  5
1F74
100
AcDbEntity
  8
ALPHA
100
AcDbVertex
100
AcDb2dVertex
 10
51.275437
 20
13.208025
 30
0.0
  0
VERTEX
  5
1F75
100
AcDbEntity
  8
ALPHA
100
AcDbVertex
100
AcDb2dVertex
 10
51.12654
 20
13.23072
 30
0.0
  0
VERTEX
  5
1F76
100
AcDbEntity
  8
ALPHA
100
AcDbVertex
100
AcDb2dVertex
 10
50.973215
 20
13.238452
 30
0.0
  0
VERTEX
  5
1F77
100
AcDbEntity
  8
ALPHA
100
AcDbVertex
100
AcDb2dVertex
 10
50.819829
 20
13.23072
 30
0.0
  0
VERTEX
  5
1F78
100
AcDbEntity
  8
ALPHA
100
AcDbVertex
100
AcDb2dVertex
 10
50.670879
 20
13.208025
 30
0.0
  0
VERTEX
  5
1F79
100
AcDbEntity
  8
ALPHA
100
AcDbVertex
100
AcDb2dVertex
 10
50.527118
 20
13.171116
 30
0.0
  0
VERTEX
  5
1F7A
100
AcDbEntity
  8
ALPHA
100
AcDbVertex
100
AcDb2dVertex
 10
50.389298
 20
13.120743
 30
0.0
  0
VERTEX
  5
1F7B
100
AcDbEntity
  8
ALPHA
100
AcDbVertex
100
AcDb2dVertex
 10
50.258175
 20
13.057654
 30
0.0
  0
VERTEX
  5
1F7C
100
AcDbEntity
  8
ALPHA
100
AcDbVertex
100
AcDb2dVertex
 10
50.134501
 20
12.982599
 30
0.0
  0
VERTEX
  5
1F7D
100
AcDbEntity
  8
ALPHA
100
AcDbVertex
100
AcDb2dVertex
 10
50.019029
 20
12.896328
 30
0.0
  0
VERTEX
  5
1F7E
100
AcDbEntity
  8
ALPHA
100
AcDbVertex
100
AcDb2dVertex
 10
49.912513
 20
12.79959
 30
0.0
  0
VERTEX
  5
1F7F
100
AcDbEntity
  8
ALPHA
100
AcDbVertex
100
AcDb2dVertex
 10
49.815707
 20
12.693134
 30
0.0
  0
VERTEX
  5
1F80
100
AcDbEntity
  8
ALPHA
100
AcDbVertex
100
AcDb2dVertex
 10
49.729364
 20
12.57771
 30
0.0
  0
VERTEX
  5
1F81
100
AcDbEntity
  8
ALPHA
100
AcDbVertex
100
AcDb2dVertex
 10
49.654237
 20
12.454067
 30
0.0
  0
VERTEX
  5
1F82
100
AcDbEntity
  8
ALPHA
100
AcDbVertex
100
AcDb2dVertex
 10
49.591081
 20
12.322955
 30
0.0
  0
VERTEX
  5
1F83
100
AcDbEntity
  8
ALPHA
100
AcDbVertex
100
AcDb2dVertex
 10
49.540647
 20
12.185123
 30
0.0
  0
VERTEX
  5
1F84
100
AcDbEntity
  8
ALPHA
100
AcDbVertex
100
AcDb2dVertex
 10
49.50369
 20
12.041321
 30
0.0
  0
VERTEX
  5
1F85
100
AcDbEntity
  8
ALPHA
100
AcDbVertex
100
AcDb2dVertex
 10
49.480964
 20
11.892297
 30
0.0
  0
VERTEX
  5
1F86
100
AcDbEntity
  8
ALPHA
100
AcDbVertex
100
AcDb2dVertex
 10
49.473221
 20
11.738802
 30
0.0
  0
VERTEX
  5
1F87
100
AcDbEntity
  8
ALPHA
100
AcDbVertex
100
AcDb2dVertex
 10
49.480964
 20
11.585549
 30
0.0
  0
VERTEX
  5
1F88
100
AcDbEntity
  8
ALPHA
100
AcDbVertex
100
AcDb2dVertex
 10
49.50369
 20
11.436738
 30
0.0
  0
VERTEX
  5
1F89
100
AcDbEntity
  8
ALPHA
100
AcDbVertex
100
AcDb2dVertex
 10
49.540647
 20
11.293119
 30
0.0
  0
VERTEX
  5
1F8A
100
AcDbEntity
  8
ALPHA
100
AcDbVertex
100
AcDb2dVertex
 10
49.591081
 20
11.155445
 30
0.0
  0
VERTEX
  5
1F8B
100
AcDbEntity
  8
ALPHA
100
AcDbVertex
100
AcDb2dVertex
 10
49.654237
 20
11.024466
 30
0.0
  0
VERTEX
  5
1F8C
100
AcDbEntity
  8
ALPHA
100
AcDbVertex
100
AcDb2dVertex
 10
49.729364
 20
10.900935
 30
0.0
  0
VERTEX
  5
1F8D
100
AcDbEntity
  8
ALPHA
100
AcDbVertex
100
AcDb2dVertex
 10
49.815707
 20
10.785602
 30
0.0
  0
VERTEX
  5
1F8E
100
AcDbEntity
  8
ALPHA
100
AcDbVertex
100
AcDb2dVertex
 10
49.912513
 20
10.67922
 30
0.0
  0
VERTEX
  5
1F8F
100
AcDbEntity
  8
ALPHA
100
AcDbVertex
100
AcDb2dVertex
 10
50.019029
 20
10.582538
 30
0.0
  0
VERTEX
  5
1F90
100
AcDbEntity
  8
ALPHA
100
AcDbVertex
100
AcDb2dVertex
 10
50.134501
 20
10.49631
 30
0.0
  0
VERTEX
  5
1F91
100
AcDbEntity
  8
ALPHA
100
AcDbVertex
100
AcDb2dVertex
 10
50.258175
 20
10.421286
 30
0.0
  0
VERTEX
  5
1F92
100
AcDbEntity
  8
ALPHA
100
AcDbVertex
100
AcDb2dVertex
 10
50.389298
 20
10.358217
 30
0.0
  0
VERTEX
  5
1F93
100
AcDbEntity
  8
ALPHA
100
AcDbVertex
100
AcDb2dVertex
 10
50.527118
 20
10.307856
 30
0.0
  0
VERTEX
  5
1F94
100
AcDbEntity
  8
ALPHA
100
AcDbVertex
100
AcDb2dVertex
 10
50.670879
 20
10.270954
 30
0.0
  0
VERTEX
  5
1F95
100
AcDbEntity
  8
ALPHA
100
AcDbVertex
100
AcDb2dVertex
 10
50.819829
 20
10.248261
 30
0.0
  0
VERTEX
  5
1F96
100
AcDbEntity
  8
ALPHA
100
AcDbVertex
100
AcDb2dVertex
 10
50.973215
 20
10.24053
 30
0.0
  0
SEQEND
  5
1F97
100
AcDbEntity
  8
ALPHA
  0
POLYLINE
  5
1F98
100
AcDbEntity
  8
ALPHA
100
AcDb2dPolyline
 66
     1
 10
0.0
 20
0.0
 30
0.0
  0
VERTEX
  5
1F99
100
AcDbEntity
  8
ALPHA
100
AcDbVertex
100
AcDb2dVertex
 10
53.823343
 20
12.446769
 30
0.0
  0
VERTEX
  5
1F9A
100
AcDbEntity
  8
ALPHA
100
AcDbVertex
100
AcDb2dVertex
 10
53.919935
 20
12.099374
 30
0.0
  0
VERTEX
  5
1F9B
100
AcDbEntity
  8
ALPHA
100
AcDbVertex
100
AcDb2dVertex
 10
53.957685
 20
11.922431
 30
0.0
  0
VERTEX
  5
1F9C
100
AcDbEntity
  8
ALPHA
100
AcDbVertex
100
AcDb2dVertex
 10
53.97286
 20
11.738802
 30
0.0
  0
VERTEX
  5
1F9D
100
AcDbEntity
  8
ALPHA
100
AcDbVertex
100
AcDb2dVertex
 10
53.957374
 20
11.432087
 30
0.0
  0
VERTEX
  5
1F9E
100
AcDbEntity
  8
ALPHA
100
AcDbVertex
100
AcDb2dVertex
 10
53.911921
 20
11.134229
 30
0.0
  0
VERTEX
  5
1F9F
100
AcDbEntity
  8
ALPHA
100
AcDbVertex
100
AcDb2dVertex
 10
53.838009
 20
10.846735
 30
0.0
  0
VERTEX
  5
1FA0
100
AcDbEntity
  8
ALPHA
100
AcDbVertex
100
AcDb2dVertex
 10
53.737145
 20
10.571114
 30
0.0
  0
VERTEX
  5
1FA1
100
AcDbEntity
  8
ALPHA
100
AcDbVertex
100
AcDb2dVertex
 10
53.610837
 20
10.308874
 30
0.0
  0
VERTEX
  5
1FA2
100
AcDbEntity
  8
ALPHA
100
AcDbVertex
100
AcDb2dVertex
 10
53.460591
 20
10.061524
 30
0.0
  0
VERTEX
  5
1FA3
100
AcDbEntity
  8
ALPHA
100
AcDbVertex
100
AcDb2dVertex
 10
53.287915
 20
9.830572
 30
0.0
  0
VERTEX
  5
1FA4
100
AcDbEntity
  8
ALPHA
100
AcDbVertex
100
AcDb2dVertex
 10
53.094317
 20
9.617527
 30
0.0
  0
VERTEX
  5
1FA5
100
AcDbEntity
  8
ALPHA
100
AcDbVertex
100
AcDb2dVertex
 10
52.881304
 20
9.423897
 30
0.0
  0
VERTEX
  5
1FA6
100
AcDbEntity
  8
ALPHA
100
AcDbVertex
100
AcDb2dVertex
 10
52.650384
 20
9.251191
 30
0.0
  0
VERTEX
  5
1FA7
100
AcDbEntity
  8
ALPHA
100
AcDbVertex
100
AcDb2dVertex
 10
52.403063
 20
9.100916
 30
0.0
  0
VERTEX
  5
1FA8
100
AcDbEntity
  8
ALPHA
100
AcDbVertex
100
AcDb2dVertex
 10
52.14085
 20
8.974581
 30
0.0
  0
VERTEX
  5
1FA9
100
AcDbEntity
  8
ALPHA
100
AcDbVertex
100
AcDb2dVertex
 10
51.865251
 20
8.873695
 30
0.0
  0
VERTEX
  5
1FAA
100
AcDbEntity
  8
ALPHA
100
AcDbVertex
100
AcDb2dVertex
 10
51.577774
 20
8.799766
 30
0.0
  0
VERTEX
  5
1FAB
100
AcDbEntity
  8
ALPHA
100
AcDbVertex
100
AcDb2dVertex
 10
51.279926
 20
8.754302
 30
0.0
  0
VERTEX
  5
1FAC
100
AcDbEntity
  8
ALPHA
100
AcDbVertex
100
AcDb2dVertex
 10
50.973215
 20
8.738813
 30
0.0
  0
VERTEX
  5
1FAD
100
AcDbEntity
  8
ALPHA
100
AcDbVertex
100
AcDb2dVertex
 10
50.336906
 20
8.779465
 30
0.0
  0
SEQEND
  5
1FAE
100
AcDbEntity
  8
ALPHA
  0
POLYLINE
  5
1FAF
100
AcDbEntity
  8
ALPHA
100
AcDb3dPolyline
 66
     1
 10
0.0
 20
0.0
 30
0.0
 70
     8
  0
VERTEX
  5
1FB0
100
AcDbEntity
  8
ALPHA
100
AcDbVertex
100
AcDb3dPolylineVertex
 10
50.973215
 20
10.24053
 30
0.0
 70
    32
  0
VERTEX
  5
1FB1
100
AcDbEntity
  8
ALPHA
100
AcDbVertex
100
AcDb3dPolylineVertex
 10
50.973215
 20
10.24053
 30
0.0
 70
    32
  0
SEQEND
  5
1FB2
100
AcDbEntity
  8
ALPHA
  0
POLYLINE
  5
1FB3
100
AcDbEntity
  8
ALPHA
100
AcDb3dPolyline
 66
     1
 10
0.0
 20
0.0
 30
0.0
 70
     8
  0
VERTEX
  5
1FB4
100
AcDbEntity
  8
ALPHA
100
AcDbVertex
100
AcDb3dPolylineVertex
 10
47.484367
 20
36.170385
 30
0.0
 70
    32
  0
VERTEX
  5
1FB5
100
AcDbEntity
  8
ALPHA
100
AcDbVertex
100
AcDb3dPolylineVertex
 10
47.484367
 20
36.170385
 30
0.0
 70
    32
  0
SEQEND
  5
1FB6
100
AcDbEntity
  8
ALPHA
  0
POLYLINE
  5
1FB7
100
AcDbEntity
  8
ALPHA
100
AcDb2dPolyline
 66
     1
 10
0.0
 20
0.0
 30
0.0
  0
VERTEX
  5
1FB8
100
AcDbEntity
  8
ALPHA
100
AcDbVertex
100
AcDb2dVertex
 10
49.4808
 20
62.170177
 30
0.0
  0
VERTEX
  5
1FB9
100
AcDbEntity
  8
ALPHA
100
AcDbVertex
100
AcDb2dVertex
 10
42.60749
 20
56.733127
 30
0.0
  0
SEQEND
  5
1FBA
100
AcDbEntity
  8
ALPHA
  0
POLYLINE
  5
1FBB
100
AcDbEntity
  8
ALPHA
100
AcDb2dPolyline
 66
     1
 10
0.0
 20
0.0
 30
0.0
  0
VERTEX
  5
1FBC
100
AcDbEntity
  8
ALPHA
100
AcDbVertex
100
AcDb2dVertex
 10
43.446371
 20
58.670649
 30
0.0
  0
VERTEX
  5
1FBD
100
AcDbEntity
  8
ALPHA
100
AcDbVertex
100
AcDb2dVertex
 10
48.81004
 20
62.81372
 30
0.0
  0
SEQEND
  5
1FBE
100
AcDbEntity
  8
ALPHA
  0
POLYLINE
  5
1FBF
100
AcDbEntity
  8
ALPHA
100
AcDb2dPolyline
 66
     1
 10
0.0
 20
0.0
 30
0.0
  0
VERTEX
  5
1FC0
100
AcDbEntity
  8
ALPHA
100
AcDbVertex
100
AcDb2dVertex
 10
48.471731
 20
70.130586
 30
0.0
  0
VERTEX
  5
1FC1
100
AcDbEntity
  8
ALPHA
100
AcDbVertex
100
AcDb2dVertex
 10
46.52663
 20
70.130586
 30
0.0
  0
SEQEND
  5
1FC2
100
AcDbEntity
  8
ALPHA
  0
POLYLINE
  5
1FC3
100
AcDbEntity
  8
ALPHA
100
AcDb2dPolyline
 66
     1
 10
0.0
 20
0.0
 30
0.0
  0
VERTEX
  5
1FC4
100
AcDbEntity
  8
ALPHA
100
AcDbVertex
100
AcDb2dVertex
 10
37.966946
 20
60.033184
 30
0.0
  0
VERTEX
  5
1FC5
100
AcDbEntity
  8
ALPHA
100
AcDbVertex
100
AcDb2dVertex
 10
37.966946
 20
70.190187
 30
0.0
  0
SEQEND
  5
1FC6
100
AcDbEntity
  8
ALPHA
  0
POLYLINE
  5
1FC7
100
AcDbEntity
  8
ALPHA
100
AcDb2dPolyline
 66
     1
 10
0.0
 20
0.0
 30
0.0
  0
VERTEX
  5
1FC8
100
AcDbEntity
  8
ALPHA
100
AcDbVertex
100
AcDb2dVertex
 10
30.962895
 20
70.190187
 30
0.0
  0
VERTEX
  5
1FC9
100
AcDbEntity
  8
ALPHA
100
AcDbVertex
100
AcDb2dVertex
 10
30.962895
 20
60.033184
 30
0.0
  0
SEQEND
  5
1FCA
100
AcDbEntity
  8
ALPHA
  0
POLYLINE
  5
1FCB
100
AcDbEntity
  8
ALPHA
100
AcDb2dPolyline
 66
     1
 10
0.0
 20
0.0
 30
0.0
  0
VERTEX
  5
1FCC
100
AcDbEntity
  8
ALPHA
100
AcDbVertex
100
AcDb2dVertex
 10
22.208563
 20
60.033184
 30
0.0
  0
VERTEX
  5
1FCD
100
AcDbEntity
  8
ALPHA
100
AcDbVertex
100
AcDb2dVertex
 10
22.208563
 20
70.190187
 30
0.0
  0
SEQEND
  5
1FCE
100
AcDbEntity
  8
ALPHA
  0
POLYLINE
  5
1FCF
100
AcDbEntity
  8
ALPHA
100
AcDb2dPolyline
 66
     1
 10
0.0
 20
0.0
 30
0.0
  0
VERTEX
  5
1FD0
100
AcDbEntity
  8
ALPHA
100
AcDbVertex
100
AcDb2dVertex
 10
15.399159
 20
70.190187
 30
0.0
  0
VERTEX
  5
1FD1
100
AcDbEntity
  8
ALPHA
100
AcDbVertex
100
AcDb2dVertex
 10
15.399159
 20
60.033184
 30
0.0
  0
SEQEND
  5
1FD2
100
AcDbEntity
  8
ALPHA
  0
POLYLINE
  5
1FD3
100
AcDbEntity
  8
ALPHA
100
AcDb2dPolyline
 66
     1
 10
0.0
 20
0.0
 30
0.0
  0
VERTEX
  5
1FD4
100
AcDbEntity
  8
ALPHA
100
AcDbVertex
100
AcDb2dVertex
 10
41.227729
 20
67.921591
 30
0.0
  0
VERTEX
  5
1FD5
100
AcDbEntity
  8
ALPHA
100
AcDbVertex
100
AcDb2dVertex
 10
40.125643
 20
69.023333
 30
0.0
  0
SEQEND
  5
1FD6
100
AcDbEntity
  8
ALPHA
  0
POLYLINE
  5
1FD7
100
AcDbEntity
  8
ALPHA
100
AcDb2dPolyline
 66
     1
 10
0.0
 20
0.0
 30
0.0
  0
VERTEX
  5
1FD8
100
AcDbEntity
  8
ALPHA
100
AcDbVertex
100
AcDb2dVertex
 10
44.366556
 20
69.683758
 30
0.0
  0
VERTEX
  5
1FD9
100
AcDbEntity
  8
ALPHA
100
AcDbVertex
100
AcDb2dVertex
 10
42.715666
 20
67.99945
 30
0.0
  0
SEQEND
  5
1FDA
100
AcDbEntity
  8
ALPHA
  0
POLYLINE
  5
1FDB
100
AcDbEntity
  8
ALPHA
100
AcDb2dPolyline
 66
     1
 10
0.0
 20
0.0
 30
0.0
  0
VERTEX
  5
1FDC
100
AcDbEntity
  8
ALPHA
100
AcDbVertex
100
AcDb2dVertex
 10
41.968769
 20
64.871304
 30
0.0
  0
VERTEX
  5
1FDD
100
AcDbEntity
  8
ALPHA
100
AcDbVertex
100
AcDb2dVertex
 10
42.278671
 20
64.886945
 30
0.0
  0
VERTEX
  5
1FDE
100
AcDbEntity
  8
ALPHA
100
AcDbVertex
100
AcDb2dVertex
 10
42.57962
 20
64.932853
 30
0.0
  0
VERTEX
  5
1FDF
100
AcDbEntity
  8
ALPHA
100
AcDbVertex
100
AcDb2dVertex
 10
42.870094
 20
65.007508
 30
0.0
  0
VERTEX
  5
1FE0
100
AcDbEntity
  8
ALPHA
100
AcDbVertex
100
AcDb2dVertex
 10
43.148569
 20
65.109387
 30
0.0
  0
VERTEX
  5
1FE1
100
AcDbEntity
  8
ALPHA
100
AcDbVertex
100
AcDb2dVertex
 10
43.413521
 20
65.236969
 30
0.0
  0
VERTEX
  5
1FE2
100
AcDbEntity
  8
ALPHA
100
AcDbVertex
100
AcDb2dVertex
 10
43.663427
 20
65.388732
 30
0.0
  0
VERTEX
  5
1FE3
100
AcDbEntity
  8
ALPHA
100
AcDbVertex
100
AcDb2dVertex
 10
43.896763
 20
65.563156
 30
0.0
  0
VERTEX
  5
1FE4
100
AcDbEntity
  8
ALPHA
100
AcDbVertex
100
AcDb2dVertex
 10
44.112006
 20
65.758717
 30
0.0
  0
VERTEX
  5
1FE5
100
AcDbEntity
  8
ALPHA
100
AcDbVertex
100
AcDb2dVertex
 10
44.307632
 20
65.973896
 30
0.0
  0
VERTEX
  5
1FE6
100
AcDbEntity
  8
ALPHA
100
AcDbVertex
100
AcDb2dVertex
 10
44.482118
 20
66.20717
 30
0.0
  0
VERTEX
  5
1FE7
100
AcDbEntity
  8
ALPHA
100
AcDbVertex
100
AcDb2dVertex
 10
44.633939
 20
66.457018
 30
0.0
  0
VERTEX
  5
1FE8
100
AcDbEntity
  8
ALPHA
100
AcDbVertex
100
AcDb2dVertex
 10
44.761573
 20
66.721918
 30
0.0
  0
VERTEX
  5
1FE9
100
AcDbEntity
  8
ALPHA
100
AcDbVertex
100
AcDb2dVertex
 10
44.863497
 20
67.000348
 30
0.0
  0
VERTEX
  5
1FEA
100
AcDbEntity
  8
ALPHA
100
AcDbVertex
100
AcDb2dVertex
 10
44.938185
 20
67.290788
 30
0.0
  0
VERTEX
  5
1FEB
100
AcDbEntity
  8
ALPHA
100
AcDbVertex
100
AcDb2dVertex
 10
44.984115
 20
67.591716
 30
0.0
  0
VERTEX
  5
1FEC
100
AcDbEntity
  8
ALPHA
100
AcDbVertex
100
AcDb2dVertex
 10
44.999764
 20
67.90161
 30
0.0
  0
VERTEX
  5
1FED
100
AcDbEntity
  8
ALPHA
100
AcDbVertex
100
AcDb2dVertex
 10
44.984115
 20
68.211454
 30
0.0
  0
VERTEX
  5
1FEE
100
AcDbEntity
  8
ALPHA
100
AcDbVertex
100
AcDb2dVertex
 10
44.938185
 20
68.512362
 30
0.0
  0
VERTEX
  5
1FEF
100
AcDbEntity
  8
ALPHA
100
AcDbVertex
100
AcDb2dVertex
 10
44.863497
 20
68.802807
 30
0.0
  0
VERTEX
  5
1FF0
100
AcDbEntity
  8
ALPHA
100
AcDbVertex
100
AcDb2dVertex
 10
44.761573
 20
69.081264
 30
0.0
  0
VERTEX
  5
1FF1
100
AcDbEntity
  8
ALPHA
100
AcDbVertex
100
AcDb2dVertex
 10
44.633939
 20
69.346209
 30
0.0
  0
VERTEX
  5
1FF2
100
AcDbEntity
  8
ALPHA
100
AcDbVertex
100
AcDb2dVertex
 10
44.482118
 20
69.596116
 30
0.0
  0
VERTEX
  5
1FF3
100
AcDbEntity
  8
ALPHA
100
AcDbVertex
100
AcDb2dVertex
 10
44.307632
 20
69.829461
 30
0.0
  0
VERTEX
  5
1FF4
100
AcDbEntity
  8
ALPHA
100
AcDbVertex
100
AcDb2dVertex
 10
44.112006
 20
70.044717
 30
0.0
  0
VERTEX
  5
1FF5
100
AcDbEntity
  8
ALPHA
100
AcDbVertex
100
AcDb2dVertex
 10
43.896763
 20
70.240361
 30
0.0
  0
VERTEX
  5
1FF6
100
AcDbEntity
  8
ALPHA
100
AcDbVertex
100
AcDb2dVertex
 10
43.663427
 20
70.414867
 30
0.0
  0
VERTEX
  5
1FF7
100
AcDbEntity
  8
ALPHA
100
AcDbVertex
100
AcDb2dVertex
 10
43.413521
 20
70.566711
 30
0.0
  0
VERTEX
  5
1FF8
100
AcDbEntity
  8
ALPHA
100
AcDbVertex
100
AcDb2dVertex
 10
43.148569
 20
70.694366
 30
0.0
  0
VERTEX
  5
1FF9
100
AcDbEntity
  8
ALPHA
100
AcDbVertex
100
AcDb2dVertex
 10
42.870094
 20
70.796308
 30
0.0
  0
VERTEX
  5
1FFA
100
AcDbEntity
  8
ALPHA
100
AcDbVertex
100
AcDb2dVertex
 10
42.57962
 20
70.871012
 30
0.0
  0
VERTEX
  5
1FFB
100
AcDbEntity
  8
ALPHA
100
AcDbVertex
100
AcDb2dVertex
 10
42.278671
 20
70.916952
 30
0.0
  0
VERTEX
  5
1FFC
100
AcDbEntity
  8
ALPHA
100
AcDbVertex
100
AcDb2dVertex
 10
41.968769
 20
70.932605
 30
0.0
  0
VERTEX
  5
1FFD
100
AcDbEntity
  8
ALPHA
100
AcDbVertex
100
AcDb2dVertex
 10
41.6589
 20
70.916952
 30
0.0
  0
VERTEX
  5
1FFE
100
AcDbEntity
  8
ALPHA
100
AcDbVertex
100
AcDb2dVertex
 10
41.357982
 20
70.871012
 30
0.0
  0
VERTEX
  5
1FFF
100
AcDbEntity
  8
ALPHA
100
AcDbVertex
100
AcDb2dVertex
 10
41.06754
 20
70.796308
 30
0.0
  0
VERTEX
  5
2000
100
AcDbEntity
  8
ALPHA
100
AcDbVertex
100
AcDb2dVertex
 10
40.789096
 20
70.694366
 30
0.0
  0
VERTEX
  5
2001
100
AcDbEntity
  8
ALPHA
100
AcDbVertex
100
AcDb2dVertex
 10
40.524173
 20
70.566711
 30
0.0
  0
VERTEX
  5
2002
100
AcDbEntity
  8
ALPHA
100
AcDbVertex
100
AcDb2dVertex
 10
40.274296
 20
70.414867
 30
0.0
  0
VERTEX
  5
2003
100
AcDbEntity
  8
ALPHA
100
AcDbVertex
100
AcDb2dVertex
 10
40.040987
 20
70.240361
 30
0.0
  0
VERTEX
  5
2004
100
AcDbEntity
  8
ALPHA
100
AcDbVertex
100
AcDb2dVertex
 10
39.825769
 20
70.044717
 30
0.0
  0
VERTEX
  5
2005
100
AcDbEntity
  8
ALPHA
100
AcDbVertex
100
AcDb2dVertex
 10
39.630166
 20
69.829461
 30
0.0
  0
VERTEX
  5
2006
100
AcDbEntity
  8
ALPHA
100
AcDbVertex
100
AcDb2dVertex
 10
39.455701
 20
69.596116
 30
0.0
  0
VERTEX
  5
2007
100
AcDbEntity
  8
ALPHA
100
AcDbVertex
100
AcDb2dVertex
 10
39.303898
 20
69.346209
 30
0.0
  0
VERTEX
  5
2008
100
AcDbEntity
  8
ALPHA
100
AcDbVertex
100
AcDb2dVertex
 10
39.17628
 20
69.081264
 30
0.0
  0
VERTEX
  5
2009
100
AcDbEntity
  8
ALPHA
100
AcDbVertex
100
AcDb2dVertex
 10
39.074369
 20
68.802807
 30
0.0
  0
VERTEX
  5
200A
100
AcDbEntity
  8
ALPHA
100
AcDbVertex
100
AcDb2dVertex
 10
38.99969
 20
68.512362
 30
0.0
  0
VERTEX
  5
200B
100
AcDbEntity
  8
ALPHA
100
AcDbVertex
100
AcDb2dVertex
 10
38.953765
 20
68.211454
 30
0.0
  0
VERTEX
  5
200C
100
AcDbEntity
  8
ALPHA
100
AcDbVertex
100
AcDb2dVertex
 10
38.938119
 20
67.90161
 30
0.0
  0
VERTEX
  5
200D
100
AcDbEntity
  8
ALPHA
100
AcDbVertex
100
AcDb2dVertex
 10
38.953765
 20
67.591716
 30
0.0
  0
VERTEX
  5
200E
100
AcDbEntity
  8
ALPHA
100
AcDbVertex
100
AcDb2dVertex
 10
38.99969
 20
67.290788
 30
0.0
  0
VERTEX
  5
200F
100
AcDbEntity
  8
ALPHA
100
AcDbVertex
100
AcDb2dVertex
 10
39.074369
 20
67.000348
 30
0.0
  0
VERTEX
  5
2010
100
AcDbEntity
  8
ALPHA
100
AcDbVertex
100
AcDb2dVertex
 10
39.17628
 20
66.721918
 30
0.0
  0
VERTEX
  5
2011
100
AcDbEntity
  8
ALPHA
100
AcDbVertex
100
AcDb2dVertex
 10
39.303898
 20
66.457018
 30
0.0
  0
VERTEX
  5
2012
100
AcDbEntity
  8
ALPHA
100
AcDbVertex
100
AcDb2dVertex
 10
39.455701
 20
66.20717
 30
0.0
  0
VERTEX
  5
2013
100
AcDbEntity
  8
ALPHA
100
AcDbVertex
100
AcDb2dVertex
 10
39.630166
 20
65.973896
 30
0.0
  0
VERTEX
  5
2014
100
AcDbEntity
  8
ALPHA
100
AcDbVertex
100
AcDb2dVertex
 10
39.825769
 20
65.758717
 30
0.0
  0
VERTEX
  5
2015
100
AcDbEntity
  8
ALPHA
100
AcDbVertex
100
AcDb2dVertex
 10
40.040987
 20
65.563156
 30
0.0
  0
VERTEX
  5
2016
100
AcDbEntity
  8
ALPHA
100
AcDbVertex
100
AcDb2dVertex
 10
40.274296
 20
65.388732
 30
0.0
  0
VERTEX
  5
2017
100
AcDbEntity
  8
ALPHA
100
AcDbVertex
100
AcDb2dVertex
 10
40.524173
 20
65.236969
 30
0.0
  0
VERTEX
  5
2018
100
AcDbEntity
  8
ALPHA
100
AcDbVertex
100
AcDb2dVertex
 10
40.789096
 20
65.109387
 30
0.0
  0
VERTEX
  5
2019
100
AcDbEntity
  8
ALPHA
100
AcDbVertex
100
AcDb2dVertex
 10
41.06754
 20
65.007508
 30
0.0
  0
VERTEX
  5
201A
100
AcDbEntity
  8
ALPHA
100
AcDbVertex
100
AcDb2dVertex
 10
41.357982
 20
64.932853
 30
0.0
  0
VERTEX
  5
201B
100
AcDbEntity
  8
ALPHA
100
AcDbVertex
100
AcDb2dVertex
 10
41.6589
 20
64.886945
 30
0.0
  0
VERTEX
  5
201C
100
AcDbEntity
  8
ALPHA
100
AcDbVertex
100
AcDb2dVertex
 10
41.968769
 20
64.871304
 30
0.0
  0
SEQEND
  5
201D
100
AcDbEntity
  8
ALPHA
  0
POLYLINE
  5
201E
100
AcDbEntity
  8
ALPHA
100
AcDb2dPolyline
 66
     1
 10
0.0
 20
0.0
 30
0.0
  0
VERTEX
  5
201F
100
AcDbEntity
  8
ALPHA
100
AcDbVertex
100
AcDb2dVertex
 10
25.955448
 20
67.921591
 30
0.0
  0
VERTEX
  5
2020
100
AcDbEntity
  8
ALPHA
100
AcDbVertex
100
AcDb2dVertex
 10
24.853879
 20
69.023333
 30
0.0
  0
SEQEND
  5
2021
100
AcDbEntity
  8
ALPHA
  0
POLYLINE
  5
2022
100
AcDbEntity
  8
ALPHA
100
AcDb2dPolyline
 66
     1
 10
0.0
 20
0.0
 30
0.0
  0
VERTEX
  5
2023
100
AcDbEntity
  8
ALPHA
100
AcDbVertex
100
AcDb2dVertex
 10
29.094964
 20
69.683758
 30
0.0
  0
VERTEX
  5
2024
100
AcDbEntity
  8
ALPHA
100
AcDbVertex
100
AcDb2dVertex
 10
27.444074
 20
67.99945
 30
0.0
  0
SEQEND
  5
2025
100
AcDbEntity
  8
ALPHA
  0
POLYLINE
  5
2026
100
AcDbEntity
  8
ALPHA
100
AcDb2dPolyline
 66
     1
 10
0.0
 20
0.0
 30
0.0
  0
VERTEX
  5
2027
100
AcDbEntity
  8
ALPHA
100
AcDbVertex
100
AcDb2dVertex
 10
26.696489
 20
64.871304
 30
0.0
  0
VERTEX
  5
2028
100
AcDbEntity
  8
ALPHA
100
AcDbVertex
100
AcDb2dVertex
 10
27.006506
 20
64.886945
 30
0.0
  0
VERTEX
  5
2029
100
AcDbEntity
  8
ALPHA
100
AcDbVertex
100
AcDb2dVertex
 10
27.307545
 20
64.932853
 30
0.0
  0
VERTEX
  5
202A
100
AcDbEntity
  8
ALPHA
100
AcDbVertex
100
AcDb2dVertex
 10
27.598085
 20
65.007508
 30
0.0
  0
VERTEX
  5
202B
100
AcDbEntity
  8
ALPHA
100
AcDbVertex
100
AcDb2dVertex
 10
27.876606
 20
65.109387
 30
0.0
  0
VERTEX
  5
202C
100
AcDbEntity
  8
ALPHA
100
AcDbVertex
100
AcDb2dVertex
 10
28.141586
 20
65.236969
 30
0.0
  0
VERTEX
  5
202D
100
AcDbEntity
  8
ALPHA
100
AcDbVertex
100
AcDb2dVertex
 10
28.391504
 20
65.388732
 30
0.0
  0
VERTEX
  5
202E
100
AcDbEntity
  8
ALPHA
100
AcDbVertex
100
AcDb2dVertex
 10
28.624839
 20
65.563156
 30
0.0
  0
VERTEX
  5
202F
100
AcDbEntity
  8
ALPHA
100
AcDbVertex
100
AcDb2dVertex
 10
28.84007
 20
65.758717
 30
0.0
  0
VERTEX
  5
2030
100
AcDbEntity
  8
ALPHA
100
AcDbVertex
100
AcDb2dVertex
 10
29.035676
 20
65.973896
 30
0.0
  0
VERTEX
  5
2031
100
AcDbEntity
  8
ALPHA
100
AcDbVertex
100
AcDb2dVertex
 10
29.210137
 20
66.20717
 30
0.0
  0
VERTEX
  5
2032
100
AcDbEntity
  8
ALPHA
100
AcDbVertex
100
AcDb2dVertex
 10
29.36193
 20
66.457018
 30
0.0
  0
VERTEX
  5
2033
100
AcDbEntity
  8
ALPHA
100
AcDbVertex
100
AcDb2dVertex
 10
29.489535
 20
66.721918
 30
0.0
  0
VERTEX
  5
2034
100
AcDbEntity
  8
ALPHA
100
AcDbVertex
100
AcDb2dVertex
 10
29.591431
 20
67.000348
 30
0.0
  0
VERTEX
  5
2035
100
AcDbEntity
  8
ALPHA
100
AcDbVertex
100
AcDb2dVertex
 10
29.666098
 20
67.290788
 30
0.0
  0
VERTEX
  5
2036
100
AcDbEntity
  8
ALPHA
100
AcDbVertex
100
AcDb2dVertex
 10
29.712013
 20
67.591716
 30
0.0
  0
VERTEX
  5
2037
100
AcDbEntity
  8
ALPHA
100
AcDbVertex
100
AcDb2dVertex
 10
29.727656
 20
67.90161
 30
0.0
  0
VERTEX
  5
2038
100
AcDbEntity
  8
ALPHA
100
AcDbVertex
100
AcDb2dVertex
 10
29.712013
 20
68.211454
 30
0.0
  0
VERTEX
  5
2039
100
AcDbEntity
  8
ALPHA
100
AcDbVertex
100
AcDb2dVertex
 10
29.666098
 20
68.512362
 30
0.0
  0
VERTEX
  5
203A
100
AcDbEntity
  8
ALPHA
100
AcDbVertex
100
AcDb2dVertex
 10
29.591431
 20
68.802807
 30
0.0
  0
VERTEX
  5
203B
100
AcDbEntity
  8
ALPHA
100
AcDbVertex
100
AcDb2dVertex
 10
29.489535
 20
69.081264
 30
0.0
  0
VERTEX
  5
203C
100
AcDbEntity
  8
ALPHA
100
AcDbVertex
100
AcDb2dVertex
 10
29.36193
 20
69.346209
 30
0.0
  0
VERTEX
  5
203D
100
AcDbEntity
  8
ALPHA
100
AcDbVertex
100
AcDb2dVertex
 10
29.210137
 20
69.596116
 30
0.0
  0
VERTEX
  5
203E
100
AcDbEntity
  8
ALPHA
100
AcDbVertex
100
AcDb2dVertex
 10
29.035676
 20
69.829461
 30
0.0
  0
VERTEX
  5
203F
100
AcDbEntity
  8
ALPHA
100
AcDbVertex
100
AcDb2dVertex
 10
28.84007
 20
70.044717
 30
0.0
  0
VERTEX
  5
2040
100
AcDbEntity
  8
ALPHA
100
AcDbVertex
100
AcDb2dVertex
 10
28.624839
 20
70.240361
 30
0.0
  0
VERTEX
  5
2041
100
AcDbEntity
  8
ALPHA
100
AcDbVertex
100
AcDb2dVertex
 10
28.391504
 20
70.414867
 30
0.0
  0
VERTEX
  5
2042
100
AcDbEntity
  8
ALPHA
100
AcDbVertex
100
AcDb2dVertex
 10
28.141586
 20
70.566711
 30
0.0
  0
VERTEX
  5
2043
100
AcDbEntity
  8
ALPHA
100
AcDbVertex
100
AcDb2dVertex
 10
27.876606
 20
70.694366
 30
0.0
  0
VERTEX
  5
2044
100
AcDbEntity
  8
ALPHA
100
AcDbVertex
100
AcDb2dVertex
 10
27.598085
 20
70.796308
 30
0.0
  0
VERTEX
  5
2045
100
AcDbEntity
  8
ALPHA
100
AcDbVertex
100
AcDb2dVertex
 10
27.307545
 20
70.871012
 30
0.0
  0
VERTEX
  5
2046
100
AcDbEntity
  8
ALPHA
100
AcDbVertex
100
AcDb2dVertex
 10
27.006506
 20
70.916952
 30
0.0
  0
VERTEX
  5
2047
100
AcDbEntity
  8
ALPHA
100
AcDbVertex
100
AcDb2dVertex
 10
26.696489
 20
70.932605
 30
0.0
  0
VERTEX
  5
2048
100
AcDbEntity
  8
ALPHA
100
AcDbVertex
100
AcDb2dVertex
 10
26.38671
 20
70.916952
 30
0.0
  0
VERTEX
  5
2049
100
AcDbEntity
  8
ALPHA
100
AcDbVertex
100
AcDb2dVertex
 10
26.085872
 20
70.871012
 30
0.0
  0
VERTEX
  5
204A
100
AcDbEntity
  8
ALPHA
100
AcDbVertex
100
AcDb2dVertex
 10
25.795499
 20
70.796308
 30
0.0
  0
VERTEX
  5
204B
100
AcDbEntity
  8
ALPHA
100
AcDbVertex
100
AcDb2dVertex
 10
25.517114
 20
70.694366
 30
0.0
  0
VERTEX
  5
204C
100
AcDbEntity
  8
ALPHA
100
AcDbVertex
100
AcDb2dVertex
 10
25.252242
 20
70.566711
 30
0.0
  0
VERTEX
  5
204D
100
AcDbEntity
  8
ALPHA
100
AcDbVertex
100
AcDb2dVertex
 10
25.002406
 20
70.414867
 30
0.0
  0
VERTEX
  5
204E
100
AcDbEntity
  8
ALPHA
100
AcDbVertex
100
AcDb2dVertex
 10
24.769131
 20
70.240361
 30
0.0
  0
VERTEX
  5
204F
100
AcDbEntity
  8
ALPHA
100
AcDbVertex
100
AcDb2dVertex
 10
24.553941
 20
70.044717
 30
0.0
  0
VERTEX
  5
2050
100
AcDbEntity
  8
ALPHA
100
AcDbVertex
100
AcDb2dVertex
 10
24.358359
 20
69.829461
 30
0.0
  0
VERTEX
  5
2051
100
AcDbEntity
  8
ALPHA
100
AcDbVertex
100
AcDb2dVertex
 10
24.18391
 20
69.596116
 30
0.0
  0
VERTEX
  5
2052
100
AcDbEntity
  8
ALPHA
100
AcDbVertex
100
AcDb2dVertex
 10
24.032119
 20
69.346209
 30
0.0
  0
VERTEX
  5
2053
100
AcDbEntity
  8
ALPHA
100
AcDbVertex
100
AcDb2dVertex
 10
23.904508
 20
69.081264
 30
0.0
  0
VERTEX
  5
2054
100
AcDbEntity
  8
ALPHA
100
AcDbVertex
100
AcDb2dVertex
 10
23.802602
 20
68.802807
 30
0.0
  0
VERTEX
  5
2055
100
AcDbEntity
  8
ALPHA
100
AcDbVertex
100
AcDb2dVertex
 10
23.727925
 20
68.512362
 30
0.0
  0
VERTEX
  5
2056
100
AcDbEntity
  8
ALPHA
100
AcDbVertex
100
AcDb2dVertex
 10
23.682001
 20
68.211454
 30
0.0
  0
VERTEX
  5
2057
100
AcDbEntity
  8
ALPHA
100
AcDbVertex
100
AcDb2dVertex
 10
23.666355
 20
67.90161
 30
0.0
  0
VERTEX
  5
2058
100
AcDbEntity
  8
ALPHA
100
AcDbVertex
100
AcDb2dVertex
 10
23.682001
 20
67.591716
 30
0.0
  0
VERTEX
  5
2059
100
AcDbEntity
  8
ALPHA
100
AcDbVertex
100
AcDb2dVertex
 10
23.727925
 20
67.290788
 30
0.0
  0
VERTEX
  5
205A
100
AcDbEntity
  8
ALPHA
100
AcDbVertex
100
AcDb2dVertex
 10
23.802602
 20
67.000348
 30
0.0
  0
VERTEX
  5
205B
100
AcDbEntity
  8
ALPHA
100
AcDbVertex
100
AcDb2dVertex
 10
23.904508
 20
66.721918
 30
0.0
  0
VERTEX
  5
205C
100
AcDbEntity
  8
ALPHA
100
AcDbVertex
100
AcDb2dVertex
 10
24.032119
 20
66.457018
 30
0.0
  0
VERTEX
  5
205D
100
AcDbEntity
  8
ALPHA
100
AcDbVertex
100
AcDb2dVertex
 10
24.18391
 20
66.20717
 30
0.0
  0
VERTEX
  5
205E
100
AcDbEntity
  8
ALPHA
100
AcDbVertex
100
AcDb2dVertex
 10
24.358359
 20
65.973896
 30
0.0
  0
VERTEX
  5
205F
100
AcDbEntity
  8
ALPHA
100
AcDbVertex
100
AcDb2dVertex
 10
24.553941
 20
65.758717
 30
0.0
  0
VERTEX
  5
2060
100
AcDbEntity
  8
ALPHA
100
AcDbVertex
100
AcDb2dVertex
 10
24.769131
 20
65.563156
 30
0.0
  0
VERTEX
  5
2061
100
AcDbEntity
  8
ALPHA
100
AcDbVertex
100
AcDb2dVertex
 10
25.002406
 20
65.388732
 30
0.0
  0
VERTEX
  5
2062
100
AcDbEntity
  8
ALPHA
100
AcDbVertex
100
AcDb2dVertex
 10
25.252242
 20
65.236969
 30
0.0
  0
VERTEX
  5
2063
100
AcDbEntity
  8
ALPHA
100
AcDbVertex
100
AcDb2dVertex
 10
25.517114
 20
65.109387
 30
0.0
  0
VERTEX
  5
2064
100
AcDbEntity
  8
ALPHA
100
AcDbVertex
100
AcDb2dVertex
 10
25.795499
 20
65.007508
 30
0.0
  0
VERTEX
  5
2065
100
AcDbEntity
  8
ALPHA
100
AcDbVertex
100
AcDb2dVertex
 10
26.085872
 20
64.932853
 30
0.0
  0
VERTEX
  5
2066
100
AcDbEntity
  8
ALPHA
100
AcDbVertex
100
AcDb2dVertex
 10
26.38671
 20
64.886945
 30
0.0
  0
VERTEX
  5
2067
100
AcDbEntity
  8
ALPHA
100
AcDbVertex
100
AcDb2dVertex
 10
26.696489
 20
64.871304
 30
0.0
  0
SEQEND
  5
2068
100
AcDbEntity
  8
ALPHA
  0
POLYLINE
  5
2069
100
AcDbEntity
  8
ALPHA
100
AcDb2dPolyline
 66
     1
 10
0.0
 20
0.0
 30
0.0
  0
VERTEX
  5
206A
100
AcDbEntity
  8
ALPHA
100
AcDbVertex
100
AcDb2dVertex
 10
46.52663
 20
61.050521
 30
0.0
  0
VERTEX
  5
206B
100
AcDbEntity
  8
ALPHA
100
AcDbVertex
100
AcDb2dVertex
 10
46.52663
 20
73.302658
 30
0.0
  0
SEQEND
  5
206C
100
AcDbEntity
  8
ALPHA
  0
POLYLINE
  5
206D
100
AcDbEntity
  8
ALPHA
100
AcDb2dPolyline
 66
     1
 10
0.0
 20
0.0
 30
0.0
  0
VERTEX
  5
206E
100
AcDbEntity
  8
ALPHA
100
AcDbVertex
100
AcDb2dVertex
 10
27.50488
 20
45.698831
 30
0.0
  0
VERTEX
  5
206F
100
AcDbEntity
  8
ALPHA
100
AcDbVertex
100
AcDb2dVertex
 10
30.347428
 20
45.637163
 30
0.0
  0
SEQEND
  5
2070
100
AcDbEntity
  8
ALPHA
  0
POLYLINE
  5
2071
100
AcDbEntity
  8
ALPHA
100
AcDb2dPolyline
 66
     1
 10
0.0
 20
0.0
 30
0.0
  0
VERTEX
  5
2072
100
AcDbEntity
  8
ALPHA
100
AcDbVertex
100
AcDb2dVertex
 10
26.47273
 20
50.788959
 30
0.0
  0
VERTEX
  5
2073
100
AcDbEntity
  8
ALPHA
100
AcDbVertex
100
AcDb2dVertex
 10
26.779529
 20
50.804449
 30
0.0
  0
VERTEX
  5
2074
100
AcDbEntity
  8
ALPHA
100
AcDbVertex
100
AcDb2dVertex
 10
27.077451
 20
50.849912
 30
0.0
  0
VERTEX
  5
2075
100
AcDbEntity
  8
ALPHA
100
AcDbVertex
100
AcDb2dVertex
 10
27.364989
 20
50.923841
 30
0.0
  0
VERTEX
  5
2076
100
AcDbEntity
  8
ALPHA
100
AcDbVertex
100
AcDb2dVertex
 10
27.640636
 20
51.024727
 30
0.0
  0
VERTEX
  5
2077
100
AcDbEntity
  8
ALPHA
100
AcDbVertex
100
AcDb2dVertex
 10
27.902886
 20
51.151062
 30
0.0
  0
VERTEX
  5
2078
100
AcDbEntity
  8
ALPHA
100
AcDbVertex
100
AcDb2dVertex
 10
28.150234
 20
51.301337
 30
0.0
  0
VERTEX
  5
2079
100
AcDbEntity
  8
ALPHA
100
AcDbVertex
100
AcDb2dVertex
 10
28.381174
 20
51.474044
 30
0.0
  0
VERTEX
  5
207A
100
AcDbEntity
  8
ALPHA
100
AcDbVertex
100
AcDb2dVertex
 10
28.594198
 20
51.667674
 30
0.0
  0
VERTEX
  5
207B
100
AcDbEntity
  8
ALPHA
100
AcDbVertex
100
AcDb2dVertex
 10
28.787801
 20
51.880719
 30
0.0
  0
VERTEX
  5
207C
100
AcDbEntity
  8
ALPHA
100
AcDbVertex
100
AcDb2dVertex
 10
28.960477
 20
52.111671
 30
0.0
  0
VERTEX
  5
207D
100
AcDbEntity
  8
ALPHA
100
AcDbVertex
100
AcDb2dVertex
 10
29.11072
 20
52.35902
 30
0.0
  0
VERTEX
  5
207E
100
AcDbEntity
  8
ALPHA
100
AcDbVertex
100
AcDb2dVertex
 10
29.237023
 20
52.62126
 30
0.0
  0
VERTEX
  5
207F
100
AcDbEntity
  8
ALPHA
100
AcDbVertex
100
AcDb2dVertex
 10
29.337881
 20
52.896881
 30
0.0
  0
VERTEX
  5
2080
100
AcDbEntity
  8
ALPHA
100
AcDbVertex
100
AcDb2dVertex
 10
29.411787
 20
53.184375
 30
0.0
  0
VERTEX
  5
2081
100
AcDbEntity
  8
ALPHA
100
AcDbVertex
100
AcDb2dVertex
 10
29.457235
 20
53.482234
 30
0.0
  0
VERTEX
  5
2082
100
AcDbEntity
  8
ALPHA
100
AcDbVertex
100
AcDb2dVertex
 10
29.472719
 20
53.788948
 30
0.0
  0
VERTEX
  5
2083
100
AcDbEntity
  8
ALPHA
100
AcDbVertex
100
AcDb2dVertex
 10
29.457235
 20
54.095598
 30
0.0
  0
VERTEX
  5
2084
100
AcDbEntity
  8
ALPHA
100
AcDbVertex
100
AcDb2dVertex
 10
29.411787
 20
54.393393
 30
0.0
  0
VERTEX
  5
2085
100
AcDbEntity
  8
ALPHA
100
AcDbVertex
100
AcDb2dVertex
 10
29.337881
 20
54.680824
 30
0.0
  0
VERTEX
  5
2086
100
AcDbEntity
  8
ALPHA
100
AcDbVertex
100
AcDb2dVertex
 10
29.237023
 20
54.956384
 30
0.0
  0
VERTEX
  5
2087
100
AcDbEntity
  8
ALPHA
100
AcDbVertex
100
AcDb2dVertex
 10
29.11072
 20
55.218564
 30
0.0
  0
VERTEX
  5
2088
100
AcDbEntity
  8
ALPHA
100
AcDbVertex
100
AcDb2dVertex
 10
28.960477
 20
55.465857
 30
0.0
  0
VERTEX
  5
2089
100
AcDbEntity
  8
ALPHA
100
AcDbVertex
100
AcDb2dVertex
 10
28.787801
 20
55.696754
 30
0.0
  0
VERTEX
  5
208A
100
AcDbEntity
  8
ALPHA
100
AcDbVertex
100
AcDb2dVertex
 10
28.594198
 20
55.909749
 30
0.0
  0
VERTEX
  5
208B
100
AcDbEntity
  8
ALPHA
100
AcDbVertex
100
AcDb2dVertex
 10
28.381174
 20
56.103333
 30
0.0
  0
VERTEX
  5
208C
100
AcDbEntity
  8
ALPHA
100
AcDbVertex
100
AcDb2dVertex
 10
28.150234
 20
56.275998
 30
0.0
  0
VERTEX
  5
208D
100
AcDbEntity
  8
ALPHA
100
AcDbVertex
100
AcDb2dVertex
 10
27.902886
 20
56.426236
 30
0.0
  0
VERTEX
  5
208E
100
AcDbEntity
  8
ALPHA
100
AcDbVertex
100
AcDb2dVertex
 10
27.640636
 20
56.552539
 30
0.0
  0
VERTEX
  5
208F
100
AcDbEntity
  8
ALPHA
100
AcDbVertex
100
AcDb2dVertex
 10
27.364989
 20
56.6534
 30
0.0
  0
VERTEX
  5
2090
100
AcDbEntity
  8
ALPHA
100
AcDbVertex
100
AcDb2dVertex
 10
27.077451
 20
56.727311
 30
0.0
  0
VERTEX
  5
2091
100
AcDbEntity
  8
ALPHA
100
AcDbVertex
100
AcDb2dVertex
 10
26.779529
 20
56.772763
 30
0.0
  0
VERTEX
  5
2092
100
AcDbEntity
  8
ALPHA
100
AcDbVertex
100
AcDb2dVertex
 10
26.47273
 20
56.788248
 30
0.0
  0
VERTEX
  5
2093
100
AcDbEntity
  8
ALPHA
100
AcDbVertex
100
AcDb2dVertex
 10
26.165987
 20
56.772763
 30
0.0
  0
VERTEX
  5
2094
100
AcDbEntity
  8
ALPHA
100
AcDbVertex
100
AcDb2dVertex
 10
25.868107
 20
56.727311
 30
0.0
  0
VERTEX
  5
2095
100
AcDbEntity
  8
ALPHA
100
AcDbVertex
100
AcDb2dVertex
 10
25.580598
 20
56.6534
 30
0.0
  0
VERTEX
  5
2096
100
AcDbEntity
  8
ALPHA
100
AcDbVertex
100
AcDb2dVertex
 10
25.304969
 20
56.552539
 30
0.0
  0
VERTEX
  5
2097
100
AcDbEntity
  8
ALPHA
100
AcDbVertex
100
AcDb2dVertex
 10
25.042725
 20
56.426236
 30
0.0
  0
VERTEX
  5
2098
100
AcDbEntity
  8
ALPHA
100
AcDbVertex
100
AcDb2dVertex
 10
24.795376
 20
56.275998
 30
0.0
  0
VERTEX
  5
2099
100
AcDbEntity
  8
ALPHA
100
AcDbVertex
100
AcDb2dVertex
 10
24.564429
 20
56.103333
 30
0.0
  0
VERTEX
  5
209A
100
AcDbEntity
  8
ALPHA
100
AcDbVertex
100
AcDb2dVertex
 10
24.351391
 20
55.909749
 30
0.0
  0
VERTEX
  5
209B
100
AcDbEntity
  8
ALPHA
100
AcDbVertex
100
AcDb2dVertex
 10
24.157769
 20
55.696754
 30
0.0
  0
VERTEX
  5
209C
100
AcDbEntity
  8
ALPHA
100
AcDbVertex
100
AcDb2dVertex
 10
23.985073
 20
55.465857
 30
0.0
  0
VERTEX
  5
209D
100
AcDbEntity
  8
ALPHA
100
AcDbVertex
100
AcDb2dVertex
 10
23.834809
 20
55.218564
 30
0.0
  0
VERTEX
  5
209E
100
AcDbEntity
  8
ALPHA
100
AcDbVertex
100
AcDb2dVertex
 10
23.708485
 20
54.956384
 30
0.0
  0
VERTEX
  5
209F
100
AcDbEntity
  8
ALPHA
100
AcDbVertex
100
AcDb2dVertex
 10
23.607608
 20
54.680824
 30
0.0
  0
VERTEX
  5
20A0
100
AcDbEntity
  8
ALPHA
100
AcDbVertex
100
AcDb2dVertex
 10
23.533687
 20
54.393393
 30
0.0
  0
VERTEX
  5
20A1
100
AcDbEntity
  8
ALPHA
100
AcDbVertex
100
AcDb2dVertex
 10
23.488228
 20
54.095598
 30
0.0
  0
VERTEX
  5
20A2
100
AcDbEntity
  8
ALPHA
100
AcDbVertex
100
AcDb2dVertex
 10
23.47274
 20
53.788948
 30
0.0
  0
VERTEX
  5
20A3
100
AcDbEntity
  8
ALPHA
100
AcDbVertex
100
AcDb2dVertex
 10
23.488228
 20
53.482234
 30
0.0
  0
VERTEX
  5
20A4
100
AcDbEntity
  8
ALPHA
100
AcDbVertex
100
AcDb2dVertex
 10
23.533687
 20
53.184375
 30
0.0
  0
VERTEX
  5
20A5
100
AcDbEntity
  8
ALPHA
100
AcDbVertex
100
AcDb2dVertex
 10
23.607608
 20
52.896881
 30
0.0
  0
VERTEX
  5
20A6
100
AcDbEntity
  8
ALPHA
100
AcDbVertex
100
AcDb2dVertex
 10
23.708485
 20
52.62126
 30
0.0
  0
VERTEX
  5
20A7
100
AcDbEntity
  8
ALPHA
100
AcDbVertex
100
AcDb2dVertex
 10
23.834809
 20
52.35902
 30
0.0
  0
VERTEX
  5
20A8
100
AcDbEntity
  8
ALPHA
100
AcDbVertex
100
AcDb2dVertex
 10
23.985073
 20
52.111671
 30
0.0
  0
VERTEX
  5
20A9
100
AcDbEntity
  8
ALPHA
100
AcDbVertex
100
AcDb2dVertex
 10
24.157769
 20
51.880719
 30
0.0
  0
VERTEX
  5
20AA
100
AcDbEntity
  8
ALPHA
100
AcDbVertex
100
AcDb2dVertex
 10
24.351391
 20
51.667674
 30
0.0
  0
VERTEX
  5
20AB
100
AcDbEntity
  8
ALPHA
100
AcDbVertex
100
AcDb2dVertex
 10
24.564429
 20
51.474044
 30
0.0
  0
VERTEX
  5
20AC
100
AcDbEntity
  8
ALPHA
100
AcDbVertex
100
AcDb2dVertex
 10
24.795376
 20
51.301337
 30
0.0
  0
VERTEX
  5
20AD
100
AcDbEntity
  8
ALPHA
100
AcDbVertex
100
AcDb2dVertex
 10
25.042725
 20
51.151062
 30
0.0
  0
VERTEX
  5
20AE
100
AcDbEntity
  8
ALPHA
100
AcDbVertex
100
AcDb2dVertex
 10
25.304969
 20
51.024727
 30
0.0
  0
VERTEX
  5
20AF
100
AcDbEntity
  8
ALPHA
100
AcDbVertex
100
AcDb2dVertex
 10
25.580598
 20
50.923841
 30
0.0
  0
VERTEX
  5
20B0
100
AcDbEntity
  8
ALPHA
100
AcDbVertex
100
AcDb2dVertex
 10
25.868107
 20
50.849912
 30
0.0
  0
VERTEX
  5
20B1
100
AcDbEntity
  8
ALPHA
100
AcDbVertex
100
AcDb2dVertex
 10
26.165987
 20
50.804449
 30
0.0
  0
VERTEX
  5
20B2
100
AcDbEntity
  8
ALPHA
100
AcDbVertex
100
AcDb2dVertex
 10
26.47273
 20
50.788959
 30
0.0
  0
SEQEND
  5
20B3
100
AcDbEntity
  8
ALPHA
  0
POLYLINE
  5
20B4
100
AcDbEntity
  8
ALPHA
100
AcDb2dPolyline
 66
     1
 10
0.0
 20
0.0
 30
0.0
  0
VERTEX
  5
20B5
100
AcDbEntity
  8
ALPHA
100
AcDbVertex
100
AcDb2dVertex
 10
25.440923
 20
43.718934
 30
0.0
  0
VERTEX
  5
20B6
100
AcDbEntity
  8
ALPHA
100
AcDbVertex
100
AcDb2dVertex
 10
27.50488
 20
43.718934
 30
0.0
  0
SEQEND
  5
20B7
100
AcDbEntity
  8
ALPHA
  0
POLYLINE
  5
20B8
100
AcDbEntity
  8
ALPHA
100
AcDb2dPolyline
 66
     1
 10
0.0
 20
0.0
 30
0.0
  0
VERTEX
  5
20B9
100
AcDbEntity
  8
ALPHA
100
AcDbVertex
100
AcDb2dVertex
 10
22.587006
 20
45.637163
 30
0.0
  0
VERTEX
  5
20BA
100
AcDbEntity
  8
ALPHA
100
AcDbVertex
100
AcDb2dVertex
 10
25.440923
 20
45.698831
 30
0.0
  0
SEQEND
  5
20BB
100
AcDbEntity
  8
ALPHA
  0
POLYLINE
  5
20BC
100
AcDbEntity
  8
ALPHA
100
AcDb2dPolyline
 66
     1
 10
0.0
 20
0.0
 30
0.0
  0
VERTEX
  5
20BD
100
AcDbEntity
  8
ALPHA
100
AcDbVertex
100
AcDb2dVertex
 10
25.440923
 20
45.698831
 30
0.0
  0
VERTEX
  5
20BE
100
AcDbEntity
  8
ALPHA
100
AcDbVertex
100
AcDb2dVertex
 10
25.440923
 20
43.718934
 30
0.0
  0
SEQEND
  5
20BF
100
AcDbEntity
  8
ALPHA
  0
POLYLINE
  5
20C0
100
AcDbEntity
  8
ALPHA
100
AcDb2dPolyline
 66
     1
 10
0.0
 20
0.0
 30
0.0
  0
VERTEX
  5
20C1
100
AcDbEntity
  8
ALPHA
100
AcDbVertex
100
AcDb2dVertex
 10
27.50488
 20
43.718934
 30
0.0
  0
VERTEX
  5
20C2
100
AcDbEntity
  8
ALPHA
100
AcDbVertex
100
AcDb2dVertex
 10
27.50488
 20
45.698831
 30
0.0
  0
SEQEND
  5
20C3
100
AcDbEntity
  8
ALPHA
  0
POLYLINE
  5
20C4
100
AcDbEntity
  8
ALPHA
100
AcDb2dPolyline
 66
     1
 10
0.0
 20
0.0
 30
0.0
  0
VERTEX
  5
20C5
100
AcDbEntity
  8
ALPHA
100
AcDbVertex
100
AcDb2dVertex
 10
26.47273
 20
52.288954
 30
0.0
  0
VERTEX
  5
20C6
100
AcDbEntity
  8
ALPHA
100
AcDbVertex
100
AcDb2dVertex
 10
26.626204
 20
52.296697
 30
0.0
  0
VERTEX
  5
20C7
100
AcDbEntity
  8
ALPHA
100
AcDbVertex
100
AcDb2dVertex
 10
26.775229
 20
52.319423
 30
0.0
  0
VERTEX
  5
20C8
100
AcDbEntity
  8
ALPHA
100
AcDbVertex
100
AcDb2dVertex
 10
26.919051
 20
52.35638
 30
0.0
  0
VERTEX
  5
20C9
100
AcDbEntity
  8
ALPHA
100
AcDbVertex
100
AcDb2dVertex
 10
27.056918
 20
52.406814
 30
0.0
  0
VERTEX
  5
20CA
100
AcDbEntity
  8
ALPHA
100
AcDbVertex
100
AcDb2dVertex
 10
27.188079
 20
52.469971
 30
0.0
  0
VERTEX
  5
20CB
100
AcDbEntity
  8
ALPHA
100
AcDbVertex
100
AcDb2dVertex
 10
27.31178
 20
52.545097
 30
0.0
  0
VERTEX
  5
20CC
100
AcDbEntity
  8
ALPHA
100
AcDbVertex
100
AcDb2dVertex
 10
27.427271
 20
52.63144
 30
0.0
  0
VERTEX
  5
20CD
100
AcDbEntity
  8
ALPHA
100
AcDbVertex
100
AcDb2dVertex
 10
27.533797
 20
52.728246
 30
0.0
  0
VERTEX
  5
20CE
100
AcDbEntity
  8
ALPHA
100
AcDbVertex
100
AcDb2dVertex
 10
27.630609
 20
52.834762
 30
0.0
  0
VERTEX
  5
20CF
100
AcDbEntity
  8
ALPHA
100
AcDbVertex
100
AcDb2dVertex
 10
27.716952
 20
52.950234
 30
0.0
  0
VERTEX
  5
20D0
100
AcDbEntity
  8
ALPHA
100
AcDbVertex
100
AcDb2dVertex
 10
27.792076
 20
53.073908
 30
0.0
  0
VERTEX
  5
20D1
100
AcDbEntity
  8
ALPHA
100
AcDbVertex
100
AcDb2dVertex
 10
27.855228
 20
53.205032
 30
0.0
  0
VERTEX
  5
20D2
100
AcDbEntity
  8
ALPHA
100
AcDbVertex
100
AcDb2dVertex
 10
27.905655
 20
53.342851
 30
0.0
  0
VERTEX
  5
20D3
100
AcDbEntity
  8
ALPHA
100
AcDbVertex
100
AcDb2dVertex
 10
27.942605
 20
53.486612
 30
0.0
  0
VERTEX
  5
20D4
100
AcDbEntity
  8
ALPHA
100
AcDbVertex
100
AcDb2dVertex
 10
27.965328
 20
53.635563
 30
0.0
  0
VERTEX
  5
20D5
100
AcDbEntity
  8
ALPHA
100
AcDbVertex
100
AcDb2dVertex
 10
27.973069
 20
53.788948
 30
0.0
  0
VERTEX
  5
20D6
100
AcDbEntity
  8
ALPHA
100
AcDbVertex
100
AcDb2dVertex
 10
27.965328
 20
53.942277
 30
0.0
  0
VERTEX
  5
20D7
100
AcDbEntity
  8
ALPHA
100
AcDbVertex
100
AcDb2dVertex
 10
27.942605
 20
54.091185
 30
0.0
  0
VERTEX
  5
20D8
100
AcDbEntity
  8
ALPHA
100
AcDbVertex
100
AcDb2dVertex
 10
27.905655
 20
54.234918
 30
0.0
  0
VERTEX
  5
20D9
100
AcDbEntity
  8
ALPHA
100
AcDbVertex
100
AcDb2dVertex
 10
27.855228
 20
54.37272
 30
0.0
  0
VERTEX
  5
20DA
100
AcDbEntity
  8
ALPHA
100
AcDbVertex
100
AcDb2dVertex
 10
27.792076
 20
54.503836
 30
0.0
  0
VERTEX
  5
20DB
100
AcDbEntity
  8
ALPHA
100
AcDbVertex
100
AcDb2dVertex
 10
27.716952
 20
54.627511
 30
0.0
  0
VERTEX
  5
20DC
100
AcDbEntity
  8
ALPHA
100
AcDbVertex
100
AcDb2dVertex
 10
27.630609
 20
54.742991
 30
0.0
  0
VERTEX
  5
20DD
100
AcDbEntity
  8
ALPHA
100
AcDbVertex
100
AcDb2dVertex
 10
27.533797
 20
54.849521
 30
0.0
  0
VERTEX
  5
20DE
100
AcDbEntity
  8
ALPHA
100
AcDbVertex
100
AcDb2dVertex
 10
27.427271
 20
54.946345
 30
0.0
  0
VERTEX
  5
20DF
100
AcDbEntity
  8
ALPHA
100
AcDbVertex
100
AcDb2dVertex
 10
27.31178
 20
55.032709
 30
0.0
  0
VERTEX
  5
20E0
100
AcDbEntity
  8
ALPHA
100
AcDbVertex
100
AcDb2dVertex
 10
27.188079
 20
55.107857
 30
0.0
  0
VERTEX
  5
20E1
100
AcDbEntity
  8
ALPHA
100
AcDbVertex
100
AcDb2dVertex
 10
27.056918
 20
55.171034
 30
0.0
  0
VERTEX
  5
20E2
100
AcDbEntity
  8
ALPHA
100
AcDbVertex
100
AcDb2dVertex
 10
26.919051
 20
55.221487
 30
0.0
  0
VERTEX
  5
20E3
100
AcDbEntity
  8
ALPHA
100
AcDbVertex
100
AcDb2dVertex
 10
26.775229
 20
55.258459
 30
0.0
  0
VERTEX
  5
20E4
100
AcDbEntity
  8
ALPHA
100
AcDbVertex
100
AcDb2dVertex
 10
26.626204
 20
55.281196
 30
0.0
  0
VERTEX
  5
20E5
100
AcDbEntity
  8
ALPHA
100
AcDbVertex
100
AcDb2dVertex
 10
26.47273
 20
55.288943
 30
0.0
  0
VERTEX
  5
20E6
100
AcDbEntity
  8
ALPHA
100
AcDbVertex
100
AcDb2dVertex
 10
26.319522
 20
55.281196
 30
0.0
  0
VERTEX
  5
20E7
100
AcDbEntity
  8
ALPHA
100
AcDbVertex
100
AcDb2dVertex
 10
26.17072
 20
55.258459
 30
0.0
  0
VERTEX
  5
20E8
100
AcDbEntity
  8
ALPHA
100
AcDbVertex
100
AcDb2dVertex
 10
26.027079
 20
55.221487
 30
0.0
  0
VERTEX
  5
20E9
100
AcDbEntity
  8
ALPHA
100
AcDbVertex
100
AcDb2dVertex
 10
25.889356
 20
55.171034
 30
0.0
  0
VERTEX
  5
20EA
100
AcDbEntity
  8
ALPHA
100
AcDbVertex
100
AcDb2dVertex
 10
25.758307
 20
55.107857
 30
0.0
  0
VERTEX
  5
20EB
100
AcDbEntity
  8
ALPHA
100
AcDbVertex
100
AcDb2dVertex
 10
25.634687
 20
55.032709
 30
0.0
  0
VERTEX
  5
20EC
100
AcDbEntity
  8
ALPHA
100
AcDbVertex
100
AcDb2dVertex
 10
25.519253
 20
54.946345
 30
0.0
  0
VERTEX
  5
20ED
100
AcDbEntity
  8
ALPHA
100
AcDbVertex
100
AcDb2dVertex
 10
25.41276
 20
54.849521
 30
0.0
  0
VERTEX
  5
20EE
100
AcDbEntity
  8
ALPHA
100
AcDbVertex
100
AcDb2dVertex
 10
25.315964
 20
54.742991
 30
0.0
  0
VERTEX
  5
20EF
100
AcDbEntity
  8
ALPHA
100
AcDbVertex
100
AcDb2dVertex
 10
25.229622
 20
54.627511
 30
0.0
  0
VERTEX
  5
20F0
100
AcDbEntity
  8
ALPHA
100
AcDbVertex
100
AcDb2dVertex
 10
25.154489
 20
54.503836
 30
0.0
  0
VERTEX
  5
20F1
100
AcDbEntity
  8
ALPHA
100
AcDbVertex
100
AcDb2dVertex
 10
25.091322
 20
54.37272
 30
0.0
  0
VERTEX
  5
20F2
100
AcDbEntity
  8
ALPHA
100
AcDbVertex
100
AcDb2dVertex
 10
25.040875
 20
54.234918
 30
0.0
  0
VERTEX
  5
20F3
100
AcDbEntity
  8
ALPHA
100
AcDbVertex
100
AcDb2dVertex
 10
25.003906
 20
54.091185
 30
0.0
  0
VERTEX
  5
20F4
100
AcDbEntity
  8
ALPHA
100
AcDbVertex
100
AcDb2dVertex
 10
24.981171
 20
53.942277
 30
0.0
  0
VERTEX
  5
20F5
100
AcDbEntity
  8
ALPHA
100
AcDbVertex
100
AcDb2dVertex
 10
24.973424
 20
53.788948
 30
0.0
  0
VERTEX
  5
20F6
100
AcDbEntity
  8
ALPHA
100
AcDbVertex
100
AcDb2dVertex
 10
24.981171
 20
53.635563
 30
0.0
  0
VERTEX
  5
20F7
100
AcDbEntity
  8
ALPHA
100
AcDbVertex
100
AcDb2dVertex
 10
25.003906
 20
53.486612
 30
0.0
  0
VERTEX
  5
20F8
100
AcDbEntity
  8
ALPHA
100
AcDbVertex
100
AcDb2dVertex
 10
25.040875
 20
53.342851
 30
0.0
  0
VERTEX
  5
20F9
100
AcDbEntity
  8
ALPHA
100
AcDbVertex
100
AcDb2dVertex
 10
25.091322
 20
53.205032
 30
0.0
  0
VERTEX
  5
20FA
100
AcDbEntity
  8
ALPHA
100
AcDbVertex
100
AcDb2dVertex
 10
25.154489
 20
53.073908
 30
0.0
  0
VERTEX
  5
20FB
100
AcDbEntity
  8
ALPHA
100
AcDbVertex
100
AcDb2dVertex
 10
25.229622
 20
52.950234
 30
0.0
  0
VERTEX
  5
20FC
100
AcDbEntity
  8
ALPHA
100
AcDbVertex
100
AcDb2dVertex
 10
25.315964
 20
52.834762
 30
0.0
  0
VERTEX
  5
20FD
100
AcDbEntity
  8
ALPHA
100
AcDbVertex
100
AcDb2dVertex
 10
25.41276
 20
52.728246
 30
0.0
  0
VERTEX
  5
20FE
100
AcDbEntity
  8
ALPHA
100
AcDbVertex
100
AcDb2dVertex
 10
25.519253
 20
52.63144
 30
0.0
  0
VERTEX
  5
20FF
100
AcDbEntity
  8
ALPHA
100
AcDbVertex
100
AcDb2dVertex
 10
25.634687
 20
52.545097
 30
0.0
  0
VERTEX
  5
2100
100
AcDbEntity
  8
ALPHA
100
AcDbVertex
100
AcDb2dVertex
 10
25.758307
 20
52.469971
 30
0.0
  0
VERTEX
  5
2101
100
AcDbEntity
  8
ALPHA
100
AcDbVertex
100
AcDb2dVertex
 10
25.889356
 20
52.406814
 30
0.0
  0
VERTEX
  5
2102
100
AcDbEntity
  8
ALPHA
100
AcDbVertex
100
AcDb2dVertex
 10
26.027079
 20
52.35638
 30
0.0
  0
VERTEX
  5
2103
100
AcDbEntity
  8
ALPHA
100
AcDbVertex
100
AcDb2dVertex
 10
26.17072
 20
52.319423
 30
0.0
  0
VERTEX
  5
2104
100
AcDbEntity
  8
ALPHA
100
AcDbVertex
100
AcDb2dVertex
 10
26.319522
 20
52.296697
 30
0.0
  0
VERTEX
  5
2105
100
AcDbEntity
  8
ALPHA
100
AcDbVertex
100
AcDb2dVertex
 10
26.47273
 20
52.288954
 30
0.0
  0
SEQEND
  5
2106
100
AcDbEntity
  8
ALPHA
  0
POLYLINE
  5
2107
100
AcDbEntity
  8
ALPHA
100
AcDb3dPolyline
 66
     1
 10
0.0
 20
0.0
 30
0.0
 70
     8
  0
VERTEX
  5
2108
100
AcDbEntity
  8
ALPHA
100
AcDbVertex
100
AcDb3dPolylineVertex
 10
26.47273
 20
52.288954
 30
0.0
 70
    32
  0
VERTEX
  5
2109
100
AcDbEntity
  8
ALPHA
100
AcDbVertex
100
AcDb3dPolylineVertex
 10
26.47273
 20
52.288954
 30
0.0
 70
    32
  0
SEQEND
  5
210A
100
AcDbEntity
  8
ALPHA
  0
POLYLINE
  5
210B
100
AcDbEntity
  8
ALPHA
100
AcDb3dPolyline
 66
     1
 10
0.0
 20
0.0
 30
0.0
 70
     8
  0
VERTEX
  5
210C
100
AcDbEntity
  8
ALPHA
100
AcDbVertex
100
AcDb3dPolylineVertex
 10
26.47273
 20
50.788959
 30
0.0
 70
    32
  0
VERTEX
  5
210D
100
AcDbEntity
  8
ALPHA
100
AcDbVertex
100
AcDb3dPolylineVertex
 10
26.47273
 20
50.788959
 30
0.0
 70
    32
  0
SEQEND
  5
210E
100
AcDbEntity
  8
ALPHA
  0
POLYLINE
  5
210F
100
AcDbEntity
  8
ALPHA
100
AcDb2dPolyline
 66
     1
 10
0.0
 20
0.0
 30
0.0
  0
VERTEX
  5
2110
100
AcDbEntity
  8
ALPHA
100
AcDbVertex
100
AcDb2dVertex
 10
15.594152
 20
61.775369
 30
0.0
  0
VERTEX
  5
2111
100
AcDbEntity
  8
ALPHA
100
AcDbVertex
100
AcDb2dVertex
 10
22.111928
 20
61.775369
 30
0.0
  0
SEQEND
  5
2112
100
AcDbEntity
  8
ALPHA
  0
POLYLINE
  5
2113
100
AcDbEntity
  8
ALPHA
100
AcDb2dPolyline
 66
     1
 10
0.0
 20
0.0
 30
0.0
  0
VERTEX
  5
2114
100
AcDbEntity
  8
ALPHA
100
AcDbVertex
100
AcDb2dVertex
 10
19.873994
 20
60.033184
 30
0.0
  0
VERTEX
  5
2115
100
AcDbEntity
  8
ALPHA
100
AcDbVertex
100
AcDb2dVertex
 10
22.208563
 20
60.033184
 30
0.0
  0
SEQEND
  5
2116
100
AcDbEntity
  8
ALPHA
  0
POLYLINE
  5
2117
100
AcDbEntity
  8
ALPHA
100
AcDb2dPolyline
 66
     1
 10
0.0
 20
0.0
 30
0.0
  0
VERTEX
  5
2118
100
AcDbEntity
  8
ALPHA
100
AcDbVertex
100
AcDb2dVertex
 10
15.399159
 20
60.033184
 30
0.0
  0
VERTEX
  5
2119
100
AcDbEntity
  8
ALPHA
100
AcDbVertex
100
AcDb2dVertex
 10
17.831224
 20
60.033184
 30
0.0
  0
SEQEND
  5
211A
100
AcDbEntity
  8
ALPHA
  0
POLYLINE
  5
211B
100
AcDbEntity
  8
ALPHA
100
AcDb2dPolyline
 66
     1
 10
0.0
 20
0.0
 30
0.0
  0
VERTEX
  5
211C
100
AcDbEntity
  8
ALPHA
100
AcDbVertex
100
AcDb2dVertex
 10
19.873994
 20
58.768489
 30
0.0
  0
VERTEX
  5
211D
100
AcDbEntity
  8
ALPHA
100
AcDbVertex
100
AcDb2dVertex
 10
19.873994
 20
60.033184
 30
0.0
  0
SEQEND
  5
211E
100
AcDbEntity
  8
ALPHA
  0
POLYLINE
  5
211F
100
AcDbEntity
  8
ALPHA
100
AcDb2dPolyline
 66
     1
 10
0.0
 20
0.0
 30
0.0
  0
VERTEX
  5
2120
100
AcDbEntity
  8
ALPHA
100
AcDbVertex
100
AcDb2dVertex
 10
17.831224
 20
60.033184
 30
0.0
  0
VERTEX
  5
2121
100
AcDbEntity
  8
ALPHA
100
AcDbVertex
100
AcDb2dVertex
 10
17.831224
 20
58.671338
 30
0.0
  0
SEQEND
  5
2122
100
AcDbEntity
  8
ALPHA
  0
POLYLINE
  5
2123
100
AcDbEntity
  8
ALPHA
100
AcDb2dPolyline
 66
     1
 10
0.0
 20
0.0
 30
0.0
  0
VERTEX
  5
2124
100
AcDbEntity
  8
ALPHA
100
AcDbVertex
100
AcDb2dVertex
 10
24.270452
 20
66.231427
 30
0.0
  0
VERTEX
  5
2125
100
AcDbEntity
  8
ALPHA
100
AcDbVertex
100
AcDb2dVertex
 10
25.93185
 20
67.941228
 30
0.0
  0
SEQEND
  5
2126
100
AcDbEntity
  8
ALPHA
  0
POLYLINE
  5
2127
100
AcDbEntity
  8
ALPHA
100
AcDb2dPolyline
 66
     1
 10
0.0
 20
0.0
 30
0.0
  0
VERTEX
  5
2128
100
AcDbEntity
  8
ALPHA
100
AcDbVertex
100
AcDb2dVertex
 10
26.758673
 20
67.167115
 30
0.0
  0
VERTEX
  5
2129
100
AcDbEntity
  8
ALPHA
100
AcDbVertex
100
AcDb2dVertex
 10
25.012354
 20
65.454558
 30
0.0
  0
SEQEND
  5
212A
100
AcDbEntity
  8
ALPHA
  0
POLYLINE
  5
212B
100
AcDbEntity
  8
ALPHA
100
AcDb3dPolyline
 66
     1
 10
0.0
 20
0.0
 30
0.0
 70
     8
  0
VERTEX
  5
212C
100
AcDbEntity
  8
ALPHA
100
AcDbVertex
100
AcDb3dPolylineVertex
 10
26.696489
 20
64.871304
 30
0.0
 70
    32
  0
VERTEX
  5
212D
100
AcDbEntity
  8
ALPHA
100
AcDbVertex
100
AcDb3dPolylineVertex
 10
26.696489
 20
64.871304
 30
0.0
 70
    32
  0
SEQEND
  5
212E
100
AcDbEntity
  8
ALPHA
  0
POLYLINE
  5
212F
100
AcDbEntity
  8
ALPHA
100
AcDb2dPolyline
 66
     1
 10
0.0
 20
0.0
 30
0.0
  0
VERTEX
  5
2130
100
AcDbEntity
  8
ALPHA
100
AcDbVertex
100
AcDb2dVertex
 10
27.444074
 20
67.99945
 30
0.0
  0
VERTEX
  5
2131
100
AcDbEntity
  8
ALPHA
100
AcDbVertex
100
AcDb2dVertex
 10
28.657437
 20
66.786432
 30
0.0
  0
SEQEND
  5
2132
100
AcDbEntity
  8
ALPHA
  0
POLYLINE
  5
2133
100
AcDbEntity
  8
ALPHA
100
AcDb2dPolyline
 66
     1
 10
0.0
 20
0.0
 30
0.0
  0
VERTEX
  5
2134
100
AcDbEntity
  8
ALPHA
100
AcDbVertex
100
AcDb2dVertex
 10
28.657437
 20
66.786432
 30
0.0
  0
VERTEX
  5
2135
100
AcDbEntity
  8
ALPHA
100
AcDbVertex
100
AcDb2dVertex
 10
27.964284
 20
66.010252
 30
0.0
  0
SEQEND
  5
2136
100
AcDbEntity
  8
ALPHA
  0
POLYLINE
  5
2137
100
AcDbEntity
  8
ALPHA
100
AcDb2dPolyline
 66
     1
 10
0.0
 20
0.0
 30
0.0
  0
VERTEX
  5
2138
100
AcDbEntity
  8
ALPHA
100
AcDbVertex
100
AcDb2dVertex
 10
25.93185
 20
67.941228
 30
0.0
  0
VERTEX
  5
2139
100
AcDbEntity
  8
ALPHA
100
AcDbVertex
100
AcDb2dVertex
 10
25.955448
 20
67.921591
 30
0.0
  0
SEQEND
  5
213A
100
AcDbEntity
  8
ALPHA
  0
POLYLINE
  5
213B
100
AcDbEntity
  8
ALPHA
100
AcDb2dPolyline
 66
     1
 10
0.0
 20
0.0
 30
0.0
  0
VERTEX
  5
213C
100
AcDbEntity
  8
ALPHA
100
AcDbVertex
100
AcDb2dVertex
 10
27.964284
 20
66.010252
 30
0.0
  0
VERTEX
  5
213D
100
AcDbEntity
  8
ALPHA
100
AcDbVertex
100
AcDb2dVertex
 10
26.758673
 20
67.167115
 30
0.0
  0
SEQEND
  5
213E
100
AcDbEntity
  8
ALPHA
  0
POLYLINE
  5
213F
100
AcDbEntity
  8
ALPHA
100
AcDb2dPolyline
 66
     1
 10
0.0
 20
0.0
 30
0.0
  0
VERTEX
  5
2140
100
AcDbEntity
  8
ALPHA
100
AcDbVertex
100
AcDb2dVertex
 10
40.972447
 20
53.737961
 30
0.0
  0
VERTEX
  5
2141
100
AcDbEntity
  8
ALPHA
100
AcDbVertex
100
AcDb2dVertex
 10
40.972447
 20
56.770334
 30
0.0
  0
SEQEND
  5
2142
100
AcDbEntity
  8
ALPHA
  0
POLYLINE
  5
2143
100
AcDbEntity
  8
ALPHA
100
AcDb2dPolyline
 66
     1
 10
0.0
 20
0.0
 30
0.0
  0
VERTEX
  5
2144
100
AcDbEntity
  8
ALPHA
100
AcDbVertex
100
AcDb2dVertex
 10
46.971737
 20
53.737961
 30
0.0
  0
VERTEX
  5
2145
100
AcDbEntity
  8
ALPHA
100
AcDbVertex
100
AcDb2dVertex
 10
46.956251
 20
54.044728
 30
0.0
  0
VERTEX
  5
2146
100
AcDbEntity
  8
ALPHA
100
AcDbVertex
100
AcDb2dVertex
 10
46.910798
 20
54.342618
 30
0.0
  0
VERTEX
  5
2147
100
AcDbEntity
  8
ALPHA
100
AcDbVertex
100
AcDb2dVertex
 10
46.836886
 20
54.630124
 30
0.0
  0
VERTEX
  5
2148
100
AcDbEntity
  8
ALPHA
100
AcDbVertex
100
AcDb2dVertex
 10
46.736022
 20
54.905741
 30
0.0
  0
VERTEX
  5
2149
100
AcDbEntity
  8
ALPHA
100
AcDbVertex
100
AcDb2dVertex
 10
46.609714
 20
55.167961
 30
0.0
  0
VERTEX
  5
214A
100
AcDbEntity
  8
ALPHA
100
AcDbVertex
100
AcDb2dVertex
 10
46.459468
 20
55.415281
 30
0.0
  0
VERTEX
  5
214B
100
AcDbEntity
  8
ALPHA
100
AcDbVertex
100
AcDb2dVertex
 10
46.286792
 20
55.646193
 30
0.0
  0
VERTEX
  5
214C
100
AcDbEntity
  8
ALPHA
100
AcDbVertex
100
AcDb2dVertex
 10
46.093194
 20
55.859192
 30
0.0
  0
VERTEX
  5
214D
100
AcDbEntity
  8
ALPHA
100
AcDbVertex
100
AcDb2dVertex
 10
45.880181
 20
56.052772
 30
0.0
  0
VERTEX
  5
214E
100
AcDbEntity
  8
ALPHA
100
AcDbVertex
100
AcDb2dVertex
 10
45.649261
 20
56.225427
 30
0.0
  0
VERTEX
  5
214F
100
AcDbEntity
  8
ALPHA
100
AcDbVertex
100
AcDb2dVertex
 10
45.40194
 20
56.375652
 30
0.0
  0
VERTEX
  5
2150
100
AcDbEntity
  8
ALPHA
100
AcDbVertex
100
AcDb2dVertex
 10
45.139726
 20
56.501939
 30
0.0
  0
VERTEX
  5
2151
100
AcDbEntity
  8
ALPHA
100
AcDbVertex
100
AcDb2dVertex
 10
44.864127
 20
56.602785
 30
0.0
  0
VERTEX
  5
2152
100
AcDbEntity
  8
ALPHA
100
AcDbVertex
100
AcDb2dVertex
 10
44.576651
 20
56.676681
 30
0.0
  0
VERTEX
  5
2153
100
AcDbEntity
  8
ALPHA
100
AcDbVertex
100
AcDb2dVertex
 10
44.278803
 20
56.722123
 30
0.0
  0
VERTEX
  5
2154
100
AcDbEntity
  8
ALPHA
100
AcDbVertex
100
AcDb2dVertex
 10
43.972092
 20
56.737606
 30
0.0
  0
SEQEND
  5
2155
100
AcDbEntity
  8
ALPHA
  0
POLYLINE
  5
2156
100
AcDbEntity
  8
ALPHA
100
AcDb2dPolyline
 66
     1
 10
0.0
 20
0.0
 30
0.0
  0
VERTEX
  5
2157
100
AcDbEntity
  8
ALPHA
100
AcDbVertex
100
AcDb2dVertex
 10
31.279671
 20
49.296544
 30
0.0
  0
VERTEX
  5
2158
100
AcDbEntity
  8
ALPHA
100
AcDbVertex
100
AcDb2dVertex
 10
32.769847
 20
50.830989
 30
0.0
  0
SEQEND
  5
2159
100
AcDbEntity
  8
ALPHA
  0
POLYLINE
  5
215A
100
AcDbEntity
  8
ALPHA
100
AcDb2dPolyline
 66
     1
 10
0.0
 20
0.0
 30
0.0
  0
VERTEX
  5
215B
100
AcDbEntity
  8
ALPHA
100
AcDbVertex
100
AcDb2dVertex
 10
35.215176
 20
49.795394
 30
0.0
  0
VERTEX
  5
215C
100
AcDbEntity
  8
ALPHA
100
AcDbVertex
100
AcDb2dVertex
 10
34.593164
 20
49.098795
 30
0.0
  0
SEQEND
  5
215D
100
AcDbEntity
  8
ALPHA
  0
POLYLINE
  5
215E
100
AcDbEntity
  8
ALPHA
100
AcDb2dPolyline
 66
     1
 10
0.0
 20
0.0
 30
0.0
  0
VERTEX
  5
215F
100
AcDbEntity
  8
ALPHA
100
AcDbVertex
100
AcDb2dVertex
 10
34.593164
 20
49.098795
 30
0.0
  0
VERTEX
  5
2160
100
AcDbEntity
  8
ALPHA
100
AcDbVertex
100
AcDb2dVertex
 10
33.511749
 20
50.137147
 30
0.0
  0
SEQEND
  5
2161
100
AcDbEntity
  8
ALPHA
  0
POLYLINE
  5
2162
100
AcDbEntity
  8
ALPHA
100
AcDb2dPolyline
 66
     1
 10
0.0
 20
0.0
 30
0.0
  0
VERTEX
  5
2163
100
AcDbEntity
  8
ALPHA
100
AcDbVertex
100
AcDb2dVertex
 10
33.511749
 20
50.137147
 30
0.0
  0
VERTEX
  5
2164
100
AcDbEntity
  8
ALPHA
100
AcDbVertex
100
AcDb2dVertex
 10
31.944402
 20
48.600635
 30
0.0
  0
SEQEND
  5
2165
100
AcDbEntity
  8
ALPHA
  0
POLYLINE
  5
2166
100
AcDbEntity
  8
ALPHA
100
AcDb2dPolyline
 66
     1
 10
0.0
 20
0.0
 30
0.0
  0
VERTEX
  5
2167
100
AcDbEntity
  8
ALPHA
100
AcDbVertex
100
AcDb2dVertex
 10
33.456455
 20
48.076291
 30
0.0
  0
VERTEX
  5
2168
100
AcDbEntity
  8
ALPHA
100
AcDbVertex
100
AcDb2dVertex
 10
33.734497
 20
48.090331
 30
0.0
  0
VERTEX
  5
2169
100
AcDbEntity
  8
ALPHA
100
AcDbVertex
100
AcDb2dVertex
 10
34.004503
 20
48.131539
 30
0.0
  0
VERTEX
  5
216A
100
AcDbEntity
  8
ALPHA
100
AcDbVertex
100
AcDb2dVertex
 10
34.265106
 20
48.198549
 30
0.0
  0
VERTEX
  5
216B
100
AcDbEntity
  8
ALPHA
100
AcDbVertex
100
AcDb2dVertex
 10
34.514942
 20
48.289995
 30
0.0
  0
VERTEX
  5
216C
100
AcDbEntity
  8
ALPHA
100
AcDbVertex
100
AcDb2dVertex
 10
34.752642
 20
48.404509
 30
0.0
  0
VERTEX
  5
216D
100
AcDbEntity
  8
ALPHA
100
AcDbVertex
100
AcDb2dVertex
 10
34.976841
 20
48.540725
 30
0.0
  0
VERTEX
  5
216E
100
AcDbEntity
  8
ALPHA
100
AcDbVertex
100
AcDb2dVertex
 10
35.186173
 20
48.697276
 30
0.0
  0
VERTEX
  5
216F
100
AcDbEntity
  8
ALPHA
100
AcDbVertex
100
AcDb2dVertex
 10
35.37927
 20
48.872797
 30
0.0
  0
VERTEX
  5
2170
100
AcDbEntity
  8
ALPHA
100
AcDbVertex
100
AcDb2dVertex
 10
35.554768
 20
49.06592
 30
0.0
  0
VERTEX
  5
2171
100
AcDbEntity
  8
ALPHA
100
AcDbVertex
100
AcDb2dVertex
 10
35.711298
 20
49.275278
 30
0.0
  0
VERTEX
  5
2172
100
AcDbEntity
  8
ALPHA
100
AcDbVertex
100
AcDb2dVertex
 10
35.847496
 20
49.499506
 30
0.0
  0
VERTEX
  5
2173
100
AcDbEntity
  8
ALPHA
100
AcDbVertex
100
AcDb2dVertex
 10
35.961995
 20
49.737236
 30
0.0
  0
VERTEX
  5
2174
100
AcDbEntity
  8
ALPHA
100
AcDbVertex
100
AcDb2dVertex
 10
36.053428
 20
49.987102
 30
0.0
  0
VERTEX
  5
2175
100
AcDbEntity
  8
ALPHA
100
AcDbVertex
100
AcDb2dVertex
 10
36.120428
 20
50.247737
 30
0.0
  0
VERTEX
  5
2176
100
AcDbEntity
  8
ALPHA
100
AcDbVertex
100
AcDb2dVertex
 10
36.161631
 20
50.517775
 30
0.0
  0
VERTEX
  5
2177
100
AcDbEntity
  8
ALPHA
100
AcDbVertex
100
AcDb2dVertex
 10
36.175669
 20
50.795849
 30
0.0
  0
VERTEX
  5
2178
100
AcDbEntity
  8
ALPHA
100
AcDbVertex
100
AcDb2dVertex
 10
36.161631
 20
51.073923
 30
0.0
  0
VERTEX
  5
2179
100
AcDbEntity
  8
ALPHA
100
AcDbVertex
100
AcDb2dVertex
 10
36.120428
 20
51.343961
 30
0.0
  0
VERTEX
  5
217A
100
AcDbEntity
  8
ALPHA
100
AcDbVertex
100
AcDb2dVertex
 10
36.053428
 20
51.604597
 30
0.0
  0
VERTEX
  5
217B
100
AcDbEntity
  8
ALPHA
100
AcDbVertex
100
AcDb2dVertex
 10
35.961995
 20
51.854463
 30
0.0
  0
VERTEX
  5
217C
100
AcDbEntity
  8
ALPHA
100
AcDbVertex
100
AcDb2dVertex
 10
35.847496
 20
52.092193
 30
0.0
  0
VERTEX
  5
217D
100
AcDbEntity
  8
ALPHA
100
AcDbVertex
100
AcDb2dVertex
 10
35.711298
 20
52.31642
 30
0.0
  0
VERTEX
  5
217E
100
AcDbEntity
  8
ALPHA
100
AcDbVertex
100
AcDb2dVertex
 10
35.554768
 20
52.525779
 30
0.0
  0
VERTEX
  5
217F
100
AcDbEntity
  8
ALPHA
100
AcDbVertex
100
AcDb2dVertex
 10
35.37927
 20
52.718902
 30
0.0
  0
VERTEX
  5
2180
100
AcDbEntity
  8
ALPHA
100
AcDbVertex
100
AcDb2dVertex
 10
35.186173
 20
52.894422
 30
0.0
  0
VERTEX
  5
2181
100
AcDbEntity
  8
ALPHA
100
AcDbVertex
100
AcDb2dVertex
 10
34.976841
 20
53.050974
 30
0.0
  0
VERTEX
  5
2182
100
AcDbEntity
  8
ALPHA
100
AcDbVertex
100
AcDb2dVertex
 10
34.752642
 20
53.18719
 30
0.0
  0
VERTEX
  5
2183
100
AcDbEntity
  8
ALPHA
100
AcDbVertex
100
AcDb2dVertex
 10
34.514942
 20
53.301704
 30
0.0
  0
VERTEX
  5
2184
100
AcDbEntity
  8
ALPHA
100
AcDbVertex
100
AcDb2dVertex
 10
34.265106
 20
53.39315
 30
0.0
  0
VERTEX
  5
2185
100
AcDbEntity
  8
ALPHA
100
AcDbVertex
100
AcDb2dVertex
 10
34.004503
 20
53.46016
 30
0.0
  0
VERTEX
  5
2186
100
AcDbEntity
  8
ALPHA
100
AcDbVertex
100
AcDb2dVertex
 10
33.734497
 20
53.501368
 30
0.0
  0
VERTEX
  5
2187
100
AcDbEntity
  8
ALPHA
100
AcDbVertex
100
AcDb2dVertex
 10
33.456455
 20
53.515408
 30
0.0
  0
VERTEX
  5
2188
100
AcDbEntity
  8
ALPHA
100
AcDbVertex
100
AcDb2dVertex
 10
33.178445
 20
53.501368
 30
0.0
  0
VERTEX
  5
2189
100
AcDbEntity
  8
ALPHA
100
AcDbVertex
100
AcDb2dVertex
 10
32.908471
 20
53.46016
 30
0.0
  0
VERTEX
  5
218A
100
AcDbEntity
  8
ALPHA
100
AcDbVertex
100
AcDb2dVertex
 10
32.647899
 20
53.39315
 30
0.0
  0
VERTEX
  5
218B
100
AcDbEntity
  8
ALPHA
100
AcDbVertex
100
AcDb2dVertex
 10
32.398095
 20
53.301704
 30
0.0
  0
VERTEX
  5
218C
100
AcDbEntity
  8
ALPHA
100
AcDbVertex
100
AcDb2dVertex
 10
32.160424
 20
53.18719
 30
0.0
  0
VERTEX
  5
218D
100
AcDbEntity
  8
ALPHA
100
AcDbVertex
100
AcDb2dVertex
 10
31.936253
 20
53.050974
 30
0.0
  0
VERTEX
  5
218E
100
AcDbEntity
  8
ALPHA
100
AcDbVertex
100
AcDb2dVertex
 10
31.726949
 20
52.894422
 30
0.0
  0
VERTEX
  5
218F
100
AcDbEntity
  8
ALPHA
100
AcDbVertex
100
AcDb2dVertex
 10
31.533876
 20
52.718902
 30
0.0
  0
VERTEX
  5
2190
100
AcDbEntity
  8
ALPHA
100
AcDbVertex
100
AcDb2dVertex
 10
31.358402
 20
52.525779
 30
0.0
  0
VERTEX
  5
2191
100
AcDbEntity
  8
ALPHA
100
AcDbVertex
100
AcDb2dVertex
 10
31.201892
 20
52.31642
 30
0.0
  0
VERTEX
  5
2192
100
AcDbEntity
  8
ALPHA
100
AcDbVertex
100
AcDb2dVertex
 10
31.065713
 20
52.092193
 30
0.0
  0
VERTEX
  5
2193
100
AcDbEntity
  8
ALPHA
100
AcDbVertex
100
AcDb2dVertex
 10
30.95123
 20
51.854463
 30
0.0
  0
VERTEX
  5
2194
100
AcDbEntity
  8
ALPHA
100
AcDbVertex
100
AcDb2dVertex
 10
30.85981
 20
51.604597
 30
0.0
  0
VERTEX
  5
2195
100
AcDbEntity
  8
ALPHA
100
AcDbVertex
100
AcDb2dVertex
 10
30.792818
 20
51.343961
 30
0.0
  0
VERTEX
  5
2196
100
AcDbEntity
  8
ALPHA
100
AcDbVertex
100
AcDb2dVertex
 10
30.751621
 20
51.073923
 30
0.0
  0
VERTEX
  5
2197
100
AcDbEntity
  8
ALPHA
100
AcDbVertex
100
AcDb2dVertex
 10
30.737586
 20
50.795849
 30
0.0
  0
VERTEX
  5
2198
100
AcDbEntity
  8
ALPHA
100
AcDbVertex
100
AcDb2dVertex
 10
30.751621
 20
50.517775
 30
0.0
  0
VERTEX
  5
2199
100
AcDbEntity
  8
ALPHA
100
AcDbVertex
100
AcDb2dVertex
 10
30.792818
 20
50.247737
 30
0.0
  0
VERTEX
  5
219A
100
AcDbEntity
  8
ALPHA
100
AcDbVertex
100
AcDb2dVertex
 10
30.85981
 20
49.987102
 30
0.0
  0
VERTEX
  5
219B
100
AcDbEntity
  8
ALPHA
100
AcDbVertex
100
AcDb2dVertex
 10
30.95123
 20
49.737236
 30
0.0
  0
VERTEX
  5
219C
100
AcDbEntity
  8
ALPHA
100
AcDbVertex
100
AcDb2dVertex
 10
31.065713
 20
49.499506
 30
0.0
  0
VERTEX
  5
219D
100
AcDbEntity
  8
ALPHA
100
AcDbVertex
100
AcDb2dVertex
 10
31.201892
 20
49.275278
 30
0.0
  0
VERTEX
  5
219E
100
AcDbEntity
  8
ALPHA
100
AcDbVertex
100
AcDb2dVertex
 10
31.358402
 20
49.06592
 30
0.0
  0
VERTEX
  5
219F
100
AcDbEntity
  8
ALPHA
100
AcDbVertex
100
AcDb2dVertex
 10
31.533876
 20
48.872797
 30
0.0
  0
VERTEX
  5
21A0
100
AcDbEntity
  8
ALPHA
100
AcDbVertex
100
AcDb2dVertex
 10
31.726949
 20
48.697276
 30
0.0
  0
VERTEX
  5
21A1
100
AcDbEntity
  8
ALPHA
100
AcDbVertex
100
AcDb2dVertex
 10
31.936253
 20
48.540725
 30
0.0
  0
VERTEX
  5
21A2
100
AcDbEntity
  8
ALPHA
100
AcDbVertex
100
AcDb2dVertex
 10
32.160424
 20
48.404509
 30
0.0
  0
VERTEX
  5
21A3
100
AcDbEntity
  8
ALPHA
100
AcDbVertex
100
AcDb2dVertex
 10
32.398095
 20
48.289995
 30
0.0
  0
VERTEX
  5
21A4
100
AcDbEntity
  8
ALPHA
100
AcDbVertex
100
AcDb2dVertex
 10
32.647899
 20
48.198549
 30
0.0
  0
VERTEX
  5
21A5
100
AcDbEntity
  8
ALPHA
100
AcDbVertex
100
AcDb2dVertex
 10
32.908471
 20
48.131539
 30
0.0
  0
VERTEX
  5
21A6
100
AcDbEntity
  8
ALPHA
100
AcDbVertex
100
AcDb2dVertex
 10
33.178445
 20
48.090331
 30
0.0
  0
VERTEX
  5
21A7
100
AcDbEntity
  8
ALPHA
100
AcDbVertex
100
AcDb2dVertex
 10
33.456455
 20
48.076291
 30
0.0
  0
SEQEND
  5
21A8
100
AcDbEntity
  8
ALPHA
  0
POLYLINE
  5
21A9
100
AcDbEntity
  8
ALPHA
100
AcDb2dPolyline
 66
     1
 10
0.0
 20
0.0
 30
0.0
  0
VERTEX
  5
21AA
100
AcDbEntity
  8
ALPHA
100
AcDbVertex
100
AcDb2dVertex
 10
33.472475
 20
47.789659
 30
0.0
  0
VERTEX
  5
21AB
100
AcDbEntity
  8
ALPHA
100
AcDbVertex
100
AcDb2dVertex
 10
33.779218
 20
47.805145
 30
0.0
  0
VERTEX
  5
21AC
100
AcDbEntity
  8
ALPHA
100
AcDbVertex
100
AcDb2dVertex
 10
34.077097
 20
47.850597
 30
0.0
  0
VERTEX
  5
21AD
100
AcDbEntity
  8
ALPHA
100
AcDbVertex
100
AcDb2dVertex
 10
34.364606
 20
47.924507
 30
0.0
  0
VERTEX
  5
21AE
100
AcDbEntity
  8
ALPHA
100
AcDbVertex
100
AcDb2dVertex
 10
34.640235
 20
48.025368
 30
0.0
  0
VERTEX
  5
21AF
100
AcDbEntity
  8
ALPHA
100
AcDbVertex
100
AcDb2dVertex
 10
34.902479
 20
48.151672
 30
0.0
  0
VERTEX
  5
21B0
100
AcDbEntity
  8
ALPHA
100
AcDbVertex
100
AcDb2dVertex
 10
35.149828
 20
48.30191
 30
0.0
  0
VERTEX
  5
21B1
100
AcDbEntity
  8
ALPHA
100
AcDbVertex
100
AcDb2dVertex
 10
35.380776
 20
48.474575
 30
0.0
  0
VERTEX
  5
21B2
100
AcDbEntity
  8
ALPHA
100
AcDbVertex
100
AcDb2dVertex
 10
35.593814
 20
48.668158
 30
0.0
  0
VERTEX
  5
21B3
100
AcDbEntity
  8
ALPHA
100
AcDbVertex
100
AcDb2dVertex
 10
35.787435
 20
48.881153
 30
0.0
  0
VERTEX
  5
21B4
100
AcDbEntity
  8
ALPHA
100
AcDbVertex
100
AcDb2dVertex
 10
35.960131
 20
49.112051
 30
0.0
  0
VERTEX
  5
21B5
100
AcDbEntity
  8
ALPHA
100
AcDbVertex
100
AcDb2dVertex
 10
36.110395
 20
49.359344
 30
0.0
  0
VERTEX
  5
21B6
100
AcDbEntity
  8
ALPHA
100
AcDbVertex
100
AcDb2dVertex
 10
36.23672
 20
49.621524
 30
0.0
  0
VERTEX
  5
21B7
100
AcDbEntity
  8
ALPHA
100
AcDbVertex
100
AcDb2dVertex
 10
36.337596
 20
49.897083
 30
0.0
  0
VERTEX
  5
21B8
100
AcDbEntity
  8
ALPHA
100
AcDbVertex
100
AcDb2dVertex
 10
36.411518
 20
50.184514
 30
0.0
  0
VERTEX
  5
21B9
100
AcDbEntity
  8
ALPHA
100
AcDbVertex
100
AcDb2dVertex
 10
36.456976
 20
50.482309
 30
0.0
  0
VERTEX
  5
21BA
100
AcDbEntity
  8
ALPHA
100
AcDbVertex
100
AcDb2dVertex
 10
36.472464
 20
50.788959
 30
0.0
  0
VERTEX
  5
21BB
100
AcDbEntity
  8
ALPHA
100
AcDbVertex
100
AcDb2dVertex
 10
36.456976
 20
51.095674
 30
0.0
  0
VERTEX
  5
21BC
100
AcDbEntity
  8
ALPHA
100
AcDbVertex
100
AcDb2dVertex
 10
36.411518
 20
51.393532
 30
0.0
  0
VERTEX
  5
21BD
100
AcDbEntity
  8
ALPHA
100
AcDbVertex
100
AcDb2dVertex
 10
36.337596
 20
51.681026
 30
0.0
  0
VERTEX
  5
21BE
100
AcDbEntity
  8
ALPHA
100
AcDbVertex
100
AcDb2dVertex
 10
36.23672
 20
51.956647
 30
0.0
  0
VERTEX
  5
21BF
100
AcDbEntity
  8
ALPHA
100
AcDbVertex
100
AcDb2dVertex
 10
36.110395
 20
52.218887
 30
0.0
  0
VERTEX
  5
21C0
100
AcDbEntity
  8
ALPHA
100
AcDbVertex
100
AcDb2dVertex
 10
35.960131
 20
52.466237
 30
0.0
  0
VERTEX
  5
21C1
100
AcDbEntity
  8
ALPHA
100
AcDbVertex
100
AcDb2dVertex
 10
35.787435
 20
52.697189
 30
0.0
  0
VERTEX
  5
21C2
100
AcDbEntity
  8
ALPHA
100
AcDbVertex
100
AcDb2dVertex
 10
35.593814
 20
52.910234
 30
0.0
  0
VERTEX
  5
21C3
100
AcDbEntity
  8
ALPHA
100
AcDbVertex
100
AcDb2dVertex
 10
35.380776
 20
53.103864
 30
0.0
  0
VERTEX
  5
21C4
100
AcDbEntity
  8
ALPHA
100
AcDbVertex
100
AcDb2dVertex
 10
35.149828
 20
53.27657
 30
0.0
  0
VERTEX
  5
21C5
100
AcDbEntity
  8
ALPHA
100
AcDbVertex
100
AcDb2dVertex
 10
34.902479
 20
53.426845
 30
0.0
  0
VERTEX
  5
21C6
100
AcDbEntity
  8
ALPHA
100
AcDbVertex
100
AcDb2dVertex
 10
34.640235
 20
53.55318
 30
0.0
  0
VERTEX
  5
21C7
100
AcDbEntity
  8
ALPHA
100
AcDbVertex
100
AcDb2dVertex
 10
34.364606
 20
53.654066
 30
0.0
  0
VERTEX
  5
21C8
100
AcDbEntity
  8
ALPHA
100
AcDbVertex
100
AcDb2dVertex
 10
34.077097
 20
53.727995
 30
0.0
  0
VERTEX
  5
21C9
100
AcDbEntity
  8
ALPHA
100
AcDbVertex
100
AcDb2dVertex
 10
33.779218
 20
53.773459
 30
0.0
  0
VERTEX
  5
21CA
100
AcDbEntity
  8
ALPHA
100
AcDbVertex
100
AcDb2dVertex
 10
33.472475
 20
53.788948
 30
0.0
  0
VERTEX
  5
21CB
100
AcDbEntity
  8
ALPHA
100
AcDbVertex
100
AcDb2dVertex
 10
33.165788
 20
53.773459
 30
0.0
  0
VERTEX
  5
21CC
100
AcDbEntity
  8
ALPHA
100
AcDbVertex
100
AcDb2dVertex
 10
32.867951
 20
53.727995
 30
0.0
  0
VERTEX
  5
21CD
100
AcDbEntity
  8
ALPHA
100
AcDbVertex
100
AcDb2dVertex
 10
32.580471
 20
53.654066
 30
0.0
  0
VERTEX
  5
21CE
100
AcDbEntity
  8
ALPHA
100
AcDbVertex
100
AcDb2dVertex
 10
32.304859
 20
53.55318
 30
0.0
  0
VERTEX
  5
21CF
100
AcDbEntity
  8
ALPHA
100
AcDbVertex
100
AcDb2dVertex
 10
32.042623
 20
53.426845
 30
0.0
  0
VERTEX
  5
21D0
100
AcDbEntity
  8
ALPHA
100
AcDbVertex
100
AcDb2dVertex
 10
31.795273
 20
53.27657
 30
0.0
  0
VERTEX
  5
21D1
100
AcDbEntity
  8
ALPHA
100
AcDbVertex
100
AcDb2dVertex
 10
31.564317
 20
53.103864
 30
0.0
  0
VERTEX
  5
21D2
100
AcDbEntity
  8
ALPHA
100
AcDbVertex
100
AcDb2dVertex
 10
31.351265
 20
52.910234
 30
0.0
  0
VERTEX
  5
21D3
100
AcDbEntity
  8
ALPHA
100
AcDbVertex
100
AcDb2dVertex
 10
31.157626
 20
52.697189
 30
0.0
  0
VERTEX
  5
21D4
100
AcDbEntity
  8
ALPHA
100
AcDbVertex
100
AcDb2dVertex
 10
30.984909
 20
52.466237
 30
0.0
  0
VERTEX
  5
21D5
100
AcDbEntity
  8
ALPHA
100
AcDbVertex
100
AcDb2dVertex
 10
30.834623
 20
52.218887
 30
0.0
  0
VERTEX
  5
21D6
100
AcDbEntity
  8
ALPHA
100
AcDbVertex
100
AcDb2dVertex
 10
30.708278
 20
51.956647
 30
0.0
  0
VERTEX
  5
21D7
100
AcDbEntity
  8
ALPHA
100
AcDbVertex
100
AcDb2dVertex
 10
30.607383
 20
51.681026
 30
0.0
  0
VERTEX
  5
21D8
100
AcDbEntity
  8
ALPHA
100
AcDbVertex
100
AcDb2dVertex
 10
30.533446
 20
51.393532
 30
0.0
  0
VERTEX
  5
21D9
100
AcDbEntity
  8
ALPHA
100
AcDbVertex
100
AcDb2dVertex
 10
30.487977
 20
51.095674
 30
0.0
  0
VERTEX
  5
21DA
100
AcDbEntity
  8
ALPHA
100
AcDbVertex
100
AcDb2dVertex
 10
30.472485
 20
50.788959
 30
0.0
  0
VERTEX
  5
21DB
100
AcDbEntity
  8
ALPHA
100
AcDbVertex
100
AcDb2dVertex
 10
30.487977
 20
50.482309
 30
0.0
  0
VERTEX
  5
21DC
100
AcDbEntity
  8
ALPHA
100
AcDbVertex
100
AcDb2dVertex
 10
30.533446
 20
50.184514
 30
0.0
  0
VERTEX
  5
21DD
100
AcDbEntity
  8
ALPHA
100
AcDbVertex
100
AcDb2dVertex
 10
30.607383
 20
49.897083
 30
0.0
  0
VERTEX
  5
21DE
100
AcDbEntity
  8
ALPHA
100
AcDbVertex
100
AcDb2dVertex
 10
30.708278
 20
49.621524
 30
0.0
  0
VERTEX
  5
21DF
100
AcDbEntity
  8
ALPHA
100
AcDbVertex
100
AcDb2dVertex
 10
30.834623
 20
49.359344
 30
0.0
  0
VERTEX
  5
21E0
100
AcDbEntity
  8
ALPHA
100
AcDbVertex
100
AcDb2dVertex
 10
30.984909
 20
49.112051
 30
0.0
  0
VERTEX
  5
21E1
100
AcDbEntity
  8
ALPHA
100
AcDbVertex
100
AcDb2dVertex
 10
31.157626
 20
48.881153
 30
0.0
  0
VERTEX
  5
21E2
100
AcDbEntity
  8
ALPHA
100
AcDbVertex
100
AcDb2dVertex
 10
31.351265
 20
48.668158
 30
0.0
  0
VERTEX
  5
21E3
100
AcDbEntity
  8
ALPHA
100
AcDbVertex
100
AcDb2dVertex
 10
31.564317
 20
48.474575
 30
0.0
  0
VERTEX
  5
21E4
100
AcDbEntity
  8
ALPHA
100
AcDbVertex
100
AcDb2dVertex
 10
31.795273
 20
48.30191
 30
0.0
  0
VERTEX
  5
21E5
100
AcDbEntity
  8
ALPHA
100
AcDbVertex
100
AcDb2dVertex
 10
32.042623
 20
48.151672
 30
0.0
  0
VERTEX
  5
21E6
100
AcDbEntity
  8
ALPHA
100
AcDbVertex
100
AcDb2dVertex
 10
32.304859
 20
48.025368
 30
0.0
  0
VERTEX
  5
21E7
100
AcDbEntity
  8
ALPHA
100
AcDbVertex
100
AcDb2dVertex
 10
32.580471
 20
47.924507
 30
0.0
  0
VERTEX
  5
21E8
100
AcDbEntity
  8
ALPHA
100
AcDbVertex
100
AcDb2dVertex
 10
32.867951
 20
47.850597
 30
0.0
  0
VERTEX
  5
21E9
100
AcDbEntity
  8
ALPHA
100
AcDbVertex
100
AcDb2dVertex
 10
33.165788
 20
47.805145
 30
0.0
  0
VERTEX
  5
21EA
100
AcDbEntity
  8
ALPHA
100
AcDbVertex
100
AcDb2dVertex
 10
33.472475
 20
47.789659
 30
0.0
  0
SEQEND
  5
21EB
100
AcDbEntity
  8
ALPHA
  0
POLYLINE
  5
21EC
100
AcDbEntity
  8
ALPHA
100
AcDb3dPolyline
 66
     1
 10
0.0
 20
0.0
 30
0.0
 70
     8
  0
VERTEX
  5
21ED
100
AcDbEntity
  8
ALPHA
100
AcDbVertex
100
AcDb3dPolylineVertex
 10
33.456455
 20
48.076291
 30
0.0
 70
    32
  0
VERTEX
  5
21EE
100
AcDbEntity
  8
ALPHA
100
AcDbVertex
100
AcDb3dPolylineVertex
 10
33.456455
 20
48.076291
 30
0.0
 70
    32
  0
SEQEND
  5
21EF
100
AcDbEntity
  8
ALPHA
  0
POLYLINE
  5
21F0
100
AcDbEntity
  8
ALPHA
100
AcDb3dPolyline
 66
     1
 10
0.0
 20
0.0
 30
0.0
 70
     8
  0
VERTEX
  5
21F1
100
AcDbEntity
  8
ALPHA
100
AcDbVertex
100
AcDb3dPolylineVertex
 10
33.472475
 20
47.789659
 30
0.0
 70
    32
  0
VERTEX
  5
21F2
100
AcDbEntity
  8
ALPHA
100
AcDbVertex
100
AcDb3dPolylineVertex
 10
33.472475
 20
47.789659
 30
0.0
 70
    32
  0
SEQEND
  5
21F3
100
AcDbEntity
  8
ALPHA
  0
POLYLINE
  5
21F4
100
AcDbEntity
  8
ALPHA
100
AcDb2dPolyline
 66
     1
 10
0.0
 20
0.0
 30
0.0
  0
VERTEX
  5
21F5
100
AcDbEntity
  8
ALPHA
100
AcDbVertex
100
AcDb2dVertex
 10
33.468168
 20
51.530344
 30
0.0
  0
VERTEX
  5
21F6
100
AcDbEntity
  8
ALPHA
100
AcDbVertex
100
AcDb2dVertex
 10
34.985905
 20
53.0045
 30
0.0
  0
SEQEND
  5
21F7
100
AcDbEntity
  8
ALPHA
  0
POLYLINE
  5
21F8
100
AcDbEntity
  8
ALPHA
100
AcDb2dPolyline
 66
     1
 10
0.0
 20
0.0
 30
0.0
  0
VERTEX
  5
21F9
100
AcDbEntity
  8
ALPHA
100
AcDbVertex
100
AcDb2dVertex
 10
35.608262
 20
52.395063
 30
0.0
  0
VERTEX
  5
21FA
100
AcDbEntity
  8
ALPHA
100
AcDbVertex
100
AcDb2dVertex
 10
34.127043
 20
50.883355
 30
0.0
  0
SEQEND
  5
21FB
100
AcDbEntity
  8
ALPHA
  0
POLYLINE
  5
21FC
100
AcDbEntity
  8
ALPHA
100
AcDb2dPolyline
 66
     1
 10
0.0
 20
0.0
 30
0.0
  0
VERTEX
  5
21FD
100
AcDbEntity
  8
ALPHA
100
AcDbVertex
100
AcDb2dVertex
 10
34.127043
 20
50.883355
 30
0.0
  0
VERTEX
  5
21FE
100
AcDbEntity
  8
ALPHA
100
AcDbVertex
100
AcDb2dVertex
 10
35.215176
 20
49.795394
 30
0.0
  0
SEQEND
  5
21FF
100
AcDbEntity
  8
ALPHA
  0
POLYLINE
  5
2200
100
AcDbEntity
  8
ALPHA
100
AcDb2dPolyline
 66
     1
 10
0.0
 20
0.0
 30
0.0
  0
VERTEX
  5
2201
100
AcDbEntity
  8
ALPHA
100
AcDbVertex
100
AcDb2dVertex
 10
32.791724
 20
50.813764
 30
0.0
  0
VERTEX
  5
2202
100
AcDbEntity
  8
ALPHA
100
AcDbVertex
100
AcDb2dVertex
 10
31.802809
 20
51.801817
 30
0.0
  0
SEQEND
  5
2203
100
AcDbEntity
  8
ALPHA
  0
POLYLINE
  5
2204
100
AcDbEntity
  8
ALPHA
100
AcDb2dPolyline
 66
     1
 10
0.0
 20
0.0
 30
0.0
  0
VERTEX
  5
2205
100
AcDbEntity
  8
ALPHA
100
AcDbVertex
100
AcDb2dVertex
 10
31.802809
 20
51.801817
 30
0.0
  0
VERTEX
  5
2206
100
AcDbEntity
  8
ALPHA
100
AcDbVertex
100
AcDb2dVertex
 10
32.469091
 20
52.49876
 30
0.0
  0
SEQEND
  5
2207
100
AcDbEntity
  8
ALPHA
  0
POLYLINE
  5
2208
100
AcDbEntity
  8
ALPHA
100
AcDb2dPolyline
 66
     1
 10
0.0
 20
0.0
 30
0.0
  0
VERTEX
  5
2209
100
AcDbEntity
  8
ALPHA
100
AcDbVertex
100
AcDb2dVertex
 10
32.769847
 20
50.830989
 30
0.0
  0
VERTEX
  5
220A
100
AcDbEntity
  8
ALPHA
100
AcDbVertex
100
AcDb2dVertex
 10
32.791724
 20
50.813764
 30
0.0
  0
SEQEND
  5
220B
100
AcDbEntity
  8
ALPHA
  0
POLYLINE
  5
220C
100
AcDbEntity
  8
ALPHA
100
AcDb2dPolyline
 66
     1
 10
0.0
 20
0.0
 30
0.0
  0
VERTEX
  5
220D
100
AcDbEntity
  8
ALPHA
100
AcDbVertex
100
AcDb2dVertex
 10
32.469091
 20
52.49876
 30
0.0
  0
VERTEX
  5
220E
100
AcDbEntity
  8
ALPHA
100
AcDbVertex
100
AcDb2dVertex
 10
33.428894
 20
51.538267
 30
0.0
  0
SEQEND
  5
220F
100
AcDbEntity
  8
ALPHA
  0
POLYLINE
  5
2210
100
AcDbEntity
  8
ALPHA
100
AcDb2dPolyline
 66
     1
 10
0.0
 20
0.0
 30
0.0
  0
VERTEX
  5
2211
100
AcDbEntity
  8
ALPHA
100
AcDbVertex
100
AcDb2dVertex
 10
33.428894
 20
51.538267
 30
0.0
  0
VERTEX
  5
2212
100
AcDbEntity
  8
ALPHA
100
AcDbVertex
100
AcDb2dVertex
 10
33.468168
 20
51.530344
 30
0.0
  0
SEQEND
  5
2213
100
AcDbEntity
  8
ALPHA
  0
POLYLINE
  5
2214
100
AcDbEntity
  8
ALPHA
100
AcDb2dPolyline
 66
     1
 10
0.0
 20
0.0
 30
0.0
  0
VERTEX
  5
2215
100
AcDbEntity
  8
ALPHA
100
AcDbVertex
100
AcDb2dVertex
 10
43.972092
 20
50.738316
 30
0.0
  0
VERTEX
  5
2216
100
AcDbEntity
  8
ALPHA
100
AcDbVertex
100
AcDb2dVertex
 10
43.665381
 20
50.753806
 30
0.0
  0
VERTEX
  5
2217
100
AcDbEntity
  8
ALPHA
100
AcDbVertex
100
AcDb2dVertex
 10
43.367534
 20
50.799269
 30
0.0
  0
VERTEX
  5
2218
100
AcDbEntity
  8
ALPHA
100
AcDbVertex
100
AcDb2dVertex
 10
43.080057
 20
50.873196
 30
0.0
  0
VERTEX
  5
2219
100
AcDbEntity
  8
ALPHA
100
AcDbVertex
100
AcDb2dVertex
 10
42.804458
 20
50.974079
 30
0.0
  0
VERTEX
  5
221A
100
AcDbEntity
  8
ALPHA
100
AcDbVertex
100
AcDb2dVertex
 10
42.542244
 20
51.100409
 30
0.0
  0
VERTEX
  5
221B
100
AcDbEntity
  8
ALPHA
100
AcDbVertex
100
AcDb2dVertex
 10
42.294923
 20
51.250676
 30
0.0
  0
VERTEX
  5
221C
100
AcDbEntity
  8
ALPHA
100
AcDbVertex
100
AcDb2dVertex
 10
42.064003
 20
51.423372
 30
0.0
  0
VERTEX
  5
221D
100
AcDbEntity
  8
ALPHA
100
AcDbVertex
100
AcDb2dVertex
 10
41.85099
 20
51.616988
 30
0.0
  0
VERTEX
  5
221E
100
AcDbEntity
  8
ALPHA
100
AcDbVertex
100
AcDb2dVertex
 10
41.657392
 20
51.830015
 30
0.0
  0
VERTEX
  5
221F
100
AcDbEntity
  8
ALPHA
100
AcDbVertex
100
AcDb2dVertex
 10
41.484716
 20
52.060944
 30
0.0
  0
VERTEX
  5
2220
100
AcDbEntity
  8
ALPHA
100
AcDbVertex
100
AcDb2dVertex
 10
41.334471
 20
52.308266
 30
0.0
  0
VERTEX
  5
2221
100
AcDbEntity
  8
ALPHA
100
AcDbVertex
100
AcDb2dVertex
 10
41.208162
 20
52.570472
 30
0.0
  0
VERTEX
  5
2222
100
AcDbEntity
  8
ALPHA
100
AcDbVertex
100
AcDb2dVertex
 10
41.107298
 20
52.846053
 30
0.0
  0
VERTEX
  5
2223
100
AcDbEntity
  8
ALPHA
100
AcDbVertex
100
AcDb2dVertex
 10
41.033386
 20
53.133501
 30
0.0
  0
VERTEX
  5
2224
100
AcDbEntity
  8
ALPHA
100
AcDbVertex
100
AcDb2dVertex
 10
40.987933
 20
53.431307
 30
0.0
  0
VERTEX
  5
2225
100
AcDbEntity
  8
ALPHA
100
AcDbVertex
100
AcDb2dVertex
 10
40.972447
 20
53.737961
 30
0.0
  0
SEQEND
  5
2226
100
AcDbEntity
  8
ALPHA
  0
POLYLINE
  5
2227
100
AcDbEntity
  8
ALPHA
100
AcDb2dPolyline
 66
     1
 10
0.0
 20
0.0
 30
0.0
  0
VERTEX
  5
2228
100
AcDbEntity
  8
ALPHA
100
AcDbVertex
100
AcDb2dVertex
 10
43.972092
 20
52.326161
 30
0.0
  0
VERTEX
  5
2229
100
AcDbEntity
  8
ALPHA
100
AcDbVertex
100
AcDb2dVertex
 10
44.116482
 20
52.333451
 30
0.0
  0
VERTEX
  5
222A
100
AcDbEntity
  8
ALPHA
100
AcDbVertex
100
AcDb2dVertex
 10
44.256692
 20
52.354847
 30
0.0
  0
VERTEX
  5
222B
100
AcDbEntity
  8
ALPHA
100
AcDbVertex
100
AcDb2dVertex
 10
44.392013
 20
52.38964
 30
0.0
  0
VERTEX
  5
222C
100
AcDbEntity
  8
ALPHA
100
AcDbVertex
100
AcDb2dVertex
 10
44.521736
 20
52.43712
 30
0.0
  0
VERTEX
  5
222D
100
AcDbEntity
  8
ALPHA
100
AcDbVertex
100
AcDb2dVertex
 10
44.645152
 20
52.496576
 30
0.0
  0
VERTEX
  5
222E
100
AcDbEntity
  8
ALPHA
100
AcDbVertex
100
AcDb2dVertex
 10
44.761555
 20
52.567298
 30
0.0
  0
VERTEX
  5
222F
100
AcDbEntity
  8
ALPHA
100
AcDbVertex
100
AcDb2dVertex
 10
44.870234
 20
52.648577
 30
0.0
  0
VERTEX
  5
2230
100
AcDbEntity
  8
ALPHA
100
AcDbVertex
100
AcDb2dVertex
 10
44.970481
 20
52.739701
 30
0.0
  0
VERTEX
  5
2231
100
AcDbEntity
  8
ALPHA
100
AcDbVertex
100
AcDb2dVertex
 10
45.061588
 20
52.839963
 30
0.0
  0
VERTEX
  5
2232
100
AcDbEntity
  8
ALPHA
100
AcDbVertex
100
AcDb2dVertex
 10
45.142846
 20
52.94865
 30
0.0
  0
VERTEX
  5
2233
100
AcDbEntity
  8
ALPHA
100
AcDbVertex
100
AcDb2dVertex
 10
45.213547
 20
53.065053
 30
0.0
  0
VERTEX
  5
2234
100
AcDbEntity
  8
ALPHA
100
AcDbVertex
100
AcDb2dVertex
 10
45.272982
 20
53.188463
 30
0.0
  0
VERTEX
  5
2235
100
AcDbEntity
  8
ALPHA
100
AcDbVertex
100
AcDb2dVertex
 10
45.320442
 20
53.318168
 30
0.0
  0
VERTEX
  5
2236
100
AcDbEntity
  8
ALPHA
100
AcDbVertex
100
AcDb2dVertex
 10
45.35522
 20
53.45346
 30
0.0
  0
VERTEX
  5
2237
100
AcDbEntity
  8
ALPHA
100
AcDbVertex
100
AcDb2dVertex
 10
45.376606
 20
53.593627
 30
0.0
  0
VERTEX
  5
2238
100
AcDbEntity
  8
ALPHA
100
AcDbVertex
100
AcDb2dVertex
 10
45.383892
 20
53.737961
 30
0.0
  0
VERTEX
  5
2239
100
AcDbEntity
  8
ALPHA
100
AcDbVertex
100
AcDb2dVertex
 10
45.376606
 20
53.882351
 30
0.0
  0
VERTEX
  5
223A
100
AcDbEntity
  8
ALPHA
100
AcDbVertex
100
AcDb2dVertex
 10
45.35522
 20
54.022561
 30
0.0
  0
VERTEX
  5
223B
100
AcDbEntity
  8
ALPHA
100
AcDbVertex
100
AcDb2dVertex
 10
45.320442
 20
54.157881
 30
0.0
  0
VERTEX
  5
223C
100
AcDbEntity
  8
ALPHA
100
AcDbVertex
100
AcDb2dVertex
 10
45.272982
 20
54.287604
 30
0.0
  0
VERTEX
  5
223D
100
AcDbEntity
  8
ALPHA
100
AcDbVertex
100
AcDb2dVertex
 10
45.213547
 20
54.411021
 30
0.0
  0
VERTEX
  5
223E
100
AcDbEntity
  8
ALPHA
100
AcDbVertex
100
AcDb2dVertex
 10
45.142846
 20
54.527423
 30
0.0
  0
VERTEX
  5
223F
100
AcDbEntity
  8
ALPHA
100
AcDbVertex
100
AcDb2dVertex
 10
45.061588
 20
54.636102
 30
0.0
  0
VERTEX
  5
2240
100
AcDbEntity
  8
ALPHA
100
AcDbVertex
100
AcDb2dVertex
 10
44.970481
 20
54.73635
 30
0.0
  0
VERTEX
  5
2241
100
AcDbEntity
  8
ALPHA
100
AcDbVertex
100
AcDb2dVertex
 10
44.870234
 20
54.827457
 30
0.0
  0
VERTEX
  5
2242
100
AcDbEntity
  8
ALPHA
100
AcDbVertex
100
AcDb2dVertex
 10
44.761555
 20
54.908715
 30
0.0
  0
VERTEX
  5
2243
100
AcDbEntity
  8
ALPHA
100
AcDbVertex
100
AcDb2dVertex
 10
44.645152
 20
54.979416
 30
0.0
  0
VERTEX
  5
2244
100
AcDbEntity
  8
ALPHA
100
AcDbVertex
100
AcDb2dVertex
 10
44.521736
 20
55.03885
 30
0.0
  0
VERTEX
  5
2245
100
AcDbEntity
  8
ALPHA
100
AcDbVertex
100
AcDb2dVertex
 10
44.392013
 20
55.086311
 30
0.0
  0
VERTEX
  5
2246
100
AcDbEntity
  8
ALPHA
100
AcDbVertex
100
AcDb2dVertex
 10
44.256692
 20
55.121089
 30
0.0
  0
VERTEX
  5
2247
100
AcDbEntity
  8
ALPHA
100
AcDbVertex
100
AcDb2dVertex
 10
44.116482
 20
55.142475
 30
0.0
  0
VERTEX
  5
2248
100
AcDbEntity
  8
ALPHA
100
AcDbVertex
100
AcDb2dVertex
 10
43.972092
 20
55.149761
 30
0.0
  0
VERTEX
  5
2249
100
AcDbEntity
  8
ALPHA
100
AcDbVertex
100
AcDb2dVertex
 10
43.827751
 20
55.142475
 30
0.0
  0
VERTEX
  5
224A
100
AcDbEntity
  8
ALPHA
100
AcDbVertex
100
AcDb2dVertex
 10
43.687562
 20
55.121089
 30
0.0
  0
VERTEX
  5
224B
100
AcDbEntity
  8
ALPHA
100
AcDbVertex
100
AcDb2dVertex
 10
43.552236
 20
55.086311
 30
0.0
  0
VERTEX
  5
224C
100
AcDbEntity
  8
ALPHA
100
AcDbVertex
100
AcDb2dVertex
 10
43.422486
 20
55.03885
 30
0.0
  0
VERTEX
  5
224D
100
AcDbEntity
  8
ALPHA
100
AcDbVertex
100
AcDb2dVertex
 10
43.299025
 20
54.979416
 30
0.0
  0
VERTEX
  5
224E
100
AcDbEntity
  8
ALPHA
100
AcDbVertex
100
AcDb2dVertex
 10
43.182563
 20
54.908715
 30
0.0
  0
VERTEX
  5
224F
100
AcDbEntity
  8
ALPHA
100
AcDbVertex
100
AcDb2dVertex
 10
43.073813
 20
54.827457
 30
0.0
  0
VERTEX
  5
2250
100
AcDbEntity
  8
ALPHA
100
AcDbVertex
100
AcDb2dVertex
 10
42.973488
 20
54.73635
 30
0.0
  0
VERTEX
  5
2251
100
AcDbEntity
  8
ALPHA
100
AcDbVertex
100
AcDb2dVertex
 10
42.882299
 20
54.636102
 30
0.0
  0
VERTEX
  5
2252
100
AcDbEntity
  8
ALPHA
100
AcDbVertex
100
AcDb2dVertex
 10
42.800958
 20
54.527423
 30
0.0
  0
VERTEX
  5
2253
100
AcDbEntity
  8
ALPHA
100
AcDbVertex
100
AcDb2dVertex
 10
42.730178
 20
54.411021
 30
0.0
  0
VERTEX
  5
2254
100
AcDbEntity
  8
ALPHA
100
AcDbVertex
100
AcDb2dVertex
 10
42.67067
 20
54.287604
 30
0.0
  0
VERTEX
  5
2255
100
AcDbEntity
  8
ALPHA
100
AcDbVertex
100
AcDb2dVertex
 10
42.623146
 20
54.157881
 30
0.0
  0
VERTEX
  5
2256
100
AcDbEntity
  8
ALPHA
100
AcDbVertex
100
AcDb2dVertex
 10
42.588319
 20
54.022561
 30
0.0
  0
VERTEX
  5
2257
100
AcDbEntity
  8
ALPHA
100
AcDbVertex
100
AcDb2dVertex
 10
42.566901
 20
53.882351
 30
0.0
  0
VERTEX
  5
2258
100
AcDbEntity
  8
ALPHA
100
AcDbVertex
100
AcDb2dVertex
 10
42.559603
 20
53.737961
 30
0.0
  0
VERTEX
  5
2259
100
AcDbEntity
  8
ALPHA
100
AcDbVertex
100
AcDb2dVertex
 10
42.566901
 20
53.593627
 30
0.0
  0
VERTEX
  5
225A
100
AcDbEntity
  8
ALPHA
100
AcDbVertex
100
AcDb2dVertex
 10
42.588319
 20
53.45346
 30
0.0
  0
VERTEX
  5
225B
100
AcDbEntity
  8
ALPHA
100
AcDbVertex
100
AcDb2dVertex
 10
42.623146
 20
53.318168
 30
0.0
  0
VERTEX
  5
225C
100
AcDbEntity
  8
ALPHA
100
AcDbVertex
100
AcDb2dVertex
 10
42.67067
 20
53.188463
 30
0.0
  0
VERTEX
  5
225D
100
AcDbEntity
  8
ALPHA
100
AcDbVertex
100
AcDb2dVertex
 10
42.730178
 20
53.065053
 30
0.0
  0
VERTEX
  5
225E
100
AcDbEntity
  8
ALPHA
100
AcDbVertex
100
AcDb2dVertex
 10
42.800958
 20
52.94865
 30
0.0
  0
VERTEX
  5
225F
100
AcDbEntity
  8
ALPHA
100
AcDbVertex
100
AcDb2dVertex
 10
42.882299
 20
52.839963
 30
0.0
  0
VERTEX
  5
2260
100
AcDbEntity
  8
ALPHA
100
AcDbVertex
100
AcDb2dVertex
 10
42.973488
 20
52.739701
 30
0.0
  0
VERTEX
  5
2261
100
AcDbEntity
  8
ALPHA
100
AcDbVertex
100
AcDb2dVertex
 10
43.073813
 20
52.648577
 30
0.0
  0
VERTEX
  5
2262
100
AcDbEntity
  8
ALPHA
100
AcDbVertex
100
AcDb2dVertex
 10
43.182563
 20
52.567298
 30
0.0
  0
VERTEX
  5
2263
100
AcDbEntity
  8
ALPHA
100
AcDbVertex
100
AcDb2dVertex
 10
43.299025
 20
52.496576
 30
0.0
  0
VERTEX
  5
2264
100
AcDbEntity
  8
ALPHA
100
AcDbVertex
100
AcDb2dVertex
 10
43.422486
 20
52.43712
 30
0.0
  0
VERTEX
  5
2265
100
AcDbEntity
  8
ALPHA
100
AcDbVertex
100
AcDb2dVertex
 10
43.552236
 20
52.38964
 30
0.0
  0
VERTEX
  5
2266
100
AcDbEntity
  8
ALPHA
100
AcDbVertex
100
AcDb2dVertex
 10
43.687562
 20
52.354847
 30
0.0
  0
VERTEX
  5
2267
100
AcDbEntity
  8
ALPHA
100
AcDbVertex
100
AcDb2dVertex
 10
43.827751
 20
52.333451
 30
0.0
  0
VERTEX
  5
2268
100
AcDbEntity
  8
ALPHA
100
AcDbVertex
100
AcDb2dVertex
 10
43.972092
 20
52.326161
 30
0.0
  0
SEQEND
  5
2269
100
AcDbEntity
  8
ALPHA
  0
POLYLINE
  5
226A
100
AcDbEntity
  8
ALPHA
100
AcDb2dPolyline
 66
     1
 10
0.0
 20
0.0
 30
0.0
  0
VERTEX
  5
226B
100
AcDbEntity
  8
ALPHA
100
AcDbVertex
100
AcDb2dVertex
 10
47.00481
 20
50.738316
 30
0.0
  0
VERTEX
  5
226C
100
AcDbEntity
  8
ALPHA
100
AcDbVertex
100
AcDb2dVertex
 10
43.972092
 20
50.738316
 30
0.0
  0
SEQEND
  5
226D
100
AcDbEntity
  8
ALPHA
  0
POLYLINE
  5
226E
100
AcDbEntity
  8
ALPHA
100
AcDb3dPolyline
 66
     1
 10
0.0
 20
0.0
 30
0.0
 70
     8
  0
VERTEX
  5
226F
100
AcDbEntity
  8
ALPHA
100
AcDbVertex
100
AcDb3dPolylineVertex
 10
43.972092
 20
52.326161
 30
0.0
 70
    32
  0
VERTEX
  5
2270
100
AcDbEntity
  8
ALPHA
100
AcDbVertex
100
AcDb3dPolylineVertex
 10
43.972092
 20
52.326161
 30
0.0
 70
    32
  0
SEQEND
  5
2271
100
AcDbEntity
  8
ALPHA
  0
POLYLINE
  5
2272
100
AcDbEntity
  8
ALPHA
100
AcDb2dPolyline
 66
     1
 10
0.0
 20
0.0
 30
0.0
  0
VERTEX
  5
2273
100
AcDbEntity
  8
ALPHA
100
AcDbVertex
100
AcDb2dVertex
 10
31.060908
 20
61.775369
 30
0.0
  0
VERTEX
  5
2274
100
AcDbEntity
  8
ALPHA
100
AcDbVertex
100
AcDb2dVertex
 10
37.772643
 20
61.775369
 30
0.0
  0
SEQEND
  5
2275
100
AcDbEntity
  8
ALPHA
  0
POLYLINE
  5
2276
100
AcDbEntity
  8
ALPHA
100
AcDb2dPolyline
 66
     1
 10
0.0
 20
0.0
 30
0.0
  0
VERTEX
  5
2277
100
AcDbEntity
  8
ALPHA
100
AcDbVertex
100
AcDb2dVertex
 10
33.298153
 20
60.033184
 30
0.0
  0
VERTEX
  5
2278
100
AcDbEntity
  8
ALPHA
100
AcDbVertex
100
AcDb2dVertex
 10
33.298153
 20
58.719913
 30
0.0
  0
SEQEND
  5
2279
100
AcDbEntity
  8
ALPHA
  0
POLYLINE
  5
227A
100
AcDbEntity
  8
ALPHA
100
AcDb2dPolyline
 66
     1
 10
0.0
 20
0.0
 30
0.0
  0
VERTEX
  5
227B
100
AcDbEntity
  8
ALPHA
100
AcDbVertex
100
AcDb2dVertex
 10
30.962895
 20
60.033184
 30
0.0
  0
VERTEX
  5
227C
100
AcDbEntity
  8
ALPHA
100
AcDbVertex
100
AcDb2dVertex
 10
33.298153
 20
60.033184
 30
0.0
  0
SEQEND
  5
227D
100
AcDbEntity
  8
ALPHA
  0
POLYLINE
  5
227E
100
AcDbEntity
  8
ALPHA
100
AcDb2dPolyline
 66
     1
 10
0.0
 20
0.0
 30
0.0
  0
VERTEX
  5
227F
100
AcDbEntity
  8
ALPHA
100
AcDbVertex
100
AcDb2dVertex
 10
35.729873
 20
58.719913
 30
0.0
  0
VERTEX
  5
2280
100
AcDbEntity
  8
ALPHA
100
AcDbVertex
100
AcDb2dVertex
 10
35.729873
 20
60.033184
 30
0.0
  0
SEQEND
  5
2281
100
AcDbEntity
  8
ALPHA
  0
POLYLINE
  5
2282
100
AcDbEntity
  8
ALPHA
100
AcDb2dPolyline
 66
     1
 10
0.0
 20
0.0
 30
0.0
  0
VERTEX
  5
2283
100
AcDbEntity
  8
ALPHA
100
AcDbVertex
100
AcDb2dVertex
 10
35.729873
 20
60.033184
 30
0.0
  0
VERTEX
  5
2284
100
AcDbEntity
  8
ALPHA
100
AcDbVertex
100
AcDb2dVertex
 10
37.966946
 20
60.033184
 30
0.0
  0
SEQEND
  5
2285
100
AcDbEntity
  8
ALPHA
  0
POLYLINE
  5
2286
100
AcDbEntity
  8
ALPHA
100
AcDb2dPolyline
 66
     1
 10
0.0
 20
0.0
 30
0.0
  0
VERTEX
  5
2287
100
AcDbEntity
  8
ALPHA
100
AcDbVertex
100
AcDb2dVertex
 10
42.715666
 20
67.99945
 30
0.0
  0
VERTEX
  5
2288
100
AcDbEntity
  8
ALPHA
100
AcDbVertex
100
AcDb2dVertex
 10
43.928684
 20
66.786432
 30
0.0
  0
SEQEND
  5
2289
100
AcDbEntity
  8
ALPHA
  0
POLYLINE
  5
228A
100
AcDbEntity
  8
ALPHA
100
AcDb2dPolyline
 66
     1
 10
0.0
 20
0.0
 30
0.0
  0
VERTEX
  5
228B
100
AcDbEntity
  8
ALPHA
100
AcDbVertex
100
AcDb2dVertex
 10
43.235531
 20
66.010252
 30
0.0
  0
VERTEX
  5
228C
100
AcDbEntity
  8
ALPHA
100
AcDbVertex
100
AcDb2dVertex
 10
42.030436
 20
67.167115
 30
0.0
  0
SEQEND
  5
228D
100
AcDbEntity
  8
ALPHA
  0
POLYLINE
  5
228E
100
AcDbEntity
  8
ALPHA
100
AcDb3dPolyline
 66
     1
 10
0.0
 20
0.0
 30
0.0
 70
     8
  0
VERTEX
  5
228F
100
AcDbEntity
  8
ALPHA
100
AcDbVertex
100
AcDb3dPolylineVertex
 10
41.968769
 20
64.871304
 30
0.0
 70
    32
  0
VERTEX
  5
2290
100
AcDbEntity
  8
ALPHA
100
AcDbVertex
100
AcDb3dPolylineVertex
 10
41.968769
 20
64.871304
 30
0.0
 70
    32
  0
SEQEND
  5
2291
100
AcDbEntity
  8
ALPHA
  0
POLYLINE
  5
2292
100
AcDbEntity
  8
ALPHA
100
AcDb2dPolyline
 66
     1
 10
0.0
 20
0.0
 30
0.0
  0
VERTEX
  5
2293
100
AcDbEntity
  8
ALPHA
100
AcDbVertex
100
AcDb2dVertex
 10
39.542216
 20
66.231427
 30
0.0
  0
VERTEX
  5
2294
100
AcDbEntity
  8
ALPHA
100
AcDbVertex
100
AcDb2dVertex
 10
41.203441
 20
67.941228
 30
0.0
  0
SEQEND
  5
2295
100
AcDbEntity
  8
ALPHA
  0
POLYLINE
  5
2296
100
AcDbEntity
  8
ALPHA
100
AcDb2dPolyline
 66
     1
 10
0.0
 20
0.0
 30
0.0
  0
VERTEX
  5
2297
100
AcDbEntity
  8
ALPHA
100
AcDbVertex
100
AcDb2dVertex
 10
42.030436
 20
67.167115
 30
0.0
  0
VERTEX
  5
2298
100
AcDbEntity
  8
ALPHA
100
AcDbVertex
100
AcDb2dVertex
 10
40.283945
 20
65.454558
 30
0.0
  0
SEQEND
  5
2299
100
AcDbEntity
  8
ALPHA
  0
POLYLINE
  5
229A
100
AcDbEntity
  8
ALPHA
100
AcDb2dPolyline
 66
     1
 10
0.0
 20
0.0
 30
0.0
  0
VERTEX
  5
229B
100
AcDbEntity
  8
ALPHA
100
AcDbVertex
100
AcDb2dVertex
 10
41.203441
 20
67.941228
 30
0.0
  0
VERTEX
  5
229C
100
AcDbEntity
  8
ALPHA
100
AcDbVertex
100
AcDb2dVertex
 10
41.227729
 20
67.921591
 30
0.0
  0
SEQEND
  5
229D
100
AcDbEntity
  8
ALPHA
  0
POLYLINE
  5
229E
100
AcDbEntity
  8
ALPHA
100
AcDb2dPolyline
 66
     1
 10
0.0
 20
0.0
 30
0.0
  0
VERTEX
  5
229F
100
AcDbEntity
  8
ALPHA
100
AcDbVertex
100
AcDb2dVertex
 10
43.928684
 20
66.786432
 30
0.0
  0
VERTEX
  5
22A0
100
AcDbEntity
  8
ALPHA
100
AcDbVertex
100
AcDb2dVertex
 10
43.235531
 20
66.010252
 30
0.0
  0
SEQEND
  5
22A1
100
AcDbEntity
  8
ALPHA
  0
POLYLINE
  5
22A2
100
AcDbEntity
  8
ALPHA
100
AcDb2dPolyline
 66
     1
 10
0.0
 20
0.0
 30
0.0
  0
VERTEX
  5
22A3
100
AcDbEntity
  8
ALPHA
100
AcDbVertex
100
AcDb2dVertex
 10
33.267147
 20
73.302658
 30
0.0
  0
VERTEX
  5
22A4
100
AcDbEntity
  8
ALPHA
100
AcDbVertex
100
AcDb2dVertex
 10
19.908617
 20
73.302658
 30
0.0
  0
SEQEND
  5
22A5
100
AcDbEntity
  8
ALPHA
  0
POLYLINE
  5
22A6
100
AcDbEntity
  8
ALPHA
100
AcDb2dPolyline
 66
     1
 10
0.0
 20
0.0
 30
0.0
  0
VERTEX
  5
22A7
100
AcDbEntity
  8
ALPHA
100
AcDbVertex
100
AcDb2dVertex
 10
22.208563
 20
70.190187
 30
0.0
  0
VERTEX
  5
22A8
100
AcDbEntity
  8
ALPHA
100
AcDbVertex
100
AcDb2dVertex
 10
15.399159
 20
70.190187
 30
0.0
  0
SEQEND
  5
22A9
100
AcDbEntity
  8
ALPHA
  0
POLYLINE
  5
22AA
100
AcDbEntity
  8
ALPHA
100
AcDb2dPolyline
 66
     1
 10
0.0
 20
0.0
 30
0.0
  0
VERTEX
  5
22AB
100
AcDbEntity
  8
ALPHA
100
AcDbVertex
100
AcDb2dVertex
 10
17.636921
 20
73.302658
 30
0.0
  0
VERTEX
  5
22AC
100
AcDbEntity
  8
ALPHA
100
AcDbVertex
100
AcDb2dVertex
 10
17.636921
 20
72.129086
 30
0.0
  0
SEQEND
  5
22AD
100
AcDbEntity
  8
ALPHA
  0
POLYLINE
  5
22AE
100
AcDbEntity
  8
ALPHA
100
AcDb2dPolyline
 66
     1
 10
0.0
 20
0.0
 30
0.0
  0
VERTEX
  5
22AF
100
AcDbEntity
  8
ALPHA
100
AcDbVertex
100
AcDb2dVertex
 10
19.908617
 20
73.302658
 30
0.0
  0
VERTEX
  5
22B0
100
AcDbEntity
  8
ALPHA
100
AcDbVertex
100
AcDb2dVertex
 10
19.908617
 20
72.129086
 30
0.0
  0
SEQEND
  5
22B1
100
AcDbEntity
  8
ALPHA
  0
POLYLINE
  5
22B2
100
AcDbEntity
  8
ALPHA
100
AcDb2dPolyline
 66
     1
 10
0.0
 20
0.0
 30
0.0
  0
VERTEX
  5
22B3
100
AcDbEntity
  8
ALPHA
100
AcDbVertex
100
AcDb2dVertex
 10
25.59647
 20
69.799513
 30
0.0
  0
VERTEX
  5
22B4
100
AcDbEntity
  8
ALPHA
100
AcDbVertex
100
AcDb2dVertex
 10
26.666688
 20
68.729122
 30
0.0
  0
SEQEND
  5
22B5
100
AcDbEntity
  8
ALPHA
  0
POLYLINE
  5
22B6
100
AcDbEntity
  8
ALPHA
100
AcDb2dPolyline
 66
     1
 10
0.0
 20
0.0
 30
0.0
  0
VERTEX
  5
22B7
100
AcDbEntity
  8
ALPHA
100
AcDbVertex
100
AcDb2dVertex
 10
24.853879
 20
69.023333
 30
0.0
  0
VERTEX
  5
22B8
100
AcDbEntity
  8
ALPHA
100
AcDbVertex
100
AcDb2dVertex
 10
25.59647
 20
69.799513
 30
0.0
  0
SEQEND
  5
22B9
100
AcDbEntity
  8
ALPHA
  0
POLYLINE
  5
22BA
100
AcDbEntity
  8
ALPHA
100
AcDb2dPolyline
 66
     1
 10
0.0
 20
0.0
 30
0.0
  0
VERTEX
  5
22BB
100
AcDbEntity
  8
ALPHA
100
AcDbVertex
100
AcDb2dVertex
 10
26.709924
 20
68.719475
 30
0.0
  0
VERTEX
  5
22BC
100
AcDbEntity
  8
ALPHA
100
AcDbVertex
100
AcDb2dVertex
 10
28.401811
 20
70.362786
 30
0.0
  0
SEQEND
  5
22BD
100
AcDbEntity
  8
ALPHA
  0
POLYLINE
  5
22BE
100
AcDbEntity
  8
ALPHA
100
AcDb2dPolyline
 66
     1
 10
0.0
 20
0.0
 30
0.0
  0
VERTEX
  5
22BF
100
AcDbEntity
  8
ALPHA
100
AcDbVertex
100
AcDb2dVertex
 10
26.666688
 20
68.729122
 30
0.0
  0
VERTEX
  5
22C0
100
AcDbEntity
  8
ALPHA
100
AcDbVertex
100
AcDb2dVertex
 10
26.709924
 20
68.719475
 30
0.0
  0
SEQEND
  5
22C1
100
AcDbEntity
  8
ALPHA
  0
POLYLINE
  5
22C2
100
AcDbEntity
  8
ALPHA
100
AcDb2dPolyline
 66
     1
 10
0.0
 20
0.0
 30
0.0
  0
VERTEX
  5
22C3
100
AcDbEntity
  8
ALPHA
100
AcDbVertex
100
AcDb2dVertex
 10
46.52663
 20
73.302658
 30
0.0
  0
VERTEX
  5
22C4
100
AcDbEntity
  8
ALPHA
100
AcDbVertex
100
AcDb2dVertex
 10
35.34075
 20
73.302658
 30
0.0
  0
SEQEND
  5
22C5
100
AcDbEntity
  8
ALPHA
  0
POLYLINE
  5
22C6
100
AcDbEntity
  8
ALPHA
100
AcDb2dPolyline
 66
     1
 10
0.0
 20
0.0
 30
0.0
  0
VERTEX
  5
22C7
100
AcDbEntity
  8
ALPHA
100
AcDbVertex
100
AcDb2dVertex
 10
37.966946
 20
70.190187
 30
0.0
  0
VERTEX
  5
22C8
100
AcDbEntity
  8
ALPHA
100
AcDbVertex
100
AcDb2dVertex
 10
30.962895
 20
70.190187
 30
0.0
  0
SEQEND
  5
22C9
100
AcDbEntity
  8
ALPHA
  0
POLYLINE
  5
22CA
100
AcDbEntity
  8
ALPHA
100
AcDb2dPolyline
 66
     1
 10
0.0
 20
0.0
 30
0.0
  0
VERTEX
  5
22CB
100
AcDbEntity
  8
ALPHA
100
AcDbVertex
100
AcDb2dVertex
 10
33.267147
 20
72.129086
 30
0.0
  0
VERTEX
  5
22CC
100
AcDbEntity
  8
ALPHA
100
AcDbVertex
100
AcDb2dVertex
 10
33.267147
 20
73.302658
 30
0.0
  0
SEQEND
  5
22CD
100
AcDbEntity
  8
ALPHA
  0
POLYLINE
  5
22CE
100
AcDbEntity
  8
ALPHA
100
AcDb2dPolyline
 66
     1
 10
0.0
 20
0.0
 30
0.0
  0
VERTEX
  5
22CF
100
AcDbEntity
  8
ALPHA
100
AcDbVertex
100
AcDb2dVertex
 10
35.34075
 20
73.302658
 30
0.0
  0
VERTEX
  5
22D0
100
AcDbEntity
  8
ALPHA
100
AcDbVertex
100
AcDb2dVertex
 10
35.34075
 20
72.129086
 30
0.0
  0
SEQEND
  5
22D1
100
AcDbEntity
  8
ALPHA
  0
POLYLINE
  5
22D2
100
AcDbEntity
  8
ALPHA
100
AcDb2dPolyline
 66
     1
 10
0.0
 20
0.0
 30
0.0
  0
VERTEX
  5
22D3
100
AcDbEntity
  8
ALPHA
100
AcDbVertex
100
AcDb2dVertex
 10
41.981516
 20
68.719475
 30
0.0
  0
VERTEX
  5
22D4
100
AcDbEntity
  8
ALPHA
100
AcDbVertex
100
AcDb2dVertex
 10
43.673402
 20
70.362786
 30
0.0
  0
SEQEND
  5
22D5
100
AcDbEntity
  8
ALPHA
  0
POLYLINE
  5
22D6
100
AcDbEntity
  8
ALPHA
100
AcDb2dPolyline
 66
     1
 10
0.0
 20
0.0
 30
0.0
  0
VERTEX
  5
22D7
100
AcDbEntity
  8
ALPHA
100
AcDbVertex
100
AcDb2dVertex
 10
40.125643
 20
69.023333
 30
0.0
  0
VERTEX
  5
22D8
100
AcDbEntity
  8
ALPHA
100
AcDbVertex
100
AcDb2dVertex
 10
40.867717
 20
69.799513
 30
0.0
  0
SEQEND
  5
22D9
100
AcDbEntity
  8
ALPHA
  0
POLYLINE
  5
22DA
100
AcDbEntity
  8
ALPHA
100
AcDb2dPolyline
 66
     1
 10
0.0
 20
0.0
 30
0.0
  0
VERTEX
  5
22DB
100
AcDbEntity
  8
ALPHA
100
AcDbVertex
100
AcDb2dVertex
 10
40.867717
 20
69.799513
 30
0.0
  0
VERTEX
  5
22DC
100
AcDbEntity
  8
ALPHA
100
AcDbVertex
100
AcDb2dVertex
 10
41.937763
 20
68.729122
 30
0.0
  0
SEQEND
  5
22DD
100
AcDbEntity
  8
ALPHA
  0
POLYLINE
  5
22DE
100
AcDbEntity
  8
ALPHA
100
AcDb2dPolyline
 66
     1
 10
0.0
 20
0.0
 30
0.0
  0
VERTEX
  5
22DF
100
AcDbEntity
  8
ALPHA
100
AcDbVertex
100
AcDb2dVertex
 10
41.937763
 20
68.729122
 30
0.0
  0
VERTEX
  5
22E0
100
AcDbEntity
  8
ALPHA
100
AcDbVertex
100
AcDb2dVertex
 10
41.981516
 20
68.719475
 30
0.0
  0
SEQEND
  5
22E1
100
AcDbEntity
  8
ALPHA
  0
POLYLINE
  5
22E2
100
AcDbEntity
  8
ALPHA
100
AcDb2dPolyline
 66
     1
 10
0.0
 20
0.0
 30
0.0
  0
VERTEX
  5
22E3
100
AcDbEntity
  8
ALPHA
100
AcDbVertex
100
AcDb2dVertex
 10
48.471731
 20
62.552582
 30
0.0
  0
VERTEX
  5
22E4
100
AcDbEntity
  8
ALPHA
100
AcDbVertex
100
AcDb2dVertex
 10
48.471731
 20
70.130586
 30
0.0
  0
SEQEND
  5
22E5
100
AcDbEntity
  8
ALPHA
  0
POLYLINE
  5
22E6
100
AcDbEntity
  8
ALPHA
100
AcDb2dPolyline
 66
     1
 10
0.0
 20
0.0
 30
0.0
  0
VERTEX
  5
22E7
100
AcDbEntity
  8
ALPHA
100
AcDbVertex
100
AcDb2dVertex
 10
52.938987
 20
60.251258
 30
0.0
  0
VERTEX
  5
22E8
100
AcDbEntity
  8
ALPHA
100
AcDbVertex
100
AcDb2dVertex
 10
53.041995
 20
60.739084
 30
0.0
  0
VERTEX
  5
22E9
100
AcDbEntity
  8
ALPHA
100
AcDbVertex
100
AcDb2dVertex
 10
53.031312
 20
60.950578
 30
0.0
  0
VERTEX
  5
22EA
100
AcDbEntity
  8
ALPHA
100
AcDbVertex
100
AcDb2dVertex
 10
52.999958
 20
61.155969
 30
0.0
  0
VERTEX
  5
22EB
100
AcDbEntity
  8
ALPHA
100
AcDbVertex
100
AcDb2dVertex
 10
52.948973
 20
61.354216
 30
0.0
  0
VERTEX
  5
22EC
100
AcDbEntity
  8
ALPHA
100
AcDbVertex
100
AcDb2dVertex
 10
52.879397
 20
61.544278
 30
0.0
  0
VERTEX
  5
22ED
100
AcDbEntity
  8
ALPHA
100
AcDbVertex
100
AcDb2dVertex
 10
52.792272
 20
61.725116
 30
0.0
  0
VERTEX
  5
22EE
100
AcDbEntity
  8
ALPHA
100
AcDbVertex
100
AcDb2dVertex
 10
52.688637
 20
61.895687
 30
0.0
  0
VERTEX
  5
22EF
100
AcDbEntity
  8
ALPHA
100
AcDbVertex
100
AcDb2dVertex
 10
52.569534
 20
62.054953
 30
0.0
  0
VERTEX
  5
22F0
100
AcDbEntity
  8
ALPHA
100
AcDbVertex
100
AcDb2dVertex
 10
52.436003
 20
62.201871
 30
0.0
  0
VERTEX
  5
22F1
100
AcDbEntity
  8
ALPHA
100
AcDbVertex
100
AcDb2dVertex
 10
52.289084
 20
62.335403
 30
0.0
  0
VERTEX
  5
22F2
100
AcDbEntity
  8
ALPHA
100
AcDbVertex
100
AcDb2dVertex
 10
52.129818
 20
62.454506
 30
0.0
  0
VERTEX
  5
22F3
100
AcDbEntity
  8
ALPHA
100
AcDbVertex
100
AcDb2dVertex
 10
51.959247
 20
62.558141
 30
0.0
  0
VERTEX
  5
22F4
100
AcDbEntity
  8
ALPHA
100
AcDbVertex
100
AcDb2dVertex
 10
51.778409
 20
62.645266
 30
0.0
  0
VERTEX
  5
22F5
100
AcDbEntity
  8
ALPHA
100
AcDbVertex
100
AcDb2dVertex
 10
51.588347
 20
62.714842
 30
0.0
  0
VERTEX
  5
22F6
100
AcDbEntity
  8
ALPHA
100
AcDbVertex
100
AcDb2dVertex
 10
51.3901
 20
62.765827
 30
0.0
  0
VERTEX
  5
22F7
100
AcDbEntity
  8
ALPHA
100
AcDbVertex
100
AcDb2dVertex
 10
51.184709
 20
62.797181
 30
0.0
  0
VERTEX
  5
22F8
100
AcDbEntity
  8
ALPHA
100
AcDbVertex
100
AcDb2dVertex
 10
50.973215
 20
62.807864
 30
0.0
  0
VERTEX
  5
22F9
100
AcDbEntity
  8
ALPHA
100
AcDbVertex
100
AcDb2dVertex
 10
50.760367
 20
62.795809
 30
0.0
  0
VERTEX
  5
22FA
100
AcDbEntity
  8
ALPHA
100
AcDbVertex
100
AcDb2dVertex
 10
50.551616
 20
62.760838
 30
0.0
  0
VERTEX
  5
22FB
100
AcDbEntity
  8
ALPHA
100
AcDbVertex
100
AcDb2dVertex
 10
50.348671
 20
62.704745
 30
0.0
  0
VERTEX
  5
22FC
100
AcDbEntity
  8
ALPHA
100
AcDbVertex
100
AcDb2dVertex
 10
50.153239
 20
62.629322
 30
0.0
  0
VERTEX
  5
22FD
100
AcDbEntity
  8
ALPHA
100
AcDbVertex
100
AcDb2dVertex
 10
49.967029
 20
62.536361
 30
0.0
  0
VERTEX
  5
22FE
100
AcDbEntity
  8
ALPHA
100
AcDbVertex
100
AcDb2dVertex
 10
49.791747
 20
62.427654
 30
0.0
  0
VERTEX
  5
22FF
100
AcDbEntity
  8
ALPHA
100
AcDbVertex
100
AcDb2dVertex
 10
49.629101
 20
62.304996
 30
0.0
  0
VERTEX
  5
2300
100
AcDbEntity
  8
ALPHA
100
AcDbVertex
100
AcDb2dVertex
 10
49.4808
 20
62.170177
 30
0.0
  0
SEQEND
  5
2301
100
AcDbEntity
  8
ALPHA
  0
POLYLINE
  5
2302
100
AcDbEntity
  8
ALPHA
100
AcDb2dPolyline
 66
     1
 10
0.0
 20
0.0
 30
0.0
  0
VERTEX
  5
2303
100
AcDbEntity
  8
ALPHA
100
AcDbVertex
100
AcDb2dVertex
 10
50.973215
 20
59.239089
 30
0.0
  0
VERTEX
  5
2304
100
AcDbEntity
  8
ALPHA
100
AcDbVertex
100
AcDb2dVertex
 10
51.12654
 20
59.24684
 30
0.0
  0
VERTEX
  5
2305
100
AcDbEntity
  8
ALPHA
100
AcDbVertex
100
AcDb2dVertex
 10
51.275437
 20
59.269587
 30
0.0
  0
VERTEX
  5
2306
100
AcDbEntity
  8
ALPHA
100
AcDbVertex
100
AcDb2dVertex
 10
51.419153
 20
59.306575
 30
0.0
  0
VERTEX
  5
2307
100
AcDbEntity
  8
ALPHA
100
AcDbVertex
100
AcDb2dVertex
 10
51.556933
 20
59.357046
 30
0.0
  0
VERTEX
  5
2308
100
AcDbEntity
  8
ALPHA
100
AcDbVertex
100
AcDb2dVertex
 10
51.688023
 20
59.420245
 30
0.0
  0
VERTEX
  5
2309
100
AcDbEntity
  8
ALPHA
100
AcDbVertex
100
AcDb2dVertex
 10
51.811669
 20
59.495415
 30
0.0
  0
VERTEX
  5
230A
100
AcDbEntity
  8
ALPHA
100
AcDbVertex
100
AcDb2dVertex
 10
51.927118
 20
59.581799
 30
0.0
  0
VERTEX
  5
230B
100
AcDbEntity
  8
ALPHA
100
AcDbVertex
100
AcDb2dVertex
 10
52.033616
 20
59.67864
 30
0.0
  0
VERTEX
  5
230C
100
AcDbEntity
  8
ALPHA
100
AcDbVertex
100
AcDb2dVertex
 10
52.130407
 20
59.785184
 30
0.0
  0
VERTEX
  5
230D
100
AcDbEntity
  8
ALPHA
100
AcDbVertex
100
AcDb2dVertex
 10
52.21674
 20
59.900672
 30
0.0
  0
VERTEX
  5
230E
100
AcDbEntity
  8
ALPHA
100
AcDbVertex
100
AcDb2dVertex
 10
52.291859
 20
60.024349
 30
0.0
  0
VERTEX
  5
230F
100
AcDbEntity
  8
ALPHA
100
AcDbVertex
100
AcDb2dVertex
 10
52.355011
 20
60.155458
 30
0.0
  0
VERTEX
  5
2310
100
AcDbEntity
  8
ALPHA
100
AcDbVertex
100
AcDb2dVertex
 10
52.405441
 20
60.293242
 30
0.0
  0
VERTEX
  5
2311
100
AcDbEntity
  8
ALPHA
100
AcDbVertex
100
AcDb2dVertex
 10
52.442396
 20
60.436946
 30
0.0
  0
VERTEX
  5
2312
100
AcDbEntity
  8
ALPHA
100
AcDbVertex
100
AcDb2dVertex
 10
52.465122
 20
60.585812
 30
0.0
  0
VERTEX
  5
2313
100
AcDbEntity
  8
ALPHA
100
AcDbVertex
100
AcDb2dVertex
 10
52.472865
 20
60.739084
 30
0.0
  0
VERTEX
  5
2314
100
AcDbEntity
  8
ALPHA
100
AcDbVertex
100
AcDb2dVertex
 10
52.465122
 20
60.892417
 30
0.0
  0
VERTEX
  5
2315
100
AcDbEntity
  8
ALPHA
100
AcDbVertex
100
AcDb2dVertex
 10
52.442396
 20
61.041336
 30
0.0
  0
VERTEX
  5
2316
100
AcDbEntity
  8
ALPHA
100
AcDbVertex
100
AcDb2dVertex
 10
52.405441
 20
61.185085
 30
0.0
  0
VERTEX
  5
2317
100
AcDbEntity
  8
ALPHA
100
AcDbVertex
100
AcDb2dVertex
 10
52.355011
 20
61.322909
 30
0.0
  0
VERTEX
  5
2318
100
AcDbEntity
  8
ALPHA
100
AcDbVertex
100
AcDb2dVertex
 10
52.291859
 20
61.454051
 30
0.0
  0
VERTEX
  5
2319
100
AcDbEntity
  8
ALPHA
100
AcDbVertex
100
AcDb2dVertex
 10
52.21674
 20
61.577756
 30
0.0
  0
VERTEX
  5
231A
100
AcDbEntity
  8
ALPHA
100
AcDbVertex
100
AcDb2dVertex
 10
52.130407
 20
61.693267
 30
0.0
  0
VERTEX
  5
231B
100
AcDbEntity
  8
ALPHA
100
AcDbVertex
100
AcDb2dVertex
 10
52.033616
 20
61.799829
 30
0.0
  0
VERTEX
  5
231C
100
AcDbEntity
  8
ALPHA
100
AcDbVertex
100
AcDb2dVertex
 10
51.927118
 20
61.896685
 30
0.0
  0
VERTEX
  5
231D
100
AcDbEntity
  8
ALPHA
100
AcDbVertex
100
AcDb2dVertex
 10
51.811669
 20
61.98308
 30
0.0
  0
VERTEX
  5
231E
100
AcDbEntity
  8
ALPHA
100
AcDbVertex
100
AcDb2dVertex
 10
51.688023
 20
62.058257
 30
0.0
  0
VERTEX
  5
231F
100
AcDbEntity
  8
ALPHA
100
AcDbVertex
100
AcDb2dVertex
 10
51.556933
 20
62.121461
 30
0.0
  0
VERTEX
  5
2320
100
AcDbEntity
  8
ALPHA
100
AcDbVertex
100
AcDb2dVertex
 10
51.419153
 20
62.171935
 30
0.0
  0
VERTEX
  5
2321
100
AcDbEntity
  8
ALPHA
100
AcDbVertex
100
AcDb2dVertex
 10
51.275437
 20
62.208925
 30
0.0
  0
VERTEX
  5
2322
100
AcDbEntity
  8
ALPHA
100
AcDbVertex
100
AcDb2dVertex
 10
51.12654
 20
62.231672
 30
0.0
  0
VERTEX
  5
2323
100
AcDbEntity
  8
ALPHA
100
AcDbVertex
100
AcDb2dVertex
 10
50.973215
 20
62.239423
 30
0.0
  0
VERTEX
  5
2324
100
AcDbEntity
  8
ALPHA
100
AcDbVertex
100
AcDb2dVertex
 10
50.819829
 20
62.231672
 30
0.0
  0
VERTEX
  5
2325
100
AcDbEntity
  8
ALPHA
100
AcDbVertex
100
AcDb2dVertex
 10
50.670879
 20
62.208925
 30
0.0
  0
VERTEX
  5
2326
100
AcDbEntity
  8
ALPHA
100
AcDbVertex
100
AcDb2dVertex
 10
50.527118
 20
62.171935
 30
0.0
  0
VERTEX
  5
2327
100
AcDbEntity
  8
ALPHA
100
AcDbVertex
100
AcDb2dVertex
 10
50.389298
 20
62.121461
 30
0.0
  0
VERTEX
  5
2328
100
AcDbEntity
  8
ALPHA
100
AcDbVertex
100
AcDb2dVertex
 10
50.258175
 20
62.058257
 30
0.0
  0
VERTEX
  5
2329
100
AcDbEntity
  8
ALPHA
100
AcDbVertex
100
AcDb2dVertex
 10
50.134501
 20
61.98308
 30
0.0
  0
VERTEX
  5
232A
100
AcDbEntity
  8
ALPHA
100
AcDbVertex
100
AcDb2dVertex
 10
50.019029
 20
61.896685
 30
0.0
  0
VERTEX
  5
232B
100
AcDbEntity
  8
ALPHA
100
AcDbVertex
100
AcDb2dVertex
 10
49.912513
 20
61.799829
 30
0.0
  0
VERTEX
  5
232C
100
AcDbEntity
  8
ALPHA
100
AcDbVertex
100
AcDb2dVertex
 10
49.815707
 20
61.693267
 30
0.0
  0
VERTEX
  5
232D
100
AcDbEntity
  8
ALPHA
100
AcDbVertex
100
AcDb2dVertex
 10
49.729364
 20
61.577756
 30
0.0
  0
VERTEX
  5
232E
100
AcDbEntity
  8
ALPHA
100
AcDbVertex
100
AcDb2dVertex
 10
49.654237
 20
61.454051
 30
0.0
  0
VERTEX
  5
232F
100
AcDbEntity
  8
ALPHA
100
AcDbVertex
100
AcDb2dVertex
 10
49.591081
 20
61.322909
 30
0.0
  0
VERTEX
  5
2330
100
AcDbEntity
  8
ALPHA
100
AcDbVertex
100
AcDb2dVertex
 10
49.540647
 20
61.185085
 30
0.0
  0
VERTEX
  5
2331
100
AcDbEntity
  8
ALPHA
100
AcDbVertex
100
AcDb2dVertex
 10
49.50369
 20
61.041336
 30
0.0
  0
VERTEX
  5
2332
100
AcDbEntity
  8
ALPHA
100
AcDbVertex
100
AcDb2dVertex
 10
49.480964
 20
60.892417
 30
0.0
  0
VERTEX
  5
2333
100
AcDbEntity
  8
ALPHA
100
AcDbVertex
100
AcDb2dVertex
 10
49.473221
 20
60.739084
 30
0.0
  0
VERTEX
  5
2334
100
AcDbEntity
  8
ALPHA
100
AcDbVertex
100
AcDb2dVertex
 10
49.480964
 20
60.585812
 30
0.0
  0
VERTEX
  5
2335
100
AcDbEntity
  8
ALPHA
100
AcDbVertex
100
AcDb2dVertex
 10
49.50369
 20
60.436946
 30
0.0
  0
VERTEX
  5
2336
100
AcDbEntity
  8
ALPHA
100
AcDbVertex
100
AcDb2dVertex
 10
49.540647
 20
60.293242
 30
0.0
  0
VERTEX
  5
2337
100
AcDbEntity
  8
ALPHA
100
AcDbVertex
100
AcDb2dVertex
 10
49.591081
 20
60.155458
 30
0.0
  0
VERTEX
  5
2338
100
AcDbEntity
  8
ALPHA
100
AcDbVertex
100
AcDb2dVertex
 10
49.654237
 20
60.024349
 30
0.0
  0
VERTEX
  5
2339
100
AcDbEntity
  8
ALPHA
100
AcDbVertex
100
AcDb2dVertex
 10
49.729364
 20
59.900672
 30
0.0
  0
VERTEX
  5
233A
100
AcDbEntity
  8
ALPHA
100
AcDbVertex
100
AcDb2dVertex
 10
49.815707
 20
59.785184
 30
0.0
  0
VERTEX
  5
233B
100
AcDbEntity
  8
ALPHA
100
AcDbVertex
100
AcDb2dVertex
 10
49.912513
 20
59.67864
 30
0.0
  0
VERTEX
  5
233C
100
AcDbEntity
  8
ALPHA
100
AcDbVertex
100
AcDb2dVertex
 10
50.019029
 20
59.581799
 30
0.0
  0
VERTEX
  5
233D
100
AcDbEntity
  8
ALPHA
100
AcDbVertex
100
AcDb2dVertex
 10
50.134501
 20
59.495415
 30
0.0
  0
VERTEX
  5
233E
100
AcDbEntity
  8
ALPHA
100
AcDbVertex
100
AcDb2dVertex
 10
50.258175
 20
59.420245
 30
0.0
  0
VERTEX
  5
233F
100
AcDbEntity
  8
ALPHA
100
AcDbVertex
100
AcDb2dVertex
 10
50.389298
 20
59.357046
 30
0.0
  0
VERTEX
  5
2340
100
AcDbEntity
  8
ALPHA
100
AcDbVertex
100
AcDb2dVertex
 10
50.527118
 20
59.306575
 30
0.0
  0
VERTEX
  5
2341
100
AcDbEntity
  8
ALPHA
100
AcDbVertex
100
AcDb2dVertex
 10
50.670879
 20
59.269587
 30
0.0
  0
VERTEX
  5
2342
100
AcDbEntity
  8
ALPHA
100
AcDbVertex
100
AcDb2dVertex
 10
50.819829
 20
59.24684
 30
0.0
  0
VERTEX
  5
2343
100
AcDbEntity
  8
ALPHA
100
AcDbVertex
100
AcDb2dVertex
 10
50.973215
 20
59.239089
 30
0.0
  0
SEQEND
  5
2344
100
AcDbEntity
  8
ALPHA
  0
POLYLINE
  5
2345
100
AcDbEntity
  8
ALPHA
100
AcDb2dPolyline
 66
     1
 10
0.0
 20
0.0
 30
0.0
  0
VERTEX
  5
2346
100
AcDbEntity
  8
ALPHA
100
AcDbVertex
100
AcDb2dVertex
 10
48.81004
 20
62.81372
 30
0.0
  0
VERTEX
  5
2347
100
AcDbEntity
  8
ALPHA
100
AcDbVertex
100
AcDb2dVertex
 10
49.024891
 20
63.009337
 30
0.0
  0
VERTEX
  5
2348
100
AcDbEntity
  8
ALPHA
100
AcDbVertex
100
AcDb2dVertex
 10
49.260577
 20
63.187255
 30
0.0
  0
VERTEX
  5
2349
100
AcDbEntity
  8
ALPHA
100
AcDbVertex
100
AcDb2dVertex
 10
49.514618
 20
63.34489
 30
0.0
  0
VERTEX
  5
234A
100
AcDbEntity
  8
ALPHA
100
AcDbVertex
100
AcDb2dVertex
 10
49.784528
 20
63.479657
 30
0.0
  0
VERTEX
  5
234B
100
AcDbEntity
  8
ALPHA
100
AcDbVertex
100
AcDb2dVertex
 10
50.067826
 20
63.588975
 30
0.0
  0
VERTEX
  5
234C
100
AcDbEntity
  8
ALPHA
100
AcDbVertex
100
AcDb2dVertex
 10
50.362028
 20
63.670257
 30
0.0
  0
VERTEX
  5
234D
100
AcDbEntity
  8
ALPHA
100
AcDbVertex
100
AcDb2dVertex
 10
50.664652
 20
63.720922
 30
0.0
  0
VERTEX
  5
234E
100
AcDbEntity
  8
ALPHA
100
AcDbVertex
100
AcDb2dVertex
 10
50.973215
 20
63.738384
 30
0.0
  0
VERTEX
  5
234F
100
AcDbEntity
  8
ALPHA
100
AcDbVertex
100
AcDb2dVertex
 10
51.279926
 20
63.722898
 30
0.0
  0
VERTEX
  5
2350
100
AcDbEntity
  8
ALPHA
100
AcDbVertex
100
AcDb2dVertex
 10
51.577774
 20
63.677446
 30
0.0
  0
VERTEX
  5
2351
100
AcDbEntity
  8
ALPHA
100
AcDbVertex
100
AcDb2dVertex
 10
51.865251
 20
63.603536
 30
0.0
  0
VERTEX
  5
2352
100
AcDbEntity
  8
ALPHA
100
AcDbVertex
100
AcDb2dVertex
 10
52.14085
 20
63.502675
 30
0.0
  0
VERTEX
  5
2353
100
AcDbEntity
  8
ALPHA
100
AcDbVertex
100
AcDb2dVertex
 10
52.403063
 20
63.376371
 30
0.0
  0
VERTEX
  5
2354
100
AcDbEntity
  8
ALPHA
100
AcDbVertex
100
AcDb2dVertex
 10
52.650384
 20
63.226133
 30
0.0
  0
VERTEX
  5
2355
100
AcDbEntity
  8
ALPHA
100
AcDbVertex
100
AcDb2dVertex
 10
52.881304
 20
63.053468
 30
0.0
  0
VERTEX
  5
2356
100
AcDbEntity
  8
ALPHA
100
AcDbVertex
100
AcDb2dVertex
 10
53.094317
 20
62.859885
 30
0.0
  0
VERTEX
  5
2357
100
AcDbEntity
  8
ALPHA
100
AcDbVertex
100
AcDb2dVertex
 10
53.287915
 20
62.64689
 30
0.0
  0
VERTEX
  5
2358
100
AcDbEntity
  8
ALPHA
100
AcDbVertex
100
AcDb2dVertex
 10
53.460591
 20
62.415992
 30
0.0
  0
VERTEX
  5
2359
100
AcDbEntity
  8
ALPHA
100
AcDbVertex
100
AcDb2dVertex
 10
53.610837
 20
62.168699
 30
0.0
  0
VERTEX
  5
235A
100
AcDbEntity
  8
ALPHA
100
AcDbVertex
100
AcDb2dVertex
 10
53.737145
 20
61.906519
 30
0.0
  0
VERTEX
  5
235B
100
AcDbEntity
  8
ALPHA
100
AcDbVertex
100
AcDb2dVertex
 10
53.838009
 20
61.63096
 30
0.0
  0
VERTEX
  5
235C
100
AcDbEntity
  8
ALPHA
100
AcDbVertex
100
AcDb2dVertex
 10
53.911921
 20
61.343529
 30
0.0
  0
VERTEX
  5
235D
100
AcDbEntity
  8
ALPHA
100
AcDbVertex
100
AcDb2dVertex
 10
53.957374
 20
61.045734
 30
0.0
  0
VERTEX
  5
235E
100
AcDbEntity
  8
ALPHA
100
AcDbVertex
100
AcDb2dVertex
 10
53.97286
 20
60.739084
 30
0.0
  0
VERTEX
  5
235F
100
AcDbEntity
  8
ALPHA
100
AcDbVertex
100
AcDb2dVertex
 10
53.957685
 20
60.555643
 30
0.0
  0
VERTEX
  5
2360
100
AcDbEntity
  8
ALPHA
100
AcDbVertex
100
AcDb2dVertex
 10
53.919935
 20
60.378469
 30
0.0
  0
VERTEX
  5
2361
100
AcDbEntity
  8
ALPHA
100
AcDbVertex
100
AcDb2dVertex
 10
53.823343
 20
60.030772
 30
0.0
  0
SEQEND
  5
2362
100
AcDbEntity
  8
ALPHA
  0
POLYLINE
  5
2363
100
AcDbEntity
  8
ALPHA
100
AcDb3dPolyline
 66
     1
 10
0.0
 20
0.0
 30
0.0
 70
     8
  0
VERTEX
  5
2364
100
AcDbEntity
  8
ALPHA
100
AcDbVertex
100
AcDb3dPolylineVertex
 10
50.973215
 20
59.239089
 30
0.0
 70
    32
  0
VERTEX
  5
2365
100
AcDbEntity
  8
ALPHA
100
AcDbVertex
100
AcDb3dPolylineVertex
 10
50.973215
 20
59.239089
 30
0.0
 70
    32
  0
SEQEND
  5
2366
100
AcDbEntity
  8
ALPHA
  0
DIMENSION
  5
2373
100
AcDbEntity
  8
COTATION1
100
AcDbDimension
  2
*D7
 10
53.97286
 20
79.715279
 30
0.0
 11
26.472902
 21
81.965279
 31
0.0
 70
    32
  3
SC_STAND
100
AcDbAlignedDimension
 13
-1.027056
 23
60.739084
 33
0.0
 14
53.97286
 24
60.739084
 34
0.0
100
AcDbRotatedDimension
  0
DIMENSION
  5
2396
100
AcDbEntity
  8
COTATION1
100
AcDbDimension
  2
*D8
 10
64.152434
 20
-0.697304
 30
0.0
 11
61.902434
 21
36.302677
 31
0.0
 70
    32
  3
SC_STAND
100
AcDbAlignedDimension
 13
46.52663
 23
73.302658
 33
0.0
 14
46.52663
 24
-0.697304
 34
0.0
 50
90.0
100
AcDbRotatedDimension
  0
ENDSEC
  0
SECTION
  2
OBJECTS
  0
DICTIONARY
  5
F8
100
AcDbDictionary
  3
ACAD_GROUP
350
F9
  3
ACAD_MLINESTYLE
350
106
  3
ACDBVARIABLEDICTIONARY
350
143
  0
DICTIONARY
  5
F9
102
{ACAD_REACTORS
330
F8
102
}
100
AcDbDictionary
  0
DICTIONARY
  5
106
102
{ACAD_REACTORS
330
F8
102
}
100
AcDbDictionary
  3
STANDARD
350
107
  0
DICTIONARY
  5
143
102
{ACAD_REACTORS
330
F8
102
}
100
AcDbDictionary
  3
DIMADEC
350
144
  0
MLINESTYLE
  5
107
102
{ACAD_REACTORS
330
106
102
}
100
AcDbMlineStyle
  2
STANDARD
 70
     0
  3

 62
   256
 51
90.0
 52
90.0
 71
     2
 49
0.5
 62
   256
  6
BYLAYER
 49
-0.5
 62
   256
  6
BYLAYER
  0
DICTIONARYVAR
  5
144
102
{ACAD_REACTORS
330
143
102
}
100
DictionaryVariables
280
     0
  1
0
  0
ENDSEC
  0
EOF
