  0
SECTION
  2
HEADER
  9
$ACADVER
  1
AC1012
  9
$DWGCODEPAGE
  3
ANSI_1252
  9
$INSBASE
 10
0.0
 20
0.0
 30
0.0
  9
$EXTMIN
 10
5.934639
 20
4.735883
 30
-0.001526
  9
$EXTMAX
 10
131.979453
 20
186.24696
 30
0.0
  9
$LIMMIN
 10
19.077216
 20
43.616976
  9
$LIMMAX
 10
194.084622
 20
146.65737
  9
$ORTHOMODE
 70
     1
  9
$REGENMODE
 70
     1
  9
$FILLMODE
 70
     1
  9
$QTEXTMODE
 70
     0
  9
$MIRRTEXT
 70
     1
  9
$DRAGMODE
 70
     2
  9
$LTSCALE
 40
10.0
  9
$OSMODE
 70
    37
  9
$ATTMODE
 70
     1
  9
$TEXTSIZE
 40
0.2
  9
$TRACEWID
 40
0.05
  9
$TEXTSTYLE
  7
STANDARD
  9
$CLAYER
  8
ALPHA
  9
$CELTYPE
  6
CONTINUOUS
  9
$CECOLOR
 62
   256
  9
$CELTSCALE
 40
1.0
  9
$DELOBJ
 70
     1
  9
$DISPSILH
 70
     0
  9
$DIMSCALE
 40
1.0
  9
$DIMASZ
 40
0.18
  9
$DIMEXO
 40
0.0625
  9
$DIMDLI
 40
0.38
  9
$DIMRND
 40
0.0
  9
$DIMDLE
 40
0.0
  9
$DIMEXE
 40
0.18
  9
$DIMTP
 40
0.0
  9
$DIMTM
 40
0.0
  9
$DIMTXT
 40
0.18
  9
$DIMCEN
 40
0.09
  9
$DIMTSZ
 40
0.0
  9
$DIMTOL
 70
     0
  9
$DIMLIM
 70
     0
  9
$DIMTIH
 70
     1
  9
$DIMTOH
 70
     1
  9
$DIMSE1
 70
     0
  9
$DIMSE2
 70
     0
  9
$DIMTAD
 70
     0
  9
$DIMZIN
 70
     0
  9
$DIMBLK
  1

  9
$DIMASO
 70
     1
  9
$DIMSHO
 70
     1
  9
$DIMPOST
  1

  9
$DIMAPOST
  1

  9
$DIMALT
 70
     0
  9
$DIMALTD
 70
     2
  9
$DIMALTF
 40
25.4
  9
$DIMLFAC
 40
1.0
  9
$DIMTOFL
 70
     0
  9
$DIMTVP
 40
0.0
  9
$DIMTIX
 70
     0
  9
$DIMSOXD
 70
     0
  9
$DIMSAH
 70
     0
  9
$DIMBLK1
  1

  9
$DIMBLK2
  1

  9
$DIMSTYLE
  2
STANDARD
  9
$DIMCLRD
 70
     0
  9
$DIMCLRE
 70
     0
  9
$DIMCLRT
 70
     0
  9
$DIMTFAC
 40
1.0
  9
$DIMGAP
 40
0.09
  9
$DIMJUST
 70
     0
  9
$DIMSD1
 70
     0
  9
$DIMSD2
 70
     0
  9
$DIMTOLJ
 70
     1
  9
$DIMTZIN
 70
     0
  9
$DIMALTZ
 70
     0
  9
$DIMALTTZ
 70
     0
  9
$DIMFIT
 70
     3
  9
$DIMUPT
 70
     0
  9
$DIMUNIT
 70
     2
  9
$DIMDEC
 70
     4
  9
$DIMTDEC
 70
     4
  9
$DIMALTU
 70
     2
  9
$DIMALTTD
 70
     2
  9
$DIMTXSTY
  7
STANDARD
  9
$DIMAUNIT
 70
     0
  9
$LUNITS
 70
     2
  9
$LUPREC
 70
     4
  9
$SKETCHINC
 40
0.1
  9
$FILLETRAD
 40
0.0
  9
$AUNITS
 70
     0
  9
$AUPREC
 70
     0
  9
$MENU
  1
acad
  9
$ELEVATION
 40
0.0
  9
$PELEVATION
 40
0.0
  9
$THICKNESS
 40
0.0
  9
$LIMCHECK
 70
     0
  9
$BLIPMODE
 70
     0
  9
$CHAMFERA
 40
0.0
  9
$CHAMFERB
 40
0.0
  9
$CHAMFERC
 40
0.0
  9
$CHAMFERD
 40
0.0
  9
$SKPOLY
 70
     0
  9
$TDCREATE
 40
2453634.413430799
  9
$TDUPDATE
 40
2453893.724644965
  9
$TDINDWG
 40
1.8052025810
  9
$TDUSRTIMER
 40
1.8052014931
  9
$USRTIMER
 70
     1
  9
$ANGBASE
 50
0.0
  9
$ANGDIR
 70
     0
  9
$PDMODE
 70
     0
  9
$PDSIZE
 40
0.0
  9
$PLINEWID
 40
0.0
  9
$COORDS
 70
     1
  9
$SPLFRAME
 70
     0
  9
$SPLINETYPE
 70
     6
  9
$SPLINESEGS
 70
     8
  9
$ATTDIA
 70
     0
  9
$ATTREQ
 70
     1
  9
$HANDLING
 70
     1
  9
$HANDSEED
  5
123FF
  9
$SURFTAB1
 70
     6
  9
$SURFTAB2
 70
     6
  9
$SURFTYPE
 70
     6
  9
$SURFU
 70
     6
  9
$SURFV
 70
     6
  9
$UCSNAME
  2

  9
$UCSORG
 10
0.0
 20
0.0
 30
0.0
  9
$UCSXDIR
 10
1.0
 20
0.0
 30
0.0
  9
$UCSYDIR
 10
0.0
 20
1.0
 30
0.0
  9
$PUCSNAME
  2

  9
$PUCSORG
 10
0.0
 20
0.0
 30
0.0
  9
$PUCSXDIR
 10
1.0
 20
0.0
 30
0.0
  9
$PUCSYDIR
 10
0.0
 20
1.0
 30
0.0
  9
$USERI1
 70
     0
  9
$USERI2
 70
     0
  9
$USERI3
 70
     0
  9
$USERI4
 70
     0
  9
$USERI5
 70
     0
  9
$USERR1
 40
0.0
  9
$USERR2
 40
0.0
  9
$USERR3
 40
0.0
  9
$USERR4
 40
0.0
  9
$USERR5
 40
0.0
  9
$WORLDVIEW
 70
     1
  9
$SHADEDGE
 70
     3
  9
$SHADEDIF
 70
    70
  9
$TILEMODE
 70
     1
  9
$MAXACTVP
 70
    16
  9
$PINSBASE
 10
0.0
 20
0.0
 30
0.0
  9
$PLIMCHECK
 70
     0
  9
$PEXTMIN
 10
1.000000E+20
 20
1.000000E+20
 30
1.000000E+20
  9
$PEXTMAX
 10
-1.000000E+20
 20
-1.000000E+20
 30
-1.000000E+20
  9
$PLIMMIN
 10
0.0
 20
0.0
  9
$PLIMMAX
 10
12.0
 20
9.0
  9
$UNITMODE
 70
     0
  9
$VISRETAIN
 70
     0
  9
$PLINEGEN
 70
     1
  9
$PSLTSCALE
 70
     0
  9
$TREEDEPTH
 70
  3020
  9
$PICKSTYLE
 70
     0
  9
$CMLSTYLE
  2
STANDARD
  9
$CMLJUST
 70
     0
  9
$CMLSCALE
 40
1.0
  9
$SAVEIMAGES
 70
     0
  0
ENDSEC
  0
SECTION
  2
CLASSES
  0
CLASS
  1
LWPOLYLINE
  2
AcDbPolyline
  3
"AutoCAD"
 90
    32768
280
     0
281
     1
  0
CLASS
  1
IMAGE
  2
AcDbRasterImage
  3
ISM
 90
    32895
280
     0
281
     1
  0
CLASS
  1
OLE2FRAME
  2
AcDbOle2Frame
  3
""
 90
    32768
280
     0
281
     1
  0
CLASS
  1
HATCH
  2
AcDbHatch
  3
"ACAD_SEDONA"
 90
    32768
280
     0
281
     1
  0
CLASS
  1
DICTIONARYVAR
  2
AcDbDictionaryVar
  3
"AutoCAD"
 90
    32768
280
     0
281
     0
  0
CLASS
  1
RASTERVARIABLES
  2
AcDbRasterVariables
  3
ISM
 90
    32768
280
     0
281
     0
  0
CLASS
  1
IMAGEDEF
  2
AcDbRasterImageDef
  3
ISM
 90
    32768
280
     0
281
     0
  0
CLASS
  1
IMAGEDEF_REACTOR
  2
AcDbRasterImageDefReactor
  3
ISM
 90
    32769
280
     0
281
     0
  0
CLASS
  1
SPATIAL_FILTER
  2
AcDbSpatialFilter
  3
"Acad"
 90
    32768
280
     0
281
     0
  0
CLASS
  1
XRECORD
  2
AcDbXrecord
  3
"<Built In>"
 90
    32768
280
     0
281
     0
  0
CLASS
  1
SORTENTSTABLE
  2
AcDbSortentsTable
  3
"AutoCAD"
 90
    32768
280
     0
281
     0
  0
CLASS
  1
LAYER_INDEX
  2
AcDbLayerIndex
  3
"Acad"
 90
    32768
280
     0
281
     0
  0
CLASS
  1
SPATIAL_INDEX
  2
AcDbSpatialIndex
  3
"Acad"
 90
    32768
280
     0
281
     0
  0
CLASS
  1
OBJECT_PTR
  2
CAseDLPNTableRecord
  3
ASE-LPNTableRecord
 90
    32769
280
     0
281
     0
  0
CLASS
  1
LAYOUT
  2
AcDbLayout
  3
AutoCAD 2000
 90
    32768
280
     0
281
     0
  0
CLASS
  1
PLOTSETTINGS
  2
AcDbPlotSettings
  3
AutoCAD 2000
 90
    32768
280
     0
281
     0
  0
CLASS
  1
ACDBDICTIONARYWDFLT
  2
AcDbDictionaryWithDefault
  3
AutoCAD 2000
 90
    32768
280
     0
281
     0
  0
CLASS
  1
ACDBPLACEHOLDER
  2
AcDbPlaceHolder
  3
AutoCAD 2000
 90
    32768
280
     0
281
     0
  0
CLASS
  1
VBA_PROJECT
  2
AcDbVbaProject
  3
acad
 90
    32768
280
     0
281
     0
  0
CLASS
  1
WIPEOUT
  2
AcDbWipeout
  3
WipeOut|AutoCAD Express Tool|expresstools@autodesk.com
 90
    32895
280
     0
281
     1
  0
CLASS
  1
WIPEOUTVARIABLES
  2
AcDbWipeoutVariables
  3
WipeOut|AutoCAD Express Tool|expresstools@autodesk.com
 90
    32768
280
     0
281
     0
  0
CLASS
  1
RTEXT
  2
RText
  3
RText|AutoCAD Express Tool|expresstools@autodesk.com
 90
    32768
280
     0
281
     1
  0
CLASS
  1
ARCALIGNEDTEXT
  2
AcDbArcAlignedText
  3
ATEXT|AutoCAD Express Tool|expresstools@autodesk.com
 90
    32768
280
     0
281
     1
  0
CLASS
  1
TABLESTYLE
  2
AcDbTableStyle
  3
ObjectDBX Classes
 90
    34815
280
     0
281
     0
  0
CLASS
  1
ACAD_PROXY_OBJECT_WRAPPER
  2
AcDbProxyObjectWrapper
  3
AutoCAD 2000
 90
    32768
280
     0
281
     0
  0
CLASS
  1
LONG_TRANSACTION
  2
AcDbLongTransaction
  3
AutoCAD 2000
 90
    32768
280
     0
281
     0
  0
CLASS
  1
LWPOLYLINE
  2
AcDbPolyline
  3
"AutoCAD"
 90
    32768
280
     0
281
     1
  0
CLASS
  1
HATCH
  2
AcDbHatch
  3
"ACAD_SEDONA"
 90
    32768
280
     0
281
     1
  0
CLASS
  1
XRECORD
  2
AcDbXrecord
  3
"<Built In>"
 90
    32768
280
     0
281
     0
  0
ENDSEC
  0
SECTION
  2
TABLES
  0
TABLE
  2
VPORT
  5
7
100
AcDbSymbolTable
 70
     2
  0
VPORT
  5
123FE
100
AcDbSymbolTableRecord
100
AcDbViewportTableRecord
  2
*ACTIVE
 70
     0
 10
0.0
 20
0.0
 11
1.0
 21
1.0
 12
68.957046
 22
95.491421
 13
0.0
 23
0.0
 14
1.0
 24
1.0
 15
0.0
 25
0.0
 16
0.0
 26
0.0
 36
1.0
 17
0.0
 27
0.0
 37
0.0
 40
183.398541
 41
1.673611
 42
50.0
 43
0.0
 44
0.0
 50
0.0
 51
0.0
 71
     0
 72
   100
 73
     1
 74
     2
 75
     0
 76
     0
 77
     0
 78
     0
  0
ENDTAB
  0
TABLE
  2
LTYPE
  5
4
100
AcDbSymbolTable
 70
     2
  0
LTYPE
  5
11
102
{ACAD_XDICTIONARY
360
123BB
102
}
100
AcDbSymbolTableRecord
100
AcDbLinetypeTableRecord
  2
BYBLOCK
 70
     0
  3

 72
    65
 73
     0
 40
0.0
  0
LTYPE
  5
12
102
{ACAD_XDICTIONARY
360
123BD
102
}
100
AcDbSymbolTableRecord
100
AcDbLinetypeTableRecord
  2
BYLAYER
 70
     0
  3

 72
    65
 73
     0
 40
0.0
  0
LTYPE
  5
13
102
{ACAD_XDICTIONARY
360
123BF
102
}
100
AcDbSymbolTableRecord
100
AcDbLinetypeTableRecord
  2
CONTINUOUS
 70
     0
  3
Solid line
 72
    65
 73
     0
 40
0.0
  0
LTYPE
  5
725
100
AcDbSymbolTableRecord
100
AcDbLinetypeTableRecord
  2
AXES2
 70
     0
  3
___ _ ___ _ ___ _ ___ _ ___ _ ___ _ ___ _ ___ _
 72
    65
 73
     4
 40
1.125
 49
0.75
 74
     0
 49
-0.125
 74
     0
 49
0.125
 74
     0
 49
-0.125
 74
     0
  0
ENDTAB
  0
TABLE
  2
LAYER
  5
2
102
{ACAD_XDICTIONARY
360
26F0
102
}
100
AcDbSymbolTable
 70
     5
  0
LAYER
  5
14
100
AcDbSymbolTableRecord
100
AcDbLayerTableRecord
  2
0
 70
     0
 62
     7
  6
CONTINUOUS
  0
LAYER
  5
6EC
102
{ACAD_XDICTIONARY
360
123B9
102
}
100
AcDbSymbolTableRecord
100
AcDbLayerTableRecord
  2
DEFPOINTS
 70
     0
 62
     7
  6
CONTINUOUS
  0
LAYER
  5
727
100
AcDbSymbolTableRecord
100
AcDbLayerTableRecord
  2
COTATION1
 70
     0
 62
     2
  6
CONTINUOUS
  0
LAYER
  5
728
100
AcDbSymbolTableRecord
100
AcDbLayerTableRecord
  2
AXE
 70
     0
 62
    80
  6
AXES2
  0
LAYER
  5
729
100
AcDbSymbolTableRecord
100
AcDbLayerTableRecord
  2
ALPHA
 70
     0
 62
   254
  6
CONTINUOUS
  0
ENDTAB
  0
TABLE
  2
STYLE
  5
3
100
AcDbSymbolTable
 70
     2
  0
STYLE
  5
17
102
{ACAD_XDICTIONARY
360
123C5
102
}
100
AcDbSymbolTableRecord
100
AcDbTextStyleTableRecord
  2
STANDARD
 70
     0
 40
0.0
 41
1.0
 50
0.0
 71
     0
 42
0.0
  3
txt
  4

  0
STYLE
  5
72B
100
AcDbSymbolTableRecord
100
AcDbTextStyleTableRecord
  2
ROMANS
 70
     0
 40
0.0
 41
1.0
 50
0.0
 71
     0
 42
6.0
  3
romans
  4

  0
ENDTAB
  0
TABLE
  2
VIEW
  5
5
100
AcDbSymbolTable
 70
     0
  0
ENDTAB
  0
TABLE
  2
UCS
  5
6
100
AcDbSymbolTable
 70
     0
  0
ENDTAB
  0
TABLE
  2
APPID
  5
8
100
AcDbSymbolTable
 70
     4
  0
APPID
  5
16
100
AcDbSymbolTableRecord
100
AcDbRegAppTableRecord
  2
ACAD
 70
     0
  0
APPID
  5
26EF
102
{ACAD_XDICTIONARY
360
123C1
102
}
100
AcDbSymbolTableRecord
100
AcDbRegAppTableRecord
  2
ACAECLAYERSTANDARD
 70
     0
  0
APPID
  5
320E
100
AcDbSymbolTableRecord
100
AcDbRegAppTableRecord
  2
DCO15
 70
     0
  0
APPID
  5
3569
102
{ACAD_XDICTIONARY
360
123C3
102
}
100
AcDbSymbolTableRecord
100
AcDbRegAppTableRecord
  2
ACAD_EXEMPT_FROM_CAD_STAND
 70
     0
  0
ENDTAB
  0
TABLE
  2
DIMSTYLE
  5
9
100
AcDbSymbolTable
 70
     2
  0
DIMSTYLE
105
18
102
{ACAD_XDICTIONARY
360
123B7
102
}
100
AcDbSymbolTableRecord
100
AcDbDimStyleTableRecord
  2
STANDARD
 70
     0
  3

  4

  5

  6

  7

 40
1.0
 41
0.18
 42
0.0625
 43
0.38
 44
0.18
 45
0.0
 46
0.0
 47
0.0
 48
0.0
140
0.18
141
0.09
142
0.0
143
25.4
144
1.0
145
0.0
146
1.0
147
0.09
 71
     0
 72
     0
 73
     1
 74
     1
 75
     0
 76
     0
 77
     0
 78
     0
170
     0
171
     2
172
     0
173
     0
174
     0
175
     0
176
     0
177
     0
178
     0
270
     2
271
     4
272
     4
273
     2
274
     2
340
17
275
     0
280
     0
281
     0
282
     0
283
     1
284
     0
285
     0
286
     0
287
     3
288
     0
  0
DIMSTYLE
105
72C
102
{ACAD_XDICTIONARY
360
123F5
102
}
102
{ACAD_REACTORS
330
F6EC
330
F768
102
}
100
AcDbSymbolTableRecord
100
AcDbDimStyleTableRecord
  2
SC_DEFAUT
 70
     0
  3

  4

  5
OPEN30
  6

  7

 40
1.0
 41
5.0
 42
2.0
 43
0.38
 44
2.5
 45
0.0
 46
0.0
 47
0.0
 48
0.0
140
2.5
141
0.0
142
0.0
143
25.4
144
1.0
145
0.0
146
1.0
147
2.0
 71
     0
 72
     0
 73
     1
 74
     1
 75
     0
 76
     0
 77
     1
 78
    12
170
     0
171
     2
172
     0
173
     0
174
     0
175
     0
176
     0
177
     0
178
     0
270
     2
271
     1
272
     1
273
     2
274
     2
340
72B
275
     0
280
     0
281
     0
282
     0
283
     1
284
    12
285
    12
286
    12
287
     5
288
     0
  0
ENDTAB
  0
TABLE
  2
BLOCK_RECORD
  5
1
100
AcDbSymbolTable
 70
     3
  0
BLOCK_RECORD
  5
A
102
{ACAD_XDICTIONARY
360
7D7
102
}
100
AcDbSymbolTableRecord
100
AcDbBlockTableRecord
  2
*MODEL_SPACE
  0
BLOCK_RECORD
  5
B
102
{ACAD_XDICTIONARY
360
123EB
102
}
100
AcDbSymbolTableRecord
100
AcDbBlockTableRecord
  2
*PAPER_SPACE
  0
BLOCK_RECORD
  5
6FA
100
AcDbSymbolTableRecord
100
AcDbBlockTableRecord
  2
_OPEN30
  0
BLOCK_RECORD
  5
F6ED
100
AcDbSymbolTableRecord
100
AcDbBlockTableRecord
  2
*D1
  0
BLOCK_RECORD
  5
F769
100
AcDbSymbolTableRecord
100
AcDbBlockTableRecord
  2
*D2
  0
ENDTAB
  0
ENDSEC
  0
SECTION
  2
BLOCKS
  0
BLOCK
  5
D
100
AcDbEntity
  8
0
100
AcDbBlockBegin
  2
*MODEL_SPACE
 70
     0
 10
0.0
 20
0.0
 30
0.0
  3
*MODEL_SPACE
  1

  0
ENDBLK
  5
E
100
AcDbEntity
  8
0
100
AcDbBlockEnd
  0
BLOCK
  5
F
100
AcDbEntity
 67
     1
  8
0
100
AcDbBlockBegin
  2
*PAPER_SPACE
 70
     0
 10
0.0
 20
0.0
 30
0.0
  3
*PAPER_SPACE
  1

  0
ENDBLK
  5
10
100
AcDbEntity
 67
     1
  8
0
100
AcDbBlockEnd
  0
BLOCK
  5
6FB
100
AcDbEntity
  8
0
100
AcDbBlockBegin
  2
_OPEN30
 70
     0
 10
0.0
 20
0.0
 30
0.0
  3
_OPEN30
  1

  0
LINE
  5
6FC
100
AcDbEntity
  8
COTATION1
 62
     0
100
AcDbLine
 10
-1.0
 20
0.267949
 30
0.0
 11
0.0
 21
0.0
 31
0.0
1001
ACAD
1000
RTLwPs
1070
   158
  0
LINE
  5
6FD
100
AcDbEntity
  8
COTATION1
 62
     0
100
AcDbLine
 10
0.0
 20
0.0
 30
0.0
 11
-1.0
 21
-0.267949
 31
0.0
1001
ACAD
1000
RTLwPs
1070
   158
  0
LINE
  5
6FE
100
AcDbEntity
  8
COTATION1
 62
     0
100
AcDbLine
 10
0.0
 20
0.0
 30
0.0
 11
-1.0
 21
0.0
 31
0.0
1001
ACAD
1000
RTLwPs
1070
   158
  0
ENDBLK
  5
6FF
100
AcDbEntity
  8
0
100
AcDbBlockEnd
  0
BLOCK
  5
F6F7
100
AcDbEntity
  8
0
100
AcDbBlockBegin
  2
*D1
 70
     1
 10
0.0
 20
0.0
 30
0.0
  3
*D1
  1

1001
ACAD
1000
RTLwPs
1070
   128
  0
LINE
  5
12399
100
AcDbEntity
  8
COTATION1
 62
     0
100
AcDbLine
 10
116.976094
 20
162.741421
 30
0.0
 11
116.976094
 21
184.241421
 31
0.0
1001
ACAD
1000
RTLwPs
1070
   158
  0
LINE
  5
1239A
100
AcDbEntity
  8
COTATION1
 62
     0
100
AcDbLine
 10
23.976094
 20
162.741421
 30
0.0
 11
23.976094
 21
184.241421
 31
0.0
1001
ACAD
1000
RTLwPs
1070
   158
  0
LINE
  5
1239B
100
AcDbEntity
  8
COTATION1
 62
     0
100
AcDbLine
 10
111.976094
 20
181.741421
 30
0.0
 11
28.976094
 21
181.741421
 31
0.0
1001
ACAD
1000
RTLwPs
1070
   158
  0
INSERT
  5
1239C
100
AcDbEntity
  8
COTATION1
 62
     0
100
AcDbBlockReference
  2
_OPEN30
 10
116.976094
 20
181.741421
 30
0.0
 41
5.0
 42
5.0
 43
5.0
1001
ACAD
1000
RTLwPs
1070
   158
  0
INSERT
  5
1239D
100
AcDbEntity
  8
COTATION1
 62
     0
100
AcDbBlockReference
  2
_OPEN30
 10
23.976094
 20
181.741421
 30
0.0
 41
5.0
 42
5.0
 43
5.0
 50
180.0
1001
ACAD
1000
RTLwPs
1070
   158
  0
MTEXT
  5
1239E
100
AcDbEntity
  8
COTATION1
 62
     0
100
AcDbMText
 10
70.476094
 20
184.991421
 30
0.0
 40
2.5
 41
0.0
 71
     5
 72
     1
  1
\A1;93
  7
ROMANS
1001
ACAD
1000
MTEXTBEGIN
1070
    73
1070
     1
1070
    44
1040
1.0
1070
    74
1070
     0
1000
MTEXTEND
1000
MTEXTBEGIN
1070
    73
1070
     1
1070
    44
1040
1.0
1070
    74
1070
     0
1000
MTEXTEND
  0
POINT
  5
1239F
100
AcDbEntity
  8
DEFPOINTS
 62
     0
100
AcDbPoint
 10
116.976094
 20
160.741421
 30
0.0
1001
ACAD
1000
RTLwPs
1070
   128
  0
POINT
  5
123A0
100
AcDbEntity
  8
DEFPOINTS
 62
     0
100
AcDbPoint
 10
23.976094
 20
160.741421
 30
0.0
1001
ACAD
1000
RTLwPs
1070
   128
  0
POINT
  5
123A1
100
AcDbEntity
  8
DEFPOINTS
 62
     0
100
AcDbPoint
 10
23.976094
 20
181.741421
 30
0.0
1001
ACAD
1000
RTLwPs
1070
   128
  0
ENDBLK
  5
F6F8
100
AcDbEntity
  8
0
100
AcDbBlockEnd
1001
ACAD
1000
RTLwPs
1070
   128
  0
BLOCK
  5
F774
100
AcDbEntity
  8
0
100
AcDbBlockBegin
  2
*D2
 70
     1
 10
0.0
 20
0.0
 30
0.0
  3
*D2
  1

1001
ACAD
1000
RTLwPs
1070
   128
  0
LINE
  5
123A2
100
AcDbEntity
  8
COTATION1
 62
     0
100
AcDbLine
 10
27.976094
 20
166.741421
 30
0.0
 11
6.476094
 21
166.741421
 31
0.0
1001
ACAD
1000
RTLwPs
1070
   158
  0
LINE
  5
123A3
100
AcDbEntity
  8
COTATION1
 62
     0
100
AcDbLine
 10
27.976094
 20
19.741421
 30
0.0
 11
6.476094
 21
19.741421
 31
0.0
1001
ACAD
1000
RTLwPs
1070
   158
  0
LINE
  5
123A4
100
AcDbEntity
  8
COTATION1
 62
     0
100
AcDbLine
 10
8.976094
 20
161.741421
 30
0.0
 11
8.976094
 21
96.491421
 31
0.0
1001
ACAD
1000
RTLwPs
1070
   158
  0
LINE
  5
123A5
100
AcDbEntity
  8
COTATION1
 62
     0
100
AcDbLine
 10
8.976094
 20
24.741421
 30
0.0
 11
8.976094
 21
89.991421
 31
0.0
1001
ACAD
1000
RTLwPs
1070
   158
  0
INSERT
  5
123A6
100
AcDbEntity
  8
COTATION1
 62
     0
100
AcDbBlockReference
  2
_OPEN30
 10
8.976094
 20
166.741421
 30
0.0
 41
5.0
 42
5.0
 43
5.0
 50
90.0
1001
ACAD
1000
RTLwPs
1070
   158
  0
INSERT
  5
123A7
100
AcDbEntity
  8
COTATION1
 62
     0
100
AcDbBlockReference
  2
_OPEN30
 10
8.976094
 20
19.741421
 30
0.0
 41
5.0
 42
5.0
 43
5.0
 50
270.0
1001
ACAD
1000
RTLwPs
1070
   158
  0
MTEXT
  5
123A8
100
AcDbEntity
  8
COTATION1
 62
     0
100
AcDbMText
 10
8.976094
 20
93.241421
 30
0.0
 40
2.5
 41
0.0
 71
     5
 72
     1
  1
\A1;147
  7
ROMANS
1001
ACAD
1000
MTEXTBEGIN
1070
    73
1070
     1
1070
    44
1040
1.0
1070
    74
1070
     0
1000
MTEXTEND
1000
MTEXTBEGIN
1070
    73
1070
     1
1070
    44
1040
1.0
1070
    74
1070
     0
1000
MTEXTEND
  0
POINT
  5
123A9
100
AcDbEntity
  8
DEFPOINTS
 62
     0
100
AcDbPoint
 10
29.976094
 20
166.741421
 30
0.0
1001
ACAD
1000
RTLwPs
1070
   128
  0
POINT
  5
123AA
100
AcDbEntity
  8
DEFPOINTS
 62
     0
100
AcDbPoint
 10
29.976094
 20
19.741421
 30
0.0
1001
ACAD
1000
RTLwPs
1070
   128
  0
POINT
  5
123AB
100
AcDbEntity
  8
DEFPOINTS
 62
     0
100
AcDbPoint
 10
8.976094
 20
19.741421
 30
0.0
1001
ACAD
1000
RTLwPs
1070
   128
  0
ENDBLK
  5
F775
100
AcDbEntity
  8
0
100
AcDbBlockEnd
1001
ACAD
1000
RTLwPs
1070
   128
  0
ENDSEC
  0
SECTION
  2
ENTITIES
  0
LINE
  5
F691
100
AcDbEntity
  8
ALPHA
  6
CONTINUOUS
100
AcDbLine
 10
116.976094
 20
160.741421
 30
0.0
 11
116.976094
 21
93.241421
 31
0.0
1001
ACAD
1000
RTLwPs
1070
   128
  0
LINE
  5
F692
100
AcDbEntity
  8
ALPHA
  6
CONTINUOUS
100
AcDbLine
 10
29.976094
 20
166.741421
 30
0.0
 11
110.976094
 21
166.741421
 31
0.0
1001
ACAD
1000
RTLwPs
1070
   128
  0
LINE
  5
F694
100
AcDbEntity
  8
ALPHA
  6
CONTINUOUS
100
AcDbLine
 10
23.976094
 20
160.741421
 30
0.0
 11
23.976094
 21
93.241421
 31
0.0
1001
ACAD
1000
RTLwPs
1070
   128
  0
ARC
  5
F6A1
100
AcDbEntity
  8
ALPHA
  6
CONTINUOUS
100
AcDbCircle
 10
29.976094
 20
160.741421
 30
0.0
 40
6.0
100
AcDbArc
 50
90.0
 51
180.0
1001
ACAD
1000
RTLwPs
1070
   128
  0
ARC
  5
F6A2
100
AcDbEntity
  8
ALPHA
  6
CONTINUOUS
100
AcDbCircle
 10
110.976094
 20
160.741421
 30
0.0
 40
6.0
100
AcDbArc
 50
0.0
 51
90.0
1001
ACAD
1000
RTLwPs
1070
   128
  0
LINE
  5
F6A3
100
AcDbEntity
  8
ALPHA
  6
CONTINUOUS
100
AcDbLine
 10
63.476094
 20
166.741421
 30
0.0
 11
59.476094
 21
150.241421
 31
0.0
1001
ACAD
1000
RTLwPs
1070
   128
  0
CIRCLE
  5
F6AD
100
AcDbEntity
  8
ALPHA
  6
CONTINUOUS
100
AcDbCircle
 10
70.476094
 20
158.241421
 30
0.0
 40
4.65
1001
ACAD
1000
RTLwPs
1070
   128
  0
LINE
  5
F6AE
100
AcDbEntity
  8
ALPHA
  6
CONTINUOUS
100
AcDbLine
 10
77.476094
 20
166.741421
 30
0.0
 11
81.476094
 21
150.241421
 31
0.0
1001
ACAD
1000
RTLwPs
1070
   128
  0
LINE
  5
F6AF
100
AcDbEntity
  8
ALPHA
  6
CONTINUOUS
100
AcDbLine
 10
66.976094
 20
158.991421
 30
0.0
 11
69.726094
 21
158.991421
 31
0.0
1001
ACAD
1000
RTLwPs
1070
   128
  0
LINE
  5
F6B0
100
AcDbEntity
  8
ALPHA
  6
CONTINUOUS
100
AcDbLine
 10
66.976094
 20
157.491421
 30
0.0
 11
69.726094
 21
157.491421
 31
0.0
1001
ACAD
1000
RTLwPs
1070
   128
  0
LINE
  5
F6B1
100
AcDbEntity
  8
ALPHA
  6
CONTINUOUS
100
AcDbLine
 10
66.976094
 20
158.991421
 30
0.0
 11
66.976094
 21
157.491421
 31
0.0
1001
ACAD
1000
RTLwPs
1070
   128
  0
LINE
  5
F6B3
100
AcDbEntity
  8
ALPHA
  6
CONTINUOUS
100
AcDbLine
 10
73.976094
 20
158.991421
 30
0.0
 11
73.976094
 21
157.491421
 31
0.0
1001
ACAD
1000
RTLwPs
1070
   128
  0
LINE
  5
F6B4
100
AcDbEntity
  8
ALPHA
  6
CONTINUOUS
100
AcDbLine
 10
71.226094
 20
161.741421
 30
0.0
 11
71.226094
 21
158.991421
 31
0.0
1001
ACAD
1000
RTLwPs
1070
   128
  0
LINE
  5
F6B5
100
AcDbEntity
  8
ALPHA
  6
CONTINUOUS
100
AcDbLine
 10
69.726094
 20
161.741421
 30
0.0
 11
69.726094
 21
158.991421
 31
0.0
1001
ACAD
1000
RTLwPs
1070
   128
  0
LINE
  5
F6B6
100
AcDbEntity
  8
ALPHA
  6
CONTINUOUS
100
AcDbLine
 10
69.726094
 20
154.741421
 30
0.0
 11
71.226094
 21
154.741421
 31
0.0
1001
ACAD
1000
RTLwPs
1070
   128
  0
LINE
  5
F6B7
100
AcDbEntity
  8
ALPHA
  6
CONTINUOUS
100
AcDbLine
 10
69.726094
 20
161.741421
 30
0.0
 11
71.226094
 21
161.741421
 31
0.0
1001
ACAD
1000
RTLwPs
1070
   128
  0
LINE
  5
F6B8
100
AcDbEntity
  8
ALPHA
  6
CONTINUOUS
100
AcDbLine
 10
71.226094
 20
157.491421
 30
0.0
 11
71.226094
 21
154.741421
 31
0.0
1001
ACAD
1000
RTLwPs
1070
   128
  0
LINE
  5
F6B9
100
AcDbEntity
  8
ALPHA
  6
CONTINUOUS
100
AcDbLine
 10
69.726094
 20
157.491421
 30
0.0
 11
69.726094
 21
154.741421
 31
0.0
1001
ACAD
1000
RTLwPs
1070
   128
  0
LINE
  5
F6BA
100
AcDbEntity
  8
ALPHA
  6
CONTINUOUS
100
AcDbLine
 10
71.226094
 20
158.991421
 30
0.0
 11
73.976094
 21
158.991421
 31
0.0
1001
ACAD
1000
RTLwPs
1070
   128
  0
LINE
  5
F6BB
100
AcDbEntity
  8
ALPHA
  6
CONTINUOUS
100
AcDbLine
 10
71.226094
 20
157.491421
 30
0.0
 11
73.976094
 21
157.491421
 31
0.0
1001
ACAD
1000
RTLwPs
1070
   128
  0
LINE
  5
F6BC
100
AcDbEntity
  8
ALPHA
  6
CONTINUOUS
100
AcDbLine
 10
116.976094
 20
25.741421
 30
0.0
 11
116.976094
 21
93.241421
 31
0.0
1001
ACAD
1000
RTLwPs
1070
   128
  0
ARC
  5
F6BD
100
AcDbEntity
  8
ALPHA
  6
CONTINUOUS
100
AcDbCircle
 10
110.976094
 20
25.741421
 30
0.0
 40
6.0
100
AcDbArc
 50
270.0
 51
0.0
1001
ACAD
1000
RTLwPs
1070
   128
  0
LINE
  5
F6BE
100
AcDbEntity
  8
ALPHA
  6
CONTINUOUS
100
AcDbLine
 10
23.976094
 20
25.741421
 30
0.0
 11
23.976094
 21
93.241421
 31
0.0
1001
ACAD
1000
RTLwPs
1070
   128
  0
LINE
  5
F6BF
100
AcDbEntity
  8
ALPHA
  6
CONTINUOUS
100
AcDbLine
 10
29.976094
 20
19.741421
 30
0.0
 11
110.976094
 21
19.741421
 31
0.0
1001
ACAD
1000
RTLwPs
1070
   128
  0
ARC
  5
F6C5
100
AcDbEntity
  8
ALPHA
  6
CONTINUOUS
100
AcDbCircle
 10
29.976094
 20
25.741421
 30
0.0
 40
6.0
100
AcDbArc
 50
180.0
 51
270.0
1001
ACAD
1000
RTLwPs
1070
   128
  0
LINE
  5
F6D2
100
AcDbEntity
  8
ALPHA
  6
CONTINUOUS
100
AcDbLine
 10
70.476094
 20
126.741421
 30
0.0
 11
100.476094
 21
126.741421
 31
0.0
1001
ACAD
1000
RTLwPs
1070
   128
  0
LINE
  5
F6D3
100
AcDbEntity
  8
ALPHA
  6
CONTINUOUS
100
AcDbLine
 10
70.476094
 20
76.741421
 30
0.0
 11
100.476094
 21
76.741421
 31
0.0
1001
ACAD
1000
RTLwPs
1070
   128
  0
LINE
  5
F6D4
100
AcDbEntity
  8
ALPHA
  6
CONTINUOUS
100
AcDbLine
 10
106.476094
 20
120.741421
 30
0.0
 11
106.476094
 21
82.741421
 31
0.0
1001
ACAD
1000
RTLwPs
1070
   128
  0
ARC
  5
F6D5
100
AcDbEntity
  8
ALPHA
  6
CONTINUOUS
100
AcDbCircle
 10
100.476094
 20
120.741421
 30
0.0
 40
6.0
100
AcDbArc
 50
0.0
 51
90.0
1001
ACAD
1000
RTLwPs
1070
   128
  0
ARC
  5
F6D6
100
AcDbEntity
  8
ALPHA
  6
CONTINUOUS
100
AcDbCircle
 10
100.476094
 20
82.741421
 30
0.0
 40
6.0
100
AcDbArc
 50
270.0
 51
0.0
1001
ACAD
1000
RTLwPs
1070
   128
  0
LINE
  5
F6D7
100
AcDbEntity
  8
ALPHA
  6
CONTINUOUS
100
AcDbLine
 10
70.476094
 20
120.741421
 30
0.0
 11
94.476094
 21
120.741421
 31
0.0
1001
ACAD
1000
RTLwPs
1070
   128
  0
LINE
  5
F6D8
100
AcDbEntity
  8
ALPHA
  6
CONTINUOUS
100
AcDbLine
 10
70.476094
 20
82.741421
 30
0.0
 11
94.476094
 21
82.741421
 31
0.0
1001
ACAD
1000
RTLwPs
1070
   128
  0
LINE
  5
F6D9
100
AcDbEntity
  8
ALPHA
  6
CONTINUOUS
100
AcDbLine
 10
101.476094
 20
113.741421
 30
0.0
 11
101.476094
 21
89.741421
 31
0.0
1001
ACAD
1000
RTLwPs
1070
   128
  0
ARC
  5
F6DA
100
AcDbEntity
  8
ALPHA
  6
CONTINUOUS
100
AcDbCircle
 10
94.476094
 20
113.741421
 30
0.0
 40
7.0
100
AcDbArc
 50
0.0
 51
90.0
1001
ACAD
1000
RTLwPs
1070
   128
  0
ARC
  5
F6DB
100
AcDbEntity
  8
ALPHA
  6
CONTINUOUS
100
AcDbCircle
 10
94.476094
 20
89.741421
 30
0.0
 40
7.0
100
AcDbArc
 50
270.0
 51
0.0
1001
ACAD
1000
RTLwPs
1070
   128
  0
LINE
  5
F6DC
100
AcDbEntity
  8
ALPHA
  6
CONTINUOUS
100
AcDbLine
 10
78.976094
 20
82.741421
 30
0.0
 11
78.976094
 21
120.741421
 31
0.0
1001
ACAD
1000
RTLwPs
1070
   128
  0
LINE
  5
F6DD
100
AcDbEntity
  8
ALPHA
  6
CONTINUOUS
100
AcDbLine
 10
70.476094
 20
126.741421
 30
0.0
 11
40.476094
 21
126.741421
 31
0.0
1001
ACAD
1000
RTLwPs
1070
   128
  0
LINE
  5
F6DE
100
AcDbEntity
  8
ALPHA
  6
CONTINUOUS
100
AcDbLine
 10
70.476094
 20
120.741421
 30
0.0
 11
46.476094
 21
120.741421
 31
0.0
1001
ACAD
1000
RTLwPs
1070
   128
  0
LINE
  5
F6DF
100
AcDbEntity
  8
ALPHA
  6
CONTINUOUS
100
AcDbLine
 10
70.476094
 20
76.741421
 30
0.0
 11
40.476094
 21
76.741421
 31
0.0
1001
ACAD
1000
RTLwPs
1070
   128
  0
LINE
  5
F6E0
100
AcDbEntity
  8
ALPHA
  6
CONTINUOUS
100
AcDbLine
 10
70.476094
 20
82.741421
 30
0.0
 11
46.476094
 21
82.741421
 31
0.0
1001
ACAD
1000
RTLwPs
1070
   128
  0
ARC
  5
F6E1
100
AcDbEntity
  8
ALPHA
  6
CONTINUOUS
100
AcDbCircle
 10
40.476094
 20
82.741421
 30
0.0
 40
6.0
100
AcDbArc
 50
180.0
 51
270.0
1001
ACAD
1000
RTLwPs
1070
   128
  0
LINE
  5
F6E2
100
AcDbEntity
  8
ALPHA
  6
CONTINUOUS
100
AcDbLine
 10
34.476094
 20
120.741421
 30
0.0
 11
34.476094
 21
82.741421
 31
0.0
1001
ACAD
1000
RTLwPs
1070
   128
  0
LINE
  5
F6E3
100
AcDbEntity
  8
ALPHA
  6
CONTINUOUS
100
AcDbLine
 10
39.476094
 20
113.741421
 30
0.0
 11
39.476094
 21
89.741421
 31
0.0
1001
ACAD
1000
RTLwPs
1070
   128
  0
ARC
  5
F6E4
100
AcDbEntity
  8
ALPHA
  6
CONTINUOUS
100
AcDbCircle
 10
46.476094
 20
89.741421
 30
0.0
 40
7.0
100
AcDbArc
 50
180.0
 51
270.0
1001
ACAD
1000
RTLwPs
1070
   128
  0
ARC
  5
F6E5
100
AcDbEntity
  8
ALPHA
  6
CONTINUOUS
100
AcDbCircle
 10
46.476094
 20
113.741421
 30
0.0
 40
7.0
100
AcDbArc
 50
90.0
 51
180.0
1001
ACAD
1000
RTLwPs
1070
   128
  0
ARC
  5
F6E6
100
AcDbEntity
  8
ALPHA
  6
CONTINUOUS
100
AcDbCircle
 10
40.476094
 20
120.741421
 30
0.0
 40
6.0
100
AcDbArc
 50
90.0
 51
180.0
1001
ACAD
1000
RTLwPs
1070
   128
  0
LINE
  5
F6E7
100
AcDbEntity
  8
AXE
100
AcDbLine
 10
131.976094
 20
93.241421
 30
0.0
 11
18.976094
 21
93.241421
 31
0.0
  0
TEXT
  5
F6E8
100
AcDbEntity
  8
AXE
100
AcDbText
 10
125.460222
 20
94.245691
 30
0.0
 40
8.0
  1
X
  7
ROMANS
 72
     2
 11
131.936412
 21
94.245691
 31
0.0
100
AcDbText
  0
LINE
  5
F6EA
100
AcDbEntity
  8
AXE
100
AcDbLine
 10
70.476094
 20
171.741421
 30
0.0
 11
70.476094
 21
4.741421
 31
0.0
  0
TEXT
  5
F6EB
100
AcDbEntity
  8
AXE
100
AcDbText
 10
62.999904
 20
4.741421
 30
0.0
 40
8.0
  1
Y
  7
ROMANS
 72
     2
 11
69.476094
 21
4.741421
 31
0.0
100
AcDbText
  0
DIMENSION
  5
F6EC
100
AcDbEntity
  8
COTATION1
100
AcDbDimension
  2
*D1
 10
23.976094
 20
181.741421
 30
0.0
 11
70.476094
 21
184.991421
 31
0.0
 70
    32
  3
SC_DEFAUT
100
AcDbAlignedDimension
 13
116.976094
 23
160.741421
 33
0.0
 14
23.976094
 24
160.741421
 34
0.0
100
AcDbRotatedDimension
  0
DIMENSION
  5
F768
100
AcDbEntity
  8
COTATION1
100
AcDbDimension
  2
*D2
 10
8.976094
 20
19.741421
 30
0.0
 11
8.976094
 21
93.241421
 31
0.0
 70
    32
  3
SC_DEFAUT
100
AcDbAlignedDimension
 13
29.976094
 23
166.741421
 33
0.0
 14
29.976094
 24
19.741421
 34
0.0
 50
90.0
100
AcDbRotatedDimension
  0
LINE
  5
F9C0
100
AcDbEntity
  8
ALPHA
  6
CONTINUOUS
100
AcDbLine
 10
23.976094
 20
150.241421
 30
0.0
 11
116.976094
 21
150.241421
 31
0.0
1001
ACAD
1000
RTLwPs
1070
   128
  0
LINE
  5
F9C2
100
AcDbEntity
  8
AXE
100
AcDbLine
 10
84.132045
 20
158.241421
 30
0.0
 11
57.132045
 21
158.241421
 31
0.0
  0
LINE
  5
F9C3
100
AcDbEntity
  8
ALPHA
  6
CONTINUOUS
100
AcDbLine
 10
69.726094
 20
31.741421
 30
0.0
 11
71.226094
 21
31.741421
 31
0.0
1001
ACAD
1000
RTLwPs
1070
   128
  0
LINE
  5
F9C4
100
AcDbEntity
  8
ALPHA
  6
CONTINUOUS
100
AcDbLine
 10
66.976094
 20
28.991421
 30
0.0
 11
69.726094
 21
28.991421
 31
0.0
1001
ACAD
1000
RTLwPs
1070
   128
  0
LINE
  5
F9C5
100
AcDbEntity
  8
ALPHA
  6
CONTINUOUS
100
AcDbLine
 10
71.226094
 20
28.991421
 30
0.0
 11
73.976094
 21
28.991421
 31
0.0
1001
ACAD
1000
RTLwPs
1070
   128
  0
LINE
  5
F9C6
100
AcDbEntity
  8
ALPHA
  6
CONTINUOUS
100
AcDbLine
 10
66.976094
 20
27.491421
 30
0.0
 11
69.726094
 21
27.491421
 31
0.0
1001
ACAD
1000
RTLwPs
1070
   128
  0
LINE
  5
F9C7
100
AcDbEntity
  8
ALPHA
  6
CONTINUOUS
100
AcDbLine
 10
71.226094
 20
27.491421
 30
0.0
 11
73.976094
 21
27.491421
 31
0.0
1001
ACAD
1000
RTLwPs
1070
   128
  0
LINE
  5
F9C8
100
AcDbEntity
  8
ALPHA
  6
CONTINUOUS
100
AcDbLine
 10
69.726094
 20
24.741421
 30
0.0
 11
69.726094
 21
27.491421
 31
0.0
1001
ACAD
1000
RTLwPs
1070
   128
  0
LINE
  5
F9C9
100
AcDbEntity
  8
ALPHA
  6
CONTINUOUS
100
AcDbLine
 10
69.726094
 20
28.991421
 30
0.0
 11
69.726094
 21
31.741421
 31
0.0
1001
ACAD
1000
RTLwPs
1070
   128
  0
LINE
  5
F9CA
100
AcDbEntity
  8
ALPHA
  6
CONTINUOUS
100
AcDbLine
 10
71.226094
 20
24.741421
 30
0.0
 11
71.226094
 21
27.491421
 31
0.0
1001
ACAD
1000
RTLwPs
1070
   128
  0
LINE
  5
F9CB
100
AcDbEntity
  8
ALPHA
  6
CONTINUOUS
100
AcDbLine
 10
71.226094
 20
28.991421
 30
0.0
 11
71.226094
 21
31.741421
 31
0.0
1001
ACAD
1000
RTLwPs
1070
   128
  0
LINE
  5
F9CC
100
AcDbEntity
  8
ALPHA
  6
CONTINUOUS
100
AcDbLine
 10
66.976094
 20
27.491421
 30
0.0
 11
66.976094
 21
28.991421
 31
0.0
1001
ACAD
1000
RTLwPs
1070
   128
  0
LINE
  5
F9CD
100
AcDbEntity
  8
ALPHA
  6
CONTINUOUS
100
AcDbLine
 10
63.476094
 20
19.741421
 30
0.0
 11
59.476094
 21
36.241421
 31
0.0
1001
ACAD
1000
RTLwPs
1070
   128
  0
CIRCLE
  5
F9CE
100
AcDbEntity
  8
ALPHA
  6
CONTINUOUS
100
AcDbCircle
 10
70.476094
 20
28.241421
 30
0.0
 40
4.65
1001
ACAD
1000
RTLwPs
1070
   128
  0
LINE
  5
F9CF
100
AcDbEntity
  8
ALPHA
  6
CONTINUOUS
100
AcDbLine
 10
77.476094
 20
19.741421
 30
0.0
 11
81.476094
 21
36.241421
 31
0.0
1001
ACAD
1000
RTLwPs
1070
   128
  0
LINE
  5
F9D0
100
AcDbEntity
  8
ALPHA
  6
CONTINUOUS
100
AcDbLine
 10
73.976094
 20
27.491421
 30
0.0
 11
73.976094
 21
28.991421
 31
0.0
1001
ACAD
1000
RTLwPs
1070
   128
  0
LINE
  5
F9D1
100
AcDbEntity
  8
ALPHA
  6
CONTINUOUS
100
AcDbLine
 10
69.726094
 20
24.741421
 30
0.0
 11
71.226094
 21
24.741421
 31
0.0
1001
ACAD
1000
RTLwPs
1070
   128
  0
LINE
  5
F9D2
100
AcDbEntity
  8
ALPHA
  6
CONTINUOUS
100
AcDbLine
 10
23.976094
 20
36.241421
 30
0.0
 11
116.976094
 21
36.241421
 31
0.0
1001
ACAD
1000
RTLwPs
1070
   128
  0
LINE
  5
F9D3
100
AcDbEntity
  8
AXE
100
AcDbLine
 10
84.132045
 20
28.241421
 30
0.0
 11
57.132045
 21
28.241421
 31
0.0
  0
ENDSEC
  0
SECTION
  2
OBJECTS
  0
DICTIONARY
  5
19
102
{ACAD_XDICTIONARY
360
123ED
102
}
100
AcDbDictionary
  3
ACAD_COLOR
350
6DB
  3
ACAD_GROUP
350
1A
  3
ACAD_LAYOUT
350
1E
  3
ACAD_MATERIAL
350
6DA
  3
ACAD_MLINESTYLE
350
1B
  3
ACAD_PLOTSETTINGS
350
22
  3
ACAD_PLOTSTYLENAME
350
1F
  3
ACAD_TABLESTYLE
350
6DC
  3
ACAD_WIPEOUT_VARS
350
23
  3
ACDBHEADERROUNDTRIPXREC
350
123C9
  3
ACDBVARIABLEDICTIONARY
350
7DA
  3
ASE_INDEX_DICTIONARY
350
3571
  0
DICTIONARY
  5
123BB
100
AcDbDictionary
  3
ACAD_XREC_ROUNDTRIP
360
123BC
  0
DICTIONARY
  5
123BD
100
AcDbDictionary
  3
ACAD_XREC_ROUNDTRIP
360
123BE
  0
DICTIONARY
  5
123BF
100
AcDbDictionary
  3
ACAD_XREC_ROUNDTRIP
360
123C0
  0
DICTIONARY
  5
26F0
100
AcDbDictionary
  3
ACAD_LAYERFILTERS
360
26F2
  3
ACAD_LAYERSTATES
360
3474
  3
ACLYDICTIONARY
360
26F1
  0
DICTIONARY
  5
123B9
100
AcDbDictionary
  3
ACAD_XREC_ROUNDTRIP
360
123BA
  0
DICTIONARY
  5
123C5
100
AcDbDictionary
  3
ACAD_XREC_ROUNDTRIP
360
123C6
  0
DICTIONARY
  5
123C1
100
AcDbDictionary
  3
ACAD_XREC_ROUNDTRIP
360
123C2
  0
DICTIONARY
  5
123C3
100
AcDbDictionary
  3
ACAD_XREC_ROUNDTRIP
360
123C4
  0
DICTIONARY
  5
123B7
100
AcDbDictionary
  3
ACAD_XREC_ROUNDTRIP
360
123B8
  0
DICTIONARY
  5
123F5
100
AcDbDictionary
  3
ACAD_XREC_ROUNDTRIP
360
123F6
  0
DICTIONARY
  5
7D7
100
AcDbDictionary
  3
ACAD_LAYOUTSELFREF
360
123EA
  3
ACAD_SORTENTS
360
7D8
  0
DICTIONARY
  5
123EB
100
AcDbDictionary
  3
ACAD_LAYOUTSELFREF
360
123EC
  0
DICTIONARY
  5
123ED
100
AcDbDictionary
  3
ACAD_XREC_ROUNDTRIP
360
123EE
  0
DICTIONARY
  5
6DB
102
{ACAD_REACTORS
330
19
102
}
100
AcDbDictionary
  0
DICTIONARY
  5
1A
102
{ACAD_REACTORS
330
19
102
}
100
AcDbDictionary
  0
DICTIONARY
  5
1E
102
{ACAD_XDICTIONARY
360
123F1
102
}
102
{ACAD_REACTORS
330
19
102
}
100
AcDbDictionary
  3
LAYOUT1
350
21
  3
MODEL
350
20
  0
DICTIONARY
  5
6DA
102
{ACAD_REACTORS
330
19
102
}
100
AcDbDictionary
  0
DICTIONARY
  5
1B
102
{ACAD_XDICTIONARY
360
123EF
102
}
102
{ACAD_REACTORS
330
19
102
}
100
AcDbDictionary
  3
STANDARD
350
1C
  0
DICTIONARY
  5
22
102
{ACAD_REACTORS
330
19
102
}
100
AcDbDictionary
  0
ACAD_ZOMBIE_OBJECT
  5
1F
102
{ACAD_REACTORS
330
19
102
}
100
AcDbZombieObject
 90
      499
 91
      517
 93
       86
310
405010041939BDC9B585B0
350
1D
340
1D
 94
        0
  0
DICTIONARY
  5
6DC
102
{ACAD_XDICTIONARY
360
123F3
102
}
102
{ACAD_REACTORS
330
19
102
}
100
AcDbDictionary
  3
STANDARD
350
6DD
  0
ACAD_ZOMBIE_OBJECT
  5
23
102
{ACAD_REACTORS
330
19
102
}
100
AcDbZombieObject
 90
      499
 91
      521
 93
       10
310
406A
 94
        0
  0
DICTIONARY
  5
123C9
102
{ACAD_REACTORS
330
19
102
}
100
AcDbDictionary
  3
CEPSNTYPE
350
123D3
  3
DIMSTYLEDATA
350
123D7
  3
FINGERPRINTGUID
350
123D4
  3
HYPERLINKBASE
350
123CC
  3
INSUNITS
350
123D2
  3
LAYOUTDICT
350
123CE
  3
LWETCUNION
350
123D1
  3
PLOTSETDICT
350
123CF
  3
PLOTSTYLNAMDICT
350
123D0
  3
PSVPSCALE
350
123D6
  3
PUCSBASE
350
123DA
  3
PUCSORGBACK
350
123E0
  3
PUCSORGBOTTOM
350
123DC
  3
PUCSORGFRONT
350
123DF
  3
PUCSORGLEFT
350
123DD
  3
PUCSORGRIGHT
350
123DE
  3
PUCSORGTOP
350
123DB
  3
PUCSORTHOREF
350
123D8
  3
PUCSORTHOVIEW
350
123D9
  3
STYLESHEET
350
123CD
  3
TSTACKALIGN
350
123CA
  3
TSTACKSIZE
350
123CB
  3
UCSBASE
350
123E3
  3
UCSORGBACK
350
123E9
  3
UCSORGBOTTOM
350
123E5
  3
UCSORGFRONT
350
123E8
  3
UCSORGLEFT
350
123E6
  3
UCSORGRIGHT
350
123E7
  3
UCSORGTOP
350
123E4
  3
UCSORTHOREF
350
123E1
  3
UCSORTHOVIEW
350
123E2
  3
VERSIONGUID
350
123D5
  0
DICTIONARY
  5
7DA
102
{ACAD_REACTORS
330
19
102
}
100
AcDbDictionary
  3
CTABLESTYLE
350
7DB
  3
DIMASSOC
350
1A71
  3
PROJECTNAME
350
1A72
  0
DICTIONARY
  5
3571
102
{ACAD_XDICTIONARY
360
123F7
102
}
102
{ACAD_REACTORS
330
19
102
}
100
AcDbDictionary
  3
ASEBLOCKHIERARCHYINDEXRECORD
350
3572
1001
DCO15
1040
1558939622.437
  0
XRECORD
  5
123BC
102
{ACAD_REACTORS
330
123BB
102
}
100
AcDbXrecord
102
EXTNAMES
  1
BYBLOCK
  2
ByBlock
  0
XRECORD
  5
123BE
102
{ACAD_REACTORS
330
123BD
102
}
100
AcDbXrecord
102
EXTNAMES
  1
BYLAYER
  2
ByLayer
  0
XRECORD
  5
123C0
102
{ACAD_REACTORS
330
123BF
102
}
100
AcDbXrecord
102
EXTNAMES
  1
CONTINUOUS
  2
Continuous
  0
DICTIONARY
  5
26F2
102
{ACAD_REACTORS
330
26F0
102
}
100
AcDbDictionary
  0
DICTIONARY
  5
3474
102
{ACAD_REACTORS
330
26F0
102
}
100
AcDbDictionary
  0
DICTIONARY
  5
26F1
102
{ACAD_REACTORS
330
26F0
102
}
100
AcDbDictionary
1001
ACAD
1000
<All
  0
XRECORD
  5
123BA
102
{ACAD_REACTORS
330
123B9
102
}
100
AcDbXrecord
102
EXTNAMES
  1
DEFPOINTS
  2
Defpoints
102
PLOTBIT
280
     0
  0
XRECORD
  5
123C6
102
{ACAD_REACTORS
330
123C5
102
}
100
AcDbXrecord
102
EXTNAMES
  1
STANDARD
  2
Standard
  0
XRECORD
  5
123C2
102
{ACAD_REACTORS
330
123C1
102
}
100
AcDbXrecord
102
EXTNAMES
  1
ACAECLAYERSTANDARD
  2
AcAecLayerStandard
  0
XRECORD
  5
123C4
102
{ACAD_REACTORS
330
123C3
102
}
100
AcDbXrecord
102
EXTNAMES
  1
ACAD_EXEMPT_FROM_CAD_STAND
  2
ACAD_EXEMPT_FROM_CAD_STANDARDS
  0
XRECORD
  5
123B8
102
{ACAD_REACTORS
330
123B7
102
}
100
AcDbXrecord
102
EXTNAMES
  1
STANDARD
  2
Standard
  0
XRECORD
  5
123F6
102
{ACAD_REACTORS
330
123F5
102
}
100
AcDbXrecord
102
ACADR14ROUNDTRIP
1000
DSTYLE
1002
{
1070
   279
 70
     2
1070
   341
340
6FA
1070
   342
340
6FA
1002
}
  0
XRECORD
  5
123EA
102
{ACAD_REACTORS
330
7D7
102
}
100
AcDbXrecord
340
A
  0
SORTENTSTABLE
  5
7D8
102
{ACAD_REACTORS
330
7D7
102
}
100
AcDbSortentsTable
330
A
331
F6D3
  5
F6B1
331
F6E4
  5
F6E6
331
F6AD
  5
F6C2
331
F9CA
  5
F9CA
331
F6BE
  5
F6C9
331
F6D5
  5
F6BB
331
F6E6
  5
F6E8
331
F9CC
  5
F9CC
331
F6AF
  5
F6A4
331
F6D7
  5
F6B0
331
F6A2
  5
F694
331
F6E8
  5
F6EA
331
F6B1
  5
F6C0
331
F9CE
  5
F9CE
331
F768
  5
F768
331
F6D9
  5
F6B8
331
F6EA
  5
F6EB
331
F6B3
  5
F6C4
331
F9D0
  5
F9D0
331
F6DB
  5
F6B9
331
F6EC
  5
F702
331
F6B5
  5
F6BC
331
F9D2
  5
F9D2
331
F691
  5
F691
331
F6DD
  5
F6DF
331
F9C3
  5
F9C3
331
F6B9
  5
F6BD
331
F6B7
  5
F6C5
331
F6E1
  5
F6E3
331
F6DF
  5
F6E1
331
F9C5
  5
F9C5
331
F6BB
  5
F6A2
331
F6D2
  5
F6AF
331
F6E3
  5
F6E5
331
F9C9
  5
F9C9
331
F9C7
  5
F9C7
331
F6BD
  5
F6C8
331
F6D4
  5
F6B7
331
F6E5
  5
F6E7
331
F6AE
  5
F6C3
331
F9CB
  5
F9CB
331
F6BF
  5
F6CC
331
F6D6
  5
F6B4
331
F6A1
  5
F6AD
331
F6E7
  5
F6E9
331
F6B0
  5
F6A1
331
F9CD
  5
F9CD
331
F6D8
  5
F6B3
331
F6A3
  5
F6C1
331
F9CF
  5
F9CF
331
F6DA
  5
F6BA
331
F9C0
  5
F9C0
331
F6EB
  5
F6EC
331
F6B4
  5
F6BE
331
F9D1
  5
F9D1
331
F6C5
  5
F6D3
331
F6DC
  5
F6C7
331
F9C2
  5
F9C2
331
F6B8
  5
F6BF
331
F6B6
  5
F6A0
331
F9D3
  5
F9D3
331
F692
  5
F69D
331
F6E0
  5
F6E2
331
F6DE
  5
F6E0
331
F9C4
  5
F9C4
331
F6BA
  5
F6AC
331
F694
  5
F69C
331
F6E2
  5
F6E4
331
F9C8
  5
F9C8
331
F9C6
  5
F9C6
331
F6BC
  5
F6C6
  0
XRECORD
  5
123EC
102
{ACAD_REACTORS
330
123EB
102
}
100
AcDbXrecord
340
B
  0
XRECORD
  5
123EE
102
{ACAD_REACTORS
330
123ED
102
}
100
AcDbXrecord
102
EXTNAMES
  1
ACDBVARIABLEDICTIONARY
  2
AcDbVariableDictionary
  0
DICTIONARY
  5
123F1
100
AcDbDictionary
  3
ACAD_XREC_ROUNDTRIP
360
123F2
  0
ACAD_ZOMBIE_OBJECT
  5
21
102
{ACAD_XDICTIONARY
360
123B0
102
}
102
{ACAD_REACTORS
330
1E
102
}
100
AcDbZombieObject
 90
      499
 91
      515
 93
      812
310
AAAAAAAAAA5A69074C61796F757431406A800000000000000000000000000000000000000000000A1000000000000008902A6A6A10232D5E076BC5510408CB5781DAF154410232D5E076BC5510408CB5781DAF15C410232D5E076BC5710408CB5781DAF15C45
330
B
330
0
340
0
340
0
 94
        0
  0
ACAD_ZOMBIE_OBJECT
  5
20
102
{ACAD_XDICTIONARY
360
123AE
102
}
102
{ACAD_REACTORS
330
1E
102
}
100
AcDbZombieObject
 90
      499
 91
      515
 93
      420
310
A00012AAAAAAAA5A69054D6F64656CAA80000000000000000000000000000000000000000000000000000000000000002AAAAAAAA0
330
A
330
0
340
0
340
0
 94
        0
  0
DICTIONARY
  5
123EF
100
AcDbDictionary
  3
ACAD_XREC_ROUNDTRIP
360
123F0
  0
MLINESTYLE
  5
1C
102
{ACAD_REACTORS
330
1B
102
}
100
AcDbMlineStyle
  2
STANDARD
 70
     0
  3

 62
     0
 51
90.0
 52
90.0
 71
     2
 49
0.5
 62
   256
  6
BYLAYER
 49
-0.5
 62
   256
  6
BYLAYER
  0
ACAD_ZOMBIE_OBJECT
  5
1D
102
{ACAD_REACTORS
330
1F
102
}
100
AcDbZombieObject
 90
      499
 91
      518
 93
        0
 94
        0
  0
DICTIONARY
  5
123F3
100
AcDbDictionary
  3
ACAD_XREC_ROUNDTRIP
360
123F4
  0
ACAD_ZOMBIE_OBJECT
  5
6DD
102
{ACAD_REACTORS
330
6DC
102
}
100
AcDbZombieObject
 90
      499
 91
      525
 93
     1841
310
4214DD185B99185C9928000000000000F83F0000000000003E0FC00000000000004901028000000C1008070000C3001FDFF8000000C1003FBFF000000182007F7FE00000030400FEFFC00000060801FDFF8000000C1003FBFF000000182000000000000000C2020B0000001820100E000186003FBFF000000182007F7FE000
310
00030400FEFFC00000060801FDFF8000000C1003FBFF000000182007F7FE0000003040000000000000012404160000003040201C00030C007F7FE00000030400FEFFC00000060801FDFF8000000C1003FBFF000000182007F7FE00000030400FEFFC000000608000
340
17
340
17
340
17
 94
        0
1001
ACAD
1000
AcadProxyRoundTripData
1071
      524
1071
   393239
1070
     0
  0
XRECORD
  5
123D3
102
{ACAD_REACTORS
330
123C9
102
}
100
AcDbXrecord
 90
        0
  0
XRECORD
  5
123D7
102
{ACAD_REACTORS
330
123C9
102
}
100
AcDbXrecord
1000
DSTYLE
1002
{
1070
   278
 70
     0
1070
   371
 70
     0
1070
   372
 70
     0
1002
}
  0
XRECORD
  5
123D4
102
{ACAD_REACTORS
330
123C9
102
}
100
AcDbXrecord
  1

  0
XRECORD
  5
123CC
102
{ACAD_REACTORS
330
123C9
102
}
100
AcDbXrecord
  1

  0
XRECORD
  5
123D2
102
{ACAD_REACTORS
330
123C9
102
}
100
AcDbXrecord
 90
        0
  0
XRECORD
  5
123CE
102
{ACAD_REACTORS
330
123C9
102
}
100
AcDbXrecord
340
1E
  0
XRECORD
  5
123D1
102
{ACAD_REACTORS
330
123C9
102
}
100
AcDbXrecord
 90
    10752
  0
XRECORD
  5
123CF
102
{ACAD_REACTORS
330
123C9
102
}
100
AcDbXrecord
340
22
  0
XRECORD
  5
123D0
102
{ACAD_REACTORS
330
123C9
102
}
100
AcDbXrecord
340
1F
  0
XRECORD
  5
123D6
102
{ACAD_REACTORS
330
123C9
102
}
100
AcDbXrecord
 40
0.0
  0
XRECORD
  5
123DA
102
{ACAD_REACTORS
330
123C9
102
}
100
AcDbXrecord
340
0
  0
XRECORD
  5
123E0
102
{ACAD_REACTORS
330
123C9
102
}
100
AcDbXrecord
 10
0.0
 20
0.0
 30
0.0
  0
XRECORD
  5
123DC
102
{ACAD_REACTORS
330
123C9
102
}
100
AcDbXrecord
 10
0.0
 20
0.0
 30
0.0
  0
XRECORD
  5
123DF
102
{ACAD_REACTORS
330
123C9
102
}
100
AcDbXrecord
 10
0.0
 20
0.0
 30
0.0
  0
XRECORD
  5
123DD
102
{ACAD_REACTORS
330
123C9
102
}
100
AcDbXrecord
 10
0.0
 20
0.0
 30
0.0
  0
XRECORD
  5
123DE
102
{ACAD_REACTORS
330
123C9
102
}
100
AcDbXrecord
 10
0.0
 20
0.0
 30
0.0
  0
XRECORD
  5
123DB
102
{ACAD_REACTORS
330
123C9
102
}
100
AcDbXrecord
 10
0.0
 20
0.0
 30
0.0
  0
XRECORD
  5
123D8
102
{ACAD_REACTORS
330
123C9
102
}
100
AcDbXrecord
340
0
  0
XRECORD
  5
123D9
102
{ACAD_REACTORS
330
123C9
102
}
100
AcDbXrecord
 70
     0
  0
XRECORD
  5
123CD
102
{ACAD_REACTORS
330
123C9
102
}
100
AcDbXrecord
  1

  0
XRECORD
  5
123CA
102
{ACAD_REACTORS
330
123C9
102
}
100
AcDbXrecord
 90
        1
  0
XRECORD
  5
123CB
102
{ACAD_REACTORS
330
123C9
102
}
100
AcDbXrecord
 90
       70
  0
XRECORD
  5
123E3
102
{ACAD_REACTORS
330
123C9
102
}
100
AcDbXrecord
340
0
  0
XRECORD
  5
123E9
102
{ACAD_REACTORS
330
123C9
102
}
100
AcDbXrecord
 10
0.0
 20
0.0
 30
0.0
  0
XRECORD
  5
123E5
102
{ACAD_REACTORS
330
123C9
102
}
100
AcDbXrecord
 10
0.0
 20
0.0
 30
0.0
  0
XRECORD
  5
123E8
102
{ACAD_REACTORS
330
123C9
102
}
100
AcDbXrecord
 10
0.0
 20
0.0
 30
0.0
  0
XRECORD
  5
123E6
102
{ACAD_REACTORS
330
123C9
102
}
100
AcDbXrecord
 10
0.0
 20
0.0
 30
0.0
  0
XRECORD
  5
123E7
102
{ACAD_REACTORS
330
123C9
102
}
100
AcDbXrecord
 10
0.0
 20
0.0
 30
0.0
  0
XRECORD
  5
123E4
102
{ACAD_REACTORS
330
123C9
102
}
100
AcDbXrecord
 10
0.0
 20
0.0
 30
0.0
  0
XRECORD
  5
123E1
102
{ACAD_REACTORS
330
123C9
102
}
100
AcDbXrecord
340
0
  0
XRECORD
  5
123E2
102
{ACAD_REACTORS
330
123C9
102
}
100
AcDbXrecord
 70
     0
  0
XRECORD
  5
123D5
102
{ACAD_REACTORS
330
123C9
102
}
100
AcDbXrecord
  1
{4251C6A7-E1D7-400B-AF34-3C2CBD559ADC}
  0
DICTIONARYVAR
  5
7DB
102
{ACAD_REACTORS
330
7DA
102
}
100
DictionaryVariables
280
     0
  1
STANDARD
  0
DICTIONARYVAR
  5
1A71
102
{ACAD_REACTORS
330
7DA
102
}
100
DictionaryVariables
280
     0
  1
1
  0
DICTIONARYVAR
  5
1A72
102
{ACAD_REACTORS
330
7DA
102
}
100
DictionaryVariables
280
     0
  1

  0
DICTIONARY
  5
123F7
100
AcDbDictionary
  3
ACAD_XREC_ROUNDTRIP
360
123F8
  0
XRECORD
  5
3572
102
{ACAD_REACTORS
330
3571
102
}
100
AcDbXrecord
330
0
330
0
330
0
330
0
330
0
330
0
330
0
330
0
330
0
330
0
330
0
330
0
330
0
330
0
330
0
330
0
330
0
330
0
330
0
330
0
330
0
330
0
330
0
330
0
330
0
330
0
330
0
330
0
330
0
330
0
330
0
  0
XRECORD
  5
123F2
102
{ACAD_REACTORS
330
123F1
102
}
100
AcDbXrecord
102
EXTNAMES
  1
LAYOUT1
  2
Layout1
  1
MODEL
  2
Model
  0
DICTIONARY
  5
123B0
100
AcDbDictionary
  3
ACAD_XREC_ROUNDTRIP
360
123B1
  0
DICTIONARY
  5
123AE
100
AcDbDictionary
  3
ACAD_XREC_ROUNDTRIP
360
123AF
  0
XRECORD
  5
123F0
102
{ACAD_REACTORS
330
123EF
102
}
100
AcDbXrecord
102
EXTNAMES
  1
STANDARD
  2
Standard
  0
XRECORD
  5
123F4
102
{ACAD_REACTORS
330
123F3
102
}
100
AcDbXrecord
102
EXTNAMES
  1
STANDARD
  2
Standard
  0
XRECORD
  5
123F8
102
{ACAD_REACTORS
330
123F7
102
}
100
AcDbXrecord
102
EXTNAMES
  1
ASEBLOCKHIERARCHYINDEXRECORD
  2
ASEBlockHierarchyIndexRecord
  0
XRECORD
  5
123B1
102
{ACAD_REACTORS
330
123B0
102
}
100
AcDbXrecord
102
SHADEPLOT
 70
     0
102
SHADEPLOTRESLEVEL
 70
     2
102
SHADEPLOTCUSTOMDPI
 70
   300
  0
XRECORD
  5
123AF
102
{ACAD_REACTORS
330
123AE
102
}
100
AcDbXrecord
102
SHADEPLOT
 70
     0
102
SHADEPLOTRESLEVEL
 70
     2
102
SHADEPLOTCUSTOMDPI
 70
   300
  0
ENDSEC
  0
EOF
