  0
SECTION
  2
HEADER
  9
$ACADVER
  1
AC1014
  9
$ACADMAINTVER
 70
     0
  9
$DWGCODEPAGE
  3
ANSI_1252
  9
$INSBASE
 10
93.894301
 20
236.06014
 30
0.0
  9
$EXTMIN
 10
20.084839
 20
90.242936
 30
-0.001526
  9
$EXTMAX
 10
43.893128
 20
133.204972
 30
0.0
  9
$LIMMIN
 10
0.0
 20
0.0
  9
$LIMMAX
 10
210.0
 20
297.0
  9
$ORTHOMODE
 70
     0
  9
$REGENMODE
 70
     1
  9
$FILLMODE
 70
     1
  9
$QTEXTMODE
 70
     0
  9
$MIRRTEXT
 70
     0
  9
$DRAGMODE
 70
     1
  9
$LTSCALE
 40
7.0
  9
$OSMODE
 70
  4095
  9
$ATTMODE
 70
     1
  9
$TEXTSIZE
 40
2.5
  9
$TRACEWID
 40
0.05
  9
$TEXTSTYLE
  7
STANDARD
  9
$CLAYER
  8
COTATION1
  9
$CELTYPE
  6
BYLAYER
  9
$CECOLOR
 62
   256
  9
$CELTSCALE
 40
1.0
  9
$DELOBJ
 70
     1
  9
$DISPSILH
 70
     0
  9
$DIMSCALE
 40
1.0
  9
$DIMASZ
 40
3.0
  9
$DIMEXO
 40
0.0625
  9
$DIMDLI
 40
0.38
  9
$DIMRND
 40
0.01
  9
$DIMDLE
 40
0.0
  9
$DIMEXE
 40
0.18
  9
$DIMTP
 40
0.0
  9
$DIMTM
 40
0.0
  9
$DIMTXT
 40
2.5
  9
$DIMCEN
 40
0.09
  9
$DIMTSZ
 40
0.0
  9
$DIMTOL
 70
     0
  9
$DIMLIM
 70
     0
  9
$DIMTIH
 70
     0
  9
$DIMTOH
 70
     0
  9
$DIMSE1
 70
     0
  9
$DIMSE2
 70
     0
  9
$DIMTAD
 70
     1
  9
$DIMZIN
 70
    12
  9
$DIMBLK
  1

  9
$DIMASO
 70
     1
  9
$DIMSHO
 70
     0
  9
$DIMPOST
  1

  9
$DIMAPOST
  1

  9
$DIMALT
 70
     0
  9
$DIMALTD
 70
     2
  9
$DIMALTF
 40
25.4
  9
$DIMLFAC
 40
1.0
  9
$DIMTOFL
 70
     1
  9
$DIMTVP
 40
0.0
  9
$DIMTIX
 70
     0
  9
$DIMSOXD
 70
     0
  9
$DIMSAH
 70
     0
  9
$DIMBLK1
  1

  9
$DIMBLK2
  1

  9
$DIMSTYLE
  2
SC_STAND
  9
$DIMCLRD
 70
     0
  9
$DIMCLRE
 70
     0
  9
$DIMCLRT
 70
     0
  9
$DIMTFAC
 40
1.0
  9
$DIMGAP
 40
1.0
  9
$DIMJUST
 70
     0
  9
$DIMSD1
 70
     0
  9
$DIMSD2
 70
     0
  9
$DIMTOLJ
 70
     1
  9
$DIMTZIN
 70
    12
  9
$DIMALTZ
 70
    12
  9
$DIMALTTZ
 70
    12
  9
$DIMFIT
 70
     5
  9
$DIMUPT
 70
     0
  9
$DIMUNIT
 70
     2
  9
$DIMDEC
 70
     3
  9
$DIMTDEC
 70
     3
  9
$DIMALTU
 70
     2
  9
$DIMALTTD
 70
     2
  9
$DIMTXSTY
  7
STANDARD
  9
$DIMAUNIT
 70
     0
  9
$LUNITS
 70
     2
  9
$LUPREC
 70
     3
  9
$SKETCHINC
 40
0.1
  9
$FILLETRAD
 40
0.0625
  9
$AUNITS
 70
     0
  9
$AUPREC
 70
     0
  9
$MENU
  1
ACAD
  9
$ELEVATION
 40
0.0
  9
$PELEVATION
 40
0.0
  9
$THICKNESS
 40
0.0
  9
$LIMCHECK
 70
     0
  9
$BLIPMODE
 70
     1
  9
$CHAMFERA
 40
0.0
  9
$CHAMFERB
 40
0.0
  9
$CHAMFERC
 40
0.0
  9
$CHAMFERD
 40
0.0
  9
$SKPOLY
 70
     0
  9
$TDCREATE
 40
2450953.590960648
  9
$TDUPDATE
 40
2452968.605554826
  9
$TDINDWG
 40
0.0027357060
  9
$TDUSRTIMER
 40
0.0027357060
  9
$USRTIMER
 70
     1
  9
$ANGBASE
 50
0.0
  9
$ANGDIR
 70
     0
  9
$PDMODE
 70
     0
  9
$PDSIZE
 40
0.0
  9
$PLINEWID
 40
0.0
  9
$COORDS
 70
     0
  9
$SPLFRAME
 70
     0
  9
$SPLINETYPE
 70
     6
  9
$SPLINESEGS
 70
     8
  9
$ATTDIA
 70
     0
  9
$ATTREQ
 70
     1
  9
$HANDLING
 70
     1
  9
$HANDSEED
  5
339
  9
$SURFTAB1
 70
     6
  9
$SURFTAB2
 70
     6
  9
$SURFTYPE
 70
     6
  9
$SURFU
 70
     6
  9
$SURFV
 70
     6
  9
$UCSNAME
  2

  9
$UCSORG
 10
0.0
 20
0.0
 30
0.0
  9
$UCSXDIR
 10
1.0
 20
0.0
 30
0.0
  9
$UCSYDIR
 10
0.0
 20
1.0
 30
0.0
  9
$PUCSNAME
  2

  9
$PUCSORG
 10
0.0
 20
0.0
 30
0.0
  9
$PUCSXDIR
 10
1.0
 20
0.0
 30
0.0
  9
$PUCSYDIR
 10
0.0
 20
1.0
 30
0.0
  9
$USERI1
 70
     0
  9
$USERI2
 70
     0
  9
$USERI3
 70
     0
  9
$USERI4
 70
     0
  9
$USERI5
 70
     0
  9
$USERR1
 40
0.0
  9
$USERR2
 40
0.0
  9
$USERR3
 40
0.0
  9
$USERR4
 40
0.0
  9
$USERR5
 40
0.0
  9
$WORLDVIEW
 70
     1
  9
$SHADEDGE
 70
     3
  9
$SHADEDIF
 70
    70
  9
$TILEMODE
 70
     1
  9
$MAXACTVP
 70
    32
  9
$PINSBASE
 10
0.0
 20
0.0
 30
0.0
  9
$PLIMCHECK
 70
     0
  9
$PEXTMIN
 10
-3.174999
 20
-3.175
 30
0.0
  9
$PEXTMAX
 10
203.812116
 20
370.276807
 30
0.0
  9
$PLIMMIN
 10
-3.175
 20
-3.175
  9
$PLIMMAX
 10
203.812115
 20
370.276807
  9
$UNITMODE
 70
     0
  9
$VISRETAIN
 70
     0
  9
$PLINEGEN
 70
     0
  9
$PSLTSCALE
 70
     1
  9
$TREEDEPTH
 70
  3020
  9
$PICKSTYLE
 70
     1
  9
$CMLSTYLE
  2
STANDARD
  9
$CMLJUST
 70
     0
  9
$CMLSCALE
 40
1.0
  9
$PROXYGRAPHICS
 70
     1
  9
$MEASUREMENT
 70
     0
  0
ENDSEC
  0
SECTION
  2
CLASSES
  0
CLASS
  1
DICTIONARYVAR
  2
AcDbDictionaryVar
  3
"AutoCAD"
 90
        0
280
     0
281
     0
  0
ENDSEC
  0
SECTION
  2
TABLES
  0
TABLE
  2
VPORT
  5
F4
100
AcDbSymbolTable
 70
     4
  0
VPORT
  5
338
100
AcDbSymbolTableRecord
100
AcDbViewportTableRecord
  2
*ACTIVE
 70
     0
 10
0.0
 20
0.0
 11
1.0
 21
1.0
 12
31.988984
 22
111.723954
 13
0.0
 23
0.0
 14
1.0
 24
1.0
 15
10.0
 25
10.0
 16
0.0
 26
0.0
 36
1.0
 17
0.0
 27
0.0
 37
0.0
 40
43.298114
 41
1.592689
 42
50.0
 43
0.0
 44
0.0
 50
0.0
 51
0.0
 71
     0
 72
   100
 73
     1
 74
     1
 75
     0
 76
     1
 77
     0
 78
     0
  0
ENDTAB
  0
TABLE
  2
LTYPE
  5
F1
100
AcDbSymbolTable
 70
    23
  0
LTYPE
  5
FD
100
AcDbSymbolTableRecord
100
AcDbLinetypeTableRecord
  2
BYBLOCK
 70
     0
  3

 72
    65
 73
     0
 40
0.0
  0
LTYPE
  5
FE
100
AcDbSymbolTableRecord
100
AcDbLinetypeTableRecord
  2
BYLAYER
 70
     0
  3

 72
    65
 73
     0
 40
0.0
  0
LTYPE
  5
FF
100
AcDbSymbolTableRecord
100
AcDbLinetypeTableRecord
  2
CONTINUOUS
 70
     0
  3
Solid line
 72
    65
 73
     0
 40
0.0
  0
LTYPE
  5
120
100
AcDbSymbolTableRecord
100
AcDbLinetypeTableRecord
  2
CACHE2
 70
     0
  3
_ _ _ _ _ _ _ _ _ _ _ _ _ _ _ _ _ _ _ _ _ _ _ _
 72
    65
 73
     2
 40
0.1875
 49
0.125
 74
     0
 49
-0.0625
 74
     0
  0
ENDTAB
  0
TABLE
  2
LAYER
  5
EE
100
AcDbSymbolTable
 70
    21
  0
LAYER
  5
FA
100
AcDbSymbolTableRecord
100
AcDbLayerTableRecord
  2
0
 70
     0
 62
     7
  6
CONTINUOUS
  0
LAYER
  5
12C
100
AcDbSymbolTableRecord
100
AcDbLayerTableRecord
  2
ALPHA
 70
     0
 62
   255
  6
CONTINUOUS
  0
LAYER
  5
12F
100
AcDbSymbolTableRecord
100
AcDbLayerTableRecord
  2
COTATION1
 70
     0
 62
     2
  6
CONTINUOUS
  0
LAYER
  5
13B
100
AcDbSymbolTableRecord
100
AcDbLayerTableRecord
  2
ASHADE
 70
     0
 62
     7
  6
CONTINUOUS
  0
LAYER
  5
13C
100
AcDbSymbolTableRecord
100
AcDbLayerTableRecord
  2
POINTILLE_COURT
 70
     0
 62
    40
  6
CACHE2
  0
LAYER
  5
13E
100
AcDbSymbolTableRecord
100
AcDbLayerTableRecord
  2
DEFPOINTS
 70
     0
 62
     7
  6
CONTINUOUS
  0
ENDTAB
  0
TABLE
  2
STYLE
  5
EF
100
AcDbSymbolTable
 70
     4
  0
STYLE
  5
FB
100
AcDbSymbolTableRecord
100
AcDbTextStyleTableRecord
  2
STANDARD
 70
     0
 40
0.0
 41
1.0
 50
0.0
 71
     0
 42
2.5
  3
txt
  4

  0
ENDTAB
  0
TABLE
  2
VIEW
  5
F2
100
AcDbSymbolTable
 70
     0
  0
ENDTAB
  0
TABLE
  2
UCS
  5
F3
100
AcDbSymbolTable
 70
     0
  0
ENDTAB
  0
TABLE
  2
APPID
  5
F5
100
AcDbSymbolTable
 70
     3
  0
APPID
  5
FC
100
AcDbSymbolTableRecord
100
AcDbRegAppTableRecord
  2
ACAD
 70
     0
  0
APPID
  5
127
100
AcDbSymbolTableRecord
100
AcDbRegAppTableRecord
  2
AVE_RENDER
 70
     0
  0
APPID
  5
128
100
AcDbSymbolTableRecord
100
AcDbRegAppTableRecord
  2
AVE_MATERIAL
 70
     0
  0
ENDTAB
  0
TABLE
  2
DIMSTYLE
  5
F6
100
AcDbSymbolTable
 70
     2
  0
DIMSTYLE
105
129
100
AcDbSymbolTableRecord
100
AcDbDimStyleTableRecord
  2
STANDARD
 70
     0
  3

  4

  5

  6

  7

 40
1.0
 41
0.18
 42
0.0625
 43
0.38
 44
0.18
 45
0.0
 46
0.0
 47
0.0
 48
0.0
140
0.18
141
0.09
142
0.0
143
25.4
144
1.0
145
0.0
146
1.0
147
0.09
 71
     0
 72
     0
 73
     1
 74
     1
 75
     0
 76
     0
 77
     0
 78
     0
170
     0
171
     2
172
     0
173
     0
174
     0
175
     0
176
     0
177
     0
178
     0
270
     2
271
     3
272
     3
273
     2
274
     2
340
FB
275
     0
280
     0
281
     0
282
     0
283
     1
284
    12
285
    12
286
    12
287
     5
288
     0
  0
DIMSTYLE
105
12A
102
{ACAD_REACTORS
330
307
330
31F
102
}
100
AcDbSymbolTableRecord
100
AcDbDimStyleTableRecord
  2
SC_STAND
 70
     0
  3

  4

  5

  6

  7

 40
1.0
 41
3.0
 42
0.0625
 43
0.38
 44
0.18
 45
0.01
 46
0.0
 47
0.0
 48
0.0
140
2.5
141
0.09
142
0.0
143
25.4
144
1.0
145
0.0
146
1.0
147
1.0
 71
     0
 72
     0
 73
     0
 74
     0
 75
     0
 76
     0
 77
     1
 78
    12
170
     0
171
     2
172
     1
173
     0
174
     0
175
     0
176
     0
177
     0
178
     0
270
     2
271
     3
272
     3
273
     2
274
     2
340
FB
275
     0
280
     0
281
     0
282
     0
283
     1
284
    12
285
    12
286
    12
287
     5
288
     0
  0
ENDTAB
  0
TABLE
  2
BLOCK_RECORD
  5
ED
100
AcDbSymbolTable
 70
     8
  0
BLOCK_RECORD
  5
103
100
AcDbSymbolTableRecord
100
AcDbBlockTableRecord
  2
*MODEL_SPACE
  0
BLOCK_RECORD
  5
100
100
AcDbSymbolTableRecord
100
AcDbBlockTableRecord
  2
*PAPER_SPACE
  0
BLOCK_RECORD
  5
108
100
AcDbSymbolTableRecord
100
AcDbBlockTableRecord
  2
AVE_RENDER
  0
BLOCK_RECORD
  5
109
100
AcDbSymbolTableRecord
100
AcDbBlockTableRecord
  2
AVE_GLOBAL
  0
BLOCK_RECORD
  5
10A
100
AcDbSymbolTableRecord
100
AcDbBlockTableRecord
  2
SCH_IS
  0
BLOCK_RECORD
  5
2FB
100
AcDbSymbolTableRecord
100
AcDbBlockTableRecord
  2
*D6
  0
BLOCK_RECORD
  5
313
100
AcDbSymbolTableRecord
100
AcDbBlockTableRecord
  2
*D7
  0
ENDTAB
  0
ENDSEC
  0
SECTION
  2
BLOCKS
  0
BLOCK
  5
141
100
AcDbEntity
  8
0
100
AcDbBlockBegin
  2
*MODEL_SPACE
 70
     0
 10
0.0
 20
0.0
 30
0.0
  3
*MODEL_SPACE
  1

  0
ENDBLK
  5
142
100
AcDbEntity
  8
0
100
AcDbBlockEnd
  0
BLOCK
  5
13F
100
AcDbEntity
 67
     1
  8
0
100
AcDbBlockBegin
  2
*PAPER_SPACE
 70
     0
 10
0.0
 20
0.0
 30
0.0
  3
*PAPER_SPACE
  1

  0
ENDBLK
  5
140
100
AcDbEntity
 67
     1
  8
0
100
AcDbBlockEnd
  0
BLOCK
  5
8D
100
AcDbEntity
  8
0
100
AcDbBlockBegin
  2
AVE_RENDER
 70
     0
 10
0.0
 20
0.0
 30
0.0
  3
AVE_RENDER
  1
AVE_RENDER
  0
ENDBLK
  5
8E
100
AcDbEntity
  8
0
100
AcDbBlockEnd
  0
BLOCK
  5
90
100
AcDbEntity
  8
0
100
AcDbBlockBegin
  2
AVE_GLOBAL
 70
     0
 10
0.0
 20
0.0
 30
0.0
  3
AVE_GLOBAL
  1
AVE_GLOBAL
  0
ENDBLK
  5
91
100
AcDbEntity
  8
0
100
AcDbBlockEnd
  0
BLOCK
  5
C9
100
AcDbEntity
  8
0
100
AcDbBlockBegin
  2
SCH_IS
 70
     0
 10
0.0
 20
0.0
 30
0.0
  3
SCH_IS
  1

  0
INSERT
  5
C0
100
AcDbEntity
  8
ASHADE
 62
     1
100
AcDbBlockReference
  2
AVE_RENDER
 10
0.0
 20
0.0
 30
0.0
1001
AVE_RENDER
1002
{
1070
     6
1000
Pref
1070
    50
1070
    20
1070
     1
1070
     0
1000

1070
    10
1070
     1
1070
    30
1040
25.4
1070
     1
1040
0.3
1040
0.7
1040
0.0
1040
10.0
1010
-1.0
1020
-1.0
1030
-1.0
1040
0.3
1070
    49
1070
     0
1070
     0
1010
1.0
1020
1.0
1030
1.0
1040
45.0
1070
     1
1070
     0
1000
WCS
1040
0.0
1002
}
  0
INSERT
  5
C1
100
AcDbEntity
  8
ASHADE
 62
     3
100
AcDbBlockReference
  2
AVE_RENDER
 10
0.0
 20
0.0
 30
0.0
1001
AVE_RENDER
1002
{
1070
     0
1000
Full Opt
1070
     0
1070
     1
1070
     1
1070
     1
1070
     0
1070
     0
1070
     0
1070
     1
1070
     1
1040
0.0001
1040
0.0001
1002
}
  0
INSERT
  5
C2
100
AcDbEntity
  8
ASHADE
 62
     4
100
AcDbBlockReference
  2
AVE_RENDER
 10
0.0
 20
0.0
 30
0.0
1001
AVE_RENDER
1002
{
1070
     0
1000
Quick Opt
1070
     0
1070
     1
1070
     1
1070
     1
1070
     0
1070
     0
1070
     1
1002
}
  0
INSERT
  5
C3
100
AcDbEntity
  8
ASHADE
 62
     5
100
AcDbBlockReference
  2
AVE_RENDER
 10
0.0
 20
0.0
 30
0.0
1001
AVE_RENDER
1002
{
1070
     1
1000
Scanl Opt
1070
     2
1070
     0
1070
     2
1040
2.0
1040
4.0
1070
     0
1070
     1
1070
     0
1040
0.03
1002
}
  0
INSERT
  5
C4
100
AcDbEntity
  8
ASHADE
 62
     6
100
AcDbBlockReference
  2
AVE_RENDER
 10
0.0
 20
0.0
 30
0.0
1001
AVE_RENDER
1002
{
1070
     2
1000
Raytr Opt
1070
     2
1070
     0
1070
     2
1040
2.0
1040
4.0
1070
     0
1070
     1
1070
     1
1040
0.03
1070
     3
1040
0.03
1002
}
  0
INSERT
  5
C5
100
AcDbEntity
  8
ASHADE
 62
     7
100
AcDbBlockReference
  2
AVE_RENDER
 10
0.0
 20
0.0
 30
0.0
1001
AVE_RENDER
1002
{
1070
     0
1000
RFile Opt
1070
     5
1070
   640
1070
   480
1070
 10000
1070
     3
1070
    32
1070
    24
1070
     0
1070
     0
1070
     0
1070
     1
1070
     0
1070
     0
1070
     0
1002
}
  0
INSERT
  5
C6
100
AcDbEntity
  8
ASHADE
 62
     8
100
AcDbBlockReference
  2
AVE_RENDER
 10
0.0
 20
0.0
 30
0.0
1001
AVE_RENDER
1002
{
1070
     0
1000
Fog Opt
1070
     0
1070
     0
1040
0.0
1040
1.0
1040
0.0
1040
1.0
1010
0.5
1020
0.5
1030
0.5
1002
}
  0
INSERT
  5
C7
100
AcDbEntity
  8
ASHADE
 62
     9
100
AcDbBlockReference
  2
AVE_RENDER
 10
0.0
 20
0.0
 30
0.0
1001
AVE_RENDER
1002
{
1070
     0
1000
BG Opt
1070
     0
1070
     1
1010
0.0
1020
0.0
1030
0.0
1010
1.0
1020
0.0
1030
0.0
1010
0.0
1020
1.0
1030
0.0
1010
0.0
1020
0.0
1030
1.0
1040
0.5
1040
0.33
1040
0.0
1000

1070
     1
1000

1070
     1
1070
     1
1040
1.0
1040
1.0
1040
0.0
1040
0.0
1070
     0
1002
}
  0
INSERT
  5
C8
100
AcDbEntity
  8
ASHADE
 62
     1
100
AcDbBlockReference
  2
AVE_GLOBAL
 10
0.0
 20
0.0
 30
0.0
1001
AVE_MATERIAL
1002
{
1000
*GLOBAL*
1000
1
1000
Finition globale.
1002
{
1002
}
1002
{
1070
    63
1002
{
1002
{
1010
-1.0
1020
-1.0
1030
-1.0
1002
}
1040
0.1
1000

1040
0.0
1002
{
1002
}
1040
0.0
1002
{
1002
}
1040
0.0
1002
}
1002
{
1002
{
1010
-1.0
1020
-1.0
1030
-1.0
1002
}
1040
0.7
1000

1040
0.0
1002
{
1002
}
1040
0.0
1002
{
1002
}
1040
0.0
1002
}
1002
{
1002
{
1010
-1.0
1020
-1.0
1030
-1.0
1002
}
1040
0.2
1000

1040
0.0
1002
{
1002
}
1040
0.0
1002
{
1002
}
1040
0.0
1002
}
1002
{
1070
     0
1002
{
1070
     1
1002
{
1040
1.0
1040
1.0
1000

1040
0.0
1002
{
1002
}
1040
0.0
1002
{
1002
}
1040
0.0
1002
}
1002
}
1040
1.0
1040
0.0
1040
0.0
1002
}
1002
{
1040
1.0
1040
1.0
1000

1040
0.0
1002
{
1002
}
1040
0.0
1002
{
1002
}
1040
0.0
1002
}
1002
{
1040
0.5
1040
1.0
1000

1040
0.0
1002
{
1002
}
1040
0.0
1002
{
1002
}
1040
0.0
1002
}
1002
{
1070
     0
1040
0.0
1002
{
1002
}
1040
1.0
1002
{
1002
}
1040
0.0
1002
}
1002
{
1040
0.0
1002
{
1002
{
1010
0.0
1020
0.0
1030
0.0
1002
}
1040
1.0
1000

1040
0.0
1002
{
1002
}
1040
0.0
1002
{
1002
}
1040
0.0
1002
}
1002
}
1002
{
1002
{
1070
     1
1002
{
1040
0.0
1040
1.0
1000

1040
0.0
1002
{
1002
}
1040
0.0
1002
{
1002
}
1040
0.0
1002
}
1002
}
1040
0.0
1002
{
1002
}
1010
1.0
1020
0.0
1030
0.0
1010
0.0
1020
1.0
1030
0.0
1010
0.0
1020
0.0
1030
1.0
1070
     0
1002
}
1002
{
1002
{
1040
1.0
1040
1.0
1002
{
1070
     1
1002
{
1040
1.0
1040
1.0
1000

1040
0.0
1002
{
1002
}
1040
0.0
1002
{
1002
}
1040
0.0
1002
}
1002
}
1002
}
1070
     0
1040
0.0
1002
{
1002
}
1002
}
1002
{
1002
}
1002
}
1002
{
1071
        3
1070
     3
1070
     0
1002
{
1070
     2
1070
     0
1070
     0
1040
0.0
1002
}
1070
     0
1070
     2
1002
{
1002
}
1002
}
1002
{
1040
8030.0
1040
190.300003
1040
0.305
1040
228.0
1040
545.0
1040
14.0
1040
17.4
1040
0.456
1002
}
1002
}
  0
ENDBLK
  5
CA
100
AcDbEntity
  8
0
100
AcDbBlockEnd
  0
BLOCK
  5
308
100
AcDbEntity
  8
0
100
AcDbBlockBegin
  2
*D6
 70
     1
 10
0.0
 20
0.0
 30
0.0
  3
*D6
  1

  0
LINE
  5
309
100
AcDbEntity
  8
0
  6
BYBLOCK
 62
     0
100
AcDbLine
 10
43.892567
 20
110.021918
 30
0.0
 11
43.892567
 21
100.585793
 31
0.0
  0
LINE
  5
30A
100
AcDbEntity
  8
0
  6
BYBLOCK
 62
     0
100
AcDbLine
 10
30.331638
 20
110.021918
 30
0.0
 11
30.331638
 21
100.585793
 31
0.0
  0
LINE
  5
30B
100
AcDbEntity
  8
0
  6
BYBLOCK
 62
     0
100
AcDbLine
 10
40.892567
 20
100.765793
 30
0.0
 11
33.331638
 21
100.765793
 31
0.0
  0
SOLID
  5
30C
100
AcDbEntity
  8
0
  6
BYBLOCK
 62
     0
100
AcDbTrace
 10
40.892567
 20
101.265793
 30
0.0
 11
40.892567
 21
100.265793
 31
0.0
 12
43.892567
 22
100.765793
 32
0.0
 13
43.892567
 23
100.765793
 33
0.0
  0
SOLID
  5
30D
100
AcDbEntity
  8
0
  6
BYBLOCK
 62
     0
100
AcDbTrace
 10
33.331638
 20
101.265793
 30
0.0
 11
33.331638
 21
100.265793
 31
0.0
 12
30.331638
 22
100.765793
 32
0.0
 13
30.331638
 23
100.765793
 33
0.0
  0
MTEXT
  5
30E
100
AcDbEntity
  8
0
  6
BYBLOCK
 62
     0
100
AcDbMText
 10
37.112103
 20
103.015793
 30
0.0
 40
2.5
 41
0.0
 71
     5
 72
     1
  1
\A1;13.5
  0
POINT
  5
30F
100
AcDbEntity
  8
DEFPOINTS
  6
BYBLOCK
 62
     0
100
AcDbPoint
 10
43.892567
 20
110.084418
 30
0.0
  0
POINT
  5
310
100
AcDbEntity
  8
DEFPOINTS
  6
BYBLOCK
 62
     0
100
AcDbPoint
 10
30.331638
 20
110.084418
 30
0.0
  0
POINT
  5
311
100
AcDbEntity
  8
DEFPOINTS
  6
BYBLOCK
 62
     0
100
AcDbPoint
 10
30.331638
 20
100.765793
 30
0.0
  0
ENDBLK
  5
312
100
AcDbEntity
  8
0
100
AcDbBlockEnd
  0
BLOCK
  5
32B
100
AcDbEntity
  8
0
100
AcDbBlockBegin
  2
*D7
 70
     1
 10
0.0
 20
0.0
 30
0.0
  3
*D7
  1

  0
LINE
  5
32C
100
AcDbEntity
  8
0
  6
BYBLOCK
 62
     0
100
AcDbLine
 10
43.892567
 20
110.021918
 30
0.0
 11
43.892567
 21
90.571335
 31
0.0
  0
LINE
  5
32D
100
AcDbEntity
  8
0
  6
BYBLOCK
 62
     0
100
AcDbLine
 10
20.100738
 20
118.906819
 30
0.0
 11
20.100738
 21
90.571335
 31
0.0
  0
LINE
  5
32E
100
AcDbEntity
  8
0
  6
BYBLOCK
 62
     0
100
AcDbLine
 10
40.892567
 20
90.751335
 30
0.0
 11
23.100738
 21
90.751335
 31
0.0
  0
SOLID
  5
32F
100
AcDbEntity
  8
0
  6
BYBLOCK
 62
     0
100
AcDbTrace
 10
40.892567
 20
91.251335
 30
0.0
 11
40.892567
 21
90.251335
 31
0.0
 12
43.892567
 22
90.751335
 32
0.0
 13
43.892567
 23
90.751335
 33
0.0
  0
SOLID
  5
330
100
AcDbEntity
  8
0
  6
BYBLOCK
 62
     0
100
AcDbTrace
 10
23.100738
 20
91.251335
 30
0.0
 11
23.100738
 21
90.251335
 31
0.0
 12
20.100738
 22
90.751335
 32
0.0
 13
20.100738
 23
90.751335
 33
0.0
  0
MTEXT
  5
331
100
AcDbEntity
  8
0
  6
BYBLOCK
 62
     0
100
AcDbMText
 10
31.996653
 20
93.001335
 30
0.0
 40
2.5
 41
0.0
 71
     5
 72
     1
  1
\A1;33.5
  0
POINT
  5
332
100
AcDbEntity
  8
DEFPOINTS
  6
BYBLOCK
 62
     0
100
AcDbPoint
 10
43.892567
 20
110.084418
 30
0.0
  0
POINT
  5
333
100
AcDbEntity
  8
DEFPOINTS
  6
BYBLOCK
 62
     0
100
AcDbPoint
 10
20.100738
 20
118.969319
 30
0.0
  0
POINT
  5
334
100
AcDbEntity
  8
DEFPOINTS
  6
BYBLOCK
 62
     0
100
AcDbPoint
 10
20.100738
 20
90.751335
 30
0.0
  0
ENDBLK
  5
335
100
AcDbEntity
  8
0
100
AcDbBlockEnd
  0
ENDSEC
  0
SECTION
  2
ENTITIES
  0
INSERT
  5
CC
100
AcDbEntity
  8
0
100
AcDbBlockReference
  2
SCH_IS
 10
-68.718396
 20
-140.042541
 30
0.0
  0
INSERT
  5
EC
100
AcDbEntity
  8
COTATION1
100
AcDbBlockReference
  2
SCH_IS
 10
0.0
 20
0.0
 30
0.0
  0
LINE
  5
2AB
100
AcDbEntity
  8
ALPHA
 62
     7
100
AcDbLine
 10
43.892567
 20
110.084418
 30
0.0
 11
30.331638
 21
110.084418
 31
0.0
  0
LINE
  5
2AC
100
AcDbEntity
  8
ALPHA
 62
     7
100
AcDbLine
 10
30.331638
 20
133.195152
 30
0.0
 11
43.892567
 21
133.195152
 31
0.0
  0
LINE
  5
2AD
100
AcDbEntity
  8
ALPHA
 62
     7
100
AcDbLine
 10
31.227707
 20
122.033731
 30
0.0
 11
31.227707
 21
121.245838
 31
0.0
  0
LINE
  5
2AE
100
AcDbEntity
  8
ALPHA
 62
     7
100
AcDbLine
 10
30.739882
 20
121.245838
 30
0.0
 11
30.739882
 21
122.033731
 31
0.0
  0
LINE
  5
2AF
100
AcDbEntity
  8
ALPHA
 62
     7
100
AcDbLine
 10
31.607012
 20
110.084418
 30
0.0
 11
31.607012
 21
133.195152
 31
0.0
  0
LINE
  5
2B0
100
AcDbEntity
  8
ALPHA
 62
     7
100
AcDbLine
 10
30.331638
 20
110.084418
 30
0.0
 11
30.331638
 21
133.195152
 31
0.0
  0
SPLINE
  5
2B1
100
AcDbEntity
  8
POINTILLE_COURT
 62
     7
100
AcDbSpline
210
0.0
220
0.0
230
-1.0
 70
     8
 71
     3
 72
    11
 73
     7
 74
     0
 42
0.0000001
 43
0.0000001
 40
0.0
 40
0.0
 40
0.0
 40
0.0
 40
1.0
 40
1.0
 40
1.0
 40
2.0
 40
2.0
 40
2.0
 40
2.0
 10
30.33163790889941
 20
127.1066344328705
 30
0.0
 10
24.71751030473274
 20
127.1066344328705
 30
0.0
 10
24.33751627261469
 20
122.6672843894677
 30
0.0
 10
24.08602430212857
 20
119.7293069589121
 30
0.0
 10
23.96958007469803
 20
118.3712503182871
 30
0.0
 10
23.84934624223274
 20
116.9677184172455
 30
0.0
 10
23.33120388112163
 20
116.2642299189816
 30
0.0
  0
SPLINE
  5
2B2
100
AcDbEntity
  8
POINTILLE_COURT
 62
     7
100
AcDbSpline
210
0.0
220
0.0
230
1.0
 70
     8
 71
     3
 72
    11
 73
     7
 74
     0
 42
0.0000001
 43
0.0000001
 40
0.0
 40
0.0
 40
0.0
 40
0.0
 40
1.0
 40
1.0
 40
1.0
 40
2.0
 40
2.0
 40
2.0
 40
2.0
 10
25.26321342973273
 20
114.8407164641205
 30
0.0
 10
26.18270941497579
 20
116.0885300491899
 30
0.0
 10
26.33257106862163
 20
117.8351934606482
 30
0.0
 10
26.47726507903829
 20
119.5246682870371
 30
0.0
 10
26.7687201571633
 20
122.9298006655094
 30
0.0
 10
27.07257757903829
 20
124.7067809172455
 30
0.0
 10
30.33163790889941
 20
124.7067809172455
 30
0.0
  0
SPLINE
  5
2B3
100
AcDbEntity
  8
POINTILLE_COURT
 62
     7
100
AcDbSpline
210
0.0
220
0.0
230
1.0
 70
     8
 71
     3
 72
    11
 73
     7
 74
     0
 42
0.0000001
 43
0.0000001
 40
0.0
 40
0.0
 40
0.0
 40
0.0
 40
1.0
 40
1.0
 40
1.0
 40
2.0
 40
2.0
 40
2.0
 40
2.0
 10
30.38882649396885
 20
132.4327520543983
 30
0.0
 10
23.34463975351746
 20
132.7700269024885
 30
0.0
 10
22.41170789587858
 20
127.4580341724538
 30
0.0
 10
21.7302680087258
 20
123.5795456741899
 30
0.0
 10
21.38196885507997
 20
121.5965487123844
 30
0.0
 10
21.05261772660773
 20
119.7231057870371
 30
0.0
 10
20.10073784379522
 20
118.969318894676
 30
0.0
  0
SPLINE
  5
2B4
100
AcDbEntity
  8
POINTILLE_COURT
 62
     7
100
AcDbSpline
210
0.0
220
0.0
230
1.0
 70
     8
 71
     3
 72
    11
 73
     7
 74
     0
 42
0.0000001
 43
0.0000001
 40
0.0
 40
0.0
 40
0.0
 40
0.0
 40
1.0
 40
1.0
 40
1.0
 40
2.0
 40
2.0
 40
2.0
 40
2.0
 10
21.59039713198967
 20
117.0876077401621
 30
0.0
 10
23.2585123663647
 20
118.4084573495371
 30
0.0
 10
23.66434461462858
 20
120.7187383825232
 30
0.0
 10
24.09394802174662
 20
123.1647561776621
 30
0.0
 10
24.8680609774758
 20
127.5710333043982
 30
0.0
 10
25.58085123355218
 20
130.2602748408566
 30
0.0
 10
30.27444932382997
 20
130.0356546151621
 30
0.0
  0
LINE
  5
2B5
100
AcDbEntity
  8
ALPHA
 62
     7
100
AcDbLine
 10
30.739882
 20
114.268486
 30
0.0
 11
31.227707
 21
114.268486
 31
0.0
  0
LINE
  5
2B6
100
AcDbEntity
  8
ALPHA
 62
     7
100
AcDbLine
 10
31.227707
 20
113.480593
 30
0.0
 11
30.739882
 21
113.480593
 31
0.0
  0
LINE
  5
2B7
100
AcDbEntity
  8
ALPHA
 62
     7
100
AcDbLine
 10
30.739882
 20
113.480593
 30
0.0
 11
30.739882
 21
114.268486
 31
0.0
  0
LINE
  5
2B8
100
AcDbEntity
  8
ALPHA
 62
     7
100
AcDbLine
 10
31.227707
 20
114.268486
 30
0.0
 11
31.227707
 21
113.480593
 31
0.0
  0
LINE
  5
2B9
100
AcDbEntity
  8
ALPHA
 62
     7
100
AcDbLine
 10
31.227707
 20
118.151109
 30
0.0
 11
31.227707
 21
117.363215
 31
0.0
  0
LINE
  5
2BA
100
AcDbEntity
  8
ALPHA
 62
     7
100
AcDbLine
 10
30.739882
 20
117.363215
 30
0.0
 11
30.739882
 21
118.151109
 31
0.0
  0
LINE
  5
2BB
100
AcDbEntity
  8
ALPHA
 62
     7
100
AcDbLine
 10
31.227707
 20
117.363215
 30
0.0
 11
30.739882
 21
117.363215
 31
0.0
  0
LINE
  5
2BC
100
AcDbEntity
  8
ALPHA
 62
     7
100
AcDbLine
 10
30.739882
 20
118.151109
 30
0.0
 11
31.227707
 21
118.151109
 31
0.0
  0
LINE
  5
2BD
100
AcDbEntity
  8
ALPHA
 62
     7
100
AcDbLine
 10
31.227707
 20
121.245838
 30
0.0
 11
30.739882
 21
121.245838
 31
0.0
  0
LINE
  5
2BE
100
AcDbEntity
  8
ALPHA
 62
     7
100
AcDbLine
 10
31.227707
 20
125.916354
 30
0.0
 11
31.227707
 21
125.128461
 31
0.0
  0
LINE
  5
2BF
100
AcDbEntity
  8
ALPHA
 62
     7
100
AcDbLine
 10
30.739882
 20
125.128461
 30
0.0
 11
30.739882
 21
125.916354
 31
0.0
  0
LINE
  5
2C0
100
AcDbEntity
  8
ALPHA
 62
     7
100
AcDbLine
 10
30.739882
 20
122.033731
 30
0.0
 11
31.227707
 21
122.033731
 31
0.0
  0
LINE
  5
2C1
100
AcDbEntity
  8
ALPHA
 62
     7
100
AcDbLine
 10
31.227707
 20
125.128461
 30
0.0
 11
30.739882
 21
125.128461
 31
0.0
  0
LINE
  5
2C2
100
AcDbEntity
  8
ALPHA
 62
     7
100
AcDbLine
 10
30.739882
 20
125.916354
 30
0.0
 11
31.227707
 21
125.916354
 31
0.0
  0
LINE
  5
2C3
100
AcDbEntity
  8
ALPHA
 62
     7
100
AcDbLine
 10
30.739882
 20
129.798977
 30
0.0
 11
31.227707
 21
129.798977
 31
0.0
  0
LINE
  5
2C4
100
AcDbEntity
  8
ALPHA
 62
     7
100
AcDbLine
 10
31.227707
 20
129.011083
 30
0.0
 11
30.739882
 21
129.011083
 31
0.0
  0
LINE
  5
2C5
100
AcDbEntity
  8
ALPHA
 62
     7
100
AcDbLine
 10
30.739882
 20
129.011083
 30
0.0
 11
30.739882
 21
129.798977
 31
0.0
  0
LINE
  5
2C6
100
AcDbEntity
  8
ALPHA
 62
     7
100
AcDbLine
 10
31.227707
 20
129.798977
 30
0.0
 11
31.227707
 21
129.011083
 31
0.0
  0
POLYLINE
  5
2C7
100
AcDbEntity
  8
ALPHA
 62
     7
100
AcDb2dPolyline
 66
     1
 10
0.0
 20
0.0
 30
0.0
 70
     1
  0
VERTEX
  5
2C8
100
AcDbEntity
  8
ALPHA
 62
     7
100
AcDbVertex
100
AcDb2dVertex
 10
42.242022
 20
122.394433
 30
0.0
  0
VERTEX
  5
2C9
100
AcDbEntity
  8
ALPHA
 62
     7
100
AcDbVertex
100
AcDb2dVertex
 10
42.242022
 20
120.817957
 30
0.0
  0
VERTEX
  5
2CA
100
AcDbEntity
  8
ALPHA
 62
     7
100
AcDbVertex
100
AcDb2dVertex
 10
41.266715
 20
120.817957
 30
0.0
  0
VERTEX
  5
2CB
100
AcDbEntity
  8
ALPHA
 62
     7
100
AcDbVertex
100
AcDb2dVertex
 10
41.266715
 20
122.394433
 30
0.0
  0
SEQEND
  5
2CC
100
AcDbEntity
  8
ALPHA
 62
     7
  0
LINE
  5
2CD
100
AcDbEntity
  8
ALPHA
 62
     7
100
AcDbLine
 10
39.463553
 20
122.394433
 30
0.0
 11
39.463553
 21
120.817957
 31
0.0
  0
LINE
  5
2CE
100
AcDbEntity
  8
ALPHA
 62
     7
100
AcDbLine
 10
43.892567
 20
133.195152
 30
0.0
 11
43.892567
 21
110.084418
 31
0.0
  0
LINE
  5
2CF
100
AcDbEntity
  8
ALPHA
 62
     7
100
AcDbLine
 10
32.332205
 20
116.307638
 30
0.0
 11
32.332205
 21
113.37345
 31
0.0
  0
LINE
  5
2D0
100
AcDbEntity
  8
ALPHA
 62
     7
100
AcDbLine
 10
39.463553
 20
111.796975
 30
0.0
 11
32.332205
 21
111.796975
 31
0.0
  0
LINE
  5
2D1
100
AcDbEntity
  8
ALPHA
 62
     7
100
AcDbLine
 10
32.332205
 20
113.37345
 30
0.0
 11
39.463553
 21
113.37345
 31
0.0
  0
LINE
  5
2D2
100
AcDbEntity
  8
ALPHA
 62
     7
100
AcDbLine
 10
32.332205
 20
111.796975
 30
0.0
 11
32.332205
 21
110.084073
 31
0.0
  0
LINE
  5
2D3
100
AcDbEntity
  8
ALPHA
 62
     7
100
AcDbLine
 10
39.463553
 20
113.37345
 30
0.0
 11
39.463553
 21
111.796975
 31
0.0
  0
LINE
  5
2D4
100
AcDbEntity
  8
ALPHA
 62
     7
100
AcDbLine
 10
39.463553
 20
116.307638
 30
0.0
 11
32.332205
 21
116.307638
 31
0.0
  0
LINE
  5
2D5
100
AcDbEntity
  8
ALPHA
 62
     7
100
AcDbLine
 10
32.332205
 20
117.884114
 30
0.0
 11
39.463553
 21
117.884114
 31
0.0
  0
LINE
  5
2D6
100
AcDbEntity
  8
ALPHA
 62
     7
100
AcDbLine
 10
39.463553
 20
120.817957
 30
0.0
 11
32.332205
 21
120.817957
 31
0.0
  0
LINE
  5
2D7
100
AcDbEntity
  8
ALPHA
 62
     7
100
AcDbLine
 10
32.332205
 20
120.817957
 30
0.0
 11
32.332205
 21
117.884114
 31
0.0
  0
LINE
  5
2D8
100
AcDbEntity
  8
ALPHA
 62
     7
100
AcDbLine
 10
39.463553
 20
117.884114
 30
0.0
 11
39.463553
 21
116.307638
 31
0.0
  0
POLYLINE
  5
2D9
100
AcDbEntity
  8
ALPHA
 62
     7
100
AcDb2dPolyline
 66
     1
 10
0.0
 20
0.0
 30
0.0
 70
     1
  0
VERTEX
  5
2DA
100
AcDbEntity
  8
ALPHA
 62
     7
100
AcDbVertex
100
AcDb2dVertex
 10
42.242022
 20
111.796975
 30
0.0
  0
VERTEX
  5
2DB
100
AcDbEntity
  8
ALPHA
 62
     7
100
AcDbVertex
100
AcDb2dVertex
 10
41.266715
 20
111.796975
 30
0.0
  0
VERTEX
  5
2DC
100
AcDbEntity
  8
ALPHA
 62
     7
100
AcDbVertex
100
AcDb2dVertex
 10
41.266715
 20
113.37345
 30
0.0
  0
VERTEX
  5
2DD
100
AcDbEntity
  8
ALPHA
 62
     7
100
AcDbVertex
100
AcDb2dVertex
 10
42.242022
 20
113.37345
 30
0.0
  0
SEQEND
  5
2DE
100
AcDbEntity
  8
ALPHA
 62
     7
  0
POLYLINE
  5
2DF
100
AcDbEntity
  8
ALPHA
 62
     7
100
AcDb2dPolyline
 66
     1
 10
0.0
 20
0.0
 30
0.0
 70
     1
  0
VERTEX
  5
2E0
100
AcDbEntity
  8
ALPHA
 62
     7
100
AcDbVertex
100
AcDb2dVertex
 10
42.242022
 20
117.884114
 30
0.0
  0
VERTEX
  5
2E1
100
AcDbEntity
  8
ALPHA
 62
     7
100
AcDbVertex
100
AcDb2dVertex
 10
42.242022
 20
116.307638
 30
0.0
  0
VERTEX
  5
2E2
100
AcDbEntity
  8
ALPHA
 62
     7
100
AcDbVertex
100
AcDb2dVertex
 10
41.266715
 20
116.307638
 30
0.0
  0
VERTEX
  5
2E3
100
AcDbEntity
  8
ALPHA
 62
     7
100
AcDbVertex
100
AcDb2dVertex
 10
41.266715
 20
117.884114
 30
0.0
  0
SEQEND
  5
2E4
100
AcDbEntity
  8
ALPHA
 62
     7
  0
LINE
  5
2E5
100
AcDbEntity
  8
ALPHA
 62
     7
100
AcDbLine
 10
32.332205
 20
129.83894
 30
0.0
 11
32.332205
 21
126.904752
 31
0.0
  0
LINE
  5
2E6
100
AcDbEntity
  8
ALPHA
 62
     7
100
AcDbLine
 10
39.463553
 20
125.328276
 30
0.0
 11
32.332205
 21
125.328276
 31
0.0
  0
LINE
  5
2E7
100
AcDbEntity
  8
ALPHA
 62
     7
100
AcDbLine
 10
32.332205
 20
126.904752
 30
0.0
 11
39.463553
 21
126.904752
 31
0.0
  0
LINE
  5
2E8
100
AcDbEntity
  8
ALPHA
 62
     7
100
AcDbLine
 10
32.332205
 20
122.394433
 30
0.0
 11
39.463553
 21
122.394433
 31
0.0
  0
LINE
  5
2E9
100
AcDbEntity
  8
ALPHA
 62
     7
100
AcDbLine
 10
32.332205
 20
125.328276
 30
0.0
 11
32.332205
 21
122.394433
 31
0.0
  0
LINE
  5
2EA
100
AcDbEntity
  8
ALPHA
 62
     7
100
AcDbLine
 10
39.463553
 20
126.904752
 30
0.0
 11
39.463553
 21
125.328276
 31
0.0
  0
LINE
  5
2EB
100
AcDbEntity
  8
ALPHA
 62
     7
100
AcDbLine
 10
39.463553
 20
129.83894
 30
0.0
 11
32.332205
 21
129.83894
 31
0.0
  0
LINE
  5
2EC
100
AcDbEntity
  8
ALPHA
 62
     7
100
AcDbLine
 10
32.332205
 20
131.415415
 30
0.0
 11
39.463553
 21
131.415415
 31
0.0
  0
LINE
  5
2ED
100
AcDbEntity
  8
ALPHA
 62
     7
100
AcDbLine
 10
32.332205
 20
133.195152
 30
0.0
 11
32.332205
 21
131.415415
 31
0.0
  0
LINE
  5
2EE
100
AcDbEntity
  8
ALPHA
 62
     7
100
AcDbLine
 10
39.463553
 20
131.415415
 30
0.0
 11
39.463553
 21
129.83894
 31
0.0
  0
POLYLINE
  5
2EF
100
AcDbEntity
  8
ALPHA
 62
     7
100
AcDb2dPolyline
 66
     1
 10
0.0
 20
0.0
 30
0.0
 70
     1
  0
VERTEX
  5
2F0
100
AcDbEntity
  8
ALPHA
 62
     7
100
AcDbVertex
100
AcDb2dVertex
 10
42.242022
 20
126.904752
 30
0.0
  0
VERTEX
  5
2F1
100
AcDbEntity
  8
ALPHA
 62
     7
100
AcDbVertex
100
AcDb2dVertex
 10
42.242022
 20
125.328276
 30
0.0
  0
VERTEX
  5
2F2
100
AcDbEntity
  8
ALPHA
 62
     7
100
AcDbVertex
100
AcDb2dVertex
 10
41.266715
 20
125.328276
 30
0.0
  0
VERTEX
  5
2F3
100
AcDbEntity
  8
ALPHA
 62
     7
100
AcDbVertex
100
AcDb2dVertex
 10
41.266715
 20
126.904752
 30
0.0
  0
SEQEND
  5
2F4
100
AcDbEntity
  8
ALPHA
 62
     7
  0
POLYLINE
  5
2F5
100
AcDbEntity
  8
ALPHA
 62
     7
100
AcDb2dPolyline
 66
     1
 10
0.0
 20
0.0
 30
0.0
 70
     1
  0
VERTEX
  5
2F6
100
AcDbEntity
  8
ALPHA
 62
     7
100
AcDbVertex
100
AcDb2dVertex
 10
42.242022
 20
129.83894
 30
0.0
  0
VERTEX
  5
2F7
100
AcDbEntity
  8
ALPHA
 62
     7
100
AcDbVertex
100
AcDb2dVertex
 10
41.266715
 20
129.83894
 30
0.0
  0
VERTEX
  5
2F8
100
AcDbEntity
  8
ALPHA
 62
     7
100
AcDbVertex
100
AcDb2dVertex
 10
41.266715
 20
131.415415
 30
0.0
  0
VERTEX
  5
2F9
100
AcDbEntity
  8
ALPHA
 62
     7
100
AcDbVertex
100
AcDb2dVertex
 10
42.242022
 20
131.415415
 30
0.0
  0
SEQEND
  5
2FA
100
AcDbEntity
  8
ALPHA
 62
     7
  0
DIMENSION
  5
307
100
AcDbEntity
  8
COTATION1
100
AcDbDimension
  2
*D6
 10
30.331638
 20
100.765793
 30
0.0
 11
37.112103
 21
103.015793
 31
0.0
 70
    32
  1
13.5
  3
SC_STAND
100
AcDbAlignedDimension
 13
43.892567
 23
110.084418
 33
0.0
 14
30.331638
 24
110.084418
 34
0.0
100
AcDbRotatedDimension
  0
DIMENSION
  5
31F
100
AcDbEntity
  8
COTATION1
100
AcDbDimension
  2
*D7
 10
20.100738
 20
90.751335
 30
0.0
 11
31.996653
 21
93.001335
 31
0.0
 70
    32
  1
33.5
  3
SC_STAND
100
AcDbAlignedDimension
 13
43.892567
 23
110.084418
 33
0.0
 14
20.100738
 24
118.969319
 34
0.0
100
AcDbRotatedDimension
  0
ENDSEC
  0
SECTION
  2
OBJECTS
  0
DICTIONARY
  5
F8
100
AcDbDictionary
  3
ACAD_GROUP
350
F9
  3
ACAD_MLINESTYLE
350
106
  3
ACDBVARIABLEDICTIONARY
350
143
  0
DICTIONARY
  5
F9
102
{ACAD_REACTORS
330
F8
102
}
100
AcDbDictionary
  0
DICTIONARY
  5
106
102
{ACAD_REACTORS
330
F8
102
}
100
AcDbDictionary
  3
STANDARD
350
107
  0
DICTIONARY
  5
143
102
{ACAD_REACTORS
330
F8
102
}
100
AcDbDictionary
  3
DIMADEC
350
144
  0
MLINESTYLE
  5
107
102
{ACAD_REACTORS
330
106
102
}
100
AcDbMlineStyle
  2
STANDARD
 70
     0
  3

 62
   256
 51
90.0
 52
90.0
 71
     2
 49
0.5
 62
   256
  6
BYLAYER
 49
-0.5
 62
   256
  6
BYLAYER
  0
DICTIONARYVAR
  5
144
102
{ACAD_REACTORS
330
143
102
}
100
DictionaryVariables
280
     0
  1
0
  0
ENDSEC
  0
EOF
