  0
SECTION
  2
HEADER
  9
$ACADVER
  1
AC1014
  9
$ACADMAINTVER
 70
     0
  9
$DWGCODEPAGE
  3
ANSI_1252
  9
$INSBASE
 10
-18.416439
 20
-2.464999
 30
0.0
  9
$EXTMIN
 10
-8.884247
 20
4.055519
 30
0.0
  9
$EXTMAX
 10
133.145651
 20
150.843575
 30
57.600189
  9
$LIMMIN
 10
0.0
 20
0.0
  9
$LIMMAX
 10
12.0
 20
9.0
  9
$ORTHOMODE
 70
     0
  9
$REGENMODE
 70
     1
  9
$FILLMODE
 70
     1
  9
$QTEXTMODE
 70
     0
  9
$MIRRTEXT
 70
     1
  9
$DRAGMODE
 70
     2
  9
$LTSCALE
 40
3.567072
  9
$OSMODE
 70
    32
  9
$ATTMODE
 70
     1
  9
$TEXTSIZE
 40
0.2
  9
$TRACEWID
 40
0.05
  9
$TEXTSTYLE
  7
STANDARD
  9
$CLAYER
  8
ALPHA
  9
$CELTYPE
  6
BYLAYER
  9
$CECOLOR
 62
   256
  9
$CELTSCALE
 40
1.0
  9
$DELOBJ
 70
     1
  9
$DISPSILH
 70
     0
  9
$DIMSCALE
 40
1.0
  9
$DIMASZ
 40
3.0
  9
$DIMEXO
 40
0.0625
  9
$DIMDLI
 40
0.38
  9
$DIMRND
 40
0.01
  9
$DIMDLE
 40
0.0
  9
$DIMEXE
 40
0.18
  9
$DIMTP
 40
0.0
  9
$DIMTM
 40
0.0
  9
$DIMTXT
 40
2.5
  9
$DIMCEN
 40
0.09
  9
$DIMTSZ
 40
0.0
  9
$DIMTOL
 70
     0
  9
$DIMLIM
 70
     0
  9
$DIMTIH
 70
     0
  9
$DIMTOH
 70
     0
  9
$DIMSE1
 70
     0
  9
$DIMSE2
 70
     0
  9
$DIMTAD
 70
     1
  9
$DIMZIN
 70
    12
  9
$DIMBLK
  1

  9
$DIMASO
 70
     1
  9
$DIMSHO
 70
     1
  9
$DIMPOST
  1

  9
$DIMAPOST
  1

  9
$DIMALT
 70
     0
  9
$DIMALTD
 70
     2
  9
$DIMALTF
 40
25.4
  9
$DIMLFAC
 40
1.0
  9
$DIMTOFL
 70
     1
  9
$DIMTVP
 40
0.0
  9
$DIMTIX
 70
     0
  9
$DIMSOXD
 70
     0
  9
$DIMSAH
 70
     0
  9
$DIMBLK1
  1

  9
$DIMBLK2
  1

  9
$DIMSTYLE
  2
SC_STAND
  9
$DIMCLRD
 70
     0
  9
$DIMCLRE
 70
     0
  9
$DIMCLRT
 70
     0
  9
$DIMTFAC
 40
1.0
  9
$DIMGAP
 40
1.0
  9
$DIMJUST
 70
     0
  9
$DIMSD1
 70
     0
  9
$DIMSD2
 70
     0
  9
$DIMTOLJ
 70
     1
  9
$DIMTZIN
 70
    12
  9
$DIMALTZ
 70
    12
  9
$DIMALTTZ
 70
    12
  9
$DIMFIT
 70
     5
  9
$DIMUPT
 70
     0
  9
$DIMUNIT
 70
     2
  9
$DIMDEC
 70
     4
  9
$DIMTDEC
 70
     4
  9
$DIMALTU
 70
     2
  9
$DIMALTTD
 70
     2
  9
$DIMTXSTY
  7
STANDARD
  9
$DIMAUNIT
 70
     0
  9
$LUNITS
 70
     2
  9
$LUPREC
 70
     4
  9
$SKETCHINC
 40
0.1
  9
$FILLETRAD
 40
0.0
  9
$AUNITS
 70
     0
  9
$AUPREC
 70
     0
  9
$MENU
  1
acad
  9
$ELEVATION
 40
0.0
  9
$PELEVATION
 40
0.0
  9
$THICKNESS
 40
0.0
  9
$LIMCHECK
 70
     0
  9
$BLIPMODE
 70
     1
  9
$CHAMFERA
 40
0.0
  9
$CHAMFERB
 40
0.0
  9
$CHAMFERC
 40
0.0
  9
$CHAMFERD
 40
0.0
  9
$SKPOLY
 70
     0
  9
$TDCREATE
 40
2451288.399953472
  9
$TDUPDATE
 40
2451387.884348426
  9
$TDINDWG
 40
0.0022571875
  9
$TDUSRTIMER
 40
0.0022571875
  9
$USRTIMER
 70
     1
  9
$ANGBASE
 50
0.0
  9
$ANGDIR
 70
     0
  9
$PDMODE
 70
     0
  9
$PDSIZE
 40
0.0
  9
$PLINEWID
 40
0.0
  9
$COORDS
 70
     1
  9
$SPLFRAME
 70
     0
  9
$SPLINETYPE
 70
     6
  9
$SPLINESEGS
 70
     8
  9
$ATTDIA
 70
     0
  9
$ATTREQ
 70
     1
  9
$HANDLING
 70
     1
  9
$HANDSEED
  5
419
  9
$SURFTAB1
 70
     6
  9
$SURFTAB2
 70
     6
  9
$SURFTYPE
 70
     6
  9
$SURFU
 70
     6
  9
$SURFV
 70
     6
  9
$UCSNAME
  2

  9
$UCSORG
 10
0.0
 20
0.0
 30
0.0
  9
$UCSXDIR
 10
1.0
 20
0.0
 30
0.0
  9
$UCSYDIR
 10
0.0
 20
1.0
 30
0.0
  9
$PUCSNAME
  2

  9
$PUCSORG
 10
0.0
 20
0.0
 30
0.0
  9
$PUCSXDIR
 10
1.0
 20
0.0
 30
0.0
  9
$PUCSYDIR
 10
0.0
 20
1.0
 30
0.0
  9
$USERI1
 70
     0
  9
$USERI2
 70
     0
  9
$USERI3
 70
     0
  9
$USERI4
 70
     0
  9
$USERI5
 70
     0
  9
$USERR1
 40
0.0
  9
$USERR2
 40
0.0
  9
$USERR3
 40
0.0
  9
$USERR4
 40
0.0
  9
$USERR5
 40
0.0
  9
$WORLDVIEW
 70
     1
  9
$SHADEDGE
 70
     3
  9
$SHADEDIF
 70
    70
  9
$TILEMODE
 70
     1
  9
$MAXACTVP
 70
    16
  9
$PINSBASE
 10
0.0
 20
0.0
 30
0.0
  9
$PLIMCHECK
 70
     0
  9
$PEXTMIN
 10
1.000000E+20
 20
1.000000E+20
 30
1.000000E+20
  9
$PEXTMAX
 10
-1.000000E+20
 20
-1.000000E+20
 30
-1.000000E+20
  9
$PLIMMIN
 10
0.0
 20
0.0
  9
$PLIMMAX
 10
12.0
 20
9.0
  9
$UNITMODE
 70
     0
  9
$VISRETAIN
 70
     0
  9
$PLINEGEN
 70
     0
  9
$PSLTSCALE
 70
     1
  9
$TREEDEPTH
 70
  3020
  9
$PICKSTYLE
 70
     1
  9
$CMLSTYLE
  2
STANDARD
  9
$CMLJUST
 70
     0
  9
$CMLSCALE
 40
1.0
  9
$PROXYGRAPHICS
 70
     1
  9
$MEASUREMENT
 70
     0
  0
ENDSEC
  0
SECTION
  2
CLASSES
  0
CLASS
  1
DICTIONARYVAR
  2
AcDbDictionaryVar
  3
"AutoCAD"
 90
        0
280
     0
281
     0
  0
CLASS
  1
LWPOLYLINE
  2
AcDbPolyline
  3
"AutoCAD"
 90
        0
280
     0
281
     1
  0
ENDSEC
  0
SECTION
  2
TABLES
  0
TABLE
  2
VPORT
  5
3BE
100
AcDbSymbolTable
 70
     1
  0
VPORT
  5
414
100
AcDbSymbolTableRecord
100
AcDbViewportTableRecord
  2
*ACTIVE
 70
     0
 10
0.0
 20
0.0
 11
1.0
 21
1.0
 12
64.360784
 22
81.937526
 13
0.0
 23
0.0
 14
1.0
 24
1.0
 15
0.0
 25
0.0
 16
0.0
 26
0.0
 36
1.0
 17
0.0
 27
0.0
 37
0.0
 40
157.434898
 41
1.671053
 42
50.0
 43
0.0
 44
0.0
 50
0.0
 51
0.0
 71
     0
 72
   100
 73
     1
 74
     1
 75
     0
 76
     0
 77
     0
 78
     0
  0
ENDTAB
  0
TABLE
  2
LTYPE
  5
3BB
100
AcDbSymbolTable
 70
    23
  0
LTYPE
  5
3C7
100
AcDbSymbolTableRecord
100
AcDbLinetypeTableRecord
  2
BYBLOCK
 70
     0
  3

 72
    65
 73
     0
 40
0.0
  0
LTYPE
  5
3C8
100
AcDbSymbolTableRecord
100
AcDbLinetypeTableRecord
  2
BYLAYER
 70
     0
  3

 72
    65
 73
     0
 40
0.0
  0
LTYPE
  5
3C9
100
AcDbSymbolTableRecord
100
AcDbLinetypeTableRecord
  2
CONTINUOUS
 70
     0
  3
Ligne solide
 72
    65
 73
     0
 40
0.0
  0
LTYPE
  5
3DC
100
AcDbSymbolTableRecord
100
AcDbLinetypeTableRecord
  2
AXES
 70
     0
  3
____ _ ____ _ ____ _ ____ _ ____ _ ____ _ ____ 
 72
    65
 73
     4
 40
2.0
 49
1.25
 74
     0
 49
-0.25
 74
     0
 49
0.25
 74
     0
 49
-0.25
 74
     0
  0
LTYPE
  5
3DD
100
AcDbSymbolTableRecord
100
AcDbLinetypeTableRecord
  2
AXES2
 70
     0
  3
___ _ ___ _ ___ _ ___ _ ___ _ ___ _ ___ _ ___ _
 72
    65
 73
     4
 40
1.125
 49
0.75
 74
     0
 49
-0.125
 74
     0
 49
0.125
 74
     0
 49
-0.125
 74
     0
  0
LTYPE
  5
3DE
100
AcDbSymbolTableRecord
100
AcDbLinetypeTableRecord
  2
AXESX2
 70
     0
  3
________  __  ________  __  ________  __  _____
 72
    65
 73
     4
 40
4.0
 49
2.5
 74
     0
 49
-0.5
 74
     0
 49
0.5
 74
     0
 49
-0.5
 74
     0
  0
LTYPE
  5
3DF
100
AcDbSymbolTableRecord
100
AcDbLinetypeTableRecord
  2
TIRETPT
 70
     0
  3
__ . __ . __ . __ . __ . __ . __ . __ . __ . __
 72
    65
 73
     4
 40
1.0
 49
0.5
 74
     0
 49
-0.25
 74
     0
 49
0.0
 74
     0
 49
-0.25
 74
     0
  0
LTYPE
  5
3E0
100
AcDbSymbolTableRecord
100
AcDbLinetypeTableRecord
  2
TIRETPT2
 70
     0
  3
_._._._._._._._._._._._._._._._._._._._._._._._
 72
    65
 73
     4
 40
0.5
 49
0.25
 74
     0
 49
-0.125
 74
     0
 49
0.0
 74
     0
 49
-0.125
 74
     0
  0
LTYPE
  5
3E1
100
AcDbSymbolTableRecord
100
AcDbLinetypeTableRecord
  2
TIRETPTX2
 70
     0
  3
____  .  ____  .  ____  .  ____  .  ____  .  __
 72
    65
 73
     4
 40
2.0
 49
1.0
 74
     0
 49
-0.5
 74
     0
 49
0.0
 74
     0
 49
-0.5
 74
     0
  0
LTYPE
  5
3E2
100
AcDbSymbolTableRecord
100
AcDbLinetypeTableRecord
  2
DISCONTINU
 70
     0
  3
__ __ __ __ __ __ __ __ __ __ __ __ __ __ __ __
 72
    65
 73
     2
 40
0.75
 49
0.5
 74
     0
 49
-0.25
 74
     0
  0
LTYPE
  5
3E3
100
AcDbSymbolTableRecord
100
AcDbLinetypeTableRecord
  2
DISCONTINU2
 70
     0
  3
_ _ _ _ _ _ _ _ _ _ _ _ _ _ _ _ _ _ _ _ _ _ _ _
 72
    65
 73
     2
 40
0.375
 49
0.25
 74
     0
 49
-0.125
 74
     0
  0
LTYPE
  5
3E4
100
AcDbSymbolTableRecord
100
AcDbLinetypeTableRecord
  2
DISCONTINUX2
 70
     0
  3
____  ____  ____  ____  ____  ____  ____  ____ 
 72
    65
 73
     2
 40
1.5
 49
1.0
 74
     0
 49
-0.5
 74
     0
  0
LTYPE
  5
3E5
100
AcDbSymbolTableRecord
100
AcDbLinetypeTableRecord
  2
DIVISE
 70
     0
  3
____ . . ____ . . ____ . . ____ . . ____ . . __
 72
    65
 73
     6
 40
1.25
 49
0.5
 74
     0
 49
-0.25
 74
     0
 49
0.0
 74
     0
 49
-0.25
 74
     0
 49
0.0
 74
     0
 49
-0.25
 74
     0
  0
LTYPE
  5
3E6
100
AcDbSymbolTableRecord
100
AcDbLinetypeTableRecord
  2
DIVISE2
 70
     0
  3
__..__..__..__..__..__..__..__..__..__..__..__.
 72
    65
 73
     6
 40
0.625
 49
0.25
 74
     0
 49
-0.125
 74
     0
 49
0.0
 74
     0
 49
-0.125
 74
     0
 49
0.0
 74
     0
 49
-0.125
 74
     0
  0
LTYPE
  5
3E7
100
AcDbSymbolTableRecord
100
AcDbLinetypeTableRecord
  2
DIVISEX2
 70
     0
  3
________  .  .  ________  .  .  ________  .  . 
 72
    65
 73
     6
 40
2.5
 49
1.0
 74
     0
 49
-0.5
 74
     0
 49
0.0
 74
     0
 49
-0.5
 74
     0
 49
0.0
 74
     0
 49
-0.5
 74
     0
  0
LTYPE
  5
3E8
100
AcDbSymbolTableRecord
100
AcDbLinetypeTableRecord
  2
POINTILLE
 70
     0
  3
. . . . . . . . . . . . . . . . . . . . . . . .
 72
    65
 73
     2
 40
0.25
 49
0.0
 74
     0
 49
-0.25
 74
     0
  0
LTYPE
  5
3E9
100
AcDbSymbolTableRecord
100
AcDbLinetypeTableRecord
  2
POINTILLE2
 70
     0
  3
...............................................
 72
    65
 73
     2
 40
0.125
 49
0.0
 74
     0
 49
-0.125
 74
     0
  0
LTYPE
  5
3EA
100
AcDbSymbolTableRecord
100
AcDbLinetypeTableRecord
  2
POINTILLEX2
 70
     0
  3
.  .  .  .  .  .  .  .  .  .  .  .  .  .  .  . 
 72
    65
 73
     2
 40
0.5
 49
0.0
 74
     0
 49
-0.5
 74
     0
  0
LTYPE
  5
3EB
100
AcDbSymbolTableRecord
100
AcDbLinetypeTableRecord
  2
CACHE
 70
     0
  3
__ __ __ __ __ __ __ __ __ __ __ __ __ __ __ __
 72
    65
 73
     2
 40
0.375
 49
0.25
 74
     0
 49
-0.125
 74
     0
  0
LTYPE
  5
3EC
100
AcDbSymbolTableRecord
100
AcDbLinetypeTableRecord
  2
CACHE2
 70
     0
  3
_ _ _ _ _ _ _ _ _ _ _ _ _ _ _ _ _ _ _ _ _ _ _ _
 72
    65
 73
     2
 40
0.1875
 49
0.125
 74
     0
 49
-0.0625
 74
     0
  0
LTYPE
  5
3ED
100
AcDbSymbolTableRecord
100
AcDbLinetypeTableRecord
  2
CACHEX2
 70
     0
  3
____ ____ ____ ____ ____ ____ ____ ____ ____ __
 72
    65
 73
     2
 40
0.75
 49
0.5
 74
     0
 49
-0.25
 74
     0
  0
LTYPE
  5
3EE
100
AcDbSymbolTableRecord
100
AcDbLinetypeTableRecord
  2
FANTOME
 70
     0
  3
______  __  __  ______  __  __  ______  __  __ 
 72
    65
 73
     6
 40
2.5
 49
1.25
 74
     0
 49
-0.25
 74
     0
 49
0.25
 74
     0
 49
-0.25
 74
     0
 49
0.25
 74
     0
 49
-0.25
 74
     0
  0
LTYPE
  5
3EF
100
AcDbSymbolTableRecord
100
AcDbLinetypeTableRecord
  2
FANTOME2
 70
     0
  3
___ _ _ ___ _ _ ___ _ _ ___ _ _ ___ _ _ ___ _ _
 72
    65
 73
     6
 40
1.25
 49
0.625
 74
     0
 49
-0.125
 74
     0
 49
0.125
 74
     0
 49
-0.125
 74
     0
 49
0.125
 74
     0
 49
-0.125
 74
     0
  0
LTYPE
  5
3F0
100
AcDbSymbolTableRecord
100
AcDbLinetypeTableRecord
  2
FANTOMEX2
 70
     0
  3
____________    ____    ____    ____________   
 72
    65
 73
     6
 40
5.0
 49
2.5
 74
     0
 49
-0.5
 74
     0
 49
0.5
 74
     0
 49
-0.5
 74
     0
 49
0.5
 74
     0
 49
-0.5
 74
     0
  0
LTYPE
  5
3F1
100
AcDbSymbolTableRecord
100
AcDbLinetypeTableRecord
  2
0
 70
     0
  3
MEDUSA PEN 0
 72
    65
 73
     0
 40
0.0
  0
ENDTAB
  0
TABLE
  2
LAYER
  5
3B8
100
AcDbSymbolTable
 70
    21
  0
LAYER
  5
3C4
100
AcDbSymbolTableRecord
100
AcDbLayerTableRecord
  2
0
 70
     0
 62
     7
  6
CONTINUOUS
  0
LAYER
  5
3F7
100
AcDbSymbolTableRecord
100
AcDbLayerTableRecord
  2
COTATION1
 70
     0
 62
     2
  6
CONTINUOUS
  0
LAYER
  5
3F8
100
AcDbSymbolTableRecord
100
AcDbLayerTableRecord
  2
ALPHA
 70
     0
 62
   255
  6
CONTINUOUS
  0
LAYER
  5
3F9
100
AcDbSymbolTableRecord
100
AcDbLayerTableRecord
  2
DEFPOINTS
 70
     0
 62
     7
  6
CONTINUOUS
  0
LAYER
  5
3FA
100
AcDbSymbolTableRecord
100
AcDbLayerTableRecord
  2
AXE
 70
     0
 62
    80
  6
AXES2
  0
LAYER
  5
3FB
100
AcDbSymbolTableRecord
100
AcDbLayerTableRecord
  2
CONSTRUCTION
 70
     0
 62
     6
  6
CONTINUOUS
  0
LAYER
  5
3FC
100
AcDbSymbolTableRecord
100
AcDbLayerTableRecord
  2
HACHURES
 70
     0
 62
     9
  6
CONTINUOUS
  0
LAYER
  5
3FD
100
AcDbSymbolTableRecord
100
AcDbLayerTableRecord
  2
FMULT
 70
     0
 62
     6
  6
CONTINUOUS
  0
LAYER
  5
3FE
100
AcDbSymbolTableRecord
100
AcDbLayerTableRecord
  2
TEXTE
 70
     0
 62
   131
  6
CONTINUOUS
  0
LAYER
  5
3FF
100
AcDbSymbolTableRecord
100
AcDbLayerTableRecord
  2
FDP_CARTOUCHE
 70
     0
 62
     4
  6
CONTINUOUS
  0
LAYER
  5
400
100
AcDbSymbolTableRecord
100
AcDbLayerTableRecord
  2
FDP_TEXTES
 70
     0
 62
     5
  6
CONTINUOUS
  0
LAYER
  5
401
100
AcDbSymbolTableRecord
100
AcDbLayerTableRecord
  2
FDP_LOGO_MG
 70
     0
 62
    30
  6
CONTINUOUS
  0
LAYER
  5
402
100
AcDbSymbolTableRecord
100
AcDbLayerTableRecord
  2
FDP_LOGO_SCH
 70
     0
 62
     3
  6
CONTINUOUS
  0
LAYER
  5
403
100
AcDbSymbolTableRecord
100
AcDbLayerTableRecord
  2
FDP_FDP
 70
     0
 62
     5
  6
CONTINUOUS
  0
LAYER
  5
404
100
AcDbSymbolTableRecord
100
AcDbLayerTableRecord
  2
COTATION2
 70
     0
 62
     2
  6
CONTINUOUS
  0
LAYER
  5
405
100
AcDbSymbolTableRecord
100
AcDbLayerTableRecord
  2
COTATION3
 70
     0
 62
     2
  6
CONTINUOUS
  0
LAYER
  5
406
100
AcDbSymbolTableRecord
100
AcDbLayerTableRecord
  2
COTATION4
 70
     0
 62
     2
  6
CONTINUOUS
  0
LAYER
  5
407
100
AcDbSymbolTableRecord
100
AcDbLayerTableRecord
  2
ASHADE
 70
     0
 62
     7
  6
CONTINUOUS
  0
LAYER
  5
408
100
AcDbSymbolTableRecord
100
AcDbLayerTableRecord
  2
POINTILLE_COURT
 70
     0
 62
    40
  6
CACHE2
  0
LAYER
  5
409
100
AcDbSymbolTableRecord
100
AcDbLayerTableRecord
  2
POINTILLE_MOYEN
 70
     0
 62
   140
  6
CACHE
  0
LAYER
  5
40A
100
AcDbSymbolTableRecord
100
AcDbLayerTableRecord
  2
POINTILLE_LONG
 70
     0
 62
   240
  6
CACHEX2
  0
ENDTAB
  0
TABLE
  2
STYLE
  5
3B9
100
AcDbSymbolTable
 70
     4
  0
STYLE
  5
3C5
100
AcDbSymbolTableRecord
100
AcDbTextStyleTableRecord
  2
STANDARD
 70
     0
 40
0.0
 41
1.0
 50
0.0
 71
     0
 42
0.2
  3
txt
  4

  0
STYLE
  5
3D9
100
AcDbSymbolTableRecord
100
AcDbTextStyleTableRecord
  2
ROMANS
 70
     0
 40
0.0
 41
1.0
 50
0.0
 71
     0
 42
2.9
  3
romans.shx
  4

  0
STYLE
  5
3DA
100
AcDbSymbolTableRecord
100
AcDbTextStyleTableRecord
  2
INFOCAR
 70
     0
 40
0.0
 41
1.34
 50
0.0
 71
     0
 42
2.0
  3
ROMANS.SHX
  4

  0
STYLE
  5
3DB
100
AcDbSymbolTableRecord
100
AcDbTextStyleTableRecord
  2
CARTOUCHE
 70
     0
 40
0.0
 41
1.0
 50
0.0
 71
     0
 42
0.2
  3
ROMANS.SHX
  4

  0
ENDTAB
  0
TABLE
  2
VIEW
  5
3BC
100
AcDbSymbolTable
 70
     0
  0
ENDTAB
  0
TABLE
  2
UCS
  5
3BD
100
AcDbSymbolTable
 70
     0
  0
ENDTAB
  0
TABLE
  2
APPID
  5
3BF
100
AcDbSymbolTable
 70
     3
  0
APPID
  5
3C6
100
AcDbSymbolTableRecord
100
AcDbRegAppTableRecord
  2
ACAD
 70
     0
  0
APPID
  5
3F3
100
AcDbSymbolTableRecord
100
AcDbRegAppTableRecord
  2
AVE_RENDER
 70
     0
  0
APPID
  5
3F4
100
AcDbSymbolTableRecord
100
AcDbRegAppTableRecord
  2
AVE_MATERIAL
 70
     0
  0
ENDTAB
  0
TABLE
  2
DIMSTYLE
  5
3C0
100
AcDbSymbolTable
 70
     2
  0
DIMSTYLE
105
3F5
102
{ACAD_REACTORS
330
1F
330
2E
102
}
100
AcDbSymbolTableRecord
100
AcDbDimStyleTableRecord
  2
SC_STAND
 70
     0
  3

  4

  5

  6

  7

 40
1.0
 41
3.0
 42
0.0625
 43
0.38
 44
0.18
 45
0.01
 46
0.0
 47
0.0
 48
0.0
140
2.5
141
0.09
142
0.0
143
25.4
144
1.0
145
0.0
146
1.0
147
1.0
 71
     0
 72
     0
 73
     0
 74
     0
 75
     0
 76
     0
 77
     1
 78
    12
170
     0
171
     2
172
     1
173
     0
174
     0
175
     0
176
     0
177
     0
178
     0
270
     2
271
     4
272
     4
273
     2
274
     2
340
3C5
275
     0
280
     0
281
     0
282
     0
283
     1
284
    12
285
    12
286
    12
287
     5
288
     0
  0
DIMSTYLE
105
3F6
100
AcDbSymbolTableRecord
100
AcDbDimStyleTableRecord
  2
STANDARD
 70
     0
  3

  4

  5

  6

  7

 40
1.0
 41
0.18
 42
0.0625
 43
0.38
 44
0.18
 45
0.0
 46
0.0
 47
0.0
 48
0.0
140
0.18
141
0.09
142
0.0
143
25.4
144
1.0
145
0.0
146
1.0
147
0.09
 71
     0
 72
     0
 73
     1
 74
     1
 75
     0
 76
     0
 77
     0
 78
     0
170
     0
171
     2
172
     0
173
     0
174
     0
175
     0
176
     0
177
     0
178
     0
270
     2
271
     4
272
     4
273
     2
274
     2
340
3C5
275
     0
280
     0
281
     0
282
     0
283
     1
284
    12
285
    12
286
    12
287
     5
288
     0
  0
ENDTAB
  0
TABLE
  2
BLOCK_RECORD
  5
3B7
100
AcDbSymbolTable
 70
     5
  0
BLOCK_RECORD
  5
3CD
100
AcDbSymbolTableRecord
100
AcDbBlockTableRecord
  2
*MODEL_SPACE
  0
BLOCK_RECORD
  5
3CA
100
AcDbSymbolTableRecord
100
AcDbBlockTableRecord
  2
*PAPER_SPACE
  0
BLOCK_RECORD
  5
3D4
100
AcDbSymbolTableRecord
100
AcDbBlockTableRecord
  2
AVE_RENDER
  0
BLOCK_RECORD
  5
3D5
100
AcDbSymbolTableRecord
100
AcDbBlockTableRecord
  2
AVE_GLOBAL
  0
BLOCK_RECORD
  5
3D6
100
AcDbSymbolTableRecord
100
AcDbBlockTableRecord
  2
SCH_ISO
  0
BLOCK_RECORD
  5
3D7
100
AcDbSymbolTableRecord
100
AcDbBlockTableRecord
  2
*D3
  0
BLOCK_RECORD
  5
3D8
100
AcDbSymbolTableRecord
100
AcDbBlockTableRecord
  2
*D4
  0
ENDTAB
  0
ENDSEC
  0
SECTION
  2
BLOCKS
  0
BLOCK
  5
40D
100
AcDbEntity
  8
0
100
AcDbBlockBegin
  2
*MODEL_SPACE
 70
     0
 10
0.0
 20
0.0
 30
0.0
  3
*MODEL_SPACE
  1

  0
ENDBLK
  5
40E
100
AcDbEntity
  8
0
100
AcDbBlockEnd
  0
BLOCK
  5
40B
100
AcDbEntity
 67
     1
  8
0
100
AcDbBlockBegin
  2
*PAPER_SPACE
 70
     0
 10
0.0
 20
0.0
 30
0.0
  3
*PAPER_SPACE
  1

  0
ENDBLK
  5
40C
100
AcDbEntity
 67
     1
  8
0
100
AcDbBlockEnd
  0
BLOCK
  5
1AF
100
AcDbEntity
  8
0
100
AcDbBlockBegin
  2
AVE_RENDER
 70
     0
 10
0.0
 20
0.0
 30
0.0
  3
AVE_RENDER
  1
AVE_RENDER
  0
ENDBLK
  5
1B0
100
AcDbEntity
  8
0
100
AcDbBlockEnd
  0
BLOCK
  5
1B2
100
AcDbEntity
  8
0
100
AcDbBlockBegin
  2
AVE_GLOBAL
 70
     0
 10
0.0
 20
0.0
 30
0.0
  3
AVE_GLOBAL
  1
AVE_GLOBAL
  0
ENDBLK
  5
1B3
100
AcDbEntity
  8
0
100
AcDbBlockEnd
  0
BLOCK
  5
1EA
100
AcDbEntity
  8
0
100
AcDbBlockBegin
  2
SCH_ISO
 70
     0
 10
0.0
 20
0.0
 30
0.0
  3
SCH_ISO
  1

  0
INSERT
  5
1E1
100
AcDbEntity
  8
ASHADE
 62
     1
100
AcDbBlockReference
  2
AVE_RENDER
 10
0.0
 20
0.0
 30
0.0
1001
AVE_RENDER
1002
{
1070
     6
1000
Pref
1070
    50
1070
    20
1070
     1
1070
     0
1000

1070
    10
1070
     1
1070
    30
1040
25.4
1070
     1
1040
0.3
1040
0.7
1040
0.0
1040
10.0
1010
-1.0
1020
-1.0
1030
-1.0
1040
0.3
1070
    49
1070
     0
1070
     0
1010
1.0
1020
1.0
1030
1.0
1040
45.0
1070
     1
1070
     0
1000
WCS
1040
0.0
1002
}
  0
INSERT
  5
1E2
100
AcDbEntity
  8
ASHADE
 62
     3
100
AcDbBlockReference
  2
AVE_RENDER
 10
0.0
 20
0.0
 30
0.0
1001
AVE_RENDER
1002
{
1070
     0
1000
Full Opt
1070
     0
1070
     1
1070
     1
1070
     1
1070
     0
1070
     0
1070
     0
1070
     1
1070
     1
1040
0.0001
1040
0.0001
1002
}
  0
INSERT
  5
1E3
100
AcDbEntity
  8
ASHADE
 62
     4
100
AcDbBlockReference
  2
AVE_RENDER
 10
0.0
 20
0.0
 30
0.0
1001
AVE_RENDER
1002
{
1070
     0
1000
Quick Opt
1070
     0
1070
     1
1070
     1
1070
     1
1070
     0
1070
     0
1070
     1
1002
}
  0
INSERT
  5
1E4
100
AcDbEntity
  8
ASHADE
 62
     5
100
AcDbBlockReference
  2
AVE_RENDER
 10
0.0
 20
0.0
 30
0.0
1001
AVE_RENDER
1002
{
1070
     1
1000
Scanl Opt
1070
     2
1070
     0
1070
     2
1040
2.0
1040
4.0
1070
     0
1070
     1
1070
     0
1040
0.03
1002
}
  0
INSERT
  5
1E5
100
AcDbEntity
  8
ASHADE
 62
     6
100
AcDbBlockReference
  2
AVE_RENDER
 10
0.0
 20
0.0
 30
0.0
1001
AVE_RENDER
1002
{
1070
     2
1000
Raytr Opt
1070
     2
1070
     0
1070
     2
1040
2.0
1040
4.0
1070
     0
1070
     1
1070
     1
1040
0.03
1070
     3
1040
0.03
1002
}
  0
INSERT
  5
1E6
100
AcDbEntity
  8
ASHADE
 62
     7
100
AcDbBlockReference
  2
AVE_RENDER
 10
0.0
 20
0.0
 30
0.0
1001
AVE_RENDER
1002
{
1070
     0
1000
RFile Opt
1070
     5
1070
   640
1070
   480
1070
 10000
1070
     3
1070
    32
1070
    24
1070
     0
1070
     0
1070
     0
1070
     1
1070
     0
1070
     0
1070
     0
1002
}
  0
INSERT
  5
1E7
100
AcDbEntity
  8
ASHADE
 62
     8
100
AcDbBlockReference
  2
AVE_RENDER
 10
0.0
 20
0.0
 30
0.0
1001
AVE_RENDER
1002
{
1070
     0
1000
Fog Opt
1070
     0
1070
     0
1040
0.0
1040
1.0
1040
0.0
1040
1.0
1010
0.5
1020
0.5
1030
0.5
1002
}
  0
INSERT
  5
1E8
100
AcDbEntity
  8
ASHADE
 62
     9
100
AcDbBlockReference
  2
AVE_RENDER
 10
0.0
 20
0.0
 30
0.0
1001
AVE_RENDER
1002
{
1070
     0
1000
BG Opt
1070
     0
1070
     1
1010
0.0
1020
0.0
1030
0.0
1010
1.0
1020
0.0
1030
0.0
1010
0.0
1020
1.0
1030
0.0
1010
0.0
1020
0.0
1030
1.0
1040
0.5
1040
0.33
1040
0.0
1000

1070
     1
1000

1070
     1
1070
     1
1040
1.0
1040
1.0
1040
0.0
1040
0.0
1070
     0
1002
}
  0
INSERT
  5
1E9
100
AcDbEntity
  8
ASHADE
 62
     1
100
AcDbBlockReference
  2
AVE_GLOBAL
 10
0.0
 20
0.0
 30
0.0
1001
AVE_MATERIAL
1002
{
1000
*GLOBAL*
1000
1
1000
Finition globale.
1002
{
1002
}
1002
{
1070
    63
1002
{
1002
{
1010
-1.0
1020
-1.0
1030
-1.0
1002
}
1040
0.1
1000

1040
0.0
1002
{
1002
}
1040
0.0
1002
{
1002
}
1040
0.0
1002
}
1002
{
1002
{
1010
-1.0
1020
-1.0
1030
-1.0
1002
}
1040
0.7
1000

1040
0.0
1002
{
1002
}
1040
0.0
1002
{
1002
}
1040
0.0
1002
}
1002
{
1002
{
1010
-1.0
1020
-1.0
1030
-1.0
1002
}
1040
0.2
1000

1040
0.0
1002
{
1002
}
1040
0.0
1002
{
1002
}
1040
0.0
1002
}
1002
{
1070
     0
1002
{
1070
     1
1002
{
1040
1.0
1040
1.0
1000

1040
0.0
1002
{
1002
}
1040
0.0
1002
{
1002
}
1040
0.0
1002
}
1002
}
1040
1.0
1040
0.0
1040
0.0
1002
}
1002
{
1040
1.0
1040
1.0
1000

1040
0.0
1002
{
1002
}
1040
0.0
1002
{
1002
}
1040
0.0
1002
}
1002
{
1040
0.5
1040
1.0
1000

1040
0.0
1002
{
1002
}
1040
0.0
1002
{
1002
}
1040
0.0
1002
}
1002
{
1070
     0
1040
0.0
1002
{
1002
}
1040
1.0
1002
{
1002
}
1040
0.0
1002
}
1002
{
1040
0.0
1002
{
1002
{
1010
0.0
1020
0.0
1030
0.0
1002
}
1040
1.0
1000

1040
0.0
1002
{
1002
}
1040
0.0
1002
{
1002
}
1040
0.0
1002
}
1002
}
1002
{
1002
{
1070
     1
1002
{
1040
0.0
1040
1.0
1000

1040
0.0
1002
{
1002
}
1040
0.0
1002
{
1002
}
1040
0.0
1002
}
1002
}
1040
0.0
1002
{
1002
}
1010
1.0
1020
0.0
1030
0.0
1010
0.0
1020
1.0
1030
0.0
1010
0.0
1020
0.0
1030
1.0
1070
     0
1002
}
1002
{
1002
{
1040
1.0
1040
1.0
1002
{
1070
     1
1002
{
1040
1.0
1040
1.0
1000

1040
0.0
1002
{
1002
}
1040
0.0
1002
{
1002
}
1040
0.0
1002
}
1002
}
1002
}
1070
     0
1040
0.0
1002
{
1002
}
1002
}
1002
{
1002
}
1002
}
1002
{
1071
        3
1070
     3
1070
     0
1002
{
1070
     2
1070
     0
1070
     0
1040
0.0
1002
}
1070
     0
1070
     2
1002
{
1002
}
1002
}
1002
{
1040
8030.0
1040
190.300003
1040
0.305
1040
228.0
1040
545.0
1040
14.0
1040
17.4
1040
0.456
1002
}
1002
}
  0
ENDBLK
  5
1EB
100
AcDbEntity
  8
0
100
AcDbBlockEnd
  0
BLOCK
  5
1EE
100
AcDbEntity
  8
0
100
AcDbBlockBegin
  2
*D3
 70
     1
 10
0.0
 20
0.0
 30
0.0
  3
*D3
  1

  0
LINE
  5
1EF
100
AcDbEntity
  8
0
  6
BYBLOCK
 62
     0
100
AcDbLine
 10
67.228253
 20
32.843575
 30
0.0
 11
132.825651
 21
32.843575
 31
0.0
  0
LINE
  5
1F0
100
AcDbEntity
  8
0
  6
BYBLOCK
 62
     0
100
AcDbLine
 10
57.228253
 20
150.843575
 30
0.0
 11
132.825651
 21
150.843575
 31
0.0
  0
LINE
  5
1F1
100
AcDbEntity
  8
0
  6
BYBLOCK
 62
     0
100
AcDbLine
 10
132.645651
 20
35.843575
 30
0.0
 11
132.645651
 21
147.843575
 31
0.0
  0
SOLID
  5
1F2
100
AcDbEntity
  8
0
  6
BYBLOCK
 62
     0
100
AcDbTrace
 10
132.145651
 20
35.843575
 30
0.0
 11
133.145651
 21
35.843575
 31
0.0
 12
132.645651
 22
32.843575
 32
0.0
 13
132.645651
 23
32.843575
 33
0.0
  0
SOLID
  5
1F3
100
AcDbEntity
  8
0
  6
BYBLOCK
 62
     0
100
AcDbTrace
 10
132.145651
 20
147.843575
 30
0.0
 11
133.145651
 21
147.843575
 31
0.0
 12
132.645651
 22
150.843575
 32
0.0
 13
132.645651
 23
150.843575
 33
0.0
  0
TEXT
  5
1F4
100
AcDbEntity
  8
0
  6
BYBLOCK
 62
     0
100
AcDbText
 10
131.645651
 20
88.093575
 30
0.0
 40
2.5
  1
118
 50
90.0
  7
ROMANS
100
AcDbText
  0
POINT
  5
1F5
100
AcDbEntity
  8
DEFPOINTS
  6
BYBLOCK
 62
     0
100
AcDbPoint
 10
67.165753
 20
32.843575
 30
0.0
  0
POINT
  5
1F6
100
AcDbEntity
  8
DEFPOINTS
  6
BYBLOCK
 62
     0
100
AcDbPoint
 10
57.165753
 20
150.843575
 30
0.0
  0
POINT
  5
1F7
100
AcDbEntity
  8
DEFPOINTS
  6
BYBLOCK
 62
     0
100
AcDbPoint
 10
132.645651
 20
150.843575
 30
0.0
  0
ENDBLK
  5
1F8
100
AcDbEntity
  8
0
100
AcDbBlockEnd
  0
BLOCK
  5
1FA
100
AcDbEntity
  8
0
100
AcDbBlockBegin
  2
*D4
 70
     1
 10
0.0
 20
0.0
 30
0.0
  3
*D4
  1

  0
LINE
  5
1FB
100
AcDbEntity
  8
0
  6
BYBLOCK
 62
     0
100
AcDbLine
 10
114.465753
 20
45.281075
 30
0.0
 11
114.465753
 21
4.375519
 31
0.0
  0
LINE
  5
1FC
100
AcDbEntity
  8
0
  6
BYBLOCK
 62
     0
100
AcDbLine
 10
-8.884247
 20
79.777037
 30
0.0
 11
-8.884247
 21
4.375519
 31
0.0
  0
LINE
  5
1FD
100
AcDbEntity
  8
0
  6
BYBLOCK
 62
     0
100
AcDbLine
 10
111.465753
 20
4.555519
 30
0.0
 11
-5.884247
 21
4.555519
 31
0.0
  0
SOLID
  5
1FE
100
AcDbEntity
  8
0
  6
BYBLOCK
 62
     0
100
AcDbTrace
 10
111.465753
 20
5.055519
 30
0.0
 11
111.465753
 21
4.055519
 31
0.0
 12
114.465753
 22
4.555519
 32
0.0
 13
114.465753
 23
4.555519
 33
0.0
  0
SOLID
  5
1FF
100
AcDbEntity
  8
0
  6
BYBLOCK
 62
     0
100
AcDbTrace
 10
-5.884247
 20
5.055519
 30
0.0
 11
-5.884247
 21
4.055519
 31
0.0
 12
-8.884247
 22
4.555519
 32
0.0
 13
-8.884247
 23
4.555519
 33
0.0
  0
TEXT
  5
200
100
AcDbEntity
  8
0
  6
BYBLOCK
 62
     0
100
AcDbText
 10
46.064563
 20
5.555519
 30
0.0
 40
2.5
  1
123.35
  7
ROMANS
100
AcDbText
  0
POINT
  5
201
100
AcDbEntity
  8
DEFPOINTS
  6
BYBLOCK
 62
     0
100
AcDbPoint
 10
114.465753
 20
45.343575
 30
0.0
  0
POINT
  5
202
100
AcDbEntity
  8
DEFPOINTS
  6
BYBLOCK
 62
     0
100
AcDbPoint
 10
-8.884247
 20
79.839537
 30
0.0
  0
POINT
  5
203
100
AcDbEntity
  8
DEFPOINTS
  6
BYBLOCK
 62
     0
100
AcDbPoint
 10
-8.884247
 20
4.555519
 30
0.0
  0
ENDBLK
  5
204
100
AcDbEntity
  8
0
100
AcDbBlockEnd
  0
ENDSEC
  0
SECTION
  2
ENTITIES
  0
DIMENSION
  5
1F
100
AcDbEntity
  8
COTATION1
100
AcDbDimension
  2
*D3
 10
132.645651
 20
150.843575
 30
0.0
 11
130.395651
 21
91.843575
 31
0.0
  3
SC_STAND
100
AcDbAlignedDimension
 13
67.165753
 23
32.843575
 33
0.0
 14
57.165753
 24
150.843575
 34
0.0
 50
90.0
100
AcDbRotatedDimension
  0
DIMENSION
  5
2E
100
AcDbEntity
  8
COTATION1
100
AcDbDimension
  2
*D4
 10
-8.884247
 20
4.555519
 30
0.0
 11
52.790753
 21
6.805519
 31
0.0
  3
SC_STAND
100
AcDbAlignedDimension
 13
114.465753
 23
45.343575
 33
0.0
 14
-8.884247
 24
79.839537
 34
0.0
100
AcDbRotatedDimension
  0
LINE
  5
3B
100
AcDbEntity
  8
ALPHA
100
AcDbLine
 10
113.465753
 20
100.398913
 30
0.0
 11
113.465753
 21
61.288237
 31
0.0
  0
LINE
  5
3C
100
AcDbEntity
  8
ALPHA
100
AcDbLine
 10
104.465753
 20
70.243575
 30
0.0
 11
104.465753
 21
75.243575
 31
0.0
  0
LINE
  5
3D
100
AcDbEntity
  8
ALPHA
100
AcDbLine
 10
94.465753
 20
75.243575
 30
0.0
 11
94.465753
 21
70.243575
 31
0.0
  0
LINE
  5
3E
100
AcDbEntity
  8
ALPHA
100
AcDbLine
 10
63.465753
 20
70.243575
 30
0.0
 11
63.465753
 21
75.243575
 31
0.0
  0
LINE
  5
3F
100
AcDbEntity
  8
ALPHA
100
AcDbLine
 10
53.465753
 20
75.243575
 30
0.0
 11
53.465753
 21
70.243575
 31
0.0
  0
LINE
  5
40
100
AcDbEntity
  8
ALPHA
100
AcDbLine
 10
44.465753
 20
58.128807
 30
0.0
 11
44.465753
 21
103.243575
 31
0.0
  0
LINE
  5
41
100
AcDbEntity
  8
ALPHA
100
AcDbLine
 10
-4.134247
 20
72.443365
 30
0.0
 11
-2.734247
 21
70.018771
 31
0.0
  0
LINE
  5
42
100
AcDbEntity
  8
ALPHA
100
AcDbLine
 10
-4.100272
 20
72.007209
 30
0.0
 11
-2.868222
 21
69.873316
 31
0.0
  0
LINE
  5
43
100
AcDbEntity
  8
ALPHA
100
AcDbLine
 10
-4.100272
 20
71.987138
 30
0.0
 11
-2.868222
 21
69.853245
 31
0.0
  0
LINE
  5
44
100
AcDbEntity
  8
ALPHA
100
AcDbLine
 10
-4.934247
 20
66.84138
 30
0.0
 11
-4.934247
 21
77.704877
 31
0.0
  0
LINE
  5
45
100
AcDbEntity
  8
ALPHA
100
AcDbLine
 10
-5.07033
 20
80.701431
 30
0.0
 11
-5.07033
 21
68.315077
 31
0.0
  0
LINE
  5
46
100
AcDbEntity
  8
ALPHA
100
AcDbLine
 10
44.465753
 20
59.443575
 30
0.0
 11
96.779967
 21
59.443575
 31
0.0
  0
LINE
  5
47
100
AcDbEntity
  8
ALPHA
100
AcDbLine
 10
96.365753
 20
58.443575
 30
0.0
 11
44.465753
 21
58.443575
 31
0.0
  0
LINE
  5
48
100
AcDbEntity
  8
ALPHA
100
AcDbLine
 10
61.736258
 20
50.362952
 30
0.0
 11
41.099833
 21
57.584791
 31
0.0
  0
LINE
  5
49
100
AcDbEntity
  8
ALPHA
100
AcDbLine
 10
61.674442
 20
57.445546
 30
0.0
 11
41.497963
 21
57.445546
 31
0.0
  0
LINE
  5
4A
100
AcDbEntity
  8
ALPHA
100
AcDbLine
 10
64.665753
 20
58.174911
 30
0.0
 11
44.465753
 21
58.159488
 31
0.0
  0
LINE
  5
4B
100
AcDbEntity
  8
ALPHA
100
AcDbLine
 10
-2.734247
 20
65.662563
 30
0.0
 11
3.028342
 21
65.662563
 31
0.0
  0
LINE
  5
4C
100
AcDbEntity
  8
ALPHA
100
AcDbLine
 10
-2.734247
 20
65.12403
 30
0.0
 11
3.037825
 21
65.12403
 31
0.0
  0
LINE
  5
4D
100
AcDbEntity
  8
ALPHA
100
AcDbLine
 10
-2.734247
 20
65.12403
 30
0.0
 11
-2.734247
 21
70.018771
 31
0.0
  0
LINE
  5
4E
100
AcDbEntity
  8
ALPHA
100
AcDbLine
 10
-5.273194
 20
68.256119
 30
0.0
 11
-4.934247
 21
68.205529
 31
0.0
  0
LINE
  5
4F
100
AcDbEntity
  8
ALPHA
100
AcDbLine
 10
-5.070262
 20
68.315076
 30
0.0
 11
-4.972653
 21
68.255993
 31
0.0
  0
LINE
  5
50
100
AcDbEntity
  8
ALPHA
100
AcDbLine
 10
-5.370267
 20
68.315076
 30
0.0
 11
-5.273194
 21
68.256119
 31
0.0
  0
LINE
  5
51
100
AcDbEntity
  8
ALPHA
100
AcDbLine
 10
-5.37033
 20
67.515107
 30
0.0
 11
-5.37033
 21
68.315077
 31
0.0
  0
LINE
  5
52
100
AcDbEntity
  8
ALPHA
100
AcDbLine
 10
-2.734247
 20
68.321252
 30
0.0
 11
-4.934247
 21
68.321252
 31
0.0
  0
LINE
  5
53
100
AcDbEntity
  8
ALPHA
100
AcDbLine
 10
-4.934247
 20
66.84138
 30
0.0
 11
-2.734247
 21
66.84138
 31
0.0
  0
LINE
  5
54
100
AcDbEntity
  8
ALPHA
100
AcDbLine
 10
-4.972653
 20
68.255993
 30
0.0
 11
-4.934247
 21
68.250273
 31
0.0
  0
LINE
  5
55
100
AcDbEntity
  8
ALPHA
100
AcDbLine
 10
-2.842865
 20
66.279354
 30
0.0
 11
-2.734247
 21
66.271814
 31
0.0
  0
LINE
  5
56
100
AcDbEntity
  8
ALPHA
100
AcDbLine
 10
-2.868222
 20
69.873316
 30
0.0
 11
-2.868222
 21
69.853245
 31
0.0
  0
LINE
  5
57
100
AcDbEntity
  8
ALPHA
100
AcDbLine
 10
-2.934247
 20
70.365141
 30
0.0
 11
-2.934247
 21
69.987671
 31
0.0
  0
LINE
  5
58
100
AcDbEntity
  8
ALPHA
100
AcDbLine
 10
20.629723
 20
59.11129
 30
0.0
 11
44.465753
 21
59.11129
 31
0.0
  0
LINE
  5
59
100
AcDbEntity
  8
ALPHA
100
AcDbLine
 10
44.465753
 20
58.128743
 30
0.0
 11
20.266251
 21
58.128743
 31
0.0
  0
LINE
  5
5A
100
AcDbEntity
  8
ALPHA
100
AcDbLine
 10
11.923959
 20
65.127566
 30
0.0
 11
20.265506
 21
58.128977
 31
0.0
  0
LINE
  5
5B
100
AcDbEntity
  8
ALPHA
100
AcDbLine
 10
20.629723
 20
59.11129
 30
0.0
 11
12.821329
 21
65.662563
 31
0.0
  0
LINE
  5
5C
100
AcDbEntity
  8
ALPHA
100
AcDbLine
 10
6.474328
 20
64.010731
 30
0.0
 11
6.503164
 21
65.662563
 31
0.0
  0
LINE
  5
5D
100
AcDbEntity
  8
ALPHA
100
AcDbLine
 10
3.057178
 20
64.010731
 30
0.0
 11
3.028342
 21
65.662563
 31
0.0
  0
LINE
  5
5E
100
AcDbEntity
  8
ALPHA
100
AcDbLine
 10
6.493681
 20
65.12403
 30
0.0
 11
12.094262
 21
65.12403
 31
0.0
  0
LINE
  5
5F
100
AcDbEntity
  8
ALPHA
100
AcDbLine
 10
5.974404
 20
63.519513
 30
0.0
 11
3.557102
 21
63.519513
 31
0.0
  0
LINE
  5
60
100
AcDbEntity
  8
ALPHA
100
AcDbLine
 10
6.503164
 20
65.662563
 30
0.0
 11
12.821329
 21
65.662563
 31
0.0
  0
LINE
  5
61
100
AcDbEntity
  8
ALPHA
100
AcDbLine
 10
40.093313
 20
57.935985
 30
0.0
 11
39.538887
 21
58.128743
 31
0.0
  0
LINE
  5
62
100
AcDbEntity
  8
ALPHA
100
AcDbLine
 10
41.099833
 20
57.584791
 30
0.0
 11
40.093313
 21
57.935985
 31
0.0
  0
LINE
  5
63
100
AcDbEntity
  8
ALPHA
100
AcDbLine
 10
49.233838
 20
58.024267
 30
0.0
 11
49.076391
 21
58.026957
 31
0.0
  0
LINE
  5
64
100
AcDbEntity
  8
ALPHA
100
AcDbLine
 10
49.076391
 20
58.163009
 30
0.0
 11
49.076391
 21
58.026957
 31
0.0
  0
LINE
  5
65
100
AcDbEntity
  8
ALPHA
100
AcDbLine
 10
48.840221
 20
58.162828
 30
0.0
 11
48.840221
 21
58.024805
 31
0.0
  0
LINE
  5
66
100
AcDbEntity
  8
ALPHA
100
AcDbLine
 10
48.604051
 20
58.162648
 30
0.0
 11
48.604051
 21
58.023729
 31
0.0
  0
LINE
  5
67
100
AcDbEntity
  8
ALPHA
100
AcDbLine
 10
48.289157
 20
58.162407
 30
0.0
 11
48.289157
 21
58.02319
 31
0.0
  0
LINE
  5
68
100
AcDbEntity
  8
ALPHA
100
AcDbLine
 10
48.13171
 20
58.162287
 30
0.0
 11
48.13171
 21
58.02319
 31
0.0
  0
LINE
  5
69
100
AcDbEntity
  8
ALPHA
100
AcDbLine
 10
47.816817
 20
58.162047
 30
0.0
 11
47.816817
 21
58.023729
 31
0.0
  0
LINE
  5
6A
100
AcDbEntity
  8
ALPHA
100
AcDbLine
 10
47.501923
 20
58.161806
 30
0.0
 11
47.501923
 21
58.025881
 31
0.0
  0
LINE
  5
6B
100
AcDbEntity
  8
ALPHA
100
AcDbLine
 10
47.344476
 20
58.161686
 30
0.0
 11
47.344476
 21
58.028034
 31
0.0
  0
LINE
  5
6C
100
AcDbEntity
  8
ALPHA
100
AcDbLine
 10
47.265753
 20
58.161626
 30
0.0
 11
47.265753
 21
58.031801
 31
0.0
  0
LINE
  5
6D
100
AcDbEntity
  8
ALPHA
100
AcDbLine
 10
47.344476
 20
58.028034
 30
0.0
 11
47.265753
 21
58.031801
 31
0.0
  0
LINE
  5
6E
100
AcDbEntity
  8
ALPHA
100
AcDbLine
 10
47.501923
 20
58.025881
 30
0.0
 11
47.344476
 21
58.028034
 31
0.0
  0
LINE
  5
6F
100
AcDbEntity
  8
ALPHA
100
AcDbLine
 10
47.816817
 20
58.023729
 30
0.0
 11
47.501923
 21
58.025881
 31
0.0
  0
LINE
  5
70
100
AcDbEntity
  8
ALPHA
100
AcDbLine
 10
48.13171
 20
58.02319
 30
0.0
 11
47.816817
 21
58.023729
 31
0.0
  0
LINE
  5
71
100
AcDbEntity
  8
ALPHA
100
AcDbLine
 10
48.604051
 20
58.023729
 30
0.0
 11
48.13171
 21
58.02319
 31
0.0
  0
LINE
  5
72
100
AcDbEntity
  8
ALPHA
100
AcDbLine
 10
48.840221
 20
58.024805
 30
0.0
 11
48.604051
 21
58.023729
 31
0.0
  0
LINE
  5
73
100
AcDbEntity
  8
ALPHA
100
AcDbLine
 10
49.076391
 20
58.026957
 30
0.0
 11
48.840221
 21
58.024805
 31
0.0
  0
LINE
  5
74
100
AcDbEntity
  8
ALPHA
100
AcDbLine
 10
50.965753
 20
58.164451
 30
0.0
 11
50.965753
 21
58.030186
 31
0.0
  0
LINE
  5
75
100
AcDbEntity
  8
ALPHA
100
AcDbLine
 10
50.88703
 20
58.164391
 30
0.0
 11
50.88703
 21
58.028034
 31
0.0
  0
LINE
  5
76
100
AcDbEntity
  8
ALPHA
100
AcDbLine
 10
50.729583
 20
58.164271
 30
0.0
 11
50.729583
 21
58.025881
 31
0.0
  0
LINE
  5
77
100
AcDbEntity
  8
ALPHA
100
AcDbLine
 10
50.572136
 20
58.16415
 30
0.0
 11
50.572136
 21
58.024267
 31
0.0
  0
LINE
  5
78
100
AcDbEntity
  8
ALPHA
100
AcDbLine
 10
50.335966
 20
58.16397
 30
0.0
 11
50.335966
 21
58.02319
 31
0.0
  0
LINE
  5
79
100
AcDbEntity
  8
ALPHA
100
AcDbLine
 10
50.099796
 20
58.16379
 30
0.0
 11
50.099796
 21
58.022652
 31
0.0
  0
LINE
  5
7A
100
AcDbEntity
  8
ALPHA
100
AcDbLine
 10
49.784902
 20
58.163549
 30
0.0
 11
49.784902
 21
58.022652
 31
0.0
  0
LINE
  5
7B
100
AcDbEntity
  8
ALPHA
100
AcDbLine
 10
49.470008
 20
58.163309
 30
0.0
 11
49.470008
 21
58.02319
 31
0.0
  0
LINE
  5
7C
100
AcDbEntity
  8
ALPHA
100
AcDbLine
 10
49.233838
 20
58.163129
 30
0.0
 11
49.233838
 21
58.024267
 31
0.0
  0
LINE
  5
7D
100
AcDbEntity
  8
ALPHA
100
AcDbLine
 10
49.470008
 20
58.02319
 30
0.0
 11
49.233838
 21
58.024267
 31
0.0
  0
LINE
  5
7E
100
AcDbEntity
  8
ALPHA
100
AcDbLine
 10
49.784902
 20
58.022652
 30
0.0
 11
49.470008
 21
58.02319
 31
0.0
  0
LINE
  5
7F
100
AcDbEntity
  8
ALPHA
100
AcDbLine
 10
50.099796
 20
58.022652
 30
0.0
 11
49.784902
 21
58.022652
 31
0.0
  0
LINE
  5
80
100
AcDbEntity
  8
ALPHA
100
AcDbLine
 10
50.335966
 20
58.02319
 30
0.0
 11
50.099796
 21
58.022652
 31
0.0
  0
LINE
  5
81
100
AcDbEntity
  8
ALPHA
100
AcDbLine
 10
50.572136
 20
58.024267
 30
0.0
 11
50.335966
 21
58.02319
 31
0.0
  0
LINE
  5
82
100
AcDbEntity
  8
ALPHA
100
AcDbLine
 10
50.729583
 20
58.025881
 30
0.0
 11
50.572136
 21
58.024267
 31
0.0
  0
LINE
  5
83
100
AcDbEntity
  8
ALPHA
100
AcDbLine
 10
50.88703
 20
58.028034
 30
0.0
 11
50.729583
 21
58.025881
 31
0.0
  0
LINE
  5
84
100
AcDbEntity
  8
ALPHA
100
AcDbLine
 10
50.965753
 20
58.030186
 30
0.0
 11
50.88703
 21
58.028034
 31
0.0
  0
LINE
  5
85
100
AcDbEntity
  8
ALPHA
100
AcDbLine
 10
109.879967
 20
46.343575
 30
0.0
 11
96.779967
 21
59.443575
 31
0.0
  0
LINE
  5
86
100
AcDbEntity
  8
ALPHA
100
AcDbLine
 10
109.465753
 20
45.343575
 30
0.0
 11
96.365753
 21
58.443575
 31
0.0
  0
LINE
  5
87
100
AcDbEntity
  8
ALPHA
100
AcDbLine
 10
94.465753
 20
70.243575
 30
0.0
 11
104.465753
 21
70.243575
 31
0.0
  0
LINE
  5
88
100
AcDbEntity
  8
ALPHA
100
AcDbLine
 10
67.665753
 20
58.443575
 30
0.0
 11
67.665753
 21
33.343575
 31
0.0
  0
LINE
  5
89
100
AcDbEntity
  8
ALPHA
100
AcDbLine
 10
64.665753
 20
33.343575
 30
0.0
 11
64.665753
 21
58.443575
 31
0.0
  0
LINE
  5
8A
100
AcDbEntity
  8
ALPHA
100
AcDbLine
 10
64.665753
 20
33.343575
 30
0.0
 11
65.165753
 21
32.843575
 31
0.0
  0
LINE
  5
8B
100
AcDbEntity
  8
ALPHA
100
AcDbLine
 10
67.165753
 20
32.843575
 30
0.0
 11
67.665753
 21
33.343575
 31
0.0
  0
LINE
  5
8C
100
AcDbEntity
  8
ALPHA
100
AcDbLine
 10
67.165753
 20
32.843575
 30
0.0
 11
65.165753
 21
32.843575
 31
0.0
  0
LINE
  5
8D
100
AcDbEntity
  8
ALPHA
100
AcDbLine
 10
67.665753
 20
54.443575
 30
0.0
 11
84.565753
 21
54.443575
 31
0.0
  0
LINE
  5
8E
100
AcDbEntity
  8
ALPHA
100
AcDbLine
 10
67.665753
 20
49.316522
 30
0.0
 11
84.565753
 21
49.169038
 31
0.0
  0
LINE
  5
8F
100
AcDbEntity
  8
ALPHA
100
AcDbLine
 10
64.565753
 20
58.174911
 30
0.0
 11
64.565753
 21
49.343466
 31
0.0
  0
LINE
  5
90
100
AcDbEntity
  8
ALPHA
100
AcDbLine
 10
62.745167
 20
49.345476
 30
0.0
 11
62.70066
 21
54.40108
 31
0.0
  0
LINE
  5
91
100
AcDbEntity
  8
ALPHA
100
AcDbLine
 10
61.736258
 20
50.362952
 30
0.0
 11
61.674442
 21
57.445546
 31
0.0
  0
LINE
  5
92
100
AcDbEntity
  8
ALPHA
100
AcDbLine
 10
64.565753
 20
49.343575
 30
0.0
 11
64.665729
 21
49.342703
 31
0.0
  0
LINE
  5
93
100
AcDbEntity
  8
ALPHA
100
AcDbLine
 10
64.565753
 20
49.345585
 30
0.0
 11
62.744846
 21
49.345585
 31
0.0
  0
LINE
  5
94
100
AcDbEntity
  8
ALPHA
100
AcDbLine
 10
62.70066
 20
54.40108
 30
0.0
 11
62.674404
 21
57.409463
 31
0.0
  0
LINE
  5
95
100
AcDbEntity
  8
ALPHA
100
AcDbLine
 10
64.565753
 20
54.443575
 30
0.0
 11
64.665753
 21
54.443575
 31
0.0
  0
LINE
  5
96
100
AcDbEntity
  8
ALPHA
100
AcDbLine
 10
64.565753
 20
54.40108
 30
0.0
 11
62.70066
 21
54.40108
 31
0.0
  0
LINE
  5
97
100
AcDbEntity
  8
ALPHA
100
AcDbLine
 10
61.674442
 20
57.445546
 30
0.0
 11
61.674442
 21
58.144396
 31
0.0
  0
LINE
  5
98
100
AcDbEntity
  8
ALPHA
100
AcDbLine
 10
53.465753
 20
70.243575
 30
0.0
 11
63.465753
 21
70.243575
 31
0.0
  0
LINE
  5
99
100
AcDbEntity
  8
ALPHA
100
AcDbLine
 10
96.779967
 20
59.443575
 30
0.0
 11
96.365753
 21
58.443575
 31
0.0
  0
LINE
  5
9A
100
AcDbEntity
  8
ALPHA
100
AcDbLine
 10
84.565753
 20
58.443575
 30
0.0
 11
84.565753
 21
49.168913
 31
0.0
  0
LINE
  5
9B
100
AcDbEntity
  8
ALPHA
100
AcDbLine
 10
114.465753
 20
61.27951
 30
0.0
 11
114.465753
 21
45.343575
 31
0.0
  0
LINE
  5
9C
100
AcDbEntity
  8
ALPHA
100
AcDbLine
 10
109.879967
 20
46.343575
 30
0.0
 11
109.465753
 21
45.343575
 31
0.0
  0
LINE
  5
9D
100
AcDbEntity
  8
ALPHA
100
AcDbLine
 10
114.465753
 20
45.343575
 30
0.0
 11
109.465753
 21
45.343575
 31
0.0
  0
LINE
  5
9E
100
AcDbEntity
  8
ALPHA
100
AcDbLine
 10
114.465753
 20
46.343575
 30
0.0
 11
109.879967
 21
46.343575
 31
0.0
  0
LINE
  5
9F
100
AcDbEntity
  8
ALPHA
100
AcDbLine
 10
113.465753
 20
61.288237
 30
0.0
 11
114.465753
 21
61.27951
 31
0.0
  0
LWPOLYLINE
  5
A0
100
AcDbEntity
  8
ALPHA
100
AcDbPolyline
 90
        3
 70
     0
 43
0.0
 38
57.600189
 10
-5.37033
 20
67.515107
 10
-5.264172
 20
67.453473
 10
-4.934247
 20
67.405566
  0
LWPOLYLINE
  5
A1
100
AcDbEntity
  8
ALPHA
100
AcDbPolyline
 90
       14
 70
     0
 43
0.0
 38
57.600189
 10
-5.370329
 20
67.515293
 10
-5.366634
 20
67.428443
 10
-5.135867
 20
66.8643
 10
-4.882383
 20
66.641655
 10
-4.709295
 20
66.551643
 10
-4.575351
 20
66.502981
 10
-4.450949
 20
66.468948
 10
-4.320355
 20
66.440866
 10
-4.173319
 20
66.415227
 10
-4.001034
 20
66.390266
 10
-3.793689
 20
66.364853
 10
-3.540269
 20
66.338234
 10
-3.228238
 20
66.309877
 10
-2.842865
 20
66.279354
  0
LWPOLYLINE
  5
A2
100
AcDbEntity
  8
ALPHA
100
AcDbPolyline
 90
        3
 70
     0
 43
0.0
 38
57.600189
 10
-5.07033
 20
68.405271
 10
-5.260756
 20
68.377694
 10
-5.370267
 20
68.315076
  0
LWPOLYLINE
  5
A3
100
AcDbEntity
  8
ALPHA
100
AcDbPolyline
 90
        3
 70
     0
 43
0.0
 38
57.600189
 10
-2.734247
 20
66.359966
 10
-2.850385
 20
66.466373
 10
-3.071389
 20
66.84138
  0
LWPOLYLINE
  5
A4
100
AcDbEntity
  8
ALPHA
100
AcDbPolyline
 90
        4
 70
     0
 43
0.0
 38
57.600189
 10
-2.734247
 20
69.373335
 10
-2.749438
 20
69.546969
 10
-2.794557
 20
69.715348
 10
-2.868222
 20
69.873316
  0
LWPOLYLINE
  5
A5
100
AcDbEntity
  8
ALPHA
100
AcDbPolyline
 90
        4
 70
     0
 43
0.0
 38
57.600189
 10
-2.734247
 20
69.353264
 10
-2.749438
 20
69.526898
 10
-2.794557
 20
69.695277
 10
-2.868222
 20
69.853245
  0
LWPOLYLINE
  5
A6
100
AcDbEntity
  8
ALPHA
100
AcDbPolyline
 90
        6
 70
     0
 43
0.0
 38
57.600189
 10
20.629723
 20
59.11129
 10
20.514009
 20
58.79433
 10
20.41145
 20
58.515185
 10
20.332227
 20
58.30147
 10
20.2828
 20
58.170471
 10
20.265785
 20
58.128745
  0
LWPOLYLINE
  5
A7
100
AcDbEntity
  8
ALPHA
100
AcDbPolyline
 90
        7
 70
     0
 43
0.0
 38
57.600189
 10
12.821329
 20
65.662563
 10
12.578628
 20
65.648528
 10
12.372091
 20
65.605362
 10
12.205856
 20
65.528522
 10
12.097869
 20
65.416756
 10
12.061517
 20
65.279206
 10
12.094262
 20
65.12403
  0
LWPOLYLINE
  5
A8
100
AcDbEntity
  8
ALPHA
100
AcDbPolyline
 90
        5
 70
     0
 43
0.0
 38
57.600189
 10
3.057178
 20
64.010731
 10
3.097707
 20
63.822103
 10
3.206651
 20
63.662868
 10
3.367781
 20
63.556737
 10
3.557102
 20
63.519513
  0
LWPOLYLINE
  5
A9
100
AcDbEntity
  8
ALPHA
100
AcDbPolyline
 90
        5
 70
     0
 43
0.0
 38
57.600189
 10
6.474328
 20
64.010731
 10
6.433799
 20
63.822103
 10
6.324855
 20
63.662868
 10
6.163725
 20
63.556737
 10
5.974404
 20
63.519513
  0
LWPOLYLINE
  5
AA
100
AcDbEntity
  8
ALPHA
100
AcDbPolyline
 90
        6
 70
     0
 43
0.0
 38
57.600189
 10
61.736258
 20
50.362952
 10
62.056269
 20
50.250505
 10
62.338994
 20
50.150267
 10
62.556903
 20
50.072051
 10
62.693057
 20
50.022003
 10
62.739283
 20
50.003208
  0
LWPOLYLINE
  5
AB
100
AcDbEntity
  8
ALPHA
100
AcDbPolyline
 90
        3
 70
     0
 43
0.0
 38
57.600189
 10
62.381495
 20
57.446604
 10
62.057093
 20
57.447557
 10
61.674442
 20
57.445546
  0
LWPOLYLINE
  5
AC
100
AcDbEntity
  8
ALPHA
100
AcDbPolyline
 90
        4
 70
     0
 43
0.0
 38
57.600189
 10
62.298373
 20
58.173103
 10
62.480293
 20
57.992788
 10
62.62324
 20
57.716584
 10
62.674404
 20
57.409463
  0
LWPOLYLINE
  5
AD
100
AcDbEntity
  8
ALPHA
100
AcDbPolyline
 90
        3
 70
     0
 43
0.0
 38
57.600189
 10
62.669785
 20
57.437186
 10
62.598264
 20
57.442834
 10
62.381495
 20
57.446604
  0
LINE
  5
AE
100
AcDbEntity
  8
ALPHA
100
AcDbLine
 10
45.859595
 20
127.743575
 30
0.0
 11
90.465753
 21
127.743575
 31
0.0
  0
LINE
  5
AF
100
AcDbEntity
  8
ALPHA
100
AcDbLine
 10
45.359636
 20
127.243575
 30
0.0
 11
82.465753
 21
127.243575
 31
0.0
  0
LINE
  5
B0
100
AcDbEntity
  8
ALPHA
100
AcDbLine
 10
46.850079
 20
110.543575
 30
0.0
 11
82.465753
 21
110.543575
 31
0.0
  0
LINE
  5
B1
100
AcDbEntity
  8
ALPHA
100
AcDbLine
 10
47.576246
 20
107.743575
 30
0.0
 11
82.465753
 21
107.743575
 31
0.0
  0
LINE
  5
B2
100
AcDbEntity
  8
ALPHA
100
AcDbLine
 10
47.077938
 20
107.243575
 30
0.0
 11
82.465753
 21
107.243575
 31
0.0
  0
LINE
  5
B3
100
AcDbEntity
  8
ALPHA
100
AcDbLine
 10
96.365753
 20
103.243575
 30
0.0
 11
44.465753
 21
103.243575
 31
0.0
  0
LINE
  5
B4
100
AcDbEntity
  8
ALPHA
100
AcDbLine
 10
96.779967
 20
102.243575
 30
0.0
 11
44.465753
 21
102.243575
 31
0.0
  0
LINE
  5
B5
100
AcDbEntity
  8
ALPHA
100
AcDbLine
 10
47.348973
 20
110.543575
 30
0.0
 11
47.348973
 21
127.743575
 31
0.0
  0
LINE
  5
B6
100
AcDbEntity
  8
ALPHA
100
AcDbLine
 10
46.850079
 20
110.543575
 30
0.0
 11
46.850079
 21
127.243575
 31
0.0
  0
LINE
  5
B7
100
AcDbEntity
  8
ALPHA
100
AcDbLine
 10
46.675315
 20
115.743575
 30
0.0
 11
46.675315
 21
127.243575
 31
0.0
  0
LINE
  5
B8
100
AcDbEntity
  8
ALPHA
100
AcDbLine
 10
46.674334
 20
115.787326
 30
0.0
 11
46.674334
 21
127.243575
 31
0.0
  0
LINE
  5
B9
100
AcDbEntity
  8
ALPHA
100
AcDbLine
 10
46.277653
 20
116.59858
 30
0.0
 11
46.277653
 21
127.743575
 31
0.0
  0
LINE
  5
BA
100
AcDbEntity
  8
ALPHA
100
AcDbLine
 10
45.777993
 20
115.743575
 30
0.0
 11
45.777993
 21
127.243575
 31
0.0
  0
LINE
  5
BB
100
AcDbEntity
  8
ALPHA
100
AcDbLine
 10
45.359636
 20
115.743575
 30
0.0
 11
45.359595
 21
127.243575
 31
0.0
  0
LINE
  5
BC
100
AcDbEntity
  8
ALPHA
100
AcDbLine
 10
6.694645
 20
103.804115
 30
0.0
 11
0.836861
 21
103.804115
 31
0.0
  0
LINE
  5
BD
100
AcDbEntity
  8
ALPHA
100
AcDbLine
 10
6.694599
 20
103.7626
 30
0.0
 11
0.836907
 21
103.7626
 31
0.0
  0
LINE
  5
BE
100
AcDbEntity
  8
ALPHA
100
AcDbLine
 10
5.030518
 20
103.191512
 30
0.0
 11
-0.558837
 21
103.191512
 31
0.0
  0
LINE
  5
BF
100
AcDbEntity
  8
ALPHA
100
AcDbLine
 10
5.030471
 20
103.160084
 30
0.0
 11
-0.558849
 21
103.160084
 31
0.0
  0
LINE
  5
C0
100
AcDbEntity
  8
ALPHA
100
AcDbLine
 10
-1.734247
 20
102.899858
 30
0.0
 11
30.120291
 21
102.899858
 31
0.0
  0
LINE
  5
C1
100
AcDbEntity
  8
ALPHA
100
AcDbLine
 10
-1.734247
 20
101.917349
 30
0.0
 11
30.120291
 21
101.917349
 31
0.0
  0
LINE
  5
C2
100
AcDbEntity
  8
ALPHA
100
AcDbLine
 10
29.791596
 20
89.362604
 30
0.0
 11
-1.734247
 21
89.362604
 31
0.0
  0
LINE
  5
C3
100
AcDbEntity
  8
ALPHA
100
AcDbLine
 10
29.791596
 20
88.380095
 30
0.0
 11
-1.734247
 21
88.380095
 31
0.0
  0
LINE
  5
C4
100
AcDbEntity
  8
ALPHA
100
AcDbLine
 10
-0.492661
 20
88.360009
 30
0.0
 11
4.524167
 21
88.360009
 31
0.0
  0
LINE
  5
C5
100
AcDbEntity
  8
ALPHA
100
AcDbLine
 10
4.524167
 20
88.334065
 30
0.0
 11
-0.492661
 21
88.334065
 31
0.0
  0
LINE
  5
C6
100
AcDbEntity
  8
ALPHA
100
AcDbLine
 10
-1.734247
 20
88.326047
 30
0.0
 11
29.791596
 21
88.326047
 31
0.0
  0
LINE
  5
C7
100
AcDbEntity
  8
ALPHA
100
AcDbLine
 10
-2.734247
 20
87.326085
 30
0.0
 11
29.791596
 21
87.326085
 31
0.0
  0
LINE
  5
C8
100
AcDbEntity
  8
ALPHA
100
AcDbLine
 10
44.465753
 20
83.617217
 30
0.0
 11
-2.734247
 21
83.617217
 31
0.0
  0
LINE
  5
C9
100
AcDbEntity
  8
ALPHA
100
AcDbLine
 10
-1.734247
 20
88.326047
 30
0.0
 11
-1.734247
 21
102.9914
 31
0.0
  0
LINE
  5
CA
100
AcDbEntity
  8
ALPHA
100
AcDbLine
 10
-2.734247
 20
87.450482
 30
0.0
 11
-2.734247
 21
104.745103
 31
0.0
  0
LINE
  5
CB
100
AcDbEntity
  8
ALPHA
100
AcDbLine
 10
-3.834247
 20
96.550806
 30
0.0
 11
-3.834247
 21
104.745103
 31
0.0
  0
LINE
  5
CC
100
AcDbEntity
  8
ALPHA
100
AcDbLine
 10
-5.07033
 20
84.979485
 30
0.0
 11
-5.07033
 21
101.622981
 31
0.0
  0
LINE
  5
CD
100
AcDbEntity
  8
ALPHA
100
AcDbLine
 10
-2.734247
 20
79.21772
 30
0.0
 11
-2.734247
 21
87.326085
 31
0.0
  0
LINE
  5
CE
100
AcDbEntity
  8
ALPHA
100
AcDbLine
 10
-6.884247
 20
79.727841
 30
0.0
 11
-6.884247
 21
85.891668
 31
0.0
  0
LINE
  5
CF
100
AcDbEntity
  8
ALPHA
100
AcDbLine
 10
-8.694714
 20
85.432094
 30
0.0
 11
-8.694714
 21
80.021517
 31
0.0
  0
LINE
  5
D0
100
AcDbEntity
  8
ALPHA
100
AcDbLine
 10
-8.884247
 20
79.839537
 30
0.0
 11
-8.884247
 21
85.891668
 31
0.0
  0
LINE
  5
D1
100
AcDbEntity
  8
ALPHA
100
AcDbLine
 10
-4.734247
 20
77.317937
 30
0.0
 11
-4.734247
 21
79.608333
 31
0.0
  0
LINE
  5
D2
100
AcDbEntity
  8
ALPHA
100
AcDbLine
 10
-2.734247
 20
74.168297
 30
0.0
 11
-2.734247
 21
77.317937
 31
0.0
  0
LINE
  5
D3
100
AcDbEntity
  8
ALPHA
100
AcDbLine
 10
-3.534247
 20
74.771007
 30
0.0
 11
-4.034247
 21
74.771007
 31
0.0
  0
LINE
  5
D4
100
AcDbEntity
  8
ALPHA
100
AcDbLine
 10
-2.734247
 20
74.183773
 30
0.0
 11
-3.634247
 21
74.183773
 31
0.0
  0
LINE
  5
D5
100
AcDbEntity
  8
ALPHA
100
AcDbLine
 10
-2.734247
 20
74.168297
 30
0.0
 11
-3.634247
 21
74.168297
 31
0.0
  0
LINE
  5
D6
100
AcDbEntity
  8
ALPHA
100
AcDbLine
 10
-2.734247
 20
74.556655
 30
0.0
 11
-3.534247
 21
74.771007
 31
0.0
  0
LINE
  5
D7
100
AcDbEntity
  8
ALPHA
100
AcDbLine
 10
-2.934247
 20
74.610243
 30
0.0
 11
-2.934247
 21
74.183773
 31
0.0
  0
LINE
  5
D8
100
AcDbEntity
  8
ALPHA
100
AcDbLine
 10
-3.634247
 20
74.168297
 30
0.0
 11
-3.634247
 21
74.183773
 31
0.0
  0
LINE
  5
D9
100
AcDbEntity
  8
ALPHA
100
AcDbLine
 10
-4.100272
 20
71.987138
 30
0.0
 11
-4.100272
 21
72.007209
 31
0.0
  0
LINE
  5
DA
100
AcDbEntity
  8
ALPHA
100
AcDbLine
 10
-4.134247
 20
73.668354
 30
0.0
 11
-4.134247
 21
72.443365
 31
0.0
  0
LINE
  5
DB
100
AcDbEntity
  8
ALPHA
100
AcDbLine
 10
-4.234247
 20
74.571014
 30
0.0
 11
-4.234247
 21
72.487119
 31
0.0
  0
LINE
  5
DC
100
AcDbEntity
  8
ALPHA
100
AcDbLine
 10
-4.219056
 20
72.313484
 30
0.0
 11
-4.234247
 21
72.487119
 31
0.0
  0
LINE
  5
DD
100
AcDbEntity
  8
ALPHA
100
AcDbLine
 10
-4.734247
 20
77.594244
 30
0.0
 11
-4.934247
 21
77.595359
 31
0.0
  0
LINE
  5
DE
100
AcDbEntity
  8
ALPHA
100
AcDbLine
 10
-4.934247
 20
77.704877
 30
0.0
 11
-4.734247
 21
77.704877
 31
0.0
  0
LINE
  5
DF
100
AcDbEntity
  8
ALPHA
100
AcDbLine
 10
-4.734247
 20
77.527292
 30
0.0
 11
-4.934247
 21
77.527292
 31
0.0
  0
LINE
  5
E0
100
AcDbEntity
  8
ALPHA
100
AcDbLine
 10
-4.734247
 20
77.498494
 30
0.0
 11
-4.934247
 21
77.498494
 31
0.0
  0
LINE
  5
E1
100
AcDbEntity
  8
ALPHA
100
AcDbLine
 10
-4.734247
 20
77.320909
 30
0.0
 11
-4.934247
 21
77.320909
 31
0.0
  0
LINE
  5
E2
100
AcDbEntity
  8
ALPHA
100
AcDbLine
 10
-2.734247
 20
77.317937
 30
0.0
 11
-4.734247
 21
77.317937
 31
0.0
  0
LINE
  5
E3
100
AcDbEntity
  8
ALPHA
100
AcDbLine
 10
-4.734247
 20
77.576403
 30
0.0
 11
-4.934247
 21
77.575288
 31
0.0
  0
LINE
  5
E4
100
AcDbEntity
  8
ALPHA
100
AcDbLine
 10
-6.884247
 20
80.701431
 30
0.0
 11
-2.734247
 21
80.701431
 31
0.0
  0
LINE
  5
E5
100
AcDbEntity
  8
ALPHA
100
AcDbLine
 10
-6.884247
 20
79.92581
 30
0.0
 11
-8.694714
 21
80.021517
 31
0.0
  0
LINE
  5
E6
100
AcDbEntity
  8
ALPHA
100
AcDbLine
 10
-6.884262
 20
79.727828
 30
0.0
 11
-8.694805
 21
79.823539
 31
0.0
  0
LINE
  5
E7
100
AcDbEntity
  8
ALPHA
100
AcDbLine
 10
-8.759471
 20
79.839537
 30
0.0
 11
-8.884247
 21
79.839537
 31
0.0
  0
LINE
  5
E8
100
AcDbEntity
  8
ALPHA
100
AcDbLine
 10
-2.736879
 20
79.608486
 30
0.0
 11
-4.734247
 21
79.608333
 31
0.0
  0
LINE
  5
E9
100
AcDbEntity
  8
ALPHA
100
AcDbLine
 10
-2.734247
 20
79.21772
 30
0.0
 11
-4.734247
 21
79.21772
 31
0.0
  0
LINE
  5
EA
100
AcDbEntity
  8
ALPHA
100
AcDbLine
 10
-2.824089
 20
79.608486
 30
0.0
 11
-2.824089
 21
80.701431
 31
0.0
  0
LINE
  5
EB
100
AcDbEntity
  8
ALPHA
100
AcDbLine
 10
-2.734247
 20
84.141648
 30
0.0
 11
-4.384247
 21
84.141648
 31
0.0
  0
LINE
  5
EC
100
AcDbEntity
  8
ALPHA
100
AcDbLine
 10
-2.734247
 20
81.217652
 30
0.0
 11
-4.384247
 21
81.217652
 31
0.0
  0
LINE
  5
ED
100
AcDbEntity
  8
ALPHA
100
AcDbLine
 10
-4.384247
 20
81.217652
 30
0.0
 11
-4.384247
 21
84.141648
 31
0.0
  0
LINE
  5
EE
100
AcDbEntity
  8
ALPHA
100
AcDbLine
 10
-2.824089
 20
84.980358
 30
0.0
 11
-2.824089
 21
96.550806
 31
0.0
  0
LINE
  5
EF
100
AcDbEntity
  8
ALPHA
100
AcDbLine
 10
-6.884247
 20
84.979485
 30
0.0
 11
-2.734247
 21
84.979485
 31
0.0
  0
LINE
  5
F0
100
AcDbEntity
  8
ALPHA
100
AcDbLine
 10
-6.884247
 20
84.948942
 30
0.0
 11
-2.734247
 21
84.948942
 31
0.0
  0
LINE
  5
F1
100
AcDbEntity
  8
ALPHA
100
AcDbLine
 10
-6.884247
 20
84.681431
 30
0.0
 11
-2.734247
 21
84.681431
 31
0.0
  0
LINE
  5
F2
100
AcDbEntity
  8
ALPHA
100
AcDbLine
 10
-6.884247
 20
85.727607
 30
0.0
 11
-8.694714
 21
85.633556
 31
0.0
  0
LINE
  5
F3
100
AcDbEntity
  8
ALPHA
100
AcDbLine
 10
-6.884247
 20
85.526145
 30
0.0
 11
-8.694714
 21
85.432094
 31
0.0
  0
LINE
  5
F4
100
AcDbEntity
  8
ALPHA
100
AcDbLine
 10
-6.884262
 20
85.815756
 30
0.0
 11
-8.694805
 21
85.720045
 31
0.0
  0
LINE
  5
F5
100
AcDbEntity
  8
ALPHA
100
AcDbLine
 10
-8.884247
 20
85.891668
 30
0.0
 11
-6.884247
 21
85.891668
 31
0.0
  0
LINE
  5
F6
100
AcDbEntity
  8
ALPHA
100
AcDbLine
 10
-6.884247
 20
85.839309
 30
0.0
 11
-8.884247
 21
85.839309
 31
0.0
  0
LINE
  5
F7
100
AcDbEntity
  8
ALPHA
100
AcDbLine
 10
-8.694714
 20
85.720042
 30
0.0
 11
-8.767979
 21
85.701946
 31
0.0
  0
LINE
  5
F8
100
AcDbEntity
  8
ALPHA
100
AcDbLine
 10
-8.694805
 20
85.720045
 30
0.0
 11
-8.694714
 21
85.720042
 31
0.0
  0
LINE
  5
F9
100
AcDbEntity
  8
ALPHA
100
AcDbLine
 10
-8.694714
 20
85.720042
 30
0.0
 11
-8.694714
 21
85.633556
 31
0.0
  0
LINE
  5
FA
100
AcDbEntity
  8
ALPHA
100
AcDbLine
 10
-2.734247
 20
86.628954
 30
0.0
 11
-4.133476
 21
86.731552
 31
0.0
  0
LINE
  5
FB
100
AcDbEntity
  8
ALPHA
100
AcDbLine
 10
-4.050898
 20
86.723682
 30
0.0
 11
-2.822519
 21
86.635068
 31
0.0
  0
LINE
  5
FC
100
AcDbEntity
  8
ALPHA
100
AcDbLine
 10
-2.737673
 20
86.608265
 30
0.0
 11
-2.824089
 21
86.613303
 31
0.0
  0
LINE
  5
FD
100
AcDbEntity
  8
ALPHA
100
AcDbLine
 10
-2.766929
 20
86.609961
 30
0.0
 11
-2.734247
 21
86.608333
 31
0.0
  0
LINE
  5
FE
100
AcDbEntity
  8
ALPHA
100
AcDbLine
 10
-0.492661
 20
88.334065
 30
0.0
 11
-0.492661
 21
88.360009
 31
0.0
  0
LINE
  5
FF
100
AcDbEntity
  8
ALPHA
100
AcDbLine
 10
-2.734247
 20
96.550806
 30
0.0
 11
-3.834247
 21
96.550806
 31
0.0
  0
LINE
  5
100
100
AcDbEntity
  8
ALPHA
100
AcDbLine
 10
1.101163
 20
102.990966
 30
0.0
 11
1.101163
 21
103.108003
 31
0.0
  0
LINE
  5
101
100
AcDbEntity
  8
ALPHA
100
AcDbLine
 10
-1.034247
 20
102.990966
 30
0.0
 11
-1.034247
 21
103.108003
 31
0.0
  0
LINE
  5
102
100
AcDbEntity
  8
ALPHA
100
AcDbLine
 10
-5.370268
 20
101.713806
 30
0.0
 11
-5.256056
 21
101.649859
 31
0.0
  0
LINE
  5
103
100
AcDbEntity
  8
ALPHA
100
AcDbLine
 10
-5.37033
 20
101.713805
 30
0.0
 11
-5.37033
 21
102.513774
 31
0.0
  0
LINE
  5
104
100
AcDbEntity
  8
ALPHA
100
AcDbLine
 10
-2.703956
 20
102.183243
 30
0.0
 11
-2.734247
 21
102.183245
 31
0.0
  0
LINE
  5
105
100
AcDbEntity
  8
ALPHA
100
AcDbLine
 10
-2.707813
 20
102.158809
 30
0.0
 11
-2.734247
 21
102.158811
 31
0.0
  0
LINE
  5
106
100
AcDbEntity
  8
ALPHA
100
AcDbLine
 10
-2.711671
 20
102.134375
 30
0.0
 11
-2.734247
 21
102.134377
 31
0.0
  0
LINE
  5
107
100
AcDbEntity
  8
ALPHA
100
AcDbLine
 10
-1.734247
 20
102.9914
 30
0.0
 11
-1.034247
 21
102.991453
 31
0.0
  0
LINE
  5
108
100
AcDbEntity
  8
ALPHA
100
AcDbLine
 10
1.101163
 20
102.990966
 30
0.0
 11
-1.034247
 21
102.990966
 31
0.0
  0
LINE
  5
109
100
AcDbEntity
  8
ALPHA
100
AcDbLine
 10
-1.734247
 20
103.107569
 30
0.0
 11
-2.042297
 21
103.058965
 31
0.0
  0
LINE
  5
10A
100
AcDbEntity
  8
ALPHA
100
AcDbLine
 10
-1.734247
 20
103.208091
 30
0.0
 11
-2.04316
 21
103.15898
 31
0.0
  0
LINE
  5
10B
100
AcDbEntity
  8
ALPHA
100
AcDbLine
 10
-2.734247
 20
103.277208
 30
0.0
 11
-1.734247
 21
103.208091
 31
0.0
  0
LINE
  5
10C
100
AcDbEntity
  8
ALPHA
100
AcDbLine
 10
0.836907
 20
103.809963
 30
0.0
 11
-1.895705
 21
103.809963
 31
0.0
  0
LINE
  5
10D
100
AcDbEntity
  8
ALPHA
100
AcDbLine
 10
-3.834247
 20
103.643428
 30
0.0
 11
-4.112335
 21
103.609599
 31
0.0
  0
LINE
  5
10E
100
AcDbEntity
  8
ALPHA
100
AcDbLine
 10
-2.734247
 20
104.745103
 30
0.0
 11
-3.834247
 21
104.745103
 31
0.0
  0
LINE
  5
10F
100
AcDbEntity
  8
ALPHA
100
AcDbLine
 10
-2.734247
 20
104.550501
 30
0.0
 11
-3.834247
 21
104.550501
 31
0.0
  0
LINE
  5
110
100
AcDbEntity
  8
ALPHA
100
AcDbLine
 10
-1.895705
 20
103.809925
 30
0.0
 11
-1.954758
 21
103.808215
 31
0.0
  0
LINE
  5
111
100
AcDbEntity
  8
ALPHA
100
AcDbLine
 10
-1.895451
 20
103.809963
 30
0.0
 11
-1.964226
 21
103.807612
 31
0.0
  0
LINE
  5
112
100
AcDbEntity
  8
ALPHA
100
AcDbLine
 10
-1.955127
 20
103.808196
 30
0.0
 11
-2.734247
 21
103.753244
 31
0.0
  0
LINE
  5
113
100
AcDbEntity
  8
ALPHA
100
AcDbLine
 10
-1.895705
 20
103.809925
 30
0.0
 11
-2.734247
 21
103.7497
 31
0.0
  0
LINE
  5
114
100
AcDbEntity
  8
ALPHA
100
AcDbLine
 10
-1.734247
 20
103.107569
 30
0.0
 11
-1.034247
 21
103.107516
 31
0.0
  0
LINE
  5
115
100
AcDbEntity
  8
ALPHA
100
AcDbLine
 10
1.101163
 20
103.108003
 30
0.0
 11
-1.034247
 21
103.108003
 31
0.0
  0
LINE
  5
116
100
AcDbEntity
  8
ALPHA
100
AcDbLine
 10
0.836861
 20
103.762562
 30
0.0
 11
0.836861
 21
103.804115
 31
0.0
  0
LINE
  5
117
100
AcDbEntity
  8
ALPHA
100
AcDbLine
 10
-0.558837
 20
103.191512
 30
0.0
 11
-0.558837
 21
103.160046
 31
0.0
  0
LINE
  5
118
100
AcDbEntity
  8
ALPHA
100
AcDbLine
 10
-1.734247
 20
103.208091
 30
0.0
 11
-1.734247
 21
103.107569
 31
0.0
  0
LINE
  5
119
100
AcDbEntity
  8
ALPHA
100
AcDbLine
 10
42.476225
 20
83.617217
 30
0.0
 11
42.644654
 21
102.917952
 31
0.0
  0
LINE
  5
11A
100
AcDbEntity
  8
ALPHA
100
AcDbLine
 10
42.365753
 20
83.617217
 30
0.0
 11
42.533309
 21
102.817948
 31
0.0
  0
LINE
  5
11B
100
AcDbEntity
  8
ALPHA
100
AcDbLine
 10
32.119606
 20
101.826637
 30
0.0
 11
31.790911
 21
89.273805
 31
0.0
  0
LINE
  5
11C
100
AcDbEntity
  8
ALPHA
100
AcDbLine
 10
31.119948
 20
101.852813
 30
0.0
 11
30.791253
 21
89.299981
 31
0.0
  0
LINE
  5
11D
100
AcDbEntity
  8
ALPHA
100
AcDbLine
 10
31.119948
 20
101.908625
 30
0.0
 11
30.791253
 21
89.353881
 31
0.0
  0
LINE
  5
11E
100
AcDbEntity
  8
ALPHA
100
AcDbLine
 10
30.120291
 20
101.917349
 30
0.0
 11
29.791596
 21
89.362604
 31
0.0
  0
LINE
  5
11F
100
AcDbEntity
  8
ALPHA
100
AcDbLine
 10
4.524167
 20
88.334065
 30
0.0
 11
4.524167
 21
88.360009
 31
0.0
  0
LINE
  5
120
100
AcDbEntity
  8
ALPHA
100
AcDbLine
 10
29.791596
 20
87.326085
 30
0.0
 11
29.791596
 21
89.362604
 31
0.0
  0
LINE
  5
121
100
AcDbEntity
  8
ALPHA
100
AcDbLine
 10
31.790911
 20
89.273805
 30
0.0
 11
30.791253
 21
89.299981
 31
0.0
  0
LINE
  5
122
100
AcDbEntity
  8
ALPHA
100
AcDbLine
 10
42.476225
 20
84.612591
 30
0.0
 11
42.374439
 21
84.612591
 31
0.0
  0
LINE
  5
123
100
AcDbEntity
  8
ALPHA
100
AcDbLine
 10
40.865682
 20
103.809963
 30
0.0
 11
6.694599
 21
103.809963
 31
0.0
  0
LINE
  5
124
100
AcDbEntity
  8
ALPHA
100
AcDbLine
 10
6.694645
 20
103.804115
 30
0.0
 11
6.694645
 21
103.762562
 31
0.0
  0
LINE
  5
125
100
AcDbEntity
  8
ALPHA
100
AcDbLine
 10
5.030518
 20
103.160046
 30
0.0
 11
5.030518
 21
103.191512
 31
0.0
  0
LINE
  5
126
100
AcDbEntity
  8
ALPHA
100
AcDbLine
 10
18.017154
 20
103.317259
 30
0.0
 11
18.015753
 21
103.318262
 31
0.0
  0
LINE
  5
127
100
AcDbEntity
  8
ALPHA
100
AcDbLine
 10
45.301694
 20
103.743575
 30
0.0
 11
45.301694
 21
115.743575
 31
0.0
  0
LINE
  5
128
100
AcDbEntity
  8
ALPHA
100
AcDbLine
 10
32.119606
 20
102.826599
 30
0.0
 11
40.865753
 21
102.826599
 31
0.0
  0
LINE
  5
129
100
AcDbEntity
  8
ALPHA
100
AcDbLine
 10
32.119606
 20
101.826637
 30
0.0
 11
40.813803
 21
101.826637
 31
0.0
  0
LINE
  5
12A
100
AcDbEntity
  8
ALPHA
100
AcDbLine
 10
32.119606
 20
102.882411
 30
0.0
 11
31.815573
 21
102.835074
 31
0.0
  0
LINE
  5
12B
100
AcDbEntity
  8
ALPHA
100
AcDbLine
 10
32.119606
 20
101.826637
 30
0.0
 11
31.119948
 21
101.852813
 31
0.0
  0
LINE
  5
12C
100
AcDbEntity
  8
ALPHA
100
AcDbLine
 10
32.119606
 20
101.826637
 30
0.0
 11
32.119606
 21
102.882411
 31
0.0
  0
LINE
  5
12D
100
AcDbEntity
  8
ALPHA
100
AcDbLine
 10
31.119948
 20
101.852813
 30
0.0
 11
31.119948
 21
101.908625
 31
0.0
  0
LINE
  5
12E
100
AcDbEntity
  8
ALPHA
100
AcDbLine
 10
30.120291
 20
102.899858
 30
0.0
 11
30.120291
 21
101.917349
 31
0.0
  0
LINE
  5
12F
100
AcDbEntity
  8
ALPHA
100
AcDbLine
 10
29.515753
 20
103.318262
 30
0.0
 11
29.512946
 21
103.31679
 31
0.0
  0
LINE
  5
130
100
AcDbEntity
  8
ALPHA
100
AcDbLine
 10
44.365753
 20
102.817948
 30
0.0
 11
44.322455
 21
103.645414
 31
0.0
  0
LINE
  5
131
100
AcDbEntity
  8
ALPHA
100
AcDbLine
 10
40.909051
 20
103.645414
 30
0.0
 11
40.813803
 21
101.826637
 31
0.0
  0
LINE
  5
132
100
AcDbEntity
  8
ALPHA
100
AcDbLine
 10
44.465753
 20
102.917952
 30
0.0
 11
42.644654
 21
102.917952
 31
0.0
  0
LINE
  5
133
100
AcDbEntity
  8
ALPHA
100
AcDbLine
 10
42.533309
 20
102.817948
 30
0.0
 11
44.365753
 21
102.817948
 31
0.0
  0
LINE
  5
134
100
AcDbEntity
  8
ALPHA
100
AcDbLine
 10
42.515855
 20
101.084051
 30
0.0
 11
42.62865
 21
101.084051
 31
0.0
  0
LINE
  5
135
100
AcDbEntity
  8
ALPHA
100
AcDbLine
 10
45.301694
 20
103.743575
 30
0.0
 11
47.429569
 21
103.743575
 31
0.0
  0
LINE
  5
136
100
AcDbEntity
  8
ALPHA
100
AcDbLine
 10
41.402335
 20
105.109814
 30
0.0
 11
43.829171
 21
105.109814
 31
0.0
  0
LINE
  5
137
100
AcDbEntity
  8
ALPHA
100
AcDbLine
 10
43.823141
 20
104.126648
 30
0.0
 11
41.408365
 21
104.126648
 31
0.0
  0
LINE
  5
138
100
AcDbEntity
  8
ALPHA
100
AcDbLine
 10
44.349573
 20
103.126687
 30
0.0
 11
40.881933
 21
103.126687
 31
0.0
  0
LINE
  5
139
100
AcDbEntity
  8
ALPHA
100
AcDbLine
 10
41.401763
 20
105.109814
 30
0.0
 11
41.408365
 21
105.109776
 31
0.0
  0
LINE
  5
13A
100
AcDbEntity
  8
ALPHA
100
AcDbLine
 10
41.408365
 20
104.126648
 30
0.0
 11
41.408365
 21
105.109776
 31
0.0
  0
LINE
  5
13B
100
AcDbEntity
  8
ALPHA
100
AcDbLine
 10
40.909051
 20
103.645414
 30
0.0
 11
40.909051
 21
104.643383
 31
0.0
  0
LINE
  5
13C
100
AcDbEntity
  8
ALPHA
100
AcDbLine
 10
43.829743
 20
105.109814
 30
0.0
 11
43.823141
 21
105.109776
 31
0.0
  0
LINE
  5
13D
100
AcDbEntity
  8
ALPHA
100
AcDbLine
 10
44.465753
 20
103.871099
 30
0.0
 11
45.30179
 21
103.87046
 31
0.0
  0
LINE
  5
13E
100
AcDbEntity
  8
ALPHA
100
AcDbLine
 10
44.465753
 20
103.918564
 30
0.0
 11
44.322455
 21
103.918564
 31
0.0
  0
LINE
  5
13F
100
AcDbEntity
  8
ALPHA
100
AcDbLine
 10
44.322455
 20
103.654179
 30
0.0
 11
45.301694
 21
103.654179
 31
0.0
  0
LINE
  5
140
100
AcDbEntity
  8
ALPHA
100
AcDbLine
 10
44.349573
 20
103.250141
 30
0.0
 11
45.801694
 21
103.250141
 31
0.0
  0
LINE
  5
141
100
AcDbEntity
  8
ALPHA
100
AcDbLine
 10
44.349573
 20
103.182337
 30
0.0
 11
44.465753
 21
103.182337
 31
0.0
  0
LINE
  5
142
100
AcDbEntity
  8
ALPHA
100
AcDbLine
 10
44.465753
 20
103.918564
 30
0.0
 11
44.465753
 21
103.871099
 31
0.0
  0
LINE
  5
143
100
AcDbEntity
  8
ALPHA
100
AcDbLine
 10
44.322455
 20
103.645414
 30
0.0
 11
44.322455
 21
104.643383
 31
0.0
  0
LINE
  5
144
100
AcDbEntity
  8
ALPHA
100
AcDbLine
 10
43.823141
 20
104.126648
 30
0.0
 11
43.823141
 21
105.109776
 31
0.0
  0
LINE
  5
145
100
AcDbEntity
  8
ALPHA
100
AcDbLine
 10
47.928049
 20
103.245109
 30
0.0
 11
47.928049
 21
107.743575
 31
0.0
  0
LINE
  5
146
100
AcDbEntity
  8
ALPHA
100
AcDbLine
 10
47.429569
 20
103.743575
 30
0.0
 11
47.429569
 21
107.243575
 31
0.0
  0
LINE
  5
147
100
AcDbEntity
  8
ALPHA
100
AcDbLine
 10
46.675315
 20
115.743575
 30
0.0
 11
45.777993
 21
115.743575
 31
0.0
  0
ARC
  5
148
100
AcDbEntity
  8
ALPHA
100
AcDbCircle
 10
46.301694
 20
115.743575
 30
0.0
 40
1.0
100
AcDbArc
 50
160.86488
 51
180.0
  0
LINE
  5
149
100
AcDbEntity
  8
ALPHA
100
AcDbLine
 10
45.359636
 20
115.743575
 30
0.0
 11
45.301694
 21
115.743575
 31
0.0
  0
LINE
  5
14A
100
AcDbEntity
  8
ALPHA
100
AcDbLine
 10
46.674335
 20
115.789466
 30
0.0
 11
46.675315
 21
115.743575
 31
0.0
  0
LINE
  5
14B
100
AcDbEntity
  8
ALPHA
100
AcDbLine
 10
82.465753
 20
103.243575
 30
0.0
 11
82.465753
 21
127.743575
 31
0.0
  0
LINE
  5
14C
100
AcDbEntity
  8
ALPHA
100
AcDbLine
 10
95.913737
 20
124.743575
 30
0.0
 11
84.465753
 21
121.243575
 31
0.0
  0
LINE
  5
14D
100
AcDbEntity
  8
ALPHA
100
AcDbLine
 10
96.779967
 20
102.243575
 30
0.0
 11
109.879967
 21
115.343575
 31
0.0
  0
LINE
  5
14E
100
AcDbEntity
  8
ALPHA
100
AcDbLine
 10
96.365753
 20
103.243575
 30
0.0
 11
109.465753
 21
116.343575
 31
0.0
  0
LINE
  5
14F
100
AcDbEntity
  8
ALPHA
100
AcDbLine
 10
104.465753
 20
91.243575
 30
0.0
 11
94.465753
 21
91.243575
 31
0.0
  0
LINE
  5
150
100
AcDbEntity
  8
ALPHA
100
AcDbLine
 10
94.465753
 20
86.243575
 30
0.0
 11
104.465753
 21
86.243575
 31
0.0
  0
LINE
  5
151
100
AcDbEntity
  8
ALPHA
100
AcDbLine
 10
104.465753
 20
75.243575
 30
0.0
 11
94.465753
 21
75.243575
 31
0.0
  0
LINE
  5
152
100
AcDbEntity
  8
ALPHA
100
AcDbLine
 10
63.465753
 20
75.243575
 30
0.0
 11
53.465753
 21
75.243575
 31
0.0
  0
LINE
  5
153
100
AcDbEntity
  8
ALPHA
100
AcDbLine
 10
63.465753
 20
86.243575
 30
0.0
 11
63.465753
 21
91.243575
 31
0.0
  0
LINE
  5
154
100
AcDbEntity
  8
ALPHA
100
AcDbLine
 10
53.465753
 20
91.243575
 30
0.0
 11
53.465753
 21
86.243575
 31
0.0
  0
LINE
  5
155
100
AcDbEntity
  8
ALPHA
100
AcDbLine
 10
53.465753
 20
86.243575
 30
0.0
 11
63.465753
 21
86.243575
 31
0.0
  0
LINE
  5
156
100
AcDbEntity
  8
ALPHA
100
AcDbLine
 10
63.465753
 20
91.243575
 30
0.0
 11
53.465753
 21
91.243575
 31
0.0
  0
LINE
  5
157
100
AcDbEntity
  8
ALPHA
100
AcDbLine
 10
94.465753
 20
91.243575
 30
0.0
 11
94.465753
 21
86.243575
 31
0.0
  0
LINE
  5
158
100
AcDbEntity
  8
ALPHA
100
AcDbLine
 10
96.779967
 20
102.243575
 30
0.0
 11
96.365753
 21
103.243575
 31
0.0
  0
LINE
  5
159
100
AcDbEntity
  8
ALPHA
100
AcDbLine
 10
84.465753
 20
121.243575
 30
0.0
 11
82.465753
 21
121.243575
 31
0.0
  0
LINE
  5
15A
100
AcDbEntity
  8
ALPHA
100
AcDbLine
 10
104.465753
 20
86.243575
 30
0.0
 11
104.465753
 21
91.243575
 31
0.0
  0
LINE
  5
15B
100
AcDbEntity
  8
ALPHA
100
AcDbLine
 10
114.465753
 20
100.40764
 30
0.0
 11
114.465753
 21
116.343575
 31
0.0
  0
LINE
  5
15C
100
AcDbEntity
  8
ALPHA
100
AcDbLine
 10
113.465753
 20
100.398913
 30
0.0
 11
114.465753
 21
100.40764
 31
0.0
  0
LINE
  5
15D
100
AcDbEntity
  8
ALPHA
100
AcDbLine
 10
109.879967
 20
115.343575
 30
0.0
 11
109.465753
 21
116.343575
 31
0.0
  0
LINE
  5
15E
100
AcDbEntity
  8
ALPHA
100
AcDbLine
 10
109.879967
 20
115.343575
 30
0.0
 11
114.465753
 21
115.343575
 31
0.0
  0
LINE
  5
15F
100
AcDbEntity
  8
ALPHA
100
AcDbLine
 10
109.465753
 20
116.343575
 30
0.0
 11
114.465753
 21
116.343575
 31
0.0
  0
LINE
  5
160
100
AcDbEntity
  8
ALPHA
100
AcDbLine
 10
108.965753
 20
124.743575
 30
0.0
 11
82.465753
 21
124.743575
 31
0.0
  0
LINE
  5
161
100
AcDbEntity
  8
ALPHA
100
AcDbLine
 10
104.125528
 20
130.375358
 30
0.0
 11
90.465753
 21
127.743575
 31
0.0
  0
LINE
  5
162
100
AcDbEntity
  8
ALPHA
100
AcDbLine
 10
57.665753
 20
150.343575
 30
0.0
 11
57.665753
 21
127.743575
 31
0.0
  0
LINE
  5
163
100
AcDbEntity
  8
ALPHA
100
AcDbLine
 10
54.665753
 20
150.343575
 30
0.0
 11
54.665753
 21
127.743575
 31
0.0
  0
LINE
  5
164
100
AcDbEntity
  8
ALPHA
100
AcDbLine
 10
57.165753
 20
150.843575
 30
0.0
 11
55.165753
 21
150.843575
 31
0.0
  0
LINE
  5
165
100
AcDbEntity
  8
ALPHA
100
AcDbLine
 10
55.165753
 20
150.843575
 30
0.0
 11
54.665753
 21
150.343575
 31
0.0
  0
LINE
  5
166
100
AcDbEntity
  8
ALPHA
100
AcDbLine
 10
57.665753
 20
150.343575
 30
0.0
 11
57.165753
 21
150.843575
 31
0.0
  0
LINE
  5
167
100
AcDbEntity
  8
ALPHA
100
AcDbLine
 10
113.465753
 20
133.743575
 30
0.0
 11
113.465753
 21
135.543575
 31
0.0
  0
LINE
  5
168
100
AcDbEntity
  8
ALPHA
100
AcDbLine
 10
106.163263
 20
134.407103
 30
0.0
 11
105.713838
 21
131.975713
 31
0.0
  0
LINE
  5
169
100
AcDbEntity
  8
ALPHA
100
AcDbLine
 10
109.465753
 20
133.243575
 30
0.0
 11
109.465753
 21
125.243575
 31
0.0
  0
ARC
  5
16A
100
AcDbEntity
  8
ALPHA
100
AcDbCircle
 10
108.965753
 20
125.243575
 30
0.0
 40
0.5
100
AcDbArc
 50
270.0
 51
0.0
  0
LINE
  5
16B
100
AcDbEntity
  8
ALPHA
100
AcDbLine
 10
109.465753
 20
133.243575
 30
0.0
 11
112.965753
 21
133.243575
 31
0.0
  0
ARC
  5
16C
100
AcDbEntity
  8
ALPHA
100
AcDbCircle
 10
103.747153
 20
132.33924
 30
0.0
 40
2.0
100
AcDbArc
 50
280.905371
 51
349.527507
  0
ARC
  5
16D
100
AcDbEntity
  8
ALPHA
100
AcDbCircle
 10
112.965753
 20
133.743575
 30
0.0
 40
0.5
100
AcDbArc
 50
270.0
 51
0.0
  0
LINE
  5
16E
100
AcDbEntity
  8
ALPHA
100
AcDbLine
 10
112.965753
 20
136.043575
 30
0.0
 11
108.129947
 21
136.043575
 31
0.0
  0
ARC
  5
16F
100
AcDbEntity
  8
ALPHA
100
AcDbCircle
 10
108.129947
 20
134.043575
 30
0.0
 40
2.0
100
AcDbArc
 50
90.0
 51
169.527473
  0
ARC
  5
170
100
AcDbEntity
  8
ALPHA
100
AcDbCircle
 10
112.965753
 20
135.543575
 30
0.0
 40
0.5
100
AcDbArc
 50
0.0
 51
90.0
  0
LWPOLYLINE
  5
171
100
AcDbEntity
  8
ALPHA
100
AcDbPolyline
 90
        5
 70
     0
 43
0.0
 38
57.600189
 10
-3.634247
 20
74.168297
 10
-3.825586
 20
74.130242
 10
-3.987798
 20
74.021869
 10
-4.096186
 20
73.859676
 10
-4.134247
 20
73.668354
  0
LWPOLYLINE
  5
172
100
AcDbEntity
  8
ALPHA
100
AcDbPolyline
 90
        5
 70
     0
 43
0.0
 38
57.600189
 10
-4.234247
 20
74.571014
 10
-4.219023
 20
74.647548
 10
-4.175668
 20
74.71243
 10
-4.110784
 20
74.755783
 10
-4.034247
 20
74.771007
  0
LWPOLYLINE
  5
173
100
AcDbEntity
  8
ALPHA
100
AcDbPolyline
 90
        3
 70
     0
 43
0.0
 38
57.600189
 10
-4.100272
 20
72.007209
 10
-4.173937
 20
72.165176
 10
-4.219056
 20
72.333555
  0
LWPOLYLINE
  5
174
100
AcDbEntity
  8
ALPHA
100
AcDbPolyline
 90
        3
 70
     0
 43
0.0
 38
57.600189
 10
-4.100272
 20
71.987138
 10
-4.173937
 20
72.145105
 10
-4.219056
 20
72.313484
  0
LWPOLYLINE
  5
175
100
AcDbEntity
  8
ALPHA
100
AcDbPolyline
 90
        4
 70
     0
 43
0.0
 38
57.600189
 10
-8.884247
 20
80.02326
 10
-8.870009
 20
80.022614
 10
-8.829322
 20
80.022059
 10
-8.694714
 20
80.021517
  0
LWPOLYLINE
  5
176
100
AcDbEntity
  8
ALPHA
100
AcDbPolyline
 90
        5
 70
     0
 43
0.0
 38
57.600189
 10
-8.694714
 20
79.823542
 10
-8.767979
 20
79.841639
 10
-8.829322
 20
79.885595
 10
-8.870009
 20
79.949152
 10
-8.884247
 20
80.02326
  0
LWPOLYLINE
  5
177
100
AcDbEntity
  8
ALPHA
100
AcDbPolyline
 90
        5
 70
     0
 43
0.0
 38
57.600189
 10
-8.694714
 20
80.021517
 10
-8.697908
 20
79.945349
 10
-8.69903
 20
79.881
 10
-8.697908
 20
79.838235
 10
-8.694805
 20
79.823539
  0
LWPOLYLINE
  5
178
100
AcDbEntity
  8
ALPHA
100
AcDbPolyline
 90
        3
 70
     0
 43
0.0
 38
57.600189
 10
-4.133476
 20
86.731552
 10
-4.955896
 20
86.850419
 10
-5.070268
 20
86.91437
  0
LWPOLYLINE
  5
179
100
AcDbEntity
  8
ALPHA
100
AcDbPolyline
 90
        3
 70
     0
 43
0.0
 38
57.600189
 10
-5.070298
 20
86.914373
 10
-4.892356
 20
86.834622
 10
-4.050898
 20
86.723682
  0
LWPOLYLINE
  5
17A
100
AcDbEntity
  8
ALPHA
100
AcDbPolyline
 90
        4
 70
     0
 43
0.0
 38
57.600189
 10
-8.694714
 20
85.432094
 10
-8.829322
 20
85.432636
 10
-8.870009
 20
85.433191
 10
-8.884247
 20
85.433837
  0
LWPOLYLINE
  5
17B
100
AcDbEntity
  8
ALPHA
100
AcDbPolyline
 90
        4
 70
     0
 43
0.0
 38
57.600189
 10
-8.767979
 20
85.701946
 10
-8.829322
 20
85.65799
 10
-8.870009
 20
85.594433
 10
-8.884247
 20
85.520324
  0
LWPOLYLINE
  5
17C
100
AcDbEntity
  8
ALPHA
100
AcDbPolyline
 90
        5
 70
     0
 43
0.0
 38
57.600189
 10
-8.694714
 20
85.633556
 10
-8.697908
 20
85.61753
 10
-8.69903
 20
85.573636
 10
-8.697908
 20
85.508531
 10
-8.694714
 20
85.432094
  0
LWPOLYLINE
  5
17D
100
AcDbEntity
  8
ALPHA
100
AcDbPolyline
 90
        5
 70
     0
 43
0.0
 38
57.600189
 10
-8.884247
 20
85.433837
 10
-8.870009
 20
85.507946
 10
-8.829322
 20
85.571503
 10
-8.767979
 20
85.615459
 10
-8.694714
 20
85.633556
  0
LWPOLYLINE
  5
17E
100
AcDbEntity
  8
ALPHA
100
AcDbPolyline
 90
        7
 70
     0
 43
0.0
 38
57.600189
 10
-2.734247
 20
87.317358
 10
-2.70594
 20
87.553842
 10
-2.617973
 20
87.78636
 10
-2.469322
 20
87.99763
 10
-2.268693
 20
88.166591
 10
-2.021897
 20
88.281274
 10
-1.734247
 20
88.326047
  0
LWPOLYLINE
  5
17F
100
AcDbEntity
  8
ALPHA
100
AcDbPolyline
 90
        6
 70
     0
 43
0.0
 38
57.600189
 10
-2.734247
 20
89.345152
 10
-2.685304
 20
89.350545
 10
-2.543264
 20
89.35541
 10
-2.322032
 20
89.359271
 10
-2.043264
 20
89.36175
 10
-1.734247
 20
89.362604
  0
LWPOLYLINE
  5
180
100
AcDbEntity
  8
ALPHA
100
AcDbPolyline
 90
        6
 70
     0
 43
0.0
 38
57.600189
 10
-1.734247
 20
88.380095
 10
-2.043264
 20
88.331153
 10
-2.322032
 20
88.189119
 10
-2.543264
 20
87.967896
 10
-2.685304
 20
87.689138
 10
-2.734247
 20
87.380133
  0
LWPOLYLINE
  5
181
100
AcDbEntity
  8
ALPHA
100
AcDbPolyline
 90
        3
 70
     0
 43
0.0
 38
57.600189
 10
-4.304858
 20
103.586864
 10
-4.621599
 20
103.510748
 10
-5.347084
 20
102.71213
  0
LWPOLYLINE
  5
182
100
AcDbEntity
  8
ALPHA
100
AcDbPolyline
 90
        5
 70
     0
 43
0.0
 38
57.600189
 10
-2.042297
 20
103.058965
 10
-2.323657
 20
102.915456
 10
-2.542088
 20
102.697047
 10
-2.68562
 20
102.415709
 10
-2.721395
 20
102.189096
  0
LWPOLYLINE
  5
183
100
AcDbEntity
  8
ALPHA
100
AcDbPolyline
 90
        5
 70
     0
 43
0.0
 38
57.600189
 10
-2.04316
 20
103.15898
 10
-2.322086
 20
103.01669
 10
-2.543348
 20
102.795246
 10
-2.685291
 20
102.516547
 10
-2.734247
 20
102.207473
  0
LWPOLYLINE
  5
184
100
AcDbEntity
  8
ALPHA
100
AcDbPolyline
 90
        3
 70
     0
 43
0.0
 38
57.600189
 10
-5.256056
 20
101.649859
 10
-4.434659
 20
101.530987
 10
-3.834247
 20
101.486905
  0
LWPOLYLINE
  5
185
100
AcDbEntity
  8
ALPHA
100
AcDbPolyline
 90
        4
 70
     0
 43
0.0
 38
57.600189
 10
-5.37033
 20
102.513774
 10
-5.059628
 20
102.408355
 10
-4.18041
 20
102.307664
 10
-3.834247
 20
102.283682
  0
LWPOLYLINE
  5
186
100
AcDbEntity
  8
ALPHA
100
AcDbPolyline
 90
        6
 70
     0
 43
0.0
 38
57.600189
 10
-1.734247
 20
102.9914
 10
-2.042297
 20
102.942748
 10
-2.323657
 20
102.799196
 10
-2.542088
 20
102.580754
 10
-2.68562
 20
102.299394
 10
-2.734247
 20
101.991362
  0
LWPOLYLINE
  5
187
100
AcDbEntity
  8
ALPHA
100
AcDbPolyline
 90
        5
 70
     0
 43
0.0
 38
57.600189
 10
-1.734247
 20
101.917349
 10
-2.11693
 20
101.91602
 10
-2.441354
 20
101.912237
 10
-2.658127
 20
101.906575
 10
-2.734247
 20
101.899896
  0
LWPOLYLINE
  5
188
100
AcDbEntity
  8
ALPHA
100
AcDbPolyline
 90
        5
 70
     0
 43
0.0
 38
57.600189
 10
-2.734247
 20
101.899896
 10
-2.658127
 20
102.282565
 10
-2.441354
 20
102.606976
 10
-2.11693
 20
102.823741
 10
-1.734247
 20
102.899858
  0
LWPOLYLINE
  5
189
100
AcDbEntity
  8
ALPHA
100
AcDbPolyline
 90
        3
 70
     0
 43
0.0
 38
57.600189
 10
-3.834247
 20
103.654677
 10
-4.065024
 20
103.629844
 10
-4.304858
 20
103.586864
  0
LWPOLYLINE
  5
18A
100
AcDbEntity
  8
ALPHA
100
AcDbPolyline
 90
        4
 70
     0
 43
0.0
 38
57.600189
 10
-4.112335
 20
103.609599
 10
-4.36969
 20
103.50896
 10
-4.058393
 20
103.408333
 10
-3.834247
 20
103.382744
  0
LWPOLYLINE
  5
18B
100
AcDbEntity
  8
ALPHA
100
AcDbPolyline
 90
        7
 70
     0
 43
0.0
 38
57.600189
 10
29.791596
 20
87.326085
 10
30.272029
 20
87.384648
 10
30.754481
 20
87.573139
 10
31.187336
 20
87.893658
 10
31.518935
 20
88.318005
 10
31.719848
 20
88.795248
 10
31.790911
 20
89.273805
  0
LWPOLYLINE
  5
18C
100
AcDbEntity
  8
ALPHA
100
AcDbPolyline
 90
        3
 70
     0
 43
0.0
 38
57.600189
 10
29.791596
 20
89.362604
 10
30.17399
 20
89.353923
 10
30.498219
 20
89.349217
  0
LWPOLYLINE
  5
18D
100
AcDbEntity
  8
ALPHA
100
AcDbPolyline
 90
        7
 70
     0
 43
0.0
 38
57.600189
 10
29.791596
 20
88.326047
 10
30.031812
 20
88.355331
 10
30.273038
 20
88.449583
 10
30.489466
 20
88.609855
 10
30.655265
 20
88.822045
 10
30.755722
 20
89.060685
 10
30.791253
 20
89.299981
  0
LWPOLYLINE
  5
18E
100
AcDbEntity
  8
ALPHA
100
AcDbPolyline
 90
        5
 70
     0
 43
0.0
 38
57.600189
 10
30.791253
 20
89.353881
 10
30.707784
 20
88.979323
 10
30.489387
 20
88.663782
 10
30.168225
 20
88.453728
 10
29.791596
 20
88.380095
  0
LWPOLYLINE
  5
18F
100
AcDbEntity
  8
ALPHA
100
AcDbPolyline
 90
        3
 70
     0
 43
0.0
 38
57.600189
 10
30.498219
 20
89.349217
 10
30.714963
 20
89.349202
 10
30.791253
 20
89.353881
  0
LWPOLYLINE
  5
190
100
AcDbEntity
  8
ALPHA
100
AcDbPolyline
 90
       15
 70
     0
 43
0.0
 38
57.600189
 10
29.512946
 20
103.31679
 10
29.371589
 20
103.307096
 10
28.946324
 20
103.296491
 10
28.261284
 20
103.286977
 10
27.350819
 20
103.279031
 10
26.260585
 20
103.273053
 10
25.045248
 20
103.269342
 10
23.765753
 20
103.268084
 10
22.486258
 20
103.269342
 10
21.270922
 20
103.273053
 10
20.180687
 20
103.279031
 10
19.270222
 20
103.286977
 10
18.585182
 20
103.296491
 10
18.159918
 20
103.307096
 10
18.017154
 20
103.317259
  0
LWPOLYLINE
  5
191
100
AcDbEntity
  8
ALPHA
100
AcDbPolyline
 90
       15
 70
     0
 43
0.0
 38
57.600189
 10
18.015753
 20
103.318262
 10
18.159918
 20
103.329427
 10
18.585182
 20
103.340033
 10
19.270222
 20
103.349547
 10
20.180687
 20
103.357492
 10
21.270922
 20
103.36347
 10
22.486258
 20
103.367181
 10
23.765753
 20
103.368439
 10
25.045248
 20
103.367181
 10
26.260585
 20
103.36347
 10
27.350819
 20
103.357492
 10
28.261284
 20
103.349547
 10
28.946324
 20
103.340033
 10
29.371589
 20
103.329427
 10
29.515753
 20
103.318262
  0
LWPOLYLINE
  5
192
100
AcDbEntity
  8
ALPHA
100
AcDbPolyline
 90
        7
 70
     0
 43
0.0
 38
57.600189
 10
47.576653
 20
107.743575
 10
47.516133
 20
107.839307
 10
47.460707
 20
108.11981
 10
47.413887
 20
108.565599
 10
47.37847
 20
109.145751
 10
47.356443
 20
109.82033
 10
47.348973
 20
110.543575
  0
LWPOLYLINE
  5
193
100
AcDbEntity
  8
ALPHA
100
AcDbPolyline
 90
        8
 70
     0
 43
0.0
 38
57.600189
 10
47.077938
 20
107.243575
 10
47.026179
 20
107.325338
 10
46.977229
 20
107.569806
 10
46.93394
 20
107.964567
 10
46.898257
 20
108.489684
 10
46.871758
 20
109.117532
 10
46.855492
 20
109.816388
 10
46.850079
 20
110.543575
  0
LWPOLYLINE
  5
194
100
AcDbEntity
  8
ALPHA
100
AcDbPolyline
 90
        3
 70
     0
 43
0.0
 38
57.600189
 10
31.86486
 20
102.890935
 10
32.059286
 20
102.886665
 10
32.119606
 20
102.882411
  0
LWPOLYLINE
  5
195
100
AcDbEntity
  8
ALPHA
100
AcDbPolyline
 90
        4
 70
     0
 43
0.0
 38
57.600189
 10
30.827481
 20
101.925626
 10
30.992823
 20
101.922329
 10
31.089935
 20
101.916339
 10
31.119948
 20
101.908625
  0
LWPOLYLINE
  5
196
100
AcDbEntity
  8
ALPHA
100
AcDbPolyline
 90
        5
 70
     0
 43
0.0
 38
57.600189
 10
30.120291
 20
102.899858
 10
30.60782
 20
102.899332
 10
31.09707
 20
102.897635
 10
31.534103
 20
102.894749
 10
31.86486
 20
102.890935
  0
LWPOLYLINE
  5
197
100
AcDbEntity
  8
ALPHA
100
AcDbPolyline
 90
        4
 70
     0
 43
0.0
 38
57.600189
 10
30.120291
 20
101.917349
 10
30.364202
 20
101.922672
 10
30.608928
 20
101.925679
 10
30.827481
 20
101.925626
  0
LWPOLYLINE
  5
198
100
AcDbEntity
  8
ALPHA
100
AcDbPolyline
 90
        5
 70
     0
 43
0.0
 38
57.600189
 10
31.815573
 20
102.835074
 10
31.540325
 20
102.697546
 10
31.319921
 20
102.482846
 10
31.175229
 20
102.211303
 10
31.119948
 20
101.908625
  0
LWPOLYLINE
  5
199
100
AcDbEntity
  8
ALPHA
100
AcDbPolyline
 90
        5
 70
     0
 43
0.0
 38
57.600189
 10
31.119948
 20
101.852813
 10
31.203418
 20
102.227371
 10
31.421815
 20
102.542912
 10
31.742977
 20
102.752966
 10
32.119606
 20
102.826599
  0
LWPOLYLINE
  5
19A
100
AcDbEntity
  8
ALPHA
100
AcDbPolyline
 90
        5
 70
     0
 43
0.0
 38
57.600189
 10
40.909051
 20
104.643383
 10
40.953871
 20
104.824356
 10
41.060263
 20
104.973172
 10
41.215436
 20
105.073462
 10
41.401763
 20
105.109814
  0
LWPOLYLINE
  5
19B
100
AcDbEntity
  8
ALPHA
100
AcDbPolyline
 90
        5
 70
     0
 43
0.0
 38
57.600189
 10
40.909051
 20
103.645414
 10
40.953871
 20
103.82891
 10
41.060263
 20
103.981107
 10
41.215436
 20
104.085524
 10
41.408365
 20
104.126648
  0
LWPOLYLINE
  5
19C
100
AcDbEntity
  8
ALPHA
100
AcDbPolyline
 90
        5
 70
     0
 43
0.0
 38
57.600189
 10
44.322455
 20
104.643383
 10
44.277635
 20
104.824356
 10
44.171243
 20
104.973172
 10
44.01607
 20
105.073462
 10
43.829743
 20
105.109814
  0
LWPOLYLINE
  5
19D
100
AcDbEntity
  8
ALPHA
100
AcDbPolyline
 90
        5
 70
     0
 43
0.0
 38
57.600189
 10
44.322455
 20
103.645414
 10
44.277635
 20
103.82891
 10
44.171243
 20
103.981107
 10
44.01607
 20
104.085524
 10
43.823141
 20
104.126648
  0
LWPOLYLINE
  5
19E
100
AcDbEntity
  8
ALPHA
100
AcDbPolyline
 90
        3
 70
     0
 43
0.0
 38
57.600189
 10
47.928049
 20
103.245109
 10
47.787664
 20
103.276143
 10
47.655232
 20
103.347179
  0
LWPOLYLINE
  5
19F
100
AcDbEntity
  8
ALPHA
100
AcDbPolyline
 90
        4
 70
     0
 43
0.0
 38
57.600189
 10
47.928049
 20
103.245109
 10
47.941119
 20
103.244257
 10
47.954208
 20
103.243746
 10
47.967305
 20
103.243575
  0
LWPOLYLINE
  5
1A0
100
AcDbEntity
  8
ALPHA
100
AcDbPolyline
 90
        4
 70
     0
 43
0.0
 38
57.600189
 10
47.655232
 20
103.347179
 10
47.545314
 20
103.452722
 10
47.467075
 20
103.586477
 10
47.429569
 20
103.743575
  0
LWPOLYLINE
  5
1A1
100
AcDbEntity
  8
ALPHA
100
AcDbPolyline
 90
        5
 70
     0
 43
0.0
 38
57.600189
 10
47.576246
 20
107.743575
 10
47.385813
 20
107.705515
 10
47.224013
 20
107.597128
 10
47.115901
 20
107.434917
 10
47.077938
 20
107.243575
  0
LWPOLYLINE
  5
1A2
100
AcDbEntity
  8
ALPHA
100
AcDbPolyline
 90
        5
 70
     0
 43
0.0
 38
57.600189
 10
47.429569
 20
107.243575
 10
47.467514
 20
107.434917
 10
47.57557
 20
107.597128
 10
47.737289
 20
107.705515
 10
47.928049
 20
107.743575
  0
LWPOLYLINE
  5
1A3
100
AcDbEntity
  8
ALPHA
100
AcDbPolyline
 90
        5
 70
     0
 43
0.0
 38
57.600189
 10
46.277653
 20
116.59858
 10
46.091426
 20
116.454405
 10
45.934458
 20
116.259788
 10
45.824569
 20
116.021503
 10
45.777993
 20
115.743575
  0
LWPOLYLINE
  5
1A4
100
AcDbEntity
  8
ALPHA
100
AcDbPolyline
 90
        3
 70
     0
 43
0.0
 38
57.600189
 10
46.277653
 20
116.59858
 10
46.526616
 20
116.706482
 10
46.674334
 20
116.726774
  0
LWPOLYLINE
  5
1A5
100
AcDbEntity
  8
ALPHA
100
AcDbPolyline
 90
        5
 70
     0
 43
0.0
 38
57.600189
 10
45.777993
 20
127.243575
 10
45.816027
 20
127.434917
 10
45.92434
 20
127.597128
 10
46.086441
 20
127.705515
 10
46.277653
 20
127.743575
  0
LWPOLYLINE
  5
1A6
100
AcDbEntity
  8
ALPHA
100
AcDbPolyline
 90
        5
 70
     0
 43
0.0
 38
57.600189
 10
45.859595
 20
127.743575
 10
45.668269
 20
127.705515
 10
45.50607
 20
127.597128
 10
45.397693
 20
127.434917
 10
45.359636
 20
127.243575
  0
LWPOLYLINE
  5
1A7
100
AcDbEntity
  8
ALPHA
100
AcDbPolyline
 90
        6
 70
     0
 43
0.0
 38
57.600189
 10
47.174334
 20
127.743575
 10
47.008511
 20
127.715277
 10
46.868741
 20
127.639318
 10
46.761526
 20
127.525691
 10
46.693027
 20
127.379013
 10
46.674335
 20
127.243575
  0
LWPOLYLINE
  5
1A8
100
AcDbEntity
  8
ALPHA
100
AcDbPolyline
 90
        5
 70
     0
 43
0.0
 38
57.600189
 10
47.174334
 20
127.743575
 10
46.983368
 20
127.705515
 10
46.821475
 20
127.597128
 10
46.713301
 20
127.434917
 10
46.675315
 20
127.243575
  0
LWPOLYLINE
  5
1A9
100
AcDbEntity
  8
ALPHA
100
AcDbPolyline
 90
        5
 70
     0
 43
0.0
 38
57.600189
 10
46.850079
 20
127.243575
 10
46.888055
 20
127.434917
 10
46.996202
 20
127.597128
 10
47.158055
 20
127.705515
 10
47.348973
 20
127.743575
  0
INSERT
  5
1EC
100
AcDbEntity
  8
ALPHA
100
AcDbBlockReference
  2
SCH_ISO
 10
0.0
 20
0.0
 30
0.0
  0
ENDSEC
  0
SECTION
  2
OBJECTS
  0
DICTIONARY
  5
3C2
100
AcDbDictionary
  3
ACAD_GROUP
350
3C3
  3
ACAD_MLINESTYLE
350
3D0
  3
ACDBVARIABLEDICTIONARY
350
40F
  0
DICTIONARY
  5
3C3
102
{ACAD_REACTORS
330
3C2
102
}
100
AcDbDictionary
  0
DICTIONARY
  5
3D0
102
{ACAD_REACTORS
330
3C2
102
}
100
AcDbDictionary
  3
STANDARD
350
3D1
  0
DICTIONARY
  5
40F
102
{ACAD_REACTORS
330
3C2
102
}
100
AcDbDictionary
  3
DIMADEC
350
410
  0
MLINESTYLE
  5
3D1
102
{ACAD_REACTORS
330
3D0
102
}
100
AcDbMlineStyle
  2
STANDARD
 70
     0
  3

 62
   256
 51
90.0
 52
90.0
 71
     2
 49
0.5
 62
   256
  6
BYLAYER
 49
-0.5
 62
   256
  6
BYLAYER
  0
DICTIONARYVAR
  5
410
102
{ACAD_REACTORS
330
40F
102
}
100
DictionaryVariables
280
     0
  1
0
  0
ENDSEC
  0
EOF
