  0
SECTION
  2
HEADER
  9
$ACADVER
  1
AC1014
  9
$ACADMAINTVER
 70
     0
  9
$DWGCODEPAGE
  3
ANSI_1252
  9
$INSBASE
 10
93.894301
 20
236.06014
 30
0.0
  9
$EXTMIN
 10
-10.978811
 20
-13.982223
 30
0.0
  9
$EXTMAX
 10
64.502155
 20
161.011942
 30
0.0
  9
$LIMMIN
 10
0.0
 20
0.0
  9
$LIMMAX
 10
210.0
 20
297.0
  9
$ORTHOMODE
 70
     0
  9
$REGENMODE
 70
     1
  9
$FILLMODE
 70
     1
  9
$QTEXTMODE
 70
     0
  9
$MIRRTEXT
 70
     0
  9
$DRAGMODE
 70
     1
  9
$LTSCALE
 40
7.0
  9
$OSMODE
 70
  4095
  9
$ATTMODE
 70
     1
  9
$TEXTSIZE
 40
2.5
  9
$TRACEWID
 40
0.05
  9
$TEXTSTYLE
  7
STANDARD
  9
$CLAYER
  8
COTATION1
  9
$CELTYPE
  6
BYLAYER
  9
$CECOLOR
 62
   256
  9
$CELTSCALE
 40
1.0
  9
$DELOBJ
 70
     1
  9
$DISPSILH
 70
     0
  9
$DIMSCALE
 40
1.0
  9
$DIMASZ
 40
3.0
  9
$DIMEXO
 40
0.0625
  9
$DIMDLI
 40
0.38
  9
$DIMRND
 40
0.01
  9
$DIMDLE
 40
0.0
  9
$DIMEXE
 40
0.18
  9
$DIMTP
 40
0.0
  9
$DIMTM
 40
0.0
  9
$DIMTXT
 40
2.5
  9
$DIMCEN
 40
0.09
  9
$DIMTSZ
 40
0.0
  9
$DIMTOL
 70
     0
  9
$DIMLIM
 70
     0
  9
$DIMTIH
 70
     0
  9
$DIMTOH
 70
     0
  9
$DIMSE1
 70
     0
  9
$DIMSE2
 70
     0
  9
$DIMTAD
 70
     1
  9
$DIMZIN
 70
    12
  9
$DIMBLK
  1

  9
$DIMASO
 70
     1
  9
$DIMSHO
 70
     0
  9
$DIMPOST
  1

  9
$DIMAPOST
  1

  9
$DIMALT
 70
     0
  9
$DIMALTD
 70
     2
  9
$DIMALTF
 40
25.4
  9
$DIMLFAC
 40
1.0
  9
$DIMTOFL
 70
     1
  9
$DIMTVP
 40
0.0
  9
$DIMTIX
 70
     0
  9
$DIMSOXD
 70
     0
  9
$DIMSAH
 70
     0
  9
$DIMBLK1
  1

  9
$DIMBLK2
  1

  9
$DIMSTYLE
  2
SC_STAND
  9
$DIMCLRD
 70
     0
  9
$DIMCLRE
 70
     0
  9
$DIMCLRT
 70
     0
  9
$DIMTFAC
 40
1.0
  9
$DIMGAP
 40
1.0
  9
$DIMJUST
 70
     0
  9
$DIMSD1
 70
     0
  9
$DIMSD2
 70
     0
  9
$DIMTOLJ
 70
     1
  9
$DIMTZIN
 70
    12
  9
$DIMALTZ
 70
    12
  9
$DIMALTTZ
 70
    12
  9
$DIMFIT
 70
     5
  9
$DIMUPT
 70
     0
  9
$DIMUNIT
 70
     2
  9
$DIMDEC
 70
     3
  9
$DIMTDEC
 70
     3
  9
$DIMALTU
 70
     2
  9
$DIMALTTD
 70
     2
  9
$DIMTXSTY
  7
STANDARD
  9
$DIMAUNIT
 70
     0
  9
$LUNITS
 70
     2
  9
$LUPREC
 70
     3
  9
$SKETCHINC
 40
0.1
  9
$FILLETRAD
 40
0.0625
  9
$AUNITS
 70
     0
  9
$AUPREC
 70
     0
  9
$MENU
  1
ACAD
  9
$ELEVATION
 40
0.0
  9
$PELEVATION
 40
0.0
  9
$THICKNESS
 40
0.0
  9
$LIMCHECK
 70
     0
  9
$BLIPMODE
 70
     1
  9
$CHAMFERA
 40
0.0
  9
$CHAMFERB
 40
0.0
  9
$CHAMFERC
 40
0.0
  9
$CHAMFERD
 40
0.0
  9
$SKPOLY
 70
     0
  9
$TDCREATE
 40
2450953.590960648
  9
$TDUPDATE
 40
2453664.505979455
  9
$TDINDWG
 40
0.0381753704
  9
$TDUSRTIMER
 40
0.0381753704
  9
$USRTIMER
 70
     1
  9
$ANGBASE
 50
0.0
  9
$ANGDIR
 70
     0
  9
$PDMODE
 70
     0
  9
$PDSIZE
 40
0.0
  9
$PLINEWID
 40
0.0
  9
$COORDS
 70
     0
  9
$SPLFRAME
 70
     0
  9
$SPLINETYPE
 70
     6
  9
$SPLINESEGS
 70
     8
  9
$ATTDIA
 70
     0
  9
$ATTREQ
 70
     1
  9
$HANDLING
 70
     1
  9
$HANDSEED
  5
86DE
  9
$SURFTAB1
 70
     6
  9
$SURFTAB2
 70
     6
  9
$SURFTYPE
 70
     6
  9
$SURFU
 70
     6
  9
$SURFV
 70
     6
  9
$UCSNAME
  2

  9
$UCSORG
 10
0.0
 20
0.0
 30
0.0
  9
$UCSXDIR
 10
1.0
 20
0.0
 30
0.0
  9
$UCSYDIR
 10
0.0
 20
1.0
 30
0.0
  9
$PUCSNAME
  2

  9
$PUCSORG
 10
0.0
 20
0.0
 30
0.0
  9
$PUCSXDIR
 10
1.0
 20
0.0
 30
0.0
  9
$PUCSYDIR
 10
0.0
 20
1.0
 30
0.0
  9
$USERI1
 70
     0
  9
$USERI2
 70
     0
  9
$USERI3
 70
     0
  9
$USERI4
 70
     0
  9
$USERI5
 70
     0
  9
$USERR1
 40
0.0
  9
$USERR2
 40
0.0
  9
$USERR3
 40
0.0
  9
$USERR4
 40
0.0
  9
$USERR5
 40
0.0
  9
$WORLDVIEW
 70
     1
  9
$SHADEDGE
 70
     3
  9
$SHADEDIF
 70
    70
  9
$TILEMODE
 70
     1
  9
$MAXACTVP
 70
    32
  9
$PINSBASE
 10
0.0
 20
0.0
 30
0.0
  9
$PLIMCHECK
 70
     0
  9
$PEXTMIN
 10
-3.174999
 20
-3.175
 30
0.0
  9
$PEXTMAX
 10
203.812116
 20
370.276807
 30
0.0
  9
$PLIMMIN
 10
-3.175
 20
-3.175
  9
$PLIMMAX
 10
203.812115
 20
370.276807
  9
$UNITMODE
 70
     0
  9
$VISRETAIN
 70
     0
  9
$PLINEGEN
 70
     0
  9
$PSLTSCALE
 70
     1
  9
$TREEDEPTH
 70
  3020
  9
$PICKSTYLE
 70
     1
  9
$CMLSTYLE
  2
STANDARD
  9
$CMLJUST
 70
     0
  9
$CMLSCALE
 40
1.0
  9
$PROXYGRAPHICS
 70
     1
  9
$MEASUREMENT
 70
     0
  0
ENDSEC
  0
SECTION
  2
CLASSES
  0
CLASS
  1
DICTIONARYVAR
  2
AcDbDictionaryVar
  3
"AutoCAD"
 90
        0
280
     0
281
     0
  0
CLASS
  1
HATCH
  2
AcDbHatch
  3
"ACAD_SEDONA"
 90
        0
280
     0
281
     1
  0
CLASS
  1
LWPOLYLINE
  2
AcDbPolyline
  3
"AutoCAD"
 90
        0
280
     0
281
     1
  0
ENDSEC
  0
SECTION
  2
TABLES
  0
TABLE
  2
VPORT
  5
F4
100
AcDbSymbolTable
 70
     3
  0
VPORT
  5
86DD
100
AcDbSymbolTableRecord
100
AcDbViewportTableRecord
  2
*ACTIVE
 70
     0
 10
0.0
 20
0.0
 11
1.0
 21
1.0
 12
26.7659
 22
73.515251
 13
0.0
 23
0.0
 14
1.0
 24
1.0
 15
10.0
 25
10.0
 16
0.0
 26
0.0
 36
1.0
 17
0.0
 27
0.0
 37
0.0
 40
176.368428
 41
1.643603
 42
50.0
 43
0.0
 44
0.0
 50
0.0
 51
0.0
 71
     0
 72
   100
 73
     1
 74
     1
 75
     0
 76
     1
 77
     0
 78
     0
  0
ENDTAB
  0
TABLE
  2
LTYPE
  5
F1
100
AcDbSymbolTable
 70
     5
  0
LTYPE
  5
FD
100
AcDbSymbolTableRecord
100
AcDbLinetypeTableRecord
  2
BYBLOCK
 70
     0
  3

 72
    65
 73
     0
 40
0.0
  0
LTYPE
  5
FE
100
AcDbSymbolTableRecord
100
AcDbLinetypeTableRecord
  2
BYLAYER
 70
     0
  3

 72
    65
 73
     0
 40
0.0
  0
LTYPE
  5
FF
100
AcDbSymbolTableRecord
100
AcDbLinetypeTableRecord
  2
CONTINUOUS
 70
     0
  3
Solid line
 72
    65
 73
     0
 40
0.0
  0
LTYPE
  5
112
100
AcDbSymbolTableRecord
100
AcDbLinetypeTableRecord
  2
AXES2
 70
     0
  3
___ _ ___ _ ___ _ ___ _ ___ _ ___ _ ___ _ ___ _
 72
    65
 73
     4
 40
1.125
 49
0.75
 74
     0
 49
-0.125
 74
     0
 49
0.125
 74
     0
 49
-0.125
 74
     0
  0
ENDTAB
  0
TABLE
  2
LAYER
  5
EE
100
AcDbSymbolTable
 70
     7
  0
LAYER
  5
FA
100
AcDbSymbolTableRecord
100
AcDbLayerTableRecord
  2
0
 70
     0
 62
     7
  6
CONTINUOUS
  0
LAYER
  5
12C
100
AcDbSymbolTableRecord
100
AcDbLayerTableRecord
  2
ALPHA
 70
     0
 62
   255
  6
CONTINUOUS
  0
LAYER
  5
12F
100
AcDbSymbolTableRecord
100
AcDbLayerTableRecord
  2
COTATION1
 70
     0
 62
     2
  6
CONTINUOUS
  0
LAYER
  5
13B
100
AcDbSymbolTableRecord
100
AcDbLayerTableRecord
  2
ASHADE
 70
     0
 62
     7
  6
CONTINUOUS
  0
LAYER
  5
13E
100
AcDbSymbolTableRecord
100
AcDbLayerTableRecord
  2
DEFPOINTS
 70
     0
 62
     7
  6
CONTINUOUS
  0
ENDTAB
  0
TABLE
  2
STYLE
  5
EF
100
AcDbSymbolTable
 70
     2
  0
STYLE
  5
FB
100
AcDbSymbolTableRecord
100
AcDbTextStyleTableRecord
  2
STANDARD
 70
     0
 40
0.0
 41
1.0
 50
0.0
 71
     0
 42
2.5
  3
txt
  4

  0
ENDTAB
  0
TABLE
  2
VIEW
  5
F2
100
AcDbSymbolTable
 70
     0
  0
ENDTAB
  0
TABLE
  2
UCS
  5
F3
100
AcDbSymbolTable
 70
     0
  0
ENDTAB
  0
TABLE
  2
APPID
  5
F5
100
AcDbSymbolTable
 70
     3
  0
APPID
  5
FC
100
AcDbSymbolTableRecord
100
AcDbRegAppTableRecord
  2
ACAD
 70
     0
  0
APPID
  5
127
100
AcDbSymbolTableRecord
100
AcDbRegAppTableRecord
  2
AVE_RENDER
 70
     0
  0
APPID
  5
128
100
AcDbSymbolTableRecord
100
AcDbRegAppTableRecord
  2
AVE_MATERIAL
 70
     0
  0
ENDTAB
  0
TABLE
  2
DIMSTYLE
  5
F6
100
AcDbSymbolTable
 70
     2
  0
DIMSTYLE
105
129
100
AcDbSymbolTableRecord
100
AcDbDimStyleTableRecord
  2
STANDARD
 70
     0
  3

  4

  5

  6

  7

 40
1.0
 41
0.18
 42
0.0625
 43
0.38
 44
0.18
 45
0.0
 46
0.0
 47
0.0
 48
0.0
140
0.18
141
0.09
142
0.0
143
25.4
144
1.0
145
0.0
146
1.0
147
0.09
 71
     0
 72
     0
 73
     1
 74
     1
 75
     0
 76
     0
 77
     0
 78
     0
170
     0
171
     2
172
     0
173
     0
174
     0
175
     0
176
     0
177
     0
178
     0
270
     2
271
     3
272
     3
273
     2
274
     2
340
FB
275
     0
280
     0
281
     0
282
     0
283
     1
284
    12
285
    12
286
    12
287
     5
288
     0
  0
DIMSTYLE
105
12A
102
{ACAD_REACTORS
330
8628
330
864D
330
865A
330
8680
330
869E
330
86B9
330
86C6
102
}
100
AcDbSymbolTableRecord
100
AcDbDimStyleTableRecord
  2
SC_STAND
 70
     0
  3

  4

  5

  6

  7

 40
1.0
 41
3.0
 42
0.0625
 43
0.38
 44
0.18
 45
0.01
 46
0.0
 47
0.0
 48
0.0
140
2.5
141
0.09
142
0.0
143
25.4
144
1.0
145
0.0
146
1.0
147
1.0
 71
     0
 72
     0
 73
     0
 74
     0
 75
     0
 76
     0
 77
     1
 78
    12
170
     0
171
     2
172
     1
173
     0
174
     0
175
     0
176
     0
177
     0
178
     0
270
     2
271
     3
272
     3
273
     2
274
     2
340
FB
275
     0
280
     0
281
     0
282
     0
283
     1
284
    12
285
    12
286
    12
287
     5
288
     0
  0
ENDTAB
  0
TABLE
  2
BLOCK_RECORD
  5
ED
100
AcDbSymbolTable
 70
    14
  0
BLOCK_RECORD
  5
103
100
AcDbSymbolTableRecord
100
AcDbBlockTableRecord
  2
*MODEL_SPACE
  0
BLOCK_RECORD
  5
100
100
AcDbSymbolTableRecord
100
AcDbBlockTableRecord
  2
*PAPER_SPACE
  0
BLOCK_RECORD
  5
108
100
AcDbSymbolTableRecord
100
AcDbBlockTableRecord
  2
AVE_RENDER
  0
BLOCK_RECORD
  5
109
100
AcDbSymbolTableRecord
100
AcDbBlockTableRecord
  2
AVE_GLOBAL
  0
BLOCK_RECORD
  5
10A
100
AcDbSymbolTableRecord
100
AcDbBlockTableRecord
  2
SCH_IS
  0
BLOCK_RECORD
  5
861C
100
AcDbSymbolTableRecord
100
AcDbBlockTableRecord
  2
*D7
  0
BLOCK_RECORD
  5
8641
100
AcDbSymbolTableRecord
100
AcDbBlockTableRecord
  2
*D8
  0
BLOCK_RECORD
  5
864E
100
AcDbSymbolTableRecord
100
AcDbBlockTableRecord
  2
*D9
  0
BLOCK_RECORD
  5
8671
100
AcDbSymbolTableRecord
100
AcDbBlockTableRecord
  2
*D10
  0
BLOCK_RECORD
  5
868F
100
AcDbSymbolTableRecord
100
AcDbBlockTableRecord
  2
*D11
  0
BLOCK_RECORD
  5
86AD
100
AcDbSymbolTableRecord
100
AcDbBlockTableRecord
  2
*D12
  0
BLOCK_RECORD
  5
86BA
100
AcDbSymbolTableRecord
100
AcDbBlockTableRecord
  2
*D13
  0
ENDTAB
  0
ENDSEC
  0
SECTION
  2
BLOCKS
  0
BLOCK
  5
141
100
AcDbEntity
  8
0
100
AcDbBlockBegin
  2
*MODEL_SPACE
 70
     0
 10
0.0
 20
0.0
 30
0.0
  3
*MODEL_SPACE
  1

  0
ENDBLK
  5
142
100
AcDbEntity
  8
0
100
AcDbBlockEnd
  0
BLOCK
  5
13F
100
AcDbEntity
 67
     1
  8
0
100
AcDbBlockBegin
  2
*PAPER_SPACE
 70
     0
 10
0.0
 20
0.0
 30
0.0
  3
*PAPER_SPACE
  1

  0
ENDBLK
  5
140
100
AcDbEntity
 67
     1
  8
0
100
AcDbBlockEnd
  0
BLOCK
  5
8D
100
AcDbEntity
  8
0
100
AcDbBlockBegin
  2
AVE_RENDER
 70
     0
 10
0.0
 20
0.0
 30
0.0
  3
AVE_RENDER
  1
AVE_RENDER
  0
ENDBLK
  5
8E
100
AcDbEntity
  8
0
100
AcDbBlockEnd
  0
BLOCK
  5
90
100
AcDbEntity
  8
0
100
AcDbBlockBegin
  2
AVE_GLOBAL
 70
     0
 10
0.0
 20
0.0
 30
0.0
  3
AVE_GLOBAL
  1
AVE_GLOBAL
  0
ENDBLK
  5
91
100
AcDbEntity
  8
0
100
AcDbBlockEnd
  0
BLOCK
  5
C9
100
AcDbEntity
  8
0
100
AcDbBlockBegin
  2
SCH_IS
 70
     0
 10
0.0
 20
0.0
 30
0.0
  3
SCH_IS
  1

  0
INSERT
  5
C0
100
AcDbEntity
  8
ASHADE
 62
     1
100
AcDbBlockReference
  2
AVE_RENDER
 10
0.0
 20
0.0
 30
0.0
1001
AVE_RENDER
1002
{
1070
     6
1000
Pref
1070
    50
1070
    20
1070
     1
1070
     0
1000

1070
    10
1070
     1
1070
    30
1040
25.4
1070
     1
1040
0.3
1040
0.7
1040
0.0
1040
10.0
1010
-1.0
1020
-1.0
1030
-1.0
1040
0.3
1070
    49
1070
     0
1070
     0
1010
1.0
1020
1.0
1030
1.0
1040
45.0
1070
     1
1070
     0
1000
WCS
1040
0.0
1002
}
  0
INSERT
  5
C1
100
AcDbEntity
  8
ASHADE
 62
     3
100
AcDbBlockReference
  2
AVE_RENDER
 10
0.0
 20
0.0
 30
0.0
1001
AVE_RENDER
1002
{
1070
     0
1000
Full Opt
1070
     0
1070
     1
1070
     1
1070
     1
1070
     0
1070
     0
1070
     0
1070
     1
1070
     1
1040
0.0001
1040
0.0001
1002
}
  0
INSERT
  5
C2
100
AcDbEntity
  8
ASHADE
 62
     4
100
AcDbBlockReference
  2
AVE_RENDER
 10
0.0
 20
0.0
 30
0.0
1001
AVE_RENDER
1002
{
1070
     0
1000
Quick Opt
1070
     0
1070
     1
1070
     1
1070
     1
1070
     0
1070
     0
1070
     1
1002
}
  0
INSERT
  5
C3
100
AcDbEntity
  8
ASHADE
 62
     5
100
AcDbBlockReference
  2
AVE_RENDER
 10
0.0
 20
0.0
 30
0.0
1001
AVE_RENDER
1002
{
1070
     1
1000
Scanl Opt
1070
     2
1070
     0
1070
     2
1040
2.0
1040
4.0
1070
     0
1070
     1
1070
     0
1040
0.03
1002
}
  0
INSERT
  5
C4
100
AcDbEntity
  8
ASHADE
 62
     6
100
AcDbBlockReference
  2
AVE_RENDER
 10
0.0
 20
0.0
 30
0.0
1001
AVE_RENDER
1002
{
1070
     2
1000
Raytr Opt
1070
     2
1070
     0
1070
     2
1040
2.0
1040
4.0
1070
     0
1070
     1
1070
     1
1040
0.03
1070
     3
1040
0.03
1002
}
  0
INSERT
  5
C5
100
AcDbEntity
  8
ASHADE
 62
     7
100
AcDbBlockReference
  2
AVE_RENDER
 10
0.0
 20
0.0
 30
0.0
1001
AVE_RENDER
1002
{
1070
     0
1000
RFile Opt
1070
     5
1070
   640
1070
   480
1070
 10000
1070
     3
1070
    32
1070
    24
1070
     0
1070
     0
1070
     0
1070
     1
1070
     0
1070
     0
1070
     0
1002
}
  0
INSERT
  5
C6
100
AcDbEntity
  8
ASHADE
 62
     8
100
AcDbBlockReference
  2
AVE_RENDER
 10
0.0
 20
0.0
 30
0.0
1001
AVE_RENDER
1002
{
1070
     0
1000
Fog Opt
1070
     0
1070
     0
1040
0.0
1040
1.0
1040
0.0
1040
1.0
1010
0.5
1020
0.5
1030
0.5
1002
}
  0
INSERT
  5
C7
100
AcDbEntity
  8
ASHADE
 62
     9
100
AcDbBlockReference
  2
AVE_RENDER
 10
0.0
 20
0.0
 30
0.0
1001
AVE_RENDER
1002
{
1070
     0
1000
BG Opt
1070
     0
1070
     1
1010
0.0
1020
0.0
1030
0.0
1010
1.0
1020
0.0
1030
0.0
1010
0.0
1020
1.0
1030
0.0
1010
0.0
1020
0.0
1030
1.0
1040
0.5
1040
0.33
1040
0.0
1000

1070
     1
1000

1070
     1
1070
     1
1040
1.0
1040
1.0
1040
0.0
1040
0.0
1070
     0
1002
}
  0
INSERT
  5
C8
100
AcDbEntity
  8
ASHADE
 62
     1
100
AcDbBlockReference
  2
AVE_GLOBAL
 10
0.0
 20
0.0
 30
0.0
1001
AVE_MATERIAL
1002
{
1000
*GLOBAL*
1000
1
1000
Finition globale.
1002
{
1002
}
1002
{
1070
    63
1002
{
1002
{
1010
-1.0
1020
-1.0
1030
-1.0
1002
}
1040
0.1
1000

1040
0.0
1002
{
1002
}
1040
0.0
1002
{
1002
}
1040
0.0
1002
}
1002
{
1002
{
1010
-1.0
1020
-1.0
1030
-1.0
1002
}
1040
0.7
1000

1040
0.0
1002
{
1002
}
1040
0.0
1002
{
1002
}
1040
0.0
1002
}
1002
{
1002
{
1010
-1.0
1020
-1.0
1030
-1.0
1002
}
1040
0.2
1000

1040
0.0
1002
{
1002
}
1040
0.0
1002
{
1002
}
1040
0.0
1002
}
1002
{
1070
     0
1002
{
1070
     1
1002
{
1040
1.0
1040
1.0
1000

1040
0.0
1002
{
1002
}
1040
0.0
1002
{
1002
}
1040
0.0
1002
}
1002
}
1040
1.0
1040
0.0
1040
0.0
1002
}
1002
{
1040
1.0
1040
1.0
1000

1040
0.0
1002
{
1002
}
1040
0.0
1002
{
1002
}
1040
0.0
1002
}
1002
{
1040
0.5
1040
1.0
1000

1040
0.0
1002
{
1002
}
1040
0.0
1002
{
1002
}
1040
0.0
1002
}
1002
{
1070
     0
1040
0.0
1002
{
1002
}
1040
1.0
1002
{
1002
}
1040
0.0
1002
}
1002
{
1040
0.0
1002
{
1002
{
1010
0.0
1020
0.0
1030
0.0
1002
}
1040
1.0
1000

1040
0.0
1002
{
1002
}
1040
0.0
1002
{
1002
}
1040
0.0
1002
}
1002
}
1002
{
1002
{
1070
     1
1002
{
1040
0.0
1040
1.0
1000

1040
0.0
1002
{
1002
}
1040
0.0
1002
{
1002
}
1040
0.0
1002
}
1002
}
1040
0.0
1002
{
1002
}
1010
1.0
1020
0.0
1030
0.0
1010
0.0
1020
1.0
1030
0.0
1010
0.0
1020
0.0
1030
1.0
1070
     0
1002
}
1002
{
1002
{
1040
1.0
1040
1.0
1002
{
1070
     1
1002
{
1040
1.0
1040
1.0
1000

1040
0.0
1002
{
1002
}
1040
0.0
1002
{
1002
}
1040
0.0
1002
}
1002
}
1002
}
1070
     0
1040
0.0
1002
{
1002
}
1002
}
1002
{
1002
}
1002
}
1002
{
1071
        3
1070
     3
1070
     0
1002
{
1070
     2
1070
     0
1070
     0
1040
0.0
1002
}
1070
     0
1070
     2
1002
{
1002
}
1002
}
1002
{
1040
8030.0
1040
190.300003
1040
0.305
1040
228.0
1040
545.0
1040
14.0
1040
17.4
1040
0.456
1002
}
1002
}
  0
ENDBLK
  5
CA
100
AcDbEntity
  8
0
100
AcDbBlockEnd
  0
BLOCK
  5
8636
100
AcDbEntity
  8
0
100
AcDbBlockBegin
  2
*D7
 70
     1
 10
0.0
 20
0.0
 30
0.0
  3
*D7
  1

  0
LINE
  5
8637
100
AcDbEntity
  8
0
  6
BYBLOCK
 62
     0
100
AcDbLine
 10
0.060185
 20
146.664029
 30
0.0
 11
0.060185
 21
157.691942
 31
0.0
  0
LINE
  5
8638
100
AcDbEntity
  8
0
  6
BYBLOCK
 62
     0
100
AcDbLine
 10
50.26005
 20
146.664029
 30
0.0
 11
50.26005
 21
157.691942
 31
0.0
  0
LINE
  5
8639
100
AcDbEntity
  8
0
  6
BYBLOCK
 62
     0
100
AcDbLine
 10
3.060185
 20
157.511942
 30
0.0
 11
47.26005
 21
157.511942
 31
0.0
  0
SOLID
  5
863A
100
AcDbEntity
  8
0
  6
BYBLOCK
 62
     0
100
AcDbTrace
 10
3.060185
 20
158.011942
 30
0.0
 11
3.060185
 21
157.011942
 31
0.0
 12
0.060185
 22
157.511942
 32
0.0
 13
0.060185
 23
157.511942
 33
0.0
  0
SOLID
  5
863B
100
AcDbEntity
  8
0
  6
BYBLOCK
 62
     0
100
AcDbTrace
 10
47.26005
 20
158.011942
 30
0.0
 11
47.26005
 21
157.011942
 31
0.0
 12
50.26005
 22
157.511942
 32
0.0
 13
50.26005
 23
157.511942
 33
0.0
  0
MTEXT
  5
863C
100
AcDbEntity
  8
0
  6
BYBLOCK
 62
     0
100
AcDbMText
 10
25.160117
 20
159.761942
 30
0.0
 40
2.5
 41
0.0
 71
     5
 72
     1
  1
\A1;50.2
  0
POINT
  5
863D
100
AcDbEntity
  8
DEFPOINTS
  6
BYBLOCK
 62
     0
100
AcDbPoint
 10
0.060185
 20
146.601529
 30
0.0
  0
POINT
  5
863E
100
AcDbEntity
  8
DEFPOINTS
  6
BYBLOCK
 62
     0
100
AcDbPoint
 10
50.26005
 20
146.601529
 30
0.0
  0
POINT
  5
863F
100
AcDbEntity
  8
DEFPOINTS
  6
BYBLOCK
 62
     0
100
AcDbPoint
 10
50.26005
 20
157.511942
 30
0.0
  0
ENDBLK
  5
8640
100
AcDbEntity
  8
0
100
AcDbBlockEnd
  0
BLOCK
  5
8642
100
AcDbEntity
  8
0
100
AcDbBlockBegin
  2
*D8
 70
     1
 10
0.0
 20
0.0
 30
0.0
  3
*D8
  1

  0
LINE
  5
8643
100
AcDbEntity
  8
0
  6
BYBLOCK
 62
     0
100
AcDbLine
 10
25.222617
 20
77.117571
 30
0.0
 11
59.932155
 21
77.117571
 31
0.0
  0
LINE
  5
8644
100
AcDbEntity
  8
0
  6
BYBLOCK
 62
     0
100
AcDbLine
 10
25.222617
 20
111.117562
 30
0.0
 11
59.932155
 21
111.117562
 31
0.0
  0
LINE
  5
8645
100
AcDbEntity
  8
0
  6
BYBLOCK
 62
     0
100
AcDbLine
 10
59.752155
 20
80.117571
 30
0.0
 11
59.752155
 21
108.117562
 31
0.0
  0
SOLID
  5
8646
100
AcDbEntity
  8
0
  6
BYBLOCK
 62
     0
100
AcDbTrace
 10
59.252155
 20
80.117571
 30
0.0
 11
60.252155
 21
80.117571
 31
0.0
 12
59.752155
 22
77.117571
 32
0.0
 13
59.752155
 23
77.117571
 33
0.0
  0
SOLID
  5
8647
100
AcDbEntity
  8
0
  6
BYBLOCK
 62
     0
100
AcDbTrace
 10
59.252155
 20
108.117562
 30
0.0
 11
60.252155
 21
108.117562
 31
0.0
 12
59.752155
 22
111.117562
 32
0.0
 13
59.752155
 23
111.117562
 33
0.0
  0
MTEXT
  5
8648
100
AcDbEntity
  8
0
  6
BYBLOCK
 62
     0
100
AcDbMText
 10
57.502155
 20
94.117567
 30
0.0
 40
2.5
 41
0.0
 71
     5
 72
     1
  1
\A1;34
 11
0.0
 21
1.0
 31
0.0
  0
POINT
  5
8649
100
AcDbEntity
  8
DEFPOINTS
  6
BYBLOCK
 62
     0
100
AcDbPoint
 10
25.160117
 20
77.117571
 30
0.0
  0
POINT
  5
864A
100
AcDbEntity
  8
DEFPOINTS
  6
BYBLOCK
 62
     0
100
AcDbPoint
 10
25.160117
 20
111.117562
 30
0.0
  0
POINT
  5
864B
100
AcDbEntity
  8
DEFPOINTS
  6
BYBLOCK
 62
     0
100
AcDbPoint
 10
59.752155
 20
111.117562
 30
0.0
  0
ENDBLK
  5
864C
100
AcDbEntity
  8
0
100
AcDbBlockEnd
  0
BLOCK
  5
8666
100
AcDbEntity
  8
0
100
AcDbBlockBegin
  2
*D9
 70
     1
 10
0.0
 20
0.0
 30
0.0
  3
*D9
  1

  0
LINE
  5
8667
100
AcDbEntity
  8
0
  6
BYBLOCK
 62
     0
100
AcDbLine
 10
39.472738
 20
4.117548
 30
0.0
 11
59.932155
 21
4.117548
 31
0.0
  0
LINE
  5
8668
100
AcDbEntity
  8
0
  6
BYBLOCK
 62
     0
100
AcDbLine
 10
52.869509
 20
77.117571
 30
0.0
 11
59.932155
 21
77.117571
 31
0.0
  0
LINE
  5
8669
100
AcDbEntity
  8
0
  6
BYBLOCK
 62
     0
100
AcDbLine
 10
59.752155
 20
7.117548
 30
0.0
 11
59.752155
 21
74.117571
 31
0.0
  0
SOLID
  5
866A
100
AcDbEntity
  8
0
  6
BYBLOCK
 62
     0
100
AcDbTrace
 10
59.252155
 20
7.117548
 30
0.0
 11
60.252155
 21
7.117548
 31
0.0
 12
59.752155
 22
4.117548
 32
0.0
 13
59.752155
 23
4.117548
 33
0.0
  0
SOLID
  5
866B
100
AcDbEntity
  8
0
  6
BYBLOCK
 62
     0
100
AcDbTrace
 10
59.252155
 20
74.117571
 30
0.0
 11
60.252155
 21
74.117571
 31
0.0
 12
59.752155
 22
77.117571
 32
0.0
 13
59.752155
 23
77.117571
 33
0.0
  0
MTEXT
  5
866C
100
AcDbEntity
  8
0
  6
BYBLOCK
 62
     0
100
AcDbMText
 10
57.502155
 20
40.617559
 30
0.0
 40
2.5
 41
0.0
 71
     5
 72
     1
  1
\A1;73
 11
0.0
 21
1.0
 31
0.0
  0
POINT
  5
866D
100
AcDbEntity
  8
DEFPOINTS
  6
BYBLOCK
 62
     0
100
AcDbPoint
 10
39.410238
 20
4.117548
 30
0.0
  0
POINT
  5
866E
100
AcDbEntity
  8
DEFPOINTS
  6
BYBLOCK
 62
     0
100
AcDbPoint
 10
52.807009
 20
77.117571
 30
0.0
  0
POINT
  5
866F
100
AcDbEntity
  8
DEFPOINTS
  6
BYBLOCK
 62
     0
100
AcDbPoint
 10
59.752155
 20
77.117571
 30
0.0
  0
ENDBLK
  5
8670
100
AcDbEntity
  8
0
100
AcDbBlockEnd
  0
BLOCK
  5
8681
100
AcDbEntity
  8
0
100
AcDbBlockBegin
  2
*D10
 70
     1
 10
0.0
 20
0.0
 30
0.0
  3
*D10
  1

  0
LINE
  5
8682
100
AcDbEntity
  8
0
  6
BYBLOCK
 62
     0
100
AcDbLine
 10
47.966621
 20
-0.382608
 30
0.0
 11
59.932155
 21
-0.382608
 31
0.0
  0
LINE
  5
8683
100
AcDbEntity
  8
0
  6
BYBLOCK
 62
     0
100
AcDbLine
 10
56.218804
 20
4.117548
 30
0.0
 11
59.932155
 21
4.117548
 31
0.0
  0
LINE
  5
8684
100
AcDbEntity
  8
0
  6
BYBLOCK
 62
     0
100
AcDbLine
 10
59.752155
 20
-3.382608
 30
0.0
 11
59.752155
 21
-6.382608
 31
0.0
  0
LINE
  5
8685
100
AcDbEntity
  8
0
  6
BYBLOCK
 62
     0
100
AcDbLine
 10
59.752155
 20
7.117548
 30
0.0
 11
59.752155
 21
10.117548
 31
0.0
  0
MTEXT
  5
8686
100
AcDbEntity
  8
0
  6
BYBLOCK
 62
     0
100
AcDbMText
 10
63.252155
 20
1.86747
 30
0.0
 40
2.5
 41
0.0
 71
     5
 72
     1
  1
\A1;4.5
 11
0.0
 21
1.0
 31
0.0
  0
LINE
  5
8687
100
AcDbEntity
  8
0
  6
BYBLOCK
 62
     0
100
AcDbLine
 10
59.752155
 20
-0.382608
 30
0.0
 11
59.752155
 21
4.117548
 31
0.0
  0
LINE
  5
8688
100
AcDbEntity
  8
0
  6
BYBLOCK
 62
     0
100
AcDbLine
 10
59.752155
 20
-0.382608
 30
0.0
 11
59.752155
 21
4.117548
 31
0.0
  0
SOLID
  5
8689
100
AcDbEntity
  8
0
  6
BYBLOCK
 62
     0
100
AcDbTrace
 10
59.252155
 20
-3.382608
 30
0.0
 11
60.252155
 21
-3.382608
 31
0.0
 12
59.752155
 22
-0.382608
 32
0.0
 13
59.752155
 23
-0.382608
 33
0.0
  0
SOLID
  5
868A
100
AcDbEntity
  8
0
  6
BYBLOCK
 62
     0
100
AcDbTrace
 10
59.252155
 20
7.117548
 30
0.0
 11
60.252155
 21
7.117548
 31
0.0
 12
59.752155
 22
4.117548
 32
0.0
 13
59.752155
 23
4.117548
 33
0.0
  0
POINT
  5
868B
100
AcDbEntity
  8
DEFPOINTS
  6
BYBLOCK
 62
     0
100
AcDbPoint
 10
47.904121
 20
-0.382608
 30
0.0
  0
POINT
  5
868C
100
AcDbEntity
  8
DEFPOINTS
  6
BYBLOCK
 62
     0
100
AcDbPoint
 10
56.156304
 20
4.117548
 30
0.0
  0
POINT
  5
868D
100
AcDbEntity
  8
DEFPOINTS
  6
BYBLOCK
 62
     0
100
AcDbPoint
 10
59.752155
 20
4.117548
 30
0.0
  0
ENDBLK
  5
868E
100
AcDbEntity
  8
0
100
AcDbBlockEnd
  0
BLOCK
  5
869F
100
AcDbEntity
  8
0
100
AcDbBlockBegin
  2
*D11
 70
     1
 10
0.0
 20
0.0
 30
0.0
  3
*D11
  1

  0
LINE
  5
86A0
100
AcDbEntity
  8
0
  6
BYBLOCK
 62
     0
100
AcDbLine
 10
5.597688
 20
6.367884
 30
0.0
 11
-6.408811
 21
6.367884
 31
0.0
  0
LINE
  5
86A1
100
AcDbEntity
  8
0
  6
BYBLOCK
 62
     0
100
AcDbLine
 10
5.597688
 20
1.8679
 30
0.0
 11
-6.408811
 21
1.8679
 31
0.0
  0
LINE
  5
86A2
100
AcDbEntity
  8
0
  6
BYBLOCK
 62
     0
100
AcDbLine
 10
-6.228811
 20
9.367884
 30
0.0
 11
-6.228811
 21
12.367884
 31
0.0
  0
LINE
  5
86A3
100
AcDbEntity
  8
0
  6
BYBLOCK
 62
     0
100
AcDbLine
 10
-6.228811
 20
-1.1321
 30
0.0
 11
-6.228811
 21
-4.1321
 31
0.0
  0
MTEXT
  5
86A4
100
AcDbEntity
  8
0
  6
BYBLOCK
 62
     0
100
AcDbMText
 10
-9.728811
 20
4.117892
 30
0.0
 40
2.5
 41
0.0
 71
     5
 72
     1
  1
\A1;4.5
 11
0.0
 21
1.0
 31
0.0
  0
LINE
  5
86A5
100
AcDbEntity
  8
0
  6
BYBLOCK
 62
     0
100
AcDbLine
 10
-6.228811
 20
6.367884
 30
0.0
 11
-6.228811
 21
1.8679
 31
0.0
  0
LINE
  5
86A6
100
AcDbEntity
  8
0
  6
BYBLOCK
 62
     0
100
AcDbLine
 10
-6.228811
 20
6.367884
 30
0.0
 11
-6.228811
 21
1.8679
 31
0.0
  0
SOLID
  5
86A7
100
AcDbEntity
  8
0
  6
BYBLOCK
 62
     0
100
AcDbTrace
 10
-6.728811
 20
9.367884
 30
0.0
 11
-5.728811
 21
9.367884
 31
0.0
 12
-6.228811
 22
6.367884
 32
0.0
 13
-6.228811
 23
6.367884
 33
0.0
  0
SOLID
  5
86A8
100
AcDbEntity
  8
0
  6
BYBLOCK
 62
     0
100
AcDbTrace
 10
-6.728811
 20
-1.1321
 30
0.0
 11
-5.728811
 21
-1.1321
 31
0.0
 12
-6.228811
 22
1.8679
 32
0.0
 13
-6.228811
 23
1.8679
 33
0.0
  0
POINT
  5
86A9
100
AcDbEntity
  8
DEFPOINTS
  6
BYBLOCK
 62
     0
100
AcDbPoint
 10
5.660188
 20
6.367884
 30
0.0
  0
POINT
  5
86AA
100
AcDbEntity
  8
DEFPOINTS
  6
BYBLOCK
 62
     0
100
AcDbPoint
 10
5.660188
 20
1.8679
 30
0.0
  0
POINT
  5
86AB
100
AcDbEntity
  8
DEFPOINTS
  6
BYBLOCK
 62
     0
100
AcDbPoint
 10
-6.228811
 20
1.8679
 30
0.0
  0
ENDBLK
  5
86AC
100
AcDbEntity
  8
0
100
AcDbBlockEnd
  0
BLOCK
  5
86C7
100
AcDbEntity
  8
0
100
AcDbBlockBegin
  2
*D12
 70
     1
 10
0.0
 20
0.0
 30
0.0
  3
*D12
  1

  0
LINE
  5
86C8
100
AcDbEntity
  8
0
  6
BYBLOCK
 62
     0
100
AcDbLine
 10
5.660188
 20
6.305384
 30
0.0
 11
5.660188
 21
-13.662223
 31
0.0
  0
LINE
  5
86C9
100
AcDbEntity
  8
0
  6
BYBLOCK
 62
     0
100
AcDbLine
 10
44.660219
 20
6.305384
 30
0.0
 11
44.660219
 21
-13.662223
 31
0.0
  0
LINE
  5
86CA
100
AcDbEntity
  8
0
  6
BYBLOCK
 62
     0
100
AcDbLine
 10
8.660188
 20
-13.482223
 30
0.0
 11
41.660219
 21
-13.482223
 31
0.0
  0
SOLID
  5
86CB
100
AcDbEntity
  8
0
  6
BYBLOCK
 62
     0
100
AcDbTrace
 10
8.660188
 20
-12.982223
 30
0.0
 11
8.660188
 21
-13.982223
 31
0.0
 12
5.660188
 22
-13.482223
 32
0.0
 13
5.660188
 23
-13.482223
 33
0.0
  0
SOLID
  5
86CC
100
AcDbEntity
  8
0
  6
BYBLOCK
 62
     0
100
AcDbTrace
 10
41.660219
 20
-12.982223
 30
0.0
 11
41.660219
 21
-13.982223
 31
0.0
 12
44.660219
 22
-13.482223
 32
0.0
 13
44.660219
 23
-13.482223
 33
0.0
  0
MTEXT
  5
86CD
100
AcDbEntity
  8
0
  6
BYBLOCK
 62
     0
100
AcDbMText
 10
25.160203
 20
-11.232223
 30
0.0
 40
2.5
 41
0.0
 71
     5
 72
     1
  1
\A1;39
  0
POINT
  5
86CE
100
AcDbEntity
  8
DEFPOINTS
  6
BYBLOCK
 62
     0
100
AcDbPoint
 10
5.660188
 20
6.367884
 30
0.0
  0
POINT
  5
86CF
100
AcDbEntity
  8
DEFPOINTS
  6
BYBLOCK
 62
     0
100
AcDbPoint
 10
44.660219
 20
6.367884
 30
0.0
  0
POINT
  5
86D0
100
AcDbEntity
  8
DEFPOINTS
  6
BYBLOCK
 62
     0
100
AcDbPoint
 10
44.660219
 20
-13.482223
 30
0.0
  0
ENDBLK
  5
86D1
100
AcDbEntity
  8
0
100
AcDbBlockEnd
  0
BLOCK
  5
86BB
100
AcDbEntity
  8
0
100
AcDbBlockBegin
  2
*D13
 70
     1
 10
0.0
 20
0.0
 30
0.0
  3
*D13
  1

  0
LINE
  5
86BC
100
AcDbEntity
  8
0
  6
BYBLOCK
 62
     0
100
AcDbLine
 10
8.660177
 20
6.305384
 30
0.0
 11
8.660177
 21
-7.014567
 31
0.0
  0
LINE
  5
86BD
100
AcDbEntity
  8
0
  6
BYBLOCK
 62
     0
100
AcDbLine
 10
41.66023
 20
6.305384
 30
0.0
 11
41.66023
 21
-7.014567
 31
0.0
  0
LINE
  5
86BE
100
AcDbEntity
  8
0
  6
BYBLOCK
 62
     0
100
AcDbLine
 10
11.660177
 20
-6.834567
 30
0.0
 11
38.66023
 21
-6.834567
 31
0.0
  0
SOLID
  5
86BF
100
AcDbEntity
  8
0
  6
BYBLOCK
 62
     0
100
AcDbTrace
 10
11.660177
 20
-6.334567
 30
0.0
 11
11.660177
 21
-7.334567
 31
0.0
 12
8.660177
 22
-6.834567
 32
0.0
 13
8.660177
 23
-6.834567
 33
0.0
  0
SOLID
  5
86C0
100
AcDbEntity
  8
0
  6
BYBLOCK
 62
     0
100
AcDbTrace
 10
38.66023
 20
-6.334567
 30
0.0
 11
38.66023
 21
-7.334567
 31
0.0
 12
41.66023
 22
-6.834567
 32
0.0
 13
41.66023
 23
-6.834567
 33
0.0
  0
MTEXT
  5
86C1
100
AcDbEntity
  8
0
  6
BYBLOCK
 62
     0
100
AcDbMText
 10
25.160203
 20
-4.584567
 30
0.0
 40
2.5
 41
0.0
 71
     5
 72
     1
  1
\A1;33
  0
POINT
  5
86C2
100
AcDbEntity
  8
DEFPOINTS
  6
BYBLOCK
 62
     0
100
AcDbPoint
 10
8.660177
 20
6.367884
 30
0.0
  0
POINT
  5
86C3
100
AcDbEntity
  8
DEFPOINTS
  6
BYBLOCK
 62
     0
100
AcDbPoint
 10
41.66023
 20
6.367884
 30
0.0
  0
POINT
  5
86C4
100
AcDbEntity
  8
DEFPOINTS
  6
BYBLOCK
 62
     0
100
AcDbPoint
 10
41.66023
 20
-6.834567
 30
0.0
  0
ENDBLK
  5
86C5
100
AcDbEntity
  8
0
100
AcDbBlockEnd
  0
ENDSEC
  0
SECTION
  2
ENTITIES
  0
INSERT
  5
CC
100
AcDbEntity
  8
0
100
AcDbBlockReference
  2
SCH_IS
 10
-68.718396
 20
-140.042541
 30
0.0
  0
INSERT
  5
EC
100
AcDbEntity
  8
COTATION1
100
AcDbBlockReference
  2
SCH_IS
 10
0.0
 20
0.0
 30
0.0
  0
POLYLINE
  5
8184
100
AcDbEntity
  8
ALPHA
100
AcDb2dPolyline
 66
     1
 10
0.0
 20
0.0
 30
0.0
  0
VERTEX
  5
8185
100
AcDbEntity
  8
ALPHA
100
AcDbVertex
100
AcDb2dVertex
 10
18.216958
 20
136.451331
 30
0.0
 42
1.0
  0
VERTEX
  5
8186
100
AcDbEntity
  8
ALPHA
100
AcDbVertex
100
AcDb2dVertex
 10
3.60648
 20
136.451331
 30
0.0
 42
1.0
  0
VERTEX
  5
8187
100
AcDbEntity
  8
ALPHA
100
AcDbVertex
100
AcDb2dVertex
 10
18.216958
 20
136.451331
 30
0.0
  0
SEQEND
  5
8188
100
AcDbEntity
  8
ALPHA
  0
POLYLINE
  5
8189
100
AcDbEntity
  8
ALPHA
100
AcDb2dPolyline
 66
     1
 10
0.0
 20
0.0
 30
0.0
  0
VERTEX
  5
818A
100
AcDbEntity
  8
ALPHA
100
AcDbVertex
100
AcDb2dVertex
 10
17.202894
 20
136.451331
 30
0.0
 42
1.0
  0
VERTEX
  5
818B
100
AcDbEntity
  8
ALPHA
100
AcDbVertex
100
AcDb2dVertex
 10
4.620544
 20
136.451331
 30
0.0
 42
1.0
  0
VERTEX
  5
818C
100
AcDbEntity
  8
ALPHA
100
AcDbVertex
100
AcDb2dVertex
 10
17.202894
 20
136.451331
 30
0.0
  0
SEQEND
  5
818D
100
AcDbEntity
  8
ALPHA
  0
POLYLINE
  5
818E
100
AcDbEntity
  8
ALPHA
100
AcDb2dPolyline
 66
     1
 10
0.0
 20
0.0
 30
0.0
  0
VERTEX
  5
818F
100
AcDbEntity
  8
ALPHA
100
AcDbVertex
100
AcDb2dVertex
 10
16.593629
 20
136.451503
 30
0.0
 42
1.0
  0
VERTEX
  5
8190
100
AcDbEntity
  8
ALPHA
100
AcDbVertex
100
AcDb2dVertex
 10
5.229809
 20
136.451503
 30
0.0
 42
1.0
  0
VERTEX
  5
8191
100
AcDbEntity
  8
ALPHA
100
AcDbVertex
100
AcDb2dVertex
 10
16.593629
 20
136.451503
 30
0.0
  0
SEQEND
  5
8192
100
AcDbEntity
  8
ALPHA
  0
POLYLINE
  5
8193
100
AcDbEntity
  8
ALPHA
100
AcDb2dPolyline
 66
     1
 10
0.0
 20
0.0
 30
0.0
  0
VERTEX
  5
8194
100
AcDbEntity
  8
ALPHA
100
AcDbVertex
100
AcDb2dVertex
 10
15.172958
 20
136.451761
 30
0.0
 42
1.0
  0
VERTEX
  5
8195
100
AcDbEntity
  8
ALPHA
100
AcDbVertex
100
AcDb2dVertex
 10
6.650481
 20
136.451761
 30
0.0
 42
1.0
  0
VERTEX
  5
8196
100
AcDbEntity
  8
ALPHA
100
AcDbVertex
100
AcDb2dVertex
 10
15.172958
 20
136.451761
 30
0.0
  0
SEQEND
  5
8197
100
AcDbEntity
  8
ALPHA
  0
POLYLINE
  5
8198
100
AcDbEntity
  8
ALPHA
100
AcDb2dPolyline
 66
     1
 10
0.0
 20
0.0
 30
0.0
  0
VERTEX
  5
8199
100
AcDbEntity
  8
ALPHA
100
AcDbVertex
100
AcDb2dVertex
 10
10.074647
 20
138.173534
 30
0.0
 42
1.0
  0
VERTEX
  5
819A
100
AcDbEntity
  8
ALPHA
100
AcDbVertex
100
AcDb2dVertex
 10
8.451146
 20
138.173534
 30
0.0
 42
1.0
  0
VERTEX
  5
819B
100
AcDbEntity
  8
ALPHA
100
AcDbVertex
100
AcDb2dVertex
 10
10.074647
 20
138.173534
 30
0.0
  0
SEQEND
  5
819C
100
AcDbEntity
  8
ALPHA
  0
POLYLINE
  5
819D
100
AcDbEntity
  8
ALPHA
100
AcDb2dPolyline
 66
     1
 10
0.0
 20
0.0
 30
0.0
  0
VERTEX
  5
819E
100
AcDbEntity
  8
ALPHA
100
AcDbVertex
100
AcDb2dVertex
 10
13.445329
 20
138.173534
 30
0.0
 42
1.0
  0
VERTEX
  5
819F
100
AcDbEntity
  8
ALPHA
100
AcDbVertex
100
AcDb2dVertex
 10
11.821827
 20
138.173534
 30
0.0
 42
1.0
  0
VERTEX
  5
81A0
100
AcDbEntity
  8
ALPHA
100
AcDbVertex
100
AcDb2dVertex
 10
13.445329
 20
138.173534
 30
0.0
  0
SEQEND
  5
81A1
100
AcDbEntity
  8
ALPHA
  0
POLYLINE
  5
81A2
100
AcDbEntity
  8
ALPHA
100
AcDb2dPolyline
 66
     1
 10
0.0
 20
0.0
 30
0.0
  0
VERTEX
  5
81A3
100
AcDbEntity
  8
ALPHA
100
AcDbVertex
100
AcDb2dVertex
 10
10.074733
 20
134.729041
 30
0.0
 42
1.0
  0
VERTEX
  5
81A4
100
AcDbEntity
  8
ALPHA
100
AcDbVertex
100
AcDb2dVertex
 10
8.45106
 20
134.729041
 30
0.0
 42
1.0
  0
VERTEX
  5
81A5
100
AcDbEntity
  8
ALPHA
100
AcDbVertex
100
AcDb2dVertex
 10
10.074733
 20
134.729041
 30
0.0
  0
SEQEND
  5
81A6
100
AcDbEntity
  8
ALPHA
  0
POLYLINE
  5
81A7
100
AcDbEntity
  8
ALPHA
100
AcDb2dPolyline
 66
     1
 10
0.0
 20
0.0
 30
0.0
  0
VERTEX
  5
81A8
100
AcDbEntity
  8
ALPHA
100
AcDbVertex
100
AcDb2dVertex
 10
11.722867
 20
136.451244
 30
0.0
 42
1.0
  0
VERTEX
  5
81A9
100
AcDbEntity
  8
ALPHA
100
AcDbVertex
100
AcDb2dVertex
 10
10.100571
 20
136.451244
 30
0.0
 42
1.0
  0
VERTEX
  5
81AA
100
AcDbEntity
  8
ALPHA
100
AcDbVertex
100
AcDb2dVertex
 10
11.722867
 20
136.451244
 30
0.0
  0
SEQEND
  5
81AB
100
AcDbEntity
  8
ALPHA
  0
POLYLINE
  5
81AC
100
AcDbEntity
  8
ALPHA
100
AcDb2dPolyline
 66
     1
 10
0.0
 20
0.0
 30
0.0
  0
VERTEX
  5
81AD
100
AcDbEntity
  8
ALPHA
100
AcDbVertex
100
AcDb2dVertex
 10
13.445415
 20
134.729041
 30
0.0
 42
1.0
  0
VERTEX
  5
81AE
100
AcDbEntity
  8
ALPHA
100
AcDbVertex
100
AcDb2dVertex
 10
11.821741
 20
134.729041
 30
0.0
 42
1.0
  0
VERTEX
  5
81AF
100
AcDbEntity
  8
ALPHA
100
AcDbVertex
100
AcDb2dVertex
 10
13.445415
 20
134.729041
 30
0.0
  0
SEQEND
  5
81B0
100
AcDbEntity
  8
ALPHA
  0
POLYLINE
  5
81B1
100
AcDbEntity
  8
ALPHA
100
AcDb2dPolyline
 66
     1
 10
0.0
 20
0.0
 30
0.0
  0
VERTEX
  5
81B2
100
AcDbEntity
  8
ALPHA
100
AcDbVertex
100
AcDb2dVertex
 10
21.507369
 20
140.89981
 30
0.0
 42
1.0
  0
VERTEX
  5
81B3
100
AcDbEntity
  8
ALPHA
100
AcDbVertex
100
AcDb2dVertex
 10
17.753076
 20
140.89981
 30
0.0
 42
1.0
  0
VERTEX
  5
81B4
100
AcDbEntity
  8
ALPHA
100
AcDbVertex
100
AcDb2dVertex
 10
21.507369
 20
140.89981
 30
0.0
  0
SEQEND
  5
81B5
100
AcDbEntity
  8
ALPHA
  0
POLYLINE
  5
81B6
100
AcDbEntity
  8
ALPHA
100
AcDb2dPolyline
 66
     1
 10
0.0
 20
0.0
 30
0.0
  0
VERTEX
  5
81B7
100
AcDbEntity
  8
ALPHA
100
AcDbVertex
100
AcDb2dVertex
 10
21.507283
 20
131.967108
 30
0.0
 42
1.0
  0
VERTEX
  5
81B8
100
AcDbEntity
  8
ALPHA
100
AcDbVertex
100
AcDb2dVertex
 10
17.753162
 20
131.967108
 30
0.0
 42
1.0
  0
VERTEX
  5
81B9
100
AcDbEntity
  8
ALPHA
100
AcDbVertex
100
AcDb2dVertex
 10
21.507283
 20
131.967108
 30
0.0
  0
SEQEND
  5
81BA
100
AcDbEntity
  8
ALPHA
  0
POLYLINE
  5
81BB
100
AcDbEntity
  8
ALPHA
100
AcDb2dPolyline
 66
     1
 10
0.0
 20
0.0
 30
0.0
  0
VERTEX
  5
81BC
100
AcDbEntity
  8
ALPHA
100
AcDbVertex
100
AcDb2dVertex
 10
46.77301
 20
136.451331
 30
0.0
 42
1.0
  0
VERTEX
  5
81BD
100
AcDbEntity
  8
ALPHA
100
AcDbVertex
100
AcDb2dVertex
 10
32.162532
 20
136.451331
 30
0.0
 42
1.0
  0
VERTEX
  5
81BE
100
AcDbEntity
  8
ALPHA
100
AcDbVertex
100
AcDb2dVertex
 10
46.77301
 20
136.451331
 30
0.0
  0
SEQEND
  5
81BF
100
AcDbEntity
  8
ALPHA
  0
POLYLINE
  5
81C0
100
AcDbEntity
  8
ALPHA
100
AcDb2dPolyline
 66
     1
 10
0.0
 20
0.0
 30
0.0
  0
VERTEX
  5
81C1
100
AcDbEntity
  8
ALPHA
100
AcDbVertex
100
AcDb2dVertex
 10
45.758946
 20
136.451331
 30
0.0
 42
1.0
  0
VERTEX
  5
81C2
100
AcDbEntity
  8
ALPHA
100
AcDbVertex
100
AcDb2dVertex
 10
33.176596
 20
136.451331
 30
0.0
 42
1.0
  0
VERTEX
  5
81C3
100
AcDbEntity
  8
ALPHA
100
AcDbVertex
100
AcDb2dVertex
 10
45.758946
 20
136.451331
 30
0.0
  0
SEQEND
  5
81C4
100
AcDbEntity
  8
ALPHA
  0
POLYLINE
  5
81C5
100
AcDbEntity
  8
ALPHA
100
AcDb2dPolyline
 66
     1
 10
0.0
 20
0.0
 30
0.0
  0
VERTEX
  5
81C6
100
AcDbEntity
  8
ALPHA
100
AcDbVertex
100
AcDb2dVertex
 10
45.149681
 20
136.451503
 30
0.0
 42
1.0
  0
VERTEX
  5
81C7
100
AcDbEntity
  8
ALPHA
100
AcDbVertex
100
AcDb2dVertex
 10
33.785861
 20
136.451503
 30
0.0
 42
1.0
  0
VERTEX
  5
81C8
100
AcDbEntity
  8
ALPHA
100
AcDbVertex
100
AcDb2dVertex
 10
45.149681
 20
136.451503
 30
0.0
  0
SEQEND
  5
81C9
100
AcDbEntity
  8
ALPHA
  0
POLYLINE
  5
81CA
100
AcDbEntity
  8
ALPHA
100
AcDb2dPolyline
 66
     1
 10
0.0
 20
0.0
 30
0.0
  0
VERTEX
  5
81CB
100
AcDbEntity
  8
ALPHA
100
AcDbVertex
100
AcDb2dVertex
 10
43.72901
 20
136.451761
 30
0.0
 42
1.0
  0
VERTEX
  5
81CC
100
AcDbEntity
  8
ALPHA
100
AcDbVertex
100
AcDb2dVertex
 10
35.206533
 20
136.451761
 30
0.0
 42
1.0
  0
VERTEX
  5
81CD
100
AcDbEntity
  8
ALPHA
100
AcDbVertex
100
AcDb2dVertex
 10
43.72901
 20
136.451761
 30
0.0
  0
SEQEND
  5
81CE
100
AcDbEntity
  8
ALPHA
  0
POLYLINE
  5
81CF
100
AcDbEntity
  8
ALPHA
100
AcDb2dPolyline
 66
     1
 10
0.0
 20
0.0
 30
0.0
  0
VERTEX
  5
81D0
100
AcDbEntity
  8
ALPHA
100
AcDbVertex
100
AcDb2dVertex
 10
41.929723
 20
138.173534
 30
0.0
 42
1.0
  0
VERTEX
  5
81D1
100
AcDbEntity
  8
ALPHA
100
AcDbVertex
100
AcDb2dVertex
 10
40.306221
 20
138.173534
 30
0.0
 42
1.0
  0
VERTEX
  5
81D2
100
AcDbEntity
  8
ALPHA
100
AcDbVertex
100
AcDb2dVertex
 10
41.929723
 20
138.173534
 30
0.0
  0
SEQEND
  5
81D3
100
AcDbEntity
  8
ALPHA
  0
POLYLINE
  5
81D4
100
AcDbEntity
  8
ALPHA
100
AcDb2dPolyline
 66
     1
 10
0.0
 20
0.0
 30
0.0
  0
VERTEX
  5
81D5
100
AcDbEntity
  8
ALPHA
100
AcDbVertex
100
AcDb2dVertex
 10
38.556974
 20
138.173534
 30
0.0
 42
1.0
  0
VERTEX
  5
81D6
100
AcDbEntity
  8
ALPHA
100
AcDbVertex
100
AcDb2dVertex
 10
36.933473
 20
138.173534
 30
0.0
 42
1.0
  0
VERTEX
  5
81D7
100
AcDbEntity
  8
ALPHA
100
AcDbVertex
100
AcDb2dVertex
 10
38.556974
 20
138.173534
 30
0.0
  0
SEQEND
  5
81D8
100
AcDbEntity
  8
ALPHA
  0
POLYLINE
  5
81D9
100
AcDbEntity
  8
ALPHA
100
AcDb2dPolyline
 66
     1
 10
0.0
 20
0.0
 30
0.0
  0
VERTEX
  5
81DA
100
AcDbEntity
  8
ALPHA
100
AcDbVertex
100
AcDb2dVertex
 10
41.929809
 20
134.729041
 30
0.0
 42
1.0
  0
VERTEX
  5
81DB
100
AcDbEntity
  8
ALPHA
100
AcDbVertex
100
AcDb2dVertex
 10
40.306135
 20
134.729041
 30
0.0
 42
1.0
  0
VERTEX
  5
81DC
100
AcDbEntity
  8
ALPHA
100
AcDbVertex
100
AcDb2dVertex
 10
41.929809
 20
134.729041
 30
0.0
  0
SEQEND
  5
81DD
100
AcDbEntity
  8
ALPHA
  0
POLYLINE
  5
81DE
100
AcDbEntity
  8
ALPHA
100
AcDb2dPolyline
 66
     1
 10
0.0
 20
0.0
 30
0.0
  0
VERTEX
  5
81DF
100
AcDbEntity
  8
ALPHA
100
AcDbVertex
100
AcDb2dVertex
 10
40.278919
 20
136.451244
 30
0.0
 42
1.0
  0
VERTEX
  5
81E0
100
AcDbEntity
  8
ALPHA
100
AcDbVertex
100
AcDb2dVertex
 10
38.656623
 20
136.451244
 30
0.0
 42
1.0
  0
VERTEX
  5
81E1
100
AcDbEntity
  8
ALPHA
100
AcDbVertex
100
AcDb2dVertex
 10
40.278919
 20
136.451244
 30
0.0
  0
SEQEND
  5
81E2
100
AcDbEntity
  8
ALPHA
  0
POLYLINE
  5
81E3
100
AcDbEntity
  8
ALPHA
100
AcDb2dPolyline
 66
     1
 10
0.0
 20
0.0
 30
0.0
  0
VERTEX
  5
81E4
100
AcDbEntity
  8
ALPHA
100
AcDbVertex
100
AcDb2dVertex
 10
38.55706
 20
134.729041
 30
0.0
 42
1.0
  0
VERTEX
  5
81E5
100
AcDbEntity
  8
ALPHA
100
AcDbVertex
100
AcDb2dVertex
 10
36.933387
 20
134.729041
 30
0.0
 42
1.0
  0
VERTEX
  5
81E6
100
AcDbEntity
  8
ALPHA
100
AcDbVertex
100
AcDb2dVertex
 10
38.55706
 20
134.729041
 30
0.0
  0
SEQEND
  5
81E7
100
AcDbEntity
  8
ALPHA
  0
POLYLINE
  5
81E8
100
AcDbEntity
  8
ALPHA
100
AcDb2dPolyline
 66
     1
 10
0.0
 20
0.0
 30
0.0
  0
VERTEX
  5
81E9
100
AcDbEntity
  8
ALPHA
100
AcDbVertex
100
AcDb2dVertex
 10
32.626931
 20
140.89981
 30
0.0
 42
1.0
  0
VERTEX
  5
81EA
100
AcDbEntity
  8
ALPHA
100
AcDbVertex
100
AcDb2dVertex
 10
28.872638
 20
140.89981
 30
0.0
 42
1.0
  0
VERTEX
  5
81EB
100
AcDbEntity
  8
ALPHA
100
AcDbVertex
100
AcDb2dVertex
 10
32.626931
 20
140.89981
 30
0.0
  0
SEQEND
  5
81EC
100
AcDbEntity
  8
ALPHA
  0
POLYLINE
  5
81ED
100
AcDbEntity
  8
ALPHA
100
AcDb2dPolyline
 66
     1
 10
0.0
 20
0.0
 30
0.0
  0
VERTEX
  5
81EE
100
AcDbEntity
  8
ALPHA
100
AcDbVertex
100
AcDb2dVertex
 10
32.626845
 20
131.967108
 30
0.0
 42
1.0
  0
VERTEX
  5
81EF
100
AcDbEntity
  8
ALPHA
100
AcDbVertex
100
AcDb2dVertex
 10
28.872725
 20
131.967108
 30
0.0
 42
1.0
  0
VERTEX
  5
81F0
100
AcDbEntity
  8
ALPHA
100
AcDbVertex
100
AcDb2dVertex
 10
32.626845
 20
131.967108
 30
0.0
  0
SEQEND
  5
81F1
100
AcDbEntity
  8
ALPHA
  0
POLYLINE
  5
81F2
100
AcDbEntity
  8
ALPHA
100
AcDb2dPolyline
 66
     1
 10
0.0
 20
0.0
 30
0.0
  0
VERTEX
  5
81F3
100
AcDbEntity
  8
ALPHA
100
AcDbVertex
100
AcDb2dVertex
 10
18.217303
 20
112.272961
 30
0.0
 42
1.0
  0
VERTEX
  5
81F4
100
AcDbEntity
  8
ALPHA
100
AcDbVertex
100
AcDb2dVertex
 10
3.606136
 20
112.272961
 30
0.0
 42
1.0
  0
VERTEX
  5
81F5
100
AcDbEntity
  8
ALPHA
100
AcDbVertex
100
AcDb2dVertex
 10
18.217303
 20
112.272961
 30
0.0
  0
SEQEND
  5
81F6
100
AcDbEntity
  8
ALPHA
  0
POLYLINE
  5
81F7
100
AcDbEntity
  8
ALPHA
100
AcDb2dPolyline
 66
     1
 10
0.0
 20
0.0
 30
0.0
  0
VERTEX
  5
81F8
100
AcDbEntity
  8
ALPHA
100
AcDbVertex
100
AcDb2dVertex
 10
17.20255
 20
112.273478
 30
0.0
 42
1.0
  0
VERTEX
  5
81F9
100
AcDbEntity
  8
ALPHA
100
AcDbVertex
100
AcDb2dVertex
 10
4.620889
 20
112.273478
 30
0.0
 42
1.0
  0
VERTEX
  5
81FA
100
AcDbEntity
  8
ALPHA
100
AcDbVertex
100
AcDb2dVertex
 10
17.20255
 20
112.273478
 30
0.0
  0
SEQEND
  5
81FB
100
AcDbEntity
  8
ALPHA
  0
POLYLINE
  5
81FC
100
AcDbEntity
  8
ALPHA
100
AcDb2dPolyline
 66
     1
 10
0.0
 20
0.0
 30
0.0
  0
VERTEX
  5
81FD
100
AcDbEntity
  8
ALPHA
100
AcDbVertex
100
AcDb2dVertex
 10
16.593801
 20
112.272961
 30
0.0
 42
1.0
  0
VERTEX
  5
81FE
100
AcDbEntity
  8
ALPHA
100
AcDbVertex
100
AcDb2dVertex
 10
5.229637
 20
112.272961
 30
0.0
 42
1.0
  0
VERTEX
  5
81FF
100
AcDbEntity
  8
ALPHA
100
AcDbVertex
100
AcDb2dVertex
 10
16.593801
 20
112.272961
 30
0.0
  0
SEQEND
  5
8200
100
AcDbEntity
  8
ALPHA
  0
POLYLINE
  5
8201
100
AcDbEntity
  8
ALPHA
100
AcDb2dPolyline
 66
     1
 10
0.0
 20
0.0
 30
0.0
  0
VERTEX
  5
8202
100
AcDbEntity
  8
ALPHA
100
AcDbVertex
100
AcDb2dVertex
 10
15.173647
 20
112.273048
 30
0.0
 42
1.0
  0
VERTEX
  5
8203
100
AcDbEntity
  8
ALPHA
100
AcDbVertex
100
AcDb2dVertex
 10
6.649792
 20
112.273048
 30
0.0
 42
1.0
  0
VERTEX
  5
8204
100
AcDbEntity
  8
ALPHA
100
AcDbVertex
100
AcDb2dVertex
 10
15.173647
 20
112.273048
 30
0.0
  0
SEQEND
  5
8205
100
AcDbEntity
  8
ALPHA
  0
POLYLINE
  5
8206
100
AcDbEntity
  8
ALPHA
100
AcDb2dPolyline
 66
     1
 10
0.0
 20
0.0
 30
0.0
  0
VERTEX
  5
8207
100
AcDbEntity
  8
ALPHA
100
AcDbVertex
100
AcDb2dVertex
 10
10.074733
 20
113.995423
 30
0.0
 42
1.0
  0
VERTEX
  5
8208
100
AcDbEntity
  8
ALPHA
100
AcDbVertex
100
AcDb2dVertex
 10
8.45106
 20
113.995423
 30
0.0
 42
1.0
  0
VERTEX
  5
8209
100
AcDbEntity
  8
ALPHA
100
AcDbVertex
100
AcDb2dVertex
 10
10.074733
 20
113.995423
 30
0.0
  0
SEQEND
  5
820A
100
AcDbEntity
  8
ALPHA
  0
POLYLINE
  5
820B
100
AcDbEntity
  8
ALPHA
100
AcDb2dPolyline
 66
     1
 10
0.0
 20
0.0
 30
0.0
  0
VERTEX
  5
820C
100
AcDbEntity
  8
ALPHA
100
AcDbVertex
100
AcDb2dVertex
 10
13.445415
 20
113.995423
 30
0.0
 42
1.0
  0
VERTEX
  5
820D
100
AcDbEntity
  8
ALPHA
100
AcDbVertex
100
AcDb2dVertex
 10
11.821741
 20
113.995423
 30
0.0
 42
1.0
  0
VERTEX
  5
820E
100
AcDbEntity
  8
ALPHA
100
AcDbVertex
100
AcDb2dVertex
 10
13.445415
 20
113.995423
 30
0.0
  0
SEQEND
  5
820F
100
AcDbEntity
  8
ALPHA
  0
POLYLINE
  5
8210
100
AcDbEntity
  8
ALPHA
100
AcDb2dPolyline
 66
     1
 10
0.0
 20
0.0
 30
0.0
  0
VERTEX
  5
8211
100
AcDbEntity
  8
ALPHA
100
AcDbVertex
100
AcDb2dVertex
 10
10.074647
 20
110.550586
 30
0.0
 42
1.0
  0
VERTEX
  5
8212
100
AcDbEntity
  8
ALPHA
100
AcDbVertex
100
AcDb2dVertex
 10
8.451146
 20
110.550586
 30
0.0
 42
1.0
  0
VERTEX
  5
8213
100
AcDbEntity
  8
ALPHA
100
AcDbVertex
100
AcDb2dVertex
 10
10.074647
 20
110.550586
 30
0.0
  0
SEQEND
  5
8214
100
AcDbEntity
  8
ALPHA
  0
POLYLINE
  5
8215
100
AcDbEntity
  8
ALPHA
100
AcDb2dPolyline
 66
     1
 10
0.0
 20
0.0
 30
0.0
  0
VERTEX
  5
8216
100
AcDbEntity
  8
ALPHA
100
AcDbVertex
100
AcDb2dVertex
 10
11.722953
 20
112.272961
 30
0.0
 42
1.0
  0
VERTEX
  5
8217
100
AcDbEntity
  8
ALPHA
100
AcDbVertex
100
AcDb2dVertex
 10
10.100485
 20
112.272961
 30
0.0
 42
1.0
  0
VERTEX
  5
8218
100
AcDbEntity
  8
ALPHA
100
AcDbVertex
100
AcDb2dVertex
 10
11.722953
 20
112.272961
 30
0.0
  0
SEQEND
  5
8219
100
AcDbEntity
  8
ALPHA
  0
POLYLINE
  5
821A
100
AcDbEntity
  8
ALPHA
100
AcDb2dPolyline
 66
     1
 10
0.0
 20
0.0
 30
0.0
  0
VERTEX
  5
821B
100
AcDbEntity
  8
ALPHA
100
AcDbVertex
100
AcDb2dVertex
 10
13.445329
 20
110.550586
 30
0.0
 42
1.0
  0
VERTEX
  5
821C
100
AcDbEntity
  8
ALPHA
100
AcDbVertex
100
AcDb2dVertex
 10
11.821827
 20
110.550586
 30
0.0
 42
1.0
  0
VERTEX
  5
821D
100
AcDbEntity
  8
ALPHA
100
AcDbVertex
100
AcDb2dVertex
 10
13.445329
 20
110.550586
 30
0.0
  0
SEQEND
  5
821E
100
AcDbEntity
  8
ALPHA
  0
POLYLINE
  5
821F
100
AcDbEntity
  8
ALPHA
100
AcDb2dPolyline
 66
     1
 10
0.0
 20
0.0
 30
0.0
  0
VERTEX
  5
8220
100
AcDbEntity
  8
ALPHA
100
AcDbVertex
100
AcDb2dVertex
 10
21.507369
 20
116.721441
 30
0.0
 42
1.0
  0
VERTEX
  5
8221
100
AcDbEntity
  8
ALPHA
100
AcDbVertex
100
AcDb2dVertex
 10
17.753076
 20
116.721441
 30
0.0
 42
1.0
  0
VERTEX
  5
8222
100
AcDbEntity
  8
ALPHA
100
AcDbVertex
100
AcDb2dVertex
 10
21.507369
 20
116.721441
 30
0.0
  0
SEQEND
  5
8223
100
AcDbEntity
  8
ALPHA
  0
POLYLINE
  5
8224
100
AcDbEntity
  8
ALPHA
100
AcDb2dPolyline
 66
     1
 10
0.0
 20
0.0
 30
0.0
  0
VERTEX
  5
8225
100
AcDbEntity
  8
ALPHA
100
AcDbVertex
100
AcDb2dVertex
 10
21.507369
 20
107.788997
 30
0.0
 42
1.0
  0
VERTEX
  5
8226
100
AcDbEntity
  8
ALPHA
100
AcDbVertex
100
AcDb2dVertex
 10
17.753076
 20
107.788997
 30
0.0
 42
1.0
  0
VERTEX
  5
8227
100
AcDbEntity
  8
ALPHA
100
AcDbVertex
100
AcDb2dVertex
 10
21.507369
 20
107.788997
 30
0.0
  0
SEQEND
  5
8228
100
AcDbEntity
  8
ALPHA
  0
POLYLINE
  5
8229
100
AcDbEntity
  8
ALPHA
100
AcDb2dPolyline
 66
     1
 10
0.0
 20
0.0
 30
0.0
  0
VERTEX
  5
822A
100
AcDbEntity
  8
ALPHA
100
AcDbVertex
100
AcDb2dVertex
 10
46.773355
 20
112.272961
 30
0.0
 42
1.0
  0
VERTEX
  5
822B
100
AcDbEntity
  8
ALPHA
100
AcDbVertex
100
AcDb2dVertex
 10
32.162188
 20
112.272961
 30
0.0
 42
1.0
  0
VERTEX
  5
822C
100
AcDbEntity
  8
ALPHA
100
AcDbVertex
100
AcDb2dVertex
 10
46.773355
 20
112.272961
 30
0.0
  0
SEQEND
  5
822D
100
AcDbEntity
  8
ALPHA
  0
POLYLINE
  5
822E
100
AcDbEntity
  8
ALPHA
100
AcDb2dPolyline
 66
     1
 10
0.0
 20
0.0
 30
0.0
  0
VERTEX
  5
822F
100
AcDbEntity
  8
ALPHA
100
AcDbVertex
100
AcDb2dVertex
 10
45.758602
 20
112.273478
 30
0.0
 42
1.0
  0
VERTEX
  5
8230
100
AcDbEntity
  8
ALPHA
100
AcDbVertex
100
AcDb2dVertex
 10
33.176941
 20
112.273478
 30
0.0
 42
1.0
  0
VERTEX
  5
8231
100
AcDbEntity
  8
ALPHA
100
AcDbVertex
100
AcDb2dVertex
 10
45.758602
 20
112.273478
 30
0.0
  0
SEQEND
  5
8232
100
AcDbEntity
  8
ALPHA
  0
POLYLINE
  5
8233
100
AcDbEntity
  8
ALPHA
100
AcDb2dPolyline
 66
     1
 10
0.0
 20
0.0
 30
0.0
  0
VERTEX
  5
8234
100
AcDbEntity
  8
ALPHA
100
AcDbVertex
100
AcDb2dVertex
 10
45.149853
 20
112.272961
 30
0.0
 42
1.0
  0
VERTEX
  5
8235
100
AcDbEntity
  8
ALPHA
100
AcDbVertex
100
AcDb2dVertex
 10
33.785689
 20
112.272961
 30
0.0
 42
1.0
  0
VERTEX
  5
8236
100
AcDbEntity
  8
ALPHA
100
AcDbVertex
100
AcDb2dVertex
 10
45.149853
 20
112.272961
 30
0.0
  0
SEQEND
  5
8237
100
AcDbEntity
  8
ALPHA
  0
POLYLINE
  5
8238
100
AcDbEntity
  8
ALPHA
100
AcDb2dPolyline
 66
     1
 10
0.0
 20
0.0
 30
0.0
  0
VERTEX
  5
8239
100
AcDbEntity
  8
ALPHA
100
AcDbVertex
100
AcDb2dVertex
 10
43.729699
 20
112.273048
 30
0.0
 42
1.0
  0
VERTEX
  5
823A
100
AcDbEntity
  8
ALPHA
100
AcDbVertex
100
AcDb2dVertex
 10
35.205844
 20
112.273048
 30
0.0
 42
1.0
  0
VERTEX
  5
823B
100
AcDbEntity
  8
ALPHA
100
AcDbVertex
100
AcDb2dVertex
 10
43.729699
 20
112.273048
 30
0.0
  0
SEQEND
  5
823C
100
AcDbEntity
  8
ALPHA
  0
POLYLINE
  5
823D
100
AcDbEntity
  8
ALPHA
100
AcDb2dPolyline
 66
     1
 10
0.0
 20
0.0
 30
0.0
  0
VERTEX
  5
823E
100
AcDbEntity
  8
ALPHA
100
AcDbVertex
100
AcDb2dVertex
 10
41.929809
 20
113.995423
 30
0.0
 42
1.0
  0
VERTEX
  5
823F
100
AcDbEntity
  8
ALPHA
100
AcDbVertex
100
AcDb2dVertex
 10
40.306135
 20
113.995423
 30
0.0
 42
1.0
  0
VERTEX
  5
8240
100
AcDbEntity
  8
ALPHA
100
AcDbVertex
100
AcDb2dVertex
 10
41.929809
 20
113.995423
 30
0.0
  0
SEQEND
  5
8241
100
AcDbEntity
  8
ALPHA
  0
POLYLINE
  5
8242
100
AcDbEntity
  8
ALPHA
100
AcDb2dPolyline
 66
     1
 10
0.0
 20
0.0
 30
0.0
  0
VERTEX
  5
8243
100
AcDbEntity
  8
ALPHA
100
AcDbVertex
100
AcDb2dVertex
 10
38.55706
 20
113.995423
 30
0.0
 42
1.0
  0
VERTEX
  5
8244
100
AcDbEntity
  8
ALPHA
100
AcDbVertex
100
AcDb2dVertex
 10
36.933387
 20
113.995423
 30
0.0
 42
1.0
  0
VERTEX
  5
8245
100
AcDbEntity
  8
ALPHA
100
AcDbVertex
100
AcDb2dVertex
 10
38.55706
 20
113.995423
 30
0.0
  0
SEQEND
  5
8246
100
AcDbEntity
  8
ALPHA
  0
POLYLINE
  5
8247
100
AcDbEntity
  8
ALPHA
100
AcDb2dPolyline
 66
     1
 10
0.0
 20
0.0
 30
0.0
  0
VERTEX
  5
8248
100
AcDbEntity
  8
ALPHA
100
AcDbVertex
100
AcDb2dVertex
 10
41.929723
 20
110.550586
 30
0.0
 42
1.0
  0
VERTEX
  5
8249
100
AcDbEntity
  8
ALPHA
100
AcDbVertex
100
AcDb2dVertex
 10
40.306221
 20
110.550586
 30
0.0
 42
1.0
  0
VERTEX
  5
824A
100
AcDbEntity
  8
ALPHA
100
AcDbVertex
100
AcDb2dVertex
 10
41.929723
 20
110.550586
 30
0.0
  0
SEQEND
  5
824B
100
AcDbEntity
  8
ALPHA
  0
POLYLINE
  5
824C
100
AcDbEntity
  8
ALPHA
100
AcDb2dPolyline
 66
     1
 10
0.0
 20
0.0
 30
0.0
  0
VERTEX
  5
824D
100
AcDbEntity
  8
ALPHA
100
AcDbVertex
100
AcDb2dVertex
 10
40.279005
 20
112.272961
 30
0.0
 42
1.0
  0
VERTEX
  5
824E
100
AcDbEntity
  8
ALPHA
100
AcDbVertex
100
AcDb2dVertex
 10
38.656537
 20
112.272961
 30
0.0
 42
1.0
  0
VERTEX
  5
824F
100
AcDbEntity
  8
ALPHA
100
AcDbVertex
100
AcDb2dVertex
 10
40.279005
 20
112.272961
 30
0.0
  0
SEQEND
  5
8250
100
AcDbEntity
  8
ALPHA
  0
POLYLINE
  5
8251
100
AcDbEntity
  8
ALPHA
100
AcDb2dPolyline
 66
     1
 10
0.0
 20
0.0
 30
0.0
  0
VERTEX
  5
8252
100
AcDbEntity
  8
ALPHA
100
AcDbVertex
100
AcDb2dVertex
 10
38.556974
 20
110.550586
 30
0.0
 42
1.0
  0
VERTEX
  5
8253
100
AcDbEntity
  8
ALPHA
100
AcDbVertex
100
AcDb2dVertex
 10
36.933473
 20
110.550586
 30
0.0
 42
1.0
  0
VERTEX
  5
8254
100
AcDbEntity
  8
ALPHA
100
AcDbVertex
100
AcDb2dVertex
 10
38.556974
 20
110.550586
 30
0.0
  0
SEQEND
  5
8255
100
AcDbEntity
  8
ALPHA
  0
POLYLINE
  5
8256
100
AcDbEntity
  8
ALPHA
100
AcDb2dPolyline
 66
     1
 10
0.0
 20
0.0
 30
0.0
  0
VERTEX
  5
8257
100
AcDbEntity
  8
ALPHA
100
AcDbVertex
100
AcDb2dVertex
 10
32.626931
 20
116.721441
 30
0.0
 42
1.0
  0
VERTEX
  5
8258
100
AcDbEntity
  8
ALPHA
100
AcDbVertex
100
AcDb2dVertex
 10
28.872638
 20
116.721441
 30
0.0
 42
1.0
  0
VERTEX
  5
8259
100
AcDbEntity
  8
ALPHA
100
AcDbVertex
100
AcDb2dVertex
 10
32.626931
 20
116.721441
 30
0.0
  0
SEQEND
  5
825A
100
AcDbEntity
  8
ALPHA
  0
POLYLINE
  5
825B
100
AcDbEntity
  8
ALPHA
100
AcDb2dPolyline
 66
     1
 10
0.0
 20
0.0
 30
0.0
  0
VERTEX
  5
825C
100
AcDbEntity
  8
ALPHA
100
AcDbVertex
100
AcDb2dVertex
 10
32.626931
 20
107.788997
 30
0.0
 42
1.0
  0
VERTEX
  5
825D
100
AcDbEntity
  8
ALPHA
100
AcDbVertex
100
AcDb2dVertex
 10
28.872638
 20
107.788997
 30
0.0
 42
1.0
  0
VERTEX
  5
825E
100
AcDbEntity
  8
ALPHA
100
AcDbVertex
100
AcDb2dVertex
 10
32.626931
 20
107.788997
 30
0.0
  0
SEQEND
  5
825F
100
AcDbEntity
  8
ALPHA
  0
POLYLINE
  5
8260
100
AcDbEntity
  8
ALPHA
100
AcDb2dPolyline
 66
     1
 10
0.0
 20
0.0
 30
0.0
  0
VERTEX
  5
8261
100
AcDbEntity
  8
ALPHA
100
AcDbVertex
100
AcDb2dVertex
 10
18.217475
 20
88.094765
 30
0.0
 42
1.0
  0
VERTEX
  5
8262
100
AcDbEntity
  8
ALPHA
100
AcDbVertex
100
AcDb2dVertex
 10
3.605964
 20
88.094765
 30
0.0
 42
1.0
  0
VERTEX
  5
8263
100
AcDbEntity
  8
ALPHA
100
AcDbVertex
100
AcDb2dVertex
 10
18.217475
 20
88.094765
 30
0.0
  0
SEQEND
  5
8264
100
AcDbEntity
  8
ALPHA
  0
POLYLINE
  5
8265
100
AcDbEntity
  8
ALPHA
100
AcDb2dPolyline
 66
     1
 10
0.0
 20
0.0
 30
0.0
  0
VERTEX
  5
8266
100
AcDbEntity
  8
ALPHA
100
AcDbVertex
100
AcDb2dVertex
 10
17.202808
 20
88.095195
 30
0.0
 42
1.0
  0
VERTEX
  5
8267
100
AcDbEntity
  8
ALPHA
100
AcDbVertex
100
AcDb2dVertex
 10
4.62063
 20
88.095195
 30
0.0
 42
1.0
  0
VERTEX
  5
8268
100
AcDbEntity
  8
ALPHA
100
AcDbVertex
100
AcDb2dVertex
 10
17.202808
 20
88.095195
 30
0.0
  0
SEQEND
  5
8269
100
AcDbEntity
  8
ALPHA
  0
POLYLINE
  5
826A
100
AcDbEntity
  8
ALPHA
100
AcDb2dPolyline
 66
     1
 10
0.0
 20
0.0
 30
0.0
  0
VERTEX
  5
826B
100
AcDbEntity
  8
ALPHA
100
AcDbVertex
100
AcDb2dVertex
 10
16.593457
 20
88.094765
 30
0.0
 42
1.0
  0
VERTEX
  5
826C
100
AcDbEntity
  8
ALPHA
100
AcDbVertex
100
AcDb2dVertex
 10
5.229982
 20
88.094765
 30
0.0
 42
1.0
  0
VERTEX
  5
826D
100
AcDbEntity
  8
ALPHA
100
AcDbVertex
100
AcDb2dVertex
 10
16.593457
 20
88.094765
 30
0.0
  0
SEQEND
  5
826E
100
AcDbEntity
  8
ALPHA
  0
POLYLINE
  5
826F
100
AcDbEntity
  8
ALPHA
100
AcDb2dPolyline
 66
     1
 10
0.0
 20
0.0
 30
0.0
  0
VERTEX
  5
8270
100
AcDbEntity
  8
ALPHA
100
AcDbVertex
100
AcDb2dVertex
 10
15.172613
 20
88.094334
 30
0.0
 42
1.0
  0
VERTEX
  5
8271
100
AcDbEntity
  8
ALPHA
100
AcDbVertex
100
AcDb2dVertex
 10
6.650825
 20
88.094334
 30
0.0
 42
1.0
  0
VERTEX
  5
8272
100
AcDbEntity
  8
ALPHA
100
AcDbVertex
100
AcDb2dVertex
 10
15.172613
 20
88.094334
 30
0.0
  0
SEQEND
  5
8273
100
AcDbEntity
  8
ALPHA
  0
POLYLINE
  5
8274
100
AcDbEntity
  8
ALPHA
100
AcDb2dPolyline
 66
     1
 10
0.0
 20
0.0
 30
0.0
  0
VERTEX
  5
8275
100
AcDbEntity
  8
ALPHA
100
AcDbVertex
100
AcDb2dVertex
 10
10.074906
 20
89.817226
 30
0.0
 42
1.0
  0
VERTEX
  5
8276
100
AcDbEntity
  8
ALPHA
100
AcDbVertex
100
AcDb2dVertex
 10
8.450887
 20
89.817226
 30
0.0
 42
1.0
  0
VERTEX
  5
8277
100
AcDbEntity
  8
ALPHA
100
AcDbVertex
100
AcDb2dVertex
 10
10.074906
 20
89.817226
 30
0.0
  0
SEQEND
  5
8278
100
AcDbEntity
  8
ALPHA
  0
POLYLINE
  5
8279
100
AcDbEntity
  8
ALPHA
100
AcDb2dPolyline
 66
     1
 10
0.0
 20
0.0
 30
0.0
  0
VERTEX
  5
827A
100
AcDbEntity
  8
ALPHA
100
AcDbVertex
100
AcDb2dVertex
 10
13.445587
 20
89.817226
 30
0.0
 42
1.0
  0
VERTEX
  5
827B
100
AcDbEntity
  8
ALPHA
100
AcDbVertex
100
AcDb2dVertex
 10
11.821569
 20
89.817226
 30
0.0
 42
1.0
  0
VERTEX
  5
827C
100
AcDbEntity
  8
ALPHA
100
AcDbVertex
100
AcDb2dVertex
 10
13.445587
 20
89.817226
 30
0.0
  0
SEQEND
  5
827D
100
AcDbEntity
  8
ALPHA
  0
POLYLINE
  5
827E
100
AcDbEntity
  8
ALPHA
100
AcDb2dPolyline
 66
     1
 10
0.0
 20
0.0
 30
0.0
  0
VERTEX
  5
827F
100
AcDbEntity
  8
ALPHA
100
AcDbVertex
100
AcDb2dVertex
 10
10.074906
 20
86.372475
 30
0.0
 42
1.0
  0
VERTEX
  5
8280
100
AcDbEntity
  8
ALPHA
100
AcDbVertex
100
AcDb2dVertex
 10
8.450887
 20
86.372475
 30
0.0
 42
1.0
  0
VERTEX
  5
8281
100
AcDbEntity
  8
ALPHA
100
AcDbVertex
100
AcDb2dVertex
 10
10.074906
 20
86.372475
 30
0.0
  0
SEQEND
  5
8282
100
AcDbEntity
  8
ALPHA
  0
POLYLINE
  5
8283
100
AcDbEntity
  8
ALPHA
100
AcDb2dPolyline
 66
     1
 10
0.0
 20
0.0
 30
0.0
  0
VERTEX
  5
8284
100
AcDbEntity
  8
ALPHA
100
AcDbVertex
100
AcDb2dVertex
 10
11.724159
 20
88.094765
 30
0.0
 42
1.0
  0
VERTEX
  5
8285
100
AcDbEntity
  8
ALPHA
100
AcDbVertex
100
AcDb2dVertex
 10
10.09928
 20
88.094765
 30
0.0
 42
1.0
  0
VERTEX
  5
8286
100
AcDbEntity
  8
ALPHA
100
AcDbVertex
100
AcDb2dVertex
 10
11.724159
 20
88.094765
 30
0.0
  0
SEQEND
  5
8287
100
AcDbEntity
  8
ALPHA
  0
POLYLINE
  5
8288
100
AcDbEntity
  8
ALPHA
100
AcDb2dPolyline
 66
     1
 10
0.0
 20
0.0
 30
0.0
  0
VERTEX
  5
8289
100
AcDbEntity
  8
ALPHA
100
AcDbVertex
100
AcDb2dVertex
 10
13.445587
 20
86.372475
 30
0.0
 42
1.0
  0
VERTEX
  5
828A
100
AcDbEntity
  8
ALPHA
100
AcDbVertex
100
AcDb2dVertex
 10
11.821569
 20
86.372475
 30
0.0
 42
1.0
  0
VERTEX
  5
828B
100
AcDbEntity
  8
ALPHA
100
AcDbVertex
100
AcDb2dVertex
 10
13.445587
 20
86.372475
 30
0.0
  0
SEQEND
  5
828C
100
AcDbEntity
  8
ALPHA
  0
POLYLINE
  5
828D
100
AcDbEntity
  8
ALPHA
100
AcDb2dPolyline
 66
     1
 10
0.0
 20
0.0
 30
0.0
  0
VERTEX
  5
828E
100
AcDbEntity
  8
ALPHA
100
AcDbVertex
100
AcDb2dVertex
 10
21.507713
 20
92.542383
 30
0.0
 42
1.0
  0
VERTEX
  5
828F
100
AcDbEntity
  8
ALPHA
100
AcDbVertex
100
AcDb2dVertex
 10
17.752731
 20
92.542383
 30
0.0
 42
1.0
  0
VERTEX
  5
8290
100
AcDbEntity
  8
ALPHA
100
AcDbVertex
100
AcDb2dVertex
 10
21.507713
 20
92.542383
 30
0.0
  0
SEQEND
  5
8291
100
AcDbEntity
  8
ALPHA
  0
POLYLINE
  5
8292
100
AcDbEntity
  8
ALPHA
100
AcDb2dPolyline
 66
     1
 10
0.0
 20
0.0
 30
0.0
  0
VERTEX
  5
8293
100
AcDbEntity
  8
ALPHA
100
AcDbVertex
100
AcDb2dVertex
 10
21.507369
 20
83.611145
 30
0.0
 42
1.0
  0
VERTEX
  5
8294
100
AcDbEntity
  8
ALPHA
100
AcDbVertex
100
AcDb2dVertex
 10
17.753076
 20
83.611145
 30
0.0
 42
1.0
  0
VERTEX
  5
8295
100
AcDbEntity
  8
ALPHA
100
AcDbVertex
100
AcDb2dVertex
 10
21.507369
 20
83.611145
 30
0.0
  0
SEQEND
  5
8296
100
AcDbEntity
  8
ALPHA
  0
POLYLINE
  5
8297
100
AcDbEntity
  8
ALPHA
100
AcDb2dPolyline
 66
     1
 10
0.0
 20
0.0
 30
0.0
  0
VERTEX
  5
8298
100
AcDbEntity
  8
ALPHA
100
AcDbVertex
100
AcDb2dVertex
 10
46.773527
 20
88.094765
 30
0.0
 42
1.0
  0
VERTEX
  5
8299
100
AcDbEntity
  8
ALPHA
100
AcDbVertex
100
AcDb2dVertex
 10
32.162016
 20
88.094765
 30
0.0
 42
1.0
  0
VERTEX
  5
829A
100
AcDbEntity
  8
ALPHA
100
AcDbVertex
100
AcDb2dVertex
 10
46.773527
 20
88.094765
 30
0.0
  0
SEQEND
  5
829B
100
AcDbEntity
  8
ALPHA
  0
POLYLINE
  5
829C
100
AcDbEntity
  8
ALPHA
100
AcDb2dPolyline
 66
     1
 10
0.0
 20
0.0
 30
0.0
  0
VERTEX
  5
829D
100
AcDbEntity
  8
ALPHA
100
AcDbVertex
100
AcDb2dVertex
 10
45.75886
 20
88.095195
 30
0.0
 42
1.0
  0
VERTEX
  5
829E
100
AcDbEntity
  8
ALPHA
100
AcDbVertex
100
AcDb2dVertex
 10
33.176682
 20
88.095195
 30
0.0
 42
1.0
  0
VERTEX
  5
829F
100
AcDbEntity
  8
ALPHA
100
AcDbVertex
100
AcDb2dVertex
 10
45.75886
 20
88.095195
 30
0.0
  0
SEQEND
  5
82A0
100
AcDbEntity
  8
ALPHA
  0
POLYLINE
  5
82A1
100
AcDbEntity
  8
ALPHA
100
AcDb2dPolyline
 66
     1
 10
0.0
 20
0.0
 30
0.0
  0
VERTEX
  5
82A2
100
AcDbEntity
  8
ALPHA
100
AcDbVertex
100
AcDb2dVertex
 10
45.149509
 20
88.094765
 30
0.0
 42
1.0
  0
VERTEX
  5
82A3
100
AcDbEntity
  8
ALPHA
100
AcDbVertex
100
AcDb2dVertex
 10
33.786034
 20
88.094765
 30
0.0
 42
1.0
  0
VERTEX
  5
82A4
100
AcDbEntity
  8
ALPHA
100
AcDbVertex
100
AcDb2dVertex
 10
45.149509
 20
88.094765
 30
0.0
  0
SEQEND
  5
82A5
100
AcDbEntity
  8
ALPHA
  0
POLYLINE
  5
82A6
100
AcDbEntity
  8
ALPHA
100
AcDb2dPolyline
 66
     1
 10
0.0
 20
0.0
 30
0.0
  0
VERTEX
  5
82A7
100
AcDbEntity
  8
ALPHA
100
AcDbVertex
100
AcDb2dVertex
 10
43.728665
 20
88.094334
 30
0.0
 42
1.0
  0
VERTEX
  5
82A8
100
AcDbEntity
  8
ALPHA
100
AcDbVertex
100
AcDb2dVertex
 10
35.206877
 20
88.094334
 30
0.0
 42
1.0
  0
VERTEX
  5
82A9
100
AcDbEntity
  8
ALPHA
100
AcDbVertex
100
AcDb2dVertex
 10
43.728665
 20
88.094334
 30
0.0
  0
SEQEND
  5
82AA
100
AcDbEntity
  8
ALPHA
  0
POLYLINE
  5
82AB
100
AcDbEntity
  8
ALPHA
100
AcDb2dPolyline
 66
     1
 10
0.0
 20
0.0
 30
0.0
  0
VERTEX
  5
82AC
100
AcDbEntity
  8
ALPHA
100
AcDbVertex
100
AcDb2dVertex
 10
41.929981
 20
89.817226
 30
0.0
 42
1.0
  0
VERTEX
  5
82AD
100
AcDbEntity
  8
ALPHA
100
AcDbVertex
100
AcDb2dVertex
 10
40.305963
 20
89.817226
 30
0.0
 42
1.0
  0
VERTEX
  5
82AE
100
AcDbEntity
  8
ALPHA
100
AcDbVertex
100
AcDb2dVertex
 10
41.929981
 20
89.817226
 30
0.0
  0
SEQEND
  5
82AF
100
AcDbEntity
  8
ALPHA
  0
POLYLINE
  5
82B0
100
AcDbEntity
  8
ALPHA
100
AcDb2dPolyline
 66
     1
 10
0.0
 20
0.0
 30
0.0
  0
VERTEX
  5
82B1
100
AcDbEntity
  8
ALPHA
100
AcDbVertex
100
AcDb2dVertex
 10
38.557232
 20
89.817226
 30
0.0
 42
1.0
  0
VERTEX
  5
82B2
100
AcDbEntity
  8
ALPHA
100
AcDbVertex
100
AcDb2dVertex
 10
36.933214
 20
89.817226
 30
0.0
 42
1.0
  0
VERTEX
  5
82B3
100
AcDbEntity
  8
ALPHA
100
AcDbVertex
100
AcDb2dVertex
 10
38.557232
 20
89.817226
 30
0.0
  0
SEQEND
  5
82B4
100
AcDbEntity
  8
ALPHA
  0
POLYLINE
  5
82B5
100
AcDbEntity
  8
ALPHA
100
AcDb2dPolyline
 66
     1
 10
0.0
 20
0.0
 30
0.0
  0
VERTEX
  5
82B6
100
AcDbEntity
  8
ALPHA
100
AcDbVertex
100
AcDb2dVertex
 10
41.929981
 20
86.372475
 30
0.0
 42
1.0
  0
VERTEX
  5
82B7
100
AcDbEntity
  8
ALPHA
100
AcDbVertex
100
AcDb2dVertex
 10
40.305963
 20
86.372475
 30
0.0
 42
1.0
  0
VERTEX
  5
82B8
100
AcDbEntity
  8
ALPHA
100
AcDbVertex
100
AcDb2dVertex
 10
41.929981
 20
86.372475
 30
0.0
  0
SEQEND
  5
82B9
100
AcDbEntity
  8
ALPHA
  0
POLYLINE
  5
82BA
100
AcDbEntity
  8
ALPHA
100
AcDb2dPolyline
 66
     1
 10
0.0
 20
0.0
 30
0.0
  0
VERTEX
  5
82BB
100
AcDbEntity
  8
ALPHA
100
AcDbVertex
100
AcDb2dVertex
 10
40.280211
 20
88.094765
 30
0.0
 42
1.0
  0
VERTEX
  5
82BC
100
AcDbEntity
  8
ALPHA
100
AcDbVertex
100
AcDb2dVertex
 10
38.655332
 20
88.094765
 30
0.0
 42
1.0
  0
VERTEX
  5
82BD
100
AcDbEntity
  8
ALPHA
100
AcDbVertex
100
AcDb2dVertex
 10
40.280211
 20
88.094765
 30
0.0
  0
SEQEND
  5
82BE
100
AcDbEntity
  8
ALPHA
  0
POLYLINE
  5
82BF
100
AcDbEntity
  8
ALPHA
100
AcDb2dPolyline
 66
     1
 10
0.0
 20
0.0
 30
0.0
  0
VERTEX
  5
82C0
100
AcDbEntity
  8
ALPHA
100
AcDbVertex
100
AcDb2dVertex
 10
38.557232
 20
86.372475
 30
0.0
 42
1.0
  0
VERTEX
  5
82C1
100
AcDbEntity
  8
ALPHA
100
AcDbVertex
100
AcDb2dVertex
 10
36.933214
 20
86.372475
 30
0.0
 42
1.0
  0
VERTEX
  5
82C2
100
AcDbEntity
  8
ALPHA
100
AcDbVertex
100
AcDb2dVertex
 10
38.557232
 20
86.372475
 30
0.0
  0
SEQEND
  5
82C3
100
AcDbEntity
  8
ALPHA
  0
POLYLINE
  5
82C4
100
AcDbEntity
  8
ALPHA
100
AcDb2dPolyline
 66
     1
 10
0.0
 20
0.0
 30
0.0
  0
VERTEX
  5
82C5
100
AcDbEntity
  8
ALPHA
100
AcDbVertex
100
AcDb2dVertex
 10
32.627276
 20
92.542383
 30
0.0
 42
1.0
  0
VERTEX
  5
82C6
100
AcDbEntity
  8
ALPHA
100
AcDbVertex
100
AcDb2dVertex
 10
28.872294
 20
92.542383
 30
0.0
 42
1.0
  0
VERTEX
  5
82C7
100
AcDbEntity
  8
ALPHA
100
AcDbVertex
100
AcDb2dVertex
 10
32.627276
 20
92.542383
 30
0.0
  0
SEQEND
  5
82C8
100
AcDbEntity
  8
ALPHA
  0
POLYLINE
  5
82C9
100
AcDbEntity
  8
ALPHA
100
AcDb2dPolyline
 66
     1
 10
0.0
 20
0.0
 30
0.0
  0
VERTEX
  5
82CA
100
AcDbEntity
  8
ALPHA
100
AcDbVertex
100
AcDb2dVertex
 10
32.626931
 20
83.611145
 30
0.0
 42
1.0
  0
VERTEX
  5
82CB
100
AcDbEntity
  8
ALPHA
100
AcDbVertex
100
AcDb2dVertex
 10
28.872638
 20
83.611145
 30
0.0
 42
1.0
  0
VERTEX
  5
82CC
100
AcDbEntity
  8
ALPHA
100
AcDbVertex
100
AcDb2dVertex
 10
32.626931
 20
83.611145
 30
0.0
  0
SEQEND
  5
82CD
100
AcDbEntity
  8
ALPHA
  0
POLYLINE
  5
82CE
100
AcDbEntity
  8
ALPHA
100
AcDb2dPolyline
 66
     1
 10
0.0
 20
0.0
 30
0.0
  0
VERTEX
  5
82CF
100
AcDbEntity
  8
ALPHA
100
AcDbVertex
100
AcDb2dVertex
 10
18.217044
 20
63.916309
 30
0.0
 42
1.0
  0
VERTEX
  5
82D0
100
AcDbEntity
  8
ALPHA
100
AcDbVertex
100
AcDb2dVertex
 10
3.606394
 20
63.916309
 30
0.0
 42
1.0
  0
VERTEX
  5
82D1
100
AcDbEntity
  8
ALPHA
100
AcDbVertex
100
AcDb2dVertex
 10
18.217044
 20
63.916309
 30
0.0
  0
SEQEND
  5
82D2
100
AcDbEntity
  8
ALPHA
  0
POLYLINE
  5
82D3
100
AcDbEntity
  8
ALPHA
100
AcDb2dPolyline
 66
     1
 10
0.0
 20
0.0
 30
0.0
  0
VERTEX
  5
82D4
100
AcDbEntity
  8
ALPHA
100
AcDbVertex
100
AcDb2dVertex
 10
17.201861
 20
63.916223
 30
0.0
 42
1.0
  0
VERTEX
  5
82D5
100
AcDbEntity
  8
ALPHA
100
AcDbVertex
100
AcDb2dVertex
 10
4.621578
 20
63.916223
 30
0.0
 42
1.0
  0
VERTEX
  5
82D6
100
AcDbEntity
  8
ALPHA
100
AcDbVertex
100
AcDb2dVertex
 10
17.201861
 20
63.916223
 30
0.0
  0
SEQEND
  5
82D7
100
AcDbEntity
  8
ALPHA
  0
POLYLINE
  5
82D8
100
AcDbEntity
  8
ALPHA
100
AcDb2dPolyline
 66
     1
 10
0.0
 20
0.0
 30
0.0
  0
VERTEX
  5
82D9
100
AcDbEntity
  8
ALPHA
100
AcDbVertex
100
AcDb2dVertex
 10
16.593887
 20
63.916309
 30
0.0
 42
1.0
  0
VERTEX
  5
82DA
100
AcDbEntity
  8
ALPHA
100
AcDbVertex
100
AcDb2dVertex
 10
5.229551
 20
63.916309
 30
0.0
 42
1.0
  0
VERTEX
  5
82DB
100
AcDbEntity
  8
ALPHA
100
AcDbVertex
100
AcDb2dVertex
 10
16.593887
 20
63.916309
 30
0.0
  0
SEQEND
  5
82DC
100
AcDbEntity
  8
ALPHA
  0
POLYLINE
  5
82DD
100
AcDbEntity
  8
ALPHA
100
AcDb2dPolyline
 66
     1
 10
0.0
 20
0.0
 30
0.0
  0
VERTEX
  5
82DE
100
AcDbEntity
  8
ALPHA
100
AcDbVertex
100
AcDb2dVertex
 10
15.173044
 20
63.91674
 30
0.0
 42
1.0
  0
VERTEX
  5
82DF
100
AcDbEntity
  8
ALPHA
100
AcDbVertex
100
AcDb2dVertex
 10
6.650394
 20
63.91674
 30
0.0
 42
1.0
  0
VERTEX
  5
82E0
100
AcDbEntity
  8
ALPHA
100
AcDbVertex
100
AcDb2dVertex
 10
15.173044
 20
63.91674
 30
0.0
  0
SEQEND
  5
82E1
100
AcDbEntity
  8
ALPHA
  0
POLYLINE
  5
82E2
100
AcDbEntity
  8
ALPHA
100
AcDb2dPolyline
 66
     1
 10
0.0
 20
0.0
 30
0.0
  0
VERTEX
  5
82E3
100
AcDbEntity
  8
ALPHA
100
AcDbVertex
100
AcDb2dVertex
 10
10.074389
 20
65.638685
 30
0.0
 42
1.0
  0
VERTEX
  5
82E4
100
AcDbEntity
  8
ALPHA
100
AcDbVertex
100
AcDb2dVertex
 10
8.451404
 20
65.638685
 30
0.0
 42
1.0
  0
VERTEX
  5
82E5
100
AcDbEntity
  8
ALPHA
100
AcDbVertex
100
AcDb2dVertex
 10
10.074389
 20
65.638685
 30
0.0
  0
SEQEND
  5
82E6
100
AcDbEntity
  8
ALPHA
  0
POLYLINE
  5
82E7
100
AcDbEntity
  8
ALPHA
100
AcDb2dPolyline
 66
     1
 10
0.0
 20
0.0
 30
0.0
  0
VERTEX
  5
82E8
100
AcDbEntity
  8
ALPHA
100
AcDbVertex
100
AcDb2dVertex
 10
13.44507
 20
65.638685
 30
0.0
 42
1.0
  0
VERTEX
  5
82E9
100
AcDbEntity
  8
ALPHA
100
AcDbVertex
100
AcDb2dVertex
 10
11.822086
 20
65.638685
 30
0.0
 42
1.0
  0
VERTEX
  5
82EA
100
AcDbEntity
  8
ALPHA
100
AcDbVertex
100
AcDb2dVertex
 10
13.44507
 20
65.638685
 30
0.0
  0
SEQEND
  5
82EB
100
AcDbEntity
  8
ALPHA
  0
POLYLINE
  5
82EC
100
AcDbEntity
  8
ALPHA
100
AcDb2dPolyline
 66
     1
 10
0.0
 20
0.0
 30
0.0
  0
VERTEX
  5
82ED
100
AcDbEntity
  8
ALPHA
100
AcDbVertex
100
AcDb2dVertex
 10
10.074906
 20
62.194278
 30
0.0
 42
1.0
  0
VERTEX
  5
82EE
100
AcDbEntity
  8
ALPHA
100
AcDbVertex
100
AcDb2dVertex
 10
8.450887
 20
62.194278
 30
0.0
 42
1.0
  0
VERTEX
  5
82EF
100
AcDbEntity
  8
ALPHA
100
AcDbVertex
100
AcDb2dVertex
 10
10.074906
 20
62.194278
 30
0.0
  0
SEQEND
  5
82F0
100
AcDbEntity
  8
ALPHA
  0
POLYLINE
  5
82F1
100
AcDbEntity
  8
ALPHA
100
AcDb2dPolyline
 66
     1
 10
0.0
 20
0.0
 30
0.0
  0
VERTEX
  5
82F2
100
AcDbEntity
  8
ALPHA
100
AcDbVertex
100
AcDb2dVertex
 10
11.723814
 20
63.916223
 30
0.0
 42
1.0
  0
VERTEX
  5
82F3
100
AcDbEntity
  8
ALPHA
100
AcDbVertex
100
AcDb2dVertex
 10
10.099624
 20
63.916223
 30
0.0
 42
1.0
  0
VERTEX
  5
82F4
100
AcDbEntity
  8
ALPHA
100
AcDbVertex
100
AcDb2dVertex
 10
11.723814
 20
63.916223
 30
0.0
  0
SEQEND
  5
82F5
100
AcDbEntity
  8
ALPHA
  0
POLYLINE
  5
82F6
100
AcDbEntity
  8
ALPHA
100
AcDb2dPolyline
 66
     1
 10
0.0
 20
0.0
 30
0.0
  0
VERTEX
  5
82F7
100
AcDbEntity
  8
ALPHA
100
AcDbVertex
100
AcDb2dVertex
 10
13.445587
 20
62.194278
 30
0.0
 42
1.0
  0
VERTEX
  5
82F8
100
AcDbEntity
  8
ALPHA
100
AcDbVertex
100
AcDb2dVertex
 10
11.821569
 20
62.194278
 30
0.0
 42
1.0
  0
VERTEX
  5
82F9
100
AcDbEntity
  8
ALPHA
100
AcDbVertex
100
AcDb2dVertex
 10
13.445587
 20
62.194278
 30
0.0
  0
SEQEND
  5
82FA
100
AcDbEntity
  8
ALPHA
  0
POLYLINE
  5
82FB
100
AcDbEntity
  8
ALPHA
100
AcDb2dPolyline
 66
     1
 10
0.0
 20
0.0
 30
0.0
  0
VERTEX
  5
82FC
100
AcDbEntity
  8
ALPHA
100
AcDbVertex
100
AcDb2dVertex
 10
21.507369
 20
68.364875
 30
0.0
 42
1.0
  0
VERTEX
  5
82FD
100
AcDbEntity
  8
ALPHA
100
AcDbVertex
100
AcDb2dVertex
 10
17.753076
 20
68.364875
 30
0.0
 42
1.0
  0
VERTEX
  5
82FE
100
AcDbEntity
  8
ALPHA
100
AcDbVertex
100
AcDb2dVertex
 10
21.507369
 20
68.364875
 30
0.0
  0
SEQEND
  5
82FF
100
AcDbEntity
  8
ALPHA
  0
POLYLINE
  5
8300
100
AcDbEntity
  8
ALPHA
100
AcDb2dPolyline
 66
     1
 10
0.0
 20
0.0
 30
0.0
  0
VERTEX
  5
8301
100
AcDbEntity
  8
ALPHA
100
AcDbVertex
100
AcDb2dVertex
 10
21.507283
 20
59.432001
 30
0.0
 42
1.0
  0
VERTEX
  5
8302
100
AcDbEntity
  8
ALPHA
100
AcDbVertex
100
AcDb2dVertex
 10
17.753162
 20
59.432001
 30
0.0
 42
1.0
  0
VERTEX
  5
8303
100
AcDbEntity
  8
ALPHA
100
AcDbVertex
100
AcDb2dVertex
 10
21.507283
 20
59.432001
 30
0.0
  0
SEQEND
  5
8304
100
AcDbEntity
  8
ALPHA
  0
POLYLINE
  5
8305
100
AcDbEntity
  8
ALPHA
100
AcDb2dPolyline
 66
     1
 10
0.0
 20
0.0
 30
0.0
  0
VERTEX
  5
8306
100
AcDbEntity
  8
ALPHA
100
AcDbVertex
100
AcDb2dVertex
 10
46.773096
 20
63.916309
 30
0.0
 42
1.0
  0
VERTEX
  5
8307
100
AcDbEntity
  8
ALPHA
100
AcDbVertex
100
AcDb2dVertex
 10
32.162446
 20
63.916309
 30
0.0
 42
1.0
  0
VERTEX
  5
8308
100
AcDbEntity
  8
ALPHA
100
AcDbVertex
100
AcDb2dVertex
 10
46.773096
 20
63.916309
 30
0.0
  0
SEQEND
  5
8309
100
AcDbEntity
  8
ALPHA
  0
POLYLINE
  5
830A
100
AcDbEntity
  8
ALPHA
100
AcDb2dPolyline
 66
     1
 10
0.0
 20
0.0
 30
0.0
  0
VERTEX
  5
830B
100
AcDbEntity
  8
ALPHA
100
AcDbVertex
100
AcDb2dVertex
 10
45.757913
 20
63.916223
 30
0.0
 42
1.0
  0
VERTEX
  5
830C
100
AcDbEntity
  8
ALPHA
100
AcDbVertex
100
AcDb2dVertex
 10
33.17763
 20
63.916223
 30
0.0
 42
1.0
  0
VERTEX
  5
830D
100
AcDbEntity
  8
ALPHA
100
AcDbVertex
100
AcDb2dVertex
 10
45.757913
 20
63.916223
 30
0.0
  0
SEQEND
  5
830E
100
AcDbEntity
  8
ALPHA
  0
POLYLINE
  5
830F
100
AcDbEntity
  8
ALPHA
100
AcDb2dPolyline
 66
     1
 10
0.0
 20
0.0
 30
0.0
  0
VERTEX
  5
8310
100
AcDbEntity
  8
ALPHA
100
AcDbVertex
100
AcDb2dVertex
 10
45.149939
 20
63.916309
 30
0.0
 42
1.0
  0
VERTEX
  5
8311
100
AcDbEntity
  8
ALPHA
100
AcDbVertex
100
AcDb2dVertex
 10
33.785603
 20
63.916309
 30
0.0
 42
1.0
  0
VERTEX
  5
8312
100
AcDbEntity
  8
ALPHA
100
AcDbVertex
100
AcDb2dVertex
 10
45.149939
 20
63.916309
 30
0.0
  0
SEQEND
  5
8313
100
AcDbEntity
  8
ALPHA
  0
POLYLINE
  5
8314
100
AcDbEntity
  8
ALPHA
100
AcDb2dPolyline
 66
     1
 10
0.0
 20
0.0
 30
0.0
  0
VERTEX
  5
8315
100
AcDbEntity
  8
ALPHA
100
AcDbVertex
100
AcDb2dVertex
 10
43.729096
 20
63.91674
 30
0.0
 42
1.0
  0
VERTEX
  5
8316
100
AcDbEntity
  8
ALPHA
100
AcDbVertex
100
AcDb2dVertex
 10
35.206446
 20
63.91674
 30
0.0
 42
1.0
  0
VERTEX
  5
8317
100
AcDbEntity
  8
ALPHA
100
AcDbVertex
100
AcDb2dVertex
 10
43.729096
 20
63.91674
 30
0.0
  0
SEQEND
  5
8318
100
AcDbEntity
  8
ALPHA
  0
POLYLINE
  5
8319
100
AcDbEntity
  8
ALPHA
100
AcDb2dPolyline
 66
     1
 10
0.0
 20
0.0
 30
0.0
  0
VERTEX
  5
831A
100
AcDbEntity
  8
ALPHA
100
AcDbVertex
100
AcDb2dVertex
 10
41.929464
 20
65.638685
 30
0.0
 42
1.0
  0
VERTEX
  5
831B
100
AcDbEntity
  8
ALPHA
100
AcDbVertex
100
AcDb2dVertex
 10
40.30648
 20
65.638685
 30
0.0
 42
1.0
  0
VERTEX
  5
831C
100
AcDbEntity
  8
ALPHA
100
AcDbVertex
100
AcDb2dVertex
 10
41.929464
 20
65.638685
 30
0.0
  0
SEQEND
  5
831D
100
AcDbEntity
  8
ALPHA
  0
POLYLINE
  5
831E
100
AcDbEntity
  8
ALPHA
100
AcDb2dPolyline
 66
     1
 10
0.0
 20
0.0
 30
0.0
  0
VERTEX
  5
831F
100
AcDbEntity
  8
ALPHA
100
AcDbVertex
100
AcDb2dVertex
 10
38.556716
 20
65.638685
 30
0.0
 42
1.0
  0
VERTEX
  5
8320
100
AcDbEntity
  8
ALPHA
100
AcDbVertex
100
AcDb2dVertex
 10
36.933731
 20
65.638685
 30
0.0
 42
1.0
  0
VERTEX
  5
8321
100
AcDbEntity
  8
ALPHA
100
AcDbVertex
100
AcDb2dVertex
 10
38.556716
 20
65.638685
 30
0.0
  0
SEQEND
  5
8322
100
AcDbEntity
  8
ALPHA
  0
POLYLINE
  5
8323
100
AcDbEntity
  8
ALPHA
100
AcDb2dPolyline
 66
     1
 10
0.0
 20
0.0
 30
0.0
  0
VERTEX
  5
8324
100
AcDbEntity
  8
ALPHA
100
AcDbVertex
100
AcDb2dVertex
 10
41.929981
 20
62.194278
 30
0.0
 42
1.0
  0
VERTEX
  5
8325
100
AcDbEntity
  8
ALPHA
100
AcDbVertex
100
AcDb2dVertex
 10
40.305963
 20
62.194278
 30
0.0
 42
1.0
  0
VERTEX
  5
8326
100
AcDbEntity
  8
ALPHA
100
AcDbVertex
100
AcDb2dVertex
 10
41.929981
 20
62.194278
 30
0.0
  0
SEQEND
  5
8327
100
AcDbEntity
  8
ALPHA
  0
POLYLINE
  5
8328
100
AcDbEntity
  8
ALPHA
100
AcDb2dPolyline
 66
     1
 10
0.0
 20
0.0
 30
0.0
  0
VERTEX
  5
8329
100
AcDbEntity
  8
ALPHA
100
AcDbVertex
100
AcDb2dVertex
 10
40.279866
 20
63.916223
 30
0.0
 42
1.0
  0
VERTEX
  5
832A
100
AcDbEntity
  8
ALPHA
100
AcDbVertex
100
AcDb2dVertex
 10
38.655676
 20
63.916223
 30
0.0
 42
1.0
  0
VERTEX
  5
832B
100
AcDbEntity
  8
ALPHA
100
AcDbVertex
100
AcDb2dVertex
 10
40.279866
 20
63.916223
 30
0.0
  0
SEQEND
  5
832C
100
AcDbEntity
  8
ALPHA
  0
POLYLINE
  5
832D
100
AcDbEntity
  8
ALPHA
100
AcDb2dPolyline
 66
     1
 10
0.0
 20
0.0
 30
0.0
  0
VERTEX
  5
832E
100
AcDbEntity
  8
ALPHA
100
AcDbVertex
100
AcDb2dVertex
 10
38.557232
 20
62.194278
 30
0.0
 42
1.0
  0
VERTEX
  5
832F
100
AcDbEntity
  8
ALPHA
100
AcDbVertex
100
AcDb2dVertex
 10
36.933214
 20
62.194278
 30
0.0
 42
1.0
  0
VERTEX
  5
8330
100
AcDbEntity
  8
ALPHA
100
AcDbVertex
100
AcDb2dVertex
 10
38.557232
 20
62.194278
 30
0.0
  0
SEQEND
  5
8331
100
AcDbEntity
  8
ALPHA
  0
POLYLINE
  5
8332
100
AcDbEntity
  8
ALPHA
100
AcDb2dPolyline
 66
     1
 10
0.0
 20
0.0
 30
0.0
  0
VERTEX
  5
8333
100
AcDbEntity
  8
ALPHA
100
AcDbVertex
100
AcDb2dVertex
 10
32.626931
 20
68.364875
 30
0.0
 42
1.0
  0
VERTEX
  5
8334
100
AcDbEntity
  8
ALPHA
100
AcDbVertex
100
AcDb2dVertex
 10
28.872638
 20
68.364875
 30
0.0
 42
1.0
  0
VERTEX
  5
8335
100
AcDbEntity
  8
ALPHA
100
AcDbVertex
100
AcDb2dVertex
 10
32.626931
 20
68.364875
 30
0.0
  0
SEQEND
  5
8336
100
AcDbEntity
  8
ALPHA
  0
POLYLINE
  5
8337
100
AcDbEntity
  8
ALPHA
100
AcDb2dPolyline
 66
     1
 10
0.0
 20
0.0
 30
0.0
  0
VERTEX
  5
8338
100
AcDbEntity
  8
ALPHA
100
AcDbVertex
100
AcDb2dVertex
 10
32.626845
 20
59.432001
 30
0.0
 42
1.0
  0
VERTEX
  5
8339
100
AcDbEntity
  8
ALPHA
100
AcDbVertex
100
AcDb2dVertex
 10
28.872725
 20
59.432001
 30
0.0
 42
1.0
  0
VERTEX
  5
833A
100
AcDbEntity
  8
ALPHA
100
AcDbVertex
100
AcDb2dVertex
 10
32.626845
 20
59.432001
 30
0.0
  0
SEQEND
  5
833B
100
AcDbEntity
  8
ALPHA
  0
POLYLINE
  5
833C
100
AcDbEntity
  8
ALPHA
100
AcDb2dPolyline
 66
     1
 10
0.0
 20
0.0
 30
0.0
  0
VERTEX
  5
833D
100
AcDbEntity
  8
ALPHA
100
AcDbVertex
100
AcDb2dVertex
 10
8.405584
 20
41.957787
 30
0.0
 42
1.0
  0
VERTEX
  5
833E
100
AcDbEntity
  8
ALPHA
100
AcDbVertex
100
AcDb2dVertex
 10
4.906229
 20
41.957787
 30
0.0
 42
1.0
  0
VERTEX
  5
833F
100
AcDbEntity
  8
ALPHA
100
AcDbVertex
100
AcDb2dVertex
 10
8.405584
 20
41.957787
 30
0.0
  0
SEQEND
  5
8340
100
AcDbEntity
  8
ALPHA
  0
POLYLINE
  5
8341
100
AcDbEntity
  8
ALPHA
100
AcDb2dPolyline
 66
     1
 10
0.0
 20
0.0
 30
0.0
  0
VERTEX
  5
8342
100
AcDbEntity
  8
ALPHA
100
AcDbVertex
100
AcDb2dVertex
 10
46.028611
 20
12.508422
 30
0.0
 42
1.0
  0
VERTEX
  5
8343
100
AcDbEntity
  8
ALPHA
100
AcDbVertex
100
AcDb2dVertex
 10
42.530117
 20
12.508422
 30
0.0
 42
1.0
  0
VERTEX
  5
8344
100
AcDbEntity
  8
ALPHA
100
AcDbVertex
100
AcDb2dVertex
 10
46.028611
 20
12.508422
 30
0.0
  0
SEQEND
  5
8345
100
AcDbEntity
  8
ALPHA
  0
POLYLINE
  5
8346
100
AcDbEntity
  8
ALPHA
100
AcDb2dPolyline
 66
     1
 10
0.0
 20
0.0
 30
0.0
  0
VERTEX
  5
8347
100
AcDbEntity
  8
ALPHA
100
AcDbVertex
100
AcDb2dVertex
 10
37.266958
 20
27.325003
 30
0.0
 42
1.0
  0
VERTEX
  5
8348
100
AcDbEntity
  8
ALPHA
100
AcDbVertex
100
AcDb2dVertex
 10
12.969216
 20
27.325003
 30
0.0
 42
1.0
  0
VERTEX
  5
8349
100
AcDbEntity
  8
ALPHA
100
AcDbVertex
100
AcDb2dVertex
 10
37.266958
 20
27.325003
 30
0.0
  0
SEQEND
  5
834A
100
AcDbEntity
  8
ALPHA
  0
POLYLINE
  5
834B
100
AcDbEntity
  8
ALPHA
100
AcDb2dPolyline
 66
     1
 10
0.0
 20
0.0
 30
0.0
  0
VERTEX
  5
834C
100
AcDbEntity
  8
ALPHA
100
AcDbVertex
100
AcDb2dVertex
 10
33.739611
 20
27.451524
 30
0.0
 42
1.0
  0
VERTEX
  5
834D
100
AcDbEntity
  8
ALPHA
100
AcDbVertex
100
AcDb2dVertex
 10
16.877247
 20
27.451524
 30
0.0
 42
1.0
  0
VERTEX
  5
834E
100
AcDbEntity
  8
ALPHA
100
AcDbVertex
100
AcDb2dVertex
 10
33.739611
 20
27.451524
 30
0.0
  0
SEQEND
  5
834F
100
AcDbEntity
  8
ALPHA
  0
POLYLINE
  5
8350
100
AcDbEntity
  8
ALPHA
100
AcDb2dPolyline
 66
     1
 10
0.0
 20
0.0
 30
0.0
  0
VERTEX
  5
8351
100
AcDbEntity
  8
ALPHA
100
AcDbVertex
100
AcDb2dVertex
 10
27.410109
 20
77.117571
 30
0.0
 42
1.0
  0
VERTEX
  5
8352
100
AcDbEntity
  8
ALPHA
100
AcDbVertex
100
AcDb2dVertex
 10
22.910126
 20
77.117571
 30
0.0
 42
1.0
  0
VERTEX
  5
8353
100
AcDbEntity
  8
ALPHA
100
AcDbVertex
100
AcDb2dVertex
 10
27.410109
 20
77.117571
 30
0.0
  0
SEQEND
  5
8354
100
AcDbEntity
  8
ALPHA
  0
POLYLINE
  5
8355
100
AcDbEntity
  8
ALPHA
100
AcDb2dPolyline
 66
     1
 10
0.0
 20
0.0
 30
0.0
  0
VERTEX
  5
8356
100
AcDbEntity
  8
ALPHA
100
AcDbVertex
100
AcDb2dVertex
 10
27.410109
 20
111.117562
 30
0.0
 42
1.0
  0
VERTEX
  5
8357
100
AcDbEntity
  8
ALPHA
100
AcDbVertex
100
AcDb2dVertex
 10
22.910126
 20
111.117562
 30
0.0
 42
1.0
  0
VERTEX
  5
8358
100
AcDbEntity
  8
ALPHA
100
AcDbVertex
100
AcDb2dVertex
 10
27.410109
 20
111.117562
 30
0.0
  0
SEQEND
  5
8359
100
AcDbEntity
  8
ALPHA
  0
POLYLINE
  5
835A
100
AcDbEntity
  8
ALPHA
100
AcDb2dPolyline
 66
     1
 10
0.0
 20
0.0
 30
0.0
  0
VERTEX
  5
835B
100
AcDbEntity
  8
ALPHA
100
AcDbVertex
100
AcDb2dVertex
 10
44.660219
 20
6.367884
 30
0.0
  0
VERTEX
  5
835C
100
AcDbEntity
  8
ALPHA
100
AcDbVertex
100
AcDb2dVertex
 10
44.890269
 20
6.356268
 30
0.0
  0
VERTEX
  5
835D
100
AcDbEntity
  8
ALPHA
100
AcDbVertex
100
AcDb2dVertex
 10
45.113674
 20
6.322172
 30
0.0
  0
VERTEX
  5
835E
100
AcDbEntity
  8
ALPHA
100
AcDbVertex
100
AcDb2dVertex
 10
45.329301
 20
6.266727
 30
0.0
  0
VERTEX
  5
835F
100
AcDbEntity
  8
ALPHA
100
AcDbVertex
100
AcDb2dVertex
 10
45.536022
 20
6.191064
 30
0.0
  0
VERTEX
  5
8360
100
AcDbEntity
  8
ALPHA
100
AcDbVertex
100
AcDb2dVertex
 10
45.732703
 20
6.096314
 30
0.0
  0
VERTEX
  5
8361
100
AcDbEntity
  8
ALPHA
100
AcDbVertex
100
AcDb2dVertex
 10
45.918215
 20
5.983605
 30
0.0
  0
VERTEX
  5
8362
100
AcDbEntity
  8
ALPHA
100
AcDbVertex
100
AcDb2dVertex
 10
46.091427
 20
5.854069
 30
0.0
  0
VERTEX
  5
8363
100
AcDbEntity
  8
ALPHA
100
AcDbVertex
100
AcDb2dVertex
 10
46.251207
 20
5.708837
 30
0.0
  0
VERTEX
  5
8364
100
AcDbEntity
  8
ALPHA
100
AcDbVertex
100
AcDb2dVertex
 10
46.396425
 20
5.549039
 30
0.0
  0
VERTEX
  5
8365
100
AcDbEntity
  8
ALPHA
100
AcDbVertex
100
AcDb2dVertex
 10
46.52595
 20
5.375804
 30
0.0
  0
VERTEX
  5
8366
100
AcDbEntity
  8
ALPHA
100
AcDbVertex
100
AcDb2dVertex
 10
46.638651
 20
5.190264
 30
0.0
  0
VERTEX
  5
8367
100
AcDbEntity
  8
ALPHA
100
AcDbVertex
100
AcDb2dVertex
 10
46.733397
 20
4.993549
 30
0.0
  0
VERTEX
  5
8368
100
AcDbEntity
  8
ALPHA
100
AcDbVertex
100
AcDb2dVertex
 10
46.809057
 20
4.78679
 30
0.0
  0
VERTEX
  5
8369
100
AcDbEntity
  8
ALPHA
100
AcDbVertex
100
AcDb2dVertex
 10
46.8645
 20
4.571116
 30
0.0
  0
VERTEX
  5
836A
100
AcDbEntity
  8
ALPHA
100
AcDbVertex
100
AcDb2dVertex
 10
46.898595
 20
4.347658
 30
0.0
  0
VERTEX
  5
836B
100
AcDbEntity
  8
ALPHA
100
AcDbVertex
100
AcDb2dVertex
 10
46.910211
 20
4.117548
 30
0.0
  0
VERTEX
  5
836C
100
AcDbEntity
  8
ALPHA
100
AcDbVertex
100
AcDb2dVertex
 10
46.898595
 20
3.887558
 30
0.0
  0
VERTEX
  5
836D
100
AcDbEntity
  8
ALPHA
100
AcDbVertex
100
AcDb2dVertex
 10
46.8645
 20
3.664207
 30
0.0
  0
VERTEX
  5
836E
100
AcDbEntity
  8
ALPHA
100
AcDbVertex
100
AcDb2dVertex
 10
46.809057
 20
3.448625
 30
0.0
  0
VERTEX
  5
836F
100
AcDbEntity
  8
ALPHA
100
AcDbVertex
100
AcDb2dVertex
 10
46.733397
 20
3.241944
 30
0.0
  0
VERTEX
  5
8370
100
AcDbEntity
  8
ALPHA
100
AcDbVertex
100
AcDb2dVertex
 10
46.638651
 20
3.045296
 30
0.0
  0
VERTEX
  5
8371
100
AcDbEntity
  8
ALPHA
100
AcDbVertex
100
AcDb2dVertex
 10
46.52595
 20
2.859812
 30
0.0
  0
VERTEX
  5
8372
100
AcDbEntity
  8
ALPHA
100
AcDbVertex
100
AcDb2dVertex
 10
46.396425
 20
2.686623
 30
0.0
  0
VERTEX
  5
8373
100
AcDbEntity
  8
ALPHA
100
AcDbVertex
100
AcDb2dVertex
 10
46.251207
 20
2.526861
 30
0.0
  0
VERTEX
  5
8374
100
AcDbEntity
  8
ALPHA
100
AcDbVertex
100
AcDb2dVertex
 10
46.091427
 20
2.381657
 30
0.0
  0
VERTEX
  5
8375
100
AcDbEntity
  8
ALPHA
100
AcDbVertex
100
AcDb2dVertex
 10
45.918215
 20
2.252143
 30
0.0
  0
VERTEX
  5
8376
100
AcDbEntity
  8
ALPHA
100
AcDbVertex
100
AcDb2dVertex
 10
45.732703
 20
2.13945
 30
0.0
  0
VERTEX
  5
8377
100
AcDbEntity
  8
ALPHA
100
AcDbVertex
100
AcDb2dVertex
 10
45.536022
 20
2.044709
 30
0.0
  0
VERTEX
  5
8378
100
AcDbEntity
  8
ALPHA
100
AcDbVertex
100
AcDb2dVertex
 10
45.329301
 20
1.969052
 30
0.0
  0
VERTEX
  5
8379
100
AcDbEntity
  8
ALPHA
100
AcDbVertex
100
AcDb2dVertex
 10
45.113674
 20
1.913611
 30
0.0
  0
VERTEX
  5
837A
100
AcDbEntity
  8
ALPHA
100
AcDbVertex
100
AcDb2dVertex
 10
44.890269
 20
1.879516
 30
0.0
  0
VERTEX
  5
837B
100
AcDbEntity
  8
ALPHA
100
AcDbVertex
100
AcDb2dVertex
 10
44.660219
 20
1.8679
 30
0.0
  0
SEQEND
  5
837C
100
AcDbEntity
  8
ALPHA
  0
POLYLINE
  5
837D
100
AcDbEntity
  8
ALPHA
100
AcDb2dPolyline
 66
     1
 10
0.0
 20
0.0
 30
0.0
  0
VERTEX
  5
837E
100
AcDbEntity
  8
ALPHA
100
AcDbVertex
100
AcDb2dVertex
 10
44.660219
 20
1.8679
 30
0.0
  0
VERTEX
  5
837F
100
AcDbEntity
  8
ALPHA
100
AcDbVertex
100
AcDb2dVertex
 10
41.66023
 20
1.8679
 30
0.0
  0
SEQEND
  5
8380
100
AcDbEntity
  8
ALPHA
  0
POLYLINE
  5
8381
100
AcDbEntity
  8
ALPHA
100
AcDb2dPolyline
 66
     1
 10
0.0
 20
0.0
 30
0.0
  0
VERTEX
  5
8382
100
AcDbEntity
  8
ALPHA
100
AcDbVertex
100
AcDb2dVertex
 10
41.66023
 20
1.8679
 30
0.0
  0
VERTEX
  5
8383
100
AcDbEntity
  8
ALPHA
100
AcDbVertex
100
AcDb2dVertex
 10
41.43018
 20
1.879516
 30
0.0
  0
VERTEX
  5
8384
100
AcDbEntity
  8
ALPHA
100
AcDbVertex
100
AcDb2dVertex
 10
41.206775
 20
1.913611
 30
0.0
  0
VERTEX
  5
8385
100
AcDbEntity
  8
ALPHA
100
AcDbVertex
100
AcDb2dVertex
 10
40.991148
 20
1.969052
 30
0.0
  0
VERTEX
  5
8386
100
AcDbEntity
  8
ALPHA
100
AcDbVertex
100
AcDb2dVertex
 10
40.784427
 20
2.044709
 30
0.0
  0
VERTEX
  5
8387
100
AcDbEntity
  8
ALPHA
100
AcDbVertex
100
AcDb2dVertex
 10
40.587746
 20
2.13945
 30
0.0
  0
VERTEX
  5
8388
100
AcDbEntity
  8
ALPHA
100
AcDbVertex
100
AcDb2dVertex
 10
40.402234
 20
2.252143
 30
0.0
  0
VERTEX
  5
8389
100
AcDbEntity
  8
ALPHA
100
AcDbVertex
100
AcDb2dVertex
 10
40.229022
 20
2.381657
 30
0.0
  0
VERTEX
  5
838A
100
AcDbEntity
  8
ALPHA
100
AcDbVertex
100
AcDb2dVertex
 10
40.069242
 20
2.526861
 30
0.0
  0
VERTEX
  5
838B
100
AcDbEntity
  8
ALPHA
100
AcDbVertex
100
AcDb2dVertex
 10
39.924024
 20
2.686623
 30
0.0
  0
VERTEX
  5
838C
100
AcDbEntity
  8
ALPHA
100
AcDbVertex
100
AcDb2dVertex
 10
39.794499
 20
2.859812
 30
0.0
  0
VERTEX
  5
838D
100
AcDbEntity
  8
ALPHA
100
AcDbVertex
100
AcDb2dVertex
 10
39.681798
 20
3.045296
 30
0.0
  0
VERTEX
  5
838E
100
AcDbEntity
  8
ALPHA
100
AcDbVertex
100
AcDb2dVertex
 10
39.587052
 20
3.241944
 30
0.0
  0
VERTEX
  5
838F
100
AcDbEntity
  8
ALPHA
100
AcDbVertex
100
AcDb2dVertex
 10
39.511392
 20
3.448625
 30
0.0
  0
VERTEX
  5
8390
100
AcDbEntity
  8
ALPHA
100
AcDbVertex
100
AcDb2dVertex
 10
39.45595
 20
3.664207
 30
0.0
  0
VERTEX
  5
8391
100
AcDbEntity
  8
ALPHA
100
AcDbVertex
100
AcDb2dVertex
 10
39.421854
 20
3.887558
 30
0.0
  0
VERTEX
  5
8392
100
AcDbEntity
  8
ALPHA
100
AcDbVertex
100
AcDb2dVertex
 10
39.410238
 20
4.117548
 30
0.0
  0
VERTEX
  5
8393
100
AcDbEntity
  8
ALPHA
100
AcDbVertex
100
AcDb2dVertex
 10
39.421854
 20
4.347658
 30
0.0
  0
VERTEX
  5
8394
100
AcDbEntity
  8
ALPHA
100
AcDbVertex
100
AcDb2dVertex
 10
39.45595
 20
4.571116
 30
0.0
  0
VERTEX
  5
8395
100
AcDbEntity
  8
ALPHA
100
AcDbVertex
100
AcDb2dVertex
 10
39.511392
 20
4.78679
 30
0.0
  0
VERTEX
  5
8396
100
AcDbEntity
  8
ALPHA
100
AcDbVertex
100
AcDb2dVertex
 10
39.587052
 20
4.993549
 30
0.0
  0
VERTEX
  5
8397
100
AcDbEntity
  8
ALPHA
100
AcDbVertex
100
AcDb2dVertex
 10
39.681798
 20
5.190264
 30
0.0
  0
VERTEX
  5
8398
100
AcDbEntity
  8
ALPHA
100
AcDbVertex
100
AcDb2dVertex
 10
39.794499
 20
5.375804
 30
0.0
  0
VERTEX
  5
8399
100
AcDbEntity
  8
ALPHA
100
AcDbVertex
100
AcDb2dVertex
 10
39.924024
 20
5.549039
 30
0.0
  0
VERTEX
  5
839A
100
AcDbEntity
  8
ALPHA
100
AcDbVertex
100
AcDb2dVertex
 10
40.069242
 20
5.708837
 30
0.0
  0
VERTEX
  5
839B
100
AcDbEntity
  8
ALPHA
100
AcDbVertex
100
AcDb2dVertex
 10
40.229022
 20
5.854069
 30
0.0
  0
VERTEX
  5
839C
100
AcDbEntity
  8
ALPHA
100
AcDbVertex
100
AcDb2dVertex
 10
40.402234
 20
5.983605
 30
0.0
  0
VERTEX
  5
839D
100
AcDbEntity
  8
ALPHA
100
AcDbVertex
100
AcDb2dVertex
 10
40.587746
 20
6.096314
 30
0.0
  0
VERTEX
  5
839E
100
AcDbEntity
  8
ALPHA
100
AcDbVertex
100
AcDb2dVertex
 10
40.784427
 20
6.191064
 30
0.0
  0
VERTEX
  5
839F
100
AcDbEntity
  8
ALPHA
100
AcDbVertex
100
AcDb2dVertex
 10
40.991148
 20
6.266727
 30
0.0
  0
VERTEX
  5
83A0
100
AcDbEntity
  8
ALPHA
100
AcDbVertex
100
AcDb2dVertex
 10
41.206775
 20
6.322172
 30
0.0
  0
VERTEX
  5
83A1
100
AcDbEntity
  8
ALPHA
100
AcDbVertex
100
AcDb2dVertex
 10
41.43018
 20
6.356268
 30
0.0
  0
VERTEX
  5
83A2
100
AcDbEntity
  8
ALPHA
100
AcDbVertex
100
AcDb2dVertex
 10
41.66023
 20
6.367884
 30
0.0
  0
SEQEND
  5
83A3
100
AcDbEntity
  8
ALPHA
  0
POLYLINE
  5
83A4
100
AcDbEntity
  8
ALPHA
100
AcDb2dPolyline
 66
     1
 10
0.0
 20
0.0
 30
0.0
  0
VERTEX
  5
83A5
100
AcDbEntity
  8
ALPHA
100
AcDbVertex
100
AcDb2dVertex
 10
41.66023
 20
6.367884
 30
0.0
  0
VERTEX
  5
83A6
100
AcDbEntity
  8
ALPHA
100
AcDbVertex
100
AcDb2dVertex
 10
44.660219
 20
6.367884
 30
0.0
  0
SEQEND
  5
83A7
100
AcDbEntity
  8
ALPHA
  0
POLYLINE
  5
83A8
100
AcDbEntity
  8
ALPHA
100
AcDb2dPolyline
 66
     1
 10
0.0
 20
0.0
 30
0.0
  0
VERTEX
  5
83A9
100
AcDbEntity
  8
ALPHA
100
AcDbVertex
100
AcDb2dVertex
 10
8.660177
 20
6.367884
 30
0.0
  0
VERTEX
  5
83AA
100
AcDbEntity
  8
ALPHA
100
AcDbVertex
100
AcDb2dVertex
 10
8.890227
 20
6.356268
 30
0.0
  0
VERTEX
  5
83AB
100
AcDbEntity
  8
ALPHA
100
AcDbVertex
100
AcDb2dVertex
 10
9.113632
 20
6.322172
 30
0.0
  0
VERTEX
  5
83AC
100
AcDbEntity
  8
ALPHA
100
AcDbVertex
100
AcDb2dVertex
 10
9.329259
 20
6.266727
 30
0.0
  0
VERTEX
  5
83AD
100
AcDbEntity
  8
ALPHA
100
AcDbVertex
100
AcDb2dVertex
 10
9.53598
 20
6.191064
 30
0.0
  0
VERTEX
  5
83AE
100
AcDbEntity
  8
ALPHA
100
AcDbVertex
100
AcDb2dVertex
 10
9.732661
 20
6.096314
 30
0.0
  0
VERTEX
  5
83AF
100
AcDbEntity
  8
ALPHA
100
AcDbVertex
100
AcDb2dVertex
 10
9.918173
 20
5.983605
 30
0.0
  0
VERTEX
  5
83B0
100
AcDbEntity
  8
ALPHA
100
AcDbVertex
100
AcDb2dVertex
 10
10.091385
 20
5.854069
 30
0.0
  0
VERTEX
  5
83B1
100
AcDbEntity
  8
ALPHA
100
AcDbVertex
100
AcDb2dVertex
 10
10.251165
 20
5.708837
 30
0.0
  0
VERTEX
  5
83B2
100
AcDbEntity
  8
ALPHA
100
AcDbVertex
100
AcDb2dVertex
 10
10.396383
 20
5.549039
 30
0.0
  0
VERTEX
  5
83B3
100
AcDbEntity
  8
ALPHA
100
AcDbVertex
100
AcDb2dVertex
 10
10.525908
 20
5.375804
 30
0.0
  0
VERTEX
  5
83B4
100
AcDbEntity
  8
ALPHA
100
AcDbVertex
100
AcDb2dVertex
 10
10.638609
 20
5.190264
 30
0.0
  0
VERTEX
  5
83B5
100
AcDbEntity
  8
ALPHA
100
AcDbVertex
100
AcDb2dVertex
 10
10.733355
 20
4.993549
 30
0.0
  0
VERTEX
  5
83B6
100
AcDbEntity
  8
ALPHA
100
AcDbVertex
100
AcDb2dVertex
 10
10.809015
 20
4.78679
 30
0.0
  0
VERTEX
  5
83B7
100
AcDbEntity
  8
ALPHA
100
AcDbVertex
100
AcDb2dVertex
 10
10.864457
 20
4.571116
 30
0.0
  0
VERTEX
  5
83B8
100
AcDbEntity
  8
ALPHA
100
AcDbVertex
100
AcDb2dVertex
 10
10.898553
 20
4.347658
 30
0.0
  0
VERTEX
  5
83B9
100
AcDbEntity
  8
ALPHA
100
AcDbVertex
100
AcDb2dVertex
 10
10.910169
 20
4.117548
 30
0.0
  0
VERTEX
  5
83BA
100
AcDbEntity
  8
ALPHA
100
AcDbVertex
100
AcDb2dVertex
 10
10.898553
 20
3.887558
 30
0.0
  0
VERTEX
  5
83BB
100
AcDbEntity
  8
ALPHA
100
AcDbVertex
100
AcDb2dVertex
 10
10.864457
 20
3.664207
 30
0.0
  0
VERTEX
  5
83BC
100
AcDbEntity
  8
ALPHA
100
AcDbVertex
100
AcDb2dVertex
 10
10.809015
 20
3.448625
 30
0.0
  0
VERTEX
  5
83BD
100
AcDbEntity
  8
ALPHA
100
AcDbVertex
100
AcDb2dVertex
 10
10.733355
 20
3.241944
 30
0.0
  0
VERTEX
  5
83BE
100
AcDbEntity
  8
ALPHA
100
AcDbVertex
100
AcDb2dVertex
 10
10.638609
 20
3.045296
 30
0.0
  0
VERTEX
  5
83BF
100
AcDbEntity
  8
ALPHA
100
AcDbVertex
100
AcDb2dVertex
 10
10.525908
 20
2.859812
 30
0.0
  0
VERTEX
  5
83C0
100
AcDbEntity
  8
ALPHA
100
AcDbVertex
100
AcDb2dVertex
 10
10.396383
 20
2.686623
 30
0.0
  0
VERTEX
  5
83C1
100
AcDbEntity
  8
ALPHA
100
AcDbVertex
100
AcDb2dVertex
 10
10.251165
 20
2.526861
 30
0.0
  0
VERTEX
  5
83C2
100
AcDbEntity
  8
ALPHA
100
AcDbVertex
100
AcDb2dVertex
 10
10.091385
 20
2.381657
 30
0.0
  0
VERTEX
  5
83C3
100
AcDbEntity
  8
ALPHA
100
AcDbVertex
100
AcDb2dVertex
 10
9.918173
 20
2.252143
 30
0.0
  0
VERTEX
  5
83C4
100
AcDbEntity
  8
ALPHA
100
AcDbVertex
100
AcDb2dVertex
 10
9.732661
 20
2.13945
 30
0.0
  0
VERTEX
  5
83C5
100
AcDbEntity
  8
ALPHA
100
AcDbVertex
100
AcDb2dVertex
 10
9.53598
 20
2.044709
 30
0.0
  0
VERTEX
  5
83C6
100
AcDbEntity
  8
ALPHA
100
AcDbVertex
100
AcDb2dVertex
 10
9.329259
 20
1.969052
 30
0.0
  0
VERTEX
  5
83C7
100
AcDbEntity
  8
ALPHA
100
AcDbVertex
100
AcDb2dVertex
 10
9.113632
 20
1.913611
 30
0.0
  0
VERTEX
  5
83C8
100
AcDbEntity
  8
ALPHA
100
AcDbVertex
100
AcDb2dVertex
 10
8.890227
 20
1.879516
 30
0.0
  0
VERTEX
  5
83C9
100
AcDbEntity
  8
ALPHA
100
AcDbVertex
100
AcDb2dVertex
 10
8.660177
 20
1.8679
 30
0.0
  0
SEQEND
  5
83CA
100
AcDbEntity
  8
ALPHA
  0
POLYLINE
  5
83CB
100
AcDbEntity
  8
ALPHA
100
AcDb2dPolyline
 66
     1
 10
0.0
 20
0.0
 30
0.0
  0
VERTEX
  5
83CC
100
AcDbEntity
  8
ALPHA
100
AcDbVertex
100
AcDb2dVertex
 10
8.660177
 20
1.8679
 30
0.0
  0
VERTEX
  5
83CD
100
AcDbEntity
  8
ALPHA
100
AcDbVertex
100
AcDb2dVertex
 10
5.660188
 20
1.8679
 30
0.0
  0
SEQEND
  5
83CE
100
AcDbEntity
  8
ALPHA
  0
POLYLINE
  5
83CF
100
AcDbEntity
  8
ALPHA
100
AcDb2dPolyline
 66
     1
 10
0.0
 20
0.0
 30
0.0
  0
VERTEX
  5
83D0
100
AcDbEntity
  8
ALPHA
100
AcDbVertex
100
AcDb2dVertex
 10
5.660188
 20
1.8679
 30
0.0
  0
VERTEX
  5
83D1
100
AcDbEntity
  8
ALPHA
100
AcDbVertex
100
AcDb2dVertex
 10
5.430138
 20
1.879516
 30
0.0
  0
VERTEX
  5
83D2
100
AcDbEntity
  8
ALPHA
100
AcDbVertex
100
AcDb2dVertex
 10
5.206733
 20
1.913611
 30
0.0
  0
VERTEX
  5
83D3
100
AcDbEntity
  8
ALPHA
100
AcDbVertex
100
AcDb2dVertex
 10
4.991106
 20
1.969052
 30
0.0
  0
VERTEX
  5
83D4
100
AcDbEntity
  8
ALPHA
100
AcDbVertex
100
AcDb2dVertex
 10
4.784385
 20
2.044709
 30
0.0
  0
VERTEX
  5
83D5
100
AcDbEntity
  8
ALPHA
100
AcDbVertex
100
AcDb2dVertex
 10
4.587704
 20
2.13945
 30
0.0
  0
VERTEX
  5
83D6
100
AcDbEntity
  8
ALPHA
100
AcDbVertex
100
AcDb2dVertex
 10
4.402192
 20
2.252143
 30
0.0
  0
VERTEX
  5
83D7
100
AcDbEntity
  8
ALPHA
100
AcDbVertex
100
AcDb2dVertex
 10
4.22898
 20
2.381657
 30
0.0
  0
VERTEX
  5
83D8
100
AcDbEntity
  8
ALPHA
100
AcDbVertex
100
AcDb2dVertex
 10
4.0692
 20
2.526861
 30
0.0
  0
VERTEX
  5
83D9
100
AcDbEntity
  8
ALPHA
100
AcDbVertex
100
AcDb2dVertex
 10
3.923982
 20
2.686623
 30
0.0
  0
VERTEX
  5
83DA
100
AcDbEntity
  8
ALPHA
100
AcDbVertex
100
AcDb2dVertex
 10
3.794457
 20
2.859812
 30
0.0
  0
VERTEX
  5
83DB
100
AcDbEntity
  8
ALPHA
100
AcDbVertex
100
AcDb2dVertex
 10
3.681756
 20
3.045296
 30
0.0
  0
VERTEX
  5
83DC
100
AcDbEntity
  8
ALPHA
100
AcDbVertex
100
AcDb2dVertex
 10
3.58701
 20
3.241944
 30
0.0
  0
VERTEX
  5
83DD
100
AcDbEntity
  8
ALPHA
100
AcDbVertex
100
AcDb2dVertex
 10
3.51135
 20
3.448625
 30
0.0
  0
VERTEX
  5
83DE
100
AcDbEntity
  8
ALPHA
100
AcDbVertex
100
AcDb2dVertex
 10
3.455907
 20
3.664207
 30
0.0
  0
VERTEX
  5
83DF
100
AcDbEntity
  8
ALPHA
100
AcDbVertex
100
AcDb2dVertex
 10
3.421812
 20
3.887558
 30
0.0
  0
VERTEX
  5
83E0
100
AcDbEntity
  8
ALPHA
100
AcDbVertex
100
AcDb2dVertex
 10
3.410196
 20
4.117548
 30
0.0
  0
VERTEX
  5
83E1
100
AcDbEntity
  8
ALPHA
100
AcDbVertex
100
AcDb2dVertex
 10
3.421812
 20
4.347658
 30
0.0
  0
VERTEX
  5
83E2
100
AcDbEntity
  8
ALPHA
100
AcDbVertex
100
AcDb2dVertex
 10
3.455907
 20
4.571116
 30
0.0
  0
VERTEX
  5
83E3
100
AcDbEntity
  8
ALPHA
100
AcDbVertex
100
AcDb2dVertex
 10
3.51135
 20
4.78679
 30
0.0
  0
VERTEX
  5
83E4
100
AcDbEntity
  8
ALPHA
100
AcDbVertex
100
AcDb2dVertex
 10
3.58701
 20
4.993549
 30
0.0
  0
VERTEX
  5
83E5
100
AcDbEntity
  8
ALPHA
100
AcDbVertex
100
AcDb2dVertex
 10
3.681756
 20
5.190264
 30
0.0
  0
VERTEX
  5
83E6
100
AcDbEntity
  8
ALPHA
100
AcDbVertex
100
AcDb2dVertex
 10
3.794457
 20
5.375804
 30
0.0
  0
VERTEX
  5
83E7
100
AcDbEntity
  8
ALPHA
100
AcDbVertex
100
AcDb2dVertex
 10
3.923982
 20
5.549039
 30
0.0
  0
VERTEX
  5
83E8
100
AcDbEntity
  8
ALPHA
100
AcDbVertex
100
AcDb2dVertex
 10
4.0692
 20
5.708837
 30
0.0
  0
VERTEX
  5
83E9
100
AcDbEntity
  8
ALPHA
100
AcDbVertex
100
AcDb2dVertex
 10
4.22898
 20
5.854069
 30
0.0
  0
VERTEX
  5
83EA
100
AcDbEntity
  8
ALPHA
100
AcDbVertex
100
AcDb2dVertex
 10
4.402192
 20
5.983605
 30
0.0
  0
VERTEX
  5
83EB
100
AcDbEntity
  8
ALPHA
100
AcDbVertex
100
AcDb2dVertex
 10
4.587704
 20
6.096314
 30
0.0
  0
VERTEX
  5
83EC
100
AcDbEntity
  8
ALPHA
100
AcDbVertex
100
AcDb2dVertex
 10
4.784385
 20
6.191064
 30
0.0
  0
VERTEX
  5
83ED
100
AcDbEntity
  8
ALPHA
100
AcDbVertex
100
AcDb2dVertex
 10
4.991106
 20
6.266727
 30
0.0
  0
VERTEX
  5
83EE
100
AcDbEntity
  8
ALPHA
100
AcDbVertex
100
AcDb2dVertex
 10
5.206733
 20
6.322172
 30
0.0
  0
VERTEX
  5
83EF
100
AcDbEntity
  8
ALPHA
100
AcDbVertex
100
AcDb2dVertex
 10
5.430138
 20
6.356268
 30
0.0
  0
VERTEX
  5
83F0
100
AcDbEntity
  8
ALPHA
100
AcDbVertex
100
AcDb2dVertex
 10
5.660188
 20
6.367884
 30
0.0
  0
SEQEND
  5
83F1
100
AcDbEntity
  8
ALPHA
  0
POLYLINE
  5
83F2
100
AcDbEntity
  8
ALPHA
100
AcDb2dPolyline
 66
     1
 10
0.0
 20
0.0
 30
0.0
  0
VERTEX
  5
83F3
100
AcDbEntity
  8
ALPHA
100
AcDbVertex
100
AcDb2dVertex
 10
5.660188
 20
6.367884
 30
0.0
  0
VERTEX
  5
83F4
100
AcDbEntity
  8
ALPHA
100
AcDbVertex
100
AcDb2dVertex
 10
8.660177
 20
6.367884
 30
0.0
  0
SEQEND
  5
83F5
100
AcDbEntity
  8
ALPHA
  0
POLYLINE
  5
83F6
100
AcDbEntity
  8
ALPHA
100
AcDb2dPolyline
 66
     1
 10
0.0
 20
0.0
 30
0.0
  0
VERTEX
  5
83F7
100
AcDbEntity
  8
ALPHA
100
AcDbVertex
100
AcDb2dVertex
 10
25.841557
 20
16.514724
 30
0.0
  0
VERTEX
  5
83F8
100
AcDbEntity
  8
ALPHA
100
AcDbVertex
100
AcDb2dVertex
 10
25.838127
 20
16.446645
 30
0.0
  0
VERTEX
  5
83F9
100
AcDbEntity
  8
ALPHA
100
AcDbVertex
100
AcDb2dVertex
 10
25.828057
 20
16.380543
 30
0.0
  0
VERTEX
  5
83FA
100
AcDbEntity
  8
ALPHA
100
AcDbVertex
100
AcDb2dVertex
 10
25.811683
 20
16.316751
 30
0.0
  0
VERTEX
  5
83FB
100
AcDbEntity
  8
ALPHA
100
AcDbVertex
100
AcDb2dVertex
 10
25.789337
 20
16.255601
 30
0.0
  0
VERTEX
  5
83FC
100
AcDbEntity
  8
ALPHA
100
AcDbVertex
100
AcDb2dVertex
 10
25.761353
 20
16.197429
 30
0.0
  0
VERTEX
  5
83FD
100
AcDbEntity
  8
ALPHA
100
AcDbVertex
100
AcDb2dVertex
 10
25.728065
 20
16.142566
 30
0.0
  0
VERTEX
  5
83FE
100
AcDbEntity
  8
ALPHA
100
AcDbVertex
100
AcDb2dVertex
 10
25.689806
 20
16.091346
 30
0.0
  0
VERTEX
  5
83FF
100
AcDbEntity
  8
ALPHA
100
AcDbVertex
100
AcDb2dVertex
 10
25.646909
 20
16.044102
 30
0.0
  0
VERTEX
  5
8400
100
AcDbEntity
  8
ALPHA
100
AcDbVertex
100
AcDb2dVertex
 10
25.599709
 20
16.001168
 30
0.0
  0
VERTEX
  5
8401
100
AcDbEntity
  8
ALPHA
100
AcDbVertex
100
AcDb2dVertex
 10
25.548539
 20
15.962878
 30
0.0
  0
VERTEX
  5
8402
100
AcDbEntity
  8
ALPHA
100
AcDbVertex
100
AcDb2dVertex
 10
25.493732
 20
15.929563
 30
0.0
  0
VERTEX
  5
8403
100
AcDbEntity
  8
ALPHA
100
AcDbVertex
100
AcDb2dVertex
 10
25.435623
 20
15.901559
 30
0.0
  0
VERTEX
  5
8404
100
AcDbEntity
  8
ALPHA
100
AcDbVertex
100
AcDb2dVertex
 10
25.374544
 20
15.879197
 30
0.0
  0
VERTEX
  5
8405
100
AcDbEntity
  8
ALPHA
100
AcDbVertex
100
AcDb2dVertex
 10
25.310829
 20
15.862812
 30
0.0
  0
VERTEX
  5
8406
100
AcDbEntity
  8
ALPHA
100
AcDbVertex
100
AcDb2dVertex
 10
25.244812
 20
15.852736
 30
0.0
  0
VERTEX
  5
8407
100
AcDbEntity
  8
ALPHA
100
AcDbVertex
100
AcDb2dVertex
 10
25.176826
 20
15.849303
 30
0.0
  0
VERTEX
  5
8408
100
AcDbEntity
  8
ALPHA
100
AcDbVertex
100
AcDb2dVertex
 10
25.10878
 20
15.852736
 30
0.0
  0
VERTEX
  5
8409
100
AcDbEntity
  8
ALPHA
100
AcDbVertex
100
AcDb2dVertex
 10
25.04271
 20
15.862812
 30
0.0
  0
VERTEX
  5
840A
100
AcDbEntity
  8
ALPHA
100
AcDbVertex
100
AcDb2dVertex
 10
24.978949
 20
15.879197
 30
0.0
  0
VERTEX
  5
840B
100
AcDbEntity
  8
ALPHA
100
AcDbVertex
100
AcDb2dVertex
 10
24.91783
 20
15.901559
 30
0.0
  0
VERTEX
  5
840C
100
AcDbEntity
  8
ALPHA
100
AcDbVertex
100
AcDb2dVertex
 10
24.859687
 20
15.929563
 30
0.0
  0
VERTEX
  5
840D
100
AcDbEntity
  8
ALPHA
100
AcDbVertex
100
AcDb2dVertex
 10
24.804853
 20
15.962878
 30
0.0
  0
VERTEX
  5
840E
100
AcDbEntity
  8
ALPHA
100
AcDbVertex
100
AcDb2dVertex
 10
24.75366
 20
16.001168
 30
0.0
  0
VERTEX
  5
840F
100
AcDbEntity
  8
ALPHA
100
AcDbVertex
100
AcDb2dVertex
 10
24.706441
 20
16.044102
 30
0.0
  0
VERTEX
  5
8410
100
AcDbEntity
  8
ALPHA
100
AcDbVertex
100
AcDb2dVertex
 10
24.663531
 20
16.091346
 30
0.0
  0
VERTEX
  5
8411
100
AcDbEntity
  8
ALPHA
100
AcDbVertex
100
AcDb2dVertex
 10
24.625261
 20
16.142566
 30
0.0
  0
VERTEX
  5
8412
100
AcDbEntity
  8
ALPHA
100
AcDbVertex
100
AcDb2dVertex
 10
24.591965
 20
16.197429
 30
0.0
  0
VERTEX
  5
8413
100
AcDbEntity
  8
ALPHA
100
AcDbVertex
100
AcDb2dVertex
 10
24.563976
 20
16.255601
 30
0.0
  0
VERTEX
  5
8414
100
AcDbEntity
  8
ALPHA
100
AcDbVertex
100
AcDb2dVertex
 10
24.541627
 20
16.316751
 30
0.0
  0
VERTEX
  5
8415
100
AcDbEntity
  8
ALPHA
100
AcDbVertex
100
AcDb2dVertex
 10
24.525251
 20
16.380543
 30
0.0
  0
VERTEX
  5
8416
100
AcDbEntity
  8
ALPHA
100
AcDbVertex
100
AcDb2dVertex
 10
24.515181
 20
16.446645
 30
0.0
  0
VERTEX
  5
8417
100
AcDbEntity
  8
ALPHA
100
AcDbVertex
100
AcDb2dVertex
 10
24.51175
 20
16.514724
 30
0.0
  0
SEQEND
  5
8418
100
AcDbEntity
  8
ALPHA
  0
POLYLINE
  5
8419
100
AcDbEntity
  8
ALPHA
100
AcDb2dPolyline
 66
     1
 10
0.0
 20
0.0
 30
0.0
  0
VERTEX
  5
841A
100
AcDbEntity
  8
ALPHA
100
AcDbVertex
100
AcDb2dVertex
 10
24.51175
 20
16.514724
 30
0.0
  0
VERTEX
  5
841B
100
AcDbEntity
  8
ALPHA
100
AcDbVertex
100
AcDb2dVertex
 10
24.489357
 20
16.545213
 30
0.0
  0
SEQEND
  5
841C
100
AcDbEntity
  8
ALPHA
  0
POLYLINE
  5
841D
100
AcDbEntity
  8
ALPHA
100
AcDb2dPolyline
 66
     1
 10
0.0
 20
0.0
 30
0.0
  0
VERTEX
  5
841E
100
AcDbEntity
  8
ALPHA
100
AcDbVertex
100
AcDb2dVertex
 10
24.489357
 20
16.545213
 30
0.0
  0
VERTEX
  5
841F
100
AcDbEntity
  8
ALPHA
100
AcDbVertex
100
AcDb2dVertex
 10
24.489357
 20
16.737966
 30
0.0
  0
SEQEND
  5
8420
100
AcDbEntity
  8
ALPHA
  0
POLYLINE
  5
8421
100
AcDbEntity
  8
ALPHA
100
AcDb2dPolyline
 66
     1
 10
0.0
 20
0.0
 30
0.0
  0
VERTEX
  5
8422
100
AcDbEntity
  8
ALPHA
100
AcDbVertex
100
AcDb2dVertex
 10
24.489357
 20
16.737966
 30
0.0
  0
VERTEX
  5
8423
100
AcDbEntity
  8
ALPHA
100
AcDbVertex
100
AcDb2dVertex
 10
23.468585
 20
16.848897
 30
0.0
  0
VERTEX
  5
8424
100
AcDbEntity
  8
ALPHA
100
AcDbVertex
100
AcDb2dVertex
 10
22.478971
 20
17.055765
 30
0.0
  0
VERTEX
  5
8425
100
AcDbEntity
  8
ALPHA
100
AcDbVertex
100
AcDb2dVertex
 10
21.525304
 20
17.353776
 30
0.0
  0
VERTEX
  5
8426
100
AcDbEntity
  8
ALPHA
100
AcDbVertex
100
AcDb2dVertex
 10
20.612371
 20
17.738139
 30
0.0
  0
VERTEX
  5
8427
100
AcDbEntity
  8
ALPHA
100
AcDbVertex
100
AcDb2dVertex
 10
19.744959
 20
18.204061
 30
0.0
  0
VERTEX
  5
8428
100
AcDbEntity
  8
ALPHA
100
AcDbVertex
100
AcDb2dVertex
 10
18.927857
 20
18.746749
 30
0.0
  0
VERTEX
  5
8429
100
AcDbEntity
  8
ALPHA
100
AcDbVertex
100
AcDb2dVertex
 10
18.165852
 20
19.361411
 30
0.0
  0
VERTEX
  5
842A
100
AcDbEntity
  8
ALPHA
100
AcDbVertex
100
AcDb2dVertex
 10
17.463731
 20
20.043255
 30
0.0
  0
VERTEX
  5
842B
100
AcDbEntity
  8
ALPHA
100
AcDbVertex
100
AcDb2dVertex
 10
16.826283
 20
20.787488
 30
0.0
  0
VERTEX
  5
842C
100
AcDbEntity
  8
ALPHA
100
AcDbVertex
100
AcDb2dVertex
 10
16.258294
 20
21.589318
 30
0.0
  0
VERTEX
  5
842D
100
AcDbEntity
  8
ALPHA
100
AcDbVertex
100
AcDb2dVertex
 10
15.764553
 20
22.443952
 30
0.0
  0
VERTEX
  5
842E
100
AcDbEntity
  8
ALPHA
100
AcDbVertex
100
AcDb2dVertex
 10
15.349847
 20
23.346598
 30
0.0
  0
VERTEX
  5
842F
100
AcDbEntity
  8
ALPHA
100
AcDbVertex
100
AcDb2dVertex
 10
15.018964
 20
24.292464
 30
0.0
  0
VERTEX
  5
8430
100
AcDbEntity
  8
ALPHA
100
AcDbVertex
100
AcDb2dVertex
 10
14.776692
 20
25.276756
 30
0.0
  0
VERTEX
  5
8431
100
AcDbEntity
  8
ALPHA
100
AcDbVertex
100
AcDb2dVertex
 10
14.627817
 20
26.294684
 30
0.0
  0
VERTEX
  5
8432
100
AcDbEntity
  8
ALPHA
100
AcDbVertex
100
AcDb2dVertex
 10
14.577129
 20
27.341453
 30
0.0
  0
VERTEX
  5
8433
100
AcDbEntity
  8
ALPHA
100
AcDbVertex
100
AcDb2dVertex
 10
14.632182
 20
28.431887
 30
0.0
  0
VERTEX
  5
8434
100
AcDbEntity
  8
ALPHA
100
AcDbVertex
100
AcDb2dVertex
 10
14.79377
 20
29.490833
 30
0.0
  0
VERTEX
  5
8435
100
AcDbEntity
  8
ALPHA
100
AcDbVertex
100
AcDb2dVertex
 10
15.056537
 20
30.51293
 30
0.0
  0
VERTEX
  5
8436
100
AcDbEntity
  8
ALPHA
100
AcDbVertex
100
AcDb2dVertex
 10
15.415126
 20
31.492815
 30
0.0
  0
VERTEX
  5
8437
100
AcDbEntity
  8
ALPHA
100
AcDbVertex
100
AcDb2dVertex
 10
15.864182
 20
32.425125
 30
0.0
  0
VERTEX
  5
8438
100
AcDbEntity
  8
ALPHA
100
AcDbVertex
100
AcDb2dVertex
 10
16.398347
 20
33.304497
 30
0.0
  0
VERTEX
  5
8439
100
AcDbEntity
  8
ALPHA
100
AcDbVertex
100
AcDb2dVertex
 10
17.012266
 20
34.125571
 30
0.0
  0
VERTEX
  5
843A
100
AcDbEntity
  8
ALPHA
100
AcDbVertex
100
AcDb2dVertex
 10
17.700581
 20
34.882982
 30
0.0
  0
VERTEX
  5
843B
100
AcDbEntity
  8
ALPHA
100
AcDbVertex
100
AcDb2dVertex
 10
18.457937
 20
35.571369
 30
0.0
  0
VERTEX
  5
843C
100
AcDbEntity
  8
ALPHA
100
AcDbVertex
100
AcDb2dVertex
 10
19.278977
 20
36.18537
 30
0.0
  0
VERTEX
  5
843D
100
AcDbEntity
  8
ALPHA
100
AcDbVertex
100
AcDb2dVertex
 10
20.158345
 20
36.719621
 30
0.0
  0
VERTEX
  5
843E
100
AcDbEntity
  8
ALPHA
100
AcDbVertex
100
AcDb2dVertex
 10
21.090684
 20
37.16876
 30
0.0
  0
VERTEX
  5
843F
100
AcDbEntity
  8
ALPHA
100
AcDbVertex
100
AcDb2dVertex
 10
22.070639
 20
37.527425
 30
0.0
  0
VERTEX
  5
8440
100
AcDbEntity
  8
ALPHA
100
AcDbVertex
100
AcDb2dVertex
 10
23.092851
 20
37.790254
 30
0.0
  0
VERTEX
  5
8441
100
AcDbEntity
  8
ALPHA
100
AcDbVertex
100
AcDb2dVertex
 10
24.151967
 20
37.951884
 30
0.0
  0
VERTEX
  5
8442
100
AcDbEntity
  8
ALPHA
100
AcDbVertex
100
AcDb2dVertex
 10
25.242627
 20
38.006952
 30
0.0
  0
VERTEX
  5
8443
100
AcDbEntity
  8
ALPHA
100
AcDbVertex
100
AcDb2dVertex
 10
26.333035
 20
37.951884
 30
0.0
  0
VERTEX
  5
8444
100
AcDbEntity
  8
ALPHA
100
AcDbVertex
100
AcDb2dVertex
 10
27.391966
 20
37.790254
 30
0.0
  0
VERTEX
  5
8445
100
AcDbEntity
  8
ALPHA
100
AcDbVertex
100
AcDb2dVertex
 10
28.414056
 20
37.527425
 30
0.0
  0
VERTEX
  5
8446
100
AcDbEntity
  8
ALPHA
100
AcDbVertex
100
AcDb2dVertex
 10
29.393943
 20
37.16876
 30
0.0
  0
VERTEX
  5
8447
100
AcDbEntity
  8
ALPHA
100
AcDbVertex
100
AcDb2dVertex
 10
30.326263
 20
36.719621
 30
0.0
  0
VERTEX
  5
8448
100
AcDbEntity
  8
ALPHA
100
AcDbVertex
100
AcDb2dVertex
 10
31.205651
 20
36.18537
 30
0.0
  0
VERTEX
  5
8449
100
AcDbEntity
  8
ALPHA
100
AcDbVertex
100
AcDb2dVertex
 10
32.026744
 20
35.571369
 30
0.0
  0
VERTEX
  5
844A
100
AcDbEntity
  8
ALPHA
100
AcDbVertex
100
AcDb2dVertex
 10
32.784178
 20
34.882982
 30
0.0
  0
VERTEX
  5
844B
100
AcDbEntity
  8
ALPHA
100
AcDbVertex
100
AcDb2dVertex
 10
33.47259
 20
34.125571
 30
0.0
  0
VERTEX
  5
844C
100
AcDbEntity
  8
ALPHA
100
AcDbVertex
100
AcDb2dVertex
 10
34.086616
 20
33.304497
 30
0.0
  0
VERTEX
  5
844D
100
AcDbEntity
  8
ALPHA
100
AcDbVertex
100
AcDb2dVertex
 10
34.620893
 20
32.425125
 30
0.0
  0
VERTEX
  5
844E
100
AcDbEntity
  8
ALPHA
100
AcDbVertex
100
AcDb2dVertex
 10
35.070056
 20
31.492815
 30
0.0
  0
VERTEX
  5
844F
100
AcDbEntity
  8
ALPHA
100
AcDbVertex
100
AcDb2dVertex
 10
35.428741
 20
30.51293
 30
0.0
  0
VERTEX
  5
8450
100
AcDbEntity
  8
ALPHA
100
AcDbVertex
100
AcDb2dVertex
 10
35.691586
 20
29.490833
 30
0.0
  0
VERTEX
  5
8451
100
AcDbEntity
  8
ALPHA
100
AcDbVertex
100
AcDb2dVertex
 10
35.853226
 20
28.431887
 30
0.0
  0
VERTEX
  5
8452
100
AcDbEntity
  8
ALPHA
100
AcDbVertex
100
AcDb2dVertex
 10
35.908299
 20
27.341453
 30
0.0
  0
VERTEX
  5
8453
100
AcDbEntity
  8
ALPHA
100
AcDbVertex
100
AcDb2dVertex
 10
35.856981
 20
26.288511
 30
0.0
  0
VERTEX
  5
8454
100
AcDbEntity
  8
ALPHA
100
AcDbVertex
100
AcDb2dVertex
 10
35.706243
 20
25.264742
 30
0.0
  0
VERTEX
  5
8455
100
AcDbEntity
  8
ALPHA
100
AcDbVertex
100
AcDb2dVertex
 10
35.460905
 20
24.274963
 30
0.0
  0
VERTEX
  5
8456
100
AcDbEntity
  8
ALPHA
100
AcDbVertex
100
AcDb2dVertex
 10
35.125785
 20
23.32399
 30
0.0
  0
VERTEX
  5
8457
100
AcDbEntity
  8
ALPHA
100
AcDbVertex
100
AcDb2dVertex
 10
34.705706
 20
22.41664
 30
0.0
  0
VERTEX
  5
8458
100
AcDbEntity
  8
ALPHA
100
AcDbVertex
100
AcDb2dVertex
 10
34.205486
 20
21.557731
 30
0.0
  0
VERTEX
  5
8459
100
AcDbEntity
  8
ALPHA
100
AcDbVertex
100
AcDb2dVertex
 10
33.629947
 20
20.752078
 30
0.0
  0
VERTEX
  5
845A
100
AcDbEntity
  8
ALPHA
100
AcDbVertex
100
AcDb2dVertex
 10
32.983908
 20
20.004498
 30
0.0
  0
VERTEX
  5
845B
100
AcDbEntity
  8
ALPHA
100
AcDbVertex
100
AcDb2dVertex
 10
32.272189
 20
19.319808
 30
0.0
  0
VERTEX
  5
845C
100
AcDbEntity
  8
ALPHA
100
AcDbVertex
100
AcDb2dVertex
 10
31.499611
 20
18.702824
 30
0.0
  0
VERTEX
  5
845D
100
AcDbEntity
  8
ALPHA
100
AcDbVertex
100
AcDb2dVertex
 10
30.670994
 20
18.158363
 30
0.0
  0
VERTEX
  5
845E
100
AcDbEntity
  8
ALPHA
100
AcDbVertex
100
AcDb2dVertex
 10
29.791157
 20
17.691243
 30
0.0
  0
VERTEX
  5
845F
100
AcDbEntity
  8
ALPHA
100
AcDbVertex
100
AcDb2dVertex
 10
28.864922
 20
17.306278
 30
0.0
  0
VERTEX
  5
8460
100
AcDbEntity
  8
ALPHA
100
AcDbVertex
100
AcDb2dVertex
 10
27.897109
 20
17.008287
 30
0.0
  0
VERTEX
  5
8461
100
AcDbEntity
  8
ALPHA
100
AcDbVertex
100
AcDb2dVertex
 10
26.892537
 20
16.802086
 30
0.0
  0
VERTEX
  5
8462
100
AcDbEntity
  8
ALPHA
100
AcDbVertex
100
AcDb2dVertex
 10
25.856027
 20
16.692491
 30
0.0
  0
SEQEND
  5
8463
100
AcDbEntity
  8
ALPHA
  0
POLYLINE
  5
8464
100
AcDbEntity
  8
ALPHA
100
AcDb2dPolyline
 66
     1
 10
0.0
 20
0.0
 30
0.0
  0
VERTEX
  5
8465
100
AcDbEntity
  8
ALPHA
100
AcDbVertex
100
AcDb2dVertex
 10
25.856027
 20
16.692491
 30
0.0
  0
VERTEX
  5
8466
100
AcDbEntity
  8
ALPHA
100
AcDbVertex
100
AcDb2dVertex
 10
25.856027
 20
16.541251
 30
0.0
  0
SEQEND
  5
8467
100
AcDbEntity
  8
ALPHA
  0
POLYLINE
  5
8468
100
AcDbEntity
  8
ALPHA
100
AcDb2dPolyline
 66
     1
 10
0.0
 20
0.0
 30
0.0
  0
VERTEX
  5
8469
100
AcDbEntity
  8
ALPHA
100
AcDbVertex
100
AcDb2dVertex
 10
25.856027
 20
16.541251
 30
0.0
  0
VERTEX
  5
846A
100
AcDbEntity
  8
ALPHA
100
AcDbVertex
100
AcDb2dVertex
 10
25.841557
 20
16.514724
 30
0.0
  0
SEQEND
  5
846B
100
AcDbEntity
  8
ALPHA
  0
POLYLINE
  5
846C
100
AcDbEntity
  8
ALPHA
100
AcDb2dPolyline
 66
     1
 10
0.0
 20
0.0
 30
0.0
  0
VERTEX
  5
846D
100
AcDbEntity
  8
ALPHA
100
AcDbVertex
100
AcDb2dVertex
 10
16.309667
 20
12.313602
 30
0.0
  0
VERTEX
  5
846E
100
AcDbEntity
  8
ALPHA
100
AcDbVertex
100
AcDb2dVertex
 10
34.2705
 20
12.313602
 30
0.0
  0
SEQEND
  5
846F
100
AcDbEntity
  8
ALPHA
  0
POLYLINE
  5
8470
100
AcDbEntity
  8
ALPHA
100
AcDb2dPolyline
 66
     1
 10
0.0
 20
0.0
 30
0.0
  0
VERTEX
  5
8471
100
AcDbEntity
  8
ALPHA
100
AcDbVertex
100
AcDb2dVertex
 10
34.2705
 20
12.313602
 30
0.0
  0
VERTEX
  5
8472
100
AcDbEntity
  8
ALPHA
100
AcDbVertex
100
AcDb2dVertex
 10
34.2705
 20
3.653665
 30
0.0
  0
SEQEND
  5
8473
100
AcDbEntity
  8
ALPHA
  0
POLYLINE
  5
8474
100
AcDbEntity
  8
ALPHA
100
AcDb2dPolyline
 66
     1
 10
0.0
 20
0.0
 30
0.0
  0
VERTEX
  5
8475
100
AcDbEntity
  8
ALPHA
100
AcDbVertex
100
AcDb2dVertex
 10
34.2705
 20
3.653665
 30
0.0
  0
VERTEX
  5
8476
100
AcDbEntity
  8
ALPHA
100
AcDbVertex
100
AcDb2dVertex
 10
16.309667
 20
3.653665
 30
0.0
  0
SEQEND
  5
8477
100
AcDbEntity
  8
ALPHA
  0
POLYLINE
  5
8478
100
AcDbEntity
  8
ALPHA
100
AcDb2dPolyline
 66
     1
 10
0.0
 20
0.0
 30
0.0
  0
VERTEX
  5
8479
100
AcDbEntity
  8
ALPHA
100
AcDbVertex
100
AcDb2dVertex
 10
16.309667
 20
3.653665
 30
0.0
  0
VERTEX
  5
847A
100
AcDbEntity
  8
ALPHA
100
AcDbVertex
100
AcDb2dVertex
 10
16.309667
 20
12.313602
 30
0.0
  0
SEQEND
  5
847B
100
AcDbEntity
  8
ALPHA
  0
POLYLINE
  5
847C
100
AcDbEntity
  8
ALPHA
100
AcDb2dPolyline
 66
     1
 10
0.0
 20
0.0
 30
0.0
  0
VERTEX
  5
847D
100
AcDbEntity
  8
ALPHA
100
AcDbVertex
100
AcDb2dVertex
 10
48.875638
 20
16.126117
 30
0.0
  0
VERTEX
  5
847E
100
AcDbEntity
  8
ALPHA
100
AcDbVertex
100
AcDb2dVertex
 10
45.759549
 20
16.126117
 30
0.0
  0
SEQEND
  5
847F
100
AcDbEntity
  8
ALPHA
  0
POLYLINE
  5
8480
100
AcDbEntity
  8
ALPHA
100
AcDb2dPolyline
 66
     1
 10
0.0
 20
0.0
 30
0.0
  0
VERTEX
  5
8481
100
AcDbEntity
  8
ALPHA
100
AcDbVertex
100
AcDb2dVertex
 10
45.759549
 20
16.126117
 30
0.0
  0
VERTEX
  5
8482
100
AcDbEntity
  8
ALPHA
100
AcDbVertex
100
AcDb2dVertex
 10
45.759549
 20
45.743775
 30
0.0
  0
SEQEND
  5
8483
100
AcDbEntity
  8
ALPHA
  0
POLYLINE
  5
8484
100
AcDbEntity
  8
ALPHA
100
AcDb2dPolyline
 66
     1
 10
0.0
 20
0.0
 30
0.0
  0
VERTEX
  5
8485
100
AcDbEntity
  8
ALPHA
100
AcDbVertex
100
AcDb2dVertex
 10
49.21808
 20
8.725535
 30
0.0
  0
VERTEX
  5
8486
100
AcDbEntity
  8
ALPHA
100
AcDbVertex
100
AcDb2dVertex
 10
40.524899
 20
8.725535
 30
0.0
  0
SEQEND
  5
8487
100
AcDbEntity
  8
ALPHA
  0
POLYLINE
  5
8488
100
AcDbEntity
  8
ALPHA
100
AcDb2dPolyline
 66
     1
 10
0.0
 20
0.0
 30
0.0
  0
VERTEX
  5
8489
100
AcDbEntity
  8
ALPHA
100
AcDbVertex
100
AcDb2dVertex
 10
40.524899
 20
8.725535
 30
0.0
  0
VERTEX
  5
848A
100
AcDbEntity
  8
ALPHA
100
AcDbVertex
100
AcDb2dVertex
 10
40.159894
 20
8.708116
 30
0.0
  0
VERTEX
  5
848B
100
AcDbEntity
  8
ALPHA
100
AcDbVertex
100
AcDb2dVertex
 10
39.805436
 20
8.656991
 30
0.0
  0
VERTEX
  5
848C
100
AcDbEntity
  8
ALPHA
100
AcDbVertex
100
AcDb2dVertex
 10
39.463318
 20
8.573856
 30
0.0
  0
VERTEX
  5
848D
100
AcDbEntity
  8
ALPHA
100
AcDbVertex
100
AcDb2dVertex
 10
39.135336
 20
8.460405
 30
0.0
  0
VERTEX
  5
848E
100
AcDbEntity
  8
ALPHA
100
AcDbVertex
100
AcDb2dVertex
 10
38.823282
 20
8.318336
 30
0.0
  0
VERTEX
  5
848F
100
AcDbEntity
  8
ALPHA
100
AcDbVertex
100
AcDb2dVertex
 10
38.528951
 20
8.149344
 30
0.0
  0
VERTEX
  5
8490
100
AcDbEntity
  8
ALPHA
100
AcDbVertex
100
AcDb2dVertex
 10
38.254137
 20
7.955125
 30
0.0
  0
VERTEX
  5
8491
100
AcDbEntity
  8
ALPHA
100
AcDbVertex
100
AcDb2dVertex
 10
38.000634
 20
7.737374
 30
0.0
  0
VERTEX
  5
8492
100
AcDbEntity
  8
ALPHA
100
AcDbVertex
100
AcDb2dVertex
 10
37.770236
 20
7.497788
 30
0.0
  0
VERTEX
  5
8493
100
AcDbEntity
  8
ALPHA
100
AcDbVertex
100
AcDb2dVertex
 10
37.564737
 20
7.238063
 30
0.0
  0
VERTEX
  5
8494
100
AcDbEntity
  8
ALPHA
100
AcDbVertex
100
AcDb2dVertex
 10
37.385932
 20
6.959894
 30
0.0
  0
VERTEX
  5
8495
100
AcDbEntity
  8
ALPHA
100
AcDbVertex
100
AcDb2dVertex
 10
37.235613
 20
6.664978
 30
0.0
  0
VERTEX
  5
8496
100
AcDbEntity
  8
ALPHA
100
AcDbVertex
100
AcDb2dVertex
 10
37.115576
 20
6.355009
 30
0.0
  0
VERTEX
  5
8497
100
AcDbEntity
  8
ALPHA
100
AcDbVertex
100
AcDb2dVertex
 10
37.027613
 20
6.031685
 30
0.0
  0
VERTEX
  5
8498
100
AcDbEntity
  8
ALPHA
100
AcDbVertex
100
AcDb2dVertex
 10
36.97352
 20
5.696701
 30
0.0
  0
VERTEX
  5
8499
100
AcDbEntity
  8
ALPHA
100
AcDbVertex
100
AcDb2dVertex
 10
36.955091
 20
5.351753
 30
0.0
  0
SEQEND
  5
849A
100
AcDbEntity
  8
ALPHA
  0
POLYLINE
  5
849B
100
AcDbEntity
  8
ALPHA
100
AcDb2dPolyline
 66
     1
 10
0.0
 20
0.0
 30
0.0
  0
VERTEX
  5
849C
100
AcDbEntity
  8
ALPHA
100
AcDbVertex
100
AcDb2dVertex
 10
36.955091
 20
5.351753
 30
0.0
  0
VERTEX
  5
849D
100
AcDbEntity
  8
ALPHA
100
AcDbVertex
100
AcDb2dVertex
 10
36.955091
 20
1.10929
 30
0.0
  0
SEQEND
  5
849E
100
AcDbEntity
  8
ALPHA
  0
POLYLINE
  5
849F
100
AcDbEntity
  8
ALPHA
100
AcDb2dPolyline
 66
     1
 10
0.0
 20
0.0
 30
0.0
  0
VERTEX
  5
84A0
100
AcDbEntity
  8
ALPHA
100
AcDbVertex
100
AcDb2dVertex
 10
1.37914
 20
8.725535
 30
0.0
  0
VERTEX
  5
84A1
100
AcDbEntity
  8
ALPHA
100
AcDbVertex
100
AcDb2dVertex
 10
10.072838
 20
8.725535
 30
0.0
  0
SEQEND
  5
84A2
100
AcDbEntity
  8
ALPHA
  0
POLYLINE
  5
84A3
100
AcDbEntity
  8
ALPHA
100
AcDb2dPolyline
 66
     1
 10
0.0
 20
0.0
 30
0.0
  0
VERTEX
  5
84A4
100
AcDbEntity
  8
ALPHA
100
AcDbVertex
100
AcDb2dVertex
 10
10.072838
 20
8.725535
 30
0.0
  0
VERTEX
  5
84A5
100
AcDbEntity
  8
ALPHA
100
AcDbVertex
100
AcDb2dVertex
 10
10.437741
 20
8.708116
 30
0.0
  0
VERTEX
  5
84A6
100
AcDbEntity
  8
ALPHA
100
AcDbVertex
100
AcDb2dVertex
 10
10.792087
 20
8.656991
 30
0.0
  0
VERTEX
  5
84A7
100
AcDbEntity
  8
ALPHA
100
AcDbVertex
100
AcDb2dVertex
 10
11.134084
 20
8.573856
 30
0.0
  0
VERTEX
  5
84A8
100
AcDbEntity
  8
ALPHA
100
AcDbVertex
100
AcDb2dVertex
 10
11.461941
 20
8.460405
 30
0.0
  0
VERTEX
  5
84A9
100
AcDbEntity
  8
ALPHA
100
AcDbVertex
100
AcDb2dVertex
 10
11.773867
 20
8.318336
 30
0.0
  0
VERTEX
  5
84AA
100
AcDbEntity
  8
ALPHA
100
AcDbVertex
100
AcDb2dVertex
 10
12.068069
 20
8.149344
 30
0.0
  0
VERTEX
  5
84AB
100
AcDbEntity
  8
ALPHA
100
AcDbVertex
100
AcDb2dVertex
 10
12.342755
 20
7.955125
 30
0.0
  0
VERTEX
  5
84AC
100
AcDbEntity
  8
ALPHA
100
AcDbVertex
100
AcDb2dVertex
 10
12.596134
 20
7.737374
 30
0.0
  0
VERTEX
  5
84AD
100
AcDbEntity
  8
ALPHA
100
AcDbVertex
100
AcDb2dVertex
 10
12.826414
 20
7.497788
 30
0.0
  0
VERTEX
  5
84AE
100
AcDbEntity
  8
ALPHA
100
AcDbVertex
100
AcDb2dVertex
 10
13.031804
 20
7.238063
 30
0.0
  0
VERTEX
  5
84AF
100
AcDbEntity
  8
ALPHA
100
AcDbVertex
100
AcDb2dVertex
 10
13.210511
 20
6.959894
 30
0.0
  0
VERTEX
  5
84B0
100
AcDbEntity
  8
ALPHA
100
AcDbVertex
100
AcDb2dVertex
 10
13.360743
 20
6.664978
 30
0.0
  0
VERTEX
  5
84B1
100
AcDbEntity
  8
ALPHA
100
AcDbVertex
100
AcDb2dVertex
 10
13.48071
 20
6.355009
 30
0.0
  0
VERTEX
  5
84B2
100
AcDbEntity
  8
ALPHA
100
AcDbVertex
100
AcDb2dVertex
 10
13.568619
 20
6.031685
 30
0.0
  0
VERTEX
  5
84B3
100
AcDbEntity
  8
ALPHA
100
AcDbVertex
100
AcDb2dVertex
 10
13.622678
 20
5.696701
 30
0.0
  0
VERTEX
  5
84B4
100
AcDbEntity
  8
ALPHA
100
AcDbVertex
100
AcDb2dVertex
 10
13.641096
 20
5.351753
 30
0.0
  0
SEQEND
  5
84B5
100
AcDbEntity
  8
ALPHA
  0
POLYLINE
  5
84B6
100
AcDbEntity
  8
ALPHA
100
AcDb2dPolyline
 66
     1
 10
0.0
 20
0.0
 30
0.0
  0
VERTEX
  5
84B7
100
AcDbEntity
  8
ALPHA
100
AcDbVertex
100
AcDb2dVertex
 10
13.641096
 20
5.351753
 30
0.0
  0
VERTEX
  5
84B8
100
AcDbEntity
  8
ALPHA
100
AcDbVertex
100
AcDb2dVertex
 10
13.641096
 20
1.10929
 30
0.0
  0
SEQEND
  5
84B9
100
AcDbEntity
  8
ALPHA
  0
POLYLINE
  5
84BA
100
AcDbEntity
  8
ALPHA
100
AcDb2dPolyline
 66
     1
 10
0.0
 20
0.0
 30
0.0
  0
VERTEX
  5
84BB
100
AcDbEntity
  8
ALPHA
100
AcDbVertex
100
AcDb2dVertex
 10
1.37914
 20
42.838526
 30
0.0
  0
VERTEX
  5
84BC
100
AcDbEntity
  8
ALPHA
100
AcDbVertex
100
AcDb2dVertex
 10
1.395551
 20
43.145973
 30
0.0
  0
VERTEX
  5
84BD
100
AcDbEntity
  8
ALPHA
100
AcDbVertex
100
AcDb2dVertex
 10
1.443721
 20
43.44454
 30
0.0
  0
VERTEX
  5
84BE
100
AcDbEntity
  8
ALPHA
100
AcDbVertex
100
AcDb2dVertex
 10
1.52205
 20
43.732716
 30
0.0
  0
VERTEX
  5
84BF
100
AcDbEntity
  8
ALPHA
100
AcDbVertex
100
AcDb2dVertex
 10
1.628942
 20
44.008989
 30
0.0
  0
VERTEX
  5
84C0
100
AcDbEntity
  8
ALPHA
100
AcDbVertex
100
AcDb2dVertex
 10
1.762798
 20
44.271847
 30
0.0
  0
VERTEX
  5
84C1
100
AcDbEntity
  8
ALPHA
100
AcDbVertex
100
AcDb2dVertex
 10
1.922021
 20
44.519779
 30
0.0
  0
VERTEX
  5
84C2
100
AcDbEntity
  8
ALPHA
100
AcDbVertex
100
AcDb2dVertex
 10
2.105013
 20
44.751273
 30
0.0
  0
VERTEX
  5
84C3
100
AcDbEntity
  8
ALPHA
100
AcDbVertex
100
AcDb2dVertex
 10
2.310177
 20
44.964817
 30
0.0
  0
VERTEX
  5
84C4
100
AcDbEntity
  8
ALPHA
100
AcDbVertex
100
AcDb2dVertex
 10
2.535914
 20
45.1589
 30
0.0
  0
VERTEX
  5
84C5
100
AcDbEntity
  8
ALPHA
100
AcDbVertex
100
AcDb2dVertex
 10
2.780628
 20
45.33201
 30
0.0
  0
VERTEX
  5
84C6
100
AcDbEntity
  8
ALPHA
100
AcDbVertex
100
AcDb2dVertex
 10
3.042719
 20
45.482635
 30
0.0
  0
VERTEX
  5
84C7
100
AcDbEntity
  8
ALPHA
100
AcDbVertex
100
AcDb2dVertex
 10
3.320591
 20
45.609263
 30
0.0
  0
VERTEX
  5
84C8
100
AcDbEntity
  8
ALPHA
100
AcDbVertex
100
AcDb2dVertex
 10
3.612646
 20
45.710383
 30
0.0
  0
VERTEX
  5
84C9
100
AcDbEntity
  8
ALPHA
100
AcDbVertex
100
AcDb2dVertex
 10
3.917286
 20
45.784483
 30
0.0
  0
VERTEX
  5
84CA
100
AcDbEntity
  8
ALPHA
100
AcDbVertex
100
AcDb2dVertex
 10
4.232913
 20
45.830052
 30
0.0
  0
VERTEX
  5
84CB
100
AcDbEntity
  8
ALPHA
100
AcDbVertex
100
AcDb2dVertex
 10
4.55793
 20
45.845578
 30
0.0
  0
SEQEND
  5
84CC
100
AcDbEntity
  8
ALPHA
  0
POLYLINE
  5
84CD
100
AcDbEntity
  8
ALPHA
100
AcDb2dPolyline
 66
     1
 10
0.0
 20
0.0
 30
0.0
  0
VERTEX
  5
84CE
100
AcDbEntity
  8
ALPHA
100
AcDbVertex
100
AcDb2dVertex
 10
4.55793
 20
45.845578
 30
0.0
  0
VERTEX
  5
84CF
100
AcDbEntity
  8
ALPHA
100
AcDbVertex
100
AcDb2dVertex
 10
46.038257
 20
45.845578
 30
0.0
  0
SEQEND
  5
84D0
100
AcDbEntity
  8
ALPHA
  0
POLYLINE
  5
84D1
100
AcDbEntity
  8
ALPHA
100
AcDb2dPolyline
 66
     1
 10
0.0
 20
0.0
 30
0.0
  0
VERTEX
  5
84D2
100
AcDbEntity
  8
ALPHA
100
AcDbVertex
100
AcDb2dVertex
 10
46.038257
 20
45.845578
 30
0.0
  0
VERTEX
  5
84D3
100
AcDbEntity
  8
ALPHA
100
AcDbVertex
100
AcDb2dVertex
 10
46.363342
 20
45.830052
 30
0.0
  0
VERTEX
  5
84D4
100
AcDbEntity
  8
ALPHA
100
AcDbVertex
100
AcDb2dVertex
 10
46.679044
 20
45.784483
 30
0.0
  0
VERTEX
  5
84D5
100
AcDbEntity
  8
ALPHA
100
AcDbVertex
100
AcDb2dVertex
 10
46.983764
 20
45.710383
 30
0.0
  0
VERTEX
  5
84D6
100
AcDbEntity
  8
ALPHA
100
AcDbVertex
100
AcDb2dVertex
 10
47.275902
 20
45.609263
 30
0.0
  0
VERTEX
  5
84D7
100
AcDbEntity
  8
ALPHA
100
AcDbVertex
100
AcDb2dVertex
 10
47.55386
 20
45.482635
 30
0.0
  0
VERTEX
  5
84D8
100
AcDbEntity
  8
ALPHA
100
AcDbVertex
100
AcDb2dVertex
 10
47.816038
 20
45.33201
 30
0.0
  0
VERTEX
  5
84D9
100
AcDbEntity
  8
ALPHA
100
AcDbVertex
100
AcDb2dVertex
 10
48.060836
 20
45.1589
 30
0.0
  0
VERTEX
  5
84DA
100
AcDbEntity
  8
ALPHA
100
AcDbVertex
100
AcDb2dVertex
 10
48.286656
 20
44.964817
 30
0.0
  0
VERTEX
  5
84DB
100
AcDbEntity
  8
ALPHA
100
AcDbVertex
100
AcDb2dVertex
 10
48.491898
 20
44.751273
 30
0.0
  0
VERTEX
  5
84DC
100
AcDbEntity
  8
ALPHA
100
AcDbVertex
100
AcDb2dVertex
 10
48.674963
 20
44.519779
 30
0.0
  0
VERTEX
  5
84DD
100
AcDbEntity
  8
ALPHA
100
AcDbVertex
100
AcDb2dVertex
 10
48.834252
 20
44.271847
 30
0.0
  0
VERTEX
  5
84DE
100
AcDbEntity
  8
ALPHA
100
AcDbVertex
100
AcDb2dVertex
 10
48.968166
 20
44.008989
 30
0.0
  0
VERTEX
  5
84DF
100
AcDbEntity
  8
ALPHA
100
AcDbVertex
100
AcDb2dVertex
 10
49.075104
 20
43.732716
 30
0.0
  0
VERTEX
  5
84E0
100
AcDbEntity
  8
ALPHA
100
AcDbVertex
100
AcDb2dVertex
 10
49.153469
 20
43.44454
 30
0.0
  0
VERTEX
  5
84E1
100
AcDbEntity
  8
ALPHA
100
AcDbVertex
100
AcDb2dVertex
 10
49.201661
 20
43.145973
 30
0.0
  0
VERTEX
  5
84E2
100
AcDbEntity
  8
ALPHA
100
AcDbVertex
100
AcDb2dVertex
 10
49.21808
 20
42.838526
 30
0.0
  0
SEQEND
  5
84E3
100
AcDbEntity
  8
ALPHA
  0
POLYLINE
  5
84E4
100
AcDbEntity
  8
ALPHA
100
AcDb2dPolyline
 66
     1
 10
0.0
 20
0.0
 30
0.0
  0
VERTEX
  5
84E5
100
AcDbEntity
  8
ALPHA
100
AcDbVertex
100
AcDb2dVertex
 10
49.039452
 20
3.490023
 30
0.0
  0
VERTEX
  5
84E6
100
AcDbEntity
  8
ALPHA
100
AcDbVertex
100
AcDb2dVertex
 10
49.027905
 20
3.274851
 30
0.0
  0
VERTEX
  5
84E7
100
AcDbEntity
  8
ALPHA
100
AcDbVertex
100
AcDb2dVertex
 10
48.994014
 20
3.065867
 30
0.0
  0
VERTEX
  5
84E8
100
AcDbEntity
  8
ALPHA
100
AcDbVertex
100
AcDb2dVertex
 10
48.938902
 20
2.864134
 30
0.0
  0
VERTEX
  5
84E9
100
AcDbEntity
  8
ALPHA
100
AcDbVertex
100
AcDb2dVertex
 10
48.863693
 20
2.670712
 30
0.0
  0
VERTEX
  5
84EA
100
AcDbEntity
  8
ALPHA
100
AcDbVertex
100
AcDb2dVertex
 10
48.769511
 20
2.486664
 30
0.0
  0
VERTEX
  5
84EB
100
AcDbEntity
  8
ALPHA
100
AcDbVertex
100
AcDb2dVertex
 10
48.657481
 20
2.313051
 30
0.0
  0
VERTEX
  5
84EC
100
AcDbEntity
  8
ALPHA
100
AcDbVertex
100
AcDb2dVertex
 10
48.528725
 20
2.150935
 30
0.0
  0
VERTEX
  5
84ED
100
AcDbEntity
  8
ALPHA
100
AcDbVertex
100
AcDb2dVertex
 10
48.384367
 20
2.001376
 30
0.0
  0
VERTEX
  5
84EE
100
AcDbEntity
  8
ALPHA
100
AcDbVertex
100
AcDb2dVertex
 10
48.225533
 20
1.865437
 30
0.0
  0
VERTEX
  5
84EF
100
AcDbEntity
  8
ALPHA
100
AcDbVertex
100
AcDb2dVertex
 10
48.053344
 20
1.744179
 30
0.0
  0
VERTEX
  5
84F0
100
AcDbEntity
  8
ALPHA
100
AcDbVertex
100
AcDb2dVertex
 10
47.868926
 20
1.638664
 30
0.0
  0
VERTEX
  5
84F1
100
AcDbEntity
  8
ALPHA
100
AcDbVertex
100
AcDb2dVertex
 10
47.673402
 20
1.549953
 30
0.0
  0
VERTEX
  5
84F2
100
AcDbEntity
  8
ALPHA
100
AcDbVertex
100
AcDb2dVertex
 10
47.467896
 20
1.479108
 30
0.0
  0
VERTEX
  5
84F3
100
AcDbEntity
  8
ALPHA
100
AcDbVertex
100
AcDb2dVertex
 10
47.253532
 20
1.427189
 30
0.0
  0
VERTEX
  5
84F4
100
AcDbEntity
  8
ALPHA
100
AcDbVertex
100
AcDb2dVertex
 10
47.031433
 20
1.39526
 30
0.0
  0
VERTEX
  5
84F5
100
AcDbEntity
  8
ALPHA
100
AcDbVertex
100
AcDb2dVertex
 10
46.802724
 20
1.384381
 30
0.0
  0
SEQEND
  5
84F6
100
AcDbEntity
  8
ALPHA
  0
POLYLINE
  5
84F7
100
AcDbEntity
  8
ALPHA
100
AcDb2dPolyline
 66
     1
 10
0.0
 20
0.0
 30
0.0
  0
VERTEX
  5
84F8
100
AcDbEntity
  8
ALPHA
100
AcDbVertex
100
AcDb2dVertex
 10
46.802724
 20
1.384381
 30
0.0
  0
VERTEX
  5
84F9
100
AcDbEntity
  8
ALPHA
100
AcDbVertex
100
AcDb2dVertex
 10
3.517511
 20
1.384381
 30
0.0
  0
SEQEND
  5
84FA
100
AcDbEntity
  8
ALPHA
  0
POLYLINE
  5
84FB
100
AcDbEntity
  8
ALPHA
100
AcDb2dPolyline
 66
     1
 10
0.0
 20
0.0
 30
0.0
  0
VERTEX
  5
84FC
100
AcDbEntity
  8
ALPHA
100
AcDbVertex
100
AcDb2dVertex
 10
3.517511
 20
1.384381
 30
0.0
  0
VERTEX
  5
84FD
100
AcDbEntity
  8
ALPHA
100
AcDbVertex
100
AcDb2dVertex
 10
3.288701
 20
1.39526
 30
0.0
  0
VERTEX
  5
84FE
100
AcDbEntity
  8
ALPHA
100
AcDbVertex
100
AcDb2dVertex
 10
3.066496
 20
1.427189
 30
0.0
  0
VERTEX
  5
84FF
100
AcDbEntity
  8
ALPHA
100
AcDbVertex
100
AcDb2dVertex
 10
2.85202
 20
1.479108
 30
0.0
  0
VERTEX
  5
8500
100
AcDbEntity
  8
ALPHA
100
AcDbVertex
100
AcDb2dVertex
 10
2.6464
 20
1.549953
 30
0.0
  0
VERTEX
  5
8501
100
AcDbEntity
  8
ALPHA
100
AcDbVertex
100
AcDb2dVertex
 10
2.45076
 20
1.638664
 30
0.0
  0
VERTEX
  5
8502
100
AcDbEntity
  8
ALPHA
100
AcDbVertex
100
AcDb2dVertex
 10
2.266228
 20
1.744179
 30
0.0
  0
VERTEX
  5
8503
100
AcDbEntity
  8
ALPHA
100
AcDbVertex
100
AcDb2dVertex
 10
2.093927
 20
1.865437
 30
0.0
  0
VERTEX
  5
8504
100
AcDbEntity
  8
ALPHA
100
AcDbVertex
100
AcDb2dVertex
 10
1.934985
 20
2.001376
 30
0.0
  0
VERTEX
  5
8505
100
AcDbEntity
  8
ALPHA
100
AcDbVertex
100
AcDb2dVertex
 10
1.790526
 20
2.150935
 30
0.0
  0
VERTEX
  5
8506
100
AcDbEntity
  8
ALPHA
100
AcDbVertex
100
AcDb2dVertex
 10
1.661676
 20
2.313051
 30
0.0
  0
VERTEX
  5
8507
100
AcDbEntity
  8
ALPHA
100
AcDbVertex
100
AcDb2dVertex
 10
1.549561
 20
2.486664
 30
0.0
  0
VERTEX
  5
8508
100
AcDbEntity
  8
ALPHA
100
AcDbVertex
100
AcDb2dVertex
 10
1.455306
 20
2.670712
 30
0.0
  0
VERTEX
  5
8509
100
AcDbEntity
  8
ALPHA
100
AcDbVertex
100
AcDb2dVertex
 10
1.380038
 20
2.864134
 30
0.0
  0
VERTEX
  5
850A
100
AcDbEntity
  8
ALPHA
100
AcDbVertex
100
AcDb2dVertex
 10
1.324881
 20
3.065867
 30
0.0
  0
VERTEX
  5
850B
100
AcDbEntity
  8
ALPHA
100
AcDbVertex
100
AcDb2dVertex
 10
1.290961
 20
3.274851
 30
0.0
  0
VERTEX
  5
850C
100
AcDbEntity
  8
ALPHA
100
AcDbVertex
100
AcDb2dVertex
 10
1.279404
 20
3.490023
 30
0.0
  0
SEQEND
  5
850D
100
AcDbEntity
  8
ALPHA
  0
POLYLINE
  5
850E
100
AcDbEntity
  8
ALPHA
100
AcDb2dPolyline
 66
     1
 10
0.0
 20
0.0
 30
0.0
  0
VERTEX
  5
850F
100
AcDbEntity
  8
ALPHA
100
AcDbVertex
100
AcDb2dVertex
 10
1.279404
 20
3.490023
 30
0.0
  0
VERTEX
  5
8510
100
AcDbEntity
  8
ALPHA
100
AcDbVertex
100
AcDb2dVertex
 10
1.279404
 20
144.863479
 30
0.0
  0
SEQEND
  5
8511
100
AcDbEntity
  8
ALPHA
  0
POLYLINE
  5
8512
100
AcDbEntity
  8
ALPHA
100
AcDb2dPolyline
 66
     1
 10
0.0
 20
0.0
 30
0.0
  0
VERTEX
  5
8513
100
AcDbEntity
  8
ALPHA
100
AcDbVertex
100
AcDb2dVertex
 10
1.279404
 20
144.863479
 30
0.0
  0
VERTEX
  5
8514
100
AcDbEntity
  8
ALPHA
100
AcDbVertex
100
AcDb2dVertex
 10
1.290961
 20
145.078785
 30
0.0
  0
VERTEX
  5
8515
100
AcDbEntity
  8
ALPHA
100
AcDbVertex
100
AcDb2dVertex
 10
1.324881
 20
145.287852
 30
0.0
  0
VERTEX
  5
8516
100
AcDbEntity
  8
ALPHA
100
AcDbVertex
100
AcDb2dVertex
 10
1.380038
 20
145.489624
 30
0.0
  0
VERTEX
  5
8517
100
AcDbEntity
  8
ALPHA
100
AcDbVertex
100
AcDb2dVertex
 10
1.455306
 20
145.683045
 30
0.0
  0
VERTEX
  5
8518
100
AcDbEntity
  8
ALPHA
100
AcDbVertex
100
AcDb2dVertex
 10
1.549561
 20
145.867059
 30
0.0
  0
VERTEX
  5
8519
100
AcDbEntity
  8
ALPHA
100
AcDbVertex
100
AcDb2dVertex
 10
1.661676
 20
146.040611
 30
0.0
  0
VERTEX
  5
851A
100
AcDbEntity
  8
ALPHA
100
AcDbVertex
100
AcDb2dVertex
 10
1.790526
 20
146.202645
 30
0.0
  0
VERTEX
  5
851B
100
AcDbEntity
  8
ALPHA
100
AcDbVertex
100
AcDb2dVertex
 10
1.934985
 20
146.352104
 30
0.0
  0
VERTEX
  5
851C
100
AcDbEntity
  8
ALPHA
100
AcDbVertex
100
AcDb2dVertex
 10
2.093927
 20
146.487934
 30
0.0
  0
VERTEX
  5
851D
100
AcDbEntity
  8
ALPHA
100
AcDbVertex
100
AcDb2dVertex
 10
2.266228
 20
146.609079
 30
0.0
  0
VERTEX
  5
851E
100
AcDbEntity
  8
ALPHA
100
AcDbVertex
100
AcDb2dVertex
 10
2.45076
 20
146.714482
 30
0.0
  0
VERTEX
  5
851F
100
AcDbEntity
  8
ALPHA
100
AcDbVertex
100
AcDb2dVertex
 10
2.6464
 20
146.803089
 30
0.0
  0
VERTEX
  5
8520
100
AcDbEntity
  8
ALPHA
100
AcDbVertex
100
AcDb2dVertex
 10
2.85202
 20
146.873843
 30
0.0
  0
VERTEX
  5
8521
100
AcDbEntity
  8
ALPHA
100
AcDbVertex
100
AcDb2dVertex
 10
3.066496
 20
146.925689
 30
0.0
  0
VERTEX
  5
8522
100
AcDbEntity
  8
ALPHA
100
AcDbVertex
100
AcDb2dVertex
 10
3.288701
 20
146.95757
 30
0.0
  0
VERTEX
  5
8523
100
AcDbEntity
  8
ALPHA
100
AcDbVertex
100
AcDb2dVertex
 10
3.517511
 20
146.968432
 30
0.0
  0
SEQEND
  5
8524
100
AcDbEntity
  8
ALPHA
  0
POLYLINE
  5
8525
100
AcDbEntity
  8
ALPHA
100
AcDb2dPolyline
 66
     1
 10
0.0
 20
0.0
 30
0.0
  0
VERTEX
  5
8526
100
AcDbEntity
  8
ALPHA
100
AcDbVertex
100
AcDb2dVertex
 10
3.517511
 20
146.968432
 30
0.0
  0
VERTEX
  5
8527
100
AcDbEntity
  8
ALPHA
100
AcDbVertex
100
AcDb2dVertex
 10
46.802724
 20
146.968432
 30
0.0
  0
SEQEND
  5
8528
100
AcDbEntity
  8
ALPHA
  0
POLYLINE
  5
8529
100
AcDbEntity
  8
ALPHA
100
AcDb2dPolyline
 66
     1
 10
0.0
 20
0.0
 30
0.0
  0
VERTEX
  5
852A
100
AcDbEntity
  8
ALPHA
100
AcDbVertex
100
AcDb2dVertex
 10
46.802724
 20
146.968432
 30
0.0
  0
VERTEX
  5
852B
100
AcDbEntity
  8
ALPHA
100
AcDbVertex
100
AcDb2dVertex
 10
47.031433
 20
146.95757
 30
0.0
  0
VERTEX
  5
852C
100
AcDbEntity
  8
ALPHA
100
AcDbVertex
100
AcDb2dVertex
 10
47.253532
 20
146.925689
 30
0.0
  0
VERTEX
  5
852D
100
AcDbEntity
  8
ALPHA
100
AcDbVertex
100
AcDb2dVertex
 10
47.467896
 20
146.873843
 30
0.0
  0
VERTEX
  5
852E
100
AcDbEntity
  8
ALPHA
100
AcDbVertex
100
AcDb2dVertex
 10
47.673402
 20
146.803089
 30
0.0
  0
VERTEX
  5
852F
100
AcDbEntity
  8
ALPHA
100
AcDbVertex
100
AcDb2dVertex
 10
47.868926
 20
146.714482
 30
0.0
  0
VERTEX
  5
8530
100
AcDbEntity
  8
ALPHA
100
AcDbVertex
100
AcDb2dVertex
 10
48.053344
 20
146.609079
 30
0.0
  0
VERTEX
  5
8531
100
AcDbEntity
  8
ALPHA
100
AcDbVertex
100
AcDb2dVertex
 10
48.225533
 20
146.487934
 30
0.0
  0
VERTEX
  5
8532
100
AcDbEntity
  8
ALPHA
100
AcDbVertex
100
AcDb2dVertex
 10
48.384367
 20
146.352104
 30
0.0
  0
VERTEX
  5
8533
100
AcDbEntity
  8
ALPHA
100
AcDbVertex
100
AcDb2dVertex
 10
48.528725
 20
146.202645
 30
0.0
  0
VERTEX
  5
8534
100
AcDbEntity
  8
ALPHA
100
AcDbVertex
100
AcDb2dVertex
 10
48.657481
 20
146.040611
 30
0.0
  0
VERTEX
  5
8535
100
AcDbEntity
  8
ALPHA
100
AcDbVertex
100
AcDb2dVertex
 10
48.769511
 20
145.867059
 30
0.0
  0
VERTEX
  5
8536
100
AcDbEntity
  8
ALPHA
100
AcDbVertex
100
AcDb2dVertex
 10
48.863693
 20
145.683045
 30
0.0
  0
VERTEX
  5
8537
100
AcDbEntity
  8
ALPHA
100
AcDbVertex
100
AcDb2dVertex
 10
48.938902
 20
145.489624
 30
0.0
  0
VERTEX
  5
8538
100
AcDbEntity
  8
ALPHA
100
AcDbVertex
100
AcDb2dVertex
 10
48.994014
 20
145.287852
 30
0.0
  0
VERTEX
  5
8539
100
AcDbEntity
  8
ALPHA
100
AcDbVertex
100
AcDb2dVertex
 10
49.027905
 20
145.078785
 30
0.0
  0
VERTEX
  5
853A
100
AcDbEntity
  8
ALPHA
100
AcDbVertex
100
AcDb2dVertex
 10
49.039452
 20
144.863479
 30
0.0
  0
SEQEND
  5
853B
100
AcDbEntity
  8
ALPHA
  0
POLYLINE
  5
853C
100
AcDbEntity
  8
ALPHA
100
AcDb2dPolyline
 66
     1
 10
0.0
 20
0.0
 30
0.0
  0
VERTEX
  5
853D
100
AcDbEntity
  8
ALPHA
100
AcDbVertex
100
AcDb2dVertex
 10
49.039452
 20
144.863479
 30
0.0
  0
VERTEX
  5
853E
100
AcDbEntity
  8
ALPHA
100
AcDbVertex
100
AcDb2dVertex
 10
49.039452
 20
3.490023
 30
0.0
  0
SEQEND
  5
853F
100
AcDbEntity
  8
ALPHA
  0
POLYLINE
  5
8540
100
AcDbEntity
  8
ALPHA
100
AcDb2dPolyline
 66
     1
 10
0.0
 20
0.0
 30
0.0
  0
VERTEX
  5
8541
100
AcDbEntity
  8
ALPHA
100
AcDbVertex
100
AcDb2dVertex
 10
30.504494
 20
56.168117
 30
0.0
  0
VERTEX
  5
8542
100
AcDbEntity
  8
ALPHA
100
AcDbVertex
100
AcDb2dVertex
 10
48.464638
 20
56.168117
 30
0.0
  0
SEQEND
  5
8543
100
AcDbEntity
  8
ALPHA
  0
POLYLINE
  5
8544
100
AcDbEntity
  8
ALPHA
100
AcDb2dPolyline
 66
     1
 10
0.0
 20
0.0
 30
0.0
  0
VERTEX
  5
8545
100
AcDbEntity
  8
ALPHA
100
AcDbVertex
100
AcDb2dVertex
 10
48.464638
 20
56.168117
 30
0.0
  0
VERTEX
  5
8546
100
AcDbEntity
  8
ALPHA
100
AcDbVertex
100
AcDb2dVertex
 10
48.464638
 20
47.509042
 30
0.0
  0
SEQEND
  5
8547
100
AcDbEntity
  8
ALPHA
  0
POLYLINE
  5
8548
100
AcDbEntity
  8
ALPHA
100
AcDb2dPolyline
 66
     1
 10
0.0
 20
0.0
 30
0.0
  0
VERTEX
  5
8549
100
AcDbEntity
  8
ALPHA
100
AcDbVertex
100
AcDb2dVertex
 10
48.464638
 20
47.509042
 30
0.0
  0
VERTEX
  5
854A
100
AcDbEntity
  8
ALPHA
100
AcDbVertex
100
AcDb2dVertex
 10
30.504494
 20
47.509042
 30
0.0
  0
SEQEND
  5
854B
100
AcDbEntity
  8
ALPHA
  0
POLYLINE
  5
854C
100
AcDbEntity
  8
ALPHA
100
AcDb2dPolyline
 66
     1
 10
0.0
 20
0.0
 30
0.0
  0
VERTEX
  5
854D
100
AcDbEntity
  8
ALPHA
100
AcDbVertex
100
AcDb2dVertex
 10
30.504494
 20
47.509042
 30
0.0
  0
VERTEX
  5
854E
100
AcDbEntity
  8
ALPHA
100
AcDbVertex
100
AcDb2dVertex
 10
30.504494
 20
56.168117
 30
0.0
  0
SEQEND
  5
854F
100
AcDbEntity
  8
ALPHA
  0
POLYLINE
  5
8550
100
AcDbEntity
  8
ALPHA
100
AcDb2dPolyline
 66
     1
 10
0.0
 20
0.0
 30
0.0
  0
VERTEX
  5
8551
100
AcDbEntity
  8
ALPHA
100
AcDbVertex
100
AcDb2dVertex
 10
1.920709
 20
47.508181
 30
0.0
  0
VERTEX
  5
8552
100
AcDbEntity
  8
ALPHA
100
AcDbVertex
100
AcDb2dVertex
 10
19.878441
 20
47.508181
 30
0.0
  0
SEQEND
  5
8553
100
AcDbEntity
  8
ALPHA
  0
POLYLINE
  5
8554
100
AcDbEntity
  8
ALPHA
100
AcDb2dPolyline
 66
     1
 10
0.0
 20
0.0
 30
0.0
  0
VERTEX
  5
8555
100
AcDbEntity
  8
ALPHA
100
AcDbVertex
100
AcDb2dVertex
 10
19.878441
 20
47.508181
 30
0.0
  0
VERTEX
  5
8556
100
AcDbEntity
  8
ALPHA
100
AcDbVertex
100
AcDb2dVertex
 10
19.878441
 20
56.167256
 30
0.0
  0
SEQEND
  5
8557
100
AcDbEntity
  8
ALPHA
  0
POLYLINE
  5
8558
100
AcDbEntity
  8
ALPHA
100
AcDb2dPolyline
 66
     1
 10
0.0
 20
0.0
 30
0.0
  0
VERTEX
  5
8559
100
AcDbEntity
  8
ALPHA
100
AcDbVertex
100
AcDb2dVertex
 10
19.878441
 20
56.167256
 30
0.0
  0
VERTEX
  5
855A
100
AcDbEntity
  8
ALPHA
100
AcDbVertex
100
AcDb2dVertex
 10
1.920709
 20
56.167256
 30
0.0
  0
SEQEND
  5
855B
100
AcDbEntity
  8
ALPHA
  0
POLYLINE
  5
855C
100
AcDbEntity
  8
ALPHA
100
AcDb2dPolyline
 66
     1
 10
0.0
 20
0.0
 30
0.0
  0
VERTEX
  5
855D
100
AcDbEntity
  8
ALPHA
100
AcDbVertex
100
AcDb2dVertex
 10
1.920709
 20
56.167256
 30
0.0
  0
VERTEX
  5
855E
100
AcDbEntity
  8
ALPHA
100
AcDbVertex
100
AcDb2dVertex
 10
1.920709
 20
47.508181
 30
0.0
  0
SEQEND
  5
855F
100
AcDbEntity
  8
ALPHA
  0
POLYLINE
  5
8560
100
AcDbEntity
  8
ALPHA
100
AcDb2dPolyline
 66
     1
 10
0.0
 20
0.0
 30
0.0
  0
VERTEX
  5
8561
100
AcDbEntity
  8
ALPHA
100
AcDbVertex
100
AcDb2dVertex
 10
30.504494
 20
80.346142
 30
0.0
  0
VERTEX
  5
8562
100
AcDbEntity
  8
ALPHA
100
AcDbVertex
100
AcDb2dVertex
 10
48.464638
 20
80.346142
 30
0.0
  0
SEQEND
  5
8563
100
AcDbEntity
  8
ALPHA
  0
POLYLINE
  5
8564
100
AcDbEntity
  8
ALPHA
100
AcDb2dPolyline
 66
     1
 10
0.0
 20
0.0
 30
0.0
  0
VERTEX
  5
8565
100
AcDbEntity
  8
ALPHA
100
AcDbVertex
100
AcDb2dVertex
 10
48.464638
 20
80.346142
 30
0.0
  0
VERTEX
  5
8566
100
AcDbEntity
  8
ALPHA
100
AcDbVertex
100
AcDb2dVertex
 10
48.464638
 20
71.449872
 30
0.0
  0
SEQEND
  5
8567
100
AcDbEntity
  8
ALPHA
  0
POLYLINE
  5
8568
100
AcDbEntity
  8
ALPHA
100
AcDb2dPolyline
 66
     1
 10
0.0
 20
0.0
 30
0.0
  0
VERTEX
  5
8569
100
AcDbEntity
  8
ALPHA
100
AcDbVertex
100
AcDb2dVertex
 10
48.464638
 20
71.449872
 30
0.0
  0
VERTEX
  5
856A
100
AcDbEntity
  8
ALPHA
100
AcDbVertex
100
AcDb2dVertex
 10
30.504494
 20
71.449872
 30
0.0
  0
SEQEND
  5
856B
100
AcDbEntity
  8
ALPHA
  0
POLYLINE
  5
856C
100
AcDbEntity
  8
ALPHA
100
AcDb2dPolyline
 66
     1
 10
0.0
 20
0.0
 30
0.0
  0
VERTEX
  5
856D
100
AcDbEntity
  8
ALPHA
100
AcDbVertex
100
AcDb2dVertex
 10
30.504494
 20
71.449872
 30
0.0
  0
VERTEX
  5
856E
100
AcDbEntity
  8
ALPHA
100
AcDbVertex
100
AcDb2dVertex
 10
30.504494
 20
80.346142
 30
0.0
  0
SEQEND
  5
856F
100
AcDbEntity
  8
ALPHA
  0
POLYLINE
  5
8570
100
AcDbEntity
  8
ALPHA
100
AcDb2dPolyline
 66
     1
 10
0.0
 20
0.0
 30
0.0
  0
VERTEX
  5
8571
100
AcDbEntity
  8
ALPHA
100
AcDbVertex
100
AcDb2dVertex
 10
1.920709
 20
71.449872
 30
0.0
  0
VERTEX
  5
8572
100
AcDbEntity
  8
ALPHA
100
AcDbVertex
100
AcDb2dVertex
 10
19.878441
 20
71.449872
 30
0.0
  0
SEQEND
  5
8573
100
AcDbEntity
  8
ALPHA
  0
POLYLINE
  5
8574
100
AcDbEntity
  8
ALPHA
100
AcDb2dPolyline
 66
     1
 10
0.0
 20
0.0
 30
0.0
  0
VERTEX
  5
8575
100
AcDbEntity
  8
ALPHA
100
AcDbVertex
100
AcDb2dVertex
 10
19.878441
 20
71.449872
 30
0.0
  0
VERTEX
  5
8576
100
AcDbEntity
  8
ALPHA
100
AcDbVertex
100
AcDb2dVertex
 10
19.878441
 20
80.346142
 30
0.0
  0
SEQEND
  5
8577
100
AcDbEntity
  8
ALPHA
  0
POLYLINE
  5
8578
100
AcDbEntity
  8
ALPHA
100
AcDb2dPolyline
 66
     1
 10
0.0
 20
0.0
 30
0.0
  0
VERTEX
  5
8579
100
AcDbEntity
  8
ALPHA
100
AcDbVertex
100
AcDb2dVertex
 10
19.878441
 20
80.346142
 30
0.0
  0
VERTEX
  5
857A
100
AcDbEntity
  8
ALPHA
100
AcDbVertex
100
AcDb2dVertex
 10
1.920709
 20
80.346142
 30
0.0
  0
SEQEND
  5
857B
100
AcDbEntity
  8
ALPHA
  0
POLYLINE
  5
857C
100
AcDbEntity
  8
ALPHA
100
AcDb2dPolyline
 66
     1
 10
0.0
 20
0.0
 30
0.0
  0
VERTEX
  5
857D
100
AcDbEntity
  8
ALPHA
100
AcDbVertex
100
AcDb2dVertex
 10
1.920709
 20
80.346142
 30
0.0
  0
VERTEX
  5
857E
100
AcDbEntity
  8
ALPHA
100
AcDbVertex
100
AcDb2dVertex
 10
1.920709
 20
71.449872
 30
0.0
  0
SEQEND
  5
857F
100
AcDbEntity
  8
ALPHA
  0
POLYLINE
  5
8580
100
AcDbEntity
  8
ALPHA
100
AcDb2dPolyline
 66
     1
 10
0.0
 20
0.0
 30
0.0
  0
VERTEX
  5
8581
100
AcDbEntity
  8
ALPHA
100
AcDbVertex
100
AcDb2dVertex
 10
30.504494
 20
104.523994
 30
0.0
  0
VERTEX
  5
8582
100
AcDbEntity
  8
ALPHA
100
AcDbVertex
100
AcDb2dVertex
 10
48.464638
 20
104.523994
 30
0.0
  0
SEQEND
  5
8583
100
AcDbEntity
  8
ALPHA
  0
POLYLINE
  5
8584
100
AcDbEntity
  8
ALPHA
100
AcDb2dPolyline
 66
     1
 10
0.0
 20
0.0
 30
0.0
  0
VERTEX
  5
8585
100
AcDbEntity
  8
ALPHA
100
AcDbVertex
100
AcDb2dVertex
 10
48.464638
 20
104.523994
 30
0.0
  0
VERTEX
  5
8586
100
AcDbEntity
  8
ALPHA
100
AcDbVertex
100
AcDb2dVertex
 10
48.464638
 20
95.627896
 30
0.0
  0
SEQEND
  5
8587
100
AcDbEntity
  8
ALPHA
  0
POLYLINE
  5
8588
100
AcDbEntity
  8
ALPHA
100
AcDb2dPolyline
 66
     1
 10
0.0
 20
0.0
 30
0.0
  0
VERTEX
  5
8589
100
AcDbEntity
  8
ALPHA
100
AcDbVertex
100
AcDb2dVertex
 10
48.464638
 20
95.627896
 30
0.0
  0
VERTEX
  5
858A
100
AcDbEntity
  8
ALPHA
100
AcDbVertex
100
AcDb2dVertex
 10
30.504494
 20
95.627896
 30
0.0
  0
SEQEND
  5
858B
100
AcDbEntity
  8
ALPHA
  0
POLYLINE
  5
858C
100
AcDbEntity
  8
ALPHA
100
AcDb2dPolyline
 66
     1
 10
0.0
 20
0.0
 30
0.0
  0
VERTEX
  5
858D
100
AcDbEntity
  8
ALPHA
100
AcDbVertex
100
AcDb2dVertex
 10
30.504494
 20
95.627896
 30
0.0
  0
VERTEX
  5
858E
100
AcDbEntity
  8
ALPHA
100
AcDbVertex
100
AcDb2dVertex
 10
30.504494
 20
104.523994
 30
0.0
  0
SEQEND
  5
858F
100
AcDbEntity
  8
ALPHA
  0
POLYLINE
  5
8590
100
AcDbEntity
  8
ALPHA
100
AcDb2dPolyline
 66
     1
 10
0.0
 20
0.0
 30
0.0
  0
VERTEX
  5
8591
100
AcDbEntity
  8
ALPHA
100
AcDbVertex
100
AcDb2dVertex
 10
1.920709
 20
95.627896
 30
0.0
  0
VERTEX
  5
8592
100
AcDbEntity
  8
ALPHA
100
AcDbVertex
100
AcDb2dVertex
 10
19.878441
 20
95.627896
 30
0.0
  0
SEQEND
  5
8593
100
AcDbEntity
  8
ALPHA
  0
POLYLINE
  5
8594
100
AcDbEntity
  8
ALPHA
100
AcDb2dPolyline
 66
     1
 10
0.0
 20
0.0
 30
0.0
  0
VERTEX
  5
8595
100
AcDbEntity
  8
ALPHA
100
AcDbVertex
100
AcDb2dVertex
 10
19.878441
 20
95.627896
 30
0.0
  0
VERTEX
  5
8596
100
AcDbEntity
  8
ALPHA
100
AcDbVertex
100
AcDb2dVertex
 10
19.878441
 20
104.523994
 30
0.0
  0
SEQEND
  5
8597
100
AcDbEntity
  8
ALPHA
  0
POLYLINE
  5
8598
100
AcDbEntity
  8
ALPHA
100
AcDb2dPolyline
 66
     1
 10
0.0
 20
0.0
 30
0.0
  0
VERTEX
  5
8599
100
AcDbEntity
  8
ALPHA
100
AcDbVertex
100
AcDb2dVertex
 10
19.878441
 20
104.523994
 30
0.0
  0
VERTEX
  5
859A
100
AcDbEntity
  8
ALPHA
100
AcDbVertex
100
AcDb2dVertex
 10
1.920709
 20
104.523994
 30
0.0
  0
SEQEND
  5
859B
100
AcDbEntity
  8
ALPHA
  0
POLYLINE
  5
859C
100
AcDbEntity
  8
ALPHA
100
AcDb2dPolyline
 66
     1
 10
0.0
 20
0.0
 30
0.0
  0
VERTEX
  5
859D
100
AcDbEntity
  8
ALPHA
100
AcDbVertex
100
AcDb2dVertex
 10
1.920709
 20
104.523994
 30
0.0
  0
VERTEX
  5
859E
100
AcDbEntity
  8
ALPHA
100
AcDbVertex
100
AcDb2dVertex
 10
1.920709
 20
95.627896
 30
0.0
  0
SEQEND
  5
859F
100
AcDbEntity
  8
ALPHA
  0
POLYLINE
  5
85A0
100
AcDbEntity
  8
ALPHA
100
AcDb2dPolyline
 66
     1
 10
0.0
 20
0.0
 30
0.0
  0
VERTEX
  5
85A1
100
AcDbEntity
  8
ALPHA
100
AcDbVertex
100
AcDb2dVertex
 10
30.504494
 20
128.703741
 30
0.0
  0
VERTEX
  5
85A2
100
AcDbEntity
  8
ALPHA
100
AcDbVertex
100
AcDb2dVertex
 10
48.464638
 20
128.703741
 30
0.0
  0
SEQEND
  5
85A3
100
AcDbEntity
  8
ALPHA
  0
POLYLINE
  5
85A4
100
AcDbEntity
  8
ALPHA
100
AcDb2dPolyline
 66
     1
 10
0.0
 20
0.0
 30
0.0
  0
VERTEX
  5
85A5
100
AcDbEntity
  8
ALPHA
100
AcDbVertex
100
AcDb2dVertex
 10
48.464638
 20
128.703741
 30
0.0
  0
VERTEX
  5
85A6
100
AcDbEntity
  8
ALPHA
100
AcDbVertex
100
AcDb2dVertex
 10
48.464638
 20
119.806266
 30
0.0
  0
SEQEND
  5
85A7
100
AcDbEntity
  8
ALPHA
  0
POLYLINE
  5
85A8
100
AcDbEntity
  8
ALPHA
100
AcDb2dPolyline
 66
     1
 10
0.0
 20
0.0
 30
0.0
  0
VERTEX
  5
85A9
100
AcDbEntity
  8
ALPHA
100
AcDbVertex
100
AcDb2dVertex
 10
48.464638
 20
119.806266
 30
0.0
  0
VERTEX
  5
85AA
100
AcDbEntity
  8
ALPHA
100
AcDbVertex
100
AcDb2dVertex
 10
30.504494
 20
119.806266
 30
0.0
  0
SEQEND
  5
85AB
100
AcDbEntity
  8
ALPHA
  0
POLYLINE
  5
85AC
100
AcDbEntity
  8
ALPHA
100
AcDb2dPolyline
 66
     1
 10
0.0
 20
0.0
 30
0.0
  0
VERTEX
  5
85AD
100
AcDbEntity
  8
ALPHA
100
AcDbVertex
100
AcDb2dVertex
 10
30.504494
 20
119.806266
 30
0.0
  0
VERTEX
  5
85AE
100
AcDbEntity
  8
ALPHA
100
AcDbVertex
100
AcDb2dVertex
 10
30.504494
 20
128.703741
 30
0.0
  0
SEQEND
  5
85AF
100
AcDbEntity
  8
ALPHA
  0
POLYLINE
  5
85B0
100
AcDbEntity
  8
ALPHA
100
AcDb2dPolyline
 66
     1
 10
0.0
 20
0.0
 30
0.0
  0
VERTEX
  5
85B1
100
AcDbEntity
  8
ALPHA
100
AcDbVertex
100
AcDb2dVertex
 10
1.920709
 20
119.806266
 30
0.0
  0
VERTEX
  5
85B2
100
AcDbEntity
  8
ALPHA
100
AcDbVertex
100
AcDb2dVertex
 10
19.878441
 20
119.806266
 30
0.0
  0
SEQEND
  5
85B3
100
AcDbEntity
  8
ALPHA
  0
POLYLINE
  5
85B4
100
AcDbEntity
  8
ALPHA
100
AcDb2dPolyline
 66
     1
 10
0.0
 20
0.0
 30
0.0
  0
VERTEX
  5
85B5
100
AcDbEntity
  8
ALPHA
100
AcDbVertex
100
AcDb2dVertex
 10
19.878441
 20
119.806266
 30
0.0
  0
VERTEX
  5
85B6
100
AcDbEntity
  8
ALPHA
100
AcDbVertex
100
AcDb2dVertex
 10
19.878441
 20
128.703741
 30
0.0
  0
SEQEND
  5
85B7
100
AcDbEntity
  8
ALPHA
  0
POLYLINE
  5
85B8
100
AcDbEntity
  8
ALPHA
100
AcDb2dPolyline
 66
     1
 10
0.0
 20
0.0
 30
0.0
  0
VERTEX
  5
85B9
100
AcDbEntity
  8
ALPHA
100
AcDbVertex
100
AcDb2dVertex
 10
19.878441
 20
128.703741
 30
0.0
  0
VERTEX
  5
85BA
100
AcDbEntity
  8
ALPHA
100
AcDbVertex
100
AcDb2dVertex
 10
1.920709
 20
128.703741
 30
0.0
  0
SEQEND
  5
85BB
100
AcDbEntity
  8
ALPHA
  0
POLYLINE
  5
85BC
100
AcDbEntity
  8
ALPHA
100
AcDb2dPolyline
 66
     1
 10
0.0
 20
0.0
 30
0.0
  0
VERTEX
  5
85BD
100
AcDbEntity
  8
ALPHA
100
AcDbVertex
100
AcDb2dVertex
 10
1.920709
 20
128.703741
 30
0.0
  0
VERTEX
  5
85BE
100
AcDbEntity
  8
ALPHA
100
AcDbVertex
100
AcDb2dVertex
 10
1.920709
 20
119.806266
 30
0.0
  0
SEQEND
  5
85BF
100
AcDbEntity
  8
ALPHA
  0
POLYLINE
  5
85C0
100
AcDbEntity
  8
ALPHA
100
AcDb2dPolyline
 66
     1
 10
0.0
 20
0.0
 30
0.0
  0
VERTEX
  5
85C1
100
AcDbEntity
  8
ALPHA
100
AcDbVertex
100
AcDb2dVertex
 10
50.26005
 20
1.833105
 30
0.0
  0
VERTEX
  5
85C2
100
AcDbEntity
  8
ALPHA
100
AcDbVertex
100
AcDb2dVertex
 10
50.247891
 20
1.606534
 30
0.0
  0
VERTEX
  5
85C3
100
AcDbEntity
  8
ALPHA
100
AcDbVertex
100
AcDb2dVertex
 10
50.212202
 20
1.386514
 30
0.0
  0
VERTEX
  5
85C4
100
AcDbEntity
  8
ALPHA
100
AcDbVertex
100
AcDb2dVertex
 10
50.154167
 20
1.174158
 30
0.0
  0
VERTEX
  5
85C5
100
AcDbEntity
  8
ALPHA
100
AcDbVertex
100
AcDb2dVertex
 10
50.074967
 20
0.970579
 30
0.0
  0
VERTEX
  5
85C6
100
AcDbEntity
  8
ALPHA
100
AcDbVertex
100
AcDb2dVertex
 10
49.975785
 20
0.776891
 30
0.0
  0
VERTEX
  5
85C7
100
AcDbEntity
  8
ALPHA
100
AcDbVertex
100
AcDb2dVertex
 10
49.857803
 20
0.594206
 30
0.0
  0
VERTEX
  5
85C8
100
AcDbEntity
  8
ALPHA
100
AcDbVertex
100
AcDb2dVertex
 10
49.722204
 20
0.423637
 30
0.0
  0
VERTEX
  5
85C9
100
AcDbEntity
  8
ALPHA
100
AcDbVertex
100
AcDb2dVertex
 10
49.570169
 20
0.266297
 30
0.0
  0
VERTEX
  5
85CA
100
AcDbEntity
  8
ALPHA
100
AcDbVertex
100
AcDb2dVertex
 10
49.402882
 20
0.123299
 30
0.0
  0
VERTEX
  5
85CB
100
AcDbEntity
  8
ALPHA
100
AcDbVertex
100
AcDb2dVertex
 10
49.221525
 20
-0.004243
 30
0.0
  0
VERTEX
  5
85CC
100
AcDbEntity
  8
ALPHA
100
AcDbVertex
100
AcDb2dVertex
 10
49.02728
 20
-0.115217
 30
0.0
  0
VERTEX
  5
85CD
100
AcDbEntity
  8
ALPHA
100
AcDbVertex
100
AcDb2dVertex
 10
48.821329
 20
-0.20851
 30
0.0
  0
VERTEX
  5
85CE
100
AcDbEntity
  8
ALPHA
100
AcDbVertex
100
AcDb2dVertex
 10
48.604856
 20
-0.283009
 30
0.0
  0
VERTEX
  5
85CF
100
AcDbEntity
  8
ALPHA
100
AcDbVertex
100
AcDb2dVertex
 10
48.379042
 20
-0.3376
 30
0.0
  0
VERTEX
  5
85D0
100
AcDbEntity
  8
ALPHA
100
AcDbVertex
100
AcDb2dVertex
 10
48.145069
 20
-0.371171
 30
0.0
  0
VERTEX
  5
85D1
100
AcDbEntity
  8
ALPHA
100
AcDbVertex
100
AcDb2dVertex
 10
47.904121
 20
-0.382608
 30
0.0
  0
SEQEND
  5
85D2
100
AcDbEntity
  8
ALPHA
  0
POLYLINE
  5
85D3
100
AcDbEntity
  8
ALPHA
100
AcDb2dPolyline
 66
     1
 10
0.0
 20
0.0
 30
0.0
  0
VERTEX
  5
85D4
100
AcDbEntity
  8
ALPHA
100
AcDbVertex
100
AcDb2dVertex
 10
47.904121
 20
-0.382608
 30
0.0
  0
VERTEX
  5
85D5
100
AcDbEntity
  8
ALPHA
100
AcDbVertex
100
AcDb2dVertex
 10
2.414391
 20
-0.382608
 30
0.0
  0
SEQEND
  5
85D6
100
AcDbEntity
  8
ALPHA
  0
POLYLINE
  5
85D7
100
AcDbEntity
  8
ALPHA
100
AcDb2dPolyline
 66
     1
 10
0.0
 20
0.0
 30
0.0
  0
VERTEX
  5
85D8
100
AcDbEntity
  8
ALPHA
100
AcDbVertex
100
AcDb2dVertex
 10
2.414391
 20
-0.382608
 30
0.0
  0
VERTEX
  5
85D9
100
AcDbEntity
  8
ALPHA
100
AcDbVertex
100
AcDb2dVertex
 10
2.173576
 20
-0.371171
 30
0.0
  0
VERTEX
  5
85DA
100
AcDbEntity
  8
ALPHA
100
AcDbVertex
100
AcDb2dVertex
 10
1.939742
 20
-0.3376
 30
0.0
  0
VERTEX
  5
85DB
100
AcDbEntity
  8
ALPHA
100
AcDbVertex
100
AcDb2dVertex
 10
1.714071
 20
-0.283009
 30
0.0
  0
VERTEX
  5
85DC
100
AcDbEntity
  8
ALPHA
100
AcDbVertex
100
AcDb2dVertex
 10
1.497743
 20
-0.20851
 30
0.0
  0
VERTEX
  5
85DD
100
AcDbEntity
  8
ALPHA
100
AcDbVertex
100
AcDb2dVertex
 10
1.291937
 20
-0.115217
 30
0.0
  0
VERTEX
  5
85DE
100
AcDbEntity
  8
ALPHA
100
AcDbVertex
100
AcDb2dVertex
 10
1.097835
 20
-0.004243
 30
0.0
  0
VERTEX
  5
85DF
100
AcDbEntity
  8
ALPHA
100
AcDbVertex
100
AcDb2dVertex
 10
0.916617
 20
0.123299
 30
0.0
  0
VERTEX
  5
85E0
100
AcDbEntity
  8
ALPHA
100
AcDbVertex
100
AcDb2dVertex
 10
0.749463
 20
0.266297
 30
0.0
  0
VERTEX
  5
85E1
100
AcDbEntity
  8
ALPHA
100
AcDbVertex
100
AcDb2dVertex
 10
0.597553
 20
0.423637
 30
0.0
  0
VERTEX
  5
85E2
100
AcDbEntity
  8
ALPHA
100
AcDbVertex
100
AcDb2dVertex
 10
0.462068
 20
0.594206
 30
0.0
  0
VERTEX
  5
85E3
100
AcDbEntity
  8
ALPHA
100
AcDbVertex
100
AcDb2dVertex
 10
0.344189
 20
0.776891
 30
0.0
  0
VERTEX
  5
85E4
100
AcDbEntity
  8
ALPHA
100
AcDbVertex
100
AcDb2dVertex
 10
0.245095
 20
0.970579
 30
0.0
  0
VERTEX
  5
85E5
100
AcDbEntity
  8
ALPHA
100
AcDbVertex
100
AcDb2dVertex
 10
0.165968
 20
1.174158
 30
0.0
  0
VERTEX
  5
85E6
100
AcDbEntity
  8
ALPHA
100
AcDbVertex
100
AcDb2dVertex
 10
0.107987
 20
1.386514
 30
0.0
  0
VERTEX
  5
85E7
100
AcDbEntity
  8
ALPHA
100
AcDbVertex
100
AcDb2dVertex
 10
0.072332
 20
1.606534
 30
0.0
  0
VERTEX
  5
85E8
100
AcDbEntity
  8
ALPHA
100
AcDbVertex
100
AcDb2dVertex
 10
0.060185
 20
1.833105
 30
0.0
  0
SEQEND
  5
85E9
100
AcDbEntity
  8
ALPHA
  0
POLYLINE
  5
85EA
100
AcDbEntity
  8
ALPHA
100
AcDb2dPolyline
 66
     1
 10
0.0
 20
0.0
 30
0.0
  0
VERTEX
  5
85EB
100
AcDbEntity
  8
ALPHA
100
AcDbVertex
100
AcDb2dVertex
 10
0.060185
 20
1.833105
 30
0.0
  0
VERTEX
  5
85EC
100
AcDbEntity
  8
ALPHA
100
AcDbVertex
100
AcDb2dVertex
 10
0.060185
 20
146.601529
 30
0.0
  0
SEQEND
  5
85ED
100
AcDbEntity
  8
ALPHA
  0
POLYLINE
  5
85EE
100
AcDbEntity
  8
ALPHA
100
AcDb2dPolyline
 66
     1
 10
0.0
 20
0.0
 30
0.0
  0
VERTEX
  5
85EF
100
AcDbEntity
  8
ALPHA
100
AcDbVertex
100
AcDb2dVertex
 10
0.060185
 20
146.601529
 30
0.0
  0
VERTEX
  5
85F0
100
AcDbEntity
  8
ALPHA
100
AcDbVertex
100
AcDb2dVertex
 10
0.072332
 20
146.828045
 30
0.0
  0
VERTEX
  5
85F1
100
AcDbEntity
  8
ALPHA
100
AcDbVertex
100
AcDb2dVertex
 10
0.107987
 20
147.048029
 30
0.0
  0
VERTEX
  5
85F2
100
AcDbEntity
  8
ALPHA
100
AcDbVertex
100
AcDb2dVertex
 10
0.165968
 20
147.260364
 30
0.0
  0
VERTEX
  5
85F3
100
AcDbEntity
  8
ALPHA
100
AcDbVertex
100
AcDb2dVertex
 10
0.245095
 20
147.463936
 30
0.0
  0
VERTEX
  5
85F4
100
AcDbEntity
  8
ALPHA
100
AcDbVertex
100
AcDb2dVertex
 10
0.344189
 20
147.65763
 30
0.0
  0
VERTEX
  5
85F5
100
AcDbEntity
  8
ALPHA
100
AcDbVertex
100
AcDb2dVertex
 10
0.462068
 20
147.840331
 30
0.0
  0
VERTEX
  5
85F6
100
AcDbEntity
  8
ALPHA
100
AcDbVertex
100
AcDb2dVertex
 10
0.597553
 20
148.010924
 30
0.0
  0
VERTEX
  5
85F7
100
AcDbEntity
  8
ALPHA
100
AcDbVertex
100
AcDb2dVertex
 10
0.749463
 20
148.168294
 30
0.0
  0
VERTEX
  5
85F8
100
AcDbEntity
  8
ALPHA
100
AcDbVertex
100
AcDb2dVertex
 10
0.916617
 20
148.311326
 30
0.0
  0
VERTEX
  5
85F9
100
AcDbEntity
  8
ALPHA
100
AcDbVertex
100
AcDb2dVertex
 10
1.097835
 20
148.438904
 30
0.0
  0
VERTEX
  5
85FA
100
AcDbEntity
  8
ALPHA
100
AcDbVertex
100
AcDb2dVertex
 10
1.291937
 20
148.549914
 30
0.0
  0
VERTEX
  5
85FB
100
AcDbEntity
  8
ALPHA
100
AcDbVertex
100
AcDb2dVertex
 10
1.497743
 20
148.643241
 30
0.0
  0
VERTEX
  5
85FC
100
AcDbEntity
  8
ALPHA
100
AcDbVertex
100
AcDb2dVertex
 10
1.714071
 20
148.717769
 30
0.0
  0
VERTEX
  5
85FD
100
AcDbEntity
  8
ALPHA
100
AcDbVertex
100
AcDb2dVertex
 10
1.939742
 20
148.772385
 30
0.0
  0
VERTEX
  5
85FE
100
AcDbEntity
  8
ALPHA
100
AcDbVertex
100
AcDb2dVertex
 10
2.173576
 20
148.805971
 30
0.0
  0
VERTEX
  5
85FF
100
AcDbEntity
  8
ALPHA
100
AcDbVertex
100
AcDb2dVertex
 10
2.414391
 20
148.817415
 30
0.0
  0
SEQEND
  5
8600
100
AcDbEntity
  8
ALPHA
  0
POLYLINE
  5
8601
100
AcDbEntity
  8
ALPHA
100
AcDb2dPolyline
 66
     1
 10
0.0
 20
0.0
 30
0.0
  0
VERTEX
  5
8602
100
AcDbEntity
  8
ALPHA
100
AcDbVertex
100
AcDb2dVertex
 10
2.414391
 20
148.817415
 30
0.0
  0
VERTEX
  5
8603
100
AcDbEntity
  8
ALPHA
100
AcDbVertex
100
AcDb2dVertex
 10
47.904121
 20
148.817415
 30
0.0
  0
SEQEND
  5
8604
100
AcDbEntity
  8
ALPHA
  0
POLYLINE
  5
8605
100
AcDbEntity
  8
ALPHA
100
AcDb2dPolyline
 66
     1
 10
0.0
 20
0.0
 30
0.0
  0
VERTEX
  5
8606
100
AcDbEntity
  8
ALPHA
100
AcDbVertex
100
AcDb2dVertex
 10
47.904121
 20
148.817415
 30
0.0
  0
VERTEX
  5
8607
100
AcDbEntity
  8
ALPHA
100
AcDbVertex
100
AcDb2dVertex
 10
48.145069
 20
148.805983
 30
0.0
  0
VERTEX
  5
8608
100
AcDbEntity
  8
ALPHA
100
AcDbVertex
100
AcDb2dVertex
 10
48.379042
 20
148.772427
 30
0.0
  0
VERTEX
  5
8609
100
AcDbEntity
  8
ALPHA
100
AcDbVertex
100
AcDb2dVertex
 10
48.604856
 20
148.717858
 30
0.0
  0
VERTEX
  5
860A
100
AcDbEntity
  8
ALPHA
100
AcDbVertex
100
AcDb2dVertex
 10
48.821329
 20
148.643386
 30
0.0
  0
VERTEX
  5
860B
100
AcDbEntity
  8
ALPHA
100
AcDbVertex
100
AcDb2dVertex
 10
49.02728
 20
148.550122
 30
0.0
  0
VERTEX
  5
860C
100
AcDbEntity
  8
ALPHA
100
AcDbVertex
100
AcDb2dVertex
 10
49.221525
 20
148.439176
 30
0.0
  0
VERTEX
  5
860D
100
AcDbEntity
  8
ALPHA
100
AcDbVertex
100
AcDb2dVertex
 10
49.402882
 20
148.311659
 30
0.0
  0
VERTEX
  5
860E
100
AcDbEntity
  8
ALPHA
100
AcDbVertex
100
AcDb2dVertex
 10
49.570169
 20
148.168682
 30
0.0
  0
VERTEX
  5
860F
100
AcDbEntity
  8
ALPHA
100
AcDbVertex
100
AcDb2dVertex
 10
49.722204
 20
148.011354
 30
0.0
  0
VERTEX
  5
8610
100
AcDbEntity
  8
ALPHA
100
AcDbVertex
100
AcDb2dVertex
 10
49.857803
 20
147.840786
 30
0.0
  0
VERTEX
  5
8611
100
AcDbEntity
  8
ALPHA
100
AcDbVertex
100
AcDb2dVertex
 10
49.975785
 20
147.658088
 30
0.0
  0
VERTEX
  5
8612
100
AcDbEntity
  8
ALPHA
100
AcDbVertex
100
AcDb2dVertex
 10
50.074967
 20
147.464372
 30
0.0
  0
VERTEX
  5
8613
100
AcDbEntity
  8
ALPHA
100
AcDbVertex
100
AcDb2dVertex
 10
50.154167
 20
147.260748
 30
0.0
  0
VERTEX
  5
8614
100
AcDbEntity
  8
ALPHA
100
AcDbVertex
100
AcDb2dVertex
 10
50.212202
 20
147.048325
 30
0.0
  0
VERTEX
  5
8615
100
AcDbEntity
  8
ALPHA
100
AcDbVertex
100
AcDb2dVertex
 10
50.247891
 20
146.828216
 30
0.0
  0
VERTEX
  5
8616
100
AcDbEntity
  8
ALPHA
100
AcDbVertex
100
AcDb2dVertex
 10
50.26005
 20
146.601529
 30
0.0
  0
SEQEND
  5
8617
100
AcDbEntity
  8
ALPHA
  0
POLYLINE
  5
8618
100
AcDbEntity
  8
ALPHA
100
AcDb2dPolyline
 66
     1
 10
0.0
 20
0.0
 30
0.0
  0
VERTEX
  5
8619
100
AcDbEntity
  8
ALPHA
100
AcDbVertex
100
AcDb2dVertex
 10
50.26005
 20
146.601529
 30
0.0
  0
VERTEX
  5
861A
100
AcDbEntity
  8
ALPHA
100
AcDbVertex
100
AcDb2dVertex
 10
50.26005
 20
1.833105
 30
0.0
  0
SEQEND
  5
861B
100
AcDbEntity
  8
ALPHA
  0
DIMENSION
  5
8628
100
AcDbEntity
  8
COTATION1
100
AcDbDimension
  2
*D7
 10
50.26005
 20
157.511942
 30
0.0
 11
25.160117
 21
159.761942
 31
0.0
 70
    32
  3
SC_STAND
100
AcDbAlignedDimension
 13
0.060185
 23
146.601529
 33
0.0
 14
50.26005
 24
146.601529
 34
0.0
100
AcDbRotatedDimension
  0
LEADER
  5
8634
100
AcDbEntity
  8
COTATION1
100
AcDbLeader
  3
SC_STAND
 73
     0
 74
     0
 75
     1
 40
2.5
 41
12.5
 76
     3
 10
25.484692
 20
113.34402
 30
0.0
 10
31.107239
 20
151.912568
 30
0.0
 10
34.107239
 20
151.912568
 30
0.0
 77
   256
340
8635
  0
MTEXT
  5
8635
102
{ACAD_REACTORS
330
8634
102
}
100
AcDbEntity
  8
COTATION1
100
AcDbMText
 10
35.107239
 20
154.162568
 30
0.0
 40
2.5
 41
0.0
 71
     4
 72
     1
  1
\A1;2x%%c4.5
  0
DIMENSION
  5
864D
100
AcDbEntity
  8
COTATION1
100
AcDbDimension
  2
*D8
 10
59.752155
 20
111.117562
 30
0.0
 11
57.502155
 21
94.117567
 31
0.0
 70
    32
  3
SC_STAND
100
AcDbAlignedDimension
 13
25.160117
 23
77.117571
 33
0.0
 14
25.160117
 24
111.117562
 34
0.0
 50
90.0
100
AcDbRotatedDimension
  0
DIMENSION
  5
865A
100
AcDbEntity
  8
COTATION1
100
AcDbDimension
  2
*D9
 10
59.752155
 20
77.117571
 30
0.0
 11
57.502155
 21
40.617559
 31
0.0
 70
    32
  3
SC_STAND
100
AcDbAlignedDimension
 13
39.410238
 23
4.117548
 33
0.0
 14
52.807009
 24
77.117571
 34
0.0
 50
90.0
100
AcDbRotatedDimension
  0
DIMENSION
  5
8680
100
AcDbEntity
  8
COTATION1
100
AcDbDimension
  2
*D10
 10
59.752155
 20
4.117548
 30
0.0
 11
63.252155
 21
1.86747
 31
0.0
 70
    32
  3
SC_STAND
100
AcDbAlignedDimension
 13
47.904121
 23
-0.382608
 33
0.0
 14
56.156304
 24
4.117548
 34
0.0
 50
90.0
100
AcDbRotatedDimension
  0
DIMENSION
  5
869E
100
AcDbEntity
  8
COTATION1
100
AcDbDimension
  2
*D11
 10
-6.228811
 20
1.8679
 30
0.0
 11
-9.728811
 21
4.117892
 31
0.0
 70
    32
  3
SC_STAND
100
AcDbAlignedDimension
 13
5.660188
 23
6.367884
 33
0.0
 14
5.660188
 24
1.8679
 34
0.0
 50
90.0
100
AcDbRotatedDimension
  0
DIMENSION
  5
86B9
100
AcDbEntity
  8
COTATION1
100
AcDbDimension
  2
*D12
 10
44.660219
 20
-13.482223
 30
0.0
 11
25.160203
 21
-11.232223
 31
0.0
 70
    32
  3
SC_STAND
100
AcDbAlignedDimension
 13
5.660188
 23
6.367884
 33
0.0
 14
44.660219
 24
6.367884
 34
0.0
100
AcDbRotatedDimension
  0
DIMENSION
  5
86C6
100
AcDbEntity
  8
COTATION1
100
AcDbDimension
  2
*D13
 10
41.66023
 20
-6.834567
 30
0.0
 11
25.160203
 21
-4.584567
 31
0.0
 70
    32
  3
SC_STAND
100
AcDbAlignedDimension
 13
8.660177
 23
6.367884
 33
0.0
 14
41.66023
 24
6.367884
 34
0.0
100
AcDbRotatedDimension
  0
ENDSEC
  0
SECTION
  2
OBJECTS
  0
DICTIONARY
  5
F8
100
AcDbDictionary
  3
ACAD_GROUP
350
F9
  3
ACAD_MLINESTYLE
350
106
  3
ACDBVARIABLEDICTIONARY
350
143
  0
DICTIONARY
  5
F9
102
{ACAD_REACTORS
330
F8
102
}
100
AcDbDictionary
  0
DICTIONARY
  5
106
102
{ACAD_REACTORS
330
F8
102
}
100
AcDbDictionary
  3
STANDARD
350
107
  0
DICTIONARY
  5
143
102
{ACAD_REACTORS
330
F8
102
}
100
AcDbDictionary
  3
DIMADEC
350
144
  0
MLINESTYLE
  5
107
102
{ACAD_REACTORS
330
106
102
}
100
AcDbMlineStyle
  2
STANDARD
 70
     0
  3

 62
   256
 51
90.0
 52
90.0
 71
     2
 49
0.5
 62
   256
  6
BYLAYER
 49
-0.5
 62
   256
  6
BYLAYER
  0
DICTIONARYVAR
  5
144
102
{ACAD_REACTORS
330
143
102
}
100
DictionaryVariables
280
     0
  1
0
  0
ENDSEC
  0
EOF
