  0
SECTION
  2
HEADER
  9
$ACADVER
  1
AC1014
  9
$ACADMAINTVER
 70
     9
  9
$DWGCODEPAGE
  3
ANSI_1252
  9
$INSBASE
 10
0.0
 20
0.0
 30
0.0
  9
$EXTMIN
 10
0.0
 20
0.190091554998471
 30
0.0
  9
$EXTMAX
 10
65.60000399999999
 20
41.19009155499847
 30
0.0
  9
$LIMMIN
 10
0.0
 20
0.0
  9
$LIMMAX
 10
16.40000099999999
 20
10.25
  9
$ORTHOMODE
 70
     0
  9
$REGENMODE
 70
     1
  9
$FILLMODE
 70
     1
  9
$QTEXTMODE
 70
     0
  9
$MIRRTEXT
 70
     1
  9
$DRAGMODE
 70
     2
  9
$LTSCALE
 40
1.0
  9
$OSMODE
 70
    39
  9
$ATTMODE
 70
     1
  9
$TEXTSIZE
 40
0.2
  9
$TRACEWID
 40
0.05
  9
$TEXTSTYLE
  7
ROMANS
  9
$CLAYER
  8
0
  9
$CELTYPE
  6
BYLAYER
  9
$CECOLOR
 62
   256
  9
$CELTSCALE
 40
1.0
  9
$DELOBJ
 70
     1
  9
$DISPSILH
 70
     0
  9
$DIMSCALE
 40
0.0
  9
$DIMASZ
 40
0.07
  9
$DIMEXO
 40
0.0625
  9
$DIMDLI
 40
0.38
  9
$DIMRND
 40
0.001
  9
$DIMDLE
 40
0.0
  9
$DIMEXE
 40
0.0625
  9
$DIMTP
 40
0.0
  9
$DIMTM
 40
0.0
  9
$DIMTXT
 40
0.1
  9
$DIMCEN
 40
0.09
  9
$DIMTSZ
 40
0.0
  9
$DIMTOL
 70
     0
  9
$DIMLIM
 70
     0
  9
$DIMTIH
 70
     1
  9
$DIMTOH
 70
     1
  9
$DIMSE1
 70
     0
  9
$DIMSE2
 70
     0
  9
$DIMTAD
 70
     0
  9
$DIMZIN
 70
     4
  9
$DIMBLK
  1
SEARROW
  9
$DIMASO
 70
     1
  9
$DIMSHO
 70
     1
  9
$DIMPOST
  1
\X
  9
$DIMAPOST
  1

  9
$DIMALT
 70
     1
  9
$DIMALTD
 70
     0
  9
$DIMALTF
 40
25.4
  9
$DIMLFAC
 40
1.0
  9
$DIMTOFL
 70
     0
  9
$DIMTVP
 40
0.0
  9
$DIMTIX
 70
     0
  9
$DIMSOXD
 70
     0
  9
$DIMSAH
 70
     0
  9
$DIMBLK1
  1

  9
$DIMBLK2
  1

  9
$DIMSTYLE
  2
SCHNEIDERELECTRIC
  9
$DIMCLRD
 70
   256
  9
$DIMCLRE
 70
   256
  9
$DIMCLRT
 70
   256
  9
$DIMTFAC
 40
1.0
  9
$DIMGAP
 40
0.04
  9
$DIMJUST
 70
     0
  9
$DIMSD1
 70
     0
  9
$DIMSD2
 70
     0
  9
$DIMTOLJ
 70
     1
  9
$DIMTZIN
 70
     0
  9
$DIMALTZ
 70
     0
  9
$DIMALTTZ
 70
     0
  9
$DIMFIT
 70
     3
  9
$DIMUPT
 70
     0
  9
$DIMUNIT
 70
     2
  9
$DIMDEC
 70
     2
  9
$DIMTDEC
 70
     2
  9
$DIMALTU
 70
     2
  9
$DIMALTTD
 70
     0
  9
$DIMTXSTY
  7
ROMANS
  9
$DIMAUNIT
 70
     0
  9
$LUNITS
 70
     2
  9
$LUPREC
 70
     4
  9
$SKETCHINC
 40
0.1
  9
$FILLETRAD
 40
0.5
  9
$AUNITS
 70
     0
  9
$AUPREC
 70
     0
  9
$MENU
  1
.
  9
$ELEVATION
 40
0.0
  9
$PELEVATION
 40
0.0
  9
$THICKNESS
 40
0.0
  9
$LIMCHECK
 70
     0
  9
$BLIPMODE
 70
     0
  9
$CHAMFERA
 40
0.5
  9
$CHAMFERB
 40
0.5
  9
$CHAMFERC
 40
1.0
  9
$CHAMFERD
 40
0.0
  9
$SKPOLY
 70
     0
  9
$TDCREATE
 40
2451764.535041909
  9
$TDUPDATE
 40
2451967.669310428
  9
$TDINDWG
 40
0.4820191898
  9
$TDUSRTIMER
 40
0.4820189583
  9
$USRTIMER
 70
     1
  9
$ANGBASE
 50
0.0
  9
$ANGDIR
 70
     0
  9
$PDMODE
 70
     0
  9
$PDSIZE
 40
0.0
  9
$PLINEWID
 40
0.0
  9
$COORDS
 70
     1
  9
$SPLFRAME
 70
     0
  9
$SPLINETYPE
 70
     6
  9
$SPLINESEGS
 70
     8
  9
$ATTDIA
 70
     0
  9
$ATTREQ
 70
     1
  9
$HANDLING
 70
-16383
  9
$HANDSEED
  5
9749
  9
$SURFTAB1
 70
     6
  9
$SURFTAB2
 70
     6
  9
$SURFTYPE
 70
     6
  9
$SURFU
 70
     6
  9
$SURFV
 70
     6
  9
$UCSNAME
  2

  9
$UCSORG
 10
0.0
 20
0.0
 30
0.0
  9
$UCSXDIR
 10
1.0
 20
0.0
 30
0.0
  9
$UCSYDIR
 10
0.0
 20
1.0
 30
0.0
  9
$PUCSNAME
  2

  9
$PUCSORG
 10
0.0
 20
0.0
 30
0.0
  9
$PUCSXDIR
 10
1.0
 20
0.0
 30
0.0
  9
$PUCSYDIR
 10
0.0
 20
1.0
 30
0.0
  9
$USERI1
 70
     0
  9
$USERI2
 70
     0
  9
$USERI3
 70
     0
  9
$USERI4
 70
     0
  9
$USERI5
 70
     0
  9
$USERR1
 40
0.0
  9
$USERR2
 40
0.0
  9
$USERR3
 40
0.0
  9
$USERR4
 40
0.0
  9
$USERR5
 40
0.0
  9
$WORLDVIEW
 70
     1
  9
$SHADEDGE
 70
     3
  9
$SHADEDIF
 70
    70
  9
$TILEMODE
 70
     1
  9
$MAXACTVP
 70
    48
  9
$PINSBASE
 10
0.0
 20
0.0
 30
0.0
  9
$PLIMCHECK
 70
     0
  9
$PEXTMIN
 10
0.0
 20
-0.1507193079929352
 30
0.0
  9
$PEXTMAX
 10
16.40000099999999
 20
10.25
 30
0.0
  9
$PLIMMIN
 10
-0.3022988315385811
 20
-0.4421500682141223
  9
$PLIMMAX
 10
16.69770068786963
 20
10.55784969148998
  9
$UNITMODE
 70
     0
  9
$VISRETAIN
 70
     1
  9
$PLINEGEN
 70
     0
  9
$PSLTSCALE
 70
     1
  9
$TREEDEPTH
 70
  3020
  9
$PICKSTYLE
 70
     1
  9
$CMLSTYLE
  2
STANDARD
  9
$CMLJUST
 70
     0
  9
$CMLSCALE
 40
1.0
  9
$PROXYGRAPHICS
 70
     1
  9
$MEASUREMENT
 70
     0
  0
ENDSEC
  0
SECTION
  2
CLASSES
  0
CLASS
  1
ACDBDICTIONARYWDFLT
  2
AcDbDictionaryWithDefault
  3
AutoCAD 2000
 90
        0
280
     0
281
     0
  0
CLASS
  1
ACDBPLACEHOLDER
  2
AcDbPlaceHolder
  3
AutoCAD 2000
 90
        0
280
     0
281
     0
  0
CLASS
  1
LAYOUT
  2
AcDbLayout
  3
AutoCAD 2000
 90
        0
280
     0
281
     0
  0
CLASS
  1
LONG_TRANSACTION
  2
AcDbLongTransaction
  3
AutoCAD 2000
 90
        0
280
     0
281
     0
  0
CLASS
  1
LWPOLYLINE
  2
AcDbPolyline
  3
AutoCAD 2000
 90
        0
280
     0
281
     1
  0
CLASS
  1
HATCH
  2
AcDbHatch
  3
AutoCAD 2000
 90
        0
280
     0
281
     1
  0
CLASS
  1
XRECORD
  2
AcDbXrecord
  3
AutoCAD 2000
 90
        0
280
     0
281
     0
  0
CLASS
  1
LONG_TRANSACTION
  2
AcDbLongTransaction
  3
AutoCAD 2000
 90
        0
280
     0
281
     0
  0
CLASS
  1
LWPOLYLINE
  2
AcDbPolyline
  3
AutoCAD 2000
 90
        0
280
     0
281
     1
  0
CLASS
  1
HATCH
  2
AcDbHatch
  3
AutoCAD 2000
 90
        0
280
     0
281
     1
  0
CLASS
  1
XRECORD
  2
AcDbXrecord
  3
AutoCAD 2000
 90
        0
280
     0
281
     0
  0
CLASS
  1
LONG_TRANSACTION
  2
AcDbLongTransaction
  3
AutoCAD 2000
 90
        0
280
     0
281
     0
  0
CLASS
  1
LWPOLYLINE
  2
AcDbPolyline
  3
AutoCAD 2000
 90
        0
280
     0
281
     1
  0
CLASS
  1
HATCH
  2
AcDbHatch
  3
AutoCAD 2000
 90
        0
280
     0
281
     1
  0
CLASS
  1
XRECORD
  2
AcDbXrecord
  3
AutoCAD 2000
 90
        0
280
     0
281
     0
  0
CLASS
  1
PLOTSETTINGS
  2
AcDbPlotSettings
  3
AutoCAD 2000
 90
        0
280
     0
281
     0
  0
CLASS
  1
ACME_DOCUMENT
  2
AcMeDbDoc
  3
AcMeServices
 90
        0
280
     0
281
     0
  0
CLASS
  1
AMGSETTINGSOBJ
  2
AmgSettingsObj
  3
"AcadM|Product Description: AutoCAD Mechanical 2000|Company: Autodesk"
 90
        0
280
     0
281
     0
  0
CLASS
  1
ACMESCOPE
  2
AcMeScope
  3
AcMeServices
 90
        0
280
     0
281
     0
  0
CLASS
  1
ACMECOMMANDHISTORY
  2
AcMeCommandHistory
  3
AcMeServices
 90
        0
280
     0
281
     0
  0
CLASS
  1
DICTIONARYVAR
  2
AcDbDictionaryVar
  3
AutoCAD 2000
 90
        0
280
     0
281
     0
  0
CLASS
  1
ACIMSYSVARMAN
  2
AcImSysVarManager
  3
AcMeServices
 90
        0
280
     0
281
     0
  0
CLASS
  1
ACIMREALSYSVAR
  2
AcImRealSysVar
  3
AcMeServices
 90
        0
280
     0
281
     0
  0
CLASS
  1
ACIMINTSYSVAR
  2
AcImIntSysVar
  3
AcMeServices
 90
        0
280
     0
281
     0
  0
CLASS
  1
ACMEDRAWINGMAN
  2
AcMeDrawingMan
  3
AcMeServices
 90
        0
280
     0
281
     0
  0
CLASS
  1
ACMEVIEW
  2
AcMeView
  3
AcMeServices
 90
        0
280
     0
281
     0
  0
CLASS
  1
ACDBENTITYCACHE
  2
AcMeEntityCache
  3
AcMeServices
 90
        0
280
     0
281
     0
  0
CLASS
  1
GSMANAGER
  2
AcMeGSManager
  3
AcMeServices
 90
        0
280
     0
281
     0
  0
CLASS
  1
AmdtInternalReactor
  2
AmdtInternalReactor
  3
AcMeServices
 90
        0
280
     0
281
     0
  0
CLASS
  1
ACMESTATEMGR
  2
AcMeStateMgr
  3
AcMeServices
 90
        0
280
     0
281
     0
  0
CLASS
  1
ACME_DATABASE
  2
AcMeDbDatabase
  3
AcMeServices
 90
        0
280
     0
281
     0
  0
CLASS
  1
ACRFINSADJUSTERMGR
  2
AcRfInsAdjusterMgr
  3
AcMeServices
 90
        0
280
     0
281
     0
  0
CLASS
  1
ACMDATADICTIONARY
  2
AcmDataDictionary
  3
"AcmSymBB|Product Description: AutoCAD Mechanical 2000|Company: Autodesk"
 90
        0
280
     0
281
     0
  0
CLASS
  1
ACMDATAENTRYBLOCK
  2
AcmDataEntryBlock
  3
"AcmSymBB|Product Description: AutoCAD Mechanical 2000|Company: Autodesk"
 90
        0
280
     0
281
     0
  0
CLASS
  1
AMGOBJPROPCFG
  2
AmgObjPropCfg
  3
"AmgLay|Product Description: AutoCAD Mechanical 2000|Company: Autodesk"
 90
        1
280
     0
281
     0
  0
CLASS
  1
ACAMGFILTERDAT
  2
AcAmgFilterDat
  3
"AcadM|Product Description: AutoCAD Mechanical 2000|Company: Autodesk"
 90
        0
280
     0
281
     0
  0
CLASS
  1
LAYER_INDEX
  2
AcDbLayerIndex
  3
AutoCAD 2000
 90
        0
280
     0
281
     0
  0
CLASS
  1
IDBUFFER
  2
AcDbIdBuffer
  3
AutoCAD 2000
 90
        0
280
     0
281
     0
  0
CLASS
  1
LONG_TRANSACTION
  2
AcDbLongTransaction
  3
AutoCAD 2000
 90
        0
280
     0
281
     0
  0
CLASS
  1
LWPOLYLINE
  2
AcDbPolyline
  3
AutoCAD 2000
 90
        0
280
     0
281
     1
  0
CLASS
  1
HATCH
  2
AcDbHatch
  3
AutoCAD 2000
 90
        0
280
     0
281
     1
  0
CLASS
  1
XRECORD
  2
AcDbXrecord
  3
AutoCAD 2000
 90
        0
280
     0
281
     0
  0
CLASS
  1
LONG_TRANSACTION
  2
AcDbLongTransaction
  3
AutoCAD 2000
 90
        0
280
     0
281
     0
  0
CLASS
  1
LWPOLYLINE
  2
AcDbPolyline
  3
AutoCAD 2000
 90
        0
280
     0
281
     1
  0
CLASS
  1
HATCH
  2
AcDbHatch
  3
AutoCAD 2000
 90
        0
280
     0
281
     1
  0
CLASS
  1
XRECORD
  2
AcDbXrecord
  3
AutoCAD 2000
 90
        0
280
     0
281
     0
  0
CLASS
  1
LONG_TRANSACTION
  2
AcDbLongTransaction
  3
AutoCAD 2000
 90
        0
280
     0
281
     0
  0
CLASS
  1
LWPOLYLINE
  2
AcDbPolyline
  3
AutoCAD 2000
 90
        0
280
     0
281
     1
  0
CLASS
  1
HATCH
  2
AcDbHatch
  3
AutoCAD 2000
 90
        0
280
     0
281
     1
  0
CLASS
  1
XRECORD
  2
AcDbXrecord
  3
AutoCAD 2000
 90
        0
280
     0
281
     0
  0
CLASS
  1
LONG_TRANSACTION
  2
AcDbLongTransaction
  3
AutoCAD 2000
 90
        0
280
     0
281
     0
  0
CLASS
  1
LWPOLYLINE
  2
AcDbPolyline
  3
AutoCAD 2000
 90
        0
280
     0
281
     1
  0
CLASS
  1
HATCH
  2
AcDbHatch
  3
AutoCAD 2000
 90
        0
280
     0
281
     1
  0
CLASS
  1
XRECORD
  2
AcDbXrecord
  3
AutoCAD 2000
 90
        0
280
     0
281
     0
  0
CLASS
  1
LONG_TRANSACTION
  2
AcDbLongTransaction
  3
AutoCAD 2000
 90
        0
280
     0
281
     0
  0
CLASS
  1
LWPOLYLINE
  2
AcDbPolyline
  3
AutoCAD 2000
 90
        0
280
     0
281
     1
  0
CLASS
  1
HATCH
  2
AcDbHatch
  3
AutoCAD 2000
 90
        0
280
     0
281
     1
  0
CLASS
  1
XRECORD
  2
AcDbXrecord
  3
AutoCAD 2000
 90
        0
280
     0
281
     0
  0
CLASS
  1
LONG_TRANSACTION
  2
AcDbLongTransaction
  3
AutoCAD 2000
 90
        0
280
     0
281
     0
  0
CLASS
  1
LWPOLYLINE
  2
AcDbPolyline
  3
AutoCAD 2000
 90
        0
280
     0
281
     1
  0
CLASS
  1
HATCH
  2
AcDbHatch
  3
AutoCAD 2000
 90
        0
280
     0
281
     1
  0
CLASS
  1
XRECORD
  2
AcDbXrecord
  3
AutoCAD 2000
 90
        0
280
     0
281
     0
  0
CLASS
  1
LONG_TRANSACTION
  2
AcDbLongTransaction
  3
AutoCAD 2000
 90
        0
280
     0
281
     0
  0
CLASS
  1
LWPOLYLINE
  2
AcDbPolyline
  3
AutoCAD 2000
 90
        0
280
     0
281
     1
  0
CLASS
  1
HATCH
  2
AcDbHatch
  3
AutoCAD 2000
 90
        0
280
     0
281
     1
  0
CLASS
  1
XRECORD
  2
AcDbXrecord
  3
AutoCAD 2000
 90
        0
280
     0
281
     0
  0
CLASS
  1
LONG_TRANSACTION
  2
AcDbLongTransaction
  3
AutoCAD 2000
 90
        0
280
     0
281
     0
  0
CLASS
  1
LWPOLYLINE
  2
AcDbPolyline
  3
AutoCAD 2000
 90
        0
280
     0
281
     1
  0
CLASS
  1
HATCH
  2
AcDbHatch
  3
AutoCAD 2000
 90
        0
280
     0
281
     1
  0
CLASS
  1
XRECORD
  2
AcDbXrecord
  3
AutoCAD 2000
 90
        0
280
     0
281
     0
  0
CLASS
  1
LONG_TRANSACTION
  2
AcDbLongTransaction
  3
AutoCAD 2000
 90
        0
280
     0
281
     0
  0
CLASS
  1
LWPOLYLINE
  2
AcDbPolyline
  3
AutoCAD 2000
 90
        0
280
     0
281
     1
  0
CLASS
  1
HATCH
  2
AcDbHatch
  3
AutoCAD 2000
 90
        0
280
     0
281
     1
  0
CLASS
  1
XRECORD
  2
AcDbXrecord
  3
AutoCAD 2000
 90
        0
280
     0
281
     0
  0
CLASS
  1
LONG_TRANSACTION
  2
AcDbLongTransaction
  3
AutoCAD 2000
 90
        0
280
     0
281
     0
  0
CLASS
  1
LWPOLYLINE
  2
AcDbPolyline
  3
AutoCAD 2000
 90
        0
280
     0
281
     1
  0
CLASS
  1
HATCH
  2
AcDbHatch
  3
AutoCAD 2000
 90
        0
280
     0
281
     1
  0
CLASS
  1
XRECORD
  2
AcDbXrecord
  3
AutoCAD 2000
 90
        0
280
     0
281
     0
  0
CLASS
  1
LONG_TRANSACTION
  2
AcDbLongTransaction
  3
AutoCAD 2000
 90
        0
280
     0
281
     0
  0
CLASS
  1
LWPOLYLINE
  2
AcDbPolyline
  3
AutoCAD 2000
 90
        0
280
     0
281
     1
  0
CLASS
  1
HATCH
  2
AcDbHatch
  3
AutoCAD 2000
 90
        0
280
     0
281
     1
  0
CLASS
  1
XRECORD
  2
AcDbXrecord
  3
AutoCAD 2000
 90
        0
280
     0
281
     0
  0
CLASS
  1
LONG_TRANSACTION
  2
AcDbLongTransaction
  3
AutoCAD 2000
 90
        0
280
     0
281
     0
  0
CLASS
  1
LWPOLYLINE
  2
AcDbPolyline
  3
AutoCAD 2000
 90
        0
280
     0
281
     1
  0
CLASS
  1
HATCH
  2
AcDbHatch
  3
AutoCAD 2000
 90
        0
280
     0
281
     1
  0
CLASS
  1
XRECORD
  2
AcDbXrecord
  3
AutoCAD 2000
 90
        0
280
     0
281
     0
  0
CLASS
  1
LONG_TRANSACTION
  2
AcDbLongTransaction
  3
AutoCAD 2000
 90
        0
280
     0
281
     0
  0
CLASS
  1
LWPOLYLINE
  2
AcDbPolyline
  3
AutoCAD 2000
 90
        0
280
     0
281
     1
  0
CLASS
  1
HATCH
  2
AcDbHatch
  3
AutoCAD 2000
 90
        0
280
     0
281
     1
  0
CLASS
  1
XRECORD
  2
AcDbXrecord
  3
AutoCAD 2000
 90
        0
280
     0
281
     0
  0
CLASS
  1
LONG_TRANSACTION
  2
AcDbLongTransaction
  3
AutoCAD 2000
 90
        0
280
     0
281
     0
  0
CLASS
  1
LWPOLYLINE
  2
AcDbPolyline
  3
AutoCAD 2000
 90
        0
280
     0
281
     1
  0
CLASS
  1
HATCH
  2
AcDbHatch
  3
AutoCAD 2000
 90
        0
280
     0
281
     1
  0
CLASS
  1
XRECORD
  2
AcDbXrecord
  3
AutoCAD 2000
 90
        0
280
     0
281
     0
  0
CLASS
  1
LONG_TRANSACTION
  2
AcDbLongTransaction
  3
AutoCAD 2000
 90
        0
280
     0
281
     0
  0
CLASS
  1
LWPOLYLINE
  2
AcDbPolyline
  3
AutoCAD 2000
 90
        0
280
     0
281
     1
  0
CLASS
  1
HATCH
  2
AcDbHatch
  3
AutoCAD 2000
 90
        0
280
     0
281
     1
  0
CLASS
  1
XRECORD
  2
AcDbXrecord
  3
AutoCAD 2000
 90
        0
280
     0
281
     0
  0
CLASS
  1
LONG_TRANSACTION
  2
AcDbLongTransaction
  3
AutoCAD 2000
 90
        0
280
     0
281
     0
  0
CLASS
  1
LWPOLYLINE
  2
AcDbPolyline
  3
AutoCAD 2000
 90
        0
280
     0
281
     1
  0
CLASS
  1
HATCH
  2
AcDbHatch
  3
AutoCAD 2000
 90
        0
280
     0
281
     1
  0
CLASS
  1
XRECORD
  2
AcDbXrecord
  3
AutoCAD 2000
 90
        0
280
     0
281
     0
  0
CLASS
  1
LONG_TRANSACTION
  2
AcDbLongTransaction
  3
AutoCAD 2000
 90
        0
280
     0
281
     0
  0
CLASS
  1
LWPOLYLINE
  2
AcDbPolyline
  3
AutoCAD 2000
 90
        0
280
     0
281
     1
  0
CLASS
  1
HATCH
  2
AcDbHatch
  3
AutoCAD 2000
 90
        0
280
     0
281
     1
  0
CLASS
  1
XRECORD
  2
AcDbXrecord
  3
AutoCAD 2000
 90
        0
280
     0
281
     0
  0
CLASS
  1
LONG_TRANSACTION
  2
AcDbLongTransaction
  3
AutoCAD 2000
 90
        0
280
     0
281
     0
  0
CLASS
  1
LWPOLYLINE
  2
AcDbPolyline
  3
AutoCAD 2000
 90
        0
280
     0
281
     1
  0
CLASS
  1
HATCH
  2
AcDbHatch
  3
AutoCAD 2000
 90
        0
280
     0
281
     1
  0
CLASS
  1
XRECORD
  2
AcDbXrecord
  3
AutoCAD 2000
 90
        0
280
     0
281
     0
  0
CLASS
  1
LONG_TRANSACTION
  2
AcDbLongTransaction
  3
AutoCAD 2000
 90
        0
280
     0
281
     0
  0
CLASS
  1
LWPOLYLINE
  2
AcDbPolyline
  3
AutoCAD 2000
 90
        0
280
     0
281
     1
  0
CLASS
  1
HATCH
  2
AcDbHatch
  3
AutoCAD 2000
 90
        0
280
     0
281
     1
  0
CLASS
  1
XRECORD
  2
AcDbXrecord
  3
AutoCAD 2000
 90
        0
280
     0
281
     0
  0
CLASS
  1
LONG_TRANSACTION
  2
AcDbLongTransaction
  3
AutoCAD 2000
 90
        0
280
     0
281
     0
  0
CLASS
  1
LWPOLYLINE
  2
AcDbPolyline
  3
AutoCAD 2000
 90
        0
280
     0
281
     1
  0
CLASS
  1
HATCH
  2
AcDbHatch
  3
AutoCAD 2000
 90
        0
280
     0
281
     1
  0
CLASS
  1
XRECORD
  2
AcDbXrecord
  3
AutoCAD 2000
 90
        0
280
     0
281
     0
  0
CLASS
  1
LONG_TRANSACTION
  2
AcDbLongTransaction
  3
AutoCAD 2000
 90
        0
280
     0
281
     0
  0
CLASS
  1
LWPOLYLINE
  2
AcDbPolyline
  3
AutoCAD 2000
 90
        0
280
     0
281
     1
  0
CLASS
  1
HATCH
  2
AcDbHatch
  3
AutoCAD 2000
 90
        0
280
     0
281
     1
  0
CLASS
  1
XRECORD
  2
AcDbXrecord
  3
AutoCAD 2000
 90
        0
280
     0
281
     0
  0
CLASS
  1
LONG_TRANSACTION
  2
AcDbLongTransaction
  3
AutoCAD 2000
 90
        0
280
     0
281
     0
  0
CLASS
  1
LWPOLYLINE
  2
AcDbPolyline
  3
AutoCAD 2000
 90
        0
280
     0
281
     1
  0
CLASS
  1
HATCH
  2
AcDbHatch
  3
AutoCAD 2000
 90
        0
280
     0
281
     1
  0
CLASS
  1
XRECORD
  2
AcDbXrecord
  3
AutoCAD 2000
 90
        0
280
     0
281
     0
  0
CLASS
  1
LONG_TRANSACTION
  2
AcDbLongTransaction
  3
AutoCAD 2000
 90
        0
280
     0
281
     0
  0
CLASS
  1
LWPOLYLINE
  2
AcDbPolyline
  3
AutoCAD 2000
 90
        0
280
     0
281
     1
  0
CLASS
  1
HATCH
  2
AcDbHatch
  3
AutoCAD 2000
 90
        0
280
     0
281
     1
  0
CLASS
  1
XRECORD
  2
AcDbXrecord
  3
AutoCAD 2000
 90
        0
280
     0
281
     0
  0
CLASS
  1
LONG_TRANSACTION
  2
AcDbLongTransaction
  3
AutoCAD 2000
 90
        0
280
     0
281
     0
  0
CLASS
  1
LWPOLYLINE
  2
AcDbPolyline
  3
AutoCAD 2000
 90
        0
280
     0
281
     1
  0
CLASS
  1
HATCH
  2
AcDbHatch
  3
AutoCAD 2000
 90
        0
280
     0
281
     1
  0
CLASS
  1
XRECORD
  2
AcDbXrecord
  3
AutoCAD 2000
 90
        0
280
     0
281
     0
  0
CLASS
  1
LONG_TRANSACTION
  2
AcDbLongTransaction
  3
AutoCAD 2000
 90
        0
280
     0
281
     0
  0
CLASS
  1
LWPOLYLINE
  2
AcDbPolyline
  3
AutoCAD 2000
 90
        0
280
     0
281
     1
  0
CLASS
  1
HATCH
  2
AcDbHatch
  3
AutoCAD 2000
 90
        0
280
     0
281
     1
  0
CLASS
  1
XRECORD
  2
AcDbXrecord
  3
AutoCAD 2000
 90
        0
280
     0
281
     0
  0
ENDSEC
  0
SECTION
  2
TABLES
  0
TABLE
  2
VPORT
  5
8
330
0
100
AcDbSymbolTable
 70
     2
  0
VPORT
  5
9725
330
8
100
AcDbSymbolTableRecord
100
AcDbViewportTableRecord
  2
*ACTIVE
 70
     0
 10
0.0
 20
0.0
 11
1.0
 21
1.0
 12
32.8000024582387
 22
23.86036961653485
 13
0.0
 23
0.0
 14
0.5
 24
0.5
 15
0.5
 25
0.5
 16
0.0
 26
0.0
 36
1.0
 17
0.0
 27
0.0
 37
0.0
 40
47.7429308856698
 41
1.55078125
 42
50.0
 43
0.0
 44
0.0
 50
0.0
 51
0.0
 71
     0
 72
   100
 73
     1
 74
     2
 75
     0
 76
     0
 77
     0
 78
     0
  0
ENDTAB
  0
TABLE
  2
LTYPE
  5
5
330
0
100
AcDbSymbolTable
 70
     6
  0
LTYPE
  5
14
330
5
100
AcDbSymbolTableRecord
100
AcDbLinetypeTableRecord
  2
BYBLOCK
 70
     0
  3

 72
    65
 73
     0
 40
0.0
  0
LTYPE
  5
15
330
5
100
AcDbSymbolTableRecord
100
AcDbLinetypeTableRecord
  2
BYLAYER
 70
     0
  3

 72
    65
 73
     0
 40
0.0
  0
LTYPE
  5
16
330
5
100
AcDbSymbolTableRecord
100
AcDbLinetypeTableRecord
  2
CONTINUOUS
 70
     0
  3
Solid line
 72
    65
 73
     0
 40
0.0
  0
LTYPE
  5
3D
330
5
100
AcDbSymbolTableRecord
100
AcDbLinetypeTableRecord
  2
CENTER2
 70
     0
  3
Center (.5x) ___ _ ___ _ ___ _ ___ _ ___ _ ___
 72
    65
 73
     4
 40
1.125
 49
0.75
 74
     0
 49
-0.125
 74
     0
 49
0.125
 74
     0
 49
-0.125
 74
     0
  0
LTYPE
  5
3E
330
5
100
AcDbSymbolTableRecord
100
AcDbLinetypeTableRecord
  2
DASHDOT2
 70
     0
  3
Dash dot (.5x) _._._._._._._._._._._._._._._.
 72
    65
 73
     4
 40
0.5
 49
0.25
 74
     0
 49
-0.125
 74
     0
 49
0.0
 74
     0
 49
-0.125
 74
     0
  0
LTYPE
  5
3F
330
5
100
AcDbSymbolTableRecord
100
AcDbLinetypeTableRecord
  2
DASHED2
 70
     0
  3
Dashed (.5x) _ _ _ _ _ _ _ _ _ _ _ _ _ _ _ _ _
 72
    65
 73
     2
 40
0.375
 49
0.25
 74
     0
 49
-0.125
 74
     0
  0
LTYPE
  5
40
330
5
100
AcDbSymbolTableRecord
100
AcDbLinetypeTableRecord
  2
HIDDEN2
 70
     0
  3
Hidden (.5x) _ _ _ _ _ _ _ _ _ _ _ _ _ _ _ _ _
 72
    65
 73
     2
 40
0.1875
 49
0.125
 74
     0
 49
-0.0625
 74
     0
  0
LTYPE
  5
41
330
5
100
AcDbSymbolTableRecord
100
AcDbLinetypeTableRecord
  2
PHANTOM2
 70
     0
  3
Phantom (.5x) ___ _ _ ___ _ _ ___ _ _ ___ _ _
 72
    65
 73
     6
 40
1.25
 49
0.625
 74
     0
 49
-0.125
 74
     0
 49
0.125
 74
     0
 49
-0.125
 74
     0
 49
0.125
 74
     0
 49
-0.125
 74
     0
  0
ENDTAB
  0
TABLE
  2
LAYER
  5
2
330
0
100
AcDbSymbolTable
 70
    26
  0
LAYER
  5
10
330
2
100
AcDbSymbolTableRecord
100
AcDbLayerTableRecord
  2
0
 70
     0
 62
     7
  6
CONTINUOUS
  0
LAYER
  5
42
330
2
100
AcDbSymbolTableRecord
100
AcDbLayerTableRecord
  2
BLOCKS
 70
     0
 62
     7
  6
CONTINUOUS
  0
LAYER
  5
43
330
2
100
AcDbSymbolTableRecord
100
AcDbLayerTableRecord
  2
CENTER1
 70
     0
 62
     2
  6
CENTER2
  0
LAYER
  5
44
330
2
100
AcDbSymbolTableRecord
100
AcDbLayerTableRecord
  2
CENTER2
 70
     0
 62
    50
  6
CENTER2
  0
LAYER
  5
45
330
2
100
AcDbSymbolTableRecord
100
AcDbLayerTableRecord
  2
CENTER3
 70
     0
 62
    51
  6
CENTER2
  0
LAYER
  5
46
330
2
100
AcDbSymbolTableRecord
100
AcDbLayerTableRecord
  2
CONSTRUCTION
 70
     0
 62
   241
  6
DASHED2
  0
LAYER
  5
47
330
2
100
AcDbSymbolTableRecord
100
AcDbLayerTableRecord
  2
CONTINUOUS1
 70
     0
 62
     7
  6
CONTINUOUS
  0
LAYER
  5
48
330
2
100
AcDbSymbolTableRecord
100
AcDbLayerTableRecord
  2
CONTINUOUS2
 70
     0
 62
   254
  6
CONTINUOUS
  0
LAYER
  5
49
330
2
100
AcDbSymbolTableRecord
100
AcDbLayerTableRecord
  2
CONTINUOUS3
 70
     0
 62
   253
  6
CONTINUOUS
  0
LAYER
  5
4A
330
2
100
AcDbSymbolTableRecord
100
AcDbLayerTableRecord
  2
DASHDOT1
 70
     0
 62
     1
  6
DASHDOT2
  0
LAYER
  5
4B
330
2
100
AcDbSymbolTableRecord
100
AcDbLayerTableRecord
  2
DASHDOT2
 70
     0
 62
    10
  6
DASHDOT2
  0
LAYER
  5
4C
330
2
100
AcDbSymbolTableRecord
100
AcDbLayerTableRecord
  2
DASHDOT3
 70
     0
 62
    12
  6
DASHDOT2
  0
LAYER
  5
4D
330
2
100
AcDbSymbolTableRecord
100
AcDbLayerTableRecord
  2
DIM
 70
     0
 62
     2
  6
CONTINUOUS
  0
LAYER
  5
4E
330
2
100
AcDbSymbolTableRecord
100
AcDbLayerTableRecord
  2
HIDDEN1
 70
     0
 62
     5
  6
HIDDEN2
  0
LAYER
  5
4F
330
2
100
AcDbSymbolTableRecord
100
AcDbLayerTableRecord
  2
HIDDEN2
 70
     0
 62
   160
  6
HIDDEN2
  0
LAYER
  5
50
330
2
100
AcDbSymbolTableRecord
100
AcDbLayerTableRecord
  2
HIDDEN3
 70
     0
 62
   162
  6
HIDDEN2
  0
LAYER
  5
52
330
2
100
AcDbSymbolTableRecord
100
AcDbLayerTableRecord
  2
PHANTOM1
 70
     0
 62
     6
  6
PHANTOM2
  0
LAYER
  5
53
330
2
100
AcDbSymbolTableRecord
100
AcDbLayerTableRecord
  2
PHANTOM2
 70
     0
 62
   210
  6
PHANTOM2
  0
LAYER
  5
54
330
2
100
AcDbSymbolTableRecord
100
AcDbLayerTableRecord
  2
PHANTOM3
 70
     0
 62
   212
  6
PHANTOM2
  0
LAYER
  5
55
330
2
100
AcDbSymbolTableRecord
100
AcDbLayerTableRecord
  2
TEXT1
 70
     0
 62
     3
  6
CONTINUOUS
  0
LAYER
  5
56
330
2
100
AcDbSymbolTableRecord
100
AcDbLayerTableRecord
  2
TEXT2
 70
     0
 62
    80
  6
CONTINUOUS
  0
LAYER
  5
57
330
2
100
AcDbSymbolTableRecord
100
AcDbLayerTableRecord
  2
TEXT3
 70
     0
 62
    82
  6
CONTINUOUS
  0
LAYER
  5
58
330
2
100
AcDbSymbolTableRecord
100
AcDbLayerTableRecord
  2
TITLEBLOCK
 70
     0
 62
     9
  6
CONTINUOUS
  0
LAYER
  5
59
330
2
100
AcDbSymbolTableRecord
100
AcDbLayerTableRecord
  2
VIEWPORT
 70
     0
 62
     9
  6
CONTINUOUS
  0
LAYER
  5
8B8B
330
2
100
AcDbSymbolTableRecord
100
AcDbLayerTableRecord
  2
REFERENCE
 70
     0
 62
     2
  6
CONTINUOUS
  0
LAYER
  5
8B8C
330
2
100
AcDbSymbolTableRecord
100
AcDbLayerTableRecord
  2
DEFPOINTS
 70
     0
 62
     7
  6
CONTINUOUS
  0
ENDTAB
  0
TABLE
  2
STYLE
  5
3
330
0
100
AcDbSymbolTable
 70
     4
  0
STYLE
  5
11
330
3
100
AcDbSymbolTableRecord
100
AcDbTextStyleTableRecord
  2
STANDARD
 70
     0
 40
0.0
 41
1.0
 50
0.0
 71
     0
 42
0.2
  3
txt
  4

  0
STYLE
  5
36
330
3
100
AcDbSymbolTableRecord
100
AcDbTextStyleTableRecord
  2
ROMANS
 70
     0
 40
0.0
 41
1.0
 50
0.0
 71
     0
 42
0.2
  3
romans.shx
  4

  0
STYLE
  5
6CC
330
3
100
AcDbSymbolTableRecord
100
AcDbTextStyleTableRecord
  2
M_STANDARD
 70
     0
 40
0.0
 41
0.8
 50
0.0
 71
     0
 42
0.0
  3
MEDUSA.SHX
  4

  0
STYLE
  5
D51
330
3
100
AcDbSymbolTableRecord
100
AcDbTextStyleTableRecord
  2
SIMPLEX
 70
     0
 40
0.0
 41
1.0
 50
0.0
 71
     0
 42
0.25
  3
SIMPLEX.shx
  4

  0
ENDTAB
  0
TABLE
  2
VIEW
  5
6
330
0
100
AcDbSymbolTable
 70
     0
  0
ENDTAB
  0
TABLE
  2
UCS
  5
7
330
0
100
AcDbSymbolTable
 70
     0
  0
ENDTAB
  0
TABLE
  2
APPID
  5
9
330
0
100
AcDbSymbolTable
 70
    11
  0
APPID
  5
12
330
9
100
AcDbSymbolTableRecord
100
AcDbRegAppTableRecord
  2
ACAD
 70
     0
  0
APPID
  5
6B
330
9
100
AcDbSymbolTableRecord
100
AcDbRegAppTableRecord
  2
DCO15
 70
     0
  0
APPID
  5
370
330
9
100
AcDbSymbolTableRecord
100
AcDbRegAppTableRecord
  2
MCAD_NO_VIS
 70
     0
  0
APPID
  5
371
330
9
100
AcDbSymbolTableRecord
100
AcDbRegAppTableRecord
  2
ACAD_TEMP_GRAPHIC
 70
     0
  0
APPID
  5
387
330
9
100
AcDbSymbolTableRecord
100
AcDbRegAppTableRecord
  2
GENIUS_GENSCREG_15
 70
     0
  0
APPID
  5
389
330
9
100
AcDbSymbolTableRecord
100
AcDbRegAppTableRecord
  2
GENIUS_GENODEF_13
 70
     0
  0
APPID
  5
38A
330
9
100
AcDbSymbolTableRecord
100
AcDbRegAppTableRecord
  2
GENIUS_GENOBJ-N-SDF_13
 70
     0
  0
APPID
  5
38B
330
9
100
AcDbSymbolTableRecord
100
AcDbRegAppTableRecord
  2
GENIUS_GENOENT_13
 70
     0
  0
APPID
  5
38C
330
9
100
AcDbSymbolTableRecord
100
AcDbRegAppTableRecord
  2
GENIUS_GENOREF_13
 70
     0
  0
APPID
  5
38D
330
9
100
AcDbSymbolTableRecord
100
AcDbRegAppTableRecord
  2
GENIUS_GENOLIS_13
 70
     0
  0
APPID
  5
6CE
330
9
100
AcDbSymbolTableRecord
100
AcDbRegAppTableRecord
  2
MED_PRIMTYPE
 70
     0
  0
ENDTAB
  0
TABLE
  2
DIMSTYLE
  5
A
330
0
100
AcDbSymbolTable
 70
     3
  0
DIMSTYLE
105
35
330
A
100
AcDbSymbolTableRecord
100
AcDbDimStyleTableRecord
  2
1
 70
     0
  3

  4

  5

  6

  7

 40
0.0
 41
0.125
 42
0.0625
 43
0.38
 44
0.0625
 45
0.01
 46
0.0
 47
0.0
 48
0.0
140
0.08
141
0.09
142
0.0
143
25.4
144
1.0
145
0.0
146
1.0
147
0.04
 71
     0
 72
     0
 73
     1
 74
     1
 75
     0
 76
     0
 77
     0
 78
     4
170
     0
171
     1
172
     0
173
     0
174
     0
175
     0
176
   256
177
   256
178
   256
270
     2
271
     2
272
     2
273
     2
274
     1
340
36
275
     0
280
     0
281
     0
282
     0
283
     1
284
     0
285
     0
286
     0
287
     3
288
     0
  0
DIMSTYLE
105
939F
330
A
100
AcDbSymbolTableRecord
100
AcDbDimStyleTableRecord
  2
STANDARD
 70
     0
  3

  4

  5

  6

  7

 40
1.0
 41
0.18
 42
0.0625
 43
0.38
 44
0.18
 45
0.0
 46
0.0
 47
0.0
 48
0.0
140
0.18
141
0.09
142
0.0
143
25.4
144
1.0
145
0.0
146
1.0
147
0.09
 71
     0
 72
     0
 73
     1
 74
     1
 75
     0
 76
     0
 77
     0
 78
     0
170
     0
171
     2
172
     0
173
     0
174
     0
175
     0
176
     0
177
     0
178
     0
270
     2
271
     4
272
     4
273
     2
274
     2
340
11
275
     0
280
     0
281
     0
282
     0
283
     1
284
     0
285
     0
286
     0
287
     3
288
     0
  0
DIMSTYLE
105
93A0
102
{ACAD_REACTORS
330
92CA
330
9274
330
9268
330
8F40
330
8F3F
330
8F3E
330
8F3D
330
8F3C
330
8F3B
330
8DA3
330
8D9D
330
8D9C
330
8D9B
330
8D9A
330
8D99
330
8D98
330
8D97
330
8D96
330
9265
330
9264
102
}
330
A
100
AcDbSymbolTableRecord
100
AcDbDimStyleTableRecord
  2
SCHNEIDERELECTRIC
 70
     0
  3
\X
  4

  5
SEARROW
  6

  7

 40
0.0
 41
0.07
 42
0.0625
 43
0.38
 44
0.0625
 45
0.001
 46
0.0
 47
0.0
 48
0.0
140
0.1
141
0.09
142
0.0
143
25.4
144
1.0
145
0.0
146
1.0
147
0.04
 71
     0
 72
     0
 73
     1
 74
     1
 75
     0
 76
     0
 77
     0
 78
     4
170
     1
171
     0
172
     0
173
     0
174
     0
175
     0
176
   256
177
   256
178
   256
270
     2
271
     2
272
     2
273
     2
274
     0
340
36
275
     0
280
     0
281
     0
282
     0
283
     1
284
     0
285
     0
286
     0
287
     3
288
     0
  0
ENDTAB
  0
TABLE
  2
BLOCK_RECORD
  5
1
330
0
100
AcDbSymbolTable
 70
    24
  0
BLOCK_RECORD
  5
1F
102
{ACAD_XDICTIONARY
360
73
102
}
330
1
100
AcDbSymbolTableRecord
100
AcDbBlockTableRecord
  2
*MODEL_SPACE
  0
BLOCK_RECORD
  5
1B
102
{ACAD_XDICTIONARY
360
75
102
}
330
1
100
AcDbSymbolTableRecord
100
AcDbBlockTableRecord
  2
*PAPER_SPACE
  0
BLOCK_RECORD
  5
783
330
1
100
AcDbSymbolTableRecord
100
AcDbBlockTableRecord
  2
NEWLAYERS
1001
ACAD
1000
DesignCenter Data
1002
{
1070
     1
1070
     1
1002
}
  0
BLOCK_RECORD
  5
841
330
1
100
AcDbSymbolTableRecord
100
AcDbBlockTableRecord
  2
LOGO-PAD
1001
ACAD
1000
DesignCenter Data
1002
{
1070
     1
1070
     1
1002
}
  0
BLOCK_RECORD
  5
AE5
330
1
100
AcDbSymbolTableRecord
100
AcDbBlockTableRecord
  2
TITLE-PAD
1001
ACAD
1000
DesignCenter Data
1002
{
1070
     1
1070
     1
1002
}
  0
BLOCK_RECORD
  5
D52
330
1
100
AcDbSymbolTableRecord
100
AcDbBlockTableRecord
  2
OEM-NOTES
1001
ACAD
1000
DesignCenter Data
1002
{
1070
     1
1070
     1
1002
}
  0
BLOCK_RECORD
  5
8A5B
330
1
100
AcDbSymbolTableRecord
100
AcDbBlockTableRecord
  2
REF2
  0
BLOCK_RECORD
  5
8F66
330
1
100
AcDbSymbolTableRecord
100
AcDbBlockTableRecord
  2
*D5
  0
BLOCK_RECORD
  5
8F73
330
1
100
AcDbSymbolTableRecord
100
AcDbBlockTableRecord
  2
*D6
  0
BLOCK_RECORD
  5
8F80
330
1
100
AcDbSymbolTableRecord
100
AcDbBlockTableRecord
  2
*D7
  0
BLOCK_RECORD
  5
8F8D
330
1
100
AcDbSymbolTableRecord
100
AcDbBlockTableRecord
  2
*D8
  0
BLOCK_RECORD
  5
8F9A
330
1
100
AcDbSymbolTableRecord
100
AcDbBlockTableRecord
  2
*D9
  0
BLOCK_RECORD
  5
8FA7
330
1
100
AcDbSymbolTableRecord
100
AcDbBlockTableRecord
  2
*D10
  0
BLOCK_RECORD
  5
8FB4
330
1
100
AcDbSymbolTableRecord
100
AcDbBlockTableRecord
  2
*D11
  0
BLOCK_RECORD
  5
8FC1
330
1
100
AcDbSymbolTableRecord
100
AcDbBlockTableRecord
  2
*D12
  0
BLOCK_RECORD
  5
8FCE
330
1
100
AcDbSymbolTableRecord
100
AcDbBlockTableRecord
  2
*D13
  0
BLOCK_RECORD
  5
8FDB
330
1
100
AcDbSymbolTableRecord
100
AcDbBlockTableRecord
  2
*D14
  0
BLOCK_RECORD
  5
8FE8
330
1
100
AcDbSymbolTableRecord
100
AcDbBlockTableRecord
  2
*D15
  0
BLOCK_RECORD
  5
8FF5
330
1
100
AcDbSymbolTableRecord
100
AcDbBlockTableRecord
  2
*D16
  0
BLOCK_RECORD
  5
9002
330
1
100
AcDbSymbolTableRecord
100
AcDbBlockTableRecord
  2
*D17
  0
BLOCK_RECORD
  5
900F
330
1
100
AcDbSymbolTableRecord
100
AcDbBlockTableRecord
  2
*D18
  0
BLOCK_RECORD
  5
901C
330
1
100
AcDbSymbolTableRecord
100
AcDbBlockTableRecord
  2
*D19
  0
BLOCK_RECORD
  5
9269
330
1
100
AcDbSymbolTableRecord
100
AcDbBlockTableRecord
  2
*D20
  0
BLOCK_RECORD
  5
9275
330
1
100
AcDbSymbolTableRecord
100
AcDbBlockTableRecord
  2
*D21
  0
BLOCK_RECORD
  5
92CB
330
1
100
AcDbSymbolTableRecord
100
AcDbBlockTableRecord
  2
*D22
  0
BLOCK_RECORD
  5
939B
330
1
100
AcDbSymbolTableRecord
100
AcDbBlockTableRecord
  2
SEARROW
1001
ACAD
1000
DesignCenter Data
1002
{
1070
     1
1070
     1
1002
}
  0
ENDTAB
  0
ENDSEC
  0
SECTION
  2
BLOCKS
  0
BLOCK
  5
20
330
1F
100
AcDbEntity
  8
0
100
AcDbBlockBegin
  2
*MODEL_SPACE
 70
     0
 10
0.0
 20
0.0
 30
0.0
  3
*MODEL_SPACE
  1

  0
ENDBLK
  5
21
330
1F
100
AcDbEntity
  8
0
100
AcDbBlockEnd
  0
BLOCK
  5
1C
330
1B
100
AcDbEntity
 67
     1
  8
0
100
AcDbBlockBegin
  2
*PAPER_SPACE
 70
     0
 10
0.0
 20
0.0
 30
0.0
  3
*PAPER_SPACE
  1

  0
ENDBLK
  5
1D
330
1B
100
AcDbEntity
 67
     1
  8
0
100
AcDbBlockEnd
  0
BLOCK
  5
79C
330
783
100
AcDbEntity
  8
0
100
AcDbBlockBegin
  2
NEWLAYERS
 70
     0
 10
0.0
 20
0.0
 30
0.0
  3
NEWLAYERS
  1

  0
LINE
  5
784
330
783
100
AcDbEntity
  8
PHANTOM1
100
AcDbLine
 10
0.264152010466205
 20
0.3394492053544127
 30
0.0
 11
0.264152010466205
 21
0.1923545555598593
 31
0.0
  0
LINE
  5
785
330
783
100
AcDbEntity
  8
PHANTOM2
100
AcDbLine
 10
0.3018880119612959
 20
0.3394492053544127
 30
0.0
 11
0.3018880119612959
 21
0.1923545555598593
 31
0.0
  0
LINE
  5
786
330
783
100
AcDbEntity
  8
PHANTOM3
100
AcDbLine
 10
0.3396240134565005
 20
0.3394492053544127
 30
0.0
 11
0.3396240134565005
 21
0.1923545555598593
 31
0.0
  0
LINE
  5
787
330
783
100
AcDbEntity
  8
DASHDOT2
100
AcDbLine
 10
0.0
 20
0.3394492053544127
 30
0.0
 11
0.0
 21
0.1923545555598593
 31
0.0
  0
LINE
  5
788
330
783
100
AcDbEntity
  8
DASHDOT3
100
AcDbLine
 10
0.0377360014952046
 20
0.3394492053544127
 30
0.0
 11
0.0377360014952046
 21
0.1923545555598593
 31
0.0
  0
LINE
  5
789
330
783
100
AcDbEntity
  8
DIM
100
AcDbLine
 10
0.0754720029902956
 20
0.3394492053544127
 30
0.0
 11
0.0754720029902956
 21
0.1923545555598593
 31
0.0
  0
LINE
  5
78A
330
783
100
AcDbEntity
  8
HIDDEN1
100
AcDbLine
 10
0.1132080044855002
 20
0.3394492053544127
 30
0.0
 11
0.1132080044855002
 21
0.1923545555598593
 31
0.0
  0
LINE
  5
78B
330
783
100
AcDbEntity
  8
HIDDEN2
100
AcDbLine
 10
0.1509440059807048
 20
0.3394492053544127
 30
0.0
 11
0.1509440059807048
 21
0.1923545555598593
 31
0.0
  0
LINE
  5
78C
330
783
100
AcDbEntity
  8
HIDDEN3
100
AcDbLine
 10
0.1886800074757957
 20
0.3394492053544127
 30
0.0
 11
0.1886800074757957
 21
0.1923545555598593
 31
0.0
  0
LINE
  5
78D
330
783
100
AcDbEntity
  8
TEXT1
100
AcDbLine
 10
0.0
 20
0.1470946497945533
 30
0.0
 11
0.0
 21
0.0
 31
0.0
  0
LINE
  5
78E
330
783
100
AcDbEntity
  8
TEXT2
100
AcDbLine
 10
0.0377360014952046
 20
0.1470946497945533
 30
0.0
 11
0.0377360014952046
 21
0.0
 31
0.0
  0
LINE
  5
78F
330
783
100
AcDbEntity
  8
TEXT3
100
AcDbLine
 10
0.0754720029902956
 20
0.1470946497945533
 30
0.0
 11
0.0754720029902956
 21
0.0
 31
0.0
  0
LINE
  5
790
330
783
100
AcDbEntity
  8
TITLEBLOCK
100
AcDbLine
 10
0.1132080044855002
 20
0.1470946497945533
 30
0.0
 11
0.1132080044855002
 21
0.0
 31
0.0
  0
LINE
  5
791
330
783
100
AcDbEntity
  8
VIEWPORT
100
AcDbLine
 10
0.1509440059807048
 20
0.1470946497945533
 30
0.0
 11
0.1509440059807048
 21
0.0
 31
0.0
  0
LINE
  5
792
330
783
100
AcDbEntity
  8
BLOCKS
100
AcDbLine
 10
0.0377360014952046
 20
0.5318037609142721
 30
0.0
 11
0.0377360014952046
 21
0.3847091111197187
 31
0.0
  0
LINE
  5
793
330
783
100
AcDbEntity
  8
0
100
AcDbLine
 10
0.0
 20
0.5318037609142721
 30
0.0
 11
0.0
 21
0.3847091111197187
 31
0.0
  0
LINE
  5
794
330
783
100
AcDbEntity
  8
CENTER1
100
AcDbLine
 10
0.0754720029902956
 20
0.5318037609142721
 30
0.0
 11
0.0754720029902956
 21
0.3847091111197187
 31
0.0
  0
LINE
  5
795
330
783
100
AcDbEntity
  8
CENTER2
100
AcDbLine
 10
0.1132080044855002
 20
0.5318037609142721
 30
0.0
 11
0.1132080044855002
 21
0.3847091111197187
 31
0.0
  0
LINE
  5
796
330
783
100
AcDbEntity
  8
CENTER3
100
AcDbLine
 10
0.1509440059807048
 20
0.5318037609142721
 30
0.0
 11
0.1509440059807048
 21
0.3847091111197187
 31
0.0
  0
LINE
  5
797
330
783
100
AcDbEntity
  8
CONSTRUCTION
100
AcDbLine
 10
0.1886800074757957
 20
0.5318037609142721
 30
0.0
 11
0.1886800074757957
 21
0.3847091111197187
 31
0.0
  0
LINE
  5
798
330
783
100
AcDbEntity
  8
CONTINUOUS1
100
AcDbLine
 10
0.2264160089710003
 20
0.5318037609142721
 30
0.0
 11
0.2264160089710003
 21
0.3847091111197187
 31
0.0
  0
LINE
  5
799
330
783
100
AcDbEntity
  8
CONTINUOUS2
100
AcDbLine
 10
0.264152010466205
 20
0.5318037609142721
 30
0.0
 11
0.264152010466205
 21
0.3847091111197187
 31
0.0
  0
LINE
  5
79A
330
783
100
AcDbEntity
  8
CONTINUOUS3
100
AcDbLine
 10
0.3018880119612959
 20
0.5318037609142721
 30
0.0
 11
0.3018880119612959
 21
0.3847091111197187
 31
0.0
  0
LINE
  5
79B
330
783
100
AcDbEntity
  8
DASHDOT1
100
AcDbLine
 10
0.3396240134565005
 20
0.5318037609142721
 30
0.0
 11
0.3396240134565005
 21
0.3847091111197187
 31
0.0
  0
ENDBLK
  5
79D
330
783
100
AcDbEntity
  8
0
100
AcDbBlockEnd
  0
BLOCK
  5
852
330
841
100
AcDbEntity
  8
0
100
AcDbBlockBegin
  2
LOGO-PAD
 70
     0
 10
0.0
 20
0.0
 30
0.0
  3
LOGO-PAD
  1

  0
HATCH
  5
842
330
841
100
AcDbEntity
  8
TITLEBLOCK
 62
     0
100
AcDbHatch
 10
0.0
 20
0.0
 30
0.0
210
0.0
220
0.0
230
1.0
  2
SOLID
 70
     1
 71
     0
 91
        2
 92
        1
 93
       11
 72
     2
 10
1.203771209334867
 20
0.3650136751459491
 40
0.021562648149145
 50
90.00000747299615
 51
179.9997683268519
 73
     1
 72
     1
 10
1.182208561185898
 20
0.3650137623336376
 11
1.182208392435807
 21
0.2795138227272444
 72
     2
 10
1.203771079023129
 20
0.2795136821032751
 40
0.0215626865877801
 50
179.9996263378447
 51
269.9998903896797
 73
     1
 72
     1
 10
1.203771037772394
 20
0.2579509955155343
 11
1.330521045577125
 21
0.2579511736405264
 72
     2
 10
1.330521265257171
 20
0.2795136382789064
 40
0.021562464639499
 50
269.9994162661957
 51
311.7040125634689
 73
     1
 72
     1
 10
1.344866398698837
 20
0.2634152834601535
 11
1.352083334663557
 21
0.2579511736405264
 72
     1
 10
1.352083334663557
 20
0.2579511736405264
 11
1.365099386916806
 21
0.2751416404960081
 72
     1
 10
1.365099386916806
 20
0.2751416404960081
 11
1.352083522163621
 21
0.284997066934386
 72
     1
 10
1.352083522163621
 20
0.284997066934386
 11
1.352083690913712
 21
0.3650136723335662
 72
     2
 10
1.330521042764654
 20
0.3650136751460369
 40
0.0215626481490576
 50
359.9999925267666
 51
449.9999925267678
 73
     1
 72
     1
 10
1.330521045577125
 20
0.3865763232950938
 11
1.203771206522485
 21
0.3865763232950938
 97
        0
 92
       16
 93
       10
 72
     2
 10
1.21455271481628
 20
0.3542325202904111
 40
0.0107811520434708
 50
90.00043844291294
 51
179.9999701074038
 73
     1
 72
     1
 10
1.203771562772811
 20
0.3542325259151993
 11
1.203771562772811
 21
0.2902950591455122
 72
     2
 10
1.214552849813946
 20
0.2902948416431456
 40
0.0107812870433294
 50
179.9988441113203
 51
269.9988441346395
 73
     1
 72
     1
 10
1.214552632315967
 20
0.2795135546020104
 11
1.323606134809704
 21
0.2795135546020104
 72
     1
 10
1.323606134809704
 20
0.2795135546020104
 11
1.280867956889135
 21
0.311873265117333
 72
     1
 10
1.280867956889135
 20
0.311873265117333
 11
1.293884009142384
 21
0.3290635557226322
 72
     1
 10
1.293884009142384
 20
0.3290635557226322
 11
1.330521045577125
 21
0.3013240413506308
 72
     1
 10
1.330521045577125
 20
0.3013240413506308
 11
1.330521045577125
 21
0.3542324377902786
 72
     2
 10
1.319739809158772
 20
0.3542324359152127
 40
0.0107812364183532
 50
0.0000099648460607
 51
90.00000996484372
 73
     1
 72
     1
 10
1.319739807283706
 20
0.3650136723335662
 11
1.214552632315967
 21
0.3650136723335662
 97
        0
 75
     0
 76
     1
 98
        1
 10
-7.279586802153931
 20
-0.4081141432880261
  0
HATCH
  5
843
330
841
100
AcDbEntity
  8
TITLEBLOCK
 62
     0
100
AcDbHatch
 10
0.0
 20
0.0
 30
0.0
210
0.0
220
0.0
230
1.0
  2
SOLID
 70
     1
 71
     0
 91
        1
 92
        1
 93
        4
 72
     1
 10
3.703333445713536
 20
0.1990762889281312
 11
1.018147379006204
 21
0.1990762889281312
 72
     1
 10
1.018147379006204
 20
0.1990762889281312
 11
1.018147379006204
 21
0.220706173683743
 72
     1
 10
1.018147379006204
 20
0.220706173683743
 11
3.703333445713536
 21
0.220706173683743
 72
     1
 10
3.703333445713536
 20
0.220706173683743
 11
3.703333445713536
 21
0.1990762889281312
 97
        0
 75
     0
 76
     1
 98
        1
 10
-7.279586802153931
 20
-0.4081141432880261
  0
HATCH
  5
844
330
841
100
AcDbEntity
  8
TITLEBLOCK
 62
     0
100
AcDbHatch
 10
0.0
 20
0.0
 30
0.0
210
0.0
220
0.0
230
1.0
  2
SOLID
 70
     1
 71
     0
 91
        4
 92
        1
 93
        4
 72
     1
 10
0.8306472632318495
 20
0.4814782717956759
 11
0.4556470182475714
 21
0.4814782717956759
 72
     1
 10
0.4556470182475714
 20
0.4814782717956759
 11
0.4556470182475714
 21
0.1064783844396073
 72
     1
 10
0.4556470182475714
 20
0.1064783844396073
 11
0.8306472632318495
 21
0.1064783844396073
 72
     1
 10
0.8306472632318495
 20
0.1064783844396073
 11
0.8306472632318495
 21
0.4814782717956759
 97
        0
 92
        0
 93
       10
 72
     1
 10
0.7368972019857374
 20
0.4177282462416896
 11
0.5193971779121789
 21
0.4177282462416896
 72
     1
 10
0.5193971779121789
 20
0.4177282462416896
 11
0.5193971779121789
 21
0.37460312508514
 72
     1
 10
0.5193971779121789
 20
0.37460312508514
 11
0.5531473465883146
 21
0.37460312508514
 72
     1
 10
0.5531473465883146
 20
0.37460312508514
 11
0.5531473465883146
 21
0.2133535311501431
 72
     1
 10
0.5531473465883146
 20
0.2133535311501431
 11
0.5193971779121789
 21
0.2133535311501431
 72
     1
 10
0.5193971779121789
 20
0.2133535311501431
 11
0.5193971779121789
 21
0.1702282758831428
 72
     1
 10
0.5193971779121789
 20
0.1702282758831428
 11
0.7368972019857374
 21
0.1702282758831428
 72
     1
 10
0.7368972019857374
 20
0.1702282758831428
 11
0.7668970141602749
 21
0.2002283115750982
 72
     1
 10
0.7668970141602749
 20
0.2002283115750982
 11
0.7668970141602749
 21
0.3877281658462506
 72
     1
 10
0.7668970141602749
 20
0.3877281658462506
 11
0.7368972019857374
 21
0.4177282462416896
 97
        0
 92
       16
 93
        4
 72
     1
 10
0.7987720492890098
 20
0.4496031025563197
 11
0.4875220533764768
 21
0.4496031025563197
 72
     1
 10
0.4875220533764768
 20
0.4496031025563197
 11
0.4875220533764768
 21
0.1383533301613751
 72
     1
 10
0.4875220533764768
 20
0.1383533301613751
 11
0.7987720492890098
 21
0.1383533301613751
 72
     1
 10
0.7987720492890098
 20
0.1383533301613751
 11
0.7987720492890098
 21
0.4496031025563197
 97
        0
 92
        0
 93
        4
 72
     1
 10
0.5962724677448641
 20
0.37460312508514
 11
0.5962724677448641
 21
0.2133535311501431
 72
     1
 10
0.5962724677448641
 20
0.2133535311501431
 11
0.7237719824106926
 21
0.2133535311501431
 72
     1
 10
0.7237719824106926
 20
0.2133535311501431
 11
0.7237719824106926
 21
0.37460312508514
 72
     1
 10
0.7237719824106926
 20
0.37460312508514
 11
0.5962724677448641
 21
0.37460312508514
 97
        0
 75
     0
 76
     1
 98
        1
 10
-7.279586802153931
 20
-0.313212194787444
  0
HATCH
  5
845
330
841
100
AcDbEntity
  8
TITLEBLOCK
 62
     0
100
AcDbHatch
 10
0.0
 20
0.0
 30
0.0
210
0.0
220
0.0
230
1.0
  2
SOLID
 70
     1
 71
     0
 91
        1
 92
        1
 93
       26
 72
     1
 10
1.050490193885575
 20
0.3650136723335662
 11
1.138990457951802
 21
0.3650136723335662
 72
     2
 10
1.138990281703138
 20
0.3542326140418093
 40
0.0107810582931976
 50
270.0009366709926
 51
360.0009366862294
 73
     0
 72
     1
 10
1.149771339994895
 20
0.3542324377902786
 11
1.171333797831589
 21
0.3542324377902786
 72
     1
 10
1.171333797831589
 20
0.3542324377902786
 11
1.171333797831589
 21
0.3650136723335662
 72
     2
 10
1.149771243432702
 20
0.365013768896207
 40
0.0215625543991033
 50
359.9997434148255
 51
449.9997434160159
 73
     1
 72
     1
 10
1.149771339994895
 20
0.3865763232950938
 11
1.039708786842066
 21
0.3865763232950938
 72
     2
 10
1.039709408398413
 20
0.3650142939052909
 40
0.0215620293987615
 50
90.00165163282177
 51
180.0014125206716
 73
     1
 72
     1
 10
1.018147379006204
 20
0.3650137623336376
 11
1.018147379006204
 21
0.3334199129435318
 72
     2
 10
1.039709363397143
 20
0.3334193363730153
 40
0.0215619843986475
 50
179.9984679027414
 51
269.9984679437668
 73
     1
 72
     1
 10
1.039708786842066
 20
0.3118573519820755
 11
1.138990457951802
 21
0.311857620107139
 72
     2
 10
1.138990280765661
 20
0.3010765608779043
 40
0.0107810592306907
 50
270.0009416531222
 51
360.0009416684906
 73
     0
 72
     1
 10
1.149771339994895
 20
0.3010763836888712
 11
1.149771508744986
 21
0.2902949691454408
 72
     2
 10
1.138990231076649
 20
0.2902948322713164
 40
0.0107812776692067
 50
359.9992725992319
 51
449.9997907459082
 73
     0
 72
     1
 10
1.138990270451738
 20
0.279513554602181
 11
1.050490193885575
 21
0.2795135546020104
 72
     2
 10
1.05049014888543
 20
0.2902951041454384
 40
0.0107815495435218
 50
89.99976085826782
 51
179.9997608594354
 73
     0
 72
     1
 10
1.039708599342002
 20
0.2902950591455122
 11
1.018147379006204
 21
0.2902950591455122
 72
     1
 10
1.018147379006204
 20
0.2902950591455122
 11
1.018147379006204
 21
0.2795138227272444
 72
     2
 10
1.039709273392517
 20
0.2795130680345569
 40
0.0215618943995203
 50
179.9979945776083
 51
269.9987071039827
 73
     1
 72
     1
 10
1.039708786842066
 20
0.2579511736405264
 11
1.149771339994895
 21
0.2579511736405264
 72
     2
 10
1.149771378432784
 20
0.2795135930396681
 40
0.0215624193991759
 50
269.9998978626289
 51
359.9996636967671
 73
     1
 72
     1
 10
1.171333797831589
 20
0.2795134664769192
 11
1.171333797831589
 21
0.3114825579869829
 72
     2
 10
1.149771333432362
 20
0.3114825645494808
 40
0.0215624643992288
 50
359.9999825621309
 51
449.9999825620359
 73
     1
 72
     1
 10
1.149771339994895
 20
0.3330450289487088
 11
1.050490193885575
 21
0.3330447608234748
 72
     2
 10
1.050490103885701
 20
0.3438262653667981
 40
0.0107815045436989
 50
89.99952171675776
 51
179.9999900368059
 73
     0
 72
     1
 10
1.039708599342002
 20
0.3438262634919964
 11
1.039708786842066
 21
0.3542325259151993
 72
     2
 10
1.050490107634269
 20
0.3542323515402983
 40
0.0107813207936133
 50
180.0009266903443
 51
270.0004583701697
 73
     0
 97
        0
 75
     0
 76
     1
 98
        1
 10
-7.279586802153931
 20
-0.4081141432880261
  0
HATCH
  5
846
330
841
100
AcDbEntity
  8
TITLEBLOCK
 62
     0
100
AcDbHatch
 10
0.0
 20
0.0
 30
0.0
210
0.0
220
0.0
230
1.0
  2
SOLID
 70
     1
 71
     0
 91
        1
 92
        1
 93
       18
 72
     2
 10
2.471082802883087
 20
0.3650137595211706
 40
0.021562563774099
 50
180.0000074732525
 51
269.9997683261728
 73
     0
 72
     1
 10
2.471082715695484
 20
0.3865763232950938
 11
2.586957622645552
 21
0.3865763232950938
 72
     2
 10
2.586957713583391
 20
0.3650135813961111
 40
0.0215627418991744
 50
269.9997583630888
 51
359.999758364108
 73
     0
 72
     1
 10
2.608520455482373
 20
0.3650136723335662
 11
2.608520455482373
 21
0.3542324377902786
 72
     1
 10
2.608520455482373
 20
0.3542324377902786
 11
2.586957622645552
 21
0.3542324377902786
 72
     2
 10
2.576176208103625
 20
0.3542322577916381
 40
0.0107814145434302
 50
0.0009565685814303
 51
90.00095658455173
 73
     1
 72
     1
 10
2.576176028101979
 20
0.3650136723335662
 11
2.481864141488966
 21
0.3650136723335662
 72
     2
 10
2.481864045863444
 20
0.3542323421656055
 40
0.0107813301683848
 50
89.99949181235312
 51
179.9994918168631
 73
     1
 72
     1
 10
2.471082715695484
 20
0.3542324377902786
 11
2.471082715695484
 21
0.2902950591455122
 72
     2
 10
2.481864090863785
 20
0.2902951097704553
 40
0.0107813751684203
 50
180.0002690376259
 51
270.0002690388874
 73
     1
 72
     1
 10
2.481864141488966
 20
0.2795137346021532
 11
2.576176028101979
 21
0.2795135546020104
 72
     2
 10
2.576176073102679
 20
0.2902951041456356
 40
0.010781549543719
 50
269.9997608553225
 51
359.9992825760937
 73
     1
 72
     1
 10
2.586957622645552
 20
0.2902949691454408
 11
2.608520455482373
 21
0.2902950591455122
 72
     1
 10
2.608520455482373
 20
0.2902950591455122
 11
2.608520099232048
 21
0.2795134664769192
 72
     2
 10
2.586957670458414
 20
0.2795136024145366
 40
0.0215624287740632
 50
0.0003612140281018
 51
90.00012704854281
 73
     0
 72
     1
 10
2.586957622645552
 20
0.2579511736405264
 11
2.471082715695484
 21
0.2579511736405264
 72
     2
 10
2.471082667882924
 20
0.2795136024144634
 40
0.02156242877399
 50
89.99987295225965
 51
179.9998729525419
 73
     0
 72
     1
 10
2.449520239108988
 20
0.2795135546020104
 11
2.449520239108988
 21
0.3650137623336376
 97
        0
 75
     0
 76
     1
 98
        1
 10
-7.279586802153931
 20
-0.4081141432880261
  0
HATCH
  5
847
330
841
100
AcDbEntity
  8
TITLEBLOCK
 62
     0
100
AcDbHatch
 10
0.0
 20
0.0
 30
0.0
210
0.0
220
0.0
230
1.0
  2
SOLID
 70
     1
 71
     0
 91
        1
 92
        1
 93
       12
 72
     1
 10
2.026708344139745
 20
0.3865765014202565
 11
1.890208311215626
 21
0.3865765014202565
 72
     1
 10
1.890208311215626
 20
0.3865765014202565
 11
1.890208311215626
 21
0.2579511736405264
 72
     1
 10
1.890208311215626
 20
0.2579511736405264
 11
2.026708344139745
 21
0.2579511736405264
 72
     1
 10
2.026708344139745
 20
0.2579511736405264
 11
2.026708344139745
 21
0.2795135546020104
 72
     1
 10
2.026708344139745
 20
0.2795135546020104
 11
1.911770600302059
 21
0.2795135546020104
 72
     1
 10
1.911770600302059
 20
0.2795135546020104
 11
1.911770600302059
 21
0.3114825579869829
 72
     1
 10
1.911770600302059
 20
0.3114825579869829
 11
2.026708344139745
 21
0.3114825579869829
 72
     1
 10
2.026708344139745
 20
0.3114825579869829
 11
2.026708344139745
 21
0.333044848948566
 72
     1
 10
2.026708344139745
 20
0.333044848948566
 11
1.911770600302059
 21
0.333044848948566
 72
     1
 10
1.911770600302059
 20
0.333044848948566
 11
1.911770600302059
 21
0.3650136723335662
 72
     1
 10
1.911770600302059
 20
0.3650136723335662
 11
2.026708344139745
 21
0.3650136723335662
 72
     1
 10
2.026708344139745
 20
0.3650136723335662
 11
2.026708344139745
 21
0.3865765014202565
 97
        0
 75
     0
 76
     1
 98
        1
 10
-7.279586802153931
 20
-0.4081141432880261
  0
HATCH
  5
848
330
841
100
AcDbEntity
  8
TITLEBLOCK
 62
     0
100
AcDbHatch
 10
0.0
 20
0.0
 30
0.0
210
0.0
220
0.0
230
1.0
  2
SOLID
 70
     1
 71
     0
 91
        2
 92
        1
 93
        8
 72
     1
 10
1.614830743814064
 20
0.3865765014202565
 11
1.531145595393223
 21
0.2579509955155343
 72
     1
 10
1.531145595393223
 20
0.2579509955155343
 11
1.556870855949323
 21
0.2579511736405264
 72
     1
 10
1.556870855949323
 20
0.2579511736405264
 11
1.570898996363819
 21
0.2795135546020104
 72
     1
 10
1.570898996363819
 20
0.2795135546020104
 11
1.673830432358027
 21
0.2795135546020104
 72
     1
 10
1.673830432358027
 20
0.2795135546020104
 11
1.687858760272586
 21
0.2579514417655899
 72
     1
 10
1.687858760272586
 20
0.2579514417655899
 11
1.713583120827973
 21
0.2579514417655899
 72
     1
 10
1.713583120827973
 20
0.2579514417655899
 11
1.629898141157394
 21
0.3865765014202565
 72
     1
 10
1.629898141157394
 20
0.3865765014202565
 11
1.614830743814064
 21
0.3865765014202565
 97
        0
 92
       16
 93
        3
 72
     1
 10
1.622364536235675
 20
0.3586169575295115
 11
1.659801223192726
 21
0.3010763836888712
 72
     1
 10
1.659801223192726
 20
0.3010763836888712
 11
1.584928205528949
 21
0.3010762055637086
 72
     1
 10
1.584928205528949
 20
0.3010762055637086
 11
1.622364348735612
 21
0.3586165994043766
 97
        0
 75
     0
 76
     1
 98
        1
 10
-7.279586802153931
 20
-0.4081141432880261
  0
HATCH
  5
849
330
841
100
AcDbEntity
  8
TITLEBLOCK
 62
     0
100
AcDbHatch
 10
0.0
 20
0.0
 30
0.0
210
0.0
220
0.0
230
1.0
  2
SOLID
 70
     1
 71
     0
 91
        1
 92
        1
 93
       12
 72
     1
 10
1.392021104504447
 20
0.3865765014202565
 11
1.370458815418015
 21
0.3865765014202565
 72
     1
 10
1.370458815418015
 20
0.3865765014202565
 11
1.370458627917951
 21
0.2795138227272444
 72
     2
 10
1.39202114575308
 20
0.2795135133528436
 40
0.0215625178373483
 50
179.999177932392
 51
269.9998903944058
 73
     1
 72
     1
 10
1.392021104504447
 20
0.2579509955155343
 11
1.509583287556818
 21
0.2579511736405264
 72
     2
 10
1.509583335369764
 20
0.2795136024146219
 40
0.0215624287741484
 50
269.9998729512306
 51
359.9996387857453
 73
     1
 72
     1
 10
1.531145764143484
 20
0.2795134664769192
 11
1.531146120393639
 21
0.3865765014202565
 72
     1
 10
1.531146120393639
 20
0.3865765014202565
 11
1.509583287556818
 21
0.3865765014202565
 72
     1
 10
1.509583287556818
 20
0.3865765014202565
 11
1.509583287556818
 21
0.2902950591455122
 72
     2
 10
1.498801916139266
 20
0.290294926019563
 40
0.0107813714183743
 50
359.9992925246018
 51
449.9992925333428
 73
     0
 72
     1
 10
1.49880204926357
 20
0.2795135546020104
 11
1.402802342797695
 21
0.2795135546020104
 72
     2
 10
1.402802382172719
 20
0.2902950197703451
 40
0.0107814651684066
 50
90.00020925010334
 51
180.0002092508632
 73
     0
 72
     1
 10
1.392020917004384
 20
0.2902950591455122
 11
1.392021104504447
 21
0.3865765014202565
 97
        0
 75
     0
 76
     1
 98
        1
 10
-7.279586802153931
 20
-0.4081141432880261
  0
HATCH
  5
84A
330
841
100
AcDbEntity
  8
TITLEBLOCK
 62
     0
100
AcDbHatch
 10
0.0
 20
0.0
 30
0.0
210
0.0
220
0.0
230
1.0
  2
SOLID
 70
     1
 71
     0
 91
        2
 92
        1
 93
       13
 72
     2
 10
1.851958289039648
 20
0.2899198104641797
 40
0.0215625675244637
 50
0.0002565813902296
 51
90.00070498518821
 73
     1
 72
     2
 10
1.851958289040149
 20
0.3330449455099156
 40
0.0215625675245372
 50
269.9992950134807
 51
359.9995092535441
 73
     1
 72
     1
 10
1.873520856563896
 20
0.3330447608234748
 11
1.873520856563896
 21
0.3650136657708798
 72
     2
 10
1.851957894958188
 20
0.3650135398162329
 40
0.0215629616060761
 50
0.0003346789653151
 51
89.99920945081219
 73
     1
 72
     1
 10
1.851958192477166
 20
0.3865765014202565
 11
1.720333350237904
 21
0.3865765014202565
 72
     1
 10
1.720333350237904
 20
0.3865765014202565
 11
1.720333350237904
 21
0.2579511736405264
 72
     1
 10
1.720333350237904
 20
0.2579511736405264
 11
1.741896183074725
 21
0.2579511736405264
 72
     1
 10
1.741896183074725
 20
0.2579511736405264
 11
1.741896183074725
 21
0.3007013215688856
 72
     1
 10
1.741896183074725
 20
0.3007013215688856
 11
1.841176785433827
 21
0.3007013215688856
 72
     2
 10
1.841176693559081
 20
0.2899201789011263
 40
0.0107811426681508
 50
270.0004882631974
 51
360.0004882673548
 73
     0
 72
     1
 10
1.851957836226841
 20
0.289920087025598
 11
1.851958192477166
 21
0.2579511736405264
 72
     1
 10
1.851958192477166
 20
0.2579511736405264
 11
1.873520856563896
 21
0.2579511736405264
 72
     1
 10
1.873520856563896
 20
0.2579511736405264
 11
1.873520856563896
 21
0.2899199070254552
 97
        0
 92
       16
 93
        6
 72
     2
 10
1.841176693559081
 20
0.3542325296658069
 40
0.0107811426681508
 50
270.0004882631974
 51
360.0004882673548
 73
     0
 72
     1
 10
1.851957836226841
 20
0.3542324377902786
 11
1.851958192477166
 21
0.333044848948566
 72
     2
 10
1.841176871684197
 20
0.333044935198247
 40
0.0107813207933138
 50
0.0004583615308307
 51
90.00045836519477
 73
     0
 72
     1
 10
1.841176785433827
 20
0.3222636144052784
 11
1.741896183074725
 21
0.3222638825303419
 72
     1
 10
1.741896183074725
 20
0.3222638825303419
 11
1.741896183074725
 21
0.3650136723335662
 72
     1
 10
1.741896183074725
 20
0.3650136723335662
 11
1.841176785433827
 21
0.3650136723335662
 97
        0
 75
     0
 76
     1
 98
        1
 10
-7.279586802153931
 20
-0.4081141432880261
  0
HATCH
  5
84B
330
841
100
AcDbEntity
  8
TITLEBLOCK
 62
     0
100
AcDbHatch
 10
0.0
 20
0.0
 30
0.0
210
0.0
220
0.0
230
1.0
  2
SOLID
 70
     1
 71
     0
 91
        2
 92
        1
 93
       10
 72
     1
 10
2.168832611988261
 20
0.3650136723335662
 11
2.168832611988261
 21
0.2795135546021492
 72
     1
 10
2.168832611988261
 20
0.2795135546021492
 11
2.148020079641632
 21
0.2795135546021492
 72
     1
 10
2.148020079641632
 20
0.2795135546021492
 11
2.148020079641632
 21
0.2579511736406499
 72
     1
 10
2.148020079641632
 20
0.2579511736406499
 11
2.314895263659607
 21
0.2579511736406499
 72
     2
 10
2.314895311472477
 20
0.2795136024147182
 40
0.0215624287741214
 50
269.9998729514336
 51
359.9996387859474
 73
     1
 72
     1
 10
2.336457740246171
 20
0.2795134664770916
 11
2.336457740246171
 21
0.3650136723335662
 72
     2
 10
2.314895087410214
 20
0.3650138485844006
 40
0.0215626528366775
 50
359.9995316703829
 51
449.999531674211
 73
     1
 72
     1
 10
2.314895263659607
 20
0.386576501420358
 11
2.148020079641632
 21
0.386576501420358
 72
     1
 10
2.148020079641632
 20
0.386576501420358
 11
2.148020079641632
 21
0.3650136723335662
 72
     1
 10
2.148020079641632
 20
0.3650136723335662
 11
2.168832611988261
 21
0.3650136723335662
 97
        0
 92
       16
 93
        6
 72
     1
 10
2.190395257324933
 20
0.3650136723335662
 11
2.304113856616218
 21
0.3650136723335662
 72
     2
 10
2.304113942866619
 20
0.3542323515405775
 40
0.0107813207933337
 50
269.9995416346447
 51
359.9995416383139
 73
     0
 72
     1
 10
2.314895263659607
 20
0.3542324377902877
 11
2.314895263659607
 21
0.2902949691455452
 72
     2
 10
2.304113807866077
 20
0.2902950103956483
 40
0.0107814557936096
 50
0.0002192149982456
 51
89.99974092762393
 73
     0
 72
     1
 10
2.304113856616218
 20
0.2795135546021492
 11
2.190395257324933
 21
0.2795135546021492
 72
     1
 10
2.190395257324933
 20
0.2795135546021492
 11
2.190395257324933
 21
0.3650136723335662
 97
        0
 75
     0
 76
     1
 98
        1
 10
-7.279586802153931
 20
-0.4081141432880261
  0
HATCH
  5
84C
330
841
100
AcDbEntity
  8
TITLEBLOCK
 62
     0
100
AcDbHatch
 10
0.0
 20
0.0
 30
0.0
210
0.0
220
0.0
230
1.0
  2
SOLID
 70
     1
 71
     0
 91
        2
 92
        1
 93
        8
 72
     1
 10
3.241392303571654
 20
0.3865765014202565
 11
3.157707226761072
 21
0.2579509955155343
 72
     1
 10
3.157707226761072
 20
0.2579509955155343
 11
3.183432299816939
 21
0.2579511736405264
 72
     1
 10
3.183432299816939
 20
0.2579511736405264
 11
3.197460983981823
 21
0.2795133764768478
 72
     1
 10
3.197460983981823
 20
0.2795133764768478
 11
3.30039082622498
 21
0.2795135546020104
 72
     1
 10
3.30039082622498
 20
0.2795135546020104
 11
3.314419679139785
 21
0.2579514417655899
 72
     1
 10
3.314419679139785
 20
0.2579514417655899
 11
3.340144583445731
 21
0.2579511736405264
 72
     1
 10
3.340144583445731
 20
0.2579511736405264
 11
3.256459603774981
 21
0.3865765014202565
 72
     1
 10
3.256459603774981
 20
0.3865765014202565
 11
3.241392303571654
 21
0.3865765014202565
 97
        0
 92
       16
 93
        3
 72
     1
 10
3.248925740352245
 20
0.358616778466603
 11
3.211489480646473
 21
0.3010762055637086
 72
     1
 10
3.211489480646473
 20
0.3010762055637086
 11
3.28636178580994
 21
0.3010763836888712
 72
     1
 10
3.28636178580994
 20
0.3010763836888712
 11
3.248925740352245
 21
0.358616778466603
 97
        0
 75
     0
 76
     1
 98
        1
 10
-7.279586802153931
 20
-0.4081141432880261
  0
HATCH
  5
84D
330
841
100
AcDbEntity
  8
TITLEBLOCK
 62
     0
100
AcDbHatch
 10
0.0
 20
0.0
 30
0.0
210
0.0
220
0.0
230
1.0
  2
SOLID
 70
     1
 71
     0
 91
        1
 92
        1
 93
       13
 72
     1
 10
2.838488736968525
 20
0.3865765014202565
 11
2.806145209588674
 21
0.3865765014202565
 72
     1
 10
2.806145209588674
 20
0.3865765014202565
 11
2.806145209588674
 21
0.2579511736405264
 72
     1
 10
2.806145209588674
 20
0.2579511736405264
 11
2.827707667425368
 21
0.2579511736405264
 72
     1
 10
2.827707667425368
 20
0.2579511736405264
 11
2.827707667425368
 21
0.3640633654626753
 72
     1
 10
2.827707667425368
 20
0.3640633654626753
 11
2.899718420719221
 21
0.2579514417655899
 72
     1
 10
2.899718420719221
 20
0.2579514417655899
 11
2.922570860648686
 21
0.2579511736405264
 72
     1
 10
2.922570860648686
 20
0.2579511736405264
 11
2.994582138942956
 21
0.3640642598382782
 72
     1
 10
2.994582138942956
 20
0.3640642598382782
 11
2.994582138942956
 21
0.2579511736405264
 72
     1
 10
2.994582138942956
 20
0.2579511736405264
 11
3.016144596779479
 21
0.2579511736405264
 72
     1
 10
3.016144596779479
 20
0.2579511736405264
 11
3.016144596779479
 21
0.3865765014202565
 72
     1
 10
3.016144596779479
 20
0.3865765014202565
 11
2.983801425649954
 21
0.3865765014202565
 72
     1
 10
2.983801425649954
 20
0.3865765014202565
 11
2.911144640683954
 21
0.2795135546020104
 72
     1
 10
2.911144640683954
 20
0.2795135546020104
 11
2.838488380718199
 21
0.3865765014202565
 97
        0
 75
     0
 76
     1
 98
        1
 10
-7.279586802153931
 20
-0.4081141432880261
  0
HATCH
  5
84E
330
841
100
AcDbEntity
  8
TITLEBLOCK
 62
     0
100
AcDbHatch
 10
0.0
 20
0.0
 30
0.0
210
0.0
220
0.0
230
1.0
  2
SOLID
 70
     1
 71
     0
 91
        2
 92
        1
 93
        8
 72
     1
 10
2.79358243888161
 20
0.2795134664769192
 11
2.793582795131936
 21
0.3650136723335662
 72
     2
 10
2.772020240733041
 20
0.3650137688961994
 40
0.0215625543991104
 50
359.9997434148459
 51
449.999743415997
 73
     1
 72
     1
 10
2.772020337295241
 20
0.3865763232950938
 11
2.640957676673206
 21
0.3865763232950938
 72
     2
 10
2.640957763860811
 20
0.3650137595211699
 40
0.0215625637741002
 50
90.00023167383188
 51
179.9999925267453
 73
     1
 72
     1
 10
2.61939520008671
 20
0.3650137623336376
 11
2.61939520008671
 21
0.2795135546020104
 72
     2
 10
2.640957628860649
 20
0.2795136024144641
 40
0.0215624287739915
 50
180.0001270474597
 51
270.0001270477355
 73
     1
 72
     1
 10
2.640957676673206
 20
0.2579511736405264
 11
2.772020337295241
 21
0.2579511736405264
 72
     2
 10
2.772020197607671
 20
0.2795134149140743
 40
0.0215622412740004
 50
270.000371181646
 51
360.000137014207
 73
     1
 97
        0
 92
       16
 93
        8
 72
     2
 10
2.651738913091431
 20
0.3542324359149649
 40
0.0107812364186015
 50
89.9999900344766
 51
179.999521702949
 73
     1
 72
     1
 10
2.640957676673206
 20
0.3542325259151993
 11
2.640957676673206
 21
0.2902950591455122
 72
     2
 10
2.651738958091508
 20
0.2902950160204556
 40
0.010781281418388
 50
179.9997708172488
 51
269.9997708181704
 73
     1
 72
     1
 10
2.651738914966625
 20
0.2795137346021532
 11
2.761238742751839
 21
0.2795135546020104
 72
     2
 10
2.761238956501978
 20
0.2902951041442614
 40
0.0107815495443698
 50
269.9988640797126
 51
359.9992825833961
 73
     1
 72
     1
 10
2.772020506045503
 20
0.2902949691454408
 11
2.772020337295241
 21
0.3542324377902786
 72
     2
 10
2.761239007127366
 20
0.3542323421656908
 40
0.0107813301682991
 50
0.0005081826837109
 51
90.00050818719378
 73
     1
 72
     1
 10
2.76123891150193
 20
0.3650136723335662
 11
2.651738914966625
 21
0.3650136723335662
 97
        0
 75
     0
 76
     1
 98
        1
 10
-7.279586802153931
 20
-0.4081141432880261
  0
HATCH
  5
84F
330
841
100
AcDbEntity
  8
TITLEBLOCK
 62
     0
100
AcDbHatch
 10
0.0
 20
0.0
 30
0.0
210
0.0
220
0.0
230
1.0
  2
SOLID
 70
     1
 71
     0
 91
        2
 92
        1
 93
        8
 72
     2
 10
3.162769048174736
 20
0.3650134554401196
 40
0.0215630459811904
 50
270.0005663490367
 51
359.9994236862867
 73
     0
 72
     1
 10
3.184332094154836
 20
0.3650136723335662
 11
3.184332094154836
 21
0.3222638825303419
 72
     2
 10
3.162769397256125
 20
0.3222640184675962
 40
0.0215626968991391
 50
0.0003612085718475
 51
90.00036121084693
 73
     0
 72
     1
 10
3.162769261318015
 20
0.3007013215688856
 11
3.052707420665665
 21
0.3007013215688856
 72
     1
 10
3.052707420665665
 20
0.3007013215688856
 11
3.052707420665665
 21
0.2579511736405264
 72
     1
 10
3.052707420665665
 20
0.2579511736405264
 11
3.031144250328662
 21
0.2579511736405264
 72
     1
 10
3.031144250328662
 20
0.2579511736405264
 11
3.031144250328662
 21
0.3865765014202565
 72
     1
 10
3.031144250328662
 20
0.3865765014202565
 11
3.162769261318015
 21
0.3865765014202565
 97
        0
 92
       16
 93
        6
 72
     2
 10
3.151988118650169
 20
0.3542325296657216
 40
0.0107811426682361
 50
270.0004882627443
 51
360.0004882669015
 73
     0
 72
     1
 10
3.162769261318015
 20
0.3542324377902786
 11
3.162769261318015
 21
0.333044848948566
 72
     2
 10
3.151988118650169
 20
0.333044757073123
 40
0.0107811426682367
 50
359.9995117330984
 51
449.9995117372556
 73
     0
 72
     1
 10
3.15198821052483
 20
0.3222636144052784
 11
3.052707420665665
 21
0.3222638825303419
 72
     1
 10
3.052707420665665
 20
0.3222638825303419
 11
3.052707420665665
 21
0.3650136723335662
 72
     1
 10
3.052707420665665
 20
0.3650136723335662
 11
3.15198821052483
 21
0.3650136723335662
 97
        0
 75
     0
 76
     1
 98
        1
 10
-7.279586802153931
 20
-0.4081141432880261
  0
HATCH
  5
850
330
841
100
AcDbEntity
  8
TITLEBLOCK
 62
     0
100
AcDbHatch
 10
0.0
 20
0.0
 30
0.0
210
0.0
220
0.0
230
1.0
  2
SOLID
 70
     1
 71
     0
 91
        1
 92
        1
 93
        9
 72
     1
 10
3.556847887515953
 20
0.3865763232950938
 11
3.525206566844968
 21
0.3865765014202565
 72
     1
 10
3.525206566844968
 20
0.3865765014202565
 11
3.60348814923547
 21
0.3136817019238036
 72
     1
 10
3.60348814923547
 20
0.3136817019238036
 11
3.603486349234383
 21
0.2579511736405264
 72
     1
 10
3.603486349234383
 20
0.2579511736405264
 11
3.625050607072164
 21
0.2579511736405264
 72
     1
 10
3.625050607072164
 20
0.2579511736405264
 11
3.625050607072164
 21
0.3136813437984982
 72
     1
 10
3.625050607072164
 20
0.3136813437984982
 11
3.703331833212512
 21
0.3865766795454191
 72
     1
 10
3.703331833212512
 20
0.3865766795454191
 11
3.671691225042007
 21
0.3865765014202565
 72
     1
 10
3.671691225042007
 20
0.3865765014202565
 11
3.61426955627898
 21
0.3331056458632473
 72
     1
 10
3.61426955627898
 20
0.3331056458632473
 11
3.556847887515953
 21
0.3865763232950938
 97
        0
 75
     0
 76
     1
 98
        1
 10
-7.279586802153931
 20
-0.4081141432880261
  0
HATCH
  5
851
330
841
100
AcDbEntity
  8
TITLEBLOCK
 62
     0
100
AcDbHatch
 10
0.0
 20
0.0
 30
0.0
210
0.0
220
0.0
230
1.0
  2
SOLID
 70
     1
 71
     0
 91
        1
 92
        1
 93
       10
 72
     1
 10
3.376247484495632
 20
0.3865765014202565
 11
3.345207161752892
 21
0.3865765014202565
 72
     1
 10
3.345207161752892
 20
0.3865765014202565
 11
3.345207161752892
 21
0.2579511736405264
 72
     1
 10
3.345207161752892
 20
0.2579511736405264
 11
3.366769638339558
 21
0.2579511736405264
 72
     1
 10
3.366769638339558
 20
0.2579511736405264
 11
3.366769638339558
 21
0.3659393041881229
 72
     1
 10
3.366769638339558
 20
0.3659393041881229
 11
3.48273627034943
 21
0.2579509955155343
 72
     1
 10
3.48273627034943
 20
0.2579509955155343
 11
3.515082122730785
 21
0.2579511736405264
 72
     1
 10
3.515082122730785
 20
0.2579511736405264
 11
3.515082122730785
 21
0.3865765014202565
 72
     1
 10
3.515082122730785
 20
0.3865765014202565
 11
3.49351767739277
 21
0.3865765014202565
 72
     1
 10
3.49351767739277
 20
0.3865765014202565
 11
3.49351767739277
 21
0.277374671329744
 72
     1
 10
3.49351767739277
 20
0.277374671329744
 11
3.376247484495632
 21
0.3865765014202565
 97
        0
 75
     0
 76
     1
 98
        1
 10
-7.279586802153931
 20
-0.4081141432880261
  0
ENDBLK
  5
853
330
841
100
AcDbEntity
  8
0
100
AcDbBlockEnd
  0
BLOCK
  5
AF5
330
AE5
100
AcDbEntity
  8
0
100
AcDbBlockBegin
  2
TITLE-PAD
 70
     2
 10
0.0
 20
0.0
 30
0.0
  3
TITLE-PAD
  1

  0
LWPOLYLINE
  5
B1D
330
AE5
100
AcDbEntity
  8
CONTINUOUS2
 62
     0
100
AcDbPolyline
 90
        7
 70
     1
 43
0.0
 10
16.40000099999999
 20
0.0
 10
16.40000099999999
 20
0.0
 10
16.40000099999999
 20
0.0
 10
8.002461
 20
0.0
 10
8.002461
 20
0.9120019999999993
 10
16.40000099999999
 20
0.9120019999999993
 10
16.40000099999999
 20
0.0
  0
INSERT
  5
B1E
330
AE5
100
AcDbEntity
  8
TITLEBLOCK
 62
     0
100
AcDbBlockReference
  2
LOGO-PAD
 10
12.245701
 20
0.3040000000000003
 30
0.0
  0
LINE
  5
B1F
330
AE5
100
AcDbEntity
  8
CONTINUOUS2
 62
     0
100
AcDbLine
 10
16.40000099999999
 20
0.3040000000000003
 30
0.0
 11
12.245701
 21
0.3040000000000003
 31
0.0
  0
LINE
  5
B20
330
AE5
100
AcDbEntity
  8
CONTINUOUS2
 62
     0
100
AcDbLine
 10
12.245701
 20
0.9120019999999993
 30
0.0
 11
12.245701
 21
0.0
 31
0.0
  0
TEXT
  5
B21
330
AE5
100
AcDbEntity
  8
TEXT1
  6
CONTINUOUS
 62
     0
100
AcDbText
 10
12.36897712113656
 20
0.0611566731182909
 30
0.0
 40
0.0699999951940822
  1
NO.
  7
ROMANS
 11
12.36897712113656
 21
0.096156670715332
 31
0.0
100
AcDbText
 73
     2
  0
TEXT
  5
B22
330
AE5
100
AcDbEntity
  8
TEXT1
  6
CONTINUOUS
 62
     0
100
AcDbText
 10
12.36897712113656
 20
0.1661566731182908
 30
0.0
 40
0.0699999951940822
  1
DWG#
  7
ROMANS
 11
12.36897712113656
 21
0.2011566707153319
 31
0.0
100
AcDbText
 73
     2
  0
ATTDEF
  5
B23
330
AE5
100
AcDbEntity
  8
TEXT1
 62
     0
100
AcDbText
 10
10.10183834893798
 20
0.7474460884590166
 30
0.0
 40
0.1
  1

  7
ROMANS
 72
     4
 11
10.10183834893798
 21
0.7474460884590166
 31
0.0
100
AcDbAttributeDefinition
  3
DESCRIPTION 1
  2
DESCRIPTION 1
 70
     0
  0
ATTDEF
  5
B24
330
AE5
100
AcDbEntity
  8
TEXT1
 62
     0
100
AcDbText
 10
10.10183834893798
 20
0.6017231711406717
 30
0.0
 40
0.1
  1

  7
ROMANS
 72
     4
 11
10.10183834893798
 21
0.6017231711406717
 31
0.0
100
AcDbAttributeDefinition
  3
DESCRIPTION 2
  2
DESCRIPTION 2
 70
     0
  0
ATTDEF
  5
B25
330
AE5
100
AcDbEntity
  8
TEXT1
 62
     0
100
AcDbText
 10
10.10183834893798
 20
0.4560002538223267
 30
0.0
 40
0.08
  1

  7
ROMANS
 72
     4
 11
10.10183834893798
 21
0.4560002538223267
 31
0.0
100
AcDbAttributeDefinition
  3
DESCRIPTION 3
  2
DESCRIPTION 3
 70
     0
  0
ATTDEF
  5
B26
330
AE5
100
AcDbEntity
  8
TEXT1
 62
     0
100
AcDbText
 10
10.10183834893798
 20
0.3202773365039833
 30
0.0
 40
0.08
  1

  7
ROMANS
 72
     4
 11
10.10183834893798
 21
0.3202773365039833
 31
0.0
100
AcDbAttributeDefinition
  3
DESCRIPTION 4
  2
DESCRIPTION 4
 70
     0
  0
ATTDEF
  5
B27
330
AE5
100
AcDbEntity
  8
TEXT1
 62
     0
100
AcDbText
 10
10.10183834893798
 20
0.1845544191856399
 30
0.0
 40
0.08
  1

  7
ROMANS
 72
     4
 11
10.10183834893798
 21
0.1845544191856399
 31
0.0
100
AcDbAttributeDefinition
  3
DESCRIPTION 5
  2
DESCRIPTION 5
 70
     0
  0
ATTDEF
  5
B28
330
AE5
100
AcDbEntity
  8
TEXT1
 62
     0
100
AcDbText
 10
12.74772367103195
 20
0.096540546036505
 30
0.0
 40
0.12
  1

 41
0.9512024731840066
  7
M_STANDARD
 11
12.74772367103195
 21
0.156540546036505
 31
0.0
100
AcDbAttributeDefinition
  3
DRAWING NUMBER
  2
DWGNO
 70
     0
 74
     2
  0
ATTDEF
  5
B29
330
AE5
100
AcDbEntity
  8
TEXT1
 62
     0
100
AcDbText
 10
16.35506454949325
 20
-0.1507193079929352
 30
0.0
 40
0.08
  1

  7
ROMANS
 72
     2
 11
16.35506454949325
 21
-0.1107193079929352
 31
0.0
100
AcDbAttributeDefinition
  3
REF DWG #
  2
REF
 70
     0
 74
     2
  0
ATTDEF
  5
B2A
330
AE5
100
AcDbEntity
  8
TEXT1
 62
     0
100
AcDbText
 10
0.0266402374038712
 20
-0.1507193079929352
 30
0.0
 40
0.08
  1

  7
ROMANS
 11
0.0266402374038712
 21
-0.1107193079929352
 31
0.0
100
AcDbAttributeDefinition
  3
DATE MODIFIED
  2
DATE
 70
     0
 74
     2
  0
LWPOLYLINE
  5
B2B
330
AE5
100
AcDbEntity
  8
CONTINUOUS3
 62
     0
100
AcDbPolyline
 90
        4
 70
   129
 43
0.0
 10
0.0
 20
0.0
 10
16.40000099999999
 20
0.0
 10
16.40000099999999
 20
10.25
 10
0.0
 20
10.25
  0
ENDBLK
  5
AF6
330
AE5
100
AcDbEntity
  8
0
100
AcDbBlockEnd
  0
BLOCK
  5
D84
330
D52
100
AcDbEntity
  8
0
100
AcDbBlockBegin
  2
OEM-NOTES
 70
     0
 10
0.0
 20
0.0
 30
0.0
  3
OEM-NOTES
  1

  0
LWPOLYLINE
  5
D53
330
D52
100
AcDbEntity
  8
TITLEBLOCK
100
AcDbPolyline
 90
        2
 70
     0
 43
0.0128
 10
8.625
 20
1.599999999999996
 10
0.0
 20
1.6
  0
TEXT
  5
D57
330
D52
100
AcDbEntity
  8
TITLEBLOCK
100
AcDbText
 10
0.3131249999999959
 20
0.7406249999999998
 30
0.0
 40
0.13125
  1
BE USED ONLY IN CONFORMANCE WITH INSTRUCTIONS ISSUED BY SQUARE D COMPANY.
 41
0.9
  7
SIMPLEX
 72
     4
 11
4.3125
 21
0.7999999999999999
 31
0.0
100
AcDbText
  0
TEXT
  5
D58
330
D52
100
AcDbEntity
  8
TITLEBLOCK
100
AcDbText
 10
0.2540625000000007
 20
1.045625000000001
 30
0.0
 40
0.13125
  1
HEREON. THIS INFORMATION REMAINS THE PROPERTY OF SQUARE D COMPANY AND MAY
 41
0.9
  7
SIMPLEX
 72
     4
 11
4.3125
 21
1.105000000000001
 31
0.0
100
AcDbText
  0
TEXT
  5
D59
330
D52
100
AcDbEntity
  8
TITLEBLOCK
100
AcDbText
 10
0.3046875
 20
1.338124999999997
 30
0.0
 40
0.13125
  1
"THE SQUARE D COMPANY HAS PROPRIETARY RIGHTS TO THE INFORMATION CONTAINED
 41
0.9
  7
SIMPLEX
 72
     4
 11
4.3125
 21
1.409999999999997
 31
0.0
100
AcDbText
  0
TEXT
  5
D5A
330
D52
100
AcDbEntity
  8
TITLEBLOCK
100
AcDbText
 10
0.6309374999999977
 20
0.4387499999999984
 30
0.0
 40
0.13125
  1
USER SHOULD VERIFY DRAWINGS ARE TO THE LATEST/CURRENT REVISION PRIOR
 41
0.9
  7
SIMPLEX
 72
     4
 11
4.3125
 21
0.4949999999999984
 31
0.0
100
AcDbText
  0
TEXT
  5
D5B
330
D52
100
AcDbEntity
  8
TITLEBLOCK
100
AcDbText
 10
2.5490625
 20
0.1368749999999972
 30
0.0
 40
0.13125
  1
TO INCORPORATING IN A DESIGN FILE."
 41
0.9
  7
SIMPLEX
 72
     4
 11
4.3125
 21
0.2149999999999972
 31
0.0
100
AcDbText
  0
TEXT
  5
D5C
330
D52
100
AcDbEntity
  8
TITLEBLOCK
100
AcDbText
 10
9.046378855339687
 20
0.2629426489623099
 30
0.0
 40
0.112
  1
UNLESS OTHERWISE SPECIFIED DIMENSIONS ARE IN INCHES
 41
0.8
  7
SIMPLEX
 72
     4
 11
11.06451218867302
 21
0.3189426489623099
 31
0.0
100
AcDbText
  0
LWPOLYLINE
  5
D5D
330
D52
100
AcDbEntity
  8
TITLEBLOCK
100
AcDbPolyline
 90
        2
 70
     0
 43
0.0128
 10
8.625
 20
0.9599999999999964
 10
16.00492200000007
 20
0.9599999999999964
  0
TEXT
  5
D61
330
D52
100
AcDbEntity
  8
TITLEBLOCK
100
AcDbText
 10
8.7837120071254
 20
0.5472199999999967
 30
0.0
 40
0.2433162500000002
  1
%%uDO NOT SCALE DRAWING
  7
SIMPLEX
 72
     1
 11
11.06451218867302
 21
0.5472199999999967
 31
0.0
100
AcDbText
  0
LWPOLYLINE
  5
D62
330
D52
100
AcDbEntity
  8
TITLEBLOCK
100
AcDbPolyline
 90
        2
 70
     0
 43
0.0128
 10
8.625
 20
0.9599999999999964
 10
8.625
 20
0.0000000000000009
  0
LWPOLYLINE
  5
D66
330
D52
100
AcDbEntity
  8
TITLEBLOCK
100
AcDbPolyline
 90
        2
 70
     0
 43
0.0128
 10
8.625
 20
0.0000000000000009
 10
8.625
 20
1.6
  0
LWPOLYLINE
  5
D6A
330
D52
100
AcDbEntity
  8
TITLEBLOCK
100
AcDbPolyline
 90
        2
 70
     0
 43
0.0128
 10
13.49242200000007
 20
1.599999999999995
 10
13.49242200000007
 20
0.0000000000000009
  0
TEXT
  5
D6E
330
D52
100
AcDbEntity
  8
TITLEBLOCK
100
AcDbText
 10
13.77242200000007
 20
0.2099999999999964
 30
0.0
 40
0.1
  1
2 PLACE DECIMALS
  7
SIMPLEX
100
AcDbText
  0
TEXT
  5
D6F
330
D52
100
AcDbEntity
  8
TITLEBLOCK
100
AcDbText
 10
13.62242200000007
 20
0.4474999999999972
 30
0.0
 40
0.1
  1
UNLESS OTHERWISE SPECIFIED
  7
SIMPLEX
100
AcDbText
  0
TEXT
  5
D70
330
D52
100
AcDbEntity
  8
TITLEBLOCK
100
AcDbText
 10
15.57242200000007
 20
0.2099999999999964
 30
0.0
 40
0.1
  1
.01
  7
SIMPLEX
100
AcDbText
  0
LINE
  5
D71
330
D52
100
AcDbEntity
  8
TITLEBLOCK
100
AcDbLine
 10
15.35492200000008
 20
0.2187499999999973
 30
0.0
 11
15.45492200000008
 21
0.2187499999999973
 31
0.0
  0
TEXT
  5
D72
330
D52
100
AcDbEntity
  8
TITLEBLOCK
100
AcDbText
 10
15.35992200000007
 20
0.2474999999999961
 30
0.0
 40
0.1
  1
+
  7
SIMPLEX
100
AcDbText
  0
LWPOLYLINE
  5
D73
330
D52
100
AcDbEntity
  8
TITLEBLOCK
100
AcDbPolyline
 90
        2
 70
     0
 43
0.0128
 10
16.00492200000007
 20
1.599999999999995
 10
13.49242200000007
 20
1.599999999999995
  0
TEXT
  5
D77
330
D52
100
AcDbEntity
  8
TITLEBLOCK
100
AcDbText
 10
13.62242200000007
 20
1.147499999999996
 30
0.0
 40
0.1
  1
PROJECTION
  7
SIMPLEX
100
AcDbText
  0
TEXT
  5
D78
330
D52
100
AcDbEntity
  8
TITLEBLOCK
100
AcDbText
 10
13.55992200000007
 20
1.347499999999997
 30
0.0
 40
0.1
  1
THIRD ANGLE
  7
SIMPLEX
100
AcDbText
  0
LINE
  5
D79
330
D52
100
AcDbEntity
  8
TITLEBLOCK
100
AcDbLine
 10
14.69692486880008
 20
1.300351715199997
 30
0.0
 11
15.91292523520008
 21
1.300351715199997
 31
0.0
  0
TEXT
  5
D7A
330
D52
100
AcDbEntity
  8
TITLEBLOCK
100
AcDbText
 10
14.04742200000008
 20
0.6974999999999972
 30
0.0
 40
0.15
  1
%%uTOLERANCES
  7
SIMPLEX
100
AcDbText
  0
LINE
  5
D7B
330
D52
100
AcDbEntity
  8
TITLEBLOCK
100
AcDbLine
 10
14.95292615040008
 20
1.396354294399999
 30
0.0
 11
14.95292615040008
 21
1.524354553599997
 31
0.0
  0
CIRCLE
  5
D7C
330
D52
100
AcDbEntity
  8
TITLEBLOCK
100
AcDbCircle
 10
14.95292615040008
 20
1.300352668799996
 30
0.0
 40
0.1279999615999998
  0
CIRCLE
  5
D7D
330
D52
100
AcDbEntity
  8
TITLEBLOCK
100
AcDbCircle
 10
14.95292615040008
 20
1.300352668799996
 30
0.0
 40
0.064000004799999
  0
LINE
  5
D7E
330
D52
100
AcDbEntity
  8
TITLEBLOCK
100
AcDbLine
 10
14.95292615040008
 20
1.332351302399996
 30
0.0
 11
14.95292615040008
 21
1.268351172799996
 31
0.0
  0
LINE
  5
D7F
330
D52
100
AcDbEntity
  8
TITLEBLOCK
100
AcDbLine
 10
14.95292615040008
 20
1.204351996799997
 30
0.0
 11
14.95292615040008
 21
1.076351737599998
 31
0.0
  0
LINE
  5
D80
330
D52
100
AcDbEntity
  8
TITLEBLOCK
100
AcDbLine
 10
15.78492230560007
 20
1.172351455999998
 30
0.0
 11
15.33692425760007
 21
1.236351585599996
 31
0.0
  0
LINE
  5
D81
330
D52
100
AcDbEntity
  8
TITLEBLOCK
100
AcDbLine
 10
15.33692425760007
 20
1.364351844799998
 30
0.0
 11
15.78492230560007
 21
1.428351020799996
 31
0.0
  0
LINE
  5
D82
330
D52
100
AcDbEntity
  8
TITLEBLOCK
100
AcDbLine
 10
15.33692425760007
 20
1.236351585599996
 30
0.0
 11
15.33692425760007
 21
1.364351844799998
 31
0.0
  0
LINE
  5
D83
330
D52
100
AcDbEntity
  8
TITLEBLOCK
100
AcDbLine
 10
15.78492230560007
 20
1.428351020799996
 30
0.0
 11
15.78492230560007
 21
1.172351455999998
 31
0.0
  0
ENDBLK
  5
D85
330
D52
100
AcDbEntity
  8
0
100
AcDbBlockEnd
  0
BLOCK
  5
8A6E
330
8A5B
100
AcDbEntity
  8
0
100
AcDbBlockBegin
  2
REF2
 70
     2
 10
0.0
 20
0.0
 30
0.0
  3
REF2
  1

  0
ATTDEF
  5
8A5C
330
8A5B
100
AcDbEntity
  8
TEXT1
100
AcDbText
 10
2.0
 20
0.2204373050885353
 30
0.0
 40
0.125
  1

100
AcDbAttributeDefinition
  3
Mounting Hardware?
  2
MOUNTING_HWD
 70
     0
  0
ATTDEF
  5
8A5D
330
8A5B
100
AcDbEntity
  8
TEXT1
100
AcDbText
 10
2.0
 20
0.4484790897328282
 30
0.0
 40
0.125
  1

100
AcDbAttributeDefinition
  3
Terminal Torque
  2
TERM_TORQUE
 70
     0
  0
ATTDEF
  5
8A5E
330
8A5B
100
AcDbEntity
  8
TEXT1
100
AcDbText
 10
2.0
 20
0.6579373050885355
 30
0.0
 40
0.125
  1

100
AcDbAttributeDefinition
  3
Wire Size?
  2
WIRE_SIZE
 70
     0
  0
ATTDEF
  5
8A5F
330
8A5B
100
AcDbEntity
  8
TEXT1
100
AcDbText
 10
2.0
 20
0.8564164127663893
 30
0.0
 40
0.125
  1

100
AcDbAttributeDefinition
  3
Weight?
  2
WEIGHT
 70
     0
  0
ATTDEF
  5
8A60
330
8A5B
100
AcDbEntity
  8
TEXT1
100
AcDbText
 10
2.0
 20
1.0625
 30
0.0
 40
0.125
  1

100
AcDbAttributeDefinition
  3
Meets Standards
  2
STANDARDS
 70
     0
  0
ATTDEF
  5
8A61
330
8A5B
100
AcDbEntity
  8
TEXT1
100
AcDbText
 10
2.0
 20
1.293916394821363
 30
0.0
 40
0.125
  1

100
AcDbAttributeDefinition
  3
CSA File/Guide
  2
CSA
 70
     0
  0
ATTDEF
  5
8A62
330
8A5B
100
AcDbEntity
  8
TEXT1
100
AcDbText
 10
2.010983301335642
 20
1.5
 30
0.0
 40
0.125
  1

100
AcDbAttributeDefinition
  3
UL File/Guide?
  2
UL
 70
     0
  0
ATTDEF
  5
8A63
330
8A5B
100
AcDbEntity
  8
TEXT1
100
AcDbText
 10
2.0
 20
1.720437305088535
 30
0.0
 40
0.125
  1

100
AcDbAttributeDefinition
  3
Ratings?
  2
RATING
 70
     0
  0
ATTDEF
  5
8A64
330
8A5B
100
AcDbEntity
  8
TEXT1
100
AcDbText
 10
2.0
 20
1.9375
 30
0.0
 40
0.125
  1

100
AcDbAttributeDefinition
  3
Catalog Number?
  2
CATALOG
 70
     0
  0
TEXT
  5
8A65
330
8A5B
100
AcDbEntity
  8
TEXT1
100
AcDbText
 10
0.1875
 20
0.2232142857142858
 30
0.0
 40
0.125
  1
Mounting Hwd.:
100
AcDbText
  0
TEXT
  5
8A66
330
8A5B
100
AcDbEntity
  8
TEXT1
100
AcDbText
 10
0.1875
 20
0.4375
 30
0.0
 40
0.125
  1
Terminal torque:
100
AcDbText
  0
TEXT
  5
8A67
330
8A5B
100
AcDbEntity
  8
TEXT1
100
AcDbText
 10
0.1875
 20
0.6517857142857145
 30
0.0
 40
0.125
  1
Wire Size:
100
AcDbText
  0
TEXT
  5
8A68
330
8A5B
100
AcDbEntity
  8
TEXT1
100
AcDbText
 10
0.1875
 20
0.8660714285714284
 30
0.0
 40
0.125
  1
Weight:
100
AcDbText
  0
TEXT
  5
8A69
330
8A5B
100
AcDbEntity
  8
TEXT1
100
AcDbText
 10
0.1875
 20
1.080357142857142
 30
0.0
 40
0.125
  1
Meets Standards:
100
AcDbText
  0
TEXT
  5
8A6A
330
8A5B
100
AcDbEntity
  8
TEXT1
100
AcDbText
 10
0.1875
 20
1.294642857142856
 30
0.0
 40
0.125
  1
CSA File/Class:
100
AcDbText
  0
TEXT
  5
8A6B
330
8A5B
100
AcDbEntity
  8
TEXT1
100
AcDbText
 10
0.1875
 20
1.508928571428571
 30
0.0
 40
0.125
  1
UL File/CCN:
100
AcDbText
  0
TEXT
  5
8A6C
330
8A5B
100
AcDbEntity
  8
TEXT1
100
AcDbText
 10
0.1875
 20
1.723214285714285
 30
0.0
 40
0.125
  1
Ratings:
100
AcDbText
  0
TEXT
  5
8A6D
330
8A5B
100
AcDbEntity
  8
TEXT1
100
AcDbText
 10
0.1875
 20
1.9375
 30
0.0
 40
0.125
  1
Catalog Number:
100
AcDbText
  0
ENDBLK
  5
8A6F
330
8A5B
100
AcDbEntity
  8
0
100
AcDbBlockEnd
  0
BLOCK
  5
8F71
330
8F66
100
AcDbEntity
  8
0
100
AcDbBlockBegin
  2
*D5
 70
     1
 10
0.0
 20
0.0
 30
0.0
  3
*D5
  1

  0
LINE
  5
95C2
330
8F66
100
AcDbEntity
  8
DIM
100
AcDbLine
 10
16.56357618817442
 20
17.65105483759887
 30
0.0
 11
16.56357618817442
 21
11.68616845238096
 31
0.0
  0
LINE
  5
95C3
330
8F66
100
AcDbEntity
  8
DIM
100
AcDbLine
 10
24.75107618817443
 20
16.93216905745259
 30
0.0
 11
24.75107618817443
 21
11.68616845238096
 31
0.0
  0
LINE
  5
95C4
330
8F66
100
AcDbEntity
  8
DIM
100
AcDbLine
 10
16.84357618817442
 20
11.93616845238096
 30
0.0
 11
19.54494523579347
 21
11.93616845238096
 31
0.0
  0
LINE
  5
95C5
330
8F66
100
AcDbEntity
  8
DIM
100
AcDbLine
 10
24.47107618817442
 20
11.93616845238096
 30
0.0
 11
21.76970714055537
 21
11.93616845238096
 31
0.0
  0
INSERT
  5
95C6
330
8F66
100
AcDbEntity
  8
DIM
100
AcDbBlockReference
  2
SEARROW
 10
16.56357618817442
 20
11.93616845238096
 30
0.0
 41
0.28
 42
0.28
 43
0.28
 50
180.0
  0
INSERT
  5
95C7
330
8F66
100
AcDbEntity
  8
DIM
100
AcDbBlockReference
  2
SEARROW
 10
24.75107618817443
 20
11.93616845238096
 30
0.0
 41
0.28
 42
0.28
 43
0.28
  0
MTEXT
  5
95C8
330
8F66
100
AcDbEntity
  8
DIM
100
AcDbMText
 10
20.65732618817442
 20
11.93616845238096
 30
0.0
 40
0.4
 41
0.0
 71
     5
 72
     1
  1
\A1;\P8.19\P [208]
  7
ROMANS
1001
ACAD
1000
MTEXTBEGIN
1070
    73
1070
     1
1070
    44
1040
1.0
1070
    74
1070
     0
1000
MTEXTEND
1000
MTEXTBEGIN
1070
    73
1070
     1
1070
    44
1040
1.0
1070
    74
1070
     0
1000
MTEXTEND
  0
POINT
  5
95C9
330
8F66
100
AcDbEntity
  8
DEFPOINTS
 62
     0
100
AcDbPoint
 10
16.56357618817442
 20
17.90105483759887
 30
0.0
  0
POINT
  5
95CA
330
8F66
100
AcDbEntity
  8
DEFPOINTS
 62
     0
100
AcDbPoint
 10
24.75107618817443
 20
17.18216905745259
 30
0.0
  0
POINT
  5
95CB
330
8F66
100
AcDbEntity
  8
DEFPOINTS
 62
     0
100
AcDbPoint
 10
24.75107618817443
 20
11.93616845238096
 30
0.0
  0
ENDBLK
  5
8F72
330
8F66
100
AcDbEntity
  8
0
100
AcDbBlockEnd
  0
BLOCK
  5
8F7E
330
8F73
100
AcDbEntity
  8
0
100
AcDbBlockBegin
  2
*D6
 70
     1
 10
0.0
 20
0.0
 30
0.0
  3
*D6
  1

  0
LINE
  5
95E0
330
8F73
100
AcDbEntity
  8
DIM
100
AcDbLine
 10
19.33029571151643
 20
26.21115483759886
 30
0.0
 11
19.33029571151643
 21
32.00984750714901
 31
0.0
  0
LINE
  5
95E1
330
8F73
100
AcDbEntity
  8
DIM
100
AcDbLine
 10
22.01779571151643
 20
26.21115483759886
 30
0.0
 11
22.01779571151643
 21
32.00984750714901
 31
0.0
  0
LINE
  5
95E2
330
8F73
100
AcDbEntity
  8
DIM
100
AcDbLine
 10
19.61029571151644
 20
31.75984750714901
 30
0.0
 11
21.73779571151643
 21
31.75984750714901
 31
0.0
  0
LINE
  5
95E3
330
8F73
100
AcDbEntity
  8
DIM
100
AcDbLine
 10
22.01779571151643
 20
31.75984750714901
 30
0.0
 11
22.29779571151643
 21
31.75984750714901
 31
0.0
  0
INSERT
  5
95E4
330
8F73
100
AcDbEntity
  8
DIM
100
AcDbBlockReference
  2
SEARROW
 10
19.33029571151643
 20
31.75984750714901
 30
0.0
 41
0.28
 42
0.28
 43
0.28
 50
180.0
  0
INSERT
  5
95E5
330
8F73
100
AcDbEntity
  8
DIM
100
AcDbBlockReference
  2
SEARROW
 10
22.01779571151643
 20
31.75984750714901
 30
0.0
 41
0.28
 42
0.28
 43
0.28
  0
MTEXT
  5
95E6
330
8F73
100
AcDbEntity
  8
DIM
100
AcDbMText
 10
23.21970047342119
 20
31.75984750714901
 30
0.0
 40
0.4
 41
0.0
 71
     5
 72
     1
  1
\A1;\P2.69\P [68]
  7
ROMANS
1001
ACAD
1000
MTEXTBEGIN
1070
    73
1070
     1
1070
    44
1040
1.0
1070
    74
1070
     0
1000
MTEXTEND
1000
MTEXTBEGIN
1070
    73
1070
     1
1070
    44
1040
1.0
1070
    74
1070
     0
1000
MTEXTEND
  0
POINT
  5
95E7
330
8F73
100
AcDbEntity
  8
DEFPOINTS
 62
     0
100
AcDbPoint
 10
19.33029571151643
 20
25.96115483759886
 30
0.0
  0
POINT
  5
95E8
330
8F73
100
AcDbEntity
  8
DEFPOINTS
 62
     0
100
AcDbPoint
 10
22.01779571151643
 20
25.96115483759886
 30
0.0
  0
POINT
  5
95E9
330
8F73
100
AcDbEntity
  8
DEFPOINTS
 62
     0
100
AcDbPoint
 10
22.01779571151643
 20
31.75984750714901
 30
0.0
  0
ENDBLK
  5
8F7F
330
8F73
100
AcDbEntity
  8
0
100
AcDbBlockEnd
  0
BLOCK
  5
8F8B
330
8F80
100
AcDbEntity
  8
0
100
AcDbBlockBegin
  2
*D7
 70
     1
 10
0.0
 20
0.0
 30
0.0
  3
*D7
  1

  0
LINE
  5
954A
330
8F80
100
AcDbEntity
  8
DIM
100
AcDbLine
 10
25.00107618817442
 20
29.36905483759886
 30
0.0
 11
30.25778545666723
 21
29.36905483759886
 31
0.0
  0
LINE
  5
954B
330
8F80
100
AcDbEntity
  8
DIM
100
AcDbLine
 10
23.56357618817442
 20
17.18158197581992
 30
0.0
 11
30.25778545666722
 21
17.18158197581992
 31
0.0
  0
LINE
  5
954C
330
8F80
100
AcDbEntity
  8
DIM
100
AcDbLine
 10
30.00778545666722
 20
29.08905483759886
 30
0.0
 11
30.00778545666722
 21
24.07341364480464
 31
0.0
  0
LINE
  5
954D
330
8F80
100
AcDbEntity
  8
DIM
100
AcDbLine
 10
30.00778545666722
 20
17.46158197581992
 30
0.0
 11
30.00778545666722
 21
22.47722316861416
 31
0.0
  0
INSERT
  5
954E
330
8F80
100
AcDbEntity
  8
DIM
100
AcDbBlockReference
  2
SEARROW
 10
30.00778545666722
 20
29.36905483759886
 30
0.0
 41
0.28
 42
0.28
 43
0.28
 50
90.0
  0
INSERT
  5
954F
330
8F80
100
AcDbEntity
  8
DIM
100
AcDbBlockReference
  2
SEARROW
 10
30.00778545666722
 20
17.18158197581992
 30
0.0
 41
0.28
 42
0.28
 43
0.28
 50
270.0
  0
MTEXT
  5
9550
330
8F80
100
AcDbEntity
  8
DIM
100
AcDbMText
 10
30.00778545666722
 20
23.2753184067094
 30
0.0
 40
0.4
 41
0.0
 71
     5
 72
     1
  1
\A1;12.19\P [310]
  7
ROMANS
1001
ACAD
1000
MTEXTBEGIN
1070
    73
1070
     1
1070
    44
1040
1.0
1070
    74
1070
     0
1000
MTEXTEND
1000
MTEXTBEGIN
1070
    73
1070
     1
1070
    44
1040
1.0
1070
    74
1070
     0
1000
MTEXTEND
  0
POINT
  5
9551
330
8F80
100
AcDbEntity
  8
DEFPOINTS
 62
     0
100
AcDbPoint
 10
24.75107618817443
 20
29.36905483759886
 30
0.0
  0
POINT
  5
9552
330
8F80
100
AcDbEntity
  8
DEFPOINTS
 62
     0
100
AcDbPoint
 10
23.31357618817442
 20
17.18158197581992
 30
0.0
  0
POINT
  5
9553
330
8F80
100
AcDbEntity
  8
DEFPOINTS
 62
     0
100
AcDbPoint
 10
30.00778545666722
 20
17.18158197581992
 30
0.0
  0
ENDBLK
  5
8F8C
330
8F80
100
AcDbEntity
  8
0
100
AcDbBlockEnd
  0
BLOCK
  5
8F98
330
8F8D
100
AcDbEntity
  8
0
100
AcDbBlockBegin
  2
*D8
 70
     1
 10
0.0
 20
0.0
 30
0.0
  3
*D8
  1

  0
LINE
  5
95D6
330
8F8D
100
AcDbEntity
  8
DIM
100
AcDbLine
 10
19.33029571151643
 20
26.21115483759886
 30
0.0
 11
19.33029571151643
 21
31.23188273809525
 31
0.0
  0
LINE
  5
95D7
330
8F8D
100
AcDbEntity
  8
DIM
100
AcDbLine
 10
20.12629571151643
 20
22.39915483759886
 30
0.0
 11
20.12629571151643
 21
31.23188273809525
 31
0.0
  0
LINE
  5
95D8
330
8F8D
100
AcDbEntity
  8
DIM
100
AcDbLine
 10
20.40629571151643
 20
30.98188273809525
 30
0.0
 11
20.68629571151643
 21
30.98188273809525
 31
0.0
  0
LINE
  5
95D9
330
8F8D
100
AcDbEntity
  8
DIM
100
AcDbLine
 10
19.05029571151643
 20
30.98188273809525
 30
0.0
 11
18.76458142580215
 21
30.98188273809525
 31
0.0
  0
INSERT
  5
95DA
330
8F8D
100
AcDbEntity
  8
DIM
100
AcDbBlockReference
  2
SEARROW
 10
20.12629571151643
 20
30.98188273809525
 30
0.0
 41
0.28
 42
0.28
 43
0.28
 50
180.0
  0
INSERT
  5
95DB
330
8F8D
100
AcDbEntity
  8
DIM
100
AcDbBlockReference
  2
SEARROW
 10
19.33029571151643
 20
30.98188273809525
 30
0.0
 41
0.28
 42
0.28
 43
0.28
  0
MTEXT
  5
95DC
330
8F8D
100
AcDbEntity
  8
DIM
100
AcDbMText
 10
17.84267666389738
 20
30.98188273809525
 30
0.0
 40
0.4
 41
0.0
 71
     5
 72
     1
  1
\A1;\P.80\P [20]
  7
ROMANS
1001
ACAD
1000
MTEXTBEGIN
1070
    73
1070
     1
1070
    44
1040
1.0
1070
    74
1070
     0
1000
MTEXTEND
1000
MTEXTBEGIN
1070
    73
1070
     1
1070
    44
1040
1.0
1070
    74
1070
     0
1000
MTEXTEND
  0
POINT
  5
95DD
330
8F8D
100
AcDbEntity
  8
DEFPOINTS
 62
     0
100
AcDbPoint
 10
19.33029571151643
 20
25.96115483759886
 30
0.0
  0
POINT
  5
95DE
330
8F8D
100
AcDbEntity
  8
DEFPOINTS
 62
     0
100
AcDbPoint
 10
20.12629571151643
 20
22.14915483759886
 30
0.0
  0
POINT
  5
95DF
330
8F8D
100
AcDbEntity
  8
DEFPOINTS
 62
     0
100
AcDbPoint
 10
20.12629571151643
 20
30.98188273809525
 30
0.0
  0
ENDBLK
  5
8F99
330
8F8D
100
AcDbEntity
  8
0
100
AcDbBlockEnd
  0
BLOCK
  5
8FA5
330
8F9A
100
AcDbEntity
  8
0
100
AcDbBlockBegin
  2
*D9
 70
     1
 10
0.0
 20
0.0
 30
0.0
  3
*D9
  1

  0
LINE
  5
95AE
330
8F9A
100
AcDbEntity
  8
DIM
100
AcDbLine
 10
24.31379571151643
 20
19.89915483759886
 30
0.0
 11
24.31379571151643
 21
15.88780135571889
 31
0.0
  0
LINE
  5
95AF
330
8F9A
100
AcDbEntity
  8
DIM
100
AcDbLine
 10
20.12629571151643
 20
21.89915483759886
 30
0.0
 11
20.12629571151643
 21
15.88780135571889
 31
0.0
  0
LINE
  5
95B0
330
8F9A
100
AcDbEntity
  8
DIM
100
AcDbLine
 10
24.03379571151643
 20
16.13780135571889
 30
0.0
 11
23.33242666389739
 21
16.13780135571889
 31
0.0
  0
LINE
  5
95B1
330
8F9A
100
AcDbEntity
  8
DIM
100
AcDbLine
 10
20.40629571151643
 20
16.13780135571889
 30
0.0
 11
21.10766475913548
 21
16.13780135571889
 31
0.0
  0
INSERT
  5
95B2
330
8F9A
100
AcDbEntity
  8
DIM
100
AcDbBlockReference
  2
SEARROW
 10
24.31379571151643
 20
16.13780135571889
 30
0.0
 41
0.28
 42
0.28
 43
0.28
  0
INSERT
  5
95B3
330
8F9A
100
AcDbEntity
  8
DIM
100
AcDbBlockReference
  2
SEARROW
 10
20.12629571151643
 20
16.13780135571889
 30
0.0
 41
0.28
 42
0.28
 43
0.28
 50
180.0
  0
MTEXT
  5
95B4
330
8F9A
100
AcDbEntity
  8
DIM
100
AcDbMText
 10
22.22004571151643
 20
16.13780135571889
 30
0.0
 40
0.4
 41
0.0
 71
     5
 72
     1
  1
\A1;\P4.19\P [106]
  7
ROMANS
1001
ACAD
1000
MTEXTBEGIN
1070
    73
1070
     1
1070
    44
1040
1.0
1070
    74
1070
     0
1000
MTEXTEND
1000
MTEXTBEGIN
1070
    73
1070
     1
1070
    44
1040
1.0
1070
    74
1070
     0
1000
MTEXTEND
  0
POINT
  5
95B5
330
8F9A
100
AcDbEntity
  8
DEFPOINTS
 62
     0
100
AcDbPoint
 10
24.31379571151643
 20
20.14915483759886
 30
0.0
  0
POINT
  5
95B6
330
8F9A
100
AcDbEntity
  8
DEFPOINTS
 62
     0
100
AcDbPoint
 10
20.12629571151643
 20
22.14915483759886
 30
0.0
  0
POINT
  5
95B7
330
8F9A
100
AcDbEntity
  8
DEFPOINTS
 62
     0
100
AcDbPoint
 10
20.12629571151643
 20
16.13780135571889
 30
0.0
  0
ENDBLK
  5
8FA6
330
8F9A
100
AcDbEntity
  8
0
100
AcDbBlockEnd
  0
BLOCK
  5
8FB2
330
8FA7
100
AcDbEntity
  8
0
100
AcDbBlockBegin
  2
*D10
 70
     1
 10
0.0
 20
0.0
 30
0.0
  3
*D10
  1

  0
LINE
  5
95B8
330
8FA7
100
AcDbEntity
  8
DIM
100
AcDbLine
 10
24.31379571151643
 20
19.89915483759886
 30
0.0
 11
24.31379571151643
 21
13.1715384548409
 31
0.0
  0
LINE
  5
95B9
330
8FA7
100
AcDbEntity
  8
DIM
100
AcDbLine
 10
17.00129571151643
 20
19.89806775596619
 30
0.0
 11
17.00129571151643
 21
13.1715384548409
 31
0.0
  0
LINE
  5
95BA
330
8FA7
100
AcDbEntity
  8
DIM
100
AcDbLine
 10
24.03379571151643
 20
13.4215384548409
 30
0.0
 11
21.76992666389739
 21
13.4215384548409
 31
0.0
  0
LINE
  5
95BB
330
8FA7
100
AcDbEntity
  8
DIM
100
AcDbLine
 10
17.28129571151644
 20
13.4215384548409
 30
0.0
 11
19.54516475913548
 21
13.4215384548409
 31
0.0
  0
INSERT
  5
95BC
330
8FA7
100
AcDbEntity
  8
DIM
100
AcDbBlockReference
  2
SEARROW
 10
24.31379571151643
 20
13.4215384548409
 30
0.0
 41
0.28
 42
0.28
 43
0.28
  0
INSERT
  5
95BD
330
8FA7
100
AcDbEntity
  8
DIM
100
AcDbBlockReference
  2
SEARROW
 10
17.00129571151643
 20
13.4215384548409
 30
0.0
 41
0.28
 42
0.28
 43
0.28
 50
180.0
  0
MTEXT
  5
95BE
330
8FA7
100
AcDbEntity
  8
DIM
100
AcDbMText
 10
20.65754571151643
 20
13.4215384548409
 30
0.0
 40
0.4
 41
0.0
 71
     5
 72
     1
  1
\A1;\P7.31\P [186]
  7
ROMANS
1001
ACAD
1000
MTEXTBEGIN
1070
    73
1070
     1
1070
    44
1040
1.0
1070
    74
1070
     0
1000
MTEXTEND
1000
MTEXTBEGIN
1070
    73
1070
     1
1070
    44
1040
1.0
1070
    74
1070
     0
1000
MTEXTEND
  0
POINT
  5
95BF
330
8FA7
100
AcDbEntity
  8
DEFPOINTS
 62
     0
100
AcDbPoint
 10
24.31379571151643
 20
20.14915483759886
 30
0.0
  0
POINT
  5
95C0
330
8FA7
100
AcDbEntity
  8
DEFPOINTS
 62
     0
100
AcDbPoint
 10
17.00129571151643
 20
20.14806775596619
 30
0.0
  0
POINT
  5
95C1
330
8FA7
100
AcDbEntity
  8
DEFPOINTS
 62
     0
100
AcDbPoint
 10
17.00129571151643
 20
13.4215384548409
 30
0.0
  0
ENDBLK
  5
8FB3
330
8FA7
100
AcDbEntity
  8
0
100
AcDbBlockEnd
  0
BLOCK
  5
8FBF
330
8FB4
100
AcDbEntity
  8
0
100
AcDbBlockBegin
  2
*D11
 70
     1
 10
0.0
 20
0.0
 30
0.0
  3
*D11
  1

  0
LINE
  5
9554
330
8FB4
100
AcDbEntity
  8
DIM
100
AcDbLine
 10
22.26779571151643
 20
25.96115483759886
 30
0.0
 11
27.36694647964252
 21
25.96115483759886
 31
0.0
  0
LINE
  5
9555
330
8FB4
100
AcDbEntity
  8
DIM
100
AcDbLine
 10
24.56379571151643
 20
20.14915483759886
 30
0.0
 11
27.36694647964252
 21
20.14915483759886
 31
0.0
  0
LINE
  5
9556
330
8FB4
100
AcDbEntity
  8
DIM
100
AcDbLine
 10
27.11694647964252
 20
25.68115483759886
 30
0.0
 11
27.11694647964252
 21
23.8532500756941
 31
0.0
  0
LINE
  5
9557
330
8FB4
100
AcDbEntity
  8
DIM
100
AcDbLine
 10
27.11694647964252
 20
20.42915483759886
 30
0.0
 11
27.11694647964252
 21
22.25705959950362
 31
0.0
  0
INSERT
  5
9558
330
8FB4
100
AcDbEntity
  8
DIM
100
AcDbBlockReference
  2
SEARROW
 10
27.11694647964252
 20
25.96115483759886
 30
0.0
 41
0.28
 42
0.28
 43
0.28
 50
90.0
  0
INSERT
  5
9559
330
8FB4
100
AcDbEntity
  8
DIM
100
AcDbBlockReference
  2
SEARROW
 10
27.11694647964252
 20
20.14915483759886
 30
0.0
 41
0.28
 42
0.28
 43
0.28
 50
270.0
  0
MTEXT
  5
955A
330
8FB4
100
AcDbEntity
  8
DIM
100
AcDbMText
 10
27.11694647964252
 20
23.05515483759887
 30
0.0
 40
0.4
 41
0.0
 71
     5
 72
     1
  1
\A1;5.81\P [148]
  7
ROMANS
1001
ACAD
1000
MTEXTBEGIN
1070
    73
1070
     1
1070
    44
1040
1.0
1070
    74
1070
     0
1000
MTEXTEND
1000
MTEXTBEGIN
1070
    73
1070
     1
1070
    44
1040
1.0
1070
    74
1070
     0
1000
MTEXTEND
  0
POINT
  5
955B
330
8FB4
100
AcDbEntity
  8
DEFPOINTS
 62
     0
100
AcDbPoint
 10
22.01779571151643
 20
25.96115483759886
 30
0.0
  0
POINT
  5
955C
330
8FB4
100
AcDbEntity
  8
DEFPOINTS
 62
     0
100
AcDbPoint
 10
24.31379571151643
 20
20.14915483759886
 30
0.0
  0
POINT
  5
955D
330
8FB4
100
AcDbEntity
  8
DEFPOINTS
 62
     0
100
AcDbPoint
 10
27.11694647964252
 20
20.14915483759886
 30
0.0
  0
ENDBLK
  5
8FC0
330
8FB4
100
AcDbEntity
  8
0
100
AcDbBlockEnd
  0
BLOCK
  5
8FCC
330
8FC1
100
AcDbEntity
  8
0
100
AcDbBlockBegin
  2
*D12
 70
     1
 10
0.0
 20
0.0
 30
0.0
  3
*D12
  1

  0
LINE
  5
9540
330
8FC1
100
AcDbEntity
  8
DIM
100
AcDbLine
 10
19.08029571151643
 20
25.96115483759886
 30
0.0
 11
14.87857618817442
 21
25.96115483759886
 31
0.0
  0
LINE
  5
9541
330
8FC1
100
AcDbEntity
  8
DIM
100
AcDbLine
 10
19.46629571151644
 20
22.14915483759886
 30
0.0
 11
14.87857618817442
 21
22.14915483759886
 31
0.0
  0
LINE
  5
9542
330
8FC1
100
AcDbEntity
  8
DIM
100
AcDbLine
 10
15.12857618817442
 20
25.68115483759886
 30
0.0
 11
15.12857618817442
 21
24.8532500756941
 31
0.0
  0
LINE
  5
9543
330
8FC1
100
AcDbEntity
  8
DIM
100
AcDbLine
 10
15.12857618817442
 20
22.42915483759886
 30
0.0
 11
15.12857618817442
 21
23.25705959950362
 31
0.0
  0
INSERT
  5
9544
330
8FC1
100
AcDbEntity
  8
DIM
100
AcDbBlockReference
  2
SEARROW
 10
15.12857618817442
 20
25.96115483759886
 30
0.0
 41
0.28
 42
0.28
 43
0.28
 50
90.0
  0
INSERT
  5
9545
330
8FC1
100
AcDbEntity
  8
DIM
100
AcDbBlockReference
  2
SEARROW
 10
15.12857618817442
 20
22.14915483759886
 30
0.0
 41
0.28
 42
0.28
 43
0.28
 50
270.0
  0
MTEXT
  5
9546
330
8FC1
100
AcDbEntity
  8
DIM
100
AcDbMText
 10
15.12857618817442
 20
24.05515483759887
 30
0.0
 40
0.4
 41
0.0
 71
     5
 72
     1
  1
\A1;3.81\P [97]
  7
ROMANS
1001
ACAD
1000
MTEXTBEGIN
1070
    73
1070
     1
1070
    44
1040
1.0
1070
    74
1070
     0
1000
MTEXTEND
1000
MTEXTBEGIN
1070
    73
1070
     1
1070
    44
1040
1.0
1070
    74
1070
     0
1000
MTEXTEND
  0
POINT
  5
9547
330
8FC1
100
AcDbEntity
  8
DEFPOINTS
 62
     0
100
AcDbPoint
 10
19.33029571151643
 20
25.96115483759886
 30
0.0
  0
POINT
  5
9548
330
8FC1
100
AcDbEntity
  8
DEFPOINTS
 62
     0
100
AcDbPoint
 10
19.71629571151644
 20
22.14915483759886
 30
0.0
  0
POINT
  5
9549
330
8FC1
100
AcDbEntity
  8
DEFPOINTS
 62
     0
100
AcDbPoint
 10
15.12857618817442
 20
22.14915483759886
 30
0.0
  0
ENDBLK
  5
8FCD
330
8FC1
100
AcDbEntity
  8
0
100
AcDbBlockEnd
  0
BLOCK
  5
8FD9
330
8FCE
100
AcDbEntity
  8
0
100
AcDbBlockBegin
  2
*D13
 70
     1
 10
0.0
 20
0.0
 30
0.0
  3
*D13
  1

  0
LINE
  5
9536
330
8FCE
100
AcDbEntity
  8
DIM
100
AcDbLine
 10
19.87629571151643
 20
22.14915483759886
 30
0.0
 11
12.67619523579347
 21
22.14915483759886
 31
0.0
  0
LINE
  5
9537
330
8FCE
100
AcDbEntity
  8
DIM
100
AcDbLine
 10
16.31357618817442
 20
29.36905483759886
 30
0.0
 11
12.67619523579347
 21
29.36905483759886
 31
0.0
  0
LINE
  5
9538
330
8FCE
100
AcDbEntity
  8
DIM
100
AcDbLine
 10
12.92619523579347
 20
22.42915483759886
 30
0.0
 11
12.92619523579347
 21
24.96100959950362
 31
0.0
  0
LINE
  5
9539
330
8FCE
100
AcDbEntity
  8
DIM
100
AcDbLine
 10
12.92619523579347
 20
29.08905483759886
 30
0.0
 11
12.92619523579347
 21
26.5572000756941
 31
0.0
  0
INSERT
  5
953A
330
8FCE
100
AcDbEntity
  8
DIM
100
AcDbBlockReference
  2
SEARROW
 10
12.92619523579347
 20
22.14915483759886
 30
0.0
 41
0.28
 42
0.28
 43
0.28
 50
270.0
  0
INSERT
  5
953B
330
8FCE
100
AcDbEntity
  8
DIM
100
AcDbBlockReference
  2
SEARROW
 10
12.92619523579347
 20
29.36905483759886
 30
0.0
 41
0.28
 42
0.28
 43
0.28
 50
90.0
  0
MTEXT
  5
953C
330
8FCE
100
AcDbEntity
  8
DIM
100
AcDbMText
 10
12.92619523579346
 20
25.75910483759887
 30
0.0
 40
0.4
 41
0.0
 71
     5
 72
     1
  1
\A1;7.22\P [183]
  7
ROMANS
1001
ACAD
1000
MTEXTBEGIN
1070
    73
1070
     1
1070
    44
1040
1.0
1070
    74
1070
     0
1000
MTEXTEND
1000
MTEXTBEGIN
1070
    73
1070
     1
1070
    44
1040
1.0
1070
    74
1070
     0
1000
MTEXTEND
  0
POINT
  5
953D
330
8FCE
100
AcDbEntity
  8
DEFPOINTS
 62
     0
100
AcDbPoint
 10
20.12629571151643
 20
22.14915483759886
 30
0.0
  0
POINT
  5
953E
330
8FCE
100
AcDbEntity
  8
DEFPOINTS
 62
     0
100
AcDbPoint
 10
16.56357618817442
 20
29.36905483759886
 30
0.0
  0
POINT
  5
953F
330
8FCE
100
AcDbEntity
  8
DEFPOINTS
 62
     0
100
AcDbPoint
 10
12.92619523579347
 20
29.36905483759886
 30
0.0
  0
ENDBLK
  5
8FDA
330
8FCE
100
AcDbEntity
  8
0
100
AcDbBlockEnd
  0
BLOCK
  5
8FE6
330
8FDB
100
AcDbEntity
  8
0
100
AcDbBlockBegin
  2
*D14
 70
     1
 10
0.0
 20
0.0
 30
0.0
  3
*D14
  1

  0
LINE
  5
9659
330
8FDB
100
AcDbEntity
  8
DIM
100
AcDbLine
 10
45.09427973141868
 20
20.78948584889118
 30
0.0
 11
49.72086995187182
 21
20.78948584889118
 31
0.0
  0
LINE
  5
965A
330
8FDB
100
AcDbEntity
  8
DIM
100
AcDbLine
 10
45.55427973141868
 20
19.51948584889119
 30
0.0
 11
49.72086995187182
 21
19.51948584889119
 31
0.0
  0
LINE
  5
965B
330
8FDB
100
AcDbEntity
  8
DIM
100
AcDbLine
 10
49.47086995187182
 20
20.50948584889118
 30
0.0
 11
49.47086995187182
 21
19.79948584889119
 31
0.0
  0
LINE
  5
965C
330
8FDB
100
AcDbEntity
  8
DIM
100
AcDbLine
 10
49.47086995187182
 20
19.51948584889119
 30
0.0
 11
49.47086995187182
 21
18.91614544945427
 31
0.0
  0
LINE
  5
965D
330
8FDB
100
AcDbEntity
  8
DIM
100
AcDbLine
 10
49.47086995187182
 20
18.91614544945427
 30
0.0
 11
49.19086995187182
 21
18.91614544945427
 31
0.0
  0
INSERT
  5
965E
330
8FDB
100
AcDbEntity
  8
DIM
100
AcDbBlockReference
  2
SEARROW
 10
49.47086995187182
 20
20.78948584889118
 30
0.0
 41
0.28
 42
0.28
 43
0.28
 50
90.0
  0
INSERT
  5
965F
330
8FDB
100
AcDbEntity
  8
DIM
100
AcDbBlockReference
  2
SEARROW
 10
49.47086995187182
 20
19.51948584889119
 30
0.0
 41
0.28
 42
0.28
 43
0.28
 50
270.0
  0
MTEXT
  5
9660
330
8FDB
100
AcDbEntity
  8
DIM
100
AcDbMText
 10
48.26896518996704
 20
18.91614544945427
 30
0.0
 40
0.4
 41
0.0
 71
     5
 72
     1
  1
\A1;\P1.27\P [32]
  7
ROMANS
1001
ACAD
1000
MTEXTBEGIN
1070
    73
1070
     1
1070
    44
1040
1.0
1070
    74
1070
     0
1000
MTEXTEND
1000
MTEXTBEGIN
1070
    73
1070
     1
1070
    44
1040
1.0
1070
    74
1070
     0
1000
MTEXTEND
  0
POINT
  5
9661
330
8FDB
100
AcDbEntity
  8
DEFPOINTS
 62
     0
100
AcDbPoint
 10
44.84427973141868
 20
20.78948584889118
 30
0.0
  0
POINT
  5
9662
330
8FDB
100
AcDbEntity
  8
DEFPOINTS
 62
     0
100
AcDbPoint
 10
45.30427973141867
 20
19.51948584889119
 30
0.0
  0
POINT
  5
9663
330
8FDB
100
AcDbEntity
  8
DEFPOINTS
 62
     0
100
AcDbPoint
 10
49.47086995187182
 20
19.51948584889119
 30
0.0
  0
ENDBLK
  5
8FE7
330
8FDB
100
AcDbEntity
  8
0
100
AcDbBlockEnd
  0
BLOCK
  5
8FF3
330
8FE8
100
AcDbEntity
  8
0
100
AcDbBlockBegin
  2
*D15
 70
     1
 10
0.0
 20
0.0
 30
0.0
  3
*D15
  1

  0
LINE
  5
9664
330
8FE8
100
AcDbEntity
  8
DIM
100
AcDbLine
 10
45.96427973141867
 20
21.81948584889119
 30
0.0
 11
49.14178945562816
 21
21.81948584889119
 31
0.0
  0
LINE
  5
9665
330
8FE8
100
AcDbEntity
  8
DIM
100
AcDbLine
 10
45.09427973141868
 20
20.78948584889118
 30
0.0
 11
49.14178945562816
 21
20.78948584889118
 31
0.0
  0
LINE
  5
9666
330
8FE8
100
AcDbEntity
  8
DIM
100
AcDbLine
 10
48.89178945562815
 20
21.06948584889118
 30
0.0
 11
48.89178945562815
 21
21.53948584889119
 31
0.0
  0
LINE
  5
9667
330
8FE8
100
AcDbEntity
  8
DIM
100
AcDbLine
 10
48.89178945562815
 20
21.81948584889119
 30
0.0
 11
48.89178945562815
 21
22.29397777678021
 31
0.0
  0
LINE
  5
9668
330
8FE8
100
AcDbEntity
  8
DIM
100
AcDbLine
 10
48.89178945562815
 20
22.29397777678021
 30
0.0
 11
49.17178945562816
 21
22.29397777678021
 31
0.0
  0
INSERT
  5
9669
330
8FE8
100
AcDbEntity
  8
DIM
100
AcDbBlockReference
  2
SEARROW
 10
48.89178945562815
 20
20.78948584889118
 30
0.0
 41
0.28
 42
0.28
 43
0.28
 50
270.0
  0
INSERT
  5
966A
330
8FE8
100
AcDbEntity
  8
DIM
100
AcDbBlockReference
  2
SEARROW
 10
48.89178945562815
 20
21.81948584889119
 30
0.0
 41
0.28
 42
0.28
 43
0.28
 50
90.0
  0
MTEXT
  5
966B
330
8FE8
100
AcDbEntity
  8
DIM
100
AcDbMText
 10
50.09369421753291
 20
22.29397777678022
 30
0.0
 40
0.4
 41
0.0
 71
     5
 72
     1
  1
\A1;\P1.03\P [26]
  7
ROMANS
1001
ACAD
1000
MTEXTBEGIN
1070
    73
1070
     1
1070
    44
1040
1.0
1070
    74
1070
     0
1000
MTEXTEND
1000
MTEXTBEGIN
1070
    73
1070
     1
1070
    44
1040
1.0
1070
    74
1070
     0
1000
MTEXTEND
  0
POINT
  5
966C
330
8FE8
100
AcDbEntity
  8
DEFPOINTS
 62
     0
100
AcDbPoint
 10
45.71427973141868
 20
21.81948584889119
 30
0.0
  0
POINT
  5
966D
330
8FE8
100
AcDbEntity
  8
DEFPOINTS
 62
     0
100
AcDbPoint
 10
44.84427973141868
 20
20.78948584889118
 30
0.0
  0
POINT
  5
966E
330
8FE8
100
AcDbEntity
  8
DEFPOINTS
 62
     0
100
AcDbPoint
 10
48.89178945562815
 20
20.78948584889118
 30
0.0
  0
ENDBLK
  5
8FF4
330
8FE8
100
AcDbEntity
  8
0
100
AcDbBlockEnd
  0
BLOCK
  5
9000
330
8FF5
100
AcDbEntity
  8
0
100
AcDbBlockBegin
  2
*D16
 70
     1
 10
0.0
 20
0.0
 30
0.0
  3
*D16
  1

  0
LINE
  5
964E
330
8FF5
100
AcDbEntity
  8
DIM
100
AcDbLine
 10
44.59427973141868
 20
20.78948584889118
 30
0.0
 11
40.79859696923491
 21
20.78948584889118
 31
0.0
  0
LINE
  5
964F
330
8FF5
100
AcDbEntity
  8
DIM
100
AcDbLine
 10
43.26427973141867
 20
21.01948584889119
 30
0.0
 11
40.79859696923491
 21
21.01948584889119
 31
0.0
  0
LINE
  5
9650
330
8FF5
100
AcDbEntity
  8
DIM
100
AcDbLine
 10
41.04859696923491
 20
20.50948584889118
 30
0.0
 11
41.04859696923491
 21
20.22948584889119
 31
0.0
  0
LINE
  5
9651
330
8FF5
100
AcDbEntity
  8
DIM
100
AcDbLine
 10
41.04859696923491
 20
21.29948584889119
 30
0.0
 11
41.04859696923491
 21
22.38365475913641
 31
0.0
  0
LINE
  5
9652
330
8FF5
100
AcDbEntity
  8
DIM
100
AcDbLine
 10
41.04859696923491
 20
22.38365475913641
 30
0.0
 11
41.32859696923492
 21
22.38365475913641
 31
0.0
  0
INSERT
  5
9653
330
8FF5
100
AcDbEntity
  8
DIM
100
AcDbBlockReference
  2
SEARROW
 10
41.04859696923491
 20
20.78948584889118
 30
0.0
 41
0.28
 42
0.28
 43
0.28
 50
90.0
  0
INSERT
  5
9654
330
8FF5
100
AcDbEntity
  8
DIM
100
AcDbBlockReference
  2
SEARROW
 10
41.04859696923491
 20
21.01948584889119
 30
0.0
 41
0.28
 42
0.28
 43
0.28
 50
270.0
  0
MTEXT
  5
9655
330
8FF5
100
AcDbEntity
  8
DIM
100
AcDbMText
 10
42.06002554066348
 20
22.38365475913642
 30
0.0
 40
0.4
 41
0.0
 71
     5
 72
     1
  1
\A1;\P.23\P [6]
  7
ROMANS
1001
ACAD
1000
MTEXTBEGIN
1070
    73
1070
     1
1070
    44
1040
1.0
1070
    74
1070
     0
1000
MTEXTEND
1000
MTEXTBEGIN
1070
    73
1070
     1
1070
    44
1040
1.0
1070
    74
1070
     0
1000
MTEXTEND
  0
POINT
  5
9656
330
8FF5
100
AcDbEntity
  8
DEFPOINTS
 62
     0
100
AcDbPoint
 10
44.84427973141868
 20
20.78948584889118
 30
0.0
  0
POINT
  5
9657
330
8FF5
100
AcDbEntity
  8
DEFPOINTS
 62
     0
100
AcDbPoint
 10
43.51427973141867
 20
21.01948584889119
 30
0.0
  0
POINT
  5
9658
330
8FF5
100
AcDbEntity
  8
DEFPOINTS
 62
     0
100
AcDbPoint
 10
41.04859696923491
 20
21.01948584889119
 30
0.0
  0
ENDBLK
  5
9001
330
8FF5
100
AcDbEntity
  8
0
100
AcDbBlockEnd
  0
BLOCK
  5
900D
330
9002
100
AcDbEntity
  8
0
100
AcDbBlockBegin
  2
*D17
 70
     1
 10
0.0
 20
0.0
 30
0.0
  3
*D17
  1

  0
LINE
  5
9639
330
9002
100
AcDbEntity
  8
DIM
100
AcDbLine
 10
44.84427973141868
 20
21.03948584889118
 30
0.0
 11
44.84427973141868
 21
23.86091442031975
 31
0.0
  0
LINE
  5
963A
330
9002
100
AcDbEntity
  8
DIM
100
AcDbLine
 10
45.71427973141868
 20
22.06948584889119
 30
0.0
 11
45.71427973141868
 21
23.86091442031975
 31
0.0
  0
LINE
  5
963B
330
9002
100
AcDbEntity
  8
DIM
100
AcDbLine
 10
44.56427973141868
 20
23.61091442031975
 30
0.0
 11
44.28427973141867
 21
23.61091442031975
 31
0.0
  0
LINE
  5
963C
330
9002
100
AcDbEntity
  8
DIM
100
AcDbLine
 10
45.99427973141867
 20
23.61091442031975
 30
0.0
 11
46.27427973141868
 21
23.61091442031975
 31
0.0
  0
INSERT
  5
963D
330
9002
100
AcDbEntity
  8
DIM
100
AcDbBlockReference
  2
SEARROW
 10
44.84427973141868
 20
23.61091442031975
 30
0.0
 41
0.28
 42
0.28
 43
0.28
  0
INSERT
  5
963E
330
9002
100
AcDbEntity
  8
DIM
100
AcDbBlockReference
  2
SEARROW
 10
45.71427973141868
 20
23.61091442031975
 30
0.0
 41
0.28
 42
0.28
 43
0.28
 50
180.0
  0
MTEXT
  5
963F
330
9002
100
AcDbEntity
  8
DIM
100
AcDbMText
 10
47.19618449332344
 20
23.61091442031975
 30
0.0
 40
0.4
 41
0.0
 71
     5
 72
     1
  1
\A1;\P.87\P [22]
  7
ROMANS
1001
ACAD
1000
MTEXTBEGIN
1070
    73
1070
     1
1070
    44
1040
1.0
1070
    74
1070
     0
1000
MTEXTEND
1000
MTEXTBEGIN
1070
    73
1070
     1
1070
    44
1040
1.0
1070
    74
1070
     0
1000
MTEXTEND
  0
POINT
  5
9640
330
9002
100
AcDbEntity
  8
DEFPOINTS
 62
     0
100
AcDbPoint
 10
44.84427973141868
 20
20.78948584889118
 30
0.0
  0
POINT
  5
9641
330
9002
100
AcDbEntity
  8
DEFPOINTS
 62
     0
100
AcDbPoint
 10
45.71427973141868
 20
21.81948584889119
 30
0.0
  0
POINT
  5
9642
330
9002
100
AcDbEntity
  8
DEFPOINTS
 62
     0
100
AcDbPoint
 10
45.71427973141868
 20
23.61091442031975
 30
0.0
  0
ENDBLK
  5
900E
330
9002
100
AcDbEntity
  8
0
100
AcDbBlockEnd
  0
BLOCK
  5
901A
330
900F
100
AcDbEntity
  8
0
100
AcDbBlockBegin
  2
*D18
 70
     1
 10
0.0
 20
0.0
 30
0.0
  3
*D18
  1

  0
LINE
  5
966F
330
900F
100
AcDbEntity
  8
DIM
100
AcDbLine
 10
45.30427973141867
 20
19.26948584889119
 30
0.0
 11
45.30427973141867
 21
17.57875852408257
 31
0.0
  0
LINE
  5
9670
330
900F
100
AcDbEntity
  8
DIM
100
AcDbLine
 10
44.84427973141868
 20
20.53948584889119
 30
0.0
 11
44.84427973141868
 21
17.57875852408257
 31
0.0
  0
LINE
  5
9671
330
900F
100
AcDbEntity
  8
DIM
100
AcDbLine
 10
44.56427973141868
 20
17.82875852408257
 30
0.0
 11
44.28427973141867
 21
17.82875852408257
 31
0.0
  0
LINE
  5
9672
330
900F
100
AcDbEntity
  8
DIM
100
AcDbLine
 10
45.58427973141868
 20
17.82875852408257
 30
0.0
 11
45.86427973141868
 21
17.82875852408257
 31
0.0
  0
INSERT
  5
9673
330
900F
100
AcDbEntity
  8
DIM
100
AcDbBlockReference
  2
SEARROW
 10
44.84427973141868
 20
17.82875852408257
 30
0.0
 41
0.28
 42
0.28
 43
0.28
  0
INSERT
  5
9674
330
900F
100
AcDbEntity
  8
DIM
100
AcDbBlockReference
  2
SEARROW
 10
45.30427973141867
 20
17.82875852408257
 30
0.0
 41
0.28
 42
0.28
 43
0.28
 50
180.0
  0
MTEXT
  5
9675
330
900F
100
AcDbEntity
  8
DIM
100
AcDbMText
 10
46.78618449332344
 20
17.82875852408257
 30
0.0
 40
0.4
 41
0.0
 71
     5
 72
     1
  1
\A1;\P.46\P [12]
  7
ROMANS
1001
ACAD
1000
MTEXTBEGIN
1070
    73
1070
     1
1070
    44
1040
1.0
1070
    74
1070
     0
1000
MTEXTEND
1000
MTEXTBEGIN
1070
    73
1070
     1
1070
    44
1040
1.0
1070
    74
1070
     0
1000
MTEXTEND
  0
POINT
  5
9676
330
900F
100
AcDbEntity
  8
DEFPOINTS
 62
     0
100
AcDbPoint
 10
45.30427973141867
 20
19.51948584889119
 30
0.0
  0
POINT
  5
9677
330
900F
100
AcDbEntity
  8
DEFPOINTS
 62
     0
100
AcDbPoint
 10
44.84427973141868
 20
20.78948584889118
 30
0.0
  0
POINT
  5
9678
330
900F
100
AcDbEntity
  8
DEFPOINTS
 62
     0
100
AcDbPoint
 10
44.84427973141868
 20
17.82875852408257
 30
0.0
  0
ENDBLK
  5
901B
330
900F
100
AcDbEntity
  8
0
100
AcDbBlockEnd
  0
BLOCK
  5
9027
330
901C
100
AcDbEntity
  8
0
100
AcDbBlockBegin
  2
*D19
 70
     1
 10
0.0
 20
0.0
 30
0.0
  3
*D19
  1

  0
LINE
  5
962F
330
901C
100
AcDbEntity
  8
DIM
100
AcDbLine
 10
44.84427973141868
 20
21.03948584889118
 30
0.0
 11
44.84427973141868
 21
24.76388271946
 31
0.0
  0
LINE
  5
9630
330
901C
100
AcDbEntity
  8
DIM
100
AcDbLine
 10
43.51427973141867
 20
21.26948584889119
 30
0.0
 11
43.51427973141867
 21
24.76388271946
 31
0.0
  0
LINE
  5
9631
330
901C
100
AcDbEntity
  8
DIM
100
AcDbLine
 10
44.56427973141868
 20
24.51388271946
 30
0.0
 11
43.79427973141868
 21
24.51388271946
 31
0.0
  0
LINE
  5
9632
330
901C
100
AcDbEntity
  8
DIM
100
AcDbLine
 10
43.51427973141867
 20
24.51388271946
 30
0.0
 11
43.23427973141867
 21
24.51388271946
 31
0.0
  0
INSERT
  5
9633
330
901C
100
AcDbEntity
  8
DIM
100
AcDbBlockReference
  2
SEARROW
 10
44.84427973141868
 20
24.51388271946
 30
0.0
 41
0.28
 42
0.28
 43
0.28
  0
INSERT
  5
9634
330
901C
100
AcDbEntity
  8
DIM
100
AcDbBlockReference
  2
SEARROW
 10
43.51427973141867
 20
24.51388271946
 30
0.0
 41
0.28
 42
0.28
 43
0.28
 50
180.0
  0
MTEXT
  5
9635
330
901C
100
AcDbEntity
  8
DIM
100
AcDbMText
 10
42.31237496951391
 20
24.51388271946
 30
0.0
 40
0.4
 41
0.0
 71
     5
 72
     1
  1
\A1;\P1.33\P [34]
  7
ROMANS
1001
ACAD
1000
MTEXTBEGIN
1070
    73
1070
     1
1070
    44
1040
1.0
1070
    74
1070
     0
1000
MTEXTEND
1000
MTEXTBEGIN
1070
    73
1070
     1
1070
    44
1040
1.0
1070
    74
1070
     0
1000
MTEXTEND
  0
POINT
  5
9636
330
901C
100
AcDbEntity
  8
DEFPOINTS
 62
     0
100
AcDbPoint
 10
44.84427973141868
 20
20.78948584889118
 30
0.0
  0
POINT
  5
9637
330
901C
100
AcDbEntity
  8
DEFPOINTS
 62
     0
100
AcDbPoint
 10
43.51427973141867
 20
21.01948584889119
 30
0.0
  0
POINT
  5
9638
330
901C
100
AcDbEntity
  8
DEFPOINTS
 62
     0
100
AcDbPoint
 10
43.51427973141867
 20
24.51388271946
 30
0.0
  0
ENDBLK
  5
9028
330
901C
100
AcDbEntity
  8
0
100
AcDbBlockEnd
  0
BLOCK
  5
9272
330
9269
100
AcDbEntity
  8
0
100
AcDbBlockBegin
  2
*D20
 70
     1
 10
0.0
 20
0.0
 30
0.0
  3
*D20
  1

  0
LINE
  5
9699
330
9269
100
AcDbEntity
  8
DIM
100
AcDbLine
 10
39.80611892954703
 20
16.79379058593332
 30
0.0
 11
40.30516654859473
 21
16.79379058593332
 31
0.0
  0
LINE
  5
969A
330
9269
100
AcDbEntity
  8
DIM
100
AcDbLine
 10
40.30516654859473
 20
16.79379058593332
 30
0.0
 11
44.88941244748174
 21
19.29328537108077
 31
0.0
  0
MTEXT
  5
969B
330
9269
100
AcDbEntity
  8
DIM
100
AcDbMText
 10
36.56040464383274
 20
16.79379058593332
 30
0.0
 40
0.4
 41
0.0
 71
     4
 72
     1
  1
\A1;\P%%C.39 3PLS\P[10]
  7
ROMANS
1001
ACAD
1000
MTEXTBEGIN
1070
    73
1070
     1
1070
    44
1040
1.0
1070
    74
1070
     0
1000
MTEXTEND
1000
MTEXTBEGIN
1070
    73
1070
     1
1070
    44
1040
1.0
1070
    74
1070
     0
1000
MTEXTEND
  0
INSERT
  5
969C
330
9269
100
AcDbEntity
  8
DIM
100
AcDbBlockReference
  2
SEARROW
 10
45.13524581481916
 20
19.42732251333449
 30
0.0
 41
0.28
 42
0.28
 43
0.28
 50
28.60079756118653
  0
LINE
  5
969D
330
9269
100
AcDbEntity
  8
DIM
100
AcDbLine
 10
44.94427973141867
 20
19.51948584889118
 30
0.0
 11
45.66427973141867
 21
19.51948584889119
 31
0.0
  0
LINE
  5
969E
330
9269
100
AcDbEntity
  8
DIM
100
AcDbLine
 10
45.30427973141867
 20
19.15948584889118
 30
0.0
 11
45.30427973141867
 21
19.87948584889118
 31
0.0
  0
POINT
  5
969F
330
9269
100
AcDbEntity
  8
DEFPOINTS
 62
     0
100
AcDbPoint
 10
45.13524581481916
 20
19.42732251333449
 30
0.0
  0
POINT
  5
96A0
330
9269
100
AcDbEntity
  8
DEFPOINTS
 62
     0
100
AcDbPoint
 10
45.47331364801818
 20
19.61164918444788
 30
0.0
  0
ENDBLK
  5
9273
330
9269
100
AcDbEntity
  8
0
100
AcDbBlockEnd
  0
BLOCK
  5
927E
330
9275
100
AcDbEntity
  8
0
100
AcDbBlockBegin
  2
*D21
 70
     1
 10
0.0
 20
0.0
 30
0.0
  3
*D21
  1

  0
LINE
  5
9691
330
9275
100
AcDbEntity
  8
DIM
100
AcDbLine
 10
40.77829007548426
 20
18.94796888883906
 30
0.0
 11
42.14573192673123
 21
18.94796888883906
 31
0.0
  0
LINE
  5
9692
330
9275
100
AcDbEntity
  8
DIM
100
AcDbLine
 10
42.14573192673123
 20
18.94796888883906
 30
0.0
 11
43.83862520491906
 21
20.1032167884412
 31
0.0
  0
MTEXT
  5
9693
330
9275
100
AcDbEntity
  8
DIM
100
AcDbMText
 10
39.03733769453188
 20
18.94796888883906
 30
0.0
 40
0.4
 41
0.0
 71
     4
 72
     1
  1
\A1;\P%%C1.88\P[48]
  7
ROMANS
1001
ACAD
1000
MTEXTBEGIN
1070
    73
1070
     1
1070
    44
1040
1.0
1070
    74
1070
     0
1000
MTEXTEND
1000
MTEXTBEGIN
1070
    73
1070
     1
1070
    44
1040
1.0
1070
    74
1070
     0
1000
MTEXTEND
  0
INSERT
  5
9694
330
9275
100
AcDbEntity
  8
DIM
100
AcDbBlockReference
  2
SEARROW
 10
44.06990509602368
 20
20.26104458057754
 30
0.0
 41
0.28
 42
0.28
 43
0.28
 50
34.31003221990369
  0
LINE
  5
9695
330
9275
100
AcDbEntity
  8
DIM
100
AcDbLine
 10
44.48427973141865
 20
20.78948584889117
 30
0.0
 11
45.20427973141865
 21
20.78948584889118
 31
0.0
  0
LINE
  5
9696
330
9275
100
AcDbEntity
  8
DIM
100
AcDbLine
 10
44.84427973141865
 20
20.42948584889118
 30
0.0
 11
44.84427973141865
 21
21.14948584889118
 31
0.0
  0
POINT
  5
9697
330
9275
100
AcDbEntity
  8
DEFPOINTS
 62
     0
100
AcDbPoint
 10
44.06990509602368
 20
20.26104458057754
 30
0.0
  0
POINT
  5
9698
330
9275
100
AcDbEntity
  8
DEFPOINTS
 62
     0
100
AcDbPoint
 10
45.61865436681362
 20
21.31792711720482
 30
0.0
  0
ENDBLK
  5
927F
330
9275
100
AcDbEntity
  8
0
100
AcDbBlockEnd
  0
BLOCK
  5
92D6
330
92CB
100
AcDbEntity
  8
0
100
AcDbBlockBegin
  2
*D22
 70
     1
 10
0.0
 20
0.0
 30
0.0
  3
*D22
  1

  0
LINE
  5
95CC
330
92CB
100
AcDbEntity
  8
DIM
100
AcDbLine
 10
20.12629571151643
 20
21.80915483759886
 30
0.0
 11
20.12629571151643
 21
14.48286225465357
 31
0.0
  0
LINE
  5
95CD
330
92CB
100
AcDbEntity
  8
DIM
100
AcDbLine
 10
24.75107618817443
 20
17.65105483759886
 30
0.0
 11
24.75107618817443
 21
14.48286225465357
 31
0.0
  0
LINE
  5
95CE
330
92CB
100
AcDbEntity
  8
DIM
100
AcDbLine
 10
20.40629571151643
 20
14.73286225465356
 30
0.0
 11
21.52630499746448
 21
14.73286225465356
 31
0.0
  0
LINE
  5
95CF
330
92CB
100
AcDbEntity
  8
DIM
100
AcDbLine
 10
24.47107618817442
 20
14.73286225465356
 30
0.0
 11
23.35106690222638
 21
14.73286225465356
 31
0.0
  0
INSERT
  5
95D0
330
92CB
100
AcDbEntity
  8
DIM
100
AcDbBlockReference
  2
SEARROW
 10
20.12629571151643
 20
14.73286225465356
 30
0.0
 41
0.28
 42
0.28
 43
0.28
 50
180.0
  0
INSERT
  5
95D1
330
92CB
100
AcDbEntity
  8
DIM
100
AcDbBlockReference
  2
SEARROW
 10
24.75107618817443
 20
14.73286225465356
 30
0.0
 41
0.28
 42
0.28
 43
0.28
  0
MTEXT
  5
95D2
330
92CB
100
AcDbEntity
  8
DIM
100
AcDbMText
 10
22.43868594984543
 20
14.73286225465356
 30
0.0
 40
0.4
 41
0.0
 71
     5
 72
     1
  1
\A1;\P4.63\P[118]
  7
ROMANS
1001
ACAD
1000
MTEXTBEGIN
1070
    73
1070
     1
1070
    44
1040
1.0
1070
    74
1070
     0
1000
MTEXTEND
1000
MTEXTBEGIN
1070
    73
1070
     1
1070
    44
1040
1.0
1070
    74
1070
     0
1000
MTEXTEND
  0
POINT
  5
95D3
330
92CB
100
AcDbEntity
  8
DEFPOINTS
 62
     0
100
AcDbPoint
 10
20.12629571151643
 20
22.05915483759886
 30
0.0
  0
POINT
  5
95D4
330
92CB
100
AcDbEntity
  8
DEFPOINTS
 62
     0
100
AcDbPoint
 10
24.75107618817443
 20
17.90105483759886
 30
0.0
  0
POINT
  5
95D5
330
92CB
100
AcDbEntity
  8
DEFPOINTS
 62
     0
100
AcDbPoint
 10
24.75107618817443
 20
14.73286225465356
 30
0.0
  0
ENDBLK
  5
92D7
330
92CB
100
AcDbEntity
  8
0
100
AcDbBlockEnd
  0
BLOCK
  5
939D
330
939B
100
AcDbEntity
  8
0
100
AcDbBlockBegin
  2
SEARROW
 70
     0
 10
0.0
 20
0.0
 30
0.0
  3
SEARROW
  1

  0
LWPOLYLINE
  5
939C
330
939B
100
AcDbEntity
  8
0
  6
BYBLOCK
100
AcDbPolyline
 90
        2
 70
     0
 10
0.0
 20
0.0
 40
0.0
 41
0.5000000001500001
 10
-1.000000000300019
 20
0.0
 40
0.5000000001500001
 41
0.5000000001500001
  0
ENDBLK
  5
939E
330
939B
100
AcDbEntity
  8
0
100
AcDbBlockEnd
  0
ENDSEC
  0
SECTION
  2
ENTITIES
  0
INSERT
  5
79E
330
1F
100
AcDbEntity
  8
0
100
AcDbBlockReference
  2
NEWLAYERS
 10
0.0000692809391601
 20
0.190200039270917
 30
0.0
 41
0.0000043402776389
 42
0.0000043402776389
 43
0.0000043402776389
  0
LWPOLYLINE
  5
BF7
330
1F
100
AcDbEntity
  8
VIEWPORT
100
AcDbPolyline
 90
        6
 70
     1
 43
0.0
 10
65.60000399999999
 20
41.19009155499847
 10
65.60000399999999
 20
3.838099554998468
 10
32.009844
 20
3.838099554998468
 10
32.009844
 20
0.190091554998471
 10
0.0
 20
0.190091554998471
 10
0.0
 20
41.19009155499847
1001
GENIUS_GENOREF_13
1005
0
1005
0
1005
0
1005
0
1005
0
1005
0
1005
0
  0
VIEWPORT
  5
BF8
330
1F
100
AcDbEntity
  8
VIEWPORT
100
AcDbViewport
 10
32.80000199999999
 20
20.69009155499847
 30
0.0
 40
65.60000399999999
 41
41.0
 69
     0
1001
ACAD
1000
MVIEW
1002
{
1070
    16
1010
0.0
1020
0.0
1030
0.0
1010
0.0
1020
0.0
1030
1.0
1040
0.0
1040
41.0
1040
32.79338763516309
1040
20.71142202491305
1040
50.0
1040
0.0
1040
0.0
1070
     0
1070
   100
1070
     1
1070
     2
1070
     0
1070
     0
1070
     0
1070
     0
1040
0.0
1040
0.0
1040
0.0
1040
0.5
1040
0.5
1040
0.5
1040
0.5
1070
     0
1002
{
1002
}
1002
}
1001
GENIUS_GENOREF_13
1005
0
1005
0
1005
0
1005
0
1005
0
1005
0
1005
0
1001
GENIUS_GENSCREG_15
1000
PF
1040
0.0
1000
DF
1040
0.0
1000
MIN
1011
0.0
1021
0.190091554998471
1031
0.0
1000
MAX
1011
65.60000399999999
1021
41.19009155499847
1031
0.0
1000
FLAGS
1070
     2
  0
INSERT
  5
8D7F
330
1F
100
AcDbEntity
  8
TEXT1
100
AcDbBlockReference
 66
     1
  2
REF2
 10
0.583968570707309
 20
4.76929956485144
 30
0.0
 41
3.19999999999875
 42
3.19999999999875
 43
3.19999999999875
  0
ATTRIB
  5
8D80
330
8D7F
100
AcDbEntity
  8
TEXT1
100
AcDbText
 10
6.583968570704964
 20
5.474698941134478
 30
0.0
 40
0.3999999999998438
  1
(4)-1/4-20 screws
100
AcDbAttribute
  2
MOUNTING_HWD
 70
     0
  0
ATTRIB
  5
8D81
330
8D7F
100
AcDbEntity
  8
TEXT1
100
AcDbText
 10
6.583968570704964
 20
6.204432651995929
 30
0.0
 40
0.3999999999998438
  1
275 lb-in
100
AcDbAttribute
  2
TERM_TORQUE
 70
     0
  0
ATTRIB
  5
8D82
330
8D7F
100
AcDbEntity
  8
TEXT1
100
AcDbText
 10
6.583968570704964
 20
6.874698941133931
 30
0.0
 40
0.3999999999998438
  1
#6-250MCM
100
AcDbAttribute
  2
WIRE_SIZE
 70
     0
  0
ATTRIB
  5
8D83
330
8D7F
100
AcDbEntity
  8
TEXT1
100
AcDbText
 10
6.583968570704964
 20
7.509832085702815
 30
0.0
 40
0.3999999999998438
  1
7.35 lbs
100
AcDbAttribute
  2
WEIGHT
 70
     0
  0
ATTRIB
  5
8D84
330
8D7F
100
AcDbEntity
  8
TEXT1
100
AcDbText
 10
6.583968570704964
 20
8.16929956485011
 30
0.0
 40
0.3999999999998438
  1
 -
100
AcDbAttribute
  2
STANDARDS
 70
     0
  0
ATTRIB
  5
8D85
330
8D7F
100
AcDbEntity
  8
TEXT1
100
AcDbText
 10
6.583968570704964
 20
8.909832028278184
 30
0.0
 40
0.3999999999998438
  1
LR12721
100
AcDbAttribute
  2
CSA
 70
     0
  0
ATTRIB
  5
8D86
330
8D7F
100
AcDbEntity
  8
TEXT1
100
AcDbText
 10
6.619115134979006
 20
9.569299564849565
 30
0.0
 40
0.3999999999998438
  1
E6849
100
AcDbAttribute
  2
UL
 70
     0
  0
ATTRIB
  5
8D87
330
8D7F
100
AcDbEntity
  8
TEXT1
100
AcDbText
 10
6.583968570704964
 20
10.2746989411326
 30
0.0
 40
0.3999999999998438
  1
STARTER NEMA SIZE 4 (200A/600V)
100
AcDbAttribute
  2
RATING
 70
     0
  0
ATTRIB
  5
8D88
330
8D7F
100
AcDbEntity
  8
TEXT1
100
AcDbText
 10
6.583968570704964
 20
10.96929956484902
 30
0.0
 40
0.3999999999998438
  1
D10S4, D10S4H
100
AcDbAttribute
  2
CATALOG
 70
     0
  0
SEQEND
  5
8D89
330
8D7F
100
AcDbEntity
  8
REFERENCE
  0
CIRCLE
  5
8D8A
330
1F
100
AcDbEntity
  8
CONTINUOUS2
100
AcDbCircle
 10
22.01779571151643
 20
25.96115483759886
 30
0.0
 40
0.1406
  0
CIRCLE
  5
8D8B
330
1F
100
AcDbEntity
  8
CONTINUOUS2
100
AcDbCircle
 10
19.33029571151643
 20
25.96115483759886
 30
0.0
 40
0.1406
  0
CIRCLE
  5
8D8C
330
1F
100
AcDbEntity
  8
CONTINUOUS2
100
AcDbCircle
 10
17.00129571151643
 20
20.14806775596619
 30
0.0
 40
0.1406
  0
CIRCLE
  5
8D8D
330
1F
100
AcDbEntity
  8
CONTINUOUS2
100
AcDbCircle
 10
24.31379571151643
 20
20.14915483759886
 30
0.0
 40
0.1406
  0
LINE
  5
8D8E
330
1F
100
AcDbEntity
  8
CENTER1
100
AcDbLine
 10
19.24029571151643
 20
25.96115483759886
 30
0.0
 11
19.42029571151643
 21
25.96115483759886
 31
0.0
  0
LINE
  5
8D8F
330
1F
100
AcDbEntity
  8
CENTER1
100
AcDbLine
 10
19.33029571151643
 20
25.87115483759886
 30
0.0
 11
19.33029571151643
 21
26.05115483759886
 31
0.0
  0
LINE
  5
8D90
330
1F
100
AcDbEntity
  8
CENTER1
100
AcDbLine
 10
21.92779571151644
 20
25.96115483759886
 30
0.0
 11
22.10779571151644
 21
25.96115483759886
 31
0.0
  0
LINE
  5
8D91
330
1F
100
AcDbEntity
  8
CENTER1
100
AcDbLine
 10
22.01779571151643
 20
25.87115483759886
 30
0.0
 11
22.01779571151643
 21
26.05115483759886
 31
0.0
  0
LINE
  5
8D92
330
1F
100
AcDbEntity
  8
CENTER1
100
AcDbLine
 10
24.22379571151644
 20
20.14915483759886
 30
0.0
 11
24.40379571151644
 21
20.14915483759886
 31
0.0
  0
LINE
  5
8D93
330
1F
100
AcDbEntity
  8
CENTER1
100
AcDbLine
 10
24.31379571151643
 20
20.05915483759886
 30
0.0
 11
24.31379571151643
 21
20.23915483759886
 31
0.0
  0
LINE
  5
8D94
330
1F
100
AcDbEntity
  8
CENTER1
100
AcDbLine
 10
16.91129571151644
 20
20.14806775596619
 30
0.0
 11
17.09129571151644
 21
20.14806775596619
 31
0.0
  0
LINE
  5
8D95
330
1F
100
AcDbEntity
  8
CENTER1
100
AcDbLine
 10
17.00129571151643
 20
20.05806775596619
 30
0.0
 11
17.00129571151643
 21
20.23806775596619
 31
0.0
  0
DIMENSION
  5
8D96
330
1F
100
AcDbEntity
  8
DIM
100
AcDbDimension
  2
*D5
 10
24.75107618817443
 20
11.93616845238096
 30
0.0
 11
20.65732618817442
 21
11.93616845238096
 31
0.0
 70
   160
  1
\P<>
  3
SCHNEIDERELECTRIC
100
AcDbAlignedDimension
 13
16.56357618817442
 23
17.90105483759887
 33
0.0
 14
24.75107618817443
 24
17.18216905745259
 34
0.0
100
AcDbRotatedDimension
1001
ACAD
1000
DSTYLE
1002
{
1070
    40
1040
4.0
1002
}
  0
DIMENSION
  5
8D97
330
1F
100
AcDbEntity
  8
DIM
100
AcDbDimension
  2
*D6
 10
22.01779571151643
 20
31.75984750714901
 30
0.0
 11
23.21970047342119
 21
31.75984750714901
 31
0.0
 70
   160
  1
\P<>
  3
SCHNEIDERELECTRIC
100
AcDbAlignedDimension
 13
19.33029571151643
 23
25.96115483759886
 33
0.0
 14
22.01779571151643
 24
25.96115483759886
 34
0.0
100
AcDbRotatedDimension
1001
ACAD
1000
DSTYLE
1002
{
1070
    40
1040
4.0
1002
}
  0
DIMENSION
  5
8D98
330
1F
100
AcDbEntity
  8
DIM
100
AcDbDimension
  2
*D7
 10
30.00778545666722
 20
17.18158197581992
 30
0.0
 11
30.00778545666722
 21
23.2753184067094
 31
0.0
 70
   160
  3
SCHNEIDERELECTRIC
100
AcDbAlignedDimension
 13
24.75107618817443
 23
29.36905483759886
 33
0.0
 14
23.31357618817442
 24
17.18158197581992
 34
0.0
 50
90.0
100
AcDbRotatedDimension
1001
ACAD
1000
DSTYLE
1002
{
1070
    40
1040
4.0
1002
}
  0
DIMENSION
  5
8D99
330
1F
100
AcDbEntity
  8
DIM
100
AcDbDimension
  2
*D8
 10
20.12629571151643
 20
30.98188273809525
 30
0.0
 11
17.84267666389738
 21
30.98188273809525
 31
0.0
 70
   160
  1
\P<>
  3
SCHNEIDERELECTRIC
100
AcDbAlignedDimension
 13
19.33029571151643
 23
25.96115483759886
 33
0.0
 14
20.12629571151643
 24
22.14915483759886
 34
0.0
100
AcDbRotatedDimension
1001
ACAD
1000
DSTYLE
1002
{
1070
    40
1040
4.0
1002
}
  0
DIMENSION
  5
8D9A
330
1F
100
AcDbEntity
  8
DIM
100
AcDbDimension
  2
*D9
 10
20.12629571151643
 20
16.13780135571889
 30
0.0
 11
22.22004571151643
 21
16.13780135571889
 31
0.0
 70
   160
  1
\P<>
  3
SCHNEIDERELECTRIC
100
AcDbAlignedDimension
 13
24.31379571151643
 23
20.14915483759886
 33
0.0
 14
20.12629571151643
 24
22.14915483759886
 34
0.0
100
AcDbRotatedDimension
1001
ACAD
1000
DSTYLE
1002
{
1070
    40
1040
4.0
1002
}
  0
DIMENSION
  5
8D9B
330
1F
100
AcDbEntity
  8
DIM
100
AcDbDimension
  2
*D10
 10
17.00129571151643
 20
13.4215384548409
 30
0.0
 11
20.65754571151643
 21
13.4215384548409
 31
0.0
 70
   160
  1
\P<>
  3
SCHNEIDERELECTRIC
100
AcDbAlignedDimension
 13
24.31379571151643
 23
20.14915483759886
 33
0.0
 14
17.00129571151643
 24
20.14806775596619
 34
0.0
100
AcDbRotatedDimension
1001
ACAD
1000
DSTYLE
1002
{
1070
    40
1040
4.0
1002
}
  0
DIMENSION
  5
8D9C
330
1F
100
AcDbEntity
  8
DIM
100
AcDbDimension
  2
*D11
 10
27.11694647964252
 20
20.14915483759886
 30
0.0
 11
27.11694647964252
 21
23.05515483759887
 31
0.0
 70
   160
  3
SCHNEIDERELECTRIC
100
AcDbAlignedDimension
 13
22.01779571151643
 23
25.96115483759886
 33
0.0
 14
24.31379571151643
 24
20.14915483759886
 34
0.0
 50
90.0
100
AcDbRotatedDimension
1001
ACAD
1000
DSTYLE
1002
{
1070
    40
1040
4.0
1002
}
  0
DIMENSION
  5
8D9D
330
1F
100
AcDbEntity
  8
DIM
100
AcDbDimension
  2
*D12
 10
15.12857618817442
 20
22.14915483759886
 30
0.0
 11
15.12857618817442
 21
24.05515483759887
 31
0.0
 70
   160
  3
SCHNEIDERELECTRIC
100
AcDbAlignedDimension
 13
19.33029571151643
 23
25.96115483759886
 33
0.0
 14
19.71629571151644
 24
22.14915483759886
 34
0.0
 50
90.0
100
AcDbRotatedDimension
1001
ACAD
1000
DSTYLE
1002
{
1070
    40
1040
4.0
1002
}
  0
TEXT
  5
8DA1
330
1F
100
AcDbEntity
  8
TEXT1
100
AcDbText
 10
8.542509262931973
 20
20.02757428109783
 30
0.0
 40
0.3999999999998438
  1
OPERATING SHAFT
 50
0.0000000000002398
 11
8.542509262931973
 21
20.22757428109775
 31
0.0
100
AcDbText
 73
     2
  0
TEXT
  5
8DA2
330
1F
100
AcDbEntity
  8
TEXT1
100
AcDbText
 10
8.542509262931973
 20
20.6275742810976
 30
0.0
 40
0.3999999999998438
  1
CENTER LINE OF
 50
0.0000000000002398
 11
8.542509262931973
 21
20.82757428109752
 31
0.0
100
AcDbText
 73
     2
  0
DIMENSION
  5
8DA3
330
1F
100
AcDbEntity
  8
DIM
100
AcDbDimension
  2
*D13
 10
12.92619523579347
 20
29.36905483759886
 30
0.0
 11
12.92619523579346
 21
25.75910483759887
 31
0.0
 70
   160
  3
SCHNEIDERELECTRIC
100
AcDbAlignedDimension
 13
20.12629571151643
 23
22.14915483759886
 33
0.0
 14
16.56357618817442
 24
29.36905483759886
 34
0.0
 50
90.0
100
AcDbRotatedDimension
1001
ACAD
1000
DSTYLE
1002
{
1070
    40
1040
4.0
1002
}
  0
CIRCLE
  5
8DA4
330
1F
100
AcDbEntity
  8
CONTINUOUS1
100
AcDbCircle
 10
20.12629571151643
 20
22.14915483759886
 30
0.0
 40
0.5
  0
CIRCLE
  5
8DA5
330
1F
100
AcDbEntity
  8
CONTINUOUS1
100
AcDbCircle
 10
20.12629571151643
 20
22.14915483759886
 30
0.0
 40
0.375
  0
CIRCLE
  5
8DA6
330
1F
100
AcDbEntity
  8
CONTINUOUS1
100
AcDbCircle
 10
20.12629571151643
 20
22.14915483759886
 30
0.0
 40
0.3125
  0
LWPOLYLINE
  5
8DA7
330
1F
100
AcDbEntity
  8
CONTINUOUS1
100
AcDbPolyline
 90
        4
 70
     1
 43
0.0
 10
20.12885125443989
 20
22.34258712311307
 10
19.93284735193151
 20
22.14859622074524
 10
20.12683825429935
 20
21.95259231823686
 10
20.32284215680772
 20
22.14658322060469
  0
LINE
  5
8DA8
330
1F
100
AcDbEntity
  8
CONTINUOUS1
100
AcDbLine
 10
19.31357584013319
 20
25.61781170252707
 30
0.0
 11
19.31357584013318
 21
17.90105483759887
 31
0.0
  0
LINE
  5
8DA9
330
1F
100
AcDbEntity
  8
CONTINUOUS1
100
AcDbLine
 10
19.39170083024565
 20
25.62293379464936
 30
0.0
 11
19.39170083024565
 21
17.90105483759887
 31
0.0
  0
LINE
  5
8DAA
330
1F
100
AcDbEntity
  8
CONTINUOUS1
100
AcDbLine
 10
19.48545081838062
 20
25.7651270517776
 30
0.0
 11
19.48545081838062
 21
25.24405483759887
 31
0.0
  0
LINE
  5
8DAB
330
1F
100
AcDbEntity
  8
CONTINUOUS1
100
AcDbLine
 10
19.56357580849308
 20
25.70867818748134
 30
0.0
 11
19.56357580849309
 21
25.24405483759887
 31
0.0
  0
LINE
  5
8DAC
330
1F
100
AcDbEntity
  8
CONTINUOUS1
100
AcDbLine
 10
22.00107550000199
 20
25.6178117190907
 30
0.0
 11
22.00107550000199
 21
17.90105483759886
 31
0.0
  0
LINE
  5
8DAD
330
1F
100
AcDbEntity
  8
CONTINUOUS1
100
AcDbLine
 10
22.07920049011445
 20
25.62293373289762
 30
0.0
 11
22.07920049011445
 21
17.90105483759886
 31
0.0
  0
LINE
  5
8DAE
330
1F
100
AcDbEntity
  8
CONTINUOUS1
100
AcDbLine
 10
22.17295047824941
 20
25.76512678256583
 30
0.0
 11
22.17295047824941
 21
25.24405483759887
 31
0.0
  0
LINE
  5
8DAF
330
1F
100
AcDbEntity
  8
CONTINUOUS1
100
AcDbLine
 10
22.25107546836187
 20
25.70867787321175
 30
0.0
 11
22.25107546836187
 21
25.24405483759887
 31
0.0
  0
LINE
  5
8DB0
330
1F
100
AcDbEntity
  8
CONTINUOUS1
100
AcDbLine
 10
17.03257618817442
 20
25.49405483759886
 30
0.0
 11
17.97007618817442
 21
25.49405483759886
 31
0.0
  0
LINE
  5
8DB1
330
1F
100
AcDbEntity
  8
CONTINUOUS1
100
AcDbLine
 10
16.87607618817442
 20
19.21280483759886
 30
0.0
 11
18.14182690798697
 21
19.21280483759886
 31
0.0
  0
LINE
  5
8DB2
330
1F
100
AcDbEntity
  8
CONTINUOUS2
100
AcDbLine
 10
16.56357618817442
 20
17.90105483759887
 30
0.0
 11
16.93857690798697
 21
17.90105483759887
 31
0.0
  0
CIRCLE
  5
8DB3
330
1F
100
AcDbEntity
  8
HIDDEN1
100
AcDbCircle
 10
19.33029571151643
 20
25.96115483759886
 30
0.0
 40
0.25
  0
CIRCLE
  5
8DB4
330
1F
100
AcDbEntity
  8
CONTINUOUS1
100
AcDbCircle
 10
22.01779571151643
 20
25.96115483759886
 30
0.0
 40
0.25
  0
LINE
  5
8DB5
330
1F
100
AcDbEntity
  8
PHANTOM1
100
AcDbLine
 10
16.56357618817442
 20
25.24405483759887
 30
0.0
 11
24.7572080945914
 21
25.24405483759887
 31
0.0
  0
LINE
  5
8DB6
330
1F
100
AcDbEntity
  8
CONTINUOUS1
100
AcDbLine
 10
16.81970809459139
 20
22.99405483759886
 30
0.0
 11
24.50107618817442
 21
22.99405483759886
 31
0.0
  0
LINE
  5
8DB7
330
1F
100
AcDbEntity
  8
CONTINUOUS1
100
AcDbLine
 10
24.56357618817442
 20
25.49405483759886
 30
0.0
 11
24.56357618817442
 21
23.30655483759886
 31
0.0
  0
LINE
  5
8DB8
330
1F
100
AcDbEntity
  8
CONTINUOUS1
100
AcDbLine
 10
23.34507618817442
 20
25.61772274822789
 30
0.0
 11
23.34507618817442
 21
25.30655483759886
 31
0.0
  0
LINE
  5
8DB9
330
1F
100
AcDbEntity
  8
CONTINUOUS1
100
AcDbLine
 10
22.40757618817442
 20
25.49405483759886
 30
0.0
 11
23.34507618817442
 21
25.49405483759886
 31
0.0
  0
LINE
  5
8DBA
330
1F
100
AcDbEntity
  8
CONTINUOUS1
100
AcDbLine
 10
19.72007618817442
 20
25.49405483759886
 30
0.0
 11
20.65757618817442
 21
25.49405483759886
 31
0.0
  0
LINE
  5
8DBB
330
1F
100
AcDbEntity
  8
CONTINUOUS1
100
AcDbLine
 10
23.22057618817442
 20
24.18155483759886
 30
0.0
 11
23.22057618817442
 21
23.30655483759886
 31
0.0
  0
ARC
  5
8DBC
330
1F
100
AcDbEntity
  8
CONTINUOUS1
100
AcDbCircle
 10
22.72057618817442
 20
24.18155483759886
 30
0.0
 40
0.5
100
AcDbArc
 50
0.0
 51
90.00000000000039
  0
LINE
  5
8DBD
330
1F
100
AcDbEntity
  8
CONTINUOUS1
100
AcDbLine
 10
22.53257618817442
 20
25.49405483759886
 30
0.0
 11
22.72057618817442
 21
24.68155483759888
 31
0.0
  0
LINE
  5
8DBE
330
1F
100
AcDbEntity
  8
CONTINUOUS1
100
AcDbLine
 10
22.40757618817442
 20
25.36905483759886
 30
0.0
 11
22.5614992650975
 21
25.36905483759886
 31
0.0
  0
LINE
  5
8DBF
330
1F
100
AcDbEntity
  8
CONTINUOUS1
100
AcDbLine
 10
23.34507618817442
 20
25.30655483759886
 30
0.0
 11
23.59507618817442
 21
25.30655483759886
 31
0.0
  0
LINE
  5
8DC0
330
1F
100
AcDbEntity
  8
CONTINUOUS1
100
AcDbLine
 10
23.59507618817442
 20
25.49405483759886
 30
0.0
 11
23.59507618817442
 21
25.30655483759886
 31
0.0
  0
LINE
  5
8DC1
330
1F
100
AcDbEntity
  8
CONTINUOUS1
100
AcDbLine
 10
23.59507618817442
 20
25.49405483759886
 30
0.0
 11
24.56357618817442
 21
25.49405483759886
 31
0.0
  0
CIRCLE
  5
8DC2
330
1F
100
AcDbEntity
  8
CONTINUOUS1
100
AcDbCircle
 10
17.00129571151643
 20
20.14806775596619
 30
0.0
 40
0.25
  0
CIRCLE
  5
8DC3
330
1F
100
AcDbEntity
  8
CONTINUOUS1
100
AcDbCircle
 10
24.31379571151643
 20
20.14915483759886
 30
0.0
 40
0.25
  0
LINE
  5
8DC4
330
1F
100
AcDbEntity
  8
CONTINUOUS1
100
AcDbLine
 10
23.22057618817442
 20
23.30655483759886
 30
0.0
 11
24.56357618817442
 21
23.30655483759886
 31
0.0
  0
LINE
  5
8DC5
330
1F
100
AcDbEntity
  8
CONTINUOUS1
100
AcDbLine
 10
19.84507618817442
 20
25.49405483759886
 30
0.0
 11
20.03307618817442
 21
24.68155483759888
 31
0.0
  0
LINE
  5
8DC6
330
1F
100
AcDbEntity
  8
CONTINUOUS1
100
AcDbLine
 10
21.87607618817442
 20
25.49405483759886
 30
0.0
 11
21.87607618817442
 21
23.30655483759886
 31
0.0
  0
LINE
  5
8DC7
330
1F
100
AcDbEntity
  8
CONTINUOUS1
100
AcDbLine
 10
20.53307618817442
 20
23.30655483759886
 30
0.0
 11
21.87607618817442
 21
23.30655483759886
 31
0.0
  0
LINE
  5
8DC8
330
1F
100
AcDbEntity
  8
CONTINUOUS1
100
AcDbLine
 10
20.53307618817442
 20
24.18155483759886
 30
0.0
 11
20.53307618817442
 21
23.30655483759886
 31
0.0
  0
ARC
  5
8DC9
330
1F
100
AcDbEntity
  8
CONTINUOUS1
100
AcDbCircle
 10
20.03307618817442
 20
24.18155483759886
 30
0.0
 40
0.5
100
AcDbArc
 50
0.0
 51
90.00000000000039
  0
LINE
  5
8DCA
330
1F
100
AcDbEntity
  8
CONTINUOUS1
100
AcDbLine
 10
20.65757618817442
 20
25.30655483759886
 30
0.0
 11
20.90757618817443
 21
25.30655483759886
 31
0.0
  0
LINE
  5
8DCB
330
1F
100
AcDbEntity
  8
CONTINUOUS1
100
AcDbLine
 10
19.72007618817442
 20
25.49405483759886
 30
0.0
 11
20.65757618817442
 21
25.49405483759886
 31
0.0
  0
LINE
  5
8DCC
330
1F
100
AcDbEntity
  8
CONTINUOUS1
100
AcDbLine
 10
19.72007618817442
 20
25.36905483759886
 30
0.0
 11
19.8739992650975
 21
25.36905483759886
 31
0.0
  0
LINE
  5
8DCD
330
1F
100
AcDbEntity
  8
CONTINUOUS1
100
AcDbLine
 10
20.65757618817442
 20
25.61772274822784
 30
0.0
 11
20.65757618817442
 21
25.30655483759886
 31
0.0
  0
LINE
  5
8DCE
330
1F
100
AcDbEntity
  8
CONTINUOUS1
100
AcDbLine
 10
20.90757618817443
 20
25.49405483759886
 30
0.0
 11
21.87607618817442
 21
25.49405483759886
 31
0.0
  0
LINE
  5
8DCF
330
1F
100
AcDbEntity
  8
CONTINUOUS1
100
AcDbLine
 10
20.90757618817443
 20
25.49405483759886
 30
0.0
 11
20.90757618817443
 21
25.30655483759886
 31
0.0
  0
LINE
  5
8DD0
330
1F
100
AcDbEntity
  8
CONTINUOUS1
100
AcDbLine
 10
17.15757618817442
 20
25.49405483759886
 30
0.0
 11
17.34557618817442
 21
24.68155483759888
 31
0.0
  0
LINE
  5
8DD1
330
1F
100
AcDbEntity
  8
CONTINUOUS1
100
AcDbLine
 10
19.18857618817442
 20
25.49405483759886
 30
0.0
 11
19.18857618817442
 21
23.30655483759887
 31
0.0
  0
LINE
  5
8DD2
330
1F
100
AcDbEntity
  8
CONTINUOUS1
100
AcDbLine
 10
17.84557618817442
 20
23.30655483759887
 30
0.0
 11
19.18857618817442
 21
23.30655483759887
 31
0.0
  0
LINE
  5
8DD3
330
1F
100
AcDbEntity
  8
CONTINUOUS1
100
AcDbLine
 10
17.84557618817442
 20
24.18155483759887
 30
0.0
 11
17.84557618817442
 21
23.30655483759887
 31
0.0
  0
ARC
  5
8DD4
330
1F
100
AcDbEntity
  8
CONTINUOUS1
100
AcDbCircle
 10
17.34557618817442
 20
24.18155483759887
 30
0.0
 40
0.5
100
AcDbArc
 50
0.0
 51
90.00000000000039
  0
LINE
  5
8DD5
330
1F
100
AcDbEntity
  8
CONTINUOUS1
100
AcDbLine
 10
17.97007618817442
 20
25.30655483759886
 30
0.0
 11
18.22007618817442
 21
25.30655483759886
 31
0.0
  0
LINE
  5
8DD6
330
1F
100
AcDbEntity
  8
CONTINUOUS1
100
AcDbLine
 10
17.03257618817442
 20
25.49405483759886
 30
0.0
 11
17.97007618817442
 21
25.49405483759886
 31
0.0
  0
LINE
  5
8DD7
330
1F
100
AcDbEntity
  8
CONTINUOUS1
100
AcDbLine
 10
17.03257618817442
 20
26.49405483759887
 30
0.0
 11
17.03257618817442
 21
25.36905483759886
 31
0.0
  0
LINE
  5
8DD8
330
1F
100
AcDbEntity
  8
CONTINUOUS1
100
AcDbLine
 10
17.03257618817442
 20
25.36905483759886
 30
0.0
 11
17.1864992650975
 21
25.36905483759886
 31
0.0
  0
LINE
  5
8DD9
330
1F
100
AcDbEntity
  8
CONTINUOUS1
100
AcDbLine
 10
17.97007618817443
 20
26.49405483759887
 30
0.0
 11
17.97007618817443
 21
26.30458692696991
 31
0.0
  0
LINE
  5
8DDA
330
1F
100
AcDbEntity
  8
CONTINUOUS1
100
AcDbLine
 10
18.22007618817442
 20
25.49405483759886
 30
0.0
 11
19.18857618817442
 21
25.49405483759886
 31
0.0
  0
LINE
  5
8DDB
330
1F
100
AcDbEntity
  8
CONTINUOUS1
100
AcDbLine
 10
18.22007618817442
 20
25.49405483759886
 30
0.0
 11
18.22007618817442
 21
25.30655483759886
 31
0.0
  0
ARC
  5
8DDC
330
1F
100
AcDbEntity
  8
CONTINUOUS1
100
AcDbCircle
 10
22.31357546836187
 20
19.27530483759886
 30
0.0
 40
0.0625
100
AcDbArc
 50
180.0
 51
270.0
  0
ARC
  5
8DDD
330
1F
100
AcDbEntity
  8
CONTINUOUS1
100
AcDbCircle
 10
19.62607580849308
 20
19.27530483759886
 30
0.0
 40
0.0625
100
AcDbArc
 50
180.0
 51
270.0
  0
LINE
  5
8DDE
330
1F
100
AcDbEntity
  8
CONTINUOUS1
100
AcDbLine
 10
16.87607618817442
 20
19.21280483759886
 30
0.0
 11
16.87607618817442
 21
17.90105483759887
 31
0.0
  0
LINE
  5
8DDF
330
1F
100
AcDbEntity
  8
CONTINUOUS1
100
AcDbLine
 10
22.25107546836187
 20
19.21280483759886
 30
0.0
 11
23.51682618817442
 21
19.21280483759886
 31
0.0
  0
LINE
  5
8DE0
330
1F
100
AcDbEntity
  8
CONTINUOUS1
100
AcDbLine
 10
19.56357580849309
 20
19.21280483759886
 30
0.0
 11
20.82932652830563
 21
19.21280483759886
 31
0.0
  0
LINE
  5
8DE1
330
1F
100
AcDbEntity
  8
CONTINUOUS1
100
AcDbLine
 10
22.31357618817442
 20
18.18158197581992
 30
0.0
 11
23.31357618817442
 21
18.18158197581992
 31
0.0
  0
LINE
  5
8DE2
330
1F
100
AcDbEntity
  8
CONTINUOUS1
100
AcDbLine
 10
19.62607652830563
 20
18.18158197581992
 30
0.0
 11
20.62607652830563
 21
18.18158197581992
 31
0.0
  0
LINE
  5
8DE3
330
1F
100
AcDbEntity
  8
CONTINUOUS1
100
AcDbLine
 10
16.93857690798697
 20
18.18158197581992
 30
0.0
 11
17.93857690798697
 21
18.18158197581992
 31
0.0
  0
LWPOLYLINE
  5
8DE4
330
1F
100
AcDbEntity
  8
CONTINUOUS1
100
AcDbPolyline
 90
        6
 70
     1
 43
0.0
 10
22.68728081678919
 20
18.90033197581992
 10
22.56098544540396
 20
18.68158197581992
 10
22.68728081678919
 20
18.46283197581992
 10
22.93987155955965
 20
18.46283197581992
 10
23.06616693094488
 20
18.68158197581992
 10
22.93987155955965
 20
18.90033197581992
  0
CIRCLE
  5
8DE5
330
1F
100
AcDbEntity
  8
CONTINUOUS1
100
AcDbCircle
 10
22.81357618817442
 20
18.68158197581992
 30
0.0
 40
0.125
  0
CIRCLE
  5
8DE6
330
1F
100
AcDbEntity
  8
CONTINUOUS1
100
AcDbCircle
 10
20.12607652830563
 20
18.68158197581992
 30
0.0
 40
0.125
  0
LWPOLYLINE
  5
8DE7
330
1F
100
AcDbEntity
  8
CONTINUOUS1
100
AcDbPolyline
 90
        6
 70
     1
 43
0.0
 10
19.9997811569204
 20
18.90033197581992
 10
19.87348578553516
 20
18.68158197581992
 10
19.9997811569204
 20
18.46283197581992
 10
20.25237189969085
 20
18.46283197581992
 10
20.37866727107609
 20
18.68158197581992
 10
20.25237189969086
 20
18.90033197581992
  0
CIRCLE
  5
8DE8
330
1F
100
AcDbEntity
  8
CONTINUOUS1
100
AcDbCircle
 10
17.43857690798696
 20
18.68158197581992
 30
0.0
 40
0.125
  0
LWPOLYLINE
  5
8DE9
330
1F
100
AcDbEntity
  8
CONTINUOUS1
100
AcDbPolyline
 90
        6
 70
     1
 43
0.0
 10
17.31228153660174
 20
18.90033197581992
 10
17.1859861652165
 20
18.68158197581992
 10
17.31228153660174
 20
18.46283197581992
 10
17.5648722793722
 20
18.46283197581992
 10
17.69116765075743
 20
18.68158197581992
 10
17.5648722793722
 20
18.90033197581992
  0
LINE
  5
8DEA
330
1F
100
AcDbEntity
  8
CONTINUOUS1
100
AcDbLine
 10
18.76670190798697
 20
28.38198678052101
 30
0.0
 11
18.87607690798697
 21
28.57142983759886
 31
0.0
  0
LINE
  5
8DEB
330
1F
100
AcDbEntity
  8
CONTINUOUS1
100
AcDbLine
 10
18.87607690798697
 20
28.57142983759886
 30
0.0
 11
18.76670190798697
 21
28.76087289467671
 31
0.0
  0
CIRCLE
  5
8DEC
330
1F
100
AcDbEntity
  8
HIDDEN1
100
AcDbCircle
 10
18.65732690798697
 20
28.57142983759886
 30
0.0
 40
0.28125
  0
CIRCLE
  5
8DED
330
1F
100
AcDbEntity
  8
HIDDEN1
100
AcDbCircle
 10
18.65732690798697
 20
28.57142983759886
 30
0.0
 40
0.24875
  0
LINE
  5
8DEE
330
1F
100
AcDbEntity
  8
CONTINUOUS1
100
AcDbLine
 10
18.54795190798697
 20
28.76087289467671
 30
0.0
 11
18.43857690798697
 21
28.57142983759886
 31
0.0
  0
LINE
  5
8DEF
330
1F
100
AcDbEntity
  8
CONTINUOUS1
100
AcDbLine
 10
18.76670190798697
 20
28.76087289467671
 30
0.0
 11
18.54795190798697
 21
28.76087289467671
 31
0.0
  0
LINE
  5
8DF0
330
1F
100
AcDbEntity
  8
CONTINUOUS1
100
AcDbLine
 10
18.43857690798697
 20
28.57142983759886
 30
0.0
 11
18.54795190798697
 21
28.38198678052101
 31
0.0
  0
LINE
  5
8DF1
330
1F
100
AcDbEntity
  8
CONTINUOUS1
100
AcDbLine
 10
18.54795190798697
 20
28.38198678052101
 30
0.0
 11
18.76670190798697
 21
28.38198678052101
 31
0.0
  0
LWPOLYLINE
  5
8DF2
330
1F
100
AcDbEntity
  8
CONTINUOUS1
100
AcDbPolyline
 90
        6
 70
     1
 43
0.0
 10
18.53103153660174
 20
27.35267983759886
 10
18.4047361652165
 20
27.57142983759886
 10
18.53103153660174
 20
27.79017983759886
 10
18.7836222793722
 20
27.79017983759886
 10
18.90991765075743
 20
27.57142983759886
 10
18.7836222793722
 20
27.35267983759886
  0
LINE
  5
8DF3
330
1F
100
AcDbEntity
  8
CONTINUOUS1
100
AcDbLine
 10
18.15732690798697
 20
28.07142983759886
 30
0.0
 11
19.15732690798697
 21
28.07142983759886
 31
0.0
  0
CIRCLE
  5
8DF4
330
1F
100
AcDbEntity
  8
CONTINUOUS1
100
AcDbCircle
 10
18.65732690798696
 20
27.57142983759886
 30
0.0
 40
0.125
  0
LWPOLYLINE
  5
8DF5
330
1F
100
AcDbEntity
  8
CONTINUOUS1
100
AcDbPolyline
 90
        6
 70
     1
 43
0.0
 10
21.2185311569204
 20
27.35267983759886
 10
21.09223578553517
 20
27.57142983759886
 10
21.2185311569204
 20
27.79017983759886
 10
21.47112189969086
 20
27.79017983759886
 10
21.59741727107609
 20
27.57142983759886
 10
21.47112189969086
 20
27.35267983759886
  0
CIRCLE
  5
8DF6
330
1F
100
AcDbEntity
  8
HIDDEN1
100
AcDbCircle
 10
21.34482652830563
 20
28.57142983759886
 30
0.0
 40
0.28125
  0
LINE
  5
8DF7
330
1F
100
AcDbEntity
  8
CONTINUOUS1
100
AcDbLine
 10
21.23545152830563
 20
28.38198678052101
 30
0.0
 11
21.45420152830563
 21
28.38198678052101
 31
0.0
  0
LINE
  5
8DF8
330
1F
100
AcDbEntity
  8
CONTINUOUS1
100
AcDbLine
 10
21.45420152830563
 20
28.76087289467671
 30
0.0
 11
21.23545152830563
 21
28.76087289467671
 31
0.0
  0
CIRCLE
  5
8DF9
330
1F
100
AcDbEntity
  8
HIDDEN1
100
AcDbCircle
 10
21.34482652830563
 20
28.57142983759886
 30
0.0
 40
0.24875
  0
LINE
  5
8DFA
330
1F
100
AcDbEntity
  8
CONTINUOUS1
100
AcDbLine
 10
21.23545152830563
 20
28.76087289467671
 30
0.0
 11
21.12607652830563
 21
28.57142983759886
 31
0.0
  0
LINE
  5
8DFB
330
1F
100
AcDbEntity
  8
CONTINUOUS1
100
AcDbLine
 10
21.12607652830563
 20
28.57142983759886
 30
0.0
 11
21.23545152830563
 21
28.38198678052101
 31
0.0
  0
LINE
  5
8DFC
330
1F
100
AcDbEntity
  8
CONTINUOUS1
100
AcDbLine
 10
21.56357652830563
 20
28.57142983759886
 30
0.0
 11
21.45420152830563
 21
28.76087289467671
 31
0.0
  0
LINE
  5
8DFD
330
1F
100
AcDbEntity
  8
CONTINUOUS1
100
AcDbLine
 10
21.45420152830563
 20
28.38198678052101
 30
0.0
 11
21.56357652830563
 21
28.57142983759886
 31
0.0
  0
CIRCLE
  5
8DFE
330
1F
100
AcDbEntity
  8
CONTINUOUS1
100
AcDbCircle
 10
21.34482652830563
 20
27.57142983759886
 30
0.0
 40
0.125
  0
LINE
  5
8DFF
330
1F
100
AcDbEntity
  8
CONTINUOUS1
100
AcDbLine
 10
20.84482652830563
 20
28.07142983759886
 30
0.0
 11
21.84482652830563
 21
28.07142983759886
 31
0.0
  0
CIRCLE
  5
8E00
330
1F
100
AcDbEntity
  8
HIDDEN1
100
AcDbCircle
 10
24.03232618817442
 20
28.57142983759886
 30
0.0
 40
0.24875
  0
LINE
  5
8E01
330
1F
100
AcDbEntity
  8
CONTINUOUS1
100
AcDbLine
 10
24.14170118817442
 20
28.76087289467671
 30
0.0
 11
23.92295118817442
 21
28.76087289467671
 31
0.0
  0
LINE
  5
8E02
330
1F
100
AcDbEntity
  8
CONTINUOUS1
100
AcDbLine
 10
23.92295118817442
 20
28.38198678052101
 30
0.0
 11
24.14170118817442
 21
28.38198678052101
 31
0.0
  0
CIRCLE
  5
8E03
330
1F
100
AcDbEntity
  8
HIDDEN1
100
AcDbCircle
 10
24.03232618817442
 20
28.57142983759886
 30
0.0
 40
0.28125
  0
LINE
  5
8E04
330
1F
100
AcDbEntity
  8
CONTINUOUS1
100
AcDbLine
 10
23.92295118817442
 20
28.76087289467671
 30
0.0
 11
23.81357618817442
 21
28.57142983759886
 31
0.0
  0
LINE
  5
8E05
330
1F
100
AcDbEntity
  8
CONTINUOUS1
100
AcDbLine
 10
23.81357618817442
 20
28.57142983759886
 30
0.0
 11
23.92295118817442
 21
28.38198678052101
 31
0.0
  0
LINE
  5
8E06
330
1F
100
AcDbEntity
  8
CONTINUOUS1
100
AcDbLine
 10
24.25107618817442
 20
28.57142983759886
 30
0.0
 11
24.14170118817442
 21
28.76087289467671
 31
0.0
  0
LINE
  5
8E07
330
1F
100
AcDbEntity
  8
CONTINUOUS1
100
AcDbLine
 10
24.14170118817442
 20
28.38198678052101
 30
0.0
 11
24.25107618817442
 21
28.57142983759886
 31
0.0
  0
CIRCLE
  5
8E08
330
1F
100
AcDbEntity
  8
CONTINUOUS1
100
AcDbCircle
 10
24.03232618817442
 20
27.57142983759886
 30
0.0
 40
0.125
  0
LWPOLYLINE
  5
8E09
330
1F
100
AcDbEntity
  8
CONTINUOUS1
100
AcDbPolyline
 90
        6
 70
     1
 43
0.0
 10
23.90603081678919
 20
27.35267983759886
 10
23.77973544540396
 20
27.57142983759886
 10
23.90603081678919
 20
27.79017983759886
 10
24.15862155955965
 20
27.79017983759886
 10
24.28491693094488
 20
27.57142983759886
 10
24.15862155955966
 20
27.35267983759886
  0
LINE
  5
8E0A
330
1F
100
AcDbEntity
  8
CONTINUOUS1
100
AcDbLine
 10
23.53232618817442
 20
28.07142983759886
 30
0.0
 11
24.53232618817442
 21
28.07142983759886
 31
0.0
  0
LINE
  5
8E0B
330
1F
100
AcDbEntity
  8
CONTINUOUS1
100
AcDbLine
 10
24.56357618817442
 20
26.71205483759883
 30
0.0
 11
24.56357618817442
 21
23.05655483759886
 31
0.0
  0
LINE
  5
8E0C
330
1F
100
AcDbEntity
  8
CONTINUOUS1
100
AcDbLine
 10
16.56357618817442
 20
26.71205483759886
 30
0.0
 11
18.1322080945914
 21
26.71205483759887
 31
0.0
  0
LINE
  5
8E0D
330
1F
100
AcDbEntity
  8
CONTINUOUS1
100
AcDbLine
 10
16.8197080945914
 20
24.49405483759886
 30
0.0
 11
17.73588856307433
 21
24.49405483759886
 31
0.0
  0
LINE
  5
8E0E
330
1F
100
AcDbEntity
  8
CONTINUOUS1
100
AcDbLine
 10
16.56357618817442
 20
24.61905483759887
 30
0.0
 11
17.58763764731239
 21
24.61905483759887
 31
0.0
  0
LINE
  5
8E0F
330
1F
100
AcDbEntity
  8
CONTINUOUS1
100
AcDbLine
 10
24.56357618817442
 20
24.61905483759887
 30
0.0
 11
24.7572080945914
 21
24.61905483759887
 31
0.0
  0
LINE
  5
8E10
330
1F
100
AcDbEntity
  8
CONTINUOUS1
100
AcDbLine
 10
24.56357618817442
 20
24.49405483759886
 30
0.0
 11
24.7572080945914
 21
24.49405483759886
 31
0.0
  0
LINE
  5
8E11
330
1F
100
AcDbEntity
  8
CONTINUOUS1
100
AcDbLine
 10
22.31357546836187
 20
24.61905483759887
 30
0.0
 11
22.96263764731239
 21
24.61905483759887
 31
0.0
  0
LINE
  5
8E12
330
1F
100
AcDbEntity
  8
CONTINUOUS1
100
AcDbLine
 10
22.31357546836187
 20
24.49405483759886
 30
0.0
 11
23.11088856307432
 21
24.49405483759886
 31
0.0
  0
LINE
  5
8E13
330
1F
100
AcDbEntity
  8
CONTINUOUS1
100
AcDbLine
 10
21.87607618817442
 20
24.49405483759886
 30
0.0
 11
22.00107550000199
 21
24.49405483759886
 31
0.0
  0
LINE
  5
8E14
330
1F
100
AcDbEntity
  8
CONTINUOUS1
100
AcDbLine
 10
21.87607618817442
 20
24.61905483759887
 30
0.0
 11
22.00107550000199
 21
24.61905483759887
 31
0.0
  0
LINE
  5
8E15
330
1F
100
AcDbEntity
  8
CONTINUOUS1
100
AcDbLine
 10
19.6264083154919
 20
24.61905483759887
 30
0.0
 11
20.27513764731239
 21
24.61905483759887
 31
0.0
  0
LINE
  5
8E16
330
1F
100
AcDbEntity
  8
CONTINUOUS1
100
AcDbLine
 10
19.6264083154919
 20
24.49405483759886
 30
0.0
 11
20.42338856307432
 21
24.49405483759886
 31
0.0
  0
LINE
  5
8E17
330
1F
100
AcDbEntity
  8
CONTINUOUS1
100
AcDbLine
 10
19.18857618817442
 20
24.61905483759887
 30
0.0
 11
19.31357584013319
 21
24.61905483759887
 31
0.0
  0
LINE
  5
8E18
330
1F
100
AcDbEntity
  8
CONTINUOUS1
100
AcDbLine
 10
19.18857618817442
 20
24.49405483759886
 30
0.0
 11
19.31357584013319
 21
24.49405483759886
 31
0.0
  0
LINE
  5
8E19
330
1F
100
AcDbEntity
  8
CONTINUOUS1
100
AcDbLine
 10
19.2572080945914
 20
26.80580483759887
 30
0.0
 11
19.4134580945914
 21
26.80580483759887
 31
0.0
  0
ARC
  5
8E1A
330
1F
100
AcDbEntity
  8
CONTINUOUS1
100
AcDbCircle
 10
24.50107618817442
 20
23.05655483759886
 30
0.0
 40
0.0625
100
AcDbArc
 50
270.0
 51
0.0
  0
LINE
  5
8E1B
330
1F
100
AcDbEntity
  8
CONTINUOUS1
100
AcDbLine
 10
16.7572080945914
 20
26.58705483759886
 30
0.0
 11
16.7572080945914
 21
24.61905483759887
 31
0.0
  0
ARC
  5
8E1C
330
1F
100
AcDbEntity
  8
CONTINUOUS1
100
AcDbCircle
 10
16.81970809459139
 20
23.05655483759886
 30
0.0
 40
0.0625
100
AcDbArc
 50
180.0
 51
270.0
  0
ARC
  5
8E1D
330
1F
100
AcDbEntity
  8
CONTINUOUS1
100
AcDbCircle
 10
16.8197080945914
 20
24.43155483759886
 30
0.0
 40
0.0625
100
AcDbArc
 50
90.0
 51
179.9999999999999
  0
LINE
  5
8E1E
330
1F
100
AcDbEntity
  8
CONTINUOUS1
100
AcDbLine
 10
17.9752080945914
 20
26.58705483759886
 30
0.0
 11
17.9752080945914
 21
26.30432762133946
 31
0.0
  0
LINE
  5
8E1F
330
1F
100
AcDbEntity
  8
CONTINUOUS1
100
AcDbLine
 10
18.1322080945914
 20
26.71205483759886
 30
0.0
 11
18.1322080945914
 21
26.17979511571509
 31
0.0
  0
LINE
  5
8E20
330
1F
100
AcDbEntity
  8
CONTINUOUS1
100
AcDbLine
 10
16.7572080945914
 20
26.58705483759886
 30
0.0
 11
17.9752080945914
 21
26.58705483759886
 31
0.0
  0
LINE
  5
8E21
330
1F
100
AcDbEntity
  8
CONTINUOUS1
100
AcDbLine
 10
18.22007618817442
 20
25.49405483759886
 30
0.0
 11
19.18857618817442
 21
25.49405483759886
 31
0.0
  0
LINE
  5
8E22
330
1F
100
AcDbEntity
  8
CONTINUOUS1
100
AcDbLine
 10
20.90757618817443
 20
25.49405483759886
 30
0.0
 11
21.87607618817442
 21
25.49405483759886
 31
0.0
  0
LINE
  5
8E23
330
1F
100
AcDbEntity
  8
CONTINUOUS1
100
AcDbLine
 10
19.1947080945914
 20
26.71205483759886
 30
0.0
 11
19.1947080945914
 21
26.27703465752503
 31
0.0
  0
LINE
  5
8E24
330
1F
100
AcDbEntity
  8
CONTINUOUS1
100
AcDbLine
 10
19.4752080945914
 20
26.58705483759886
 30
0.0
 11
19.4752080945914
 21
26.16487131025525
 31
0.0
  0
LINE
  5
8E25
330
1F
100
AcDbEntity
  8
CONTINUOUS1
100
AcDbLine
 10
20.6782080945914
 20
26.58705483759885
 30
0.0
 11
20.6782080945914
 21
25.30655483759886
 31
0.0
  0
LINE
  5
8E26
330
1F
100
AcDbEntity
  8
CONTINUOUS1
100
AcDbLine
 10
20.8197080945914
 20
26.71205483759885
 30
0.0
 11
20.8197080945914
 21
25.30655483759886
 31
0.0
  0
LINE
  5
8E27
330
1F
100
AcDbEntity
  8
CONTINUOUS1
100
AcDbLine
 10
19.1947080945914
 20
25.64527501767269
 30
0.0
 11
19.1947080945914
 21
25.24405483759887
 31
0.0
  0
CIRCLE
  5
8E28
330
1F
100
AcDbEntity
  8
HIDDEN1
100
AcDbCircle
 10
19.33029571151643
 20
25.96115483759886
 30
0.0
 40
0.34375
  0
CIRCLE
  5
8E29
330
1F
100
AcDbEntity
  8
CONTINUOUS1
100
AcDbCircle
 10
22.01779571151643
 20
25.96115483759886
 30
0.0
 40
0.34375
  0
LINE
  5
8E2A
330
1F
100
AcDbEntity
  8
CONTINUOUS1
100
AcDbLine
 10
21.8822080945914
 20
26.71205483759885
 30
0.0
 11
21.8822080945914
 21
26.27703465752503
 31
0.0
  0
LINE
  5
8E2B
330
1F
100
AcDbEntity
  8
CONTINUOUS1
100
AcDbLine
 10
22.1627080945914
 20
26.58705483759886
 30
0.0
 11
22.1627080945914
 21
26.16487131025525
 31
0.0
  0
LINE
  5
8E2C
330
1F
100
AcDbEntity
  8
CONTINUOUS1
100
AcDbLine
 10
23.36570809459141
 20
26.58705483759885
 30
0.0
 11
23.36570809459141
 21
26.30307591858825
 31
0.0
  0
LINE
  5
8E2D
330
1F
100
AcDbEntity
  8
CONTINUOUS1
100
AcDbLine
 10
23.5072080945914
 20
26.71205483759884
 30
0.0
 11
23.5072080945914
 21
26.17979511571525
 31
0.0
  0
LINE
  5
8E2E
330
1F
100
AcDbEntity
  8
CONTINUOUS1
100
AcDbLine
 10
21.8822080945914
 20
25.64527501767269
 30
0.0
 11
21.8822080945914
 21
25.24405483759887
 31
0.0
  0
LINE
  5
8E2F
330
1F
100
AcDbEntity
  8
CONTINUOUS1
100
AcDbLine
 10
22.1627080945914
 20
26.58705483759886
 30
0.0
 11
23.36570809459141
 21
26.58705483759886
 31
0.0
  0
LINE
  5
8E30
330
1F
100
AcDbEntity
  8
CONTINUOUS1
100
AcDbLine
 10
19.4752080945914
 20
26.58705483759886
 30
0.0
 11
20.6782080945914
 21
26.58705483759886
 31
0.0
  0
LINE
  5
8E31
330
1F
100
AcDbEntity
  8
CONTINUOUS1
100
AcDbLine
 10
19.1947080945914
 20
26.71205483759887
 30
0.0
 11
20.8197080945914
 21
26.71205483759885
 31
0.0
  0
LINE
  5
8E32
330
1F
100
AcDbEntity
  8
CONTINUOUS1
100
AcDbLine
 10
21.8822080945914
 20
26.71205483759885
 30
0.0
 11
23.5072080945914
 21
26.71205483759884
 31
0.0
  0
LINE
  5
8E33
330
1F
100
AcDbEntity
  8
CONTINUOUS1
100
AcDbLine
 10
24.56357618817442
 20
26.71205483759883
 30
0.0
 11
24.75107618817443
 21
26.71205483759883
 31
0.0
  0
LINE
  5
8E34
330
1F
100
AcDbEntity
  8
CONTINUOUS1
100
AcDbLine
 10
23.4447080945914
 20
26.80580483759886
 30
0.0
 11
23.4447080945914
 21
26.71205483759884
 31
0.0
  0
LINE
  5
8E35
330
1F
100
AcDbEntity
  8
CONTINUOUS1
100
AcDbLine
 10
20.7572080945914
 20
26.80580483759886
 30
0.0
 11
20.75720809459139
 21
26.71205483759885
 31
0.0
  0
LINE
  5
8E36
330
1F
100
AcDbEntity
  8
CONTINUOUS1
100
AcDbLine
 10
23.2884580945914
 20
26.80580483759886
 30
0.0
 11
23.2884580945914
 21
26.71205483759884
 31
0.0
  0
LINE
  5
8E37
330
1F
100
AcDbEntity
  8
CONTINUOUS1
100
AcDbLine
 10
20.6009580945914
 20
26.80580483759887
 30
0.0
 11
20.60095809459139
 21
26.71205483759886
 31
0.0
  0
LINE
  5
8E38
330
1F
100
AcDbEntity
  8
CONTINUOUS1
100
AcDbLine
 10
22.1009580945914
 20
26.80580483759886
 30
0.0
 11
22.1009580945914
 21
26.71205483759884
 31
0.0
  0
LINE
  5
8E39
330
1F
100
AcDbEntity
  8
CONTINUOUS1
100
AcDbLine
 10
21.9447080945914
 20
26.80580483759886
 30
0.0
 11
21.9447080945914
 21
26.71205483759884
 31
0.0
  0
LINE
  5
8E3A
330
1F
100
AcDbEntity
  8
CONTINUOUS1
100
AcDbLine
 10
19.2572080945914
 20
26.80580483759887
 30
0.0
 11
19.2572080945914
 21
26.71205483759885
 31
0.0
  0
LINE
  5
8E3B
330
1F
100
AcDbEntity
  8
CONTINUOUS1
100
AcDbLine
 10
19.4134580945914
 20
26.80580483759887
 30
0.0
 11
19.4134580945914
 21
26.71205483759886
 31
0.0
  0
LINE
  5
8E3C
330
1F
100
AcDbEntity
  8
CONTINUOUS1
100
AcDbLine
 10
20.1634580945914
 20
26.80580483759887
 30
0.0
 11
20.16345809459139
 21
26.71205483759886
 31
0.0
  0
LINE
  5
8E3D
330
1F
100
AcDbEntity
  8
CONTINUOUS1
100
AcDbLine
 10
20.3197080945914
 20
26.80580483759886
 30
0.0
 11
20.31970809459139
 21
26.71205483759885
 31
0.0
  0
LINE
  5
8E3E
330
1F
100
AcDbEntity
  8
CONTINUOUS1
100
AcDbLine
 10
22.8509580945914
 20
26.80580483759886
 30
0.0
 11
22.8509580945914
 21
26.71205483759884
 31
0.0
  0
LINE
  5
8E3F
330
1F
100
AcDbEntity
  8
CONTINUOUS1
100
AcDbLine
 10
23.0072080945914
 20
26.80580483759886
 30
0.0
 11
23.0072080945914
 21
26.71205483759884
 31
0.0
  0
LINE
  5
8E40
330
1F
100
AcDbEntity
  8
CONTINUOUS1
100
AcDbLine
 10
23.2884580945914
 20
26.80580483759886
 30
0.0
 11
23.4447080945914
 21
26.80580483759886
 31
0.0
  0
LINE
  5
8E41
330
1F
100
AcDbEntity
  8
CONTINUOUS1
100
AcDbLine
 10
22.8509580945914
 20
26.80580483759886
 30
0.0
 11
23.0072080945914
 21
26.80580483759886
 31
0.0
  0
LINE
  5
8E42
330
1F
100
AcDbEntity
  8
CONTINUOUS1
100
AcDbLine
 10
21.9447080945914
 20
26.80580483759887
 30
0.0
 11
22.1009580945914
 21
26.80580483759887
 31
0.0
  0
LINE
  5
8E43
330
1F
100
AcDbEntity
  8
CONTINUOUS1
100
AcDbLine
 10
20.6009580945914
 20
26.80580483759887
 30
0.0
 11
20.7572080945914
 21
26.80580483759887
 31
0.0
  0
LINE
  5
8E44
330
1F
100
AcDbEntity
  8
CONTINUOUS1
100
AcDbLine
 10
20.1634580945914
 20
26.80580483759887
 30
0.0
 11
20.3197080945914
 21
26.80580483759887
 31
0.0
  0
LINE
  5
8E45
330
1F
100
AcDbEntity
  8
CONTINUOUS1
100
AcDbLine
 10
18.1322080945914
 20
25.74251455948263
 30
0.0
 11
18.1322080945914
 21
25.30655483759886
 31
0.0
  0
LINE
  5
8E46
330
1F
100
AcDbEntity
  8
CONTINUOUS1
100
AcDbLine
 10
17.9752080945914
 20
25.61798205385826
 30
0.0
 11
17.9752080945914
 21
25.30655483759886
 31
0.0
  0
LINE
  5
8E47
330
1F
100
AcDbEntity
  8
CONTINUOUS1
100
AcDbLine
 10
23.36570809459141
 20
25.61923375660947
 30
0.0
 11
23.36570809459141
 21
25.30655483759886
 31
0.0
  0
LINE
  5
8E48
330
1F
100
AcDbEntity
  8
CONTINUOUS1
100
AcDbLine
 10
23.5072080945914
 20
25.74251455948248
 30
0.0
 11
23.5072080945914
 21
25.30655483759886
 31
0.0
  0
LINE
  5
8E49
330
1F
100
AcDbEntity
  8
CONTINUOUS2
100
AcDbLine
 10
19.21982690798697
 20
17.90105483759887
 30
0.0
 11
19.62607652830563
 21
17.90105483759887
 31
0.0
  0
LINE
  5
8E4A
330
1F
100
AcDbEntity
  8
CONTINUOUS2
100
AcDbLine
 10
21.90732652830563
 20
17.90105483759886
 30
0.0
 11
22.31357618817442
 21
17.90105483759886
 31
0.0
  0
LINE
  5
8E4B
330
1F
100
AcDbEntity
  8
PHANTOM1
100
AcDbLine
 10
16.56357618817442
 20
29.36905483759886
 30
0.0
 11
24.75107618817443
 21
29.36905483759886
 31
0.0
  0
LINE
  5
8E4C
330
1F
100
AcDbEntity
  8
CONTINUOUS2
100
AcDbLine
 10
16.56357618817443
 20
28.21205483759883
 30
0.0
 11
16.56357618817442
 21
17.90105483759887
 31
0.0
  0
LINE
  5
8E4D
330
1F
100
AcDbEntity
  8
CONTINUOUS2
100
AcDbLine
 10
24.75107618817443
 20
28.21205483759883
 30
0.0
 11
24.75107618817443
 21
17.90105483759886
 31
0.0
  0
LINE
  5
8E4E
330
1F
100
AcDbEntity
  8
CONTINUOUS1
100
AcDbLine
 10
17.87267096325547
 20
26.11186703551202
 30
0.0
 11
18.08863767289215
 21
25.85270698394801
 31
0.0
  0
LINE
  5
8E4F
330
1F
100
AcDbEntity
  8
CONTINUOUS1
100
AcDbLine
 10
17.82828335096201
 20
26.0769515382919
 30
0.0
 11
18.04038734036354
 21
25.81182155153998
 31
0.0
  0
CIRCLE
  5
8E50
330
1F
100
AcDbEntity
  8
CONTINUOUS1
100
AcDbCircle
 10
17.95529571151643
 20
25.96115483759886
 30
0.0
 40
0.1718750000000012
  0
LINE
  5
8E51
330
1F
100
AcDbEntity
  8
CONTINUOUS1
100
AcDbLine
 10
23.24767096325547
 20
26.11186703551202
 30
0.0
 11
23.46363767289215
 21
25.85270698394801
 31
0.0
  0
LINE
  5
8E52
330
1F
100
AcDbEntity
  8
CONTINUOUS1
100
AcDbLine
 10
23.203283350962
 20
26.0769515382919
 30
0.0
 11
23.41538734036354
 21
25.81182155153998
 31
0.0
  0
CIRCLE
  5
8E53
330
1F
100
AcDbEntity
  8
CONTINUOUS1
100
AcDbCircle
 10
23.33029571151643
 20
25.96115483759886
 30
0.0
 40
0.1718750000000012
  0
LINE
  5
8E54
330
1F
100
AcDbEntity
  8
CONTINUOUS2
100
AcDbLine
 10
24.59482618817443
 20
17.90105483759886
 30
0.0
 11
24.59482618817443
 21
17.33780483759886
 31
0.0
  0
LINE
  5
8E55
330
1F
100
AcDbEntity
  8
CONTINUOUS1
100
AcDbLine
 10
23.51682618817442
 20
19.71280483759886
 30
0.0
 11
23.51682618817443
 21
19.15030483759886
 31
0.0
  0
LINE
  5
8E56
330
1F
100
AcDbEntity
  8
CONTINUOUS2
100
AcDbLine
 10
23.51682618817443
 20
17.33780483759886
 30
0.0
 11
24.59482618817443
 21
17.33780483759886
 31
0.0
  0
LINE
  5
8E57
330
1F
100
AcDbEntity
  8
CONTINUOUS1
100
AcDbLine
 10
23.51682618817442
 20
19.71280483759886
 30
0.0
 11
24.59482618817443
 21
19.71280483759886
 31
0.0
  0
LINE
  5
8E58
330
1F
100
AcDbEntity
  8
CONTINUOUS2
100
AcDbLine
 10
24.59482618817443
 20
17.90105483759886
 30
0.0
 11
24.75107618817443
 21
17.90105483759886
 31
0.0
  0
LINE
  5
8E59
330
1F
100
AcDbEntity
  8
CONTINUOUS1
100
AcDbLine
 10
24.59482618817443
 20
19.21280483759886
 30
0.0
 11
24.75107618817443
 21
19.21280483759886
 31
0.0
  0
LINE
  5
8E5A
330
1F
100
AcDbEntity
  8
CONTINUOUS2
100
AcDbLine
 10
23.31357618817442
 20
17.83780483759886
 30
0.0
 11
23.51682618817443
 21
17.83780483759886
 31
0.0
  0
LINE
  5
8E5B
330
1F
100
AcDbEntity
  8
CONTINUOUS1
100
AcDbLine
 10
23.31357618817442
 20
19.02530483759886
 30
0.0
 11
23.51682618817443
 21
19.02530483759886
 31
0.0
  0
ARC
  5
8E5C
330
1F
100
AcDbEntity
  8
CONTINUOUS1
100
AcDbCircle
 10
23.51682618817442
 20
19.08780483759886
 30
0.0
 40
0.0625000000000015
100
AcDbArc
 50
270.0000000000032
 51
89.99999999999674
  0
ARC
  5
8E5D
330
1F
100
AcDbEntity
  8
CONTINUOUS2
100
AcDbCircle
 10
23.51682618817443
 20
17.77530483759886
 30
0.0
 40
0.0625000000000003
100
AcDbArc
 50
270.0000000000065
 51
89.99999999999674
  0
LINE
  5
8E5E
330
1F
100
AcDbEntity
  8
CONTINUOUS2
100
AcDbLine
 10
23.51682618817443
 20
17.71280483759886
 30
0.0
 11
23.51682618817443
 21
17.33780483759886
 31
0.0
  0
LINE
  5
8E5F
330
1F
100
AcDbEntity
  8
CONTINUOUS1
100
AcDbLine
 10
23.51682618817443
 20
19.02530483759885
 30
0.0
 11
23.51682618817443
 21
17.83780483759886
 31
0.0
  0
LINE
  5
8E60
330
1F
100
AcDbEntity
  8
CONTINUOUS1
100
AcDbLine
 10
20.82932652830563
 20
19.71280483759886
 30
0.0
 11
21.90732652830563
 21
19.71280483759886
 31
0.0
  0
LINE
  5
8E61
330
1F
100
AcDbEntity
  8
CONTINUOUS2
100
AcDbLine
 10
21.90732652830563
 20
17.90105483759886
 30
0.0
 11
21.90732652830563
 21
17.33780483759886
 31
0.0
  0
LINE
  5
8E62
330
1F
100
AcDbEntity
  8
CONTINUOUS2
100
AcDbLine
 10
20.82932652830563
 20
17.33780483759886
 30
0.0
 11
21.90732652830563
 21
17.33780483759886
 31
0.0
  0
ARC
  5
8E63
330
1F
100
AcDbEntity
  8
CONTINUOUS2
100
AcDbCircle
 10
20.82932652830563
 20
17.77530483759886
 30
0.0
 40
0.0625000000000003
100
AcDbArc
 50
270.0000000000065
 51
89.99999999999674
  0
ARC
  5
8E64
330
1F
100
AcDbEntity
  8
CONTINUOUS1
100
AcDbCircle
 10
20.82932652830563
 20
19.08780483759886
 30
0.0
 40
0.0625000000000015
100
AcDbArc
 50
270.0000000000032
 51
89.99999999999674
  0
LINE
  5
8E65
330
1F
100
AcDbEntity
  8
CONTINUOUS1
100
AcDbLine
 10
20.82932652830563
 20
19.71280483759886
 30
0.0
 11
20.82932652830563
 21
19.15030483759886
 31
0.0
  0
LINE
  5
8E66
330
1F
100
AcDbEntity
  8
CONTINUOUS1
100
AcDbLine
 10
20.82932652830563
 20
19.02530483759885
 30
0.0
 11
20.82932652830563
 21
17.83780483759886
 31
0.0
  0
LINE
  5
8E67
330
1F
100
AcDbEntity
  8
CONTINUOUS2
100
AcDbLine
 10
20.82932652830563
 20
17.71280483759886
 30
0.0
 11
20.82932652830563
 21
17.33780483759886
 31
0.0
  0
LINE
  5
8E68
330
1F
100
AcDbEntity
  8
CONTINUOUS2
100
AcDbLine
 10
20.62607652830563
 20
17.83780483759886
 30
0.0
 11
20.82932652830563
 21
17.83780483759886
 31
0.0
  0
LINE
  5
8E69
330
1F
100
AcDbEntity
  8
CONTINUOUS1
100
AcDbLine
 10
20.62607652830563
 20
19.02530483759886
 30
0.0
 11
20.82932652830563
 21
19.02530483759886
 31
0.0
  0
LINE
  5
8E6A
330
1F
100
AcDbEntity
  8
CONTINUOUS1
100
AcDbLine
 10
18.14182690798696
 20
19.71280483759886
 30
0.0
 11
19.21982690798697
 21
19.71280483759886
 31
0.0
  0
LINE
  5
8E6B
330
1F
100
AcDbEntity
  8
CONTINUOUS2
100
AcDbLine
 10
19.21982690798697
 20
17.90105483759887
 30
0.0
 11
19.21982690798697
 21
17.33780483759886
 31
0.0
  0
LINE
  5
8E6C
330
1F
100
AcDbEntity
  8
CONTINUOUS2
100
AcDbLine
 10
18.14182690798697
 20
17.33780483759886
 30
0.0
 11
19.21982690798697
 21
17.33780483759886
 31
0.0
  0
ARC
  5
8E6D
330
1F
100
AcDbEntity
  8
CONTINUOUS2
100
AcDbCircle
 10
18.14182690798697
 20
17.77530483759886
 30
0.0
 40
0.0625000000000003
100
AcDbArc
 50
270.0000000000065
 51
89.99999999999674
  0
ARC
  5
8E6E
330
1F
100
AcDbEntity
  8
CONTINUOUS1
100
AcDbCircle
 10
18.14182690798696
 20
19.08780483759886
 30
0.0
 40
0.0625000000000015
100
AcDbArc
 50
270.0000000000032
 51
89.99999999999674
  0
LINE
  5
8E6F
330
1F
100
AcDbEntity
  8
CONTINUOUS1
100
AcDbLine
 10
18.14182690798696
 20
19.71280483759886
 30
0.0
 11
18.14182690798697
 21
19.15030483759886
 31
0.0
  0
LINE
  5
8E70
330
1F
100
AcDbEntity
  8
CONTINUOUS1
100
AcDbLine
 10
18.14182690798697
 20
19.02530483759886
 30
0.0
 11
18.14182690798697
 21
17.83780483759886
 31
0.0
  0
LINE
  5
8E71
330
1F
100
AcDbEntity
  8
CONTINUOUS2
100
AcDbLine
 10
18.14182690798697
 20
17.71280483759886
 30
0.0
 11
18.14182690798697
 21
17.33780483759886
 31
0.0
  0
LINE
  5
8E72
330
1F
100
AcDbEntity
  8
CONTINUOUS2
100
AcDbLine
 10
17.93857690798697
 20
17.83780483759886
 30
0.0
 11
18.14182690798697
 21
17.83780483759886
 31
0.0
  0
LINE
  5
8E73
330
1F
100
AcDbEntity
  8
CONTINUOUS1
100
AcDbLine
 10
17.93857690798697
 20
19.02530483759886
 30
0.0
 11
18.14182690798697
 21
19.02530483759886
 31
0.0
  0
LINE
  5
8E74
330
1F
100
AcDbEntity
  8
CONTINUOUS1
100
AcDbLine
 10
19.21982690798697
 20
19.21280483759886
 30
0.0
 11
19.31357584013319
 21
19.21280483759886
 31
0.0
  0
LINE
  5
8E75
330
1F
100
AcDbEntity
  8
CONTINUOUS1
100
AcDbLine
 10
21.90732652830563
 20
19.21280483759886
 30
0.0
 11
22.00107550000199
 21
19.21280483759886
 31
0.0
  0
CIRCLE
  5
8E76
330
1F
100
AcDbEntity
  8
CONTINUOUS1
100
AcDbCircle
 10
23.68870118817443
 20
19.55580483759886
 30
0.0
 40
0.0625
  0
CIRCLE
  5
8E77
330
1F
100
AcDbEntity
  8
CONTINUOUS1
100
AcDbCircle
 10
24.06370118817443
 20
19.55580483759886
 30
0.0
 40
0.0625
  0
CIRCLE
  5
8E78
330
1F
100
AcDbEntity
  8
CONTINUOUS1
100
AcDbCircle
 10
24.43870118817443
 20
19.55580483759886
 30
0.0
 40
0.0625
  0
CIRCLE
  5
8E79
330
1F
100
AcDbEntity
  8
CONTINUOUS1
100
AcDbCircle
 10
21.00120152830564
 20
19.55580483759886
 30
0.0
 40
0.0625
  0
CIRCLE
  5
8E7A
330
1F
100
AcDbEntity
  8
CONTINUOUS1
100
AcDbCircle
 10
21.37620152830563
 20
19.55580483759886
 30
0.0
 40
0.0625
  0
CIRCLE
  5
8E7B
330
1F
100
AcDbEntity
  8
CONTINUOUS1
100
AcDbCircle
 10
21.75120152830563
 20
19.55580483759886
 30
0.0
 40
0.0625
  0
CIRCLE
  5
8E7C
330
1F
100
AcDbEntity
  8
CONTINUOUS1
100
AcDbCircle
 10
18.31370190798697
 20
19.55580483759887
 30
0.0
 40
0.0625
  0
CIRCLE
  5
8E7D
330
1F
100
AcDbEntity
  8
CONTINUOUS1
100
AcDbCircle
 10
18.68870190798697
 20
19.55580483759887
 30
0.0
 40
0.0625
  0
CIRCLE
  5
8E7E
330
1F
100
AcDbEntity
  8
CONTINUOUS1
100
AcDbCircle
 10
19.06370190798697
 20
19.55580483759887
 30
0.0
 40
0.0625
  0
CIRCLE
  5
8E7F
330
1F
100
AcDbEntity
  8
CONTINUOUS1
100
AcDbCircle
 10
23.71995118817443
 20
25.33705483759886
 30
0.0
 40
0.0625
  0
CIRCLE
  5
8E80
330
1F
100
AcDbEntity
  8
CONTINUOUS1
100
AcDbCircle
 10
24.09495118817443
 20
25.33705483759886
 30
0.0
 40
0.0625
  0
CIRCLE
  5
8E81
330
1F
100
AcDbEntity
  8
CONTINUOUS1
100
AcDbCircle
 10
24.40745118817443
 20
25.33705483759886
 30
0.0
 40
0.0625
  0
CIRCLE
  5
8E82
330
1F
100
AcDbEntity
  8
CONTINUOUS1
100
AcDbCircle
 10
24.40745118817443
 20
23.43155483759886
 30
0.0
 40
0.0625
  0
CIRCLE
  5
8E83
330
1F
100
AcDbEntity
  8
CONTINUOUS1
100
AcDbCircle
 10
24.09495118817443
 20
23.43155483759886
 30
0.0
 40
0.0625
  0
CIRCLE
  5
8E84
330
1F
100
AcDbEntity
  8
CONTINUOUS1
100
AcDbCircle
 10
23.71995118817443
 20
23.43155483759886
 30
0.0
 40
0.0625
  0
CIRCLE
  5
8E85
330
1F
100
AcDbEntity
  8
CONTINUOUS1
100
AcDbCircle
 10
21.03245118817443
 20
25.33705483759886
 30
0.0
 40
0.0625
  0
CIRCLE
  5
8E86
330
1F
100
AcDbEntity
  8
CONTINUOUS1
100
AcDbCircle
 10
21.40745118817443
 20
25.33705483759886
 30
0.0
 40
0.0625
  0
CIRCLE
  5
8E87
330
1F
100
AcDbEntity
  8
CONTINUOUS1
100
AcDbCircle
 10
21.71995118817443
 20
25.33705483759886
 30
0.0
 40
0.0625
  0
CIRCLE
  5
8E88
330
1F
100
AcDbEntity
  8
CONTINUOUS1
100
AcDbCircle
 10
21.71995118817443
 20
23.43155483759886
 30
0.0
 40
0.0625
  0
CIRCLE
  5
8E89
330
1F
100
AcDbEntity
  8
CONTINUOUS1
100
AcDbCircle
 10
21.40745118817443
 20
23.43155483759886
 30
0.0
 40
0.0625
  0
CIRCLE
  5
8E8A
330
1F
100
AcDbEntity
  8
CONTINUOUS1
100
AcDbCircle
 10
21.03245118817443
 20
23.43155483759886
 30
0.0
 40
0.0625
  0
CIRCLE
  5
8E8B
330
1F
100
AcDbEntity
  8
CONTINUOUS1
100
AcDbCircle
 10
18.34495118817443
 20
25.33705483759887
 30
0.0
 40
0.0625
  0
CIRCLE
  5
8E8C
330
1F
100
AcDbEntity
  8
CONTINUOUS1
100
AcDbCircle
 10
18.71995118817443
 20
25.33705483759887
 30
0.0
 40
0.0625
  0
CIRCLE
  5
8E8D
330
1F
100
AcDbEntity
  8
CONTINUOUS1
100
AcDbCircle
 10
19.03245118817443
 20
25.33705483759887
 30
0.0
 40
0.0625
  0
CIRCLE
  5
8E8E
330
1F
100
AcDbEntity
  8
CONTINUOUS1
100
AcDbCircle
 10
19.03245118817443
 20
23.43155483759886
 30
0.0
 40
0.0625
  0
CIRCLE
  5
8E8F
330
1F
100
AcDbEntity
  8
CONTINUOUS1
100
AcDbCircle
 10
18.71995118817443
 20
23.43155483759886
 30
0.0
 40
0.0625
  0
CIRCLE
  5
8E90
330
1F
100
AcDbEntity
  8
CONTINUOUS1
100
AcDbCircle
 10
18.34495118817443
 20
23.43155483759886
 30
0.0
 40
0.0625
  0
LINE
  5
8E91
330
1F
100
AcDbEntity
  8
CONTINUOUS1
100
AcDbLine
 10
16.7572080945914
 20
24.43155483759886
 30
0.0
 11
16.75720809459139
 21
23.05655483759886
 31
0.0
  0
ARC
  5
8E92
330
1F
100
AcDbEntity
  8
CONTINUOUS1
100
AcDbCircle
 10
19.6264083154919
 20
24.55655483759886
 30
0.0
 40
0.0624999999999998
100
AcDbArc
 50
90.0
 51
270.0
  0
ARC
  5
8E93
330
1F
100
AcDbEntity
  8
CONTINUOUS1
100
AcDbCircle
 10
22.31357546836187
 20
24.55655483759886
 30
0.0
 40
0.0624999999999992
100
AcDbArc
 50
90.0
 51
270.0
  0
LINE
  5
8E94
330
1F
100
AcDbEntity
  8
CONTINUOUS1
100
AcDbLine
 10
19.56357580849308
 20
22.99405483759886
 30
0.0
 11
19.56357580849308
 21
17.90105483759887
 31
0.0
  0
LINE
  5
8E95
330
1F
100
AcDbEntity
  8
CONTINUOUS1
100
AcDbLine
 10
22.25107546836187
 20
22.99405483759886
 30
0.0
 11
22.25107546836187
 21
17.90105483759886
 31
0.0
  0
LWPOLYLINE
  5
8E96
330
1F
100
AcDbEntity
  8
CONTINUOUS1
100
AcDbPolyline
 90
        8
 70
     1
 43
0.0
 10
22.17295047824941
 20
23.30655483759886
 10
22.17295047824941
 20
23.91555483759887
 42
-0.4142135623730951
 10
22.23545047824941
 20
23.97805483759886
 10
23.07845047824942
 20
23.97805483759886
 42
-0.4142135623730951
 10
23.14095047824941
 20
23.91555483759887
 10
23.14095047824941
 20
23.30655483759886
 42
-0.4142135623730919
 10
23.07845047824941
 20
23.24405483759886
 10
22.23545047824941
 20
23.24405483759886
 42
-0.4142135623730956
  0
LINE
  5
8E97
330
1F
100
AcDbEntity
  8
CONTINUOUS1
100
AcDbLine
 10
19.48545081838062
 20
22.99405483759886
 30
0.0
 11
19.48545081838062
 21
17.90105483759887
 31
0.0
  0
LWPOLYLINE
  5
8E98
330
1F
100
AcDbEntity
  8
CONTINUOUS1
100
AcDbPolyline
 90
        8
 70
     1
 43
0.0
 10
19.48545081838061
 20
23.30655483759886
 10
19.48545081838061
 20
23.91555483759887
 42
-0.4142135623730951
 10
19.54795081838061
 20
23.97805483759886
 10
20.39095081838062
 20
23.97805483759886
 42
-0.4142135623730951
 10
20.45345081838062
 20
23.91555483759887
 10
20.45345081838061
 20
23.30655483759886
 42
-0.4142135623730919
 10
20.39095081838061
 20
23.24405483759886
 10
19.54795081838061
 20
23.24405483759886
 42
-0.4142135623730956
  0
LWPOLYLINE
  5
8E99
330
1F
100
AcDbEntity
  8
CONTINUOUS1
100
AcDbPolyline
 90
        8
 70
     1
 43
0.0
 10
16.79795081838061
 20
23.30655483759886
 10
16.79795081838061
 20
23.91555483759887
 42
-0.4142135623730951
 10
16.86045081838061
 20
23.97805483759886
 10
17.70345081838062
 20
23.97805483759886
 42
-0.4142135623730951
 10
17.76595081838062
 20
23.91555483759887
 10
17.76595081838061
 20
23.30655483759887
 42
-0.4142135623730919
 10
17.70345081838061
 20
23.24405483759887
 10
16.86045081838061
 20
23.24405483759886
 42
-0.4142135623730956
  0
LINE
  5
8E9A
330
1F
100
AcDbEntity
  8
CONTINUOUS1
100
AcDbLine
 10
17.03257618817442
 20
26.49405483759887
 30
0.0
 11
17.97007618817443
 21
26.49405483759887
 31
0.0
  0
ARC
  5
8E9B
330
1F
100
AcDbEntity
  8
CONTINUOUS1
100
AcDbCircle
 10
17.95529571151643
 20
25.96115483759886
 30
0.0
 40
0.34375
100
AcDbArc
 50
87.5356506315096
 51
272.4643493684898
  0
LINE
  5
8E9C
330
1F
100
AcDbEntity
  8
CONTINUOUS1
100
AcDbLine
 10
17.97007618817442
 20
25.61772274822782
 30
0.0
 11
17.97007618817442
 21
25.30655483759886
 31
0.0
  0
CIRCLE
  5
8E9D
330
1F
100
AcDbEntity
  8
CONTINUOUS1
100
AcDbCircle
 10
17.28257618817442
 20
26.24405483759886
 30
0.0
 40
0.25
  0
LWPOLYLINE
  5
8E9E
330
1F
100
AcDbEntity
  8
CONTINUOUS1
100
AcDbPolyline
 90
        6
 70
     1
 43
0.0
 10
17.1562808167892
 20
26.02530483759887
 10
17.02998544540396
 20
26.24405483759886
 10
17.1562808167892
 20
26.46280483759886
 10
17.40887155955966
 20
26.46280483759886
 10
17.53516693094489
 20
26.24405483759886
 10
17.40887155955966
 20
26.02530483759887
  0
CIRCLE
  5
8E9F
330
1F
100
AcDbEntity
  8
CONTINUOUS1
100
AcDbCircle
 10
17.28257618817442
 20
26.24405483759886
 30
0.0
 40
0.125
  0
CIRCLE
  5
8EA0
330
1F
100
AcDbEntity
  8
CONTINUOUS1
100
AcDbCircle
 10
19.97007618817442
 20
26.24405483759886
 30
0.0
 40
0.25
  0
CIRCLE
  5
8EA1
330
1F
100
AcDbEntity
  8
CONTINUOUS1
100
AcDbCircle
 10
19.97007618817442
 20
26.24405483759886
 30
0.0
 40
0.125
  0
LWPOLYLINE
  5
8EA2
330
1F
100
AcDbEntity
  8
CONTINUOUS1
100
AcDbPolyline
 90
        6
 70
     1
 43
0.0
 10
19.8437808167892
 20
26.02530483759887
 10
19.71748544540396
 20
26.24405483759886
 10
19.8437808167892
 20
26.46280483759886
 10
20.09637155955966
 20
26.46280483759886
 10
20.22266693094489
 20
26.24405483759886
 10
20.09637155955966
 20
26.02530483759887
  0
LINE
  5
8EA3
330
1F
100
AcDbEntity
  8
CONTINUOUS1
100
AcDbLine
 10
19.72007618817442
 20
26.49405483759887
 30
0.0
 11
20.65757618817443
 21
26.49405483759887
 31
0.0
  0
LINE
  5
8EA4
330
1F
100
AcDbEntity
  8
CONTINUOUS1
100
AcDbLine
 10
19.72007618817442
 20
26.49405483759887
 30
0.0
 11
19.72007618817442
 21
25.36905483759886
 31
0.0
  0
ARC
  5
8EA5
330
1F
100
AcDbEntity
  8
CONTINUOUS1
100
AcDbCircle
 10
20.64279571151643
 20
25.96115483759886
 30
0.0
 40
0.34375
100
AcDbArc
 50
87.5356506315096
 51
272.4643493684898
  0
LINE
  5
8EA6
330
1F
100
AcDbEntity
  8
CONTINUOUS1
100
AcDbLine
 10
20.65757618817443
 20
26.49405483759887
 30
0.0
 11
20.65757618817443
 21
26.30458692696991
 31
0.0
  0
CIRCLE
  5
8EA7
330
1F
100
AcDbEntity
  8
CONTINUOUS1
100
AcDbCircle
 10
22.65757618817442
 20
26.24405483759886
 30
0.0
 40
0.25
  0
CIRCLE
  5
8EA8
330
1F
100
AcDbEntity
  8
CONTINUOUS1
100
AcDbCircle
 10
22.65757618817442
 20
26.24405483759886
 30
0.0
 40
0.125
  0
LWPOLYLINE
  5
8EA9
330
1F
100
AcDbEntity
  8
CONTINUOUS1
100
AcDbPolyline
 90
        6
 70
     1
 43
0.0
 10
22.5312808167892
 20
26.02530483759887
 10
22.40498544540396
 20
26.24405483759886
 10
22.5312808167892
 20
26.46280483759886
 10
22.78387155955966
 20
26.46280483759886
 10
22.91016693094489
 20
26.24405483759886
 10
22.78387155955966
 20
26.02530483759887
  0
LINE
  5
8EAA
330
1F
100
AcDbEntity
  8
CONTINUOUS1
100
AcDbLine
 10
22.40757618817442
 20
26.49405483759887
 30
0.0
 11
23.34507618817443
 21
26.49405483759887
 31
0.0
  0
LINE
  5
8EAB
330
1F
100
AcDbEntity
  8
CONTINUOUS1
100
AcDbLine
 10
22.40757618817442
 20
26.49405483759887
 30
0.0
 11
22.40757618817442
 21
25.36905483759886
 31
0.0
  0
ARC
  5
8EAC
330
1F
100
AcDbEntity
  8
HIDDEN1
100
AcDbCircle
 10
23.33029571151643
 20
25.96115483759886
 30
0.0
 40
0.34375
100
AcDbArc
 50
87.5356506315096
 51
272.4643493684898
  0
LINE
  5
8EAD
330
1F
100
AcDbEntity
  8
CONTINUOUS1
100
AcDbLine
 10
23.34507618817443
 20
26.49405483759887
 30
0.0
 11
23.34507618817443
 21
26.30458692696991
 31
0.0
  0
LINE
  5
8EAE
330
1F
100
AcDbEntity
  8
PHANTOM1
100
AcDbLine
 10
24.75107618817443
 20
29.36905483759886
 30
0.0
 11
24.75107618817443
 21
25.24405483759887
 31
0.0
  0
LINE
  5
8EAF
330
1F
100
AcDbEntity
  8
PHANTOM1
100
AcDbLine
 10
16.56357618817442
 20
29.36905483759886
 30
0.0
 11
16.56357618817442
 21
25.24405483759887
 31
0.0
  0
LINE
  5
8EB0
330
1F
100
AcDbEntity
  8
CONTINUOUS2
100
AcDbLine
 10
16.56357618817443
 20
28.21205483759883
 30
0.0
 11
18.15732690798697
 21
28.21205483759883
 31
0.0
  0
LINE
  5
8EB1
330
1F
100
AcDbEntity
  8
CONTINUOUS2
100
AcDbLine
 10
24.53232618817442
 20
28.21205483759883
 30
0.0
 11
24.75107618817443
 21
28.21205483759883
 31
0.0
  0
LINE
  5
8EB2
330
1F
100
AcDbEntity
  8
CONTINUOUS2
100
AcDbLine
 10
21.84482652830563
 20
28.21205483759883
 30
0.0
 11
23.53232618817442
 21
28.21205483759883
 31
0.0
  0
LINE
  5
8EB3
330
1F
100
AcDbEntity
  8
CONTINUOUS2
100
AcDbLine
 10
19.15732690798697
 20
28.21205483759883
 30
0.0
 11
20.84482652830563
 21
28.21205483759883
 31
0.0
  0
LINE
  5
8EB4
330
1F
100
AcDbEntity
  8
CONTINUOUS1
100
AcDbLine
 10
23.53232618817442
 20
27.07142983759886
 30
0.0
 11
23.53232618817442
 21
26.33705483759883
 31
0.0
  0
LINE
  5
8EB5
330
1F
100
AcDbEntity
  8
CONTINUOUS1
100
AcDbLine
 10
24.53232618817442
 20
27.07142983759886
 30
0.0
 11
24.53232618817442
 21
26.33705483759883
 31
0.0
  0
LINE
  5
8EB6
330
1F
100
AcDbEntity
  8
CONTINUOUS1
100
AcDbLine
 10
24.34482618817442
 20
26.33705483759883
 30
0.0
 11
24.34482618817442
 21
25.49405483759886
 31
0.0
  0
LINE
  5
8EB7
330
1F
100
AcDbEntity
  8
CONTINUOUS1
100
AcDbLine
 10
23.65732618817443
 20
26.33705483759883
 30
0.0
 11
23.65732618817443
 21
25.49405483759886
 31
0.0
  0
CIRCLE
  5
8EB8
330
1F
100
AcDbEntity
  8
CONTINUOUS1
100
AcDbCircle
 10
23.33029571151643
 20
25.96115483759886
 30
0.0
 40
0.28125
  0
CIRCLE
  5
8EB9
330
1F
100
AcDbEntity
  8
CONTINUOUS1
100
AcDbCircle
 10
17.95529571151643
 20
25.96115483759886
 30
0.0
 40
0.28125
  0
LINE
  5
8EBA
330
1F
100
AcDbEntity
  8
CONTINUOUS1
100
AcDbLine
 10
24.34482618817442
 20
26.33705483759883
 30
0.0
 11
24.53232618817442
 21
26.33705483759883
 31
0.0
  0
LINE
  5
8EBB
330
1F
100
AcDbEntity
  8
CONTINUOUS1
100
AcDbLine
 10
23.53232618817442
 20
26.33705483759883
 30
0.0
 11
23.65732618817443
 21
26.33705483759883
 31
0.0
  0
LWPOLYLINE
  5
8EBC
330
1F
100
AcDbEntity
  8
CONTINUOUS1
100
AcDbPolyline
 90
        2
 70
     0
 43
0.0
 10
23.53232618817442
 20
26.91517983759886
 10
24.53232618817442
 20
26.91517983759886
  0
ARC
  5
8EBD
330
1F
100
AcDbEntity
  8
CONTINUOUS1
100
AcDbCircle
 10
24.00107618817442
 20
25.71205483759883
 30
0.0
 40
0.25
100
AcDbArc
 50
299.3081092355375
 51
240.6918907644625
  0
CIRCLE
  5
8EBE
330
1F
100
AcDbEntity
  8
CONTINUOUS1
100
AcDbCircle
 10
24.00107618817442
 20
25.71205483759883
 30
0.0
 40
0.125
  0
LWPOLYLINE
  5
8EBF
330
1F
100
AcDbEntity
  8
CONTINUOUS1
100
AcDbPolyline
 90
        6
 70
     0
 43
0.0
 10
23.87434780408729
 20
25.49405483759886
 10
23.74848544540396
 20
25.71205483759883
 10
23.8747808167892
 20
25.93080483759883
 10
24.12737155955966
 20
25.93080483759883
 10
24.25366693094489
 20
25.71205483759883
 10
24.12780457226156
 20
25.49405483759886
  0
ARC
  5
8EC0
330
1F
100
AcDbEntity
  8
CONTINUOUS1
100
AcDbCircle
 10
21.31357652830563
 20
25.71205483759883
 30
0.0
 40
0.25
100
AcDbArc
 50
299.3081092355375
 51
240.6918907644625
  0
LWPOLYLINE
  5
8EC1
330
1F
100
AcDbEntity
  8
CONTINUOUS1
100
AcDbPolyline
 90
        6
 70
     0
 43
0.0
 10
21.1868481442185
 20
25.49405483759886
 10
21.06098578553517
 20
25.71205483759883
 10
21.18728115692041
 20
25.93080483759883
 10
21.43987189969086
 20
25.93080483759883
 10
21.5661672710761
 20
25.71205483759883
 10
21.44030491239277
 20
25.49405483759886
  0
CIRCLE
  5
8EC2
330
1F
100
AcDbEntity
  8
CONTINUOUS1
100
AcDbCircle
 10
21.31357652830563
 20
25.71205483759883
 30
0.0
 40
0.125
  0
LINE
  5
8EC3
330
1F
100
AcDbEntity
  8
CONTINUOUS1
100
AcDbLine
 10
21.65732652830563
 20
26.33705483759883
 30
0.0
 11
21.65732652830563
 21
25.49405483759886
 31
0.0
  0
LINE
  5
8EC4
330
1F
100
AcDbEntity
  8
CONTINUOUS1
100
AcDbLine
 10
21.65732652830563
 20
26.33705483759883
 30
0.0
 11
21.84482652830563
 21
26.33705483759883
 31
0.0
  0
LINE
  5
8EC5
330
1F
100
AcDbEntity
  8
CONTINUOUS1
100
AcDbLine
 10
21.84482652830563
 20
27.07142983759886
 30
0.0
 11
21.84482652830563
 21
26.33705483759883
 31
0.0
  0
LWPOLYLINE
  5
8EC6
330
1F
100
AcDbEntity
  8
CONTINUOUS1
100
AcDbPolyline
 90
        2
 70
     0
 43
0.0
 10
20.84482652830563
 20
26.91517983759886
 10
21.84482652830563
 20
26.91517983759886
  0
LINE
  5
8EC7
330
1F
100
AcDbEntity
  8
CONTINUOUS1
100
AcDbLine
 10
20.96982652830563
 20
26.33705483759883
 30
0.0
 11
20.96982652830563
 21
25.49405483759886
 31
0.0
  0
LINE
  5
8EC8
330
1F
100
AcDbEntity
  8
CONTINUOUS1
100
AcDbLine
 10
20.84482652830563
 20
26.33705483759883
 30
0.0
 11
20.96982652830563
 21
26.33705483759883
 31
0.0
  0
LINE
  5
8EC9
330
1F
100
AcDbEntity
  8
CONTINUOUS1
100
AcDbLine
 10
20.84482652830563
 20
27.07142983759886
 30
0.0
 11
20.84482652830563
 21
26.33705483759883
 31
0.0
  0
ARC
  5
8ECA
330
1F
100
AcDbEntity
  8
CONTINUOUS1
100
AcDbCircle
 10
18.62607690798697
 20
25.71205483759883
 30
0.0
 40
0.25
100
AcDbArc
 50
299.3081092355375
 51
240.6918907644625
  0
LWPOLYLINE
  5
8ECB
330
1F
100
AcDbEntity
  8
CONTINUOUS1
100
AcDbPolyline
 90
        6
 70
     0
 43
0.0
 10
18.49934852389984
 20
25.49405483759886
 10
18.37348616521651
 20
25.71205483759883
 10
18.49978153660174
 20
25.93080483759883
 10
18.7523722793722
 20
25.93080483759883
 10
18.87866765075743
 20
25.71205483759883
 10
18.75280529207411
 20
25.49405483759886
  0
CIRCLE
  5
8ECC
330
1F
100
AcDbEntity
  8
CONTINUOUS1
100
AcDbCircle
 10
18.62607690798697
 20
25.71205483759883
 30
0.0
 40
0.125
  0
LINE
  5
8ECD
330
1F
100
AcDbEntity
  8
CONTINUOUS1
100
AcDbLine
 10
18.96982690798697
 20
26.33705483759883
 30
0.0
 11
18.96982690798697
 21
25.49405483759886
 31
0.0
  0
LINE
  5
8ECE
330
1F
100
AcDbEntity
  8
CONTINUOUS1
100
AcDbLine
 10
18.96982690798697
 20
26.33705483759883
 30
0.0
 11
19.15732690798697
 21
26.33705483759883
 31
0.0
  0
LINE
  5
8ECF
330
1F
100
AcDbEntity
  8
CONTINUOUS1
100
AcDbLine
 10
19.15732690798697
 20
27.07142983759886
 30
0.0
 11
19.15732690798697
 21
26.33705483759883
 31
0.0
  0
LWPOLYLINE
  5
8ED0
330
1F
100
AcDbEntity
  8
CONTINUOUS1
100
AcDbPolyline
 90
        2
 70
     0
 43
0.0
 10
18.15732690798697
 20
26.91517983759886
 10
19.15732690798697
 20
26.91517983759886
  0
LINE
  5
8ED1
330
1F
100
AcDbEntity
  8
CONTINUOUS1
100
AcDbLine
 10
18.28232690798697
 20
26.33705483759883
 30
0.0
 11
18.28232690798697
 21
25.49405483759886
 31
0.0
  0
LINE
  5
8ED2
330
1F
100
AcDbEntity
  8
CONTINUOUS1
100
AcDbLine
 10
18.15732690798697
 20
26.33705483759883
 30
0.0
 11
18.28232690798697
 21
26.33705483759883
 31
0.0
  0
LINE
  5
8ED3
330
1F
100
AcDbEntity
  8
CONTINUOUS1
100
AcDbLine
 10
18.15732690798697
 20
27.07142983759886
 30
0.0
 11
18.15732690798697
 21
26.33705483759883
 31
0.0
  0
LINE
  5
8ED4
330
1F
100
AcDbEntity
  8
CONTINUOUS1
100
AcDbLine
 10
16.75107618817443
 20
28.21205483759883
 30
0.0
 11
16.75107618817443
 21
26.71205483759887
 31
0.0
  0
LINE
  5
8ED5
330
1F
100
AcDbEntity
  8
CONTINUOUS1
100
AcDbLine
 10
24.75107618817443
 20
28.21205483759883
 30
0.0
 11
24.75107618817443
 21
17.90105483759886
 31
0.0
  0
LINE
  5
8ED6
330
1F
100
AcDbEntity
  8
CONTINUOUS1
100
AcDbLine
 10
16.56357618817443
 20
28.21205483759883
 30
0.0
 11
16.56357618817442
 21
17.90105483759887
 31
0.0
  0
LINE
  5
8ED7
330
1F
100
AcDbEntity
  8
CONTINUOUS1
100
AcDbLine
 10
24.59482618817443
 20
17.90105483759886
 30
0.0
 11
24.75107618817443
 21
17.90105483759886
 31
0.0
  0
LINE
  5
8ED8
330
1F
100
AcDbEntity
  8
CONTINUOUS1
100
AcDbLine
 10
24.59482618817443
 20
19.71280483759886
 30
0.0
 11
24.59482618817443
 21
17.33780483759886
 31
0.0
  0
CIRCLE
  5
8ED9
330
1F
100
AcDbEntity
  8
CONTINUOUS1
100
AcDbCircle
 10
24.43870118817443
 20
17.46280483759886
 30
0.0
 40
0.0625
  0
LINE
  5
8EDA
330
1F
100
AcDbEntity
  8
CONTINUOUS1
100
AcDbLine
 10
23.51682618817443
 20
17.33780483759886
 30
0.0
 11
24.59482618817443
 21
17.33780483759886
 31
0.0
  0
LINE
  5
8EDB
330
1F
100
AcDbEntity
  8
CONTINUOUS1
100
AcDbLine
 10
23.51682618817443
 20
17.71280483759886
 30
0.0
 11
23.51682618817443
 21
17.33780483759886
 31
0.0
  0
ARC
  5
8EDC
330
1F
100
AcDbEntity
  8
CONTINUOUS1
100
AcDbCircle
 10
23.51682618817443
 20
17.77530483759886
 30
0.0
 40
0.0625000000000003
100
AcDbArc
 50
270.0000000000065
 51
89.99999999999674
  0
LINE
  5
8EDD
330
1F
100
AcDbEntity
  8
CONTINUOUS1
100
AcDbLine
 10
23.31357618817442
 20
17.83780483759886
 30
0.0
 11
23.51682618817443
 21
17.83780483759886
 31
0.0
  0
LWPOLYLINE
  5
8EDE
330
1F
100
AcDbEntity
  8
CONTINUOUS1
100
AcDbPolyline
 90
        4
 70
     1
 43
0.0
 10
22.31357618817442
 20
17.18158197581992
 10
22.31357618817442
 20
19.18158197581992
 10
23.31357618817442
 20
19.18158197581992
 10
23.31357618817442
 20
17.18158197581992
  0
LINE
  5
8EDF
330
1F
100
AcDbEntity
  8
CONTINUOUS1
100
AcDbLine
 10
22.17295047824941
 20
22.99405483759886
 30
0.0
 11
22.17295047824941
 21
17.90105483759886
 31
0.0
  0
LINE
  5
8EE0
330
1F
100
AcDbEntity
  8
CONTINUOUS1
100
AcDbLine
 10
21.90732652830563
 20
17.90105483759886
 30
0.0
 11
22.31357618817442
 21
17.90105483759886
 31
0.0
  0
LINE
  5
8EE1
330
1F
100
AcDbEntity
  8
CONTINUOUS1
100
AcDbLine
 10
21.90732652830563
 20
19.71280483759886
 30
0.0
 11
21.90732652830563
 21
17.33780483759886
 31
0.0
  0
LINE
  5
8EE2
330
1F
100
AcDbEntity
  8
CONTINUOUS1
100
AcDbLine
 10
20.23545152830563
 20
17.87102503289776
 30
0.0
 11
20.34482652830563
 21
17.68158197581992
 31
0.0
  0
LINE
  5
8EE3
330
1F
100
AcDbEntity
  8
CONTINUOUS1
100
AcDbLine
 10
20.34482652830563
 20
17.68158197581992
 30
0.0
 11
20.23545152830563
 21
17.49213891874207
 31
0.0
  0
CIRCLE
  5
8EE4
330
1F
100
AcDbEntity
  8
HIDDEN1
100
AcDbCircle
 10
20.12607652830563
 20
17.68158197581992
 30
0.0
 40
0.28125
  0
CIRCLE
  5
8EE5
330
1F
100
AcDbEntity
  8
HIDDEN1
100
AcDbCircle
 10
20.12607652830563
 20
17.68158197581992
 30
0.0
 40
0.24875
  0
LINE
  5
8EE6
330
1F
100
AcDbEntity
  8
CONTINUOUS1
100
AcDbLine
 10
17.32920190798697
 20
17.49213891874207
 30
0.0
 11
17.21982690798697
 21
17.68158197581992
 31
0.0
  0
CIRCLE
  5
8EE7
330
1F
100
AcDbEntity
  8
HIDDEN1
100
AcDbCircle
 10
17.43857690798697
 20
17.68158197581992
 30
0.0
 40
0.28125
  0
CIRCLE
  5
8EE8
330
1F
100
AcDbEntity
  8
HIDDEN1
100
AcDbCircle
 10
17.43857690798697
 20
17.68158197581992
 30
0.0
 40
0.24875
  0
LINE
  5
8EE9
330
1F
100
AcDbEntity
  8
CONTINUOUS1
100
AcDbLine
 10
17.65732690798697
 20
17.68158197581992
 30
0.0
 11
17.54795190798697
 21
17.49213891874207
 31
0.0
  0
LINE
  5
8EEA
330
1F
100
AcDbEntity
  8
CONTINUOUS1
100
AcDbLine
 10
20.01670152830563
 20
17.49213891874207
 30
0.0
 11
19.90732652830563
 21
17.68158197581992
 31
0.0
  0
CIRCLE
  5
8EEB
330
1F
100
AcDbEntity
  8
CONTINUOUS1
100
AcDbCircle
 10
19.06370190798697
 20
17.46280483759886
 30
0.0
 40
0.0625
  0
CIRCLE
  5
8EEC
330
1F
100
AcDbEntity
  8
CONTINUOUS1
100
AcDbCircle
 10
18.68870190798697
 20
17.46280483759886
 30
0.0
 40
0.0625
  0
LINE
  5
8EED
330
1F
100
AcDbEntity
  8
CONTINUOUS1
100
AcDbLine
 10
18.14182690798697
 20
17.71280483759886
 30
0.0
 11
18.14182690798697
 21
17.33780483759886
 31
0.0
  0
CIRCLE
  5
8EEE
330
1F
100
AcDbEntity
  8
CONTINUOUS1
100
AcDbCircle
 10
18.31370190798697
 20
17.46280483759886
 30
0.0
 40
0.0625
  0
LINE
  5
8EEF
330
1F
100
AcDbEntity
  8
CONTINUOUS1
100
AcDbLine
 10
18.14182690798697
 20
17.33780483759886
 30
0.0
 11
19.21982690798697
 21
17.33780483759886
 31
0.0
  0
LINE
  5
8EF0
330
1F
100
AcDbEntity
  8
CONTINUOUS1
100
AcDbLine
 10
17.54795190798697
 20
17.49213891874207
 30
0.0
 11
17.32920190798697
 21
17.49213891874207
 31
0.0
  0
LINE
  5
8EF1
330
1F
100
AcDbEntity
  8
CONTINUOUS1
100
AcDbLine
 10
20.23545152830563
 20
17.49213891874207
 30
0.0
 11
20.01670152830563
 21
17.49213891874207
 31
0.0
  0
LINE
  5
8EF2
330
1F
100
AcDbEntity
  8
CONTINUOUS1
100
AcDbLine
 10
17.21982690798697
 20
17.68158197581992
 30
0.0
 11
17.32920190798697
 21
17.87102503289776
 31
0.0
  0
LINE
  5
8EF3
330
1F
100
AcDbEntity
  8
CONTINUOUS1
100
AcDbLine
 10
16.56357618817442
 20
17.90105483759887
 30
0.0
 11
16.93857690798697
 21
17.90105483759887
 31
0.0
  0
LINE
  5
8EF4
330
1F
100
AcDbEntity
  8
CONTINUOUS1
100
AcDbLine
 10
17.54795190798697
 20
17.87102503289776
 30
0.0
 11
17.65732690798697
 21
17.68158197581992
 31
0.0
  0
LINE
  5
8EF5
330
1F
100
AcDbEntity
  8
CONTINUOUS1
100
AcDbLine
 10
17.32920190798697
 20
17.87102503289776
 30
0.0
 11
17.54795190798697
 21
17.87102503289776
 31
0.0
  0
LINE
  5
8EF6
330
1F
100
AcDbEntity
  8
CONTINUOUS1
100
AcDbLine
 10
17.93857690798697
 20
17.83780483759886
 30
0.0
 11
18.14182690798697
 21
17.83780483759886
 31
0.0
  0
ARC
  5
8EF7
330
1F
100
AcDbEntity
  8
CONTINUOUS1
100
AcDbCircle
 10
18.14182690798697
 20
17.77530483759886
 30
0.0
 40
0.0625000000000003
100
AcDbArc
 50
270.0000000000065
 51
89.99999999999674
  0
LINE
  5
8EF8
330
1F
100
AcDbEntity
  8
CONTINUOUS1
100
AcDbLine
 10
19.21982690798697
 20
17.90105483759887
 30
0.0
 11
19.62607652830563
 21
17.90105483759887
 31
0.0
  0
LINE
  5
8EF9
330
1F
100
AcDbEntity
  8
CONTINUOUS1
100
AcDbLine
 10
19.90732652830563
 20
17.68158197581992
 30
0.0
 11
20.01670152830563
 21
17.87102503289776
 31
0.0
  0
LINE
  5
8EFA
330
1F
100
AcDbEntity
  8
CONTINUOUS1
100
AcDbLine
 10
20.01670152830563
 20
17.87102503289776
 30
0.0
 11
20.23545152830563
 21
17.87102503289776
 31
0.0
  0
CIRCLE
  5
8EFB
330
1F
100
AcDbEntity
  8
HIDDEN1
100
AcDbCircle
 10
22.81357618817442
 20
17.68158197581992
 30
0.0
 40
0.28125
  0
CIRCLE
  5
8EFC
330
1F
100
AcDbEntity
  8
HIDDEN1
100
AcDbCircle
 10
22.81357618817442
 20
17.68158197581992
 30
0.0
 40
0.24875
  0
LINE
  5
8EFD
330
1F
100
AcDbEntity
  8
CONTINUOUS1
100
AcDbLine
 10
22.70420118817442
 20
17.49213891874207
 30
0.0
 11
22.59482618817442
 21
17.68158197581992
 31
0.0
  0
LINE
  5
8EFE
330
1F
100
AcDbEntity
  8
CONTINUOUS1
100
AcDbLine
 10
23.03232618817442
 20
17.68158197581992
 30
0.0
 11
22.92295118817442
 21
17.49213891874207
 31
0.0
  0
CIRCLE
  5
8EFF
330
1F
100
AcDbEntity
  8
CONTINUOUS1
100
AcDbCircle
 10
24.06370118817443
 20
17.46280483759886
 30
0.0
 40
0.0625
  0
CIRCLE
  5
8F00
330
1F
100
AcDbEntity
  8
CONTINUOUS1
100
AcDbCircle
 10
23.68870118817443
 20
17.46280483759886
 30
0.0
 40
0.0625
  0
CIRCLE
  5
8F01
330
1F
100
AcDbEntity
  8
CONTINUOUS1
100
AcDbCircle
 10
21.37620152830563
 20
17.46280483759886
 30
0.0
 40
0.0625
  0
CIRCLE
  5
8F02
330
1F
100
AcDbEntity
  8
CONTINUOUS1
100
AcDbCircle
 10
21.75120152830563
 20
17.46280483759886
 30
0.0
 40
0.0625
  0
CIRCLE
  5
8F03
330
1F
100
AcDbEntity
  8
CONTINUOUS1
100
AcDbCircle
 10
21.00120152830564
 20
17.46280483759886
 30
0.0
 40
0.0625
  0
LINE
  5
8F04
330
1F
100
AcDbEntity
  8
CONTINUOUS1
100
AcDbLine
 10
20.82932652830563
 20
17.71280483759886
 30
0.0
 11
20.82932652830563
 21
17.33780483759886
 31
0.0
  0
LINE
  5
8F05
330
1F
100
AcDbEntity
  8
CONTINUOUS1
100
AcDbLine
 10
20.82932652830563
 20
17.33780483759886
 30
0.0
 11
21.90732652830563
 21
17.33780483759886
 31
0.0
  0
LINE
  5
8F06
330
1F
100
AcDbEntity
  8
CONTINUOUS1
100
AcDbLine
 10
22.92295118817442
 20
17.49213891874207
 30
0.0
 11
22.70420118817442
 21
17.49213891874207
 31
0.0
  0
LINE
  5
8F07
330
1F
100
AcDbEntity
  8
CONTINUOUS1
100
AcDbLine
 10
20.62607652830563
 20
17.83780483759886
 30
0.0
 11
20.82932652830563
 21
17.83780483759886
 31
0.0
  0
ARC
  5
8F08
330
1F
100
AcDbEntity
  8
CONTINUOUS1
100
AcDbCircle
 10
20.82932652830563
 20
17.77530483759886
 30
0.0
 40
0.0625000000000003
100
AcDbArc
 50
270.0000000000065
 51
89.99999999999674
  0
LINE
  5
8F09
330
1F
100
AcDbEntity
  8
CONTINUOUS1
100
AcDbLine
 10
22.70420118817442
 20
17.87102503289776
 30
0.0
 11
22.92295118817442
 21
17.87102503289776
 31
0.0
  0
LINE
  5
8F0A
330
1F
100
AcDbEntity
  8
CONTINUOUS1
100
AcDbLine
 10
22.59482618817442
 20
17.68158197581992
 30
0.0
 11
22.70420118817442
 21
17.87102503289776
 31
0.0
  0
LINE
  5
8F0B
330
1F
100
AcDbEntity
  8
CONTINUOUS1
100
AcDbLine
 10
22.92295118817442
 20
17.87102503289776
 30
0.0
 11
23.03232618817442
 21
17.68158197581992
 31
0.0
  0
LWPOLYLINE
  5
8F0C
330
1F
100
AcDbEntity
  8
CONTINUOUS1
100
AcDbPolyline
 90
        4
 70
     1
 43
0.0
 10
19.62607652830563
 20
17.18158197581992
 10
19.62607652830563
 20
19.18158197581992
 10
20.62607652830563
 20
19.18158197581992
 10
20.62607652830563
 20
17.18158197581992
  0
LINE
  5
8F0D
330
1F
100
AcDbEntity
  8
CONTINUOUS1
100
AcDbLine
 10
19.21982690798697
 20
19.71280483759886
 30
0.0
 11
19.21982690798697
 21
17.33780483759886
 31
0.0
  0
LWPOLYLINE
  5
8F0E
330
1F
100
AcDbEntity
  8
CONTINUOUS1
100
AcDbPolyline
 90
        4
 70
     1
 43
0.0
 10
16.93857690798697
 20
17.18158197581992
 10
16.93857690798697
 20
19.18158197581992
 10
17.93857690798697
 20
19.18158197581992
 10
17.93857690798697
 20
17.18158197581992
  0
LWPOLYLINE
  5
8F0F
330
1F
100
AcDbEntity
  8
CONTINUOUS2
100
AcDbPolyline
 90
        3
 70
     0
 43
0.0
 10
23.31357618817442
 20
17.83780483759886
 10
23.31357618817442
 20
17.18158197581992
 10
22.31357618817442
 20
17.18158197581992
  0
LWPOLYLINE
  5
8F10
330
1F
100
AcDbEntity
  8
CONTINUOUS2
100
AcDbPolyline
 90
        2
 70
     0
 43
0.0
 10
22.31357618817442
 20
17.18158197581992
 10
22.31357618817442
 20
17.90105483759886
  0
LWPOLYLINE
  5
8F11
330
1F
100
AcDbEntity
  8
CONTINUOUS2
100
AcDbPolyline
 90
        3
 70
     0
 43
0.0
 10
20.62607652830563
 20
17.83780483759886
 10
20.62607652830563
 20
17.18158197581992
 10
19.62607652830563
 20
17.18158197581992
  0
LWPOLYLINE
  5
8F12
330
1F
100
AcDbEntity
  8
CONTINUOUS2
100
AcDbPolyline
 90
        2
 70
     0
 43
0.0
 10
19.62607652830563
 20
17.18158197581992
 10
19.62607652830563
 20
17.90105483759887
  0
LWPOLYLINE
  5
8F13
330
1F
100
AcDbEntity
  8
CONTINUOUS2
100
AcDbPolyline
 90
        3
 70
     0
 43
0.0
 10
17.93857690798697
 20
17.83780483759886
 10
17.93857690798697
 20
17.18158197581992
 10
16.93857690798697
 20
17.18158197581992
  0
LWPOLYLINE
  5
8F14
330
1F
100
AcDbEntity
  8
CONTINUOUS2
100
AcDbPolyline
 90
        2
 70
     0
 43
0.0
 10
16.93857690798697
 20
17.18158197581992
 10
16.93857690798697
 20
17.90105483759887
  0
LINE
  5
8F15
330
1F
100
AcDbEntity
  8
HIDDEN1
100
AcDbLine
 10
13.21591993817442
 20
37.34603480106901
 30
0.0
 11
28.09873243817442
 21
37.34603480106901
 31
0.0
  0
TEXT
  5
8F16
330
1F
100
AcDbEntity
  8
TEXT1
100
AcDbText
 10
14.48937380722445
 20
37.47460622964038
 30
0.0
 40
0.3999999999998438
  1
Electrical Clearance/Wire Bending Space
  7
SIMPLEX
 72
     4
 11
20.67032618817442
 21
37.64603480106889
 31
0.0
100
AcDbText
  0
SOLID
  5
8F17
330
1F
100
AcDbEntity
  8
DIM
100
AcDbTrace
 10
20.56732618817442
 20
36.80603480106901
 30
0.0
 11
20.74732618817443
 21
36.80603480106901
 31
0.0
 12
20.65732618817442
 22
37.34603480106901
 32
0.0
 13
20.65732618817442
 23
37.34603480106901
 33
0.0
  0
LINE
  5
8F18
330
1F
100
AcDbEntity
  8
DIM
100
AcDbLine
 10
20.05000615165551
 20
35.58630235244626
 30
0.0
 11
20.46982618817442
 21
35.32947230106901
 31
0.0
  0
LINE
  5
8F19
330
1F
100
AcDbEntity
  8
DIM
100
AcDbLine
 10
20.05000615165551
 20
35.30505235244627
 30
0.0
 11
20.46982618817442
 21
35.04822230106901
 31
0.0
  0
TEXT
  5
8F1A
330
1F
100
AcDbEntity
  8
DIM
  6
BYBLOCK
100
AcDbText
 10
19.99065952150775
 20
34.03165980106901
 30
0.0
 40
0.4
  1
8.50
  7
ROMANS
 72
     4
 11
20.65732618817442
 21
34.23165980106901
 31
0.0
100
AcDbText
  0
LINE
  5
8F1B
330
1F
100
AcDbEntity
  8
DIM
100
AcDbLine
 10
20.65732618817442
 20
29.90905483759886
 30
0.0
 11
20.65732618817442
 21
33.1050019533102
 31
0.0
  0
SOLID
  5
8F1C
330
1F
100
AcDbEntity
  8
DIM
100
AcDbTrace
 10
20.56732618817442
 20
29.90905483759886
 30
0.0
 11
20.74732618817443
 21
29.90905483759886
 31
0.0
 12
20.65732618817442
 22
29.36905483759886
 32
0.0
 13
20.65732618817442
 23
29.36905483759886
 33
0.0
  0
LINE
  5
8F1D
330
1F
100
AcDbEntity
  8
DIM
100
AcDbLine
 10
20.65732618817442
 20
36.80603480106901
 30
0.0
 11
20.65732618817442
 21
35.43496623130165
 31
0.0
  0
LINE
  5
8F1E
330
1F
100
AcDbEntity
  8
DIM
100
AcDbLine
 10
20.8646918839584
 20
35.55163728326795
 30
0.0
 11
21.26464622469334
 21
35.34424349028472
 31
0.0
  0
LINE
  5
8F1F
330
1F
100
AcDbEntity
  8
DIM
100
AcDbLine
 10
20.46982618817442
 20
35.32947230106901
 30
0.0
 11
20.8646918839584
 21
35.55163728326795
 31
0.0
  0
LINE
  5
8F20
330
1F
100
AcDbEntity
  8
DIM
100
AcDbLine
 10
20.46982618817442
 20
35.04822230106901
 30
0.0
 11
20.8646918839584
 21
35.27038728326795
 31
0.0
  0
LINE
  5
8F21
330
1F
100
AcDbEntity
  8
DIM
100
AcDbLine
 10
20.65732618817442
 20
35.15371623130165
 30
0.0
 11
20.65732618817442
 21
34.803534801069
 31
0.0
  0
LINE
  5
8F22
330
1F
100
AcDbEntity
  8
DIM
100
AcDbLine
 10
20.8646918839584
 20
35.27038728326795
 30
0.0
 11
21.26464622469334
 21
35.06299349028472
 31
0.0
  0
TEXT
  5
8F25
330
1F
100
AcDbEntity
  8
TEXT1
100
AcDbText
 10
26.94560073564979
 20
31.05329613654256
 30
0.0
 40
0.4159999999998376
  1
LINE SHIELD
 50
0.0000000000000557
 11
26.94560073564979
 21
31.26129613654248
 31
0.0
100
AcDbText
 73
     2
  0
CIRCLE
  5
8F30
330
1F
100
AcDbEntity
  8
CONTINUOUS2
100
AcDbCircle
 10
45.71427973141868
 20
21.81948584889119
 30
0.0
 40
0.19252673939457
  0
CIRCLE
  5
8F31
330
1F
100
AcDbEntity
  8
CONTINUOUS2
100
AcDbCircle
 10
43.51427973141867
 20
21.01948584889119
 30
0.0
 40
0.19252673939457
  0
CIRCLE
  5
8F32
330
1F
100
AcDbEntity
  8
CONTINUOUS2
100
AcDbCircle
 10
45.30427973141867
 20
19.51948584889119
 30
0.0
 40
0.19252673939457
  0
LINE
  5
8F33
330
1F
100
AcDbEntity
  8
CENTER2
100
AcDbLine
 10
44.75555773169768
 20
20.78948584889118
 30
0.0
 11
44.93300173113968
 21
20.78948584889118
 31
0.0
  0
LINE
  5
8F34
330
1F
100
AcDbEntity
  8
CENTER2
100
AcDbLine
 10
44.84427973141868
 20
20.70076384917019
 30
0.0
 11
44.84427973141868
 21
20.87820784861219
 31
0.0
  0
LINE
  5
8F35
330
1F
100
AcDbEntity
  8
CENTER2
100
AcDbLine
 10
45.62555773169767
 20
21.81948584889119
 30
0.0
 11
45.80300173113967
 21
21.81948584889119
 31
0.0
  0
LINE
  5
8F36
330
1F
100
AcDbEntity
  8
CENTER2
100
AcDbLine
 10
45.71427973141868
 20
21.73076384917018
 30
0.0
 11
45.71427973141868
 21
21.90820784861219
 31
0.0
  0
LINE
  5
8F37
330
1F
100
AcDbEntity
  8
CENTER2
100
AcDbLine
 10
45.21555773169768
 20
19.51948584889119
 30
0.0
 11
45.39300173113967
 21
19.51948584889119
 31
0.0
  0
LINE
  5
8F38
330
1F
100
AcDbEntity
  8
CENTER2
100
AcDbLine
 10
45.30427973141867
 20
19.43076384917019
 30
0.0
 11
45.30427973141867
 21
19.60820784861218
 31
0.0
  0
LINE
  5
8F39
330
1F
100
AcDbEntity
  8
CENTER2
100
AcDbLine
 10
43.42555773169767
 20
21.01948584889119
 30
0.0
 11
43.60300173113968
 21
21.01948584889119
 31
0.0
  0
LINE
  5
8F3A
330
1F
100
AcDbEntity
  8
CENTER2
100
AcDbLine
 10
43.51427973141867
 20
20.93076384917019
 30
0.0
 11
43.51427973141867
 21
21.10820784861219
 31
0.0
  0
DIMENSION
  5
8F3B
330
1F
100
AcDbEntity
  8
DIM
100
AcDbDimension
  2
*D14
 10
49.47086995187182
 20
19.51948584889119
 30
0.0
 11
48.26896518996704
 21
18.91614544945427
 31
0.0
 70
   160
  1
\P<>
  3
SCHNEIDERELECTRIC
100
AcDbAlignedDimension
 13
44.84427973141868
 23
20.78948584889118
 33
0.0
 14
45.30427973141867
 24
19.51948584889119
 34
0.0
 50
90.0
100
AcDbRotatedDimension
1001
ACAD
1000
DSTYLE
1002
{
1070
    40
1040
4.0
1002
}
  0
DIMENSION
  5
8F3C
330
1F
100
AcDbEntity
  8
DIM
100
AcDbDimension
  2
*D15
 10
48.89178945562815
 20
20.78948584889118
 30
0.0
 11
50.09369421753291
 21
22.29397777678022
 31
0.0
 70
   160
  1
\P<>
  3
SCHNEIDERELECTRIC
100
AcDbAlignedDimension
 13
45.71427973141868
 23
21.81948584889119
 33
0.0
 14
44.84427973141868
 24
20.78948584889118
 34
0.0
 50
90.0
100
AcDbRotatedDimension
1001
ACAD
1000
DSTYLE
1002
{
1070
    40
1040
4.0
1002
}
  0
DIMENSION
  5
8F3D
330
1F
100
AcDbEntity
  8
DIM
100
AcDbDimension
  2
*D16
 10
41.04859696923491
 20
21.01948584889119
 30
0.0
 11
42.06002554066348
 21
22.38365475913642
 31
0.0
 70
   160
  1
\P<>
  3
SCHNEIDERELECTRIC
100
AcDbAlignedDimension
 13
44.84427973141868
 23
20.78948584889118
 33
0.0
 14
43.51427973141867
 24
21.01948584889119
 34
0.0
 50
90.0
100
AcDbRotatedDimension
1001
ACAD
1000
DSTYLE
1002
{
1070
    40
1040
4.0
1002
}
  0
DIMENSION
  5
8F3E
330
1F
100
AcDbEntity
  8
DIM
100
AcDbDimension
  2
*D17
 10
45.71427973141868
 20
23.61091442031975
 30
0.0
 11
47.19618449332344
 21
23.61091442031975
 31
0.0
 70
   160
  1
\P<>
  3
SCHNEIDERELECTRIC
100
AcDbAlignedDimension
 13
44.84427973141868
 23
20.78948584889118
 33
0.0
 14
45.71427973141868
 24
21.81948584889119
 34
0.0
100
AcDbRotatedDimension
1001
ACAD
1000
DSTYLE
1002
{
1070
    40
1040
4.0
1002
}
  0
DIMENSION
  5
8F3F
330
1F
100
AcDbEntity
  8
DIM
100
AcDbDimension
  2
*D18
 10
44.84427973141868
 20
17.82875852408257
 30
0.0
 11
46.78618449332344
 21
17.82875852408257
 31
0.0
 70
   160
  1
\P<>
  3
SCHNEIDERELECTRIC
100
AcDbAlignedDimension
 13
45.30427973141867
 23
19.51948584889119
 33
0.0
 14
44.84427973141868
 24
20.78948584889118
 34
0.0
100
AcDbRotatedDimension
1001
ACAD
1000
DSTYLE
1002
{
1070
    40
1040
4.0
1002
}
  0
DIMENSION
  5
8F40
330
1F
100
AcDbEntity
  8
DIM
100
AcDbDimension
  2
*D19
 10
43.51427973141867
 20
24.51388271946
 30
0.0
 11
42.31237496951391
 21
24.51388271946
 31
0.0
 70
   160
  1
\P<>
  3
SCHNEIDERELECTRIC
100
AcDbAlignedDimension
 13
44.84427973141868
 23
20.78948584889118
 33
0.0
 14
43.51427973141867
 24
21.01948584889119
 34
0.0
100
AcDbRotatedDimension
1001
ACAD
1000
DSTYLE
1002
{
1070
    40
1040
4.0
1002
}
  0
CIRCLE
  5
8F41
330
1F
100
AcDbEntity
  8
CONTINUOUS2
100
AcDbCircle
 10
44.84427973141868
 20
20.78948584889118
 30
0.0
 40
0.9375
  0
TEXT
  5
8F4A
330
1F
100
AcDbEntity
  8
TEXT1
100
AcDbText
 10
41.36895095258899
 20
28.06614153533591
 30
0.0
 40
0.3999999999984375
  1
ROTARY HANDLE ENLOSURE
 72
     1
 11
45.7022842859054
 21
28.06614153533591
 31
0.0
100
AcDbText
  0
TEXT
  5
8F4B
330
1F
100
AcDbEntity
  8
TEXT1
100
AcDbText
 10
43.30228428591477
 20
27.3804272496243
 30
0.0
 40
0.3999999999984375
  1
DOOR DRILLING
 72
     1
 11
45.7022842859054
 21
27.3804272496243
 31
0.0
100
AcDbText
  0
TEXT
  5
8F4C
330
1F
100
AcDbEntity
  8
TEXT1
100
AcDbText
 10
27.21106118622746
 20
13.15447043449215
 30
0.0
 40
0.399999984375
  1
DEPTH=5.72
100
AcDbText
  0
TEXT
  5
8F4D
330
1F
100
AcDbEntity
  8
TEXT1
100
AcDbText
 10
27.21106118622746
 20
12.46875617556358
 30
0.0
 40
0.399999984375
  1
W/MAXIMUM FUSE
100
AcDbText
  0
LINE
  5
8F4E
330
1F
100
AcDbEntity
  8
CONTINUOUS1
100
AcDbLine
 10
16.56357618817443
 20
28.21205483759883
 30
0.0
 11
18.15732690798697
 21
28.21205483759883
 31
0.0
  0
LWPOLYLINE
  5
8F4F
330
1F
100
AcDbEntity
  8
CONTINUOUS1
100
AcDbPolyline
 90
        4
 70
     1
 43
0.0
 10
18.15732690798697
 20
29.07142983759886
 10
18.15732690798697
 20
27.07142983759886
 10
19.15732690798697
 20
27.07142983759886
 10
19.15732690798697
 20
29.07142983759886
  0
LINE
  5
8F50
330
1F
100
AcDbEntity
  8
CONTINUOUS1
100
AcDbLine
 10
19.15732690798697
 20
28.21205483759883
 30
0.0
 11
20.84482652830563
 21
28.21205483759883
 31
0.0
  0
LWPOLYLINE
  5
8F51
330
1F
100
AcDbEntity
  8
CONTINUOUS1
100
AcDbPolyline
 90
        4
 70
     1
 43
0.0
 10
20.84482652830563
 20
29.07142983759886
 10
20.84482652830563
 20
27.07142983759886
 10
21.84482652830563
 20
27.07142983759886
 10
21.84482652830563
 20
29.07142983759886
  0
LINE
  5
8F52
330
1F
100
AcDbEntity
  8
CONTINUOUS1
100
AcDbLine
 10
21.84482652830563
 20
28.21205483759883
 30
0.0
 11
23.53232618817442
 21
28.21205483759883
 31
0.0
  0
LWPOLYLINE
  5
8F53
330
1F
100
AcDbEntity
  8
CONTINUOUS1
100
AcDbPolyline
 90
        4
 70
     1
 43
0.0
 10
23.53232618817442
 20
29.07142983759886
 10
23.53232618817442
 20
27.07142983759886
 10
24.53232618817442
 20
27.07142983759886
 10
24.53232618817442
 20
29.07142983759886
  0
LINE
  5
8F54
330
1F
100
AcDbEntity
  8
CONTINUOUS1
100
AcDbLine
 10
24.53232618817442
 20
28.21205483759883
 30
0.0
 11
24.75107618817443
 21
28.21205483759883
 31
0.0
  0
LWPOLYLINE
  5
8F55
330
1F
100
AcDbEntity
  8
CONTINUOUS2
100
AcDbPolyline
 90
        2
 70
     0
 43
0.0
 10
18.15732690798697
 20
29.07142983759886
 10
18.15732690798697
 20
28.21205483759883
  0
LWPOLYLINE
  5
8F56
330
1F
100
AcDbEntity
  8
CONTINUOUS2
100
AcDbPolyline
 90
        3
 70
     0
 43
0.0
 10
19.15732690798697
 20
28.21205483759884
 10
19.15732690798697
 20
29.07142983759886
 10
18.15732690798697
 20
29.07142983759886
  0
LWPOLYLINE
  5
8F57
330
1F
100
AcDbEntity
  8
CONTINUOUS2
100
AcDbPolyline
 90
        2
 70
     0
 43
0.0
 10
20.84482652830563
 20
29.07142983759886
 10
20.84482652830563
 20
28.21205483759883
  0
LWPOLYLINE
  5
8F58
330
1F
100
AcDbEntity
  8
CONTINUOUS2
100
AcDbPolyline
 90
        3
 70
     0
 43
0.0
 10
21.84482652830563
 20
28.21205483759883
 10
21.84482652830563
 20
29.07142983759886
 10
20.84482652830563
 20
29.07142983759886
  0
LWPOLYLINE
  5
8F59
330
1F
100
AcDbEntity
  8
CONTINUOUS2
100
AcDbPolyline
 90
        2
 70
     0
 43
0.0
 10
23.53232618817442
 20
29.07142983759886
 10
23.53232618817442
 20
28.21205483759883
  0
LWPOLYLINE
  5
8F5A
330
1F
100
AcDbEntity
  8
CONTINUOUS2
100
AcDbPolyline
 90
        3
 70
     0
 43
0.0
 10
24.53232618817442
 20
28.21205483759883
 10
24.53232618817442
 20
29.07142983759886
 10
23.53232618817442
 20
29.07142983759886
  0
LEADER
  5
9264
330
1F
100
AcDbEntity
  8
TEXT1
100
AcDbLeader
  3
SCHNEIDERELECTRIC
 76
     3
 10
24.02608524622151
 20
29.36905483759886
 30
0.0
 10
25.38074049805835
 20
31.26129613654248
 30
0.0
 10
26.59525881746138
 20
31.26129613654248
 30
0.0
1001
ACAD
1000
DSTYLE
1002
{
1070
     5
1000
SEARROW
1070
    40
1040
4.0
1070
   342
1005
939B
1002
}
  0
LEADER
  5
9265
330
1F
100
AcDbEntity
  8
TEXT1
100
AcDbLeader
  3
SCHNEIDERELECTRIC
 76
     3
 10
20.12629571151643
 20
22.14915483759886
 30
0.0
 10
14.72101176067833
 20
20.83024796823921
 30
0.0
 10
14.23968689891715
 20
20.83024796823921
 30
0.0
1001
ACAD
1000
DSTYLE
1002
{
1070
     5
1000
SEARROW
1070
    40
1040
4.0
1070
   342
1005
939B
1002
}
  0
LINE
  5
9266
330
1F
100
AcDbEntity
  8
DIM
100
AcDbLine
 10
20.03629571151643
 20
22.14915483759886
 30
0.0
 11
20.21629571151643
 21
22.14915483759886
 31
0.0
  0
LINE
  5
9267
330
1F
100
AcDbEntity
  8
DIM
100
AcDbLine
 10
20.12629571151643
 20
22.05915483759886
 30
0.0
 11
20.12629571151643
 21
22.23915483759886
 31
0.0
  0
DIMENSION
  5
9268
330
1F
100
AcDbEntity
  8
DIM
100
AcDbDimension
  2
*D20
 10
45.47331364801818
 20
19.61164918444788
 30
0.0
 11
38.10326178668988
 21
16.79379058593332
 31
0.0
 70
   163
  1
\P%%C.39 3PLS\P[10]
  3
SCHNEIDERELECTRIC
100
AcDbDiametricDimension
 15
45.13524581481916
 25
19.42732251333449
 35
0.0
 40
0.0
1001
ACAD
1000
DSTYLE
1002
{
1070
    40
1040
4.0
1002
}
  0
DIMENSION
  5
9274
330
1F
100
AcDbEntity
  8
DIM
100
AcDbDimension
  2
*D21
 10
45.61865436681362
 20
21.31792711720482
 30
0.0
 11
39.82781388500807
 21
18.94796888883906
 31
0.0
 70
   163
  1
\P%%C1.88\P[48]
  3
SCHNEIDERELECTRIC
100
AcDbDiametricDimension
 15
44.06990509602368
 25
20.26104458057754
 35
0.0
 40
0.0
1001
ACAD
1000
DSTYLE
1002
{
1070
    40
1040
4.0
1002
}
  0
DIMENSION
  5
92CA
330
1F
100
AcDbEntity
  8
DIM
100
AcDbDimension
  2
*D22
 10
24.75107618817443
 20
14.73286225465356
 30
0.0
 11
22.43868594984543
 21
14.73286225465356
 31
0.0
 70
   160
  1
\P4.63\P[118]
  3
SCHNEIDERELECTRIC
100
AcDbAlignedDimension
 13
20.12629571151643
 23
22.05915483759886
 33
0.0
 14
24.75107618817443
 24
17.90105483759886
 34
0.0
100
AcDbRotatedDimension
1001
ACAD
1000
DSTYLE
1002
{
1070
    40
1040
4.0
1002
}
  0
TEXT
  5
945E
330
1F
100
AcDbEntity
  8
DIM
  6
BYBLOCK
100
AcDbText
 10
19.82875475960299
 20
33.46023122964044
 30
0.0
 40
0.4
  1
[216]
  7
ROMANS
 72
     4
 11
20.65732618817442
 21
33.63165980106901
 31
0.0
100
AcDbText
  0
VIEWPORT
  5
32
330
1B
100
AcDbEntity
 67
     1
  8
0
100
AcDbViewport
 10
8.812554302834026
 20
5.977785532946785
 30
0.0
 40
19.16417646133319
 41
12.3577561060486
 68
     1
 69
     1
1001
ACAD
1000
MVIEW
1002
{
1070
    16
1010
0.0
1020
0.0
1030
0.0
1010
0.0
1020
0.0
1030
1.0
1040
0.0
1040
12.3577561060486
1040
8.812554302834026
1040
5.977785532946785
1040
50.0
1040
0.0
1040
0.0
1070
     0
1070
   100
1070
     1
1070
     0
1070
     0
1070
     0
1070
     0
1070
     0
1040
0.0
1040
0.0
1040
0.0
1040
0.5
1040
0.5
1040
0.5
1040
0.5
1070
     0
1002
{
1002
}
1002
}
  0
LWPOLYLINE
  5
175
330
1B
100
AcDbEntity
 67
     1
  8
VIEWPORT
100
AcDbPolyline
 90
        6
 70
     1
 43
0.0
 10
16.40000099999999
 20
10.25
 10
16.40000099999999
 20
0.9120019999999993
 10
8.002461
 20
0.9120019999999993
 10
8.002461
 20
0.0
 10
0.0
 20
0.0
 10
0.0
 20
10.25
1001
GENIUS_GENOREF_13
1005
0
1005
0
1005
0
1005
0
1005
0
1005
0
1005
0
  0
VIEWPORT
  5
177
330
1B
100
AcDbEntity
 67
     1
  8
VIEWPORT
100
AcDbViewport
 10
8.200000499999999
 20
5.125
 30
0.0
 40
16.40000099999999
 41
10.25
 68
     2
 69
     2
1001
ACAD
1000
MVIEW
1002
{
1070
    16
1010
0.0
1020
0.0
1030
0.0
1010
0.0
1020
0.0
1030
1.0
1040
0.0
1040
41.0
1040
32.80000261098027
1040
20.68963831127295
1040
50.0
1040
0.0
1040
0.0
1070
     0
1070
   100
1070
     1
1070
     2
1070
     0
1070
     0
1070
     0
1070
     0
1040
0.0
1040
0.0
1040
0.0
1040
0.5
1040
0.5
1040
0.5
1040
0.5
1070
     0
1002
{
1002
}
1002
}
1001
GENIUS_GENOREF_13
1005
0
1005
0
1005
0
1005
0
1005
0
1005
0
1005
0
1001
GENIUS_GENSCREG_15
1000
PF
1040
0.0
1000
DF
1040
0.0
1000
MIN
1011
0.0
1021
0.0
1031
0.0
1000
MAX
1011
16.40000099999999
1021
10.25
1031
0.0
1000
FLAGS
1070
     2
  0
INSERT
  5
B2C
330
1B
100
AcDbEntity
 67
     1
  8
TITLEBLOCK
100
AcDbBlockReference
 66
     1
  2
TITLE-PAD
 10
0.0
 20
0.0
 30
0.0
  0
ATTRIB
  5
B2D
330
B2C
100
AcDbEntity
 67
     1
  8
TEXT1
 62
     0
100
AcDbText
 10
9.637552634652273
 20
0.6974460884590166
 30
0.0
 40
0.1
  1
DISCONNECT
  7
ROMANS
 72
     4
 11
10.10183834893798
 21
0.7474460884590166
 31
0.0
100
AcDbAttribute
  2
DESCRIPTION 1
 70
     0
  0
ATTRIB
  5
B2E
330
B2C
100
AcDbEntity
 67
     1
  8
TEXT1
 62
     0
100
AcDbText
 10
9.49469549179513
 20
0.5612469806644811
 30
0.0
 40
0.1
  1
D10S4, D10S4H
  7
ROMANS
 72
     4
 11
10.10183834893798
 21
0.6017231711406717
 31
0.0
100
AcDbAttribute
  2
DESCRIPTION 2
 70
     0
  0
ATTRIB
  5
B2F
330
B2C
100
AcDbEntity
 67
     1
  8
TEXT1
 62
     0
100
AcDbText
 10
10.06183834893799
 20
0.4560002538223267
 30
0.0
 40
0.08
  1
 
  7
ROMANS
 72
     4
 11
10.10183834893798
 21
0.4560002538223267
 31
0.0
100
AcDbAttribute
  2
DESCRIPTION 3
 70
     0
  0
ATTRIB
  5
B30
330
B2C
100
AcDbEntity
 67
     1
  8
TEXT1
 62
     0
100
AcDbText
 10
9.981838348937989
 20
0.3202773365039833
 30
0.0
 40
0.08
  1
   
  7
ROMANS
 72
     4
 11
10.10183834893798
 21
0.3202773365039833
 31
0.0
100
AcDbAttribute
  2
DESCRIPTION 4
 70
     0
  0
ATTRIB
  5
B31
330
B2C
100
AcDbEntity
 67
     1
  8
TEXT1
 62
     0
100
AcDbText
 10
10.10183834893798
 20
0.1845544191856399
 30
0.0
 40
0.08
  1

  7
ROMANS
 72
     4
 11
10.10183834893798
 21
0.1845544191856399
 31
0.0
100
AcDbAttribute
  2
DESCRIPTION 5
 70
     0
  0
ATTRIB
  5
B32
330
B2C
100
AcDbEntity
 67
     1
  8
TEXT1
 62
     0
100
AcDbText
 10
12.74772367103195
 20
0.096540546036505
 30
0.0
 40
0.12
  1
D1OS_OUTLINE_004
 41
0.9512024731840066
  7
M_STANDARD
 11
12.74772367103195
 21
0.156540546036505
 31
0.0
100
AcDbAttribute
  2
DWGNO
 70
     0
 74
     2
  0
ATTRIB
  5
B33
330
B2C
100
AcDbEntity
 67
     1
  8
TEXT1
 62
     0
100
AcDbText
 10
15.78363597806468
 20
-0.1507193079929352
 30
0.0
 40
0.08
  1
E0103901
  7
ROMANS
 72
     2
 11
16.35506454949325
 21
-0.1107193079929352
 31
0.0
100
AcDbAttribute
  2
REF
 70
     0
 74
     2
  0
ATTRIB
  5
B34
330
B2C
100
AcDbEntity
 67
     1
  8
TEXT1
 62
     0
100
AcDbText
 10
0.0266402374038712
 20
-0.1507193079929352
 30
0.0
 40
0.08
  1
FEBRUARY 2001
  7
ROMANS
 11
0.0266402374038712
 21
-0.1107193079929352
 31
0.0
100
AcDbAttribute
  2
DATE
 70
     0
 74
     2
  0
SEQEND
  5
B35
330
B2C
100
AcDbEntity
 67
     1
  8
0
  0
INSERT
  5
D86
330
1B
100
AcDbEntity
 67
     1
  8
TITLEBLOCK
100
AcDbBlockReference
  2
OEM-NOTES
 10
0.0
 20
0.0
 30
0.0
 41
0.5
 42
0.5
 43
0.5
  0
ENDSEC
  0
SECTION
  2
OBJECTS
  0
DICTIONARY
  5
C
330
0
100
AcDbDictionary
  3
ACAD_GROUP
350
D
  3
ACAD_LAYOUT
350
1A
  3
ACAD_MLINESTYLE
350
17
  3
ACAD_PLOTSETTINGS
350
19
  3
ACAD_PLOTSTYLENAME
350
E
  3
ACADDIM
350
806A
  3
ACDBHEADERROUNDTRIPXREC
350
9726
  3
ACDBVARIABLEDICTIONARY
350
374
  3
ACMDICTIONARY
350
383
  3
AMG
350
36B
  3
AMGSNAPSETTINGS
350
399
  3
ASE_INDEX_DICTIONARY
350
6A
  3
DWGPROPS
350
CB4
  0
DICTIONARY
  5
73
330
1F
100
AcDbDictionary
280
     1
  3
ACAD_INDEX
360
CB8
  3
ACAD_LAYOUTSELFREF
360
9748
  0
DICTIONARY
  5
75
330
1B
100
AcDbDictionary
280
     1
  3
ACAD_LAYOUTSELFREF
360
9747
  0
DICTIONARY
  5
D
102
{ACAD_REACTORS
330
C
102
}
330
C
100
AcDbDictionary
  0
DICTIONARY
  5
1A
102
{ACAD_REACTORS
330
C
102
}
330
C
100
AcDbDictionary
  0
DICTIONARY
  5
17
102
{ACAD_REACTORS
330
C
102
}
330
C
100
AcDbDictionary
  3
STANDARD
350
18
  0
DICTIONARY
  5
19
102
{ACAD_REACTORS
330
C
102
}
330
C
100
AcDbDictionary
  3
A_SIZE_PAPER
350
2FF
  3
B_SIZE_PAPER
350
2FD
  3
D_SIZE_PAPER
350
2FE
  0
ACDBDICTIONARYWDFLT
  5
E
102
{ACAD_REACTORS
330
C
102
}
330
C
100
AcDbDictionary
281
     1
  3
Normal
350
F
100
AcDbDictionaryWithDefault
340
F
  0
XRECORD
  5
806A
102
{ACAD_REACTORS
330
C
102
}
330
C
100
AcDbXrecord
 90
   990106
  3

 60
     0
 61
     0
 62
     1
 63
     3
 64
     0
 65
     0
 66
     0
 67
     3
 68
     1
 69
     0
 70
     0
 71
     0
 72
     0
 40
0.0
170
     0
  0
DICTIONARY
  5
9726
102
{ACAD_REACTORS
330
C
102
}
330
C
100
AcDbDictionary
  3
CEPSNTYPE
350
9730
  3
DIMSTYLEDATA
350
9734
  3
FINGERPRINTGUID
350
9731
  3
HYPERLINKBASE
350
9729
  3
INSUNITS
350
972F
  3
LAYOUTDICT
350
972B
  3
LWETCUNION
350
972E
  3
PLOTSETDICT
350
972C
  3
PLOTSTYLNAMDICT
350
972D
  3
PSVPSCALE
350
9733
  3
PUCSBASE
350
9737
  3
PUCSORGBACK
350
973D
  3
PUCSORGBOTTOM
350
9739
  3
PUCSORGFRONT
350
973C
  3
PUCSORGLEFT
350
973A
  3
PUCSORGRIGHT
350
973B
  3
PUCSORGTOP
350
9738
  3
PUCSORTHOREF
350
9735
  3
PUCSORTHOVIEW
350
9736
  3
STYLESHEET
350
972A
  3
TSTACKALIGN
350
9727
  3
TSTACKSIZE
350
9728
  3
UCSBASE
350
9740
  3
UCSORGBACK
350
9746
  3
UCSORGBOTTOM
350
9742
  3
UCSORGFRONT
350
9745
  3
UCSORGLEFT
350
9743
  3
UCSORGRIGHT
350
9744
  3
UCSORGTOP
350
9741
  3
UCSORTHOREF
350
973E
  3
UCSORTHOVIEW
350
973F
  3
VERSIONGUID
350
9732
  0
DICTIONARY
  5
374
102
{ACAD_REACTORS
330
C
102
}
330
C
100
AcDbDictionary
  3
INDEXCTL
350
375
  0
DICTIONARY
  5
383
102
{ACAD_REACTORS
330
C
102
}
330
C
100
AcDbDictionary
  0
DICTIONARY
  5
36B
102
{ACAD_REACTORS
330
C
102
}
330
C
100
AcDbDictionary
  3
ACMGSETTINGS
350
36C
  0
DICTIONARY
  5
399
102
{ACAD_REACTORS
330
C
102
}
330
C
100
AcDbDictionary
  0
DICTIONARY
  5
6A
102
{ACAD_REACTORS
330
C
102
}
330
C
100
AcDbDictionary
  3
ASEBLOCKHIERARCHYINDEXRECORD
350
6C
1001
DCO15
1040
1379130883.246999
  0
XRECORD
  5
CB4
102
{ACAD_REACTORS
330
C
102
}
330
C
100
AcDbXrecord
  1
DWGPROPS COOKIE
  2

  3

  4

  6

  7

  8
mgp706
  9

300
AmdtFileType=84
301
=
302
=
303
=
304
=
305
=
306
=
307
=
308
=
309
=
 40
0.2107598032407407
 41
2451764.535041909
 42
2451851.591606284
  1

 90
        1
  0
DICTIONARY
  5
CB8
102
{ACAD_REACTORS
330
73
102
}
330
73
100
AcDbDictionary
  3
*A1
350
CB9
  0
XRECORD
  5
9748
102
{ACAD_REACTORS
330
73
102
}
330
73
100
AcDbXrecord
340
1F
  0
XRECORD
  5
9747
102
{ACAD_REACTORS
330
75
102
}
330
75
100
AcDbXrecord
340
1B
  0
MLINESTYLE
  5
18
102
{ACAD_REACTORS
330
17
102
}
330
17
100
AcDbMlineStyle
  2
STANDARD
 70
     0
  3

 62
   256
 51
90.0
 52
90.0
 71
     2
 49
0.5
 62
   256
  6
BYLAYER
 49
-0.5
 62
   256
  6
BYLAYER
  0
PLOTSETTINGS
  5
2FF
102
{ACAD_REACTORS
330
19
102
}
330
19
100
AcDbPlotSettings
  1
A Size Paper
  2
none_device
  4
ANSI_A_(8.50_x_11.00_Inches)
  6

 40
6.349999904632568
 41
19.04999923706054
 42
6.350006103515625
 43
19.04998779296875
 44
215.8999938964843
 45
279.3999938964843
 46
19.04999999999999
 47
-9.651999999999999
 48
0.0
 49
0.0
140
0.0
141
0.0
142
1.0
143
1.6
 70
   740
 72
     0
 73
     1
 74
     1
  7
monochrome.ctb
 75
     0
147
0.625
148
0.0034886547032954
149
0.0199946439100934
  0
PLOTSETTINGS
  5
2FD
102
{ACAD_REACTORS
330
19
102
}
330
19
100
AcDbPlotSettings
  1
B Size Paper
  2
none_device
  4
ANSI_B_(11.00_x_17.00_Inches)
  6

 40
6.349999904632568
 41
19.04999923706054
 42
6.350006103515625
 43
19.04998779296875
 44
279.3999938964843
 45
431.7999877929687
 46
1.27
 47
-11.43
 48
0.0
 49
0.0
140
0.0
141
0.0
142
1.0
143
1.0
 70
   756
 72
     0
 73
     1
 74
     1
  7
monochrome.ctb
 75
    16
147
1.0
148
0.0034886547032954
149
0.0199946439100934
  0
PLOTSETTINGS
  5
2FE
102
{ACAD_REACTORS
330
19
102
}
330
19
100
AcDbPlotSettings
  1
D Size Paper
  2
none_device
  4
ANSI_D_(22.00_x_34.00_Inches)
  6

 40
6.349999904632568
 41
19.04999923706054
 42
6.3499755859375
 43
19.04998779296875
 44
558.7999877929687
 45
863.5999755859375
 46
8.889999999999998
 47
-3.809999999999999
 48
0.0
 49
0.0
140
0.0
141
0.0
142
1.0
143
0.5
 70
   740
 72
     0
 73
     1
 74
     1
  7
monochrome.ctb
 75
     0
147
2.0
148
0.0034886547032954
149
0.0199946439100934
  0
ACDBPLACEHOLDER
  5
F
102
{ACAD_REACTORS
330
E
102
}
330
E
100
AcDbPlaceHolder
280
     0
  0
XRECORD
  5
9730
102
{ACAD_REACTORS
330
9726
102
}
330
9726
100
AcDbXrecord
 90
        0
  0
XRECORD
  5
9734
102
{ACAD_REACTORS
330
9726
102
}
330
9726
100
AcDbXrecord
1000
DSTYLE
1002
{
1070
    79
 70
     1
1070
   148
 40
0.1
1070
   341
340
939B
1070
   342
340
939B
1070
   371
 70
    -1
1070
   372
 70
    -1
1002
}
  0
XRECORD
  5
9731
102
{ACAD_REACTORS
330
9726
102
}
330
9726
100
AcDbXrecord
  1
{4E694E3A-6C64-11D4-81E3-0004AC4461C9}
  0
XRECORD
  5
9729
102
{ACAD_REACTORS
330
9726
102
}
330
9726
100
AcDbXrecord
  1

  0
XRECORD
  5
972F
102
{ACAD_REACTORS
330
9726
102
}
330
9726
100
AcDbXrecord
 90
        1
  0
XRECORD
  5
972B
102
{ACAD_REACTORS
330
9726
102
}
330
9726
100
AcDbXrecord
340
1A
  0
XRECORD
  5
972E
102
{ACAD_REACTORS
330
9726
102
}
330
9726
100
AcDbXrecord
 90
    10269
  0
XRECORD
  5
972C
102
{ACAD_REACTORS
330
9726
102
}
330
9726
100
AcDbXrecord
340
19
  0
XRECORD
  5
972D
102
{ACAD_REACTORS
330
9726
102
}
330
9726
100
AcDbXrecord
340
E
  0
XRECORD
  5
9733
102
{ACAD_REACTORS
330
9726
102
}
330
9726
100
AcDbXrecord
 40
1.0
  0
XRECORD
  5
9737
102
{ACAD_REACTORS
330
9726
102
}
330
9726
100
AcDbXrecord
340
0
  0
XRECORD
  5
973D
102
{ACAD_REACTORS
330
9726
102
}
330
9726
100
AcDbXrecord
 10
0.0
 20
0.0
 30
0.0
  0
XRECORD
  5
9739
102
{ACAD_REACTORS
330
9726
102
}
330
9726
100
AcDbXrecord
 10
0.0
 20
0.0
 30
0.0
  0
XRECORD
  5
973C
102
{ACAD_REACTORS
330
9726
102
}
330
9726
100
AcDbXrecord
 10
0.0
 20
0.0
 30
0.0
  0
XRECORD
  5
973A
102
{ACAD_REACTORS
330
9726
102
}
330
9726
100
AcDbXrecord
 10
0.0
 20
0.0
 30
0.0
  0
XRECORD
  5
973B
102
{ACAD_REACTORS
330
9726
102
}
330
9726
100
AcDbXrecord
 10
0.0
 20
0.0
 30
0.0
  0
XRECORD
  5
9738
102
{ACAD_REACTORS
330
9726
102
}
330
9726
100
AcDbXrecord
 10
0.0
 20
0.0
 30
0.0
  0
XRECORD
  5
9735
102
{ACAD_REACTORS
330
9726
102
}
330
9726
100
AcDbXrecord
340
0
  0
XRECORD
  5
9736
102
{ACAD_REACTORS
330
9726
102
}
330
9726
100
AcDbXrecord
 70
     0
  0
XRECORD
  5
972A
102
{ACAD_REACTORS
330
9726
102
}
330
9726
100
AcDbXrecord
  1

  0
XRECORD
  5
9727
102
{ACAD_REACTORS
330
9726
102
}
330
9726
100
AcDbXrecord
 90
        1
  0
XRECORD
  5
9728
102
{ACAD_REACTORS
330
9726
102
}
330
9726
100
AcDbXrecord
 90
       70
  0
XRECORD
  5
9740
102
{ACAD_REACTORS
330
9726
102
}
330
9726
100
AcDbXrecord
340
0
  0
XRECORD
  5
9746
102
{ACAD_REACTORS
330
9726
102
}
330
9726
100
AcDbXrecord
 10
0.0
 20
0.0
 30
0.0
  0
XRECORD
  5
9742
102
{ACAD_REACTORS
330
9726
102
}
330
9726
100
AcDbXrecord
 10
0.0
 20
0.0
 30
0.0
  0
XRECORD
  5
9745
102
{ACAD_REACTORS
330
9726
102
}
330
9726
100
AcDbXrecord
 10
0.0
 20
0.0
 30
0.0
  0
XRECORD
  5
9743
102
{ACAD_REACTORS
330
9726
102
}
330
9726
100
AcDbXrecord
 10
0.0
 20
0.0
 30
0.0
  0
XRECORD
  5
9744
102
{ACAD_REACTORS
330
9726
102
}
330
9726
100
AcDbXrecord
 10
0.0
 20
0.0
 30
0.0
  0
XRECORD
  5
9741
102
{ACAD_REACTORS
330
9726
102
}
330
9726
100
AcDbXrecord
 10
0.0
 20
0.0
 30
0.0
  0
XRECORD
  5
973E
102
{ACAD_REACTORS
330
9726
102
}
330
9726
100
AcDbXrecord
340
0
  0
XRECORD
  5
973F
102
{ACAD_REACTORS
330
9726
102
}
330
9726
100
AcDbXrecord
 70
     0
  0
XRECORD
  5
9732
102
{ACAD_REACTORS
330
9726
102
}
330
9726
100
AcDbXrecord
  1
{B6EAA558-0C2A-11D5-B1B2-000629309E34}
  0
DICTIONARYVAR
  5
375
102
{ACAD_REACTORS
330
374
102
}
330
374
100
DictionaryVariables
280
     0
  1
1
  0
DICTIONARY
  5
36C
102
{ACAD_REACTORS
330
36B
102
}
330
36B
100
AcDbDictionary
  3
DWGSETTINGS
350
CA0
  0
XRECORD
  5
6C
102
{ACAD_REACTORS
330
6A
102
}
330
6A
100
AcDbXrecord
  0
LAYER_INDEX
  5
CB9
102
{ACAD_REACTORS
330
CB8
102
}
330
CB8
100
AcDbIndex
 40
2451967.669310428
100
AcDbLayerIndex
  8
0
360
CBA
 90
        1
  8
BLOCKS
360
CBB
 90
        0
  8
CENTER1
360
CBC
 90
        8
  8
CENTER2
360
CBD
 90
        8
  8
CENTER3
360
CBE
 90
        0
  8
CONSTRUCTION
360
CBF
 90
        0
  8
CONTINUOUS1
360
CC0
 90
      326
  8
CONTINUOUS2
360
CC1
 90
       45
  8
CONTINUOUS3
360
CC2
 90
        0
  8
DASHDOT1
360
CC3
 90
        0
  8
DASHDOT2
360
CC4
 90
        0
  8
DASHDOT3
360
CC5
 90
        0
  8
DIM
360
CC6
 90
       33
  8
HIDDEN1
360
CC7
 90
       16
  8
HIDDEN2
360
CC8
 90
        0
  8
HIDDEN3
360
CC9
 90
        0
  8
PHANTOM1
360
CCA
 90
        4
  8
PHANTOM2
360
CCB
 90
        0
  8
PHANTOM3
360
CCC
 90
        0
  8
TEXT1
360
CCD
 90
       11
  8
TEXT2
360
CCE
 90
        0
  8
TEXT3
360
CCF
 90
        0
  8
TITLEBLOCK
360
CD0
 90
        0
  8
VIEWPORT
360
CD1
 90
        2
  8
REFERENCE
360
931F
 90
        0
  8
DEFPOINTS
360
9320
 90
        0
  0
XRECORD
  5
CA0
102
{ACAD_REACTORS
330
36C
102
}
330
36C
100
AcDbXrecord
  1
VERSION
140
15.0
  1
PRODUCT
  2
AutoCAD Mechanical 2000
  0
IDBUFFER
  5
CBA
330
0
100
AcDbIdBuffer
330
79E
  0
IDBUFFER
  5
CBB
330
0
100
AcDbIdBuffer
  0
IDBUFFER
  5
CBC
330
0
100
AcDbIdBuffer
330
8D8E
330
8D8F
330
8D90
330
8D91
330
8D92
330
8D93
330
8D94
330
8D95
  0
IDBUFFER
  5
CBD
330
0
100
AcDbIdBuffer
330
8F33
330
8F34
330
8F35
330
8F36
330
8F37
330
8F38
330
8F39
330
8F3A
  0
IDBUFFER
  5
CBE
330
0
100
AcDbIdBuffer
  0
IDBUFFER
  5
CBF
330
0
100
AcDbIdBuffer
  0
IDBUFFER
  5
CC0
330
0
100
AcDbIdBuffer
330
8DA4
330
8DA5
330
8DA6
330
8DA7
330
8DA8
330
8DA9
330
8DAA
330
8DAB
330
8DAC
330
8DAD
330
8DAE
330
8DAF
330
8DB0
330
8DB1
330
8DB4
330
8DB6
330
8DB7
330
8DB8
330
8DB9
330
8DBA
330
8DBB
330
8DBC
330
8DBD
330
8DBE
330
8DBF
330
8DC0
330
8DC1
330
8DC2
330
8DC3
330
8DC4
330
8DC5
330
8DC6
330
8DC7
330
8DC8
330
8DC9
330
8DCA
330
8DCB
330
8DCC
330
8DCD
330
8DCE
330
8DCF
330
8DD0
330
8DD1
330
8DD2
330
8DD3
330
8DD4
330
8DD5
330
8DD6
330
8DD7
330
8DD8
330
8DD9
330
8DDA
330
8DDB
330
8DDC
330
8DDD
330
8DDE
330
8DDF
330
8DE0
330
8DE1
330
8DE2
330
8DE3
330
8DE4
330
8DE5
330
8DE6
330
8DE7
330
8DE8
330
8DE9
330
8DEA
330
8DEB
330
8DEE
330
8DEF
330
8DF0
330
8DF1
330
8DF2
330
8DF3
330
8DF4
330
8DF5
330
8DF7
330
8DF8
330
8DFA
330
8DFB
330
8DFC
330
8DFD
330
8DFE
330
8DFF
330
8E01
330
8E02
330
8E04
330
8E05
330
8E06
330
8E07
330
8E08
330
8E09
330
8E0A
330
8E0B
330
8E0C
330
8E0D
330
8E0E
330
8E0F
330
8E10
330
8E11
330
8E12
330
8E13
330
8E14
330
8E15
330
8E16
330
8E17
330
8E18
330
8E19
330
8E1A
330
8E1B
330
8E1C
330
8E1D
330
8E1E
330
8E1F
330
8E20
330
8E21
330
8E22
330
8E23
330
8E24
330
8E25
330
8E26
330
8E27
330
8E29
330
8E2A
330
8E2B
330
8E2C
330
8E2D
330
8E2E
330
8E2F
330
8E30
330
8E31
330
8E32
330
8E33
330
8E34
330
8E35
330
8E36
330
8E37
330
8E38
330
8E39
330
8E3A
330
8E3B
330
8E3C
330
8E3D
330
8E3E
330
8E3F
330
8E40
330
8E41
330
8E42
330
8E43
330
8E44
330
8E45
330
8E46
330
8E47
330
8E48
330
8E4E
330
8E4F
330
8E50
330
8E51
330
8E52
330
8E53
330
8E55
330
8E57
330
8E59
330
8E5B
330
8E5C
330
8E5F
330
8E60
330
8E64
330
8E65
330
8E66
330
8E69
330
8E6A
330
8E6E
330
8E6F
330
8E70
330
8E73
330
8E74
330
8E75
330
8E76
330
8E77
330
8E78
330
8E79
330
8E7A
330
8E7B
330
8E7C
330
8E7D
330
8E7E
330
8E7F
330
8E80
330
8E81
330
8E82
330
8E83
330
8E84
330
8E85
330
8E86
330
8E87
330
8E88
330
8E89
330
8E8A
330
8E8B
330
8E8C
330
8E8D
330
8E8E
330
8E8F
330
8E90
330
8E91
330
8E92
330
8E93
330
8E94
330
8E95
330
8E96
330
8E97
330
8E98
330
8E99
330
8E9A
330
8E9B
330
8E9C
330
8E9D
330
8E9E
330
8E9F
330
8EA0
330
8EA1
330
8EA2
330
8EA3
330
8EA4
330
8EA5
330
8EA6
330
8EA7
330
8EA8
330
8EA9
330
8EAA
330
8EAB
330
8EAD
330
8EB4
330
8EB5
330
8EB6
330
8EB7
330
8EB8
330
8EB9
330
8EBA
330
8EBB
330
8EBC
330
8EBD
330
8EBE
330
8EBF
330
8EC0
330
8EC1
330
8EC2
330
8EC3
330
8EC4
330
8EC5
330
8EC6
330
8EC7
330
8EC8
330
8EC9
330
8ECA
330
8ECB
330
8ECC
330
8ECD
330
8ECE
330
8ECF
330
8ED0
330
8ED1
330
8ED2
330
8ED3
330
8ED4
330
8ED5
330
8ED6
330
8ED7
330
8ED8
330
8ED9
330
8EDA
330
8EDB
330
8EDC
330
8EDD
330
8EDE
330
8EDF
330
8EE0
330
8EE1
330
8EE2
330
8EE3
330
8EE6
330
8EE9
330
8EEA
330
8EEB
330
8EEC
330
8EED
330
8EEE
330
8EEF
330
8EF0
330
8EF1
330
8EF2
330
8EF3
330
8EF4
330
8EF5
330
8EF6
330
8EF7
330
8EF8
330
8EF9
330
8EFA
330
8EFD
330
8EFE
330
8EFF
330
8F00
330
8F01
330
8F02
330
8F03
330
8F04
330
8F05
330
8F06
330
8F07
330
8F08
330
8F09
330
8F0A
330
8F0B
330
8F0C
330
8F0D
330
8F0E
330
8F4E
330
8F4F
330
8F50
330
8F51
330
8F52
330
8F53
330
8F54
  0
IDBUFFER
  5
CC1
330
0
100
AcDbIdBuffer
330
8D8A
330
8D8B
330
8D8C
330
8D8D
330
8DB2
330
8E49
330
8E4A
330
8E4C
330
8E4D
330
8E54
330
8E56
330
8E58
330
8E5A
330
8E5D
330
8E5E
330
8E61
330
8E62
330
8E63
330
8E67
330
8E68
330
8E6B
330
8E6C
330
8E6D
330
8E71
330
8E72
330
8EB0
330
8EB1
330
8EB2
330
8EB3
330
8F0F
330
8F10
330
8F11
330
8F12
330
8F13
330
8F14
330
8F30
330
8F31
330
8F32
330
8F41
330
8F55
330
8F56
330
8F57
330
8F58
330
8F59
330
8F5A
  0
IDBUFFER
  5
CC2
330
0
100
AcDbIdBuffer
  0
IDBUFFER
  5
CC3
330
0
100
AcDbIdBuffer
  0
IDBUFFER
  5
CC4
330
0
100
AcDbIdBuffer
  0
IDBUFFER
  5
CC5
330
0
100
AcDbIdBuffer
  0
IDBUFFER
  5
CC6
330
0
100
AcDbIdBuffer
330
945E
330
8D96
330
8D97
330
8D98
330
8D99
330
8D9A
330
8D9B
330
8D9C
330
8D9D
330
8DA3
330
8F17
330
8F18
330
8F19
330
8F1A
330
8F1B
330
8F1C
330
8F1D
330
8F1E
330
8F1F
330
8F20
330
8F21
330
8F22
330
8F3B
330
8F3C
330
8F3D
330
8F3E
330
8F3F
330
8F40
330
9266
330
9267
330
9268
330
9274
330
92CA
  0
IDBUFFER
  5
CC7
330
0
100
AcDbIdBuffer
330
8DB3
330
8DEC
330
8DED
330
8DF6
330
8DF9
330
8E00
330
8E03
330
8E28
330
8EAC
330
8EE4
330
8EE5
330
8EE7
330
8EE8
330
8EFB
330
8EFC
330
8F15
  0
IDBUFFER
  5
CC8
330
0
100
AcDbIdBuffer
  0
IDBUFFER
  5
CC9
330
0
100
AcDbIdBuffer
  0
IDBUFFER
  5
CCA
330
0
100
AcDbIdBuffer
330
8DB5
330
8E4B
330
8EAE
330
8EAF
  0
IDBUFFER
  5
CCB
330
0
100
AcDbIdBuffer
  0
IDBUFFER
  5
CCC
330
0
100
AcDbIdBuffer
  0
IDBUFFER
  5
CCD
330
0
100
AcDbIdBuffer
330
8D7F
330
8DA1
330
8DA2
330
8F16
330
8F25
330
8F4A
330
8F4B
330
8F4C
330
8F4D
330
9264
330
9265
  0
IDBUFFER
  5
CCE
330
0
100
AcDbIdBuffer
  0
IDBUFFER
  5
CCF
330
0
100
AcDbIdBuffer
  0
IDBUFFER
  5
CD0
330
0
100
AcDbIdBuffer
  0
IDBUFFER
  5
CD1
330
0
100
AcDbIdBuffer
330
BF7
330
BF8
  0
IDBUFFER
  5
931F
330
0
100
AcDbIdBuffer
  0
IDBUFFER
  5
9320
330
0
100
AcDbIdBuffer
  0
ENDSEC
  0
EOF
