  0
SECTION
  2
HEADER
  9
$ACADVER
  1
AC1014
  9
$ACADMAINTVER
 70
     9
  9
$DWGCODEPAGE
  3
ANSI_1252
  9
$INSBASE
 10
0.0
 20
0.0
 30
0.0
  9
$EXTMIN
 10
0.0
 20
0.0475228887496178
 30
0.0
  9
$EXTMAX
 10
32.80000199999999
 20
20.59504577749923
 30
0.0
  9
$LIMMIN
 10
0.0
 20
0.0
  9
$LIMMAX
 10
16.40000099999999
 20
10.25
  9
$ORTHOMODE
 70
     0
  9
$REGENMODE
 70
     1
  9
$FILLMODE
 70
     1
  9
$QTEXTMODE
 70
     0
  9
$MIRRTEXT
 70
     1
  9
$DRAGMODE
 70
     2
  9
$LTSCALE
 40
1.0
  9
$OSMODE
 70
    39
  9
$ATTMODE
 70
     1
  9
$TEXTSIZE
 40
0.2
  9
$TRACEWID
 40
0.05
  9
$TEXTSTYLE
  7
ROMANS
  9
$CLAYER
  8
0
  9
$CELTYPE
  6
BYLAYER
  9
$CECOLOR
 62
   256
  9
$CELTSCALE
 40
1.0
  9
$DELOBJ
 70
     1
  9
$DISPSILH
 70
     0
  9
$DIMSCALE
 40
0.0
  9
$DIMASZ
 40
0.07
  9
$DIMEXO
 40
0.0625
  9
$DIMDLI
 40
0.38
  9
$DIMRND
 40
0.001
  9
$DIMDLE
 40
0.0
  9
$DIMEXE
 40
0.0625
  9
$DIMTP
 40
0.0
  9
$DIMTM
 40
0.0
  9
$DIMTXT
 40
0.1
  9
$DIMCEN
 40
0.09
  9
$DIMTSZ
 40
0.0
  9
$DIMTOL
 70
     0
  9
$DIMLIM
 70
     0
  9
$DIMTIH
 70
     1
  9
$DIMTOH
 70
     1
  9
$DIMSE1
 70
     0
  9
$DIMSE2
 70
     0
  9
$DIMTAD
 70
     0
  9
$DIMZIN
 70
     4
  9
$DIMBLK
  1
SEARROW
  9
$DIMASO
 70
     1
  9
$DIMSHO
 70
     1
  9
$DIMPOST
  1
\X
  9
$DIMAPOST
  1

  9
$DIMALT
 70
     1
  9
$DIMALTD
 70
     0
  9
$DIMALTF
 40
25.4
  9
$DIMLFAC
 40
1.0
  9
$DIMTOFL
 70
     0
  9
$DIMTVP
 40
0.0
  9
$DIMTIX
 70
     0
  9
$DIMSOXD
 70
     0
  9
$DIMSAH
 70
     0
  9
$DIMBLK1
  1

  9
$DIMBLK2
  1

  9
$DIMSTYLE
  2
SCHNEIDERELECTRIC
  9
$DIMCLRD
 70
   256
  9
$DIMCLRE
 70
   256
  9
$DIMCLRT
 70
   256
  9
$DIMTFAC
 40
1.0
  9
$DIMGAP
 40
0.04
  9
$DIMJUST
 70
     0
  9
$DIMSD1
 70
     0
  9
$DIMSD2
 70
     0
  9
$DIMTOLJ
 70
     1
  9
$DIMTZIN
 70
     0
  9
$DIMALTZ
 70
     0
  9
$DIMALTTZ
 70
     0
  9
$DIMFIT
 70
     3
  9
$DIMUPT
 70
     0
  9
$DIMUNIT
 70
     2
  9
$DIMDEC
 70
     2
  9
$DIMTDEC
 70
     2
  9
$DIMALTU
 70
     2
  9
$DIMALTTD
 70
     0
  9
$DIMTXSTY
  7
ROMANS
  9
$DIMAUNIT
 70
     0
  9
$LUNITS
 70
     2
  9
$LUPREC
 70
     4
  9
$SKETCHINC
 40
0.1
  9
$FILLETRAD
 40
0.5
  9
$AUNITS
 70
     0
  9
$AUPREC
 70
     0
  9
$MENU
  1
.
  9
$ELEVATION
 40
0.0
  9
$PELEVATION
 40
0.0
  9
$THICKNESS
 40
0.0
  9
$LIMCHECK
 70
     0
  9
$BLIPMODE
 70
     0
  9
$CHAMFERA
 40
0.5
  9
$CHAMFERB
 40
0.5
  9
$CHAMFERC
 40
1.0
  9
$CHAMFERD
 40
0.0
  9
$SKPOLY
 70
     0
  9
$TDCREATE
 40
2451764.535041909
  9
$TDUPDATE
 40
2451967.668090046
  9
$TDINDWG
 40
0.4530127894
  9
$TDUSRTIMER
 40
0.4530125579
  9
$USRTIMER
 70
     1
  9
$ANGBASE
 50
0.0
  9
$ANGDIR
 70
     0
  9
$PDMODE
 70
     0
  9
$PDSIZE
 40
0.0
  9
$PLINEWID
 40
0.0
  9
$COORDS
 70
     1
  9
$SPLFRAME
 70
     0
  9
$SPLINETYPE
 70
     6
  9
$SPLINESEGS
 70
     8
  9
$ATTDIA
 70
     0
  9
$ATTREQ
 70
     1
  9
$HANDLING
 70
-16383
  9
$HANDSEED
  5
95DB
  9
$SURFTAB1
 70
     6
  9
$SURFTAB2
 70
     6
  9
$SURFTYPE
 70
     6
  9
$SURFU
 70
     6
  9
$SURFV
 70
     6
  9
$UCSNAME
  2

  9
$UCSORG
 10
0.0
 20
0.0
 30
0.0
  9
$UCSXDIR
 10
1.0
 20
0.0
 30
0.0
  9
$UCSYDIR
 10
0.0
 20
1.0
 30
0.0
  9
$PUCSNAME
  2

  9
$PUCSORG
 10
0.0
 20
0.0
 30
0.0
  9
$PUCSXDIR
 10
1.0
 20
0.0
 30
0.0
  9
$PUCSYDIR
 10
0.0
 20
1.0
 30
0.0
  9
$USERI1
 70
     0
  9
$USERI2
 70
     0
  9
$USERI3
 70
     0
  9
$USERI4
 70
     0
  9
$USERI5
 70
     0
  9
$USERR1
 40
0.0
  9
$USERR2
 40
0.0
  9
$USERR3
 40
0.0
  9
$USERR4
 40
0.0
  9
$USERR5
 40
0.0
  9
$WORLDVIEW
 70
     1
  9
$SHADEDGE
 70
     3
  9
$SHADEDIF
 70
    70
  9
$TILEMODE
 70
     1
  9
$MAXACTVP
 70
    48
  9
$PINSBASE
 10
0.0
 20
0.0
 30
0.0
  9
$PLIMCHECK
 70
     0
  9
$PEXTMIN
 10
0.0
 20
-0.1507193079929352
 30
0.0
  9
$PEXTMAX
 10
16.40000099999999
 20
10.25
 30
0.0
  9
$PLIMMIN
 10
-0.3022988315385811
 20
-0.4421500682141223
  9
$PLIMMAX
 10
16.69770068786963
 20
10.55784969148998
  9
$UNITMODE
 70
     0
  9
$VISRETAIN
 70
     1
  9
$PLINEGEN
 70
     0
  9
$PSLTSCALE
 70
     1
  9
$TREEDEPTH
 70
  3020
  9
$PICKSTYLE
 70
     1
  9
$CMLSTYLE
  2
STANDARD
  9
$CMLJUST
 70
     0
  9
$CMLSCALE
 40
1.0
  9
$PROXYGRAPHICS
 70
     1
  9
$MEASUREMENT
 70
     0
  0
ENDSEC
  0
SECTION
  2
CLASSES
  0
CLASS
  1
ACDBDICTIONARYWDFLT
  2
AcDbDictionaryWithDefault
  3
AutoCAD 2000
 90
        0
280
     0
281
     0
  0
CLASS
  1
ACDBPLACEHOLDER
  2
AcDbPlaceHolder
  3
AutoCAD 2000
 90
        0
280
     0
281
     0
  0
CLASS
  1
LAYOUT
  2
AcDbLayout
  3
AutoCAD 2000
 90
        0
280
     0
281
     0
  0
CLASS
  1
LONG_TRANSACTION
  2
AcDbLongTransaction
  3
AutoCAD 2000
 90
        0
280
     0
281
     0
  0
CLASS
  1
LWPOLYLINE
  2
AcDbPolyline
  3
AutoCAD 2000
 90
        0
280
     0
281
     1
  0
CLASS
  1
HATCH
  2
AcDbHatch
  3
AutoCAD 2000
 90
        0
280
     0
281
     1
  0
CLASS
  1
XRECORD
  2
AcDbXrecord
  3
AutoCAD 2000
 90
        0
280
     0
281
     0
  0
CLASS
  1
LONG_TRANSACTION
  2
AcDbLongTransaction
  3
AutoCAD 2000
 90
        0
280
     0
281
     0
  0
CLASS
  1
LWPOLYLINE
  2
AcDbPolyline
  3
AutoCAD 2000
 90
        0
280
     0
281
     1
  0
CLASS
  1
HATCH
  2
AcDbHatch
  3
AutoCAD 2000
 90
        0
280
     0
281
     1
  0
CLASS
  1
XRECORD
  2
AcDbXrecord
  3
AutoCAD 2000
 90
        0
280
     0
281
     0
  0
CLASS
  1
LONG_TRANSACTION
  2
AcDbLongTransaction
  3
AutoCAD 2000
 90
        0
280
     0
281
     0
  0
CLASS
  1
LWPOLYLINE
  2
AcDbPolyline
  3
AutoCAD 2000
 90
        0
280
     0
281
     1
  0
CLASS
  1
HATCH
  2
AcDbHatch
  3
AutoCAD 2000
 90
        0
280
     0
281
     1
  0
CLASS
  1
XRECORD
  2
AcDbXrecord
  3
AutoCAD 2000
 90
        0
280
     0
281
     0
  0
CLASS
  1
PLOTSETTINGS
  2
AcDbPlotSettings
  3
AutoCAD 2000
 90
        0
280
     0
281
     0
  0
CLASS
  1
ACME_DOCUMENT
  2
AcMeDbDoc
  3
AcMeServices
 90
        0
280
     0
281
     0
  0
CLASS
  1
AMGSETTINGSOBJ
  2
AmgSettingsObj
  3
"AcadM|Product Description: AutoCAD Mechanical 2000|Company: Autodesk"
 90
        0
280
     0
281
     0
  0
CLASS
  1
ACMESCOPE
  2
AcMeScope
  3
AcMeServices
 90
        0
280
     0
281
     0
  0
CLASS
  1
ACMECOMMANDHISTORY
  2
AcMeCommandHistory
  3
AcMeServices
 90
        0
280
     0
281
     0
  0
CLASS
  1
DICTIONARYVAR
  2
AcDbDictionaryVar
  3
AutoCAD 2000
 90
        0
280
     0
281
     0
  0
CLASS
  1
ACIMSYSVARMAN
  2
AcImSysVarManager
  3
AcMeServices
 90
        0
280
     0
281
     0
  0
CLASS
  1
ACIMREALSYSVAR
  2
AcImRealSysVar
  3
AcMeServices
 90
        0
280
     0
281
     0
  0
CLASS
  1
ACIMINTSYSVAR
  2
AcImIntSysVar
  3
AcMeServices
 90
        0
280
     0
281
     0
  0
CLASS
  1
ACMEDRAWINGMAN
  2
AcMeDrawingMan
  3
AcMeServices
 90
        0
280
     0
281
     0
  0
CLASS
  1
ACMEVIEW
  2
AcMeView
  3
AcMeServices
 90
        0
280
     0
281
     0
  0
CLASS
  1
ACDBENTITYCACHE
  2
AcMeEntityCache
  3
AcMeServices
 90
        0
280
     0
281
     0
  0
CLASS
  1
GSMANAGER
  2
AcMeGSManager
  3
AcMeServices
 90
        0
280
     0
281
     0
  0
CLASS
  1
AmdtInternalReactor
  2
AmdtInternalReactor
  3
AcMeServices
 90
        0
280
     0
281
     0
  0
CLASS
  1
ACMESTATEMGR
  2
AcMeStateMgr
  3
AcMeServices
 90
        0
280
     0
281
     0
  0
CLASS
  1
ACME_DATABASE
  2
AcMeDbDatabase
  3
AcMeServices
 90
        0
280
     0
281
     0
  0
CLASS
  1
ACRFINSADJUSTERMGR
  2
AcRfInsAdjusterMgr
  3
AcMeServices
 90
        0
280
     0
281
     0
  0
CLASS
  1
ACMDATADICTIONARY
  2
AcmDataDictionary
  3
"AcmSymBB|Product Description: AutoCAD Mechanical 2000|Company: Autodesk"
 90
        0
280
     0
281
     0
  0
CLASS
  1
ACMDATAENTRYBLOCK
  2
AcmDataEntryBlock
  3
"AcmSymBB|Product Description: AutoCAD Mechanical 2000|Company: Autodesk"
 90
        0
280
     0
281
     0
  0
CLASS
  1
AMGOBJPROPCFG
  2
AmgObjPropCfg
  3
"AmgLay|Product Description: AutoCAD Mechanical 2000|Company: Autodesk"
 90
        1
280
     0
281
     0
  0
CLASS
  1
ACAMGFILTERDAT
  2
AcAmgFilterDat
  3
"AcadM|Product Description: AutoCAD Mechanical 2000|Company: Autodesk"
 90
        0
280
     0
281
     0
  0
CLASS
  1
LAYER_INDEX
  2
AcDbLayerIndex
  3
AutoCAD 2000
 90
        0
280
     0
281
     0
  0
CLASS
  1
IDBUFFER
  2
AcDbIdBuffer
  3
AutoCAD 2000
 90
        0
280
     0
281
     0
  0
CLASS
  1
LONG_TRANSACTION
  2
AcDbLongTransaction
  3
AutoCAD 2000
 90
        0
280
     0
281
     0
  0
CLASS
  1
LWPOLYLINE
  2
AcDbPolyline
  3
AutoCAD 2000
 90
        0
280
     0
281
     1
  0
CLASS
  1
HATCH
  2
AcDbHatch
  3
AutoCAD 2000
 90
        0
280
     0
281
     1
  0
CLASS
  1
XRECORD
  2
AcDbXrecord
  3
AutoCAD 2000
 90
        0
280
     0
281
     0
  0
CLASS
  1
LONG_TRANSACTION
  2
AcDbLongTransaction
  3
AutoCAD 2000
 90
        0
280
     0
281
     0
  0
CLASS
  1
LWPOLYLINE
  2
AcDbPolyline
  3
AutoCAD 2000
 90
        0
280
     0
281
     1
  0
CLASS
  1
HATCH
  2
AcDbHatch
  3
AutoCAD 2000
 90
        0
280
     0
281
     1
  0
CLASS
  1
XRECORD
  2
AcDbXrecord
  3
AutoCAD 2000
 90
        0
280
     0
281
     0
  0
CLASS
  1
LONG_TRANSACTION
  2
AcDbLongTransaction
  3
AutoCAD 2000
 90
        0
280
     0
281
     0
  0
CLASS
  1
LWPOLYLINE
  2
AcDbPolyline
  3
AutoCAD 2000
 90
        0
280
     0
281
     1
  0
CLASS
  1
HATCH
  2
AcDbHatch
  3
AutoCAD 2000
 90
        0
280
     0
281
     1
  0
CLASS
  1
XRECORD
  2
AcDbXrecord
  3
AutoCAD 2000
 90
        0
280
     0
281
     0
  0
CLASS
  1
LONG_TRANSACTION
  2
AcDbLongTransaction
  3
AutoCAD 2000
 90
        0
280
     0
281
     0
  0
CLASS
  1
LWPOLYLINE
  2
AcDbPolyline
  3
AutoCAD 2000
 90
        0
280
     0
281
     1
  0
CLASS
  1
HATCH
  2
AcDbHatch
  3
AutoCAD 2000
 90
        0
280
     0
281
     1
  0
CLASS
  1
XRECORD
  2
AcDbXrecord
  3
AutoCAD 2000
 90
        0
280
     0
281
     0
  0
CLASS
  1
LONG_TRANSACTION
  2
AcDbLongTransaction
  3
AutoCAD 2000
 90
        0
280
     0
281
     0
  0
CLASS
  1
LWPOLYLINE
  2
AcDbPolyline
  3
AutoCAD 2000
 90
        0
280
     0
281
     1
  0
CLASS
  1
HATCH
  2
AcDbHatch
  3
AutoCAD 2000
 90
        0
280
     0
281
     1
  0
CLASS
  1
XRECORD
  2
AcDbXrecord
  3
AutoCAD 2000
 90
        0
280
     0
281
     0
  0
CLASS
  1
LONG_TRANSACTION
  2
AcDbLongTransaction
  3
AutoCAD 2000
 90
        0
280
     0
281
     0
  0
CLASS
  1
LWPOLYLINE
  2
AcDbPolyline
  3
AutoCAD 2000
 90
        0
280
     0
281
     1
  0
CLASS
  1
HATCH
  2
AcDbHatch
  3
AutoCAD 2000
 90
        0
280
     0
281
     1
  0
CLASS
  1
XRECORD
  2
AcDbXrecord
  3
AutoCAD 2000
 90
        0
280
     0
281
     0
  0
CLASS
  1
LONG_TRANSACTION
  2
AcDbLongTransaction
  3
AutoCAD 2000
 90
        0
280
     0
281
     0
  0
CLASS
  1
LWPOLYLINE
  2
AcDbPolyline
  3
AutoCAD 2000
 90
        0
280
     0
281
     1
  0
CLASS
  1
HATCH
  2
AcDbHatch
  3
AutoCAD 2000
 90
        0
280
     0
281
     1
  0
CLASS
  1
XRECORD
  2
AcDbXrecord
  3
AutoCAD 2000
 90
        0
280
     0
281
     0
  0
CLASS
  1
LONG_TRANSACTION
  2
AcDbLongTransaction
  3
AutoCAD 2000
 90
        0
280
     0
281
     0
  0
CLASS
  1
LWPOLYLINE
  2
AcDbPolyline
  3
AutoCAD 2000
 90
        0
280
     0
281
     1
  0
CLASS
  1
HATCH
  2
AcDbHatch
  3
AutoCAD 2000
 90
        0
280
     0
281
     1
  0
CLASS
  1
XRECORD
  2
AcDbXrecord
  3
AutoCAD 2000
 90
        0
280
     0
281
     0
  0
CLASS
  1
LONG_TRANSACTION
  2
AcDbLongTransaction
  3
AutoCAD 2000
 90
        0
280
     0
281
     0
  0
CLASS
  1
LWPOLYLINE
  2
AcDbPolyline
  3
AutoCAD 2000
 90
        0
280
     0
281
     1
  0
CLASS
  1
HATCH
  2
AcDbHatch
  3
AutoCAD 2000
 90
        0
280
     0
281
     1
  0
CLASS
  1
XRECORD
  2
AcDbXrecord
  3
AutoCAD 2000
 90
        0
280
     0
281
     0
  0
CLASS
  1
LONG_TRANSACTION
  2
AcDbLongTransaction
  3
AutoCAD 2000
 90
        0
280
     0
281
     0
  0
CLASS
  1
LWPOLYLINE
  2
AcDbPolyline
  3
AutoCAD 2000
 90
        0
280
     0
281
     1
  0
CLASS
  1
HATCH
  2
AcDbHatch
  3
AutoCAD 2000
 90
        0
280
     0
281
     1
  0
CLASS
  1
XRECORD
  2
AcDbXrecord
  3
AutoCAD 2000
 90
        0
280
     0
281
     0
  0
CLASS
  1
LONG_TRANSACTION
  2
AcDbLongTransaction
  3
AutoCAD 2000
 90
        0
280
     0
281
     0
  0
CLASS
  1
LWPOLYLINE
  2
AcDbPolyline
  3
AutoCAD 2000
 90
        0
280
     0
281
     1
  0
CLASS
  1
HATCH
  2
AcDbHatch
  3
AutoCAD 2000
 90
        0
280
     0
281
     1
  0
CLASS
  1
XRECORD
  2
AcDbXrecord
  3
AutoCAD 2000
 90
        0
280
     0
281
     0
  0
CLASS
  1
LONG_TRANSACTION
  2
AcDbLongTransaction
  3
AutoCAD 2000
 90
        0
280
     0
281
     0
  0
CLASS
  1
LWPOLYLINE
  2
AcDbPolyline
  3
AutoCAD 2000
 90
        0
280
     0
281
     1
  0
CLASS
  1
HATCH
  2
AcDbHatch
  3
AutoCAD 2000
 90
        0
280
     0
281
     1
  0
CLASS
  1
XRECORD
  2
AcDbXrecord
  3
AutoCAD 2000
 90
        0
280
     0
281
     0
  0
CLASS
  1
LONG_TRANSACTION
  2
AcDbLongTransaction
  3
AutoCAD 2000
 90
        0
280
     0
281
     0
  0
CLASS
  1
LWPOLYLINE
  2
AcDbPolyline
  3
AutoCAD 2000
 90
        0
280
     0
281
     1
  0
CLASS
  1
HATCH
  2
AcDbHatch
  3
AutoCAD 2000
 90
        0
280
     0
281
     1
  0
CLASS
  1
XRECORD
  2
AcDbXrecord
  3
AutoCAD 2000
 90
        0
280
     0
281
     0
  0
CLASS
  1
LONG_TRANSACTION
  2
AcDbLongTransaction
  3
AutoCAD 2000
 90
        0
280
     0
281
     0
  0
CLASS
  1
LWPOLYLINE
  2
AcDbPolyline
  3
AutoCAD 2000
 90
        0
280
     0
281
     1
  0
CLASS
  1
HATCH
  2
AcDbHatch
  3
AutoCAD 2000
 90
        0
280
     0
281
     1
  0
CLASS
  1
XRECORD
  2
AcDbXrecord
  3
AutoCAD 2000
 90
        0
280
     0
281
     0
  0
CLASS
  1
LONG_TRANSACTION
  2
AcDbLongTransaction
  3
AutoCAD 2000
 90
        0
280
     0
281
     0
  0
CLASS
  1
LWPOLYLINE
  2
AcDbPolyline
  3
AutoCAD 2000
 90
        0
280
     0
281
     1
  0
CLASS
  1
HATCH
  2
AcDbHatch
  3
AutoCAD 2000
 90
        0
280
     0
281
     1
  0
CLASS
  1
XRECORD
  2
AcDbXrecord
  3
AutoCAD 2000
 90
        0
280
     0
281
     0
  0
CLASS
  1
LONG_TRANSACTION
  2
AcDbLongTransaction
  3
AutoCAD 2000
 90
        0
280
     0
281
     0
  0
CLASS
  1
LWPOLYLINE
  2
AcDbPolyline
  3
AutoCAD 2000
 90
        0
280
     0
281
     1
  0
CLASS
  1
HATCH
  2
AcDbHatch
  3
AutoCAD 2000
 90
        0
280
     0
281
     1
  0
CLASS
  1
XRECORD
  2
AcDbXrecord
  3
AutoCAD 2000
 90
        0
280
     0
281
     0
  0
CLASS
  1
LONG_TRANSACTION
  2
AcDbLongTransaction
  3
AutoCAD 2000
 90
        0
280
     0
281
     0
  0
CLASS
  1
LWPOLYLINE
  2
AcDbPolyline
  3
AutoCAD 2000
 90
        0
280
     0
281
     1
  0
CLASS
  1
HATCH
  2
AcDbHatch
  3
AutoCAD 2000
 90
        0
280
     0
281
     1
  0
CLASS
  1
XRECORD
  2
AcDbXrecord
  3
AutoCAD 2000
 90
        0
280
     0
281
     0
  0
CLASS
  1
LONG_TRANSACTION
  2
AcDbLongTransaction
  3
AutoCAD 2000
 90
        0
280
     0
281
     0
  0
CLASS
  1
LWPOLYLINE
  2
AcDbPolyline
  3
AutoCAD 2000
 90
        0
280
     0
281
     1
  0
CLASS
  1
HATCH
  2
AcDbHatch
  3
AutoCAD 2000
 90
        0
280
     0
281
     1
  0
CLASS
  1
XRECORD
  2
AcDbXrecord
  3
AutoCAD 2000
 90
        0
280
     0
281
     0
  0
CLASS
  1
LONG_TRANSACTION
  2
AcDbLongTransaction
  3
AutoCAD 2000
 90
        0
280
     0
281
     0
  0
CLASS
  1
LWPOLYLINE
  2
AcDbPolyline
  3
AutoCAD 2000
 90
        0
280
     0
281
     1
  0
CLASS
  1
HATCH
  2
AcDbHatch
  3
AutoCAD 2000
 90
        0
280
     0
281
     1
  0
CLASS
  1
XRECORD
  2
AcDbXrecord
  3
AutoCAD 2000
 90
        0
280
     0
281
     0
  0
CLASS
  1
LONG_TRANSACTION
  2
AcDbLongTransaction
  3
AutoCAD 2000
 90
        0
280
     0
281
     0
  0
CLASS
  1
LWPOLYLINE
  2
AcDbPolyline
  3
AutoCAD 2000
 90
        0
280
     0
281
     1
  0
CLASS
  1
HATCH
  2
AcDbHatch
  3
AutoCAD 2000
 90
        0
280
     0
281
     1
  0
CLASS
  1
XRECORD
  2
AcDbXrecord
  3
AutoCAD 2000
 90
        0
280
     0
281
     0
  0
CLASS
  1
LONG_TRANSACTION
  2
AcDbLongTransaction
  3
AutoCAD 2000
 90
        0
280
     0
281
     0
  0
CLASS
  1
LWPOLYLINE
  2
AcDbPolyline
  3
AutoCAD 2000
 90
        0
280
     0
281
     1
  0
CLASS
  1
HATCH
  2
AcDbHatch
  3
AutoCAD 2000
 90
        0
280
     0
281
     1
  0
CLASS
  1
XRECORD
  2
AcDbXrecord
  3
AutoCAD 2000
 90
        0
280
     0
281
     0
  0
CLASS
  1
LONG_TRANSACTION
  2
AcDbLongTransaction
  3
AutoCAD 2000
 90
        0
280
     0
281
     0
  0
CLASS
  1
LWPOLYLINE
  2
AcDbPolyline
  3
AutoCAD 2000
 90
        0
280
     0
281
     1
  0
CLASS
  1
HATCH
  2
AcDbHatch
  3
AutoCAD 2000
 90
        0
280
     0
281
     1
  0
CLASS
  1
XRECORD
  2
AcDbXrecord
  3
AutoCAD 2000
 90
        0
280
     0
281
     0
  0
CLASS
  1
LONG_TRANSACTION
  2
AcDbLongTransaction
  3
AutoCAD 2000
 90
        0
280
     0
281
     0
  0
CLASS
  1
LWPOLYLINE
  2
AcDbPolyline
  3
AutoCAD 2000
 90
        0
280
     0
281
     1
  0
CLASS
  1
HATCH
  2
AcDbHatch
  3
AutoCAD 2000
 90
        0
280
     0
281
     1
  0
CLASS
  1
XRECORD
  2
AcDbXrecord
  3
AutoCAD 2000
 90
        0
280
     0
281
     0
  0
CLASS
  1
LONG_TRANSACTION
  2
AcDbLongTransaction
  3
AutoCAD 2000
 90
        0
280
     0
281
     0
  0
CLASS
  1
LWPOLYLINE
  2
AcDbPolyline
  3
AutoCAD 2000
 90
        0
280
     0
281
     1
  0
CLASS
  1
HATCH
  2
AcDbHatch
  3
AutoCAD 2000
 90
        0
280
     0
281
     1
  0
CLASS
  1
XRECORD
  2
AcDbXrecord
  3
AutoCAD 2000
 90
        0
280
     0
281
     0
  0
ENDSEC
  0
SECTION
  2
TABLES
  0
TABLE
  2
VPORT
  5
8
330
0
100
AcDbSymbolTable
 70
     2
  0
VPORT
  5
95B7
330
8
100
AcDbSymbolTableRecord
100
AcDbViewportTableRecord
  2
*ACTIVE
 70
     0
 10
0.0
 20
0.0
 11
1.0
 21
1.0
 12
16.40000107636846
 22
11.91044048487407
 13
0.0
 23
0.0
 14
0.5
 24
0.5
 15
0.5
 25
0.5
 16
0.0
 26
0.0
 36
1.0
 17
0.0
 27
0.0
 37
0.0
 40
23.92672413986664
 41
1.55078125
 42
50.0
 43
0.0
 44
0.0
 50
0.0
 51
0.0
 71
     0
 72
   100
 73
     1
 74
     2
 75
     0
 76
     0
 77
     0
 78
     0
  0
ENDTAB
  0
TABLE
  2
LTYPE
  5
5
330
0
100
AcDbSymbolTable
 70
     6
  0
LTYPE
  5
14
330
5
100
AcDbSymbolTableRecord
100
AcDbLinetypeTableRecord
  2
BYBLOCK
 70
     0
  3

 72
    65
 73
     0
 40
0.0
  0
LTYPE
  5
15
330
5
100
AcDbSymbolTableRecord
100
AcDbLinetypeTableRecord
  2
BYLAYER
 70
     0
  3

 72
    65
 73
     0
 40
0.0
  0
LTYPE
  5
16
330
5
100
AcDbSymbolTableRecord
100
AcDbLinetypeTableRecord
  2
CONTINUOUS
 70
     0
  3
Solid line
 72
    65
 73
     0
 40
0.0
  0
LTYPE
  5
3D
330
5
100
AcDbSymbolTableRecord
100
AcDbLinetypeTableRecord
  2
CENTER2
 70
     0
  3
Center (.5x) ___ _ ___ _ ___ _ ___ _ ___ _ ___
 72
    65
 73
     4
 40
1.125
 49
0.75
 74
     0
 49
-0.125
 74
     0
 49
0.125
 74
     0
 49
-0.125
 74
     0
  0
LTYPE
  5
3E
330
5
100
AcDbSymbolTableRecord
100
AcDbLinetypeTableRecord
  2
DASHDOT2
 70
     0
  3
Dash dot (.5x) _._._._._._._._._._._._._._._.
 72
    65
 73
     4
 40
0.5
 49
0.25
 74
     0
 49
-0.125
 74
     0
 49
0.0
 74
     0
 49
-0.125
 74
     0
  0
LTYPE
  5
3F
330
5
100
AcDbSymbolTableRecord
100
AcDbLinetypeTableRecord
  2
DASHED2
 70
     0
  3
Dashed (.5x) _ _ _ _ _ _ _ _ _ _ _ _ _ _ _ _ _
 72
    65
 73
     2
 40
0.375
 49
0.25
 74
     0
 49
-0.125
 74
     0
  0
LTYPE
  5
40
330
5
100
AcDbSymbolTableRecord
100
AcDbLinetypeTableRecord
  2
HIDDEN2
 70
     0
  3
Hidden (.5x) _ _ _ _ _ _ _ _ _ _ _ _ _ _ _ _ _
 72
    65
 73
     2
 40
0.1875
 49
0.125
 74
     0
 49
-0.0625
 74
     0
  0
LTYPE
  5
41
330
5
100
AcDbSymbolTableRecord
100
AcDbLinetypeTableRecord
  2
PHANTOM2
 70
     0
  3
Phantom (.5x) ___ _ _ ___ _ _ ___ _ _ ___ _ _
 72
    65
 73
     6
 40
1.25
 49
0.625
 74
     0
 49
-0.125
 74
     0
 49
0.125
 74
     0
 49
-0.125
 74
     0
 49
0.125
 74
     0
 49
-0.125
 74
     0
  0
ENDTAB
  0
TABLE
  2
LAYER
  5
2
330
0
100
AcDbSymbolTable
 70
    26
  0
LAYER
  5
10
330
2
100
AcDbSymbolTableRecord
100
AcDbLayerTableRecord
  2
0
 70
     0
 62
     7
  6
CONTINUOUS
  0
LAYER
  5
42
330
2
100
AcDbSymbolTableRecord
100
AcDbLayerTableRecord
  2
BLOCKS
 70
     0
 62
     7
  6
CONTINUOUS
  0
LAYER
  5
43
330
2
100
AcDbSymbolTableRecord
100
AcDbLayerTableRecord
  2
CENTER1
 70
     0
 62
     2
  6
CENTER2
  0
LAYER
  5
44
330
2
100
AcDbSymbolTableRecord
100
AcDbLayerTableRecord
  2
CENTER2
 70
     0
 62
    50
  6
CENTER2
  0
LAYER
  5
45
330
2
100
AcDbSymbolTableRecord
100
AcDbLayerTableRecord
  2
CENTER3
 70
     0
 62
    51
  6
CENTER2
  0
LAYER
  5
46
330
2
100
AcDbSymbolTableRecord
100
AcDbLayerTableRecord
  2
CONSTRUCTION
 70
     0
 62
   241
  6
DASHED2
  0
LAYER
  5
47
330
2
100
AcDbSymbolTableRecord
100
AcDbLayerTableRecord
  2
CONTINUOUS1
 70
     0
 62
     7
  6
CONTINUOUS
  0
LAYER
  5
48
330
2
100
AcDbSymbolTableRecord
100
AcDbLayerTableRecord
  2
CONTINUOUS2
 70
     0
 62
   254
  6
CONTINUOUS
  0
LAYER
  5
49
330
2
100
AcDbSymbolTableRecord
100
AcDbLayerTableRecord
  2
CONTINUOUS3
 70
     0
 62
   253
  6
CONTINUOUS
  0
LAYER
  5
4A
330
2
100
AcDbSymbolTableRecord
100
AcDbLayerTableRecord
  2
DASHDOT1
 70
     0
 62
     1
  6
DASHDOT2
  0
LAYER
  5
4B
330
2
100
AcDbSymbolTableRecord
100
AcDbLayerTableRecord
  2
DASHDOT2
 70
     0
 62
    10
  6
DASHDOT2
  0
LAYER
  5
4C
330
2
100
AcDbSymbolTableRecord
100
AcDbLayerTableRecord
  2
DASHDOT3
 70
     0
 62
    12
  6
DASHDOT2
  0
LAYER
  5
4D
330
2
100
AcDbSymbolTableRecord
100
AcDbLayerTableRecord
  2
DIM
 70
     0
 62
     2
  6
CONTINUOUS
  0
LAYER
  5
4E
330
2
100
AcDbSymbolTableRecord
100
AcDbLayerTableRecord
  2
HIDDEN1
 70
     0
 62
     5
  6
HIDDEN2
  0
LAYER
  5
4F
330
2
100
AcDbSymbolTableRecord
100
AcDbLayerTableRecord
  2
HIDDEN2
 70
     0
 62
   160
  6
HIDDEN2
  0
LAYER
  5
50
330
2
100
AcDbSymbolTableRecord
100
AcDbLayerTableRecord
  2
HIDDEN3
 70
     0
 62
   162
  6
HIDDEN2
  0
LAYER
  5
52
330
2
100
AcDbSymbolTableRecord
100
AcDbLayerTableRecord
  2
PHANTOM1
 70
     0
 62
     6
  6
PHANTOM2
  0
LAYER
  5
53
330
2
100
AcDbSymbolTableRecord
100
AcDbLayerTableRecord
  2
PHANTOM2
 70
     0
 62
   210
  6
PHANTOM2
  0
LAYER
  5
54
330
2
100
AcDbSymbolTableRecord
100
AcDbLayerTableRecord
  2
PHANTOM3
 70
     0
 62
   212
  6
PHANTOM2
  0
LAYER
  5
55
330
2
100
AcDbSymbolTableRecord
100
AcDbLayerTableRecord
  2
TEXT1
 70
     0
 62
     3
  6
CONTINUOUS
  0
LAYER
  5
56
330
2
100
AcDbSymbolTableRecord
100
AcDbLayerTableRecord
  2
TEXT2
 70
     0
 62
    80
  6
CONTINUOUS
  0
LAYER
  5
57
330
2
100
AcDbSymbolTableRecord
100
AcDbLayerTableRecord
  2
TEXT3
 70
     0
 62
    82
  6
CONTINUOUS
  0
LAYER
  5
58
330
2
100
AcDbSymbolTableRecord
100
AcDbLayerTableRecord
  2
TITLEBLOCK
 70
     0
 62
     9
  6
CONTINUOUS
  0
LAYER
  5
59
330
2
100
AcDbSymbolTableRecord
100
AcDbLayerTableRecord
  2
VIEWPORT
 70
     0
 62
     9
  6
CONTINUOUS
  0
LAYER
  5
8B88
330
2
100
AcDbSymbolTableRecord
100
AcDbLayerTableRecord
  2
REFERENCE
 70
     0
 62
     2
  6
CONTINUOUS
  0
LAYER
  5
8B89
330
2
100
AcDbSymbolTableRecord
100
AcDbLayerTableRecord
  2
DEFPOINTS
 70
     0
 62
     7
  6
CONTINUOUS
  0
ENDTAB
  0
TABLE
  2
STYLE
  5
3
330
0
100
AcDbSymbolTable
 70
     4
  0
STYLE
  5
11
330
3
100
AcDbSymbolTableRecord
100
AcDbTextStyleTableRecord
  2
STANDARD
 70
     0
 40
0.0
 41
1.0
 50
0.0
 71
     0
 42
0.2
  3
txt
  4

  0
STYLE
  5
36
330
3
100
AcDbSymbolTableRecord
100
AcDbTextStyleTableRecord
  2
ROMANS
 70
     0
 40
0.0
 41
1.0
 50
0.0
 71
     0
 42
0.2
  3
romans.shx
  4

  0
STYLE
  5
6CC
330
3
100
AcDbSymbolTableRecord
100
AcDbTextStyleTableRecord
  2
M_STANDARD
 70
     0
 40
0.0
 41
0.8
 50
0.0
 71
     0
 42
0.0
  3
MEDUSA.SHX
  4

  0
STYLE
  5
D51
330
3
100
AcDbSymbolTableRecord
100
AcDbTextStyleTableRecord
  2
SIMPLEX
 70
     0
 40
0.0
 41
1.0
 50
0.0
 71
     0
 42
0.25
  3
SIMPLEX.shx
  4

  0
ENDTAB
  0
TABLE
  2
VIEW
  5
6
330
0
100
AcDbSymbolTable
 70
     0
  0
ENDTAB
  0
TABLE
  2
UCS
  5
7
330
0
100
AcDbSymbolTable
 70
     0
  0
ENDTAB
  0
TABLE
  2
APPID
  5
9
330
0
100
AcDbSymbolTable
 70
    11
  0
APPID
  5
12
330
9
100
AcDbSymbolTableRecord
100
AcDbRegAppTableRecord
  2
ACAD
 70
     0
  0
APPID
  5
6B
330
9
100
AcDbSymbolTableRecord
100
AcDbRegAppTableRecord
  2
DCO15
 70
     0
  0
APPID
  5
370
330
9
100
AcDbSymbolTableRecord
100
AcDbRegAppTableRecord
  2
MCAD_NO_VIS
 70
     0
  0
APPID
  5
371
330
9
100
AcDbSymbolTableRecord
100
AcDbRegAppTableRecord
  2
ACAD_TEMP_GRAPHIC
 70
     0
  0
APPID
  5
387
330
9
100
AcDbSymbolTableRecord
100
AcDbRegAppTableRecord
  2
GENIUS_GENSCREG_15
 70
     0
  0
APPID
  5
389
330
9
100
AcDbSymbolTableRecord
100
AcDbRegAppTableRecord
  2
GENIUS_GENODEF_13
 70
     0
  0
APPID
  5
38A
330
9
100
AcDbSymbolTableRecord
100
AcDbRegAppTableRecord
  2
GENIUS_GENOBJ-N-SDF_13
 70
     0
  0
APPID
  5
38B
330
9
100
AcDbSymbolTableRecord
100
AcDbRegAppTableRecord
  2
GENIUS_GENOENT_13
 70
     0
  0
APPID
  5
38C
330
9
100
AcDbSymbolTableRecord
100
AcDbRegAppTableRecord
  2
GENIUS_GENOREF_13
 70
     0
  0
APPID
  5
38D
330
9
100
AcDbSymbolTableRecord
100
AcDbRegAppTableRecord
  2
GENIUS_GENOLIS_13
 70
     0
  0
APPID
  5
6CE
330
9
100
AcDbSymbolTableRecord
100
AcDbRegAppTableRecord
  2
MED_PRIMTYPE
 70
     0
  0
ENDTAB
  0
TABLE
  2
DIMSTYLE
  5
A
330
0
100
AcDbSymbolTable
 70
     1
  0
DIMSTYLE
105
91FE
102
{ACAD_REACTORS
330
9138
330
912C
330
8D25
330
8D24
330
8D00
330
8CD6
330
8CD5
330
8CCD
330
8CCC
330
8CCB
330
8CCA
330
8CBB
330
8CBA
330
8CB9
330
8CB8
330
8CB7
330
8CB6
330
9172
102
}
330
A
100
AcDbSymbolTableRecord
100
AcDbDimStyleTableRecord
  2
SCHNEIDERELECTRIC
 70
     0
  3
\X
  4

  5
SEARROW
  6

  7

 40
0.0
 41
0.07
 42
0.0625
 43
0.38
 44
0.0625
 45
0.001
 46
0.0
 47
0.0
 48
0.0
140
0.1
141
0.09
142
0.0
143
25.4
144
1.0
145
0.0
146
1.0
147
0.04
 71
     0
 72
     0
 73
     1
 74
     1
 75
     0
 76
     0
 77
     0
 78
     4
170
     1
171
     0
172
     0
173
     0
174
     0
175
     0
176
   256
177
   256
178
   256
270
     2
271
     2
272
     2
273
     2
274
     0
340
36
275
     0
280
     0
281
     0
282
     0
283
     1
284
     0
285
     0
286
     0
287
     3
288
     0
  0
ENDTAB
  0
TABLE
  2
BLOCK_RECORD
  5
1
330
0
100
AcDbSymbolTable
 70
    23
  0
BLOCK_RECORD
  5
1F
102
{ACAD_XDICTIONARY
360
73
102
}
330
1
100
AcDbSymbolTableRecord
100
AcDbBlockTableRecord
  2
*MODEL_SPACE
  0
BLOCK_RECORD
  5
1B
102
{ACAD_XDICTIONARY
360
75
102
}
330
1
100
AcDbSymbolTableRecord
100
AcDbBlockTableRecord
  2
*PAPER_SPACE
  0
BLOCK_RECORD
  5
783
330
1
100
AcDbSymbolTableRecord
100
AcDbBlockTableRecord
  2
NEWLAYERS
1001
ACAD
1000
DesignCenter Data
1002
{
1070
     1
1070
     1
1002
}
  0
BLOCK_RECORD
  5
841
330
1
100
AcDbSymbolTableRecord
100
AcDbBlockTableRecord
  2
LOGO-PAD
1001
ACAD
1000
DesignCenter Data
1002
{
1070
     1
1070
     1
1002
}
  0
BLOCK_RECORD
  5
AE5
330
1
100
AcDbSymbolTableRecord
100
AcDbBlockTableRecord
  2
TITLE-PAD
1001
ACAD
1000
DesignCenter Data
1002
{
1070
     1
1070
     1
1002
}
  0
BLOCK_RECORD
  5
D52
330
1
100
AcDbSymbolTableRecord
100
AcDbBlockTableRecord
  2
OEM-NOTES
1001
ACAD
1000
DesignCenter Data
1002
{
1070
     1
1070
     1
1002
}
  0
BLOCK_RECORD
  5
8A57
330
1
100
AcDbSymbolTableRecord
100
AcDbBlockTableRecord
  2
REF2
  0
BLOCK_RECORD
  5
8DC4
330
1
100
AcDbSymbolTableRecord
100
AcDbBlockTableRecord
  2
*D5
  0
BLOCK_RECORD
  5
8DD1
330
1
100
AcDbSymbolTableRecord
100
AcDbBlockTableRecord
  2
*D6
  0
BLOCK_RECORD
  5
8DDE
330
1
100
AcDbSymbolTableRecord
100
AcDbBlockTableRecord
  2
*D7
  0
BLOCK_RECORD
  5
8DEB
330
1
100
AcDbSymbolTableRecord
100
AcDbBlockTableRecord
  2
*D8
  0
BLOCK_RECORD
  5
8DF8
330
1
100
AcDbSymbolTableRecord
100
AcDbBlockTableRecord
  2
*D9
  0
BLOCK_RECORD
  5
8E05
330
1
100
AcDbSymbolTableRecord
100
AcDbBlockTableRecord
  2
*D10
  0
BLOCK_RECORD
  5
8E12
330
1
100
AcDbSymbolTableRecord
100
AcDbBlockTableRecord
  2
*D11
  0
BLOCK_RECORD
  5
8E1F
330
1
100
AcDbSymbolTableRecord
100
AcDbBlockTableRecord
  2
*D12
  0
BLOCK_RECORD
  5
8E2C
330
1
100
AcDbSymbolTableRecord
100
AcDbBlockTableRecord
  2
*D13
  0
BLOCK_RECORD
  5
8E39
330
1
100
AcDbSymbolTableRecord
100
AcDbBlockTableRecord
  2
*D14
  0
BLOCK_RECORD
  5
8E46
330
1
100
AcDbSymbolTableRecord
100
AcDbBlockTableRecord
  2
*D15
  0
BLOCK_RECORD
  5
8E53
330
1
100
AcDbSymbolTableRecord
100
AcDbBlockTableRecord
  2
*D16
  0
BLOCK_RECORD
  5
8E60
330
1
100
AcDbSymbolTableRecord
100
AcDbBlockTableRecord
  2
*D17
  0
BLOCK_RECORD
  5
8E6D
330
1
100
AcDbSymbolTableRecord
100
AcDbBlockTableRecord
  2
*D18
  0
BLOCK_RECORD
  5
8E7A
330
1
100
AcDbSymbolTableRecord
100
AcDbBlockTableRecord
  2
*D19
  0
BLOCK_RECORD
  5
912D
330
1
100
AcDbSymbolTableRecord
100
AcDbBlockTableRecord
  2
*D20
  0
BLOCK_RECORD
  5
9139
330
1
100
AcDbSymbolTableRecord
100
AcDbBlockTableRecord
  2
*D21
  0
BLOCK_RECORD
  5
91F9
330
1
100
AcDbSymbolTableRecord
100
AcDbBlockTableRecord
  2
SEARROW
1001
ACAD
1000
DesignCenter Data
1002
{
1070
     1
1070
     1
1002
}
  0
ENDTAB
  0
ENDSEC
  0
SECTION
  2
BLOCKS
  0
BLOCK
  5
20
330
1F
100
AcDbEntity
  8
0
100
AcDbBlockBegin
  2
*MODEL_SPACE
 70
     0
 10
0.0
 20
0.0
 30
0.0
  3
*MODEL_SPACE
  1

  0
ENDBLK
  5
21
330
1F
100
AcDbEntity
  8
0
100
AcDbBlockEnd
  0
BLOCK
  5
1C
330
1B
100
AcDbEntity
 67
     1
  8
0
100
AcDbBlockBegin
  2
*PAPER_SPACE
 70
     0
 10
0.0
 20
0.0
 30
0.0
  3
*PAPER_SPACE
  1

  0
ENDBLK
  5
1D
330
1B
100
AcDbEntity
 67
     1
  8
0
100
AcDbBlockEnd
  0
BLOCK
  5
79C
330
783
100
AcDbEntity
  8
0
100
AcDbBlockBegin
  2
NEWLAYERS
 70
     0
 10
0.0
 20
0.0
 30
0.0
  3
NEWLAYERS
  1

  0
LINE
  5
784
330
783
100
AcDbEntity
  8
PHANTOM1
100
AcDbLine
 10
0.264152010466205
 20
0.3394492053544127
 30
0.0
 11
0.264152010466205
 21
0.1923545555598593
 31
0.0
  0
LINE
  5
785
330
783
100
AcDbEntity
  8
PHANTOM2
100
AcDbLine
 10
0.3018880119612959
 20
0.3394492053544127
 30
0.0
 11
0.3018880119612959
 21
0.1923545555598593
 31
0.0
  0
LINE
  5
786
330
783
100
AcDbEntity
  8
PHANTOM3
100
AcDbLine
 10
0.3396240134565005
 20
0.3394492053544127
 30
0.0
 11
0.3396240134565005
 21
0.1923545555598593
 31
0.0
  0
LINE
  5
787
330
783
100
AcDbEntity
  8
DASHDOT2
100
AcDbLine
 10
0.0
 20
0.3394492053544127
 30
0.0
 11
0.0
 21
0.1923545555598593
 31
0.0
  0
LINE
  5
788
330
783
100
AcDbEntity
  8
DASHDOT3
100
AcDbLine
 10
0.0377360014952046
 20
0.3394492053544127
 30
0.0
 11
0.0377360014952046
 21
0.1923545555598593
 31
0.0
  0
LINE
  5
789
330
783
100
AcDbEntity
  8
DIM
100
AcDbLine
 10
0.0754720029902956
 20
0.3394492053544127
 30
0.0
 11
0.0754720029902956
 21
0.1923545555598593
 31
0.0
  0
LINE
  5
78A
330
783
100
AcDbEntity
  8
HIDDEN1
100
AcDbLine
 10
0.1132080044855002
 20
0.3394492053544127
 30
0.0
 11
0.1132080044855002
 21
0.1923545555598593
 31
0.0
  0
LINE
  5
78B
330
783
100
AcDbEntity
  8
HIDDEN2
100
AcDbLine
 10
0.1509440059807048
 20
0.3394492053544127
 30
0.0
 11
0.1509440059807048
 21
0.1923545555598593
 31
0.0
  0
LINE
  5
78C
330
783
100
AcDbEntity
  8
HIDDEN3
100
AcDbLine
 10
0.1886800074757957
 20
0.3394492053544127
 30
0.0
 11
0.1886800074757957
 21
0.1923545555598593
 31
0.0
  0
LINE
  5
78D
330
783
100
AcDbEntity
  8
TEXT1
100
AcDbLine
 10
0.0
 20
0.1470946497945533
 30
0.0
 11
0.0
 21
0.0
 31
0.0
  0
LINE
  5
78E
330
783
100
AcDbEntity
  8
TEXT2
100
AcDbLine
 10
0.0377360014952046
 20
0.1470946497945533
 30
0.0
 11
0.0377360014952046
 21
0.0
 31
0.0
  0
LINE
  5
78F
330
783
100
AcDbEntity
  8
TEXT3
100
AcDbLine
 10
0.0754720029902956
 20
0.1470946497945533
 30
0.0
 11
0.0754720029902956
 21
0.0
 31
0.0
  0
LINE
  5
790
330
783
100
AcDbEntity
  8
TITLEBLOCK
100
AcDbLine
 10
0.1132080044855002
 20
0.1470946497945533
 30
0.0
 11
0.1132080044855002
 21
0.0
 31
0.0
  0
LINE
  5
791
330
783
100
AcDbEntity
  8
VIEWPORT
100
AcDbLine
 10
0.1509440059807048
 20
0.1470946497945533
 30
0.0
 11
0.1509440059807048
 21
0.0
 31
0.0
  0
LINE
  5
792
330
783
100
AcDbEntity
  8
BLOCKS
100
AcDbLine
 10
0.0377360014952046
 20
0.5318037609142721
 30
0.0
 11
0.0377360014952046
 21
0.3847091111197187
 31
0.0
  0
LINE
  5
793
330
783
100
AcDbEntity
  8
0
100
AcDbLine
 10
0.0
 20
0.5318037609142721
 30
0.0
 11
0.0
 21
0.3847091111197187
 31
0.0
  0
LINE
  5
794
330
783
100
AcDbEntity
  8
CENTER1
100
AcDbLine
 10
0.0754720029902956
 20
0.5318037609142721
 30
0.0
 11
0.0754720029902956
 21
0.3847091111197187
 31
0.0
  0
LINE
  5
795
330
783
100
AcDbEntity
  8
CENTER2
100
AcDbLine
 10
0.1132080044855002
 20
0.5318037609142721
 30
0.0
 11
0.1132080044855002
 21
0.3847091111197187
 31
0.0
  0
LINE
  5
796
330
783
100
AcDbEntity
  8
CENTER3
100
AcDbLine
 10
0.1509440059807048
 20
0.5318037609142721
 30
0.0
 11
0.1509440059807048
 21
0.3847091111197187
 31
0.0
  0
LINE
  5
797
330
783
100
AcDbEntity
  8
CONSTRUCTION
100
AcDbLine
 10
0.1886800074757957
 20
0.5318037609142721
 30
0.0
 11
0.1886800074757957
 21
0.3847091111197187
 31
0.0
  0
LINE
  5
798
330
783
100
AcDbEntity
  8
CONTINUOUS1
100
AcDbLine
 10
0.2264160089710003
 20
0.5318037609142721
 30
0.0
 11
0.2264160089710003
 21
0.3847091111197187
 31
0.0
  0
LINE
  5
799
330
783
100
AcDbEntity
  8
CONTINUOUS2
100
AcDbLine
 10
0.264152010466205
 20
0.5318037609142721
 30
0.0
 11
0.264152010466205
 21
0.3847091111197187
 31
0.0
  0
LINE
  5
79A
330
783
100
AcDbEntity
  8
CONTINUOUS3
100
AcDbLine
 10
0.3018880119612959
 20
0.5318037609142721
 30
0.0
 11
0.3018880119612959
 21
0.3847091111197187
 31
0.0
  0
LINE
  5
79B
330
783
100
AcDbEntity
  8
DASHDOT1
100
AcDbLine
 10
0.3396240134565005
 20
0.5318037609142721
 30
0.0
 11
0.3396240134565005
 21
0.3847091111197187
 31
0.0
  0
ENDBLK
  5
79D
330
783
100
AcDbEntity
  8
0
100
AcDbBlockEnd
  0
BLOCK
  5
852
330
841
100
AcDbEntity
  8
0
100
AcDbBlockBegin
  2
LOGO-PAD
 70
     0
 10
0.0
 20
0.0
 30
0.0
  3
LOGO-PAD
  1

  0
HATCH
  5
842
330
841
100
AcDbEntity
  8
TITLEBLOCK
 62
     0
100
AcDbHatch
 10
0.0
 20
0.0
 30
0.0
210
0.0
220
0.0
230
1.0
  2
SOLID
 70
     1
 71
     0
 91
        2
 92
        1
 93
       11
 72
     2
 10
1.203771209334867
 20
0.3650136751459491
 40
0.021562648149145
 50
90.00000747299615
 51
179.9997683268519
 73
     1
 72
     1
 10
1.182208561185898
 20
0.3650137623336376
 11
1.182208392435807
 21
0.2795138227272444
 72
     2
 10
1.203771079023129
 20
0.2795136821032751
 40
0.0215626865877801
 50
179.9996263378447
 51
269.9998903896797
 73
     1
 72
     1
 10
1.203771037772394
 20
0.2579509955155343
 11
1.330521045577125
 21
0.2579511736405264
 72
     2
 10
1.330521265257171
 20
0.2795136382789064
 40
0.021562464639499
 50
269.9994162661957
 51
311.7040125634689
 73
     1
 72
     1
 10
1.344866398698837
 20
0.2634152834601535
 11
1.352083334663557
 21
0.2579511736405264
 72
     1
 10
1.352083334663557
 20
0.2579511736405264
 11
1.365099386916806
 21
0.2751416404960081
 72
     1
 10
1.365099386916806
 20
0.2751416404960081
 11
1.352083522163621
 21
0.284997066934386
 72
     1
 10
1.352083522163621
 20
0.284997066934386
 11
1.352083690913712
 21
0.3650136723335662
 72
     2
 10
1.330521042764654
 20
0.3650136751460369
 40
0.0215626481490576
 50
359.9999925267666
 51
449.9999925267678
 73
     1
 72
     1
 10
1.330521045577125
 20
0.3865763232950938
 11
1.203771206522485
 21
0.3865763232950938
 97
        0
 92
       16
 93
       10
 72
     2
 10
1.21455271481628
 20
0.3542325202904111
 40
0.0107811520434708
 50
90.00043844291294
 51
179.9999701074038
 73
     1
 72
     1
 10
1.203771562772811
 20
0.3542325259151993
 11
1.203771562772811
 21
0.2902950591455122
 72
     2
 10
1.214552849813946
 20
0.2902948416431456
 40
0.0107812870433294
 50
179.9988441113203
 51
269.9988441346395
 73
     1
 72
     1
 10
1.214552632315967
 20
0.2795135546020104
 11
1.323606134809704
 21
0.2795135546020104
 72
     1
 10
1.323606134809704
 20
0.2795135546020104
 11
1.280867956889135
 21
0.311873265117333
 72
     1
 10
1.280867956889135
 20
0.311873265117333
 11
1.293884009142384
 21
0.3290635557226322
 72
     1
 10
1.293884009142384
 20
0.3290635557226322
 11
1.330521045577125
 21
0.3013240413506308
 72
     1
 10
1.330521045577125
 20
0.3013240413506308
 11
1.330521045577125
 21
0.3542324377902786
 72
     2
 10
1.319739809158772
 20
0.3542324359152127
 40
0.0107812364183532
 50
0.0000099648460607
 51
90.00000996484372
 73
     1
 72
     1
 10
1.319739807283706
 20
0.3650136723335662
 11
1.214552632315967
 21
0.3650136723335662
 97
        0
 75
     0
 76
     1
 98
        1
 10
-7.279586802153931
 20
-0.4081141432880261
  0
HATCH
  5
843
330
841
100
AcDbEntity
  8
TITLEBLOCK
 62
     0
100
AcDbHatch
 10
0.0
 20
0.0
 30
0.0
210
0.0
220
0.0
230
1.0
  2
SOLID
 70
     1
 71
     0
 91
        1
 92
        1
 93
        4
 72
     1
 10
3.703333445713536
 20
0.1990762889281312
 11
1.018147379006204
 21
0.1990762889281312
 72
     1
 10
1.018147379006204
 20
0.1990762889281312
 11
1.018147379006204
 21
0.220706173683743
 72
     1
 10
1.018147379006204
 20
0.220706173683743
 11
3.703333445713536
 21
0.220706173683743
 72
     1
 10
3.703333445713536
 20
0.220706173683743
 11
3.703333445713536
 21
0.1990762889281312
 97
        0
 75
     0
 76
     1
 98
        1
 10
-7.279586802153931
 20
-0.4081141432880261
  0
HATCH
  5
844
330
841
100
AcDbEntity
  8
TITLEBLOCK
 62
     0
100
AcDbHatch
 10
0.0
 20
0.0
 30
0.0
210
0.0
220
0.0
230
1.0
  2
SOLID
 70
     1
 71
     0
 91
        4
 92
        1
 93
        4
 72
     1
 10
0.8306472632318495
 20
0.4814782717956759
 11
0.4556470182475714
 21
0.4814782717956759
 72
     1
 10
0.4556470182475714
 20
0.4814782717956759
 11
0.4556470182475714
 21
0.1064783844396073
 72
     1
 10
0.4556470182475714
 20
0.1064783844396073
 11
0.8306472632318495
 21
0.1064783844396073
 72
     1
 10
0.8306472632318495
 20
0.1064783844396073
 11
0.8306472632318495
 21
0.4814782717956759
 97
        0
 92
        0
 93
       10
 72
     1
 10
0.7368972019857374
 20
0.4177282462416896
 11
0.5193971779121789
 21
0.4177282462416896
 72
     1
 10
0.5193971779121789
 20
0.4177282462416896
 11
0.5193971779121789
 21
0.37460312508514
 72
     1
 10
0.5193971779121789
 20
0.37460312508514
 11
0.5531473465883146
 21
0.37460312508514
 72
     1
 10
0.5531473465883146
 20
0.37460312508514
 11
0.5531473465883146
 21
0.2133535311501431
 72
     1
 10
0.5531473465883146
 20
0.2133535311501431
 11
0.5193971779121789
 21
0.2133535311501431
 72
     1
 10
0.5193971779121789
 20
0.2133535311501431
 11
0.5193971779121789
 21
0.1702282758831428
 72
     1
 10
0.5193971779121789
 20
0.1702282758831428
 11
0.7368972019857374
 21
0.1702282758831428
 72
     1
 10
0.7368972019857374
 20
0.1702282758831428
 11
0.7668970141602749
 21
0.2002283115750982
 72
     1
 10
0.7668970141602749
 20
0.2002283115750982
 11
0.7668970141602749
 21
0.3877281658462506
 72
     1
 10
0.7668970141602749
 20
0.3877281658462506
 11
0.7368972019857374
 21
0.4177282462416896
 97
        0
 92
       16
 93
        4
 72
     1
 10
0.7987720492890098
 20
0.4496031025563197
 11
0.4875220533764768
 21
0.4496031025563197
 72
     1
 10
0.4875220533764768
 20
0.4496031025563197
 11
0.4875220533764768
 21
0.1383533301613751
 72
     1
 10
0.4875220533764768
 20
0.1383533301613751
 11
0.7987720492890098
 21
0.1383533301613751
 72
     1
 10
0.7987720492890098
 20
0.1383533301613751
 11
0.7987720492890098
 21
0.4496031025563197
 97
        0
 92
        0
 93
        4
 72
     1
 10
0.5962724677448641
 20
0.37460312508514
 11
0.5962724677448641
 21
0.2133535311501431
 72
     1
 10
0.5962724677448641
 20
0.2133535311501431
 11
0.7237719824106926
 21
0.2133535311501431
 72
     1
 10
0.7237719824106926
 20
0.2133535311501431
 11
0.7237719824106926
 21
0.37460312508514
 72
     1
 10
0.7237719824106926
 20
0.37460312508514
 11
0.5962724677448641
 21
0.37460312508514
 97
        0
 75
     0
 76
     1
 98
        1
 10
-7.279586802153931
 20
-0.313212194787444
  0
HATCH
  5
845
330
841
100
AcDbEntity
  8
TITLEBLOCK
 62
     0
100
AcDbHatch
 10
0.0
 20
0.0
 30
0.0
210
0.0
220
0.0
230
1.0
  2
SOLID
 70
     1
 71
     0
 91
        1
 92
        1
 93
       26
 72
     1
 10
1.050490193885575
 20
0.3650136723335662
 11
1.138990457951802
 21
0.3650136723335662
 72
     2
 10
1.138990281703138
 20
0.3542326140418093
 40
0.0107810582931976
 50
270.0009366709926
 51
360.0009366862294
 73
     0
 72
     1
 10
1.149771339994895
 20
0.3542324377902786
 11
1.171333797831589
 21
0.3542324377902786
 72
     1
 10
1.171333797831589
 20
0.3542324377902786
 11
1.171333797831589
 21
0.3650136723335662
 72
     2
 10
1.149771243432702
 20
0.365013768896207
 40
0.0215625543991033
 50
359.9997434148255
 51
449.9997434160159
 73
     1
 72
     1
 10
1.149771339994895
 20
0.3865763232950938
 11
1.039708786842066
 21
0.3865763232950938
 72
     2
 10
1.039709408398413
 20
0.3650142939052909
 40
0.0215620293987615
 50
90.00165163282177
 51
180.0014125206716
 73
     1
 72
     1
 10
1.018147379006204
 20
0.3650137623336376
 11
1.018147379006204
 21
0.3334199129435318
 72
     2
 10
1.039709363397143
 20
0.3334193363730153
 40
0.0215619843986475
 50
179.9984679027414
 51
269.9984679437668
 73
     1
 72
     1
 10
1.039708786842066
 20
0.3118573519820755
 11
1.138990457951802
 21
0.311857620107139
 72
     2
 10
1.138990280765661
 20
0.3010765608779043
 40
0.0107810592306907
 50
270.0009416531222
 51
360.0009416684906
 73
     0
 72
     1
 10
1.149771339994895
 20
0.3010763836888712
 11
1.149771508744986
 21
0.2902949691454408
 72
     2
 10
1.138990231076649
 20
0.2902948322713164
 40
0.0107812776692067
 50
359.9992725992319
 51
449.9997907459082
 73
     0
 72
     1
 10
1.138990270451738
 20
0.279513554602181
 11
1.050490193885575
 21
0.2795135546020104
 72
     2
 10
1.05049014888543
 20
0.2902951041454384
 40
0.0107815495435218
 50
89.99976085826782
 51
179.9997608594354
 73
     0
 72
     1
 10
1.039708599342002
 20
0.2902950591455122
 11
1.018147379006204
 21
0.2902950591455122
 72
     1
 10
1.018147379006204
 20
0.2902950591455122
 11
1.018147379006204
 21
0.2795138227272444
 72
     2
 10
1.039709273392517
 20
0.2795130680345569
 40
0.0215618943995203
 50
179.9979945776083
 51
269.9987071039827
 73
     1
 72
     1
 10
1.039708786842066
 20
0.2579511736405264
 11
1.149771339994895
 21
0.2579511736405264
 72
     2
 10
1.149771378432784
 20
0.2795135930396681
 40
0.0215624193991759
 50
269.9998978626289
 51
359.9996636967671
 73
     1
 72
     1
 10
1.171333797831589
 20
0.2795134664769192
 11
1.171333797831589
 21
0.3114825579869829
 72
     2
 10
1.149771333432362
 20
0.3114825645494808
 40
0.0215624643992288
 50
359.9999825621309
 51
449.9999825620359
 73
     1
 72
     1
 10
1.149771339994895
 20
0.3330450289487088
 11
1.050490193885575
 21
0.3330447608234748
 72
     2
 10
1.050490103885701
 20
0.3438262653667981
 40
0.0107815045436989
 50
89.99952171675776
 51
179.9999900368059
 73
     0
 72
     1
 10
1.039708599342002
 20
0.3438262634919964
 11
1.039708786842066
 21
0.3542325259151993
 72
     2
 10
1.050490107634269
 20
0.3542323515402983
 40
0.0107813207936133
 50
180.0009266903443
 51
270.0004583701697
 73
     0
 97
        0
 75
     0
 76
     1
 98
        1
 10
-7.279586802153931
 20
-0.4081141432880261
  0
HATCH
  5
846
330
841
100
AcDbEntity
  8
TITLEBLOCK
 62
     0
100
AcDbHatch
 10
0.0
 20
0.0
 30
0.0
210
0.0
220
0.0
230
1.0
  2
SOLID
 70
     1
 71
     0
 91
        1
 92
        1
 93
       18
 72
     2
 10
2.471082802883087
 20
0.3650137595211706
 40
0.021562563774099
 50
180.0000074732525
 51
269.9997683261728
 73
     0
 72
     1
 10
2.471082715695484
 20
0.3865763232950938
 11
2.586957622645552
 21
0.3865763232950938
 72
     2
 10
2.586957713583391
 20
0.3650135813961111
 40
0.0215627418991744
 50
269.9997583630888
 51
359.999758364108
 73
     0
 72
     1
 10
2.608520455482373
 20
0.3650136723335662
 11
2.608520455482373
 21
0.3542324377902786
 72
     1
 10
2.608520455482373
 20
0.3542324377902786
 11
2.586957622645552
 21
0.3542324377902786
 72
     2
 10
2.576176208103625
 20
0.3542322577916381
 40
0.0107814145434302
 50
0.0009565685814303
 51
90.00095658455173
 73
     1
 72
     1
 10
2.576176028101979
 20
0.3650136723335662
 11
2.481864141488966
 21
0.3650136723335662
 72
     2
 10
2.481864045863444
 20
0.3542323421656055
 40
0.0107813301683848
 50
89.99949181235312
 51
179.9994918168631
 73
     1
 72
     1
 10
2.471082715695484
 20
0.3542324377902786
 11
2.471082715695484
 21
0.2902950591455122
 72
     2
 10
2.481864090863785
 20
0.2902951097704553
 40
0.0107813751684203
 50
180.0002690376259
 51
270.0002690388874
 73
     1
 72
     1
 10
2.481864141488966
 20
0.2795137346021532
 11
2.576176028101979
 21
0.2795135546020104
 72
     2
 10
2.576176073102679
 20
0.2902951041456356
 40
0.010781549543719
 50
269.9997608553225
 51
359.9992825760937
 73
     1
 72
     1
 10
2.586957622645552
 20
0.2902949691454408
 11
2.608520455482373
 21
0.2902950591455122
 72
     1
 10
2.608520455482373
 20
0.2902950591455122
 11
2.608520099232048
 21
0.2795134664769192
 72
     2
 10
2.586957670458414
 20
0.2795136024145366
 40
0.0215624287740632
 50
0.0003612140281018
 51
90.00012704854281
 73
     0
 72
     1
 10
2.586957622645552
 20
0.2579511736405264
 11
2.471082715695484
 21
0.2579511736405264
 72
     2
 10
2.471082667882924
 20
0.2795136024144634
 40
0.02156242877399
 50
89.99987295225965
 51
179.9998729525419
 73
     0
 72
     1
 10
2.449520239108988
 20
0.2795135546020104
 11
2.449520239108988
 21
0.3650137623336376
 97
        0
 75
     0
 76
     1
 98
        1
 10
-7.279586802153931
 20
-0.4081141432880261
  0
HATCH
  5
847
330
841
100
AcDbEntity
  8
TITLEBLOCK
 62
     0
100
AcDbHatch
 10
0.0
 20
0.0
 30
0.0
210
0.0
220
0.0
230
1.0
  2
SOLID
 70
     1
 71
     0
 91
        1
 92
        1
 93
       12
 72
     1
 10
2.026708344139745
 20
0.3865765014202565
 11
1.890208311215626
 21
0.3865765014202565
 72
     1
 10
1.890208311215626
 20
0.3865765014202565
 11
1.890208311215626
 21
0.2579511736405264
 72
     1
 10
1.890208311215626
 20
0.2579511736405264
 11
2.026708344139745
 21
0.2579511736405264
 72
     1
 10
2.026708344139745
 20
0.2579511736405264
 11
2.026708344139745
 21
0.2795135546020104
 72
     1
 10
2.026708344139745
 20
0.2795135546020104
 11
1.911770600302059
 21
0.2795135546020104
 72
     1
 10
1.911770600302059
 20
0.2795135546020104
 11
1.911770600302059
 21
0.3114825579869829
 72
     1
 10
1.911770600302059
 20
0.3114825579869829
 11
2.026708344139745
 21
0.3114825579869829
 72
     1
 10
2.026708344139745
 20
0.3114825579869829
 11
2.026708344139745
 21
0.333044848948566
 72
     1
 10
2.026708344139745
 20
0.333044848948566
 11
1.911770600302059
 21
0.333044848948566
 72
     1
 10
1.911770600302059
 20
0.333044848948566
 11
1.911770600302059
 21
0.3650136723335662
 72
     1
 10
1.911770600302059
 20
0.3650136723335662
 11
2.026708344139745
 21
0.3650136723335662
 72
     1
 10
2.026708344139745
 20
0.3650136723335662
 11
2.026708344139745
 21
0.3865765014202565
 97
        0
 75
     0
 76
     1
 98
        1
 10
-7.279586802153931
 20
-0.4081141432880261
  0
HATCH
  5
848
330
841
100
AcDbEntity
  8
TITLEBLOCK
 62
     0
100
AcDbHatch
 10
0.0
 20
0.0
 30
0.0
210
0.0
220
0.0
230
1.0
  2
SOLID
 70
     1
 71
     0
 91
        2
 92
        1
 93
        8
 72
     1
 10
1.614830743814064
 20
0.3865765014202565
 11
1.531145595393223
 21
0.2579509955155343
 72
     1
 10
1.531145595393223
 20
0.2579509955155343
 11
1.556870855949323
 21
0.2579511736405264
 72
     1
 10
1.556870855949323
 20
0.2579511736405264
 11
1.570898996363819
 21
0.2795135546020104
 72
     1
 10
1.570898996363819
 20
0.2795135546020104
 11
1.673830432358027
 21
0.2795135546020104
 72
     1
 10
1.673830432358027
 20
0.2795135546020104
 11
1.687858760272586
 21
0.2579514417655899
 72
     1
 10
1.687858760272586
 20
0.2579514417655899
 11
1.713583120827973
 21
0.2579514417655899
 72
     1
 10
1.713583120827973
 20
0.2579514417655899
 11
1.629898141157394
 21
0.3865765014202565
 72
     1
 10
1.629898141157394
 20
0.3865765014202565
 11
1.614830743814064
 21
0.3865765014202565
 97
        0
 92
       16
 93
        3
 72
     1
 10
1.622364536235675
 20
0.3586169575295115
 11
1.659801223192726
 21
0.3010763836888712
 72
     1
 10
1.659801223192726
 20
0.3010763836888712
 11
1.584928205528949
 21
0.3010762055637086
 72
     1
 10
1.584928205528949
 20
0.3010762055637086
 11
1.622364348735612
 21
0.3586165994043766
 97
        0
 75
     0
 76
     1
 98
        1
 10
-7.279586802153931
 20
-0.4081141432880261
  0
HATCH
  5
849
330
841
100
AcDbEntity
  8
TITLEBLOCK
 62
     0
100
AcDbHatch
 10
0.0
 20
0.0
 30
0.0
210
0.0
220
0.0
230
1.0
  2
SOLID
 70
     1
 71
     0
 91
        1
 92
        1
 93
       12
 72
     1
 10
1.392021104504447
 20
0.3865765014202565
 11
1.370458815418015
 21
0.3865765014202565
 72
     1
 10
1.370458815418015
 20
0.3865765014202565
 11
1.370458627917951
 21
0.2795138227272444
 72
     2
 10
1.39202114575308
 20
0.2795135133528436
 40
0.0215625178373483
 50
179.999177932392
 51
269.9998903944058
 73
     1
 72
     1
 10
1.392021104504447
 20
0.2579509955155343
 11
1.509583287556818
 21
0.2579511736405264
 72
     2
 10
1.509583335369764
 20
0.2795136024146219
 40
0.0215624287741484
 50
269.9998729512306
 51
359.9996387857453
 73
     1
 72
     1
 10
1.531145764143484
 20
0.2795134664769192
 11
1.531146120393639
 21
0.3865765014202565
 72
     1
 10
1.531146120393639
 20
0.3865765014202565
 11
1.509583287556818
 21
0.3865765014202565
 72
     1
 10
1.509583287556818
 20
0.3865765014202565
 11
1.509583287556818
 21
0.2902950591455122
 72
     2
 10
1.498801916139266
 20
0.290294926019563
 40
0.0107813714183743
 50
359.9992925246018
 51
449.9992925333428
 73
     0
 72
     1
 10
1.49880204926357
 20
0.2795135546020104
 11
1.402802342797695
 21
0.2795135546020104
 72
     2
 10
1.402802382172719
 20
0.2902950197703451
 40
0.0107814651684066
 50
90.00020925010334
 51
180.0002092508632
 73
     0
 72
     1
 10
1.392020917004384
 20
0.2902950591455122
 11
1.392021104504447
 21
0.3865765014202565
 97
        0
 75
     0
 76
     1
 98
        1
 10
-7.279586802153931
 20
-0.4081141432880261
  0
HATCH
  5
84A
330
841
100
AcDbEntity
  8
TITLEBLOCK
 62
     0
100
AcDbHatch
 10
0.0
 20
0.0
 30
0.0
210
0.0
220
0.0
230
1.0
  2
SOLID
 70
     1
 71
     0
 91
        2
 92
        1
 93
       13
 72
     2
 10
1.851958289039648
 20
0.2899198104641797
 40
0.0215625675244637
 50
0.0002565813902296
 51
90.00070498518821
 73
     1
 72
     2
 10
1.851958289040149
 20
0.3330449455099156
 40
0.0215625675245372
 50
269.9992950134807
 51
359.9995092535441
 73
     1
 72
     1
 10
1.873520856563896
 20
0.3330447608234748
 11
1.873520856563896
 21
0.3650136657708798
 72
     2
 10
1.851957894958188
 20
0.3650135398162329
 40
0.0215629616060761
 50
0.0003346789653151
 51
89.99920945081219
 73
     1
 72
     1
 10
1.851958192477166
 20
0.3865765014202565
 11
1.720333350237904
 21
0.3865765014202565
 72
     1
 10
1.720333350237904
 20
0.3865765014202565
 11
1.720333350237904
 21
0.2579511736405264
 72
     1
 10
1.720333350237904
 20
0.2579511736405264
 11
1.741896183074725
 21
0.2579511736405264
 72
     1
 10
1.741896183074725
 20
0.2579511736405264
 11
1.741896183074725
 21
0.3007013215688856
 72
     1
 10
1.741896183074725
 20
0.3007013215688856
 11
1.841176785433827
 21
0.3007013215688856
 72
     2
 10
1.841176693559081
 20
0.2899201789011263
 40
0.0107811426681508
 50
270.0004882631974
 51
360.0004882673548
 73
     0
 72
     1
 10
1.851957836226841
 20
0.289920087025598
 11
1.851958192477166
 21
0.2579511736405264
 72
     1
 10
1.851958192477166
 20
0.2579511736405264
 11
1.873520856563896
 21
0.2579511736405264
 72
     1
 10
1.873520856563896
 20
0.2579511736405264
 11
1.873520856563896
 21
0.2899199070254552
 97
        0
 92
       16
 93
        6
 72
     2
 10
1.841176693559081
 20
0.3542325296658069
 40
0.0107811426681508
 50
270.0004882631974
 51
360.0004882673548
 73
     0
 72
     1
 10
1.851957836226841
 20
0.3542324377902786
 11
1.851958192477166
 21
0.333044848948566
 72
     2
 10
1.841176871684197
 20
0.333044935198247
 40
0.0107813207933138
 50
0.0004583615308307
 51
90.00045836519477
 73
     0
 72
     1
 10
1.841176785433827
 20
0.3222636144052784
 11
1.741896183074725
 21
0.3222638825303419
 72
     1
 10
1.741896183074725
 20
0.3222638825303419
 11
1.741896183074725
 21
0.3650136723335662
 72
     1
 10
1.741896183074725
 20
0.3650136723335662
 11
1.841176785433827
 21
0.3650136723335662
 97
        0
 75
     0
 76
     1
 98
        1
 10
-7.279586802153931
 20
-0.4081141432880261
  0
HATCH
  5
84B
330
841
100
AcDbEntity
  8
TITLEBLOCK
 62
     0
100
AcDbHatch
 10
0.0
 20
0.0
 30
0.0
210
0.0
220
0.0
230
1.0
  2
SOLID
 70
     1
 71
     0
 91
        2
 92
        1
 93
       10
 72
     1
 10
2.168832611988261
 20
0.3650136723335662
 11
2.168832611988261
 21
0.2795135546021492
 72
     1
 10
2.168832611988261
 20
0.2795135546021492
 11
2.148020079641632
 21
0.2795135546021492
 72
     1
 10
2.148020079641632
 20
0.2795135546021492
 11
2.148020079641632
 21
0.2579511736406499
 72
     1
 10
2.148020079641632
 20
0.2579511736406499
 11
2.314895263659607
 21
0.2579511736406499
 72
     2
 10
2.314895311472477
 20
0.2795136024147182
 40
0.0215624287741214
 50
269.9998729514336
 51
359.9996387859474
 73
     1
 72
     1
 10
2.336457740246171
 20
0.2795134664770916
 11
2.336457740246171
 21
0.3650136723335662
 72
     2
 10
2.314895087410214
 20
0.3650138485844006
 40
0.0215626528366775
 50
359.9995316703829
 51
449.999531674211
 73
     1
 72
     1
 10
2.314895263659607
 20
0.386576501420358
 11
2.148020079641632
 21
0.386576501420358
 72
     1
 10
2.148020079641632
 20
0.386576501420358
 11
2.148020079641632
 21
0.3650136723335662
 72
     1
 10
2.148020079641632
 20
0.3650136723335662
 11
2.168832611988261
 21
0.3650136723335662
 97
        0
 92
       16
 93
        6
 72
     1
 10
2.190395257324933
 20
0.3650136723335662
 11
2.304113856616218
 21
0.3650136723335662
 72
     2
 10
2.304113942866619
 20
0.3542323515405775
 40
0.0107813207933337
 50
269.9995416346447
 51
359.9995416383139
 73
     0
 72
     1
 10
2.314895263659607
 20
0.3542324377902877
 11
2.314895263659607
 21
0.2902949691455452
 72
     2
 10
2.304113807866077
 20
0.2902950103956483
 40
0.0107814557936096
 50
0.0002192149982456
 51
89.99974092762393
 73
     0
 72
     1
 10
2.304113856616218
 20
0.2795135546021492
 11
2.190395257324933
 21
0.2795135546021492
 72
     1
 10
2.190395257324933
 20
0.2795135546021492
 11
2.190395257324933
 21
0.3650136723335662
 97
        0
 75
     0
 76
     1
 98
        1
 10
-7.279586802153931
 20
-0.4081141432880261
  0
HATCH
  5
84C
330
841
100
AcDbEntity
  8
TITLEBLOCK
 62
     0
100
AcDbHatch
 10
0.0
 20
0.0
 30
0.0
210
0.0
220
0.0
230
1.0
  2
SOLID
 70
     1
 71
     0
 91
        2
 92
        1
 93
        8
 72
     1
 10
3.241392303571654
 20
0.3865765014202565
 11
3.157707226761072
 21
0.2579509955155343
 72
     1
 10
3.157707226761072
 20
0.2579509955155343
 11
3.183432299816939
 21
0.2579511736405264
 72
     1
 10
3.183432299816939
 20
0.2579511736405264
 11
3.197460983981823
 21
0.2795133764768478
 72
     1
 10
3.197460983981823
 20
0.2795133764768478
 11
3.30039082622498
 21
0.2795135546020104
 72
     1
 10
3.30039082622498
 20
0.2795135546020104
 11
3.314419679139785
 21
0.2579514417655899
 72
     1
 10
3.314419679139785
 20
0.2579514417655899
 11
3.340144583445731
 21
0.2579511736405264
 72
     1
 10
3.340144583445731
 20
0.2579511736405264
 11
3.256459603774981
 21
0.3865765014202565
 72
     1
 10
3.256459603774981
 20
0.3865765014202565
 11
3.241392303571654
 21
0.3865765014202565
 97
        0
 92
       16
 93
        3
 72
     1
 10
3.248925740352245
 20
0.358616778466603
 11
3.211489480646473
 21
0.3010762055637086
 72
     1
 10
3.211489480646473
 20
0.3010762055637086
 11
3.28636178580994
 21
0.3010763836888712
 72
     1
 10
3.28636178580994
 20
0.3010763836888712
 11
3.248925740352245
 21
0.358616778466603
 97
        0
 75
     0
 76
     1
 98
        1
 10
-7.279586802153931
 20
-0.4081141432880261
  0
HATCH
  5
84D
330
841
100
AcDbEntity
  8
TITLEBLOCK
 62
     0
100
AcDbHatch
 10
0.0
 20
0.0
 30
0.0
210
0.0
220
0.0
230
1.0
  2
SOLID
 70
     1
 71
     0
 91
        1
 92
        1
 93
       13
 72
     1
 10
2.838488736968525
 20
0.3865765014202565
 11
2.806145209588674
 21
0.3865765014202565
 72
     1
 10
2.806145209588674
 20
0.3865765014202565
 11
2.806145209588674
 21
0.2579511736405264
 72
     1
 10
2.806145209588674
 20
0.2579511736405264
 11
2.827707667425368
 21
0.2579511736405264
 72
     1
 10
2.827707667425368
 20
0.2579511736405264
 11
2.827707667425368
 21
0.3640633654626753
 72
     1
 10
2.827707667425368
 20
0.3640633654626753
 11
2.899718420719221
 21
0.2579514417655899
 72
     1
 10
2.899718420719221
 20
0.2579514417655899
 11
2.922570860648686
 21
0.2579511736405264
 72
     1
 10
2.922570860648686
 20
0.2579511736405264
 11
2.994582138942956
 21
0.3640642598382782
 72
     1
 10
2.994582138942956
 20
0.3640642598382782
 11
2.994582138942956
 21
0.2579511736405264
 72
     1
 10
2.994582138942956
 20
0.2579511736405264
 11
3.016144596779479
 21
0.2579511736405264
 72
     1
 10
3.016144596779479
 20
0.2579511736405264
 11
3.016144596779479
 21
0.3865765014202565
 72
     1
 10
3.016144596779479
 20
0.3865765014202565
 11
2.983801425649954
 21
0.3865765014202565
 72
     1
 10
2.983801425649954
 20
0.3865765014202565
 11
2.911144640683954
 21
0.2795135546020104
 72
     1
 10
2.911144640683954
 20
0.2795135546020104
 11
2.838488380718199
 21
0.3865765014202565
 97
        0
 75
     0
 76
     1
 98
        1
 10
-7.279586802153931
 20
-0.4081141432880261
  0
HATCH
  5
84E
330
841
100
AcDbEntity
  8
TITLEBLOCK
 62
     0
100
AcDbHatch
 10
0.0
 20
0.0
 30
0.0
210
0.0
220
0.0
230
1.0
  2
SOLID
 70
     1
 71
     0
 91
        2
 92
        1
 93
        8
 72
     1
 10
2.79358243888161
 20
0.2795134664769192
 11
2.793582795131936
 21
0.3650136723335662
 72
     2
 10
2.772020240733041
 20
0.3650137688961994
 40
0.0215625543991104
 50
359.9997434148459
 51
449.999743415997
 73
     1
 72
     1
 10
2.772020337295241
 20
0.3865763232950938
 11
2.640957676673206
 21
0.3865763232950938
 72
     2
 10
2.640957763860811
 20
0.3650137595211699
 40
0.0215625637741002
 50
90.00023167383188
 51
179.9999925267453
 73
     1
 72
     1
 10
2.61939520008671
 20
0.3650137623336376
 11
2.61939520008671
 21
0.2795135546020104
 72
     2
 10
2.640957628860649
 20
0.2795136024144641
 40
0.0215624287739915
 50
180.0001270474597
 51
270.0001270477355
 73
     1
 72
     1
 10
2.640957676673206
 20
0.2579511736405264
 11
2.772020337295241
 21
0.2579511736405264
 72
     2
 10
2.772020197607671
 20
0.2795134149140743
 40
0.0215622412740004
 50
270.000371181646
 51
360.000137014207
 73
     1
 97
        0
 92
       16
 93
        8
 72
     2
 10
2.651738913091431
 20
0.3542324359149649
 40
0.0107812364186015
 50
89.9999900344766
 51
179.999521702949
 73
     1
 72
     1
 10
2.640957676673206
 20
0.3542325259151993
 11
2.640957676673206
 21
0.2902950591455122
 72
     2
 10
2.651738958091508
 20
0.2902950160204556
 40
0.010781281418388
 50
179.9997708172488
 51
269.9997708181704
 73
     1
 72
     1
 10
2.651738914966625
 20
0.2795137346021532
 11
2.761238742751839
 21
0.2795135546020104
 72
     2
 10
2.761238956501978
 20
0.2902951041442614
 40
0.0107815495443698
 50
269.9988640797126
 51
359.9992825833961
 73
     1
 72
     1
 10
2.772020506045503
 20
0.2902949691454408
 11
2.772020337295241
 21
0.3542324377902786
 72
     2
 10
2.761239007127366
 20
0.3542323421656908
 40
0.0107813301682991
 50
0.0005081826837109
 51
90.00050818719378
 73
     1
 72
     1
 10
2.76123891150193
 20
0.3650136723335662
 11
2.651738914966625
 21
0.3650136723335662
 97
        0
 75
     0
 76
     1
 98
        1
 10
-7.279586802153931
 20
-0.4081141432880261
  0
HATCH
  5
84F
330
841
100
AcDbEntity
  8
TITLEBLOCK
 62
     0
100
AcDbHatch
 10
0.0
 20
0.0
 30
0.0
210
0.0
220
0.0
230
1.0
  2
SOLID
 70
     1
 71
     0
 91
        2
 92
        1
 93
        8
 72
     2
 10
3.162769048174736
 20
0.3650134554401196
 40
0.0215630459811904
 50
270.0005663490367
 51
359.9994236862867
 73
     0
 72
     1
 10
3.184332094154836
 20
0.3650136723335662
 11
3.184332094154836
 21
0.3222638825303419
 72
     2
 10
3.162769397256125
 20
0.3222640184675962
 40
0.0215626968991391
 50
0.0003612085718475
 51
90.00036121084693
 73
     0
 72
     1
 10
3.162769261318015
 20
0.3007013215688856
 11
3.052707420665665
 21
0.3007013215688856
 72
     1
 10
3.052707420665665
 20
0.3007013215688856
 11
3.052707420665665
 21
0.2579511736405264
 72
     1
 10
3.052707420665665
 20
0.2579511736405264
 11
3.031144250328662
 21
0.2579511736405264
 72
     1
 10
3.031144250328662
 20
0.2579511736405264
 11
3.031144250328662
 21
0.3865765014202565
 72
     1
 10
3.031144250328662
 20
0.3865765014202565
 11
3.162769261318015
 21
0.3865765014202565
 97
        0
 92
       16
 93
        6
 72
     2
 10
3.151988118650169
 20
0.3542325296657216
 40
0.0107811426682361
 50
270.0004882627443
 51
360.0004882669015
 73
     0
 72
     1
 10
3.162769261318015
 20
0.3542324377902786
 11
3.162769261318015
 21
0.333044848948566
 72
     2
 10
3.151988118650169
 20
0.333044757073123
 40
0.0107811426682367
 50
359.9995117330984
 51
449.9995117372556
 73
     0
 72
     1
 10
3.15198821052483
 20
0.3222636144052784
 11
3.052707420665665
 21
0.3222638825303419
 72
     1
 10
3.052707420665665
 20
0.3222638825303419
 11
3.052707420665665
 21
0.3650136723335662
 72
     1
 10
3.052707420665665
 20
0.3650136723335662
 11
3.15198821052483
 21
0.3650136723335662
 97
        0
 75
     0
 76
     1
 98
        1
 10
-7.279586802153931
 20
-0.4081141432880261
  0
HATCH
  5
850
330
841
100
AcDbEntity
  8
TITLEBLOCK
 62
     0
100
AcDbHatch
 10
0.0
 20
0.0
 30
0.0
210
0.0
220
0.0
230
1.0
  2
SOLID
 70
     1
 71
     0
 91
        1
 92
        1
 93
        9
 72
     1
 10
3.556847887515953
 20
0.3865763232950938
 11
3.525206566844968
 21
0.3865765014202565
 72
     1
 10
3.525206566844968
 20
0.3865765014202565
 11
3.60348814923547
 21
0.3136817019238036
 72
     1
 10
3.60348814923547
 20
0.3136817019238036
 11
3.603486349234383
 21
0.2579511736405264
 72
     1
 10
3.603486349234383
 20
0.2579511736405264
 11
3.625050607072164
 21
0.2579511736405264
 72
     1
 10
3.625050607072164
 20
0.2579511736405264
 11
3.625050607072164
 21
0.3136813437984982
 72
     1
 10
3.625050607072164
 20
0.3136813437984982
 11
3.703331833212512
 21
0.3865766795454191
 72
     1
 10
3.703331833212512
 20
0.3865766795454191
 11
3.671691225042007
 21
0.3865765014202565
 72
     1
 10
3.671691225042007
 20
0.3865765014202565
 11
3.61426955627898
 21
0.3331056458632473
 72
     1
 10
3.61426955627898
 20
0.3331056458632473
 11
3.556847887515953
 21
0.3865763232950938
 97
        0
 75
     0
 76
     1
 98
        1
 10
-7.279586802153931
 20
-0.4081141432880261
  0
HATCH
  5
851
330
841
100
AcDbEntity
  8
TITLEBLOCK
 62
     0
100
AcDbHatch
 10
0.0
 20
0.0
 30
0.0
210
0.0
220
0.0
230
1.0
  2
SOLID
 70
     1
 71
     0
 91
        1
 92
        1
 93
       10
 72
     1
 10
3.376247484495632
 20
0.3865765014202565
 11
3.345207161752892
 21
0.3865765014202565
 72
     1
 10
3.345207161752892
 20
0.3865765014202565
 11
3.345207161752892
 21
0.2579511736405264
 72
     1
 10
3.345207161752892
 20
0.2579511736405264
 11
3.366769638339558
 21
0.2579511736405264
 72
     1
 10
3.366769638339558
 20
0.2579511736405264
 11
3.366769638339558
 21
0.3659393041881229
 72
     1
 10
3.366769638339558
 20
0.3659393041881229
 11
3.48273627034943
 21
0.2579509955155343
 72
     1
 10
3.48273627034943
 20
0.2579509955155343
 11
3.515082122730785
 21
0.2579511736405264
 72
     1
 10
3.515082122730785
 20
0.2579511736405264
 11
3.515082122730785
 21
0.3865765014202565
 72
     1
 10
3.515082122730785
 20
0.3865765014202565
 11
3.49351767739277
 21
0.3865765014202565
 72
     1
 10
3.49351767739277
 20
0.3865765014202565
 11
3.49351767739277
 21
0.277374671329744
 72
     1
 10
3.49351767739277
 20
0.277374671329744
 11
3.376247484495632
 21
0.3865765014202565
 97
        0
 75
     0
 76
     1
 98
        1
 10
-7.279586802153931
 20
-0.4081141432880261
  0
ENDBLK
  5
853
330
841
100
AcDbEntity
  8
0
100
AcDbBlockEnd
  0
BLOCK
  5
AF5
330
AE5
100
AcDbEntity
  8
0
100
AcDbBlockBegin
  2
TITLE-PAD
 70
     2
 10
0.0
 20
0.0
 30
0.0
  3
TITLE-PAD
  1

  0
LWPOLYLINE
  5
B1D
330
AE5
100
AcDbEntity
  8
CONTINUOUS2
 62
     0
100
AcDbPolyline
 90
        7
 70
     1
 43
0.0
 10
16.40000099999999
 20
0.0
 10
16.40000099999999
 20
0.0
 10
16.40000099999999
 20
0.0
 10
8.002461
 20
0.0
 10
8.002461
 20
0.9120019999999993
 10
16.40000099999999
 20
0.9120019999999993
 10
16.40000099999999
 20
0.0
  0
INSERT
  5
B1E
330
AE5
100
AcDbEntity
  8
TITLEBLOCK
 62
     0
100
AcDbBlockReference
  2
LOGO-PAD
 10
12.245701
 20
0.3040000000000003
 30
0.0
  0
LINE
  5
B1F
330
AE5
100
AcDbEntity
  8
CONTINUOUS2
 62
     0
100
AcDbLine
 10
16.40000099999999
 20
0.3040000000000003
 30
0.0
 11
12.245701
 21
0.3040000000000003
 31
0.0
  0
LINE
  5
B20
330
AE5
100
AcDbEntity
  8
CONTINUOUS2
 62
     0
100
AcDbLine
 10
12.245701
 20
0.9120019999999993
 30
0.0
 11
12.245701
 21
0.0
 31
0.0
  0
TEXT
  5
B21
330
AE5
100
AcDbEntity
  8
TEXT1
  6
CONTINUOUS
 62
     0
100
AcDbText
 10
12.36897712113656
 20
0.0611566731182909
 30
0.0
 40
0.0699999951940822
  1
NO.
  7
ROMANS
 11
12.36897712113656
 21
0.096156670715332
 31
0.0
100
AcDbText
 73
     2
  0
TEXT
  5
B22
330
AE5
100
AcDbEntity
  8
TEXT1
  6
CONTINUOUS
 62
     0
100
AcDbText
 10
12.36897712113656
 20
0.1661566731182908
 30
0.0
 40
0.0699999951940822
  1
DWG#
  7
ROMANS
 11
12.36897712113656
 21
0.2011566707153319
 31
0.0
100
AcDbText
 73
     2
  0
ATTDEF
  5
B23
330
AE5
100
AcDbEntity
  8
TEXT1
 62
     0
100
AcDbText
 10
10.10183834893798
 20
0.7474460884590166
 30
0.0
 40
0.1
  1

  7
ROMANS
 72
     4
 11
10.10183834893798
 21
0.7474460884590166
 31
0.0
100
AcDbAttributeDefinition
  3
DESCRIPTION 1
  2
DESCRIPTION 1
 70
     0
  0
ATTDEF
  5
B24
330
AE5
100
AcDbEntity
  8
TEXT1
 62
     0
100
AcDbText
 10
10.10183834893798
 20
0.6017231711406717
 30
0.0
 40
0.1
  1

  7
ROMANS
 72
     4
 11
10.10183834893798
 21
0.6017231711406717
 31
0.0
100
AcDbAttributeDefinition
  3
DESCRIPTION 2
  2
DESCRIPTION 2
 70
     0
  0
ATTDEF
  5
B25
330
AE5
100
AcDbEntity
  8
TEXT1
 62
     0
100
AcDbText
 10
10.10183834893798
 20
0.4560002538223267
 30
0.0
 40
0.08
  1

  7
ROMANS
 72
     4
 11
10.10183834893798
 21
0.4560002538223267
 31
0.0
100
AcDbAttributeDefinition
  3
DESCRIPTION 3
  2
DESCRIPTION 3
 70
     0
  0
ATTDEF
  5
B26
330
AE5
100
AcDbEntity
  8
TEXT1
 62
     0
100
AcDbText
 10
10.10183834893798
 20
0.3202773365039833
 30
0.0
 40
0.08
  1

  7
ROMANS
 72
     4
 11
10.10183834893798
 21
0.3202773365039833
 31
0.0
100
AcDbAttributeDefinition
  3
DESCRIPTION 4
  2
DESCRIPTION 4
 70
     0
  0
ATTDEF
  5
B27
330
AE5
100
AcDbEntity
  8
TEXT1
 62
     0
100
AcDbText
 10
10.10183834893798
 20
0.1845544191856399
 30
0.0
 40
0.08
  1

  7
ROMANS
 72
     4
 11
10.10183834893798
 21
0.1845544191856399
 31
0.0
100
AcDbAttributeDefinition
  3
DESCRIPTION 5
  2
DESCRIPTION 5
 70
     0
  0
ATTDEF
  5
B28
330
AE5
100
AcDbEntity
  8
TEXT1
 62
     0
100
AcDbText
 10
12.74772367103195
 20
0.096540546036505
 30
0.0
 40
0.12
  1

 41
0.9512024731840066
  7
M_STANDARD
 11
12.74772367103195
 21
0.156540546036505
 31
0.0
100
AcDbAttributeDefinition
  3
DRAWING NUMBER
  2
DWGNO
 70
     0
 74
     2
  0
ATTDEF
  5
B29
330
AE5
100
AcDbEntity
  8
TEXT1
 62
     0
100
AcDbText
 10
16.35506454949325
 20
-0.1507193079929352
 30
0.0
 40
0.08
  1

  7
ROMANS
 72
     2
 11
16.35506454949325
 21
-0.1107193079929352
 31
0.0
100
AcDbAttributeDefinition
  3
REF DWG #
  2
REF
 70
     0
 74
     2
  0
ATTDEF
  5
B2A
330
AE5
100
AcDbEntity
  8
TEXT1
 62
     0
100
AcDbText
 10
0.0266402374038712
 20
-0.1507193079929352
 30
0.0
 40
0.08
  1

  7
ROMANS
 11
0.0266402374038712
 21
-0.1107193079929352
 31
0.0
100
AcDbAttributeDefinition
  3
DATE MODIFIED
  2
DATE
 70
     0
 74
     2
  0
LWPOLYLINE
  5
B2B
330
AE5
100
AcDbEntity
  8
CONTINUOUS3
 62
     0
100
AcDbPolyline
 90
        4
 70
   129
 43
0.0
 10
0.0
 20
0.0
 10
16.40000099999999
 20
0.0
 10
16.40000099999999
 20
10.25
 10
0.0
 20
10.25
  0
ENDBLK
  5
AF6
330
AE5
100
AcDbEntity
  8
0
100
AcDbBlockEnd
  0
BLOCK
  5
D84
330
D52
100
AcDbEntity
  8
0
100
AcDbBlockBegin
  2
OEM-NOTES
 70
     0
 10
0.0
 20
0.0
 30
0.0
  3
OEM-NOTES
  1

  0
LWPOLYLINE
  5
D53
330
D52
100
AcDbEntity
  8
TITLEBLOCK
100
AcDbPolyline
 90
        2
 70
     0
 43
0.0128
 10
8.625
 20
1.599999999999996
 10
0.0
 20
1.6
  0
TEXT
  5
D57
330
D52
100
AcDbEntity
  8
TITLEBLOCK
100
AcDbText
 10
0.3131249999999959
 20
0.7406249999999998
 30
0.0
 40
0.13125
  1
BE USED ONLY IN CONFORMANCE WITH INSTRUCTIONS ISSUED BY SQUARE D COMPANY.
 41
0.9
  7
SIMPLEX
 72
     4
 11
4.3125
 21
0.7999999999999999
 31
0.0
100
AcDbText
  0
TEXT
  5
D58
330
D52
100
AcDbEntity
  8
TITLEBLOCK
100
AcDbText
 10
0.2540625000000007
 20
1.045625000000001
 30
0.0
 40
0.13125
  1
HEREON. THIS INFORMATION REMAINS THE PROPERTY OF SQUARE D COMPANY AND MAY
 41
0.9
  7
SIMPLEX
 72
     4
 11
4.3125
 21
1.105000000000001
 31
0.0
100
AcDbText
  0
TEXT
  5
D59
330
D52
100
AcDbEntity
  8
TITLEBLOCK
100
AcDbText
 10
0.3046875
 20
1.338124999999997
 30
0.0
 40
0.13125
  1
"THE SQUARE D COMPANY HAS PROPRIETARY RIGHTS TO THE INFORMATION CONTAINED
 41
0.9
  7
SIMPLEX
 72
     4
 11
4.3125
 21
1.409999999999997
 31
0.0
100
AcDbText
  0
TEXT
  5
D5A
330
D52
100
AcDbEntity
  8
TITLEBLOCK
100
AcDbText
 10
0.6309374999999977
 20
0.4387499999999984
 30
0.0
 40
0.13125
  1
USER SHOULD VERIFY DRAWINGS ARE TO THE LATEST/CURRENT REVISION PRIOR
 41
0.9
  7
SIMPLEX
 72
     4
 11
4.3125
 21
0.4949999999999984
 31
0.0
100
AcDbText
  0
TEXT
  5
D5B
330
D52
100
AcDbEntity
  8
TITLEBLOCK
100
AcDbText
 10
2.5490625
 20
0.1368749999999972
 30
0.0
 40
0.13125
  1
TO INCORPORATING IN A DESIGN FILE."
 41
0.9
  7
SIMPLEX
 72
     4
 11
4.3125
 21
0.2149999999999972
 31
0.0
100
AcDbText
  0
TEXT
  5
D5C
330
D52
100
AcDbEntity
  8
TITLEBLOCK
100
AcDbText
 10
9.046378855339687
 20
0.2629426489623099
 30
0.0
 40
0.112
  1
UNLESS OTHERWISE SPECIFIED DIMENSIONS ARE IN INCHES
 41
0.8
  7
SIMPLEX
 72
     4
 11
11.06451218867302
 21
0.3189426489623099
 31
0.0
100
AcDbText
  0
LWPOLYLINE
  5
D5D
330
D52
100
AcDbEntity
  8
TITLEBLOCK
100
AcDbPolyline
 90
        2
 70
     0
 43
0.0128
 10
8.625
 20
0.9599999999999964
 10
16.00492200000007
 20
0.9599999999999964
  0
TEXT
  5
D61
330
D52
100
AcDbEntity
  8
TITLEBLOCK
100
AcDbText
 10
8.7837120071254
 20
0.5472199999999967
 30
0.0
 40
0.2433162500000002
  1
%%uDO NOT SCALE DRAWING
  7
SIMPLEX
 72
     1
 11
11.06451218867302
 21
0.5472199999999967
 31
0.0
100
AcDbText
  0
LWPOLYLINE
  5
D62
330
D52
100
AcDbEntity
  8
TITLEBLOCK
100
AcDbPolyline
 90
        2
 70
     0
 43
0.0128
 10
8.625
 20
0.9599999999999964
 10
8.625
 20
0.0000000000000009
  0
LWPOLYLINE
  5
D66
330
D52
100
AcDbEntity
  8
TITLEBLOCK
100
AcDbPolyline
 90
        2
 70
     0
 43
0.0128
 10
8.625
 20
0.0000000000000009
 10
8.625
 20
1.6
  0
LWPOLYLINE
  5
D6A
330
D52
100
AcDbEntity
  8
TITLEBLOCK
100
AcDbPolyline
 90
        2
 70
     0
 43
0.0128
 10
13.49242200000007
 20
1.599999999999995
 10
13.49242200000007
 20
0.0000000000000009
  0
TEXT
  5
D6E
330
D52
100
AcDbEntity
  8
TITLEBLOCK
100
AcDbText
 10
13.77242200000007
 20
0.2099999999999964
 30
0.0
 40
0.1
  1
2 PLACE DECIMALS
  7
SIMPLEX
100
AcDbText
  0
TEXT
  5
D6F
330
D52
100
AcDbEntity
  8
TITLEBLOCK
100
AcDbText
 10
13.62242200000007
 20
0.4474999999999972
 30
0.0
 40
0.1
  1
UNLESS OTHERWISE SPECIFIED
  7
SIMPLEX
100
AcDbText
  0
TEXT
  5
D70
330
D52
100
AcDbEntity
  8
TITLEBLOCK
100
AcDbText
 10
15.57242200000007
 20
0.2099999999999964
 30
0.0
 40
0.1
  1
.01
  7
SIMPLEX
100
AcDbText
  0
LINE
  5
D71
330
D52
100
AcDbEntity
  8
TITLEBLOCK
100
AcDbLine
 10
15.35492200000008
 20
0.2187499999999973
 30
0.0
 11
15.45492200000008
 21
0.2187499999999973
 31
0.0
  0
TEXT
  5
D72
330
D52
100
AcDbEntity
  8
TITLEBLOCK
100
AcDbText
 10
15.35992200000007
 20
0.2474999999999961
 30
0.0
 40
0.1
  1
+
  7
SIMPLEX
100
AcDbText
  0
LWPOLYLINE
  5
D73
330
D52
100
AcDbEntity
  8
TITLEBLOCK
100
AcDbPolyline
 90
        2
 70
     0
 43
0.0128
 10
16.00492200000007
 20
1.599999999999995
 10
13.49242200000007
 20
1.599999999999995
  0
TEXT
  5
D77
330
D52
100
AcDbEntity
  8
TITLEBLOCK
100
AcDbText
 10
13.62242200000007
 20
1.147499999999996
 30
0.0
 40
0.1
  1
PROJECTION
  7
SIMPLEX
100
AcDbText
  0
TEXT
  5
D78
330
D52
100
AcDbEntity
  8
TITLEBLOCK
100
AcDbText
 10
13.55992200000007
 20
1.347499999999997
 30
0.0
 40
0.1
  1
THIRD ANGLE
  7
SIMPLEX
100
AcDbText
  0
LINE
  5
D79
330
D52
100
AcDbEntity
  8
TITLEBLOCK
100
AcDbLine
 10
14.69692486880008
 20
1.300351715199997
 30
0.0
 11
15.91292523520008
 21
1.300351715199997
 31
0.0
  0
TEXT
  5
D7A
330
D52
100
AcDbEntity
  8
TITLEBLOCK
100
AcDbText
 10
14.04742200000008
 20
0.6974999999999972
 30
0.0
 40
0.15
  1
%%uTOLERANCES
  7
SIMPLEX
100
AcDbText
  0
LINE
  5
D7B
330
D52
100
AcDbEntity
  8
TITLEBLOCK
100
AcDbLine
 10
14.95292615040008
 20
1.396354294399999
 30
0.0
 11
14.95292615040008
 21
1.524354553599997
 31
0.0
  0
CIRCLE
  5
D7C
330
D52
100
AcDbEntity
  8
TITLEBLOCK
100
AcDbCircle
 10
14.95292615040008
 20
1.300352668799996
 30
0.0
 40
0.1279999615999998
  0
CIRCLE
  5
D7D
330
D52
100
AcDbEntity
  8
TITLEBLOCK
100
AcDbCircle
 10
14.95292615040008
 20
1.300352668799996
 30
0.0
 40
0.064000004799999
  0
LINE
  5
D7E
330
D52
100
AcDbEntity
  8
TITLEBLOCK
100
AcDbLine
 10
14.95292615040008
 20
1.332351302399996
 30
0.0
 11
14.95292615040008
 21
1.268351172799996
 31
0.0
  0
LINE
  5
D7F
330
D52
100
AcDbEntity
  8
TITLEBLOCK
100
AcDbLine
 10
14.95292615040008
 20
1.204351996799997
 30
0.0
 11
14.95292615040008
 21
1.076351737599998
 31
0.0
  0
LINE
  5
D80
330
D52
100
AcDbEntity
  8
TITLEBLOCK
100
AcDbLine
 10
15.78492230560007
 20
1.172351455999998
 30
0.0
 11
15.33692425760007
 21
1.236351585599996
 31
0.0
  0
LINE
  5
D81
330
D52
100
AcDbEntity
  8
TITLEBLOCK
100
AcDbLine
 10
15.33692425760007
 20
1.364351844799998
 30
0.0
 11
15.78492230560007
 21
1.428351020799996
 31
0.0
  0
LINE
  5
D82
330
D52
100
AcDbEntity
  8
TITLEBLOCK
100
AcDbLine
 10
15.33692425760007
 20
1.236351585599996
 30
0.0
 11
15.33692425760007
 21
1.364351844799998
 31
0.0
  0
LINE
  5
D83
330
D52
100
AcDbEntity
  8
TITLEBLOCK
100
AcDbLine
 10
15.78492230560007
 20
1.428351020799996
 30
0.0
 11
15.78492230560007
 21
1.172351455999998
 31
0.0
  0
ENDBLK
  5
D85
330
D52
100
AcDbEntity
  8
0
100
AcDbBlockEnd
  0
BLOCK
  5
8A6A
330
8A57
100
AcDbEntity
  8
0
100
AcDbBlockBegin
  2
REF2
 70
     2
 10
0.0
 20
0.0
 30
0.0
  3
REF2
  1

  0
ATTDEF
  5
8A58
330
8A57
100
AcDbEntity
  8
TEXT1
100
AcDbText
 10
2.0
 20
0.2204373050885353
 30
0.0
 40
0.125
  1

100
AcDbAttributeDefinition
  3
Mounting Hardware?
  2
MOUNTING_HWD
 70
     0
  0
ATTDEF
  5
8A59
330
8A57
100
AcDbEntity
  8
TEXT1
100
AcDbText
 10
2.0
 20
0.4484790897328282
 30
0.0
 40
0.125
  1

100
AcDbAttributeDefinition
  3
Terminal Torque
  2
TERM_TORQUE
 70
     0
  0
ATTDEF
  5
8A5A
330
8A57
100
AcDbEntity
  8
TEXT1
100
AcDbText
 10
2.0
 20
0.6579373050885355
 30
0.0
 40
0.125
  1

100
AcDbAttributeDefinition
  3
Wire Size?
  2
WIRE_SIZE
 70
     0
  0
ATTDEF
  5
8A5B
330
8A57
100
AcDbEntity
  8
TEXT1
100
AcDbText
 10
2.0
 20
0.8564164127663893
 30
0.0
 40
0.125
  1

100
AcDbAttributeDefinition
  3
Weight?
  2
WEIGHT
 70
     0
  0
ATTDEF
  5
8A5C
330
8A57
100
AcDbEntity
  8
TEXT1
100
AcDbText
 10
2.0
 20
1.0625
 30
0.0
 40
0.125
  1

100
AcDbAttributeDefinition
  3
Meets Standards
  2
STANDARDS
 70
     0
  0
ATTDEF
  5
8A5D
330
8A57
100
AcDbEntity
  8
TEXT1
100
AcDbText
 10
2.0
 20
1.293916394821363
 30
0.0
 40
0.125
  1

100
AcDbAttributeDefinition
  3
CSA File/Guide
  2
CSA
 70
     0
  0
ATTDEF
  5
8A5E
330
8A57
100
AcDbEntity
  8
TEXT1
100
AcDbText
 10
2.010983301335642
 20
1.5
 30
0.0
 40
0.125
  1

100
AcDbAttributeDefinition
  3
UL File/Guide?
  2
UL
 70
     0
  0
ATTDEF
  5
8A5F
330
8A57
100
AcDbEntity
  8
TEXT1
100
AcDbText
 10
2.0
 20
1.720437305088535
 30
0.0
 40
0.125
  1

100
AcDbAttributeDefinition
  3
Ratings?
  2
RATING
 70
     0
  0
ATTDEF
  5
8A60
330
8A57
100
AcDbEntity
  8
TEXT1
100
AcDbText
 10
2.0
 20
1.9375
 30
0.0
 40
0.125
  1

100
AcDbAttributeDefinition
  3
Catalog Number?
  2
CATALOG
 70
     0
  0
TEXT
  5
8A61
330
8A57
100
AcDbEntity
  8
TEXT1
100
AcDbText
 10
0.1875
 20
0.2232142857142858
 30
0.0
 40
0.125
  1
Mounting Hwd.:
100
AcDbText
  0
TEXT
  5
8A62
330
8A57
100
AcDbEntity
  8
TEXT1
100
AcDbText
 10
0.1875
 20
0.4375
 30
0.0
 40
0.125
  1
Terminal torque:
100
AcDbText
  0
TEXT
  5
8A63
330
8A57
100
AcDbEntity
  8
TEXT1
100
AcDbText
 10
0.1875
 20
0.6517857142857145
 30
0.0
 40
0.125
  1
Wire Size:
100
AcDbText
  0
TEXT
  5
8A64
330
8A57
100
AcDbEntity
  8
TEXT1
100
AcDbText
 10
0.1875
 20
0.8660714285714286
 30
0.0
 40
0.125
  1
Weight:
100
AcDbText
  0
TEXT
  5
8A65
330
8A57
100
AcDbEntity
  8
TEXT1
100
AcDbText
 10
0.1875
 20
1.080357142857142
 30
0.0
 40
0.125
  1
Meets Standards:
100
AcDbText
  0
TEXT
  5
8A66
330
8A57
100
AcDbEntity
  8
TEXT1
100
AcDbText
 10
0.1875
 20
1.294642857142857
 30
0.0
 40
0.125
  1
CSA File/Class:
100
AcDbText
  0
TEXT
  5
8A67
330
8A57
100
AcDbEntity
  8
TEXT1
100
AcDbText
 10
0.1875
 20
1.508928571428571
 30
0.0
 40
0.125
  1
UL File/CCN:
100
AcDbText
  0
TEXT
  5
8A68
330
8A57
100
AcDbEntity
  8
TEXT1
100
AcDbText
 10
0.1875
 20
1.723214285714285
 30
0.0
 40
0.125
  1
Ratings:
100
AcDbText
  0
TEXT
  5
8A69
330
8A57
100
AcDbEntity
  8
TEXT1
100
AcDbText
 10
0.1875
 20
1.9375
 30
0.0
 40
0.125
  1
Catalog Number:
100
AcDbText
  0
ENDBLK
  5
8A6B
330
8A57
100
AcDbEntity
  8
0
100
AcDbBlockEnd
  0
BLOCK
  5
8DCF
330
8DC4
100
AcDbEntity
  8
0
100
AcDbBlockBegin
  2
*D5
 70
     1
 10
0.0
 20
0.0
 30
0.0
  3
*D5
  1

  0
LINE
  5
9495
330
8DC4
100
AcDbEntity
  8
DIM
100
AcDbLine
 10
27.349871750279
 20
8.040641881748289
 30
0.0
 11
28.89018424543525
 21
8.040641881748287
 31
0.0
  0
LINE
  5
9496
330
8DC4
100
AcDbEntity
  8
DIM
100
AcDbLine
 10
27.809871750279
 20
6.770641881748289
 30
0.0
 11
28.89018424543525
 21
6.770641881748289
 31
0.0
  0
LINE
  5
9497
330
8DC4
100
AcDbEntity
  8
DIM
100
AcDbLine
 10
28.76518424543525
 20
7.900641881748288
 30
0.0
 11
28.76518424543525
 21
7.804689500795904
 31
0.0
  0
LINE
  5
9498
330
8DC4
100
AcDbEntity
  8
DIM
100
AcDbLine
 10
28.76518424543525
 20
6.910641881748289
 30
0.0
 11
28.76518424543525
 21
7.006594262700666
 31
0.0
  0
INSERT
  5
9499
330
8DC4
100
AcDbEntity
  8
DIM
100
AcDbBlockReference
  2
SEARROW
 10
28.76518424543526
 20
8.040641881748287
 30
0.0
 41
0.14
 42
0.14
 43
0.14
 50
90.0
  0
INSERT
  5
949A
330
8DC4
100
AcDbEntity
  8
DIM
100
AcDbBlockReference
  2
SEARROW
 10
28.76518424543525
 20
6.770641881748289
 30
0.0
 41
0.14
 42
0.14
 43
0.14
 50
270.0
  0
MTEXT
  5
949B
330
8DC4
100
AcDbEntity
  8
DIM
100
AcDbMText
 10
28.76518424543525
 20
7.405641881748289
 30
0.0
 40
0.2
 41
0.0
 71
     5
 72
     1
  1
\A1;1.27\P [32]
  7
ROMANS
1001
ACAD
1000
MTEXTBEGIN
1070
    73
1070
     1
1070
    44
1040
1.0
1070
    74
1070
     0
1000
MTEXTEND
1000
MTEXTBEGIN
1070
    73
1070
     1
1070
    44
1040
1.0
1070
    74
1070
     0
1000
MTEXTEND
  0
POINT
  5
949C
330
8DC4
100
AcDbEntity
  8
DEFPOINTS
 62
     0
100
AcDbPoint
 10
27.224871750279
 20
8.040641881748289
 30
0.0
  0
POINT
  5
949D
330
8DC4
100
AcDbEntity
  8
DEFPOINTS
 62
     0
100
AcDbPoint
 10
27.684871750279
 20
6.770641881748289
 30
0.0
  0
POINT
  5
949E
330
8DC4
100
AcDbEntity
  8
DEFPOINTS
 62
     0
100
AcDbPoint
 10
28.76518424543525
 20
6.770641881748289
 30
0.0
  0
ENDBLK
  5
8DD0
330
8DC4
100
AcDbEntity
  8
0
100
AcDbBlockEnd
  0
BLOCK
  5
8DDC
330
8DD1
100
AcDbEntity
  8
0
100
AcDbBlockBegin
  2
*D6
 70
     1
 10
0.0
 20
0.0
 30
0.0
  3
*D6
  1

  0
LINE
  5
949F
330
8DD1
100
AcDbEntity
  8
DIM
100
AcDbLine
 10
28.219871750279
 20
9.070641881748288
 30
0.0
 11
29.69114674291651
 21
9.070641881748288
 31
0.0
  0
LINE
  5
94A0
330
8DD1
100
AcDbEntity
  8
DIM
100
AcDbLine
 10
27.349871750279
 20
8.040641881748289
 30
0.0
 11
29.69114674291651
 21
8.040641881748287
 31
0.0
  0
LINE
  5
94A1
330
8DD1
100
AcDbEntity
  8
DIM
100
AcDbLine
 10
29.56614674291651
 20
9.210641881748289
 30
0.0
 11
29.56614674291651
 21
9.350641881748288
 31
0.0
  0
LINE
  5
94A2
330
8DD1
100
AcDbEntity
  8
DIM
100
AcDbLine
 10
29.5661467429165
 20
7.900641881748288
 30
0.0
 11
29.5661467429165
 21
7.760641881748288
 31
0.0
  0
INSERT
  5
94A3
330
8DD1
100
AcDbEntity
  8
DIM
100
AcDbBlockReference
  2
SEARROW
 10
29.56614674291651
 20
9.070641881748288
 30
0.0
 41
0.14
 42
0.14
 43
0.14
 50
270.0
  0
INSERT
  5
94A4
330
8DD1
100
AcDbEntity
  8
DIM
100
AcDbBlockReference
  2
SEARROW
 10
29.56614674291651
 20
8.040641881748287
 30
0.0
 41
0.14
 42
0.14
 43
0.14
 50
90.0
  0
MTEXT
  5
94A5
330
8DD1
100
AcDbEntity
  8
DIM
100
AcDbMText
 10
29.5661467429165
 20
8.555641881748289
 30
0.0
 40
0.2
 41
0.0
 71
     5
 72
     1
  1
\A1;1.03\P [26]
  7
ROMANS
1001
ACAD
1000
MTEXTBEGIN
1070
    73
1070
     1
1070
    44
1040
1.0
1070
    74
1070
     0
1000
MTEXTEND
1000
MTEXTBEGIN
1070
    73
1070
     1
1070
    44
1040
1.0
1070
    74
1070
     0
1000
MTEXTEND
  0
POINT
  5
94A6
330
8DD1
100
AcDbEntity
  8
DEFPOINTS
 62
     0
100
AcDbPoint
 10
28.094871750279
 20
9.070641881748288
 30
0.0
  0
POINT
  5
94A7
330
8DD1
100
AcDbEntity
  8
DEFPOINTS
 62
     0
100
AcDbPoint
 10
27.224871750279
 20
8.040641881748289
 30
0.0
  0
POINT
  5
94A8
330
8DD1
100
AcDbEntity
  8
DEFPOINTS
 62
     0
100
AcDbPoint
 10
29.56614674291651
 20
8.040641881748287
 30
0.0
  0
ENDBLK
  5
8DDD
330
8DD1
100
AcDbEntity
  8
0
100
AcDbBlockEnd
  0
BLOCK
  5
8DE9
330
8DDE
100
AcDbEntity
  8
0
100
AcDbBlockBegin
  2
*D7
 70
     1
 10
0.0
 20
0.0
 30
0.0
  3
*D7
  1

  0
LINE
  5
94A9
330
8DDE
100
AcDbEntity
  8
DIM
100
AcDbLine
 10
27.099871750279
 20
8.040641881748289
 30
0.0
 11
24.78994551892739
 21
8.040641881748289
 31
0.0
  0
LINE
  5
94AA
330
8DDE
100
AcDbEntity
  8
DIM
100
AcDbLine
 10
25.769871750279
 20
8.270641881748289
 30
0.0
 11
24.78994551892739
 21
8.270641881748289
 31
0.0
  0
LINE
  5
94AB
330
8DDE
100
AcDbEntity
  8
DIM
100
AcDbLine
 10
24.91494551892739
 20
8.41064188174829
 30
0.0
 11
24.91494551892739
 21
8.550641881748289
 31
0.0
  0
LINE
  5
94AC
330
8DDE
100
AcDbEntity
  8
DIM
100
AcDbLine
 10
24.91494551892739
 20
7.900641881748289
 30
0.0
 11
24.91494551892739
 21
7.661583641105185
 31
0.0
  0
LINE
  5
94AD
330
8DDE
100
AcDbEntity
  8
DIM
100
AcDbLine
 10
24.91494551892739
 20
7.661583641105185
 30
0.0
 11
24.77494551892739
 21
7.661583641105185
 31
0.0
  0
INSERT
  5
94AE
330
8DDE
100
AcDbEntity
  8
DIM
100
AcDbBlockReference
  2
SEARROW
 10
24.91494551892739
 20
8.270641881748289
 30
0.0
 41
0.14
 42
0.14
 43
0.14
 50
270.0
  0
INSERT
  5
94AF
330
8DDE
100
AcDbEntity
  8
DIM
100
AcDbBlockReference
  2
SEARROW
 10
24.91494551892739
 20
8.040641881748289
 30
0.0
 41
0.14
 42
0.14
 43
0.14
 50
90.0
  0
MTEXT
  5
94B0
330
8DDE
100
AcDbEntity
  8
DIM
100
AcDbMText
 10
24.4092312332131
 20
7.661583641105188
 30
0.0
 40
0.2
 41
0.0
 71
     5
 72
     1
  1
\A1;\P.23\P [6]
  7
ROMANS
1001
ACAD
1000
MTEXTBEGIN
1070
    73
1070
     1
1070
    44
1040
1.0
1070
    74
1070
     0
1000
MTEXTEND
1000
MTEXTBEGIN
1070
    73
1070
     1
1070
    44
1040
1.0
1070
    74
1070
     0
1000
MTEXTEND
  0
POINT
  5
94B1
330
8DDE
100
AcDbEntity
  8
DEFPOINTS
 62
     0
100
AcDbPoint
 10
27.224871750279
 20
8.040641881748289
 30
0.0
  0
POINT
  5
94B2
330
8DDE
100
AcDbEntity
  8
DEFPOINTS
 62
     0
100
AcDbPoint
 10
25.894871750279
 20
8.270641881748289
 30
0.0
  0
POINT
  5
94B3
330
8DDE
100
AcDbEntity
  8
DEFPOINTS
 62
     0
100
AcDbPoint
 10
24.91494551892739
 20
8.270641881748289
 30
0.0
  0
ENDBLK
  5
8DEA
330
8DDE
100
AcDbEntity
  8
0
100
AcDbBlockEnd
  0
BLOCK
  5
8DF6
330
8DEB
100
AcDbEntity
  8
0
100
AcDbBlockBegin
  2
*D8
 70
     1
 10
0.0
 20
0.0
 30
0.0
  3
*D8
  1

  0
LINE
  5
94B4
330
8DEB
100
AcDbEntity
  8
DIM
100
AcDbLine
 10
27.224871750279
 20
8.165641881748289
 30
0.0
 11
27.224871750279
 21
10.56852937419204
 31
0.0
  0
LINE
  5
94B5
330
8DEB
100
AcDbEntity
  8
DIM
100
AcDbLine
 10
28.094871750279
 20
9.195641881748288
 30
0.0
 11
28.094871750279
 21
10.56852937419204
 31
0.0
  0
LINE
  5
94B6
330
8DEB
100
AcDbEntity
  8
DIM
100
AcDbLine
 10
27.364871750279
 20
10.44352937419204
 30
0.0
 11
27.954871750279
 21
10.44352937419204
 31
0.0
  0
LINE
  5
94B7
330
8DEB
100
AcDbEntity
  8
DIM
100
AcDbLine
 10
28.094871750279
 20
10.44352937419204
 30
0.0
 11
28.234871750279
 21
10.44352937419204
 31
0.0
  0
INSERT
  5
94B8
330
8DEB
100
AcDbEntity
  8
DIM
100
AcDbBlockReference
  2
SEARROW
 10
27.224871750279
 20
10.44352937419204
 30
0.0
 41
0.14
 42
0.14
 43
0.14
 50
180.0
  0
INSERT
  5
94B9
330
8DEB
100
AcDbEntity
  8
DIM
100
AcDbBlockReference
  2
SEARROW
 10
28.094871750279
 20
10.44352937419204
 30
0.0
 41
0.14
 42
0.14
 43
0.14
  0
MTEXT
  5
94BA
330
8DEB
100
AcDbEntity
  8
DIM
100
AcDbMText
 10
28.69582413123138
 20
10.44352937419204
 30
0.0
 40
0.2
 41
0.0
 71
     5
 72
     1
  1
\A1;\P.87\P [22]
  7
ROMANS
1001
ACAD
1000
MTEXTBEGIN
1070
    73
1070
     1
1070
    44
1040
1.0
1070
    74
1070
     0
1000
MTEXTEND
1000
MTEXTBEGIN
1070
    73
1070
     1
1070
    44
1040
1.0
1070
    74
1070
     0
1000
MTEXTEND
  0
POINT
  5
94BB
330
8DEB
100
AcDbEntity
  8
DEFPOINTS
 62
     0
100
AcDbPoint
 10
27.224871750279
 20
8.040641881748289
 30
0.0
  0
POINT
  5
94BC
330
8DEB
100
AcDbEntity
  8
DEFPOINTS
 62
     0
100
AcDbPoint
 10
28.094871750279
 20
9.070641881748288
 30
0.0
  0
POINT
  5
94BD
330
8DEB
100
AcDbEntity
  8
DEFPOINTS
 62
     0
100
AcDbPoint
 10
28.094871750279
 20
10.44352937419204
 30
0.0
  0
ENDBLK
  5
8DF7
330
8DEB
100
AcDbEntity
  8
0
100
AcDbBlockEnd
  0
BLOCK
  5
8E03
330
8DF8
100
AcDbEntity
  8
0
100
AcDbBlockBegin
  2
*D9
 70
     1
 10
0.0
 20
0.0
 30
0.0
  3
*D9
  1

  0
LINE
  5
94BE
330
8DF8
100
AcDbEntity
  8
DIM
100
AcDbLine
 10
27.684871750279
 20
6.645641881748289
 30
0.0
 11
27.684871750279
 21
4.421569468186225
 31
0.0
  0
LINE
  5
94BF
330
8DF8
100
AcDbEntity
  8
DIM
100
AcDbLine
 10
27.224871750279
 20
7.915641881748289
 30
0.0
 11
27.224871750279
 21
4.421569468186225
 31
0.0
  0
LINE
  5
94C0
330
8DF8
100
AcDbEntity
  8
DIM
100
AcDbLine
 10
27.544871750279
 20
4.546569468186225
 30
0.0
 11
27.364871750279
 21
4.546569468186225
 31
0.0
  0
LINE
  5
94C1
330
8DF8
100
AcDbEntity
  8
DIM
100
AcDbLine
 10
27.224871750279
 20
4.546569468186225
 30
0.0
 11
27.084871750279
 21
4.546569468186225
 31
0.0
  0
INSERT
  5
94C2
330
8DF8
100
AcDbEntity
  8
DIM
100
AcDbBlockReference
  2
SEARROW
 10
27.684871750279
 20
4.546569468186225
 30
0.0
 41
0.14
 42
0.14
 43
0.14
  0
INSERT
  5
94C3
330
8DF8
100
AcDbEntity
  8
DIM
100
AcDbBlockReference
  2
SEARROW
 10
27.224871750279
 20
4.546569468186225
 30
0.0
 41
0.14
 42
0.14
 43
0.14
 50
180.0
  0
MTEXT
  5
94C4
330
8DF8
100
AcDbEntity
  8
DIM
100
AcDbMText
 10
26.62391936932662
 20
4.546569468186225
 30
0.0
 40
0.2
 41
0.0
 71
     5
 72
     1
  1
\A1;\P.46\P [12]
  7
ROMANS
1001
ACAD
1000
MTEXTBEGIN
1070
    73
1070
     1
1070
    44
1040
1.0
1070
    74
1070
     0
1000
MTEXTEND
1000
MTEXTBEGIN
1070
    73
1070
     1
1070
    44
1040
1.0
1070
    74
1070
     0
1000
MTEXTEND
  0
POINT
  5
94C5
330
8DF8
100
AcDbEntity
  8
DEFPOINTS
 62
     0
100
AcDbPoint
 10
27.684871750279
 20
6.770641881748289
 30
0.0
  0
POINT
  5
94C6
330
8DF8
100
AcDbEntity
  8
DEFPOINTS
 62
     0
100
AcDbPoint
 10
27.224871750279
 20
8.040641881748289
 30
0.0
  0
POINT
  5
94C7
330
8DF8
100
AcDbEntity
  8
DEFPOINTS
 62
     0
100
AcDbPoint
 10
27.224871750279
 20
4.546569468186225
 30
0.0
  0
ENDBLK
  5
8E04
330
8DF8
100
AcDbEntity
  8
0
100
AcDbBlockEnd
  0
BLOCK
  5
8E10
330
8E05
100
AcDbEntity
  8
0
100
AcDbBlockBegin
  2
*D10
 70
     1
 10
0.0
 20
0.0
 30
0.0
  3
*D10
  1

  0
LINE
  5
94C8
330
8E05
100
AcDbEntity
  8
DIM
100
AcDbLine
 10
27.224871750279
 20
8.165641881748289
 30
0.0
 11
27.224871750279
 21
11.30787937186704
 31
0.0
  0
LINE
  5
94C9
330
8E05
100
AcDbEntity
  8
DIM
100
AcDbLine
 10
25.894871750279
 20
8.395641881748289
 30
0.0
 11
25.894871750279
 21
11.30787937186704
 31
0.0
  0
LINE
  5
94CA
330
8E05
100
AcDbEntity
  8
DIM
100
AcDbLine
 10
27.084871750279
 20
11.18287937186704
 30
0.0
 11
27.02082413123138
 21
11.18287937186704
 31
0.0
  0
LINE
  5
94CB
330
8E05
100
AcDbEntity
  8
DIM
100
AcDbLine
 10
26.034871750279
 20
11.18287937186704
 30
0.0
 11
26.09891936932662
 21
11.18287937186704
 31
0.0
  0
INSERT
  5
94CC
330
8E05
100
AcDbEntity
  8
DIM
100
AcDbBlockReference
  2
SEARROW
 10
27.224871750279
 20
11.18287937186704
 30
0.0
 41
0.14
 42
0.14
 43
0.14
  0
INSERT
  5
94CD
330
8E05
100
AcDbEntity
  8
DIM
100
AcDbBlockReference
  2
SEARROW
 10
25.894871750279
 20
11.18287937186704
 30
0.0
 41
0.14
 42
0.14
 43
0.14
 50
180.0
  0
MTEXT
  5
94CE
330
8E05
100
AcDbEntity
  8
DIM
100
AcDbMText
 10
26.559871750279
 20
11.18287937186704
 30
0.0
 40
0.2
 41
0.0
 71
     5
 72
     1
  1
\A1;\P1.33\P [34]
  7
ROMANS
1001
ACAD
1000
MTEXTBEGIN
1070
    73
1070
     1
1070
    44
1040
1.0
1070
    74
1070
     0
1000
MTEXTEND
1000
MTEXTBEGIN
1070
    73
1070
     1
1070
    44
1040
1.0
1070
    74
1070
     0
1000
MTEXTEND
  0
POINT
  5
94CF
330
8E05
100
AcDbEntity
  8
DEFPOINTS
 62
     0
100
AcDbPoint
 10
27.224871750279
 20
8.040641881748289
 30
0.0
  0
POINT
  5
94D0
330
8E05
100
AcDbEntity
  8
DEFPOINTS
 62
     0
100
AcDbPoint
 10
25.894871750279
 20
8.270641881748289
 30
0.0
  0
POINT
  5
94D1
330
8E05
100
AcDbEntity
  8
DEFPOINTS
 62
     0
100
AcDbPoint
 10
25.894871750279
 20
11.18287937186704
 30
0.0
  0
ENDBLK
  5
8E11
330
8E05
100
AcDbEntity
  8
0
100
AcDbBlockEnd
  0
BLOCK
  5
8E1D
330
8E12
100
AcDbEntity
  8
0
100
AcDbBlockBegin
  2
*D11
 70
     1
 10
0.0
 20
0.0
 30
0.0
  3
*D11
  1

  0
LINE
  5
94D2
330
8E12
100
AcDbEntity
  8
DIM
100
AcDbLine
 10
13.20697655096152
 20
14.72968191826363
 30
0.0
 11
13.20697655096152
 21
16.70662494286034
 31
0.0
  0
LINE
  5
94D3
330
8E12
100
AcDbEntity
  8
DIM
100
AcDbLine
 10
15.07697655096151
 20
14.72968191826363
 30
0.0
 11
15.07697655096151
 21
16.70662494286034
 31
0.0
  0
LINE
  5
94D4
330
8E12
100
AcDbEntity
  8
DIM
100
AcDbLine
 10
13.34697655096152
 20
16.58162494286034
 30
0.0
 11
14.93697655096151
 21
16.58162494286034
 31
0.0
  0
LINE
  5
94D5
330
8E12
100
AcDbEntity
  8
DIM
100
AcDbLine
 10
15.07697655096151
 20
16.58162494286034
 30
0.0
 11
15.21697655096152
 21
16.58162494286034
 31
0.0
  0
INSERT
  5
94D6
330
8E12
100
AcDbEntity
  8
DIM
100
AcDbBlockReference
  2
SEARROW
 10
13.20697655096152
 20
16.58162494286034
 30
0.0
 41
0.14
 42
0.14
 43
0.14
 50
180.0
  0
INSERT
  5
94D7
330
8E12
100
AcDbEntity
  8
DIM
100
AcDbBlockReference
  2
SEARROW
 10
15.07697655096151
 20
16.58162494286034
 30
0.0
 41
0.14
 42
0.14
 43
0.14
  0
MTEXT
  5
94D8
330
8E12
100
AcDbEntity
  8
DIM
100
AcDbMText
 10
15.6779289319139
 20
16.58162494286034
 30
0.0
 40
0.2
 41
0.0
 71
     5
 72
     1
  1
\A1;\P1.87\P [48]
  7
ROMANS
1001
ACAD
1000
MTEXTBEGIN
1070
    73
1070
     1
1070
    44
1040
1.0
1070
    74
1070
     0
1000
MTEXTEND
1000
MTEXTBEGIN
1070
    73
1070
     1
1070
    44
1040
1.0
1070
    74
1070
     0
1000
MTEXTEND
  0
POINT
  5
94D9
330
8E12
100
AcDbEntity
  8
DEFPOINTS
 62
     0
100
AcDbPoint
 10
13.20697655096152
 20
14.60468191826363
 30
0.0
  0
POINT
  5
94DA
330
8E12
100
AcDbEntity
  8
DEFPOINTS
 62
     0
100
AcDbPoint
 10
15.07697655096151
 20
14.60468191826363
 30
0.0
  0
POINT
  5
94DB
330
8E12
100
AcDbEntity
  8
DEFPOINTS
 62
     0
100
AcDbPoint
 10
15.07697655096151
 20
16.58162494286034
 30
0.0
  0
ENDBLK
  5
8E1E
330
8E12
100
AcDbEntity
  8
0
100
AcDbBlockEnd
  0
BLOCK
  5
8E2A
330
8E1F
100
AcDbEntity
  8
0
100
AcDbBlockBegin
  2
*D12
 70
     1
 10
0.0
 20
0.0
 30
0.0
  3
*D12
  1

  0
LINE
  5
94DC
330
8E1F
100
AcDbEntity
  8
DIM
100
AcDbLine
 10
11.23257341515996
 20
8.172719425819879
 30
0.0
 11
11.23257341515996
 21
5.385069431244879
 31
0.0
  0
LINE
  5
94DD
330
8E1F
100
AcDbEntity
  8
DIM
100
AcDbLine
 10
17.09807341515996
 20
8.172719425819879
 30
0.0
 11
17.09807341515996
 21
5.385069431244879
 31
0.0
  0
LINE
  5
94DE
330
8E1F
100
AcDbEntity
  8
DIM
100
AcDbLine
 10
11.37257341515996
 20
5.510069431244879
 30
0.0
 11
13.60913293896948
 21
5.510069431244879
 31
0.0
  0
LINE
  5
94DF
330
8E1F
100
AcDbEntity
  8
DIM
100
AcDbLine
 10
16.95807341515996
 20
5.510069431244879
 30
0.0
 11
14.72151389135043
 21
5.510069431244879
 31
0.0
  0
INSERT
  5
94E0
330
8E1F
100
AcDbEntity
  8
DIM
100
AcDbBlockReference
  2
SEARROW
 10
11.23257341515996
 20
5.510069431244879
 30
0.0
 41
0.14
 42
0.14
 43
0.14
 50
180.0
  0
INSERT
  5
94E1
330
8E1F
100
AcDbEntity
  8
DIM
100
AcDbBlockReference
  2
SEARROW
 10
17.09807341515996
 20
5.510069431244879
 30
0.0
 41
0.14
 42
0.14
 43
0.14
  0
MTEXT
  5
94E2
330
8E1F
100
AcDbEntity
  8
DIM
100
AcDbMText
 10
14.16532341515996
 20
5.510069431244879
 30
0.0
 40
0.2
 41
0.0
 71
     5
 72
     1
  1
\A1;\P5.87\P [149]
  7
ROMANS
1001
ACAD
1000
MTEXTBEGIN
1070
    73
1070
     1
1070
    44
1040
1.0
1070
    74
1070
     0
1000
MTEXTEND
1000
MTEXTBEGIN
1070
    73
1070
     1
1070
    44
1040
1.0
1070
    74
1070
     0
1000
MTEXTEND
  0
POINT
  5
94E3
330
8E1F
100
AcDbEntity
  8
DEFPOINTS
 62
     0
100
AcDbPoint
 10
11.23257341515996
 20
8.297719425819879
 30
0.0
  0
POINT
  5
94E4
330
8E1F
100
AcDbEntity
  8
DEFPOINTS
 62
     0
100
AcDbPoint
 10
17.09807341515996
 20
8.297719425819879
 30
0.0
  0
POINT
  5
94E5
330
8E1F
100
AcDbEntity
  8
DEFPOINTS
 62
     0
100
AcDbPoint
 10
17.09807341515996
 20
5.510069431244879
 30
0.0
  0
ENDBLK
  5
8E2B
330
8E1F
100
AcDbEntity
  8
0
100
AcDbBlockEnd
  0
BLOCK
  5
8E37
330
8E2C
100
AcDbEntity
  8
0
100
AcDbBlockBegin
  2
*D13
 70
     1
 10
0.0
 20
0.0
 30
0.0
  3
*D13
  1

  0
LINE
  5
94E6
330
8E2C
100
AcDbEntity
  8
DIM
100
AcDbLine
 10
16.86702654088652
 20
8.478431918263632
 30
0.0
 11
16.86702654088652
 21
6.363204870034563
 31
0.0
  0
LINE
  5
94E7
330
8E2C
100
AcDbEntity
  8
DIM
100
AcDbLine
 10
11.43656766389322
 20
8.478431918263632
 30
0.0
 11
11.43656766389322
 21
6.363204870034563
 31
0.0
  0
LINE
  5
94E8
330
8E2C
100
AcDbEntity
  8
DIM
100
AcDbLine
 10
16.72702654088651
 20
6.488204870034563
 30
0.0
 11
14.70798757858035
 21
6.488204870034563
 31
0.0
  0
LINE
  5
94E9
330
8E2C
100
AcDbEntity
  8
DIM
100
AcDbLine
 10
11.57656766389322
 20
6.488204870034563
 30
0.0
 11
13.59560662619939
 21
6.488204870034563
 31
0.0
  0
INSERT
  5
94EA
330
8E2C
100
AcDbEntity
  8
DIM
100
AcDbBlockReference
  2
SEARROW
 10
16.86702654088652
 20
6.488204870034563
 30
0.0
 41
0.14
 42
0.14
 43
0.14
  0
INSERT
  5
94EB
330
8E2C
100
AcDbEntity
  8
DIM
100
AcDbBlockReference
  2
SEARROW
 10
11.43656766389322
 20
6.488204870034563
 30
0.0
 41
0.14
 42
0.14
 43
0.14
 50
180.0
  0
MTEXT
  5
94EC
330
8E2C
100
AcDbEntity
  8
DIM
100
AcDbMText
 10
14.15179710238987
 20
6.488204870034563
 30
0.0
 40
0.2
 41
0.0
 71
     5
 72
     1
  1
\A1;\P5.43\P [138]
  7
ROMANS
1001
ACAD
1000
MTEXTBEGIN
1070
    73
1070
     1
1070
    44
1040
1.0
1070
    74
1070
     0
1000
MTEXTEND
1000
MTEXTBEGIN
1070
    73
1070
     1
1070
    44
1040
1.0
1070
    74
1070
     0
1000
MTEXTEND
  0
POINT
  5
94ED
330
8E2C
100
AcDbEntity
  8
DEFPOINTS
 62
     0
100
AcDbPoint
 10
16.86702654088652
 20
8.603431918263632
 30
0.0
  0
POINT
  5
94EE
330
8E2C
100
AcDbEntity
  8
DEFPOINTS
 62
     0
100
AcDbPoint
 10
11.43656766389322
 20
8.603431918263632
 30
0.0
  0
POINT
  5
94EF
330
8E2C
100
AcDbEntity
  8
DEFPOINTS
 62
     0
100
AcDbPoint
 10
11.43656766389322
 20
6.488204870034563
 30
0.0
  0
ENDBLK
  5
8E38
330
8E2C
100
AcDbEntity
  8
0
100
AcDbBlockEnd
  0
BLOCK
  5
8E44
330
8E39
100
AcDbEntity
  8
0
100
AcDbBlockBegin
  2
*D14
 70
     1
 10
0.0
 20
0.0
 30
0.0
  3
*D14
  1

  0
LINE
  5
94F0
330
8E39
100
AcDbEntity
  8
DIM
100
AcDbLine
 10
16.86702654088652
 20
8.478431918263632
 30
0.0
 11
16.86702654088652
 21
7.303362463979102
 31
0.0
  0
LINE
  5
94F1
330
8E39
100
AcDbEntity
  8
DIM
100
AcDbLine
 10
13.61697655096151
 20
8.400899957972852
 30
0.0
 11
13.61697655096151
 21
7.303362463979102
 31
0.0
  0
LINE
  5
94F2
330
8E39
100
AcDbEntity
  8
DIM
100
AcDbLine
 10
16.72702654088651
 20
7.428362463979102
 30
0.0
 11
15.7029539268764
 21
7.428362463979102
 31
0.0
  0
LINE
  5
94F3
330
8E39
100
AcDbEntity
  8
DIM
100
AcDbLine
 10
13.75697655096151
 20
7.428362463979102
 30
0.0
 11
14.78104916497163
 21
7.428362463979102
 31
0.0
  0
INSERT
  5
94F4
330
8E39
100
AcDbEntity
  8
DIM
100
AcDbBlockReference
  2
SEARROW
 10
16.86702654088652
 20
7.428362463979102
 30
0.0
 41
0.14
 42
0.14
 43
0.14
  0
INSERT
  5
94F5
330
8E39
100
AcDbEntity
  8
DIM
100
AcDbBlockReference
  2
SEARROW
 10
13.61697655096151
 20
7.428362463979102
 30
0.0
 41
0.14
 42
0.14
 43
0.14
 50
180.0
  0
MTEXT
  5
94F6
330
8E39
100
AcDbEntity
  8
DIM
100
AcDbMText
 10
15.24200154592401
 20
7.428362463979102
 30
0.0
 40
0.2
 41
0.0
 71
     5
 72
     1
  1
\A1;\P3.25\P [83]
  7
ROMANS
1001
ACAD
1000
MTEXTBEGIN
1070
    73
1070
     1
1070
    44
1040
1.0
1070
    74
1070
     0
1000
MTEXTEND
1000
MTEXTBEGIN
1070
    73
1070
     1
1070
    44
1040
1.0
1070
    74
1070
     0
1000
MTEXTEND
  0
POINT
  5
94F7
330
8E39
100
AcDbEntity
  8
DEFPOINTS
 62
     0
100
AcDbPoint
 10
16.86702654088652
 20
8.603431918263632
 30
0.0
  0
POINT
  5
94F8
330
8E39
100
AcDbEntity
  8
DEFPOINTS
 62
     0
100
AcDbPoint
 10
13.61697655096151
 20
8.525899957972852
 30
0.0
  0
POINT
  5
94F9
330
8E39
100
AcDbEntity
  8
DEFPOINTS
 62
     0
100
AcDbPoint
 10
13.61697655096151
 20
7.428362463979102
 30
0.0
  0
ENDBLK
  5
8E45
330
8E39
100
AcDbEntity
  8
0
100
AcDbBlockEnd
  0
BLOCK
  5
8E51
330
8E46
100
AcDbEntity
  8
0
100
AcDbBlockBegin
  2
*D15
 70
     1
 10
0.0
 20
0.0
 30
0.0
  3
*D15
  1

  0
LINE
  5
94FA
330
8E46
100
AcDbEntity
  8
DIM
100
AcDbLine
 10
13.49197655096151
 20
11.13588191826363
 30
0.0
 11
8.853355196046708
 21
11.13588191826363
 31
0.0
  0
LINE
  5
94FB
330
8E46
100
AcDbEntity
  8
DIM
100
AcDbLine
 10
11.10757341515996
 20
15.61021942581987
 30
0.0
 11
8.85335519604671
 21
15.61021942581987
 31
0.0
  0
LINE
  5
94FC
330
8E46
100
AcDbEntity
  8
DIM
100
AcDbLine
 10
8.978355196046708
 20
11.27588191826363
 30
0.0
 11
8.97835519604671
 21
12.97400305299413
 31
0.0
  0
LINE
  5
94FD
330
8E46
100
AcDbEntity
  8
DIM
100
AcDbLine
 10
8.97835519604671
 20
15.47021942581987
 30
0.0
 11
8.97835519604671
 21
13.77209829108937
 31
0.0
  0
INSERT
  5
94FE
330
8E46
100
AcDbEntity
  8
DIM
100
AcDbBlockReference
  2
SEARROW
 10
8.978355196046708
 20
11.13588191826363
 30
0.0
 41
0.14
 42
0.14
 43
0.14
 50
270.0
  0
INSERT
  5
94FF
330
8E46
100
AcDbEntity
  8
DIM
100
AcDbBlockReference
  2
SEARROW
 10
8.97835519604671
 20
15.61021942581987
 30
0.0
 41
0.14
 42
0.14
 43
0.14
 50
90.0
  0
MTEXT
  5
9500
330
8E46
100
AcDbEntity
  8
DIM
100
AcDbMText
 10
8.978355196046706
 20
13.37305067204176
 30
0.0
 40
0.2
 41
0.0
 71
     5
 72
     1
  1
\A1;4.47\P [114]
  7
ROMANS
1001
ACAD
1000
MTEXTBEGIN
1070
    73
1070
     1
1070
    44
1040
1.0
1070
    74
1070
     0
1000
MTEXTEND
1000
MTEXTBEGIN
1070
    73
1070
     1
1070
    44
1040
1.0
1070
    74
1070
     0
1000
MTEXTEND
  0
POINT
  5
9501
330
8E46
100
AcDbEntity
  8
DEFPOINTS
 62
     0
100
AcDbPoint
 10
13.61697655096151
 20
11.13588191826363
 30
0.0
  0
POINT
  5
9502
330
8E46
100
AcDbEntity
  8
DEFPOINTS
 62
     0
100
AcDbPoint
 10
11.23257341515996
 20
15.61021942581987
 30
0.0
  0
POINT
  5
9503
330
8E46
100
AcDbEntity
  8
DEFPOINTS
 62
     0
100
AcDbPoint
 10
8.97835519604671
 20
15.61021942581987
 30
0.0
  0
ENDBLK
  5
8E52
330
8E46
100
AcDbEntity
  8
0
100
AcDbBlockEnd
  0
BLOCK
  5
8E5E
330
8E53
100
AcDbEntity
  8
0
100
AcDbBlockBegin
  2
*D16
 70
     1
 10
0.0
 20
0.0
 30
0.0
  3
*D16
  1

  0
LINE
  5
9504
330
8E53
100
AcDbEntity
  8
DIM
100
AcDbLine
 10
13.08197655096152
 20
14.60468191826363
 30
0.0
 11
9.847929715337105
 21
14.60468191826363
 31
0.0
  0
LINE
  5
9505
330
8E53
100
AcDbEntity
  8
DIM
100
AcDbLine
 10
13.08779855223252
 20
11.13588191826363
 30
0.0
 11
9.847929715337103
 21
11.13588191826363
 31
0.0
  0
LINE
  5
9506
330
8E53
100
AcDbEntity
  8
DIM
100
AcDbLine
 10
9.972929715337105
 20
14.46468191826363
 30
0.0
 11
9.972929715337105
 21
12.87028191826363
 31
0.0
  0
LINE
  5
9507
330
8E53
100
AcDbEntity
  8
DIM
100
AcDbLine
 10
9.972929715337103
 20
11.27588191826363
 30
0.0
 11
9.972929715337105
 21
12.07218668016839
 31
0.0
  0
INSERT
  5
9508
330
8E53
100
AcDbEntity
  8
DIM
100
AcDbBlockReference
  2
SEARROW
 10
9.972929715337105
 20
14.60468191826363
 30
0.0
 41
0.14
 42
0.14
 43
0.14
 50
90.0
  0
INSERT
  5
9509
330
8E53
100
AcDbEntity
  8
DIM
100
AcDbBlockReference
  2
SEARROW
 10
9.972929715337103
 20
11.13588191826363
 30
0.0
 41
0.14
 42
0.14
 43
0.14
 50
270.0
  0
MTEXT
  5
950A
330
8E53
100
AcDbEntity
  8
DIM
100
AcDbMText
 10
9.972929715337102
 20
12.47123429921601
 30
0.0
 40
0.2
 41
0.0
 71
     5
 72
     1
  1
\A1;3.47\P [88]
  7
ROMANS
1001
ACAD
1000
MTEXTBEGIN
1070
    73
1070
     1
1070
    44
1040
1.0
1070
    74
1070
     0
1000
MTEXTEND
1000
MTEXTBEGIN
1070
    73
1070
     1
1070
    44
1040
1.0
1070
    74
1070
     0
1000
MTEXTEND
  0
POINT
  5
950B
330
8E53
100
AcDbEntity
  8
DEFPOINTS
 62
     0
100
AcDbPoint
 10
13.20697655096152
 20
14.60468191826363
 30
0.0
  0
POINT
  5
950C
330
8E53
100
AcDbEntity
  8
DEFPOINTS
 62
     0
100
AcDbPoint
 10
13.21279855223252
 20
11.13588191826363
 30
0.0
  0
POINT
  5
950D
330
8E53
100
AcDbEntity
  8
DEFPOINTS
 62
     0
100
AcDbPoint
 10
9.972929715337103
 20
11.13588191826363
 30
0.0
  0
ENDBLK
  5
8E5F
330
8E53
100
AcDbEntity
  8
0
100
AcDbBlockEnd
  0
BLOCK
  5
8E6B
330
8E60
100
AcDbEntity
  8
0
100
AcDbBlockBegin
  2
*D17
 70
     1
 10
0.0
 20
0.0
 30
0.0
  3
*D17
  1

  0
LINE
  5
950E
330
8E60
100
AcDbEntity
  8
DIM
100
AcDbLine
 10
13.61697655096151
 20
14.82338191826363
 30
0.0
 11
13.61697655096151
 21
16.53255878562676
 31
0.0
  0
LINE
  5
950F
330
8E60
100
AcDbEntity
  8
DIM
100
AcDbLine
 10
13.20697655096152
 20
14.72968191826363
 30
0.0
 11
13.20697655096152
 21
16.53255878562676
 31
0.0
  0
LINE
  5
9510
330
8E60
100
AcDbEntity
  8
DIM
100
AcDbLine
 10
13.75697655096151
 20
16.40755878562676
 30
0.0
 11
13.89697655096151
 21
16.40755878562676
 31
0.0
  0
LINE
  5
9511
330
8E60
100
AcDbEntity
  8
DIM
100
AcDbLine
 10
13.06697655096152
 20
16.40755878562676
 30
0.0
 11
12.92697655096152
 21
16.40755878562676
 31
0.0
  0
INSERT
  5
9512
330
8E60
100
AcDbEntity
  8
DIM
100
AcDbBlockReference
  2
SEARROW
 10
13.61697655096151
 20
16.40755878562676
 30
0.0
 41
0.14
 42
0.14
 43
0.14
 50
180.0
  0
INSERT
  5
9513
330
8E60
100
AcDbEntity
  8
DIM
100
AcDbBlockReference
  2
SEARROW
 10
13.20697655096152
 20
16.40755878562676
 30
0.0
 41
0.14
 42
0.14
 43
0.14
  0
MTEXT
  5
9514
330
8E60
100
AcDbEntity
  8
DIM
100
AcDbMText
 10
12.46602417000914
 20
16.40755878562676
 30
0.0
 40
0.2
 41
0.0
 71
     5
 72
     1
  1
\A1;\P.41\P [10]
  7
ROMANS
1001
ACAD
1000
MTEXTBEGIN
1070
    73
1070
     1
1070
    44
1040
1.0
1070
    74
1070
     0
1000
MTEXTEND
1000
MTEXTBEGIN
1070
    73
1070
     1
1070
    44
1040
1.0
1070
    74
1070
     0
1000
MTEXTEND
  0
POINT
  5
9515
330
8E60
100
AcDbEntity
  8
DEFPOINTS
 62
     0
100
AcDbPoint
 10
13.61697655096151
 20
14.69838191826363
 30
0.0
  0
POINT
  5
9516
330
8E60
100
AcDbEntity
  8
DEFPOINTS
 62
     0
100
AcDbPoint
 10
13.20697655096152
 20
14.60468191826363
 30
0.0
  0
POINT
  5
9517
330
8E60
100
AcDbEntity
  8
DEFPOINTS
 62
     0
100
AcDbPoint
 10
13.20697655096152
 20
16.40755878562676
 30
0.0
  0
ENDBLK
  5
8E6C
330
8E60
100
AcDbEntity
  8
0
100
AcDbBlockEnd
  0
BLOCK
  5
8E78
330
8E6D
100
AcDbEntity
  8
0
100
AcDbBlockBegin
  2
*D18
 70
     1
 10
0.0
 20
0.0
 30
0.0
  3
*D18
  1

  0
LINE
  5
9518
330
8E6D
100
AcDbEntity
  8
DIM
100
AcDbLine
 10
15.20197655096152
 20
14.60468191826363
 30
0.0
 11
18.42326005407372
 21
14.60468191826363
 31
0.0
  0
LINE
  5
9519
330
8E6D
100
AcDbEntity
  8
DIM
100
AcDbLine
 10
16.99202654088652
 20
8.603431918263632
 30
0.0
 11
18.42326005407372
 21
8.603431918263632
 31
0.0
  0
LINE
  5
951A
330
8E6D
100
AcDbEntity
  8
DIM
100
AcDbLine
 10
18.29826005407372
 20
14.46468191826363
 30
0.0
 11
18.29826005407372
 21
12.00310453731125
 31
0.0
  0
LINE
  5
951B
330
8E6D
100
AcDbEntity
  8
DIM
100
AcDbLine
 10
18.29826005407372
 20
8.743431918263633
 30
0.0
 11
18.29826005407372
 21
11.20500929921601
 31
0.0
  0
INSERT
  5
951C
330
8E6D
100
AcDbEntity
  8
DIM
100
AcDbBlockReference
  2
SEARROW
 10
18.29826005407372
 20
14.60468191826363
 30
0.0
 41
0.14
 42
0.14
 43
0.14
 50
90.0
  0
INSERT
  5
951D
330
8E6D
100
AcDbEntity
  8
DIM
100
AcDbBlockReference
  2
SEARROW
 10
18.29826005407372
 20
8.603431918263632
 30
0.0
 41
0.14
 42
0.14
 43
0.14
 50
270.0
  0
MTEXT
  5
951E
330
8E6D
100
AcDbEntity
  8
DIM
100
AcDbMText
 10
18.29826005407371
 20
11.60405691826363
 30
0.0
 40
0.2
 41
0.0
 71
     5
 72
     1
  1
\A1;6.00\P [152]
  7
ROMANS
1001
ACAD
1000
MTEXTBEGIN
1070
    73
1070
     1
1070
    44
1040
1.0
1070
    74
1070
     0
1000
MTEXTEND
1000
MTEXTBEGIN
1070
    73
1070
     1
1070
    44
1040
1.0
1070
    74
1070
     0
1000
MTEXTEND
  0
POINT
  5
951F
330
8E6D
100
AcDbEntity
  8
DEFPOINTS
 62
     0
100
AcDbPoint
 10
15.07697655096151
 20
14.60468191826363
 30
0.0
  0
POINT
  5
9520
330
8E6D
100
AcDbEntity
  8
DEFPOINTS
 62
     0
100
AcDbPoint
 10
16.86702654088652
 20
8.603431918263632
 30
0.0
  0
POINT
  5
9521
330
8E6D
100
AcDbEntity
  8
DEFPOINTS
 62
     0
100
AcDbPoint
 10
18.29826005407372
 20
8.603431918263632
 30
0.0
  0
ENDBLK
  5
8E79
330
8E6D
100
AcDbEntity
  8
0
100
AcDbBlockEnd
  0
BLOCK
  5
8E85
330
8E7A
100
AcDbEntity
  8
0
100
AcDbBlockBegin
  2
*D19
 70
     1
 10
0.0
 20
0.0
 30
0.0
  3
*D19
  1

  0
LINE
  5
9522
330
8E7A
100
AcDbEntity
  8
DIM
100
AcDbLine
 10
17.22307341515996
 20
15.61021942581987
 30
0.0
 11
19.32118888631293
 21
15.61021942581987
 31
0.0
  0
LINE
  5
9523
330
8E7A
100
AcDbEntity
  8
DIM
100
AcDbLine
 10
17.22307341515996
 20
8.297719425819879
 30
0.0
 11
19.32118888631293
 21
8.297719425819879
 31
0.0
  0
LINE
  5
9524
330
8E7A
100
AcDbEntity
  8
DIM
100
AcDbLine
 10
19.19618888631293
 20
15.47021942581987
 30
0.0
 11
19.19618888631293
 21
12.49301704486749
 31
0.0
  0
LINE
  5
9525
330
8E7A
100
AcDbEntity
  8
DIM
100
AcDbLine
 10
19.19618888631293
 20
8.43771942581988
 30
0.0
 11
19.19618888631293
 21
11.69492180677225
 31
0.0
  0
INSERT
  5
9526
330
8E7A
100
AcDbEntity
  8
DIM
100
AcDbBlockReference
  2
SEARROW
 10
19.19618888631293
 20
15.61021942581987
 30
0.0
 41
0.14
 42
0.14
 43
0.14
 50
90.0
  0
INSERT
  5
9527
330
8E7A
100
AcDbEntity
  8
DIM
100
AcDbBlockReference
  2
SEARROW
 10
19.19618888631293
 20
8.297719425819879
 30
0.0
 41
0.14
 42
0.14
 43
0.14
 50
270.0
  0
MTEXT
  5
9528
330
8E7A
100
AcDbEntity
  8
DIM
100
AcDbMText
 10
19.19618888631293
 20
12.09396942581988
 30
0.0
 40
0.2
 41
0.0
 71
     5
 72
     1
  1
\A1;7.31\P [186]
  7
ROMANS
1001
ACAD
1000
MTEXTBEGIN
1070
    73
1070
     1
1070
    44
1040
1.0
1070
    74
1070
     0
1000
MTEXTEND
1000
MTEXTBEGIN
1070
    73
1070
     1
1070
    44
1040
1.0
1070
    74
1070
     0
1000
MTEXTEND
  0
POINT
  5
9529
330
8E7A
100
AcDbEntity
  8
DEFPOINTS
 62
     0
100
AcDbPoint
 10
17.09807341515996
 20
15.61021942581987
 30
0.0
  0
POINT
  5
952A
330
8E7A
100
AcDbEntity
  8
DEFPOINTS
 62
     0
100
AcDbPoint
 10
17.09807341515996
 20
8.297719425819879
 30
0.0
  0
POINT
  5
952B
330
8E7A
100
AcDbEntity
  8
DEFPOINTS
 62
     0
100
AcDbPoint
 10
19.19618888631293
 20
8.297719425819879
 30
0.0
  0
ENDBLK
  5
8E86
330
8E7A
100
AcDbEntity
  8
0
100
AcDbBlockEnd
  0
BLOCK
  5
9136
330
912D
100
AcDbEntity
  8
0
100
AcDbBlockBegin
  2
*D20
 70
     1
 10
0.0
 20
0.0
 30
0.0
  3
*D20
  1

  0
LINE
  5
952C
330
912D
100
AcDbEntity
  8
DIM
100
AcDbLine
 10
24.996566839683
 20
5.056184580133605
 30
0.0
 11
25.31275731587344
 21
5.056184580133603
 31
0.0
  0
LINE
  5
952D
330
912D
100
AcDbEntity
  8
DIM
100
AcDbLine
 10
25.31275731587344
 20
5.056184580133603
 30
0.0
 11
27.41536738425803
 21
6.575856283954182
 31
0.0
  0
MTEXT
  5
952E
330
912D
100
AcDbEntity
  8
DIM
100
AcDbMText
 10
23.50704303015919
 20
5.056184580133603
 30
0.0
 40
0.2
 41
0.0
 71
     4
 72
     1
  1
\A1;\P%%C.39 3pls\P[10]
  7
ROMANS
1001
ACAD
1000
MTEXTBEGIN
1070
    73
1070
     1
1070
    44
1040
1.0
1070
    74
1070
     0
1000
MTEXTEND
1000
MTEXTBEGIN
1070
    73
1070
     1
1070
    44
1040
1.0
1070
    74
1070
     0
1000
MTEXTEND
  0
INSERT
  5
952F
330
912D
100
AcDbEntity
  8
DIM
100
AcDbBlockReference
  2
SEARROW
 10
27.52883378191265
 20
6.657864677447065
 30
0.0
 41
0.14
 42
0.14
 43
0.14
 50
35.85770531261061
  0
LINE
  5
9530
330
912D
100
AcDbEntity
  8
DIM
100
AcDbLine
 10
27.50487175027901
 20
6.770641881748289
 30
0.0
 11
27.86487175027901
 21
6.770641881748289
 31
0.0
  0
LINE
  5
9531
330
912D
100
AcDbEntity
  8
DIM
100
AcDbLine
 10
27.68487175027901
 20
6.59064188174829
 30
0.0
 11
27.68487175027901
 21
6.950641881748289
 31
0.0
  0
POINT
  5
9532
330
912D
100
AcDbEntity
  8
DEFPOINTS
 62
     0
100
AcDbPoint
 10
27.52883378191265
 20
6.657864677447065
 30
0.0
  0
POINT
  5
9533
330
912D
100
AcDbEntity
  8
DEFPOINTS
 62
     0
100
AcDbPoint
 10
27.84090971864538
 20
6.883419086049514
 30
0.0
  0
ENDBLK
  5
9137
330
912D
100
AcDbEntity
  8
0
100
AcDbBlockEnd
  0
BLOCK
  5
9142
330
9139
100
AcDbEntity
  8
0
100
AcDbBlockBegin
  2
*D21
 70
     1
 10
0.0
 20
0.0
 30
0.0
  3
*D21
  1

  0
LINE
  5
9534
330
9139
100
AcDbEntity
  8
DIM
100
AcDbLine
 10
25.09656683968302
 20
6.04094846143991
 30
0.0
 11
25.31275731587349
 21
6.040948461439912
 31
0.0
  0
LINE
  5
9535
330
9139
100
AcDbEntity
  8
DIM
100
AcDbLine
 10
25.31275731587349
 20
6.040948461439912
 30
0.0
 11
26.48020866245988
 21
7.261871610333347
 31
0.0
  0
MTEXT
  5
9536
330
9139
100
AcDbEntity
  8
DIM
100
AcDbMText
 10
24.22609064920683
 20
6.040948461439914
 30
0.0
 40
0.2
 41
0.0
 71
     4
 72
     1
  1
\A1;\P%%c1.88\P[48]
  7
ROMANS
1001
ACAD
1000
MTEXTBEGIN
1070
    73
1070
     1
1070
    44
1040
1.0
1070
    74
1070
     0
1000
MTEXTEND
1000
MTEXTBEGIN
1070
    73
1070
     1
1070
    44
1040
1.0
1070
    74
1070
     0
1000
MTEXTEND
  0
INSERT
  5
9537
330
9139
100
AcDbEntity
  8
DIM
100
AcDbBlockReference
  2
SEARROW
 10
26.57696303117884
 20
7.36305753886986
 30
0.0
 41
0.14
 42
0.14
 43
0.14
 50
46.2825446225031
  0
LINE
  5
9538
330
9139
100
AcDbEntity
  8
DIM
100
AcDbLine
 10
27.044871750279
 20
8.040641881748291
 30
0.0
 11
27.404871750279
 21
8.040641881748289
 31
0.0
  0
LINE
  5
9539
330
9139
100
AcDbEntity
  8
DIM
100
AcDbLine
 10
27.224871750279
 20
7.860641881748293
 30
0.0
 11
27.224871750279
 21
8.220641881748289
 31
0.0
  0
POINT
  5
953A
330
9139
100
AcDbEntity
  8
DEFPOINTS
 62
     0
100
AcDbPoint
 10
26.57696303117884
 20
7.36305753886986
 30
0.0
  0
POINT
  5
953B
330
9139
100
AcDbEntity
  8
DEFPOINTS
 62
     0
100
AcDbPoint
 10
27.87278046937915
 20
8.718226224626718
 30
0.0
  0
ENDBLK
  5
9143
330
9139
100
AcDbEntity
  8
0
100
AcDbBlockEnd
  0
BLOCK
  5
91FB
330
91F9
100
AcDbEntity
  8
0
100
AcDbBlockBegin
  2
SEARROW
 70
     0
 10
0.0
 20
0.0
 30
0.0
  3
SEARROW
  1

  0
LWPOLYLINE
  5
91FA
330
91F9
100
AcDbEntity
  8
0
  6
BYBLOCK
100
AcDbPolyline
 90
        2
 70
     0
 10
0.0
 20
0.0
 40
0.0
 41
0.5000000001500001
 10
-1.000000000300019
 20
0.0
 40
0.5000000001500001
 41
0.5000000001500001
  0
ENDBLK
  5
91FC
330
91F9
100
AcDbEntity
  8
0
100
AcDbBlockEnd
  0
ENDSEC
  0
SECTION
  2
ENTITIES
  0
INSERT
  5
79E
330
1F
100
AcDbEntity
  8
0
100
AcDbBlockReference
  2
NEWLAYERS
 10
0.0
 20
0.0475228887496178
 30
0.0
 41
0.01
 42
0.01
 43
0.01
  0
LWPOLYLINE
  5
BF7
330
1F
100
AcDbEntity
  8
VIEWPORT
100
AcDbPolyline
 90
        6
 70
     1
 43
0.0
 10
32.80000199999999
 20
20.59504577749923
 10
32.80000199999999
 20
1.919049777499234
 10
16.004922
 20
1.919049777499234
 10
16.004922
 20
0.0950457774992355
 10
0.0
 20
0.0950457774992355
 10
0.0
 20
20.59504577749923
1001
GENIUS_GENOREF_13
1005
0
1005
0
1005
0
1005
0
1005
0
1005
0
1005
0
  0
VIEWPORT
  5
BF8
330
1F
100
AcDbEntity
  8
VIEWPORT
100
AcDbViewport
 10
16.40000099999999
 20
10.34504577749923
 30
0.0
 40
32.80000199999999
 41
20.5
 69
     0
1001
ACAD
1000
MVIEW
1002
{
1070
    16
1010
0.0
1020
0.0
1030
0.0
1010
0.0
1020
0.0
1030
1.0
1040
0.0
1040
20.5
1040
16.39338663516309
1040
10.36637624741381
1040
50.0
1040
0.0
1040
0.0
1070
     0
1070
   100
1070
     1
1070
     2
1070
     0
1070
     0
1070
     0
1070
     0
1040
0.0
1040
0.0
1040
0.0
1040
0.5
1040
0.5
1040
0.5
1040
0.5
1070
     0
1002
{
1002
}
1002
}
1001
GENIUS_GENOREF_13
1005
0
1005
0
1005
0
1005
0
1005
0
1005
0
1005
0
1001
GENIUS_GENSCREG_15
1000
PF
1040
0.0
1000
DF
1040
0.0
1000
MIN
1011
0.0
1021
0.0950457774992355
1031
0.0
1000
MAX
1011
32.80000199999999
1021
20.59504577749923
1031
0.0
1000
FLAGS
1070
     2
  0
CIRCLE
  5
8CAB
330
1F
100
AcDbEntity
  8
CONTINUOUS2
100
AcDbCircle
 10
28.094871750279
 20
9.070641881748288
 30
0.0
 40
0.19252673939457
  0
CIRCLE
  5
8CAC
330
1F
100
AcDbEntity
  8
CONTINUOUS2
100
AcDbCircle
 10
25.894871750279
 20
8.270641881748289
 30
0.0
 40
0.19252673939457
  0
CIRCLE
  5
8CAD
330
1F
100
AcDbEntity
  8
CONTINUOUS2
100
AcDbCircle
 10
27.684871750279
 20
6.770641881748289
 30
0.0
 40
0.19252673939457
  0
LINE
  5
8CAE
330
1F
100
AcDbEntity
  8
CENTER2
100
AcDbLine
 10
27.136149750558
 20
8.040641881748289
 30
0.0
 11
27.31359375
 21
8.040641881748289
 31
0.0
  0
LINE
  5
8CAF
330
1F
100
AcDbEntity
  8
CENTER2
100
AcDbLine
 10
27.224871750279
 20
7.95191988202729
 30
0.0
 11
27.224871750279
 21
8.12936388146929
 31
0.0
  0
LINE
  5
8CB0
330
1F
100
AcDbEntity
  8
CENTER2
100
AcDbLine
 10
28.006149750558
 20
9.070641881748288
 30
0.0
 11
28.18359375
 21
9.070641881748288
 31
0.0
  0
LINE
  5
8CB1
330
1F
100
AcDbEntity
  8
CENTER2
100
AcDbLine
 10
28.094871750279
 20
8.981919882027288
 30
0.0
 11
28.094871750279
 21
9.159363881469287
 31
0.0
  0
LINE
  5
8CB2
330
1F
100
AcDbEntity
  8
CENTER2
100
AcDbLine
 10
27.596149750558
 20
6.770641881748289
 30
0.0
 11
27.77359375
 21
6.770641881748289
 31
0.0
  0
LINE
  5
8CB3
330
1F
100
AcDbEntity
  8
CENTER2
100
AcDbLine
 10
27.684871750279
 20
6.68191988202729
 30
0.0
 11
27.684871750279
 21
6.859363881469288
 31
0.0
  0
LINE
  5
8CB4
330
1F
100
AcDbEntity
  8
CENTER2
100
AcDbLine
 10
25.806149750558
 20
8.270641881748289
 30
0.0
 11
25.98359375
 21
8.270641881748289
 31
0.0
  0
LINE
  5
8CB5
330
1F
100
AcDbEntity
  8
CENTER2
100
AcDbLine
 10
25.894871750279
 20
8.181919882027289
 30
0.0
 11
25.894871750279
 21
8.359363881469288
 31
0.0
  0
DIMENSION
  5
8CB6
330
1F
100
AcDbEntity
  8
DIM
100
AcDbDimension
  2
*D5
 10
28.76518424543525
 20
6.770641881748289
 30
0.0
 11
28.76518424543525
 21
7.405641881748289
 31
0.0
 70
   160
  3
SCHNEIDERELECTRIC
100
AcDbAlignedDimension
 13
27.224871750279
 23
8.040641881748289
 33
0.0
 14
27.684871750279
 24
6.770641881748289
 34
0.0
 50
90.0
100
AcDbRotatedDimension
1001
ACAD
1000
DSTYLE
1002
{
1070
    40
1040
2.0
1002
}
  0
DIMENSION
  5
8CB7
330
1F
100
AcDbEntity
  8
DIM
100
AcDbDimension
  2
*D6
 10
29.56614674291651
 20
8.040641881748287
 30
0.0
 11
29.5661467429165
 21
8.555641881748289
 31
0.0
 70
   160
  3
SCHNEIDERELECTRIC
100
AcDbAlignedDimension
 13
28.094871750279
 23
9.070641881748288
 33
0.0
 14
27.224871750279
 24
8.040641881748289
 34
0.0
 50
90.0
100
AcDbRotatedDimension
1001
ACAD
1000
DSTYLE
1002
{
1070
    40
1040
2.0
1002
}
  0
DIMENSION
  5
8CB8
330
1F
100
AcDbEntity
  8
DIM
100
AcDbDimension
  2
*D7
 10
24.91494551892739
 20
8.270641881748289
 30
0.0
 11
24.4092312332131
 21
7.661583641105188
 31
0.0
 70
   160
  1
\P<>
  3
SCHNEIDERELECTRIC
100
AcDbAlignedDimension
 13
27.224871750279
 23
8.040641881748289
 33
0.0
 14
25.894871750279
 24
8.270641881748289
 34
0.0
 50
90.0
100
AcDbRotatedDimension
1001
ACAD
1000
DSTYLE
1002
{
1070
    40
1040
2.0
1002
}
  0
DIMENSION
  5
8CB9
330
1F
100
AcDbEntity
  8
DIM
100
AcDbDimension
  2
*D8
 10
28.094871750279
 20
10.44352937419204
 30
0.0
 11
28.69582413123138
 21
10.44352937419204
 31
0.0
 70
   160
  1
\P<>
  3
SCHNEIDERELECTRIC
100
AcDbAlignedDimension
 13
27.224871750279
 23
8.040641881748289
 33
0.0
 14
28.094871750279
 24
9.070641881748288
 34
0.0
100
AcDbRotatedDimension
1001
ACAD
1000
DSTYLE
1002
{
1070
    40
1040
2.0
1002
}
  0
DIMENSION
  5
8CBA
330
1F
100
AcDbEntity
  8
DIM
100
AcDbDimension
  2
*D9
 10
27.224871750279
 20
4.546569468186225
 30
0.0
 11
26.62391936932662
 21
4.546569468186225
 31
0.0
 70
   160
  1
\P<>
  3
SCHNEIDERELECTRIC
100
AcDbAlignedDimension
 13
27.684871750279
 23
6.770641881748289
 33
0.0
 14
27.224871750279
 24
8.040641881748289
 34
0.0
100
AcDbRotatedDimension
1001
ACAD
1000
DSTYLE
1002
{
1070
    40
1040
2.0
1002
}
  0
DIMENSION
  5
8CBB
330
1F
100
AcDbEntity
  8
DIM
100
AcDbDimension
  2
*D10
 10
25.894871750279
 20
11.18287937186704
 30
0.0
 11
26.559871750279
 21
11.18287937186704
 31
0.0
 70
   160
  1
\P<>
  3
SCHNEIDERELECTRIC
100
AcDbAlignedDimension
 13
27.224871750279
 23
8.040641881748289
 33
0.0
 14
25.894871750279
 24
8.270641881748289
 34
0.0
100
AcDbRotatedDimension
1001
ACAD
1000
DSTYLE
1002
{
1070
    40
1040
2.0
1002
}
  0
CIRCLE
  5
8CBC
330
1F
100
AcDbEntity
  8
CONTINUOUS2
100
AcDbCircle
 10
27.224871750279
 20
8.040641881748289
 30
0.0
 40
0.9375
  0
LINE
  5
8CBD
330
1F
100
AcDbEntity
  8
CONTINUOUS2
100
AcDbLine
 10
11.23257341515996
 20
15.61021942581987
 30
0.0
 11
17.09807341515996
 21
15.61021942581987
 31
0.0
  0
LINE
  5
8CBE
330
1F
100
AcDbEntity
  8
CONTINUOUS2
100
AcDbLine
 10
17.09807341515996
 20
8.297719425819879
 30
0.0
 11
11.23257341515996
 21
8.297719425819879
 31
0.0
  0
LINE
  5
8CBF
330
1F
100
AcDbEntity
  8
CONTINUOUS1
100
AcDbLine
 10
17.09807341515996
 20
15.61021942581987
 30
0.0
 11
11.23257341515996
 21
15.61021942581987
 31
0.0
  0
LINE
  5
8CC0
330
1F
100
AcDbEntity
  8
CONTINUOUS1
100
AcDbLine
 10
17.09807341515996
 20
15.11021942581987
 30
0.0
 11
11.23257341515996
 21
15.11021942581987
 31
0.0
  0
LINE
  5
8CC1
330
1F
100
AcDbEntity
  8
CONTINUOUS1
100
AcDbLine
 10
16.74380154127402
 20
8.297719425819881
 30
0.0
 11
11.55979266350572
 21
8.297719425819881
 31
0.0
  0
LINE
  5
8CC2
330
1F
100
AcDbEntity
  8
CONTINUOUS1
100
AcDbLine
 10
16.78557341515996
 20
12.03141942581988
 30
0.0
 11
11.54507341515996
 21
12.03141942581988
 31
0.0
  0
LINE
  5
8CC3
330
1F
100
AcDbEntity
  8
CONTINUOUS1
100
AcDbLine
 10
14.31682341515996
 20
8.797719425819883
 30
0.0
 11
14.16057341515996
 21
8.797719425819881
 31
0.0
  0
LINE
  5
8CC4
330
1F
100
AcDbEntity
  8
CONTINUOUS1
100
AcDbLine
 10
14.91057341515996
 20
10.42271942581988
 30
0.0
 11
14.16057341515996
 21
10.42271942581988
 31
0.0
  0
LINE
  5
8CC5
330
1F
100
AcDbEntity
  8
CONTINUOUS1
100
AcDbLine
 10
16.78557341515996
 20
13.25021942581988
 30
0.0
 11
11.54507341515996
 21
13.25021942581988
 31
0.0
  0
LINE
  5
8CC6
330
1F
100
AcDbEntity
  8
CONTINUOUS1
100
AcDbLine
 10
14.91057341515996
 20
14.45331942581988
 30
0.0
 11
14.06757341515995
 21
14.45331942581988
 31
0.0
  0
LINE
  5
8CC7
330
1F
100
AcDbEntity
  8
CONTINUOUS1
100
AcDbLine
 10
14.91057341515996
 20
13.84391942581988
 30
0.0
 11
14.06757341515995
 21
13.84391942581988
 31
0.0
  0
LINE
  5
8CC8
330
1F
100
AcDbEntity
  8
HIDDEN1
100
AcDbLine
 10
14.91057341515996
 20
13.62521942581987
 30
0.0
 11
14.16057341515996
 21
13.62521942581987
 31
0.0
  0
LINE
  5
8CC9
330
1F
100
AcDbEntity
  8
CONTINUOUS1
100
AcDbLine
 10
14.31682341515996
 20
15.11021942581987
 30
0.0
 11
14.16057341515996
 21
15.11021942581987
 31
0.0
  0
DIMENSION
  5
8CCA
330
1F
100
AcDbEntity
  8
DIM
100
AcDbDimension
  2
*D11
 10
15.07697655096151
 20
16.58162494286034
 30
0.0
 11
15.6779289319139
 21
16.58162494286034
 31
0.0
 70
   160
  1
\P<>
  3
SCHNEIDERELECTRIC
100
AcDbAlignedDimension
 13
13.20697655096152
 23
14.60468191826363
 33
0.0
 14
15.07697655096151
 24
14.60468191826363
 34
0.0
100
AcDbRotatedDimension
1001
ACAD
1000
DSTYLE
1002
{
1070
    40
1040
2.0
1002
}
  0
DIMENSION
  5
8CCB
330
1F
100
AcDbEntity
  8
DIM
100
AcDbDimension
  2
*D12
 10
17.09807341515996
 20
5.510069431244879
 30
0.0
 11
14.16532341515996
 21
5.510069431244879
 31
0.0
 70
   160
  1
\P<>
  3
SCHNEIDERELECTRIC
100
AcDbAlignedDimension
 13
11.23257341515996
 23
8.297719425819879
 33
0.0
 14
17.09807341515996
 24
8.297719425819879
 34
0.0
100
AcDbRotatedDimension
1001
ACAD
1000
DSTYLE
1002
{
1070
    40
1040
2.0
1002
}
  0
DIMENSION
  5
8CCC
330
1F
100
AcDbEntity
  8
DIM
100
AcDbDimension
  2
*D13
 10
11.43656766389322
 20
6.488204870034563
 30
0.0
 11
14.15179710238987
 21
6.488204870034563
 31
0.0
 70
   160
  1
\P<>
  3
SCHNEIDERELECTRIC
100
AcDbAlignedDimension
 13
16.86702654088652
 23
8.603431918263632
 33
0.0
 14
11.43656766389322
 24
8.603431918263632
 34
0.0
100
AcDbRotatedDimension
1001
ACAD
1000
DSTYLE
1002
{
1070
    40
1040
2.0
1002
}
  0
DIMENSION
  5
8CCD
330
1F
100
AcDbEntity
  8
DIM
100
AcDbDimension
  2
*D14
 10
13.61697655096151
 20
7.428362463979102
 30
0.0
 11
15.24200154592401
 21
7.428362463979102
 31
0.0
 70
   160
  1
\P<>
  3
SCHNEIDERELECTRIC
100
AcDbAlignedDimension
 13
16.86702654088652
 23
8.603431918263632
 33
0.0
 14
13.61697655096151
 24
8.525899957972852
 34
0.0
100
AcDbRotatedDimension
1001
ACAD
1000
DSTYLE
1002
{
1070
    40
1040
2.0
1002
}
  0
LINE
  5
8CCE
330
1F
100
AcDbEntity
  8
CENTER1
100
AcDbLine
 10
10.14985709977698
 20
11.13588191826363
 30
0.0
 11
17.32916957943323
 21
11.13588191826363
 31
0.0
  0
LWPOLYLINE
  5
8CCF
330
1F
100
AcDbEntity
  8
CONTINUOUS1
100
AcDbPolyline
 90
        4
 70
     1
 43
0.0
 10
13.35916405096151
 20
11.13588191826363
 10
13.61697655096151
 20
10.87806941826363
 10
13.87478905096151
 20
11.13588191826363
 10
13.61697655096151
 20
11.39369441826363
  0
CIRCLE
  5
8CD0
330
1F
100
AcDbEntity
  8
CONTINUOUS1
100
AcDbCircle
 10
13.61697655096151
 20
11.13588191826363
 30
0.0
 40
0.507825
  0
CIRCLE
  5
8CD1
330
1F
100
AcDbEntity
  8
CONTINUOUS1
100
AcDbCircle
 10
13.61697655096151
 20
11.13588191826363
 30
0.0
 40
0.39845
  0
LINE
  5
8CD2
330
1F
100
AcDbEntity
  8
CONTINUOUS2
100
AcDbLine
 10
11.23257341515996
 20
8.297719425819879
 30
0.0
 11
11.23257341515996
 21
15.61021942581987
 31
0.0
  0
LINE
  5
8CD3
330
1F
100
AcDbEntity
  8
CONTINUOUS1
100
AcDbLine
 10
11.23257341515996
 20
15.61021942581987
 30
0.0
 11
11.23257341515996
 21
8.297719425819879
 31
0.0
  0
LINE
  5
8CD4
330
1F
100
AcDbEntity
  8
CENTER1
100
AcDbLine
 10
13.61697655096151
 20
7.884499968047851
 30
0.0
 11
13.61697655096151
 21
16.82807494208535
 31
0.0
  0
DIMENSION
  5
8CD5
330
1F
100
AcDbEntity
  8
DIM
100
AcDbDimension
  2
*D15
 10
8.97835519604671
 20
15.61021942581987
 30
0.0
 11
8.978355196046706
 21
13.37305067204176
 31
0.0
 70
   160
  3
SCHNEIDERELECTRIC
100
AcDbAlignedDimension
 13
13.61697655096151
 23
11.13588191826363
 33
0.0
 14
11.23257341515996
 24
15.61021942581987
 34
0.0
 50
90.0
100
AcDbRotatedDimension
1001
ACAD
1000
DSTYLE
1002
{
1070
    40
1040
2.0
1002
}
  0
DIMENSION
  5
8CD6
330
1F
100
AcDbEntity
  8
DIM
100
AcDbDimension
  2
*D16
 10
9.972929715337103
 20
11.13588191826363
 30
0.0
 11
9.972929715337102
 21
12.47123429921601
 31
0.0
 70
   160
  3
SCHNEIDERELECTRIC
100
AcDbAlignedDimension
 13
13.20697655096152
 23
14.60468191826363
 33
0.0
 14
13.21279855223252
 24
11.13588191826363
 34
0.0
 50
90.0
100
AcDbRotatedDimension
1001
ACAD
1000
DSTYLE
1002
{
1070
    40
1040
2.0
1002
}
  0
TEXT
  5
8CD7
330
1F
100
AcDbEntity
  8
TEXT1
100
AcDbText
 10
7.248099060033492
 20
9.648665640617572
 30
0.0
 40
0.19715999938
  1
CENTER LINE OF
 50
0.0000000000002398
 11
7.248099060033492
 21
9.747245640307571
 31
0.0
100
AcDbText
 73
     2
  0
TEXT
  5
8CD8
330
1F
100
AcDbEntity
  8
TEXT1
100
AcDbText
 10
7.248099060033492
 20
9.352925641547571
 30
0.0
 40
0.19715999938
  1
OPERATING SHAFT
 50
0.0000000000002398
 11
7.248099060033492
 21
9.45150564123757
 31
0.0
100
AcDbText
 73
     2
  0
LINE
  5
8CD9
330
1F
100
AcDbEntity
  8
CONTINUOUS1
100
AcDbLine
 10
11.60224841399745
 20
8.79061942426988
 30
0.0
 11
11.23257341515996
 21
8.79061942426988
 31
0.0
  0
LINE
  5
8CDB
330
1F
100
AcDbEntity
  8
CENTER1
100
AcDbLine
 10
11.34784566417222
 20
8.603431918263632
 30
0.0
 11
11.52528966361422
 21
8.603431918263632
 31
0.0
  0
ARC
  5
8CDC
330
1F
100
AcDbEntity
  8
CONTINUOUS1
100
AcDbCircle
 10
11.43656766389322
 20
8.609769426207382
 30
0.0
 40
0.1232249996124999
100
AcDbArc
 50
0.0
 51
180.0
  0
CIRCLE
  5
8CDD
330
1F
100
AcDbEntity
  8
CONTINUOUS2
100
AcDbCircle
 10
11.43656766389322
 20
8.603431918263632
 30
0.0
 40
0.0955
  0
LINE
  5
8CDE
330
1F
100
AcDbEntity
  8
CENTER1
100
AcDbLine
 10
11.43656766389322
 20
8.374709918542631
 30
0.0
 11
11.43656766389322
 21
8.692153917984633
 31
0.0
  0
LINE
  5
8CDF
330
1F
100
AcDbEntity
  8
CONTINUOUS1
100
AcDbLine
 10
11.31334266428072
 20
8.297719425819881
 30
0.0
 11
11.23257341515996
 21
8.297719425819879
 31
0.0
  0
LINE
  5
8CE0
330
1F
100
AcDbEntity
  8
CONTINUOUS1
100
AcDbLine
 10
11.31334266428072
 20
8.609769426207382
 30
0.0
 11
11.31334266428072
 21
8.297719425819881
 31
0.0
  0
LINE
  5
8CE1
330
1F
100
AcDbEntity
  8
CONTINUOUS1
100
AcDbLine
 10
11.55979266350573
 20
8.609769426207382
 30
0.0
 11
11.55979266350572
 21
8.297719425819881
 31
0.0
  0
LINE
  5
8CE2
330
1F
100
AcDbEntity
  8
CONTINUOUS1
100
AcDbLine
 10
13.03557341515996
 20
10.42271942581988
 30
0.0
 11
13.03557341515996
 21
8.797719425819881
 31
0.0
  0
LINE
  5
8CE3
330
1F
100
AcDbEntity
  8
CONTINUOUS1
100
AcDbLine
 10
14.16057341515996
 20
10.42271942581988
 30
0.0
 11
14.16057341515996
 21
8.797719425819881
 31
0.0
  0
LINE
  5
8CE4
330
1F
100
AcDbEntity
  8
CONTINUOUS1
100
AcDbLine
 10
12.28557341515996
 20
10.42271942581988
 30
0.0
 11
12.28557341515996
 21
8.797719425819881
 31
0.0
  0
LINE
  5
8CE5
330
1F
100
AcDbEntity
  8
CONTINUOUS1
100
AcDbLine
 10
12.91057341515996
 20
8.735919425819881
 30
0.0
 11
12.74182581512451
 21
8.735919425819881
 31
0.0
  0
LINE
  5
8CE6
330
1F
100
AcDbEntity
  8
CONTINUOUS1
100
AcDbLine
 10
12.91057341515996
 20
8.329719425819881
 30
0.0
 11
12.74182581512451
 21
8.329719425819881
 31
0.0
  0
CIRCLE
  5
8CE7
330
1F
100
AcDbEntity
  8
CONTINUOUS1
100
AcDbCircle
 10
12.66057341515995
 20
8.532819425819882
 30
0.0
 40
0.21875
  0
LINE
  5
8CE8
330
1F
100
AcDbEntity
  8
CONTINUOUS1
100
AcDbLine
 10
12.41057341515996
 20
8.735919425819881
 30
0.0
 11
12.41057341515996
 21
8.329719425819881
 31
0.0
  0
CIRCLE
  5
8CE9
330
1F
100
AcDbEntity
  8
CONTINUOUS1
100
AcDbCircle
 10
12.66057341515995
 20
8.532819425819882
 30
0.0
 40
0.1875
  0
LINE
  5
8CEA
330
1F
100
AcDbEntity
  8
CONTINUOUS1
100
AcDbLine
 10
11.6638609138037
 20
8.297719425819879
 30
0.0
 11
11.6638609138037
 21
8.729006924463631
 31
0.0
  0
LINE
  5
8CEB
330
1F
100
AcDbEntity
  8
CONTINUOUS1
100
AcDbLine
 10
12.47569592193809
 20
8.564069425819882
 30
0.0
 11
12.84545090838182
 21
8.564069425819882
 31
0.0
  0
LINE
  5
8CEC
330
1F
100
AcDbEntity
  8
CONTINUOUS1
100
AcDbLine
 10
12.47569592193809
 20
8.501569425819882
 30
0.0
 11
12.84545090838182
 21
8.501569425819882
 31
0.0
  0
LINE
  5
8CED
330
1F
100
AcDbEntity
  8
CONTINUOUS1
100
AcDbLine
 10
12.5793210151954
 20
8.329719425819881
 30
0.0
 11
12.41057341515996
 21
8.329719425819881
 31
0.0
  0
LINE
  5
8CEE
330
1F
100
AcDbEntity
  8
CONTINUOUS1
100
AcDbLine
 10
12.44182341515996
 20
8.329719425819881
 30
0.0
 11
12.44182341515996
 21
8.297719425819883
 31
0.0
  0
ARC
  5
8CEF
330
1F
100
AcDbEntity
  8
CONTINUOUS1
100
AcDbCircle
 10
11.60224841399745
 20
8.729006924463631
 30
0.0
 40
0.06161249980625
100
AcDbArc
 50
0.0
 51
90.0
  0
LINE
  5
8CF0
330
1F
100
AcDbEntity
  8
CONTINUOUS1
100
AcDbLine
 10
12.5793210151954
 20
8.735919425819881
 30
0.0
 11
12.41057341515996
 21
8.735919425819881
 31
0.0
  0
LINE
  5
8CF1
330
1F
100
AcDbEntity
  8
CONTINUOUS1
100
AcDbLine
 10
12.44182341515996
 20
8.797719425819883
 30
0.0
 11
12.28557341515996
 21
8.797719425819881
 31
0.0
  0
LINE
  5
8CF2
330
1F
100
AcDbEntity
  8
CONTINUOUS1
100
AcDbLine
 10
12.44182341515996
 20
8.797719425819883
 30
0.0
 11
12.44182341515996
 21
8.735919425819881
 31
0.0
  0
LINE
  5
8CF3
330
1F
100
AcDbEntity
  8
CONTINUOUS1
100
AcDbLine
 10
12.91057341515996
 20
8.735919425819881
 30
0.0
 11
12.91057341515996
 21
8.329719425819881
 31
0.0
  0
LINE
  5
8CF4
330
1F
100
AcDbEntity
  8
CONTINUOUS1
100
AcDbLine
 10
12.87932341515996
 20
8.329719425819881
 30
0.0
 11
12.87932341515996
 21
8.297719425819881
 31
0.0
  0
LINE
  5
8CF5
330
1F
100
AcDbEntity
  8
CONTINUOUS1
100
AcDbLine
 10
13.03557341515996
 20
8.797719425819881
 30
0.0
 11
12.87932341515996
 21
8.797719425819883
 31
0.0
  0
LINE
  5
8CF6
330
1F
100
AcDbEntity
  8
CONTINUOUS1
100
AcDbLine
 10
12.87932341515996
 20
8.797719425819881
 30
0.0
 11
12.87932341515996
 21
8.735919425819881
 31
0.0
  0
LINE
  5
8CF7
330
1F
100
AcDbEntity
  8
CONTINUOUS1
100
AcDbLine
 10
13.03557341515996
 20
10.42271942581988
 30
0.0
 11
12.28557341515996
 21
10.42271942581988
 31
0.0
  0
CIRCLE
  5
8CF8
330
1F
100
AcDbEntity
  8
CONTINUOUS1
100
AcDbCircle
 10
12.66057341515995
 20
10.17271942581988
 30
0.0
 40
0.10546875
  0
LINE
  5
8CF9
330
1F
100
AcDbEntity
  8
CONTINUOUS1
100
AcDbLine
 10
12.55657982522266
 20
10.19029755081988
 30
0.0
 11
12.76456700509725
 21
10.19029755081988
 31
0.0
  0
LINE
  5
8CFA
330
1F
100
AcDbEntity
  8
CONTINUOUS1
100
AcDbLine
 10
12.55657982522266
 20
10.15514130081988
 30
0.0
 11
12.76456700509725
 21
10.15514130081988
 31
0.0
  0
LINE
  5
8CFD
330
1F
100
AcDbEntity
  8
HIDDEN1
100
AcDbLine
 10
13.03557341515996
 20
13.62521942581987
 30
0.0
 11
13.03557341515996
 21
15.11021942581987
 31
0.0
  0
LINE
  5
8CFE
330
1F
100
AcDbEntity
  8
HIDDEN1
100
AcDbLine
 10
12.28557341515996
 20
13.62521942581987
 30
0.0
 11
12.28557341515996
 21
15.11021942581987
 31
0.0
  0
LINE
  5
8CFF
330
1F
100
AcDbEntity
  8
HIDDEN1
100
AcDbLine
 10
14.16057341515996
 20
13.62521942581987
 30
0.0
 11
14.16057341515996
 21
15.11021942581987
 31
0.0
  0
DIMENSION
  5
8D00
330
1F
100
AcDbEntity
  8
DIM
100
AcDbDimension
  2
*D17
 10
13.20697655096152
 20
16.40755878562676
 30
0.0
 11
12.46602417000914
 21
16.40755878562676
 31
0.0
 70
   160
  1
\P<>
  3
SCHNEIDERELECTRIC
100
AcDbAlignedDimension
 13
13.61697655096151
 23
14.69838191826363
 33
0.0
 14
13.20697655096152
 24
14.60468191826363
 34
0.0
100
AcDbRotatedDimension
1001
ACAD
1000
DSTYLE
1002
{
1070
    40
1040
2.0
1002
}
  0
LINE
  5
8D01
330
1F
100
AcDbEntity
  8
CONTINUOUS1
100
AcDbLine
 10
11.48257341515996
 20
13.18771942581988
 30
0.0
 11
11.48257341515996
 21
12.09391942581988
 31
0.0
  0
ARC
  5
8D02
330
1F
100
AcDbEntity
  8
CONTINUOUS1
100
AcDbCircle
 10
11.54507341515996
 20
12.09391942581988
 30
0.0
 40
0.0625
100
AcDbArc
 50
179.9999999999999
 51
270.0
  0
ARC
  5
8D03
330
1F
100
AcDbEntity
  8
CONTINUOUS1
100
AcDbCircle
 10
11.54507341515996
 20
13.18771942581988
 30
0.0
 40
0.0625
100
AcDbArc
 50
90.0
 51
180.0
  0
LINE
  5
8D04
330
1F
100
AcDbEntity
  8
CONTINUOUS1
100
AcDbLine
 10
13.03557341515996
 20
14.45331942581988
 30
0.0
 11
12.19257341515995
 21
14.45331942581988
 31
0.0
  0
LINE
  5
8D05
330
1F
100
AcDbEntity
  8
HIDDEN1
100
AcDbLine
 10
13.03557341515996
 20
13.62521942581987
 30
0.0
 11
12.28557341515996
 21
13.62521942581987
 31
0.0
  0
LINE
  5
8D06
330
1F
100
AcDbEntity
  8
CONTINUOUS1
100
AcDbLine
 10
13.03557341515996
 20
13.84391942581988
 30
0.0
 11
12.19257341515995
 21
13.84391942581988
 31
0.0
  0
CIRCLE
  5
8D07
330
1F
100
AcDbEntity
  8
CONTINUOUS1
100
AcDbCircle
 10
12.66057341515995
 20
13.87521942581988
 30
0.0
 40
0.10546875
  0
LINE
  5
8D08
330
1F
100
AcDbEntity
  8
CONTINUOUS1
100
AcDbLine
 10
12.19257341515995
 20
14.45331942581988
 30
0.0
 11
12.19257341515995
 21
13.84391942581988
 31
0.0
  0
LINE
  5
8D09
330
1F
100
AcDbEntity
  8
CONTINUOUS1
100
AcDbLine
 10
12.55657982522266
 20
13.89279755081987
 30
0.0
 11
12.76456700509725
 21
13.89279755081987
 31
0.0
  0
LINE
  5
8D0A
330
1F
100
AcDbEntity
  8
CONTINUOUS1
100
AcDbLine
 10
12.55657982522266
 20
13.85764130081987
 30
0.0
 11
12.76456700509725
 21
13.85764130081987
 31
0.0
  0
CIRCLE
  5
8D0B
330
1F
100
AcDbEntity
  8
CONTINUOUS1
100
AcDbCircle
 10
12.66057341515996
 20
14.33611942581988
 30
0.0
 40
0.046875
  0
CIRCLE
  5
8D0C
330
1F
100
AcDbEntity
  8
CONTINUOUS1
100
AcDbCircle
 10
12.66057341515996
 20
14.14861942581988
 30
0.0
 40
0.078125
  0
LINE
  5
8D0D
330
1F
100
AcDbEntity
  8
CONTINUOUS1
100
AcDbLine
 10
14.06757341515995
 20
14.45331942581988
 30
0.0
 11
14.06757341515995
 21
13.84391942581988
 31
0.0
  0
LINE
  5
8D0E
330
1F
100
AcDbEntity
  8
CONTINUOUS1
100
AcDbLine
 10
13.03557341515996
 20
14.45331942581988
 30
0.0
 11
13.03557341515996
 21
13.84391942581988
 31
0.0
  0
LINE
  5
8D0F
330
1F
100
AcDbEntity
  8
CENTER1
100
AcDbLine
 10
13.11825455124052
 20
14.60468191826363
 30
0.0
 11
13.29569855068251
 21
14.60468191826363
 31
0.0
  0
CIRCLE
  5
8D10
330
1F
100
AcDbEntity
  8
CONTINUOUS2
100
AcDbCircle
 10
13.20697655096152
 20
14.60468191826363
 30
0.0
 40
0.0955
  0
LINE
  5
8D11
330
1F
100
AcDbEntity
  8
CENTER1
100
AcDbLine
 10
13.20697655096152
 20
14.51595991854263
 30
0.0
 11
13.20697655096152
 21
14.69340391798463
 31
0.0
  0
CIRCLE
  5
8D12
330
1F
100
AcDbEntity
  8
CONTINUOUS1
100
AcDbCircle
 10
12.66057341515995
 20
15.37511942581987
 30
0.0
 40
0.21875
  0
LINE
  5
8D13
330
1F
100
AcDbEntity
  8
CONTINUOUS1
100
AcDbLine
 10
12.91057341515996
 20
15.57821942581987
 30
0.0
 11
12.74182581512451
 21
15.57821942581987
 31
0.0
  0
LINE
  5
8D14
330
1F
100
AcDbEntity
  8
CONTINUOUS1
100
AcDbLine
 10
12.91057341515996
 20
15.17201942581987
 30
0.0
 11
12.74182581512451
 21
15.17201942581987
 31
0.0
  0
CIRCLE
  5
8D15
330
1F
100
AcDbEntity
  8
CONTINUOUS1
100
AcDbCircle
 10
12.66057341515995
 20
15.37511942581987
 30
0.0
 40
0.1875
  0
LINE
  5
8D16
330
1F
100
AcDbEntity
  8
CONTINUOUS1
100
AcDbLine
 10
12.41057341515996
 20
15.17201942581987
 30
0.0
 11
12.41057341515996
 21
15.57821942581987
 31
0.0
  0
LINE
  5
8D17
330
1F
100
AcDbEntity
  8
CONTINUOUS1
100
AcDbLine
 10
12.44182341515996
 20
15.11021942581987
 30
0.0
 11
12.44182341515996
 21
15.17201942581987
 31
0.0
  0
LINE
  5
8D18
330
1F
100
AcDbEntity
  8
CONTINUOUS1
100
AcDbLine
 10
12.44182341515996
 20
15.11021942581987
 30
0.0
 11
12.28557341515996
 21
15.11021942581987
 31
0.0
  0
LINE
  5
8D19
330
1F
100
AcDbEntity
  8
CONTINUOUS1
100
AcDbLine
 10
12.47569592193809
 20
15.40636942581987
 30
0.0
 11
12.84545090838182
 21
15.40636942581987
 31
0.0
  0
LINE
  5
8D1A
330
1F
100
AcDbEntity
  8
CONTINUOUS1
100
AcDbLine
 10
12.47569592193809
 20
15.34386942581987
 30
0.0
 11
12.84545090838182
 21
15.34386942581987
 31
0.0
  0
LINE
  5
8D1B
330
1F
100
AcDbEntity
  8
CONTINUOUS1
100
AcDbLine
 10
12.5793210151954
 20
15.17201942581987
 30
0.0
 11
12.41057341515996
 21
15.17201942581987
 31
0.0
  0
LINE
  5
8D1C
330
1F
100
AcDbEntity
  8
CONTINUOUS1
100
AcDbLine
 10
12.5793210151954
 20
15.57821942581987
 30
0.0
 11
12.41057341515996
 21
15.57821942581987
 31
0.0
  0
LINE
  5
8D1D
330
1F
100
AcDbEntity
  8
CONTINUOUS1
100
AcDbLine
 10
12.44182341515996
 20
15.57821942581987
 30
0.0
 11
12.44182341515996
 21
15.61021942581987
 31
0.0
  0
LINE
  5
8D1E
330
1F
100
AcDbEntity
  8
CONTINUOUS1
100
AcDbLine
 10
12.91057341515996
 20
15.17201942581987
 30
0.0
 11
12.91057341515996
 21
15.57821942581987
 31
0.0
  0
LINE
  5
8D1F
330
1F
100
AcDbEntity
  8
CONTINUOUS1
100
AcDbLine
 10
12.87932341515996
 20
15.11021942581987
 30
0.0
 11
12.87932341515996
 21
15.17201942581987
 31
0.0
  0
LINE
  5
8D20
330
1F
100
AcDbEntity
  8
CONTINUOUS1
100
AcDbLine
 10
13.03557341515996
 20
15.11021942581987
 30
0.0
 11
12.87932341515996
 21
15.11021942581987
 31
0.0
  0
LINE
  5
8D21
330
1F
100
AcDbEntity
  8
CONTINUOUS1
100
AcDbLine
 10
12.87932341515996
 20
15.57821942581987
 30
0.0
 11
12.87932341515996
 21
15.61021942581987
 31
0.0
  0
LINE
  5
8D22
330
1F
100
AcDbEntity
  8
CONTINUOUS2
100
AcDbLine
 10
17.09807341515996
 20
15.61021942581987
 30
0.0
 11
17.09807341515996
 21
8.297719425819879
 31
0.0
  0
LINE
  5
8D23
330
1F
100
AcDbEntity
  8
CONTINUOUS1
100
AcDbLine
 10
17.09807341515996
 20
15.61021942581987
 30
0.0
 11
17.09807341515996
 21
8.297719425819879
 31
0.0
  0
DIMENSION
  5
8D24
330
1F
100
AcDbEntity
  8
DIM
100
AcDbDimension
  2
*D18
 10
18.29826005407372
 20
8.603431918263632
 30
0.0
 11
18.29826005407371
 21
11.60405691826363
 31
0.0
 70
   160
  3
SCHNEIDERELECTRIC
100
AcDbAlignedDimension
 13
15.07697655096151
 23
14.60468191826363
 33
0.0
 14
16.86702654088652
 24
8.603431918263632
 34
0.0
 50
90.0
100
AcDbRotatedDimension
1001
ACAD
1000
DSTYLE
1002
{
1070
    40
1040
2.0
1002
}
  0
DIMENSION
  5
8D25
330
1F
100
AcDbEntity
  8
DIM
100
AcDbDimension
  2
*D19
 10
19.19618888631293
 20
8.297719425819879
 30
0.0
 11
19.19618888631293
 21
12.09396942581988
 31
0.0
 70
   160
  3
SCHNEIDERELECTRIC
100
AcDbAlignedDimension
 13
17.09807341515996
 23
15.61021942581987
 33
0.0
 14
17.09807341515996
 24
8.297719425819879
 34
0.0
 50
90.0
100
AcDbRotatedDimension
1001
ACAD
1000
DSTYLE
1002
{
1070
    40
1040
2.0
1002
}
  0
LINE
  5
8D26
330
1F
100
AcDbEntity
  8
CONTINUOUS1
100
AcDbLine
 10
17.09807341515996
 20
8.79061942426988
 30
0.0
 11
16.72839841632246
 21
8.79061942426988
 31
0.0
  0
ARC
  5
8D27
330
1F
100
AcDbEntity
  8
CONTINUOUS1
100
AcDbCircle
 10
16.86702654088652
 20
8.609769426207382
 30
0.0
 40
0.1232249996124997
100
AcDbArc
 50
0.0
 51
180.0
  0
LINE
  5
8D28
330
1F
100
AcDbEntity
  8
CENTER1
100
AcDbLine
 10
16.77830454116552
 20
8.603431918263632
 30
0.0
 11
16.95574854060752
 21
8.603431918263632
 31
0.0
  0
CIRCLE
  5
8D29
330
1F
100
AcDbEntity
  8
CONTINUOUS2
100
AcDbCircle
 10
16.86702654088652
 20
8.603431918263632
 30
0.0
 40
0.0955
  0
LINE
  5
8D2A
330
1F
100
AcDbEntity
  8
CONTINUOUS1
100
AcDbLine
 10
16.03557341515996
 20
10.42271942581988
 30
0.0
 11
16.03557341515996
 21
8.797719425819881
 31
0.0
  0
LINE
  5
8D2B
330
1F
100
AcDbEntity
  8
CONTINUOUS1
100
AcDbLine
 10
16.78557341515996
 20
10.42271942581988
 30
0.0
 11
16.78557341515996
 21
8.797719425819881
 31
0.0
  0
LINE
  5
8D2C
330
1F
100
AcDbEntity
  8
CONTINUOUS1
100
AcDbLine
 10
14.91057341515996
 20
10.42271942581988
 30
0.0
 11
14.91057341515996
 21
8.797719425819881
 31
0.0
  0
LINE
  5
8D2D
330
1F
100
AcDbEntity
  8
CONTINUOUS1
100
AcDbLine
 10
14.78557341515996
 20
8.735919425819881
 30
0.0
 11
14.78557341515996
 21
8.329719425819881
 31
0.0
  0
LINE
  5
8D2E
330
1F
100
AcDbEntity
  8
CONTINUOUS1
100
AcDbLine
 10
14.28557341515996
 20
8.735919425819881
 30
0.0
 11
14.28557341515996
 21
8.329719425819881
 31
0.0
  0
CIRCLE
  5
8D2F
330
1F
100
AcDbEntity
  8
CONTINUOUS1
100
AcDbCircle
 10
14.53557341515995
 20
8.532819425819882
 30
0.0
 40
0.1875
  0
CIRCLE
  5
8D30
330
1F
100
AcDbEntity
  8
CONTINUOUS1
100
AcDbCircle
 10
14.53557341515995
 20
8.532819425819882
 30
0.0
 40
0.21875
  0
LINE
  5
8D31
330
1F
100
AcDbEntity
  8
CONTINUOUS1
100
AcDbLine
 10
14.35069592193809
 20
8.501569425819882
 30
0.0
 11
14.72045090838182
 21
8.501569425819882
 31
0.0
  0
LINE
  5
8D32
330
1F
100
AcDbEntity
  8
CONTINUOUS1
100
AcDbLine
 10
14.35069592193809
 20
8.564069425819882
 30
0.0
 11
14.72045090838182
 21
8.564069425819882
 31
0.0
  0
LINE
  5
8D33
330
1F
100
AcDbEntity
  8
CONTINUOUS1
100
AcDbLine
 10
14.4543210151954
 20
8.329719425819881
 30
0.0
 11
14.28557341515996
 21
8.329719425819881
 31
0.0
  0
LINE
  5
8D34
330
1F
100
AcDbEntity
  8
CONTINUOUS1
100
AcDbLine
 10
14.31682341515996
 20
8.329719425819881
 30
0.0
 11
14.31682341515996
 21
8.297719425819883
 31
0.0
  0
LINE
  5
8D35
330
1F
100
AcDbEntity
  8
CONTINUOUS1
100
AcDbLine
 10
14.78557341515996
 20
8.329719425819881
 30
0.0
 11
14.61682581512451
 21
8.329719425819881
 31
0.0
  0
LINE
  5
8D36
330
1F
100
AcDbEntity
  8
CONTINUOUS1
100
AcDbLine
 10
14.75432341515996
 20
8.329719425819881
 30
0.0
 11
14.75432341515996
 21
8.297719425819881
 31
0.0
  0
LINE
  5
8D37
330
1F
100
AcDbEntity
  8
CONTINUOUS1
100
AcDbLine
 10
14.91057341515996
 20
8.797719425819881
 30
0.0
 11
14.75432341515996
 21
8.797719425819883
 31
0.0
  0
LINE
  5
8D38
330
1F
100
AcDbEntity
  8
CONTINUOUS1
100
AcDbLine
 10
14.4543210151954
 20
8.735919425819881
 30
0.0
 11
14.28557341515996
 21
8.735919425819881
 31
0.0
  0
LINE
  5
8D39
330
1F
100
AcDbEntity
  8
CONTINUOUS1
100
AcDbLine
 10
14.31682341515996
 20
8.797719425819883
 30
0.0
 11
14.31682341515996
 21
8.735919425819881
 31
0.0
  0
LINE
  5
8D3A
330
1F
100
AcDbEntity
  8
CONTINUOUS1
100
AcDbLine
 10
14.78557341515996
 20
8.735919425819881
 30
0.0
 11
14.61682581512451
 21
8.735919425819881
 31
0.0
  0
LINE
  5
8D3B
330
1F
100
AcDbEntity
  8
CONTINUOUS1
100
AcDbLine
 10
14.75432341515996
 20
8.797719425819881
 30
0.0
 11
14.75432341515996
 21
8.735919425819881
 31
0.0
  0
LINE
  5
8D3C
330
1F
100
AcDbEntity
  8
CONTINUOUS1
100
AcDbLine
 10
16.66057341515996
 20
8.735919425819881
 30
0.0
 11
16.66057341515996
 21
8.329719425819881
 31
0.0
  0
CIRCLE
  5
8D3D
330
1F
100
AcDbEntity
  8
CONTINUOUS1
100
AcDbCircle
 10
16.41057341515995
 20
8.532819425819882
 30
0.0
 40
0.1875
  0
LINE
  5
8D3E
330
1F
100
AcDbEntity
  8
CONTINUOUS1
100
AcDbLine
 10
16.66678591651621
 20
8.729006924463631
 30
0.0
 11
16.66678591651621
 21
8.297719425819879
 31
0.0
  0
LINE
  5
8D3F
330
1F
100
AcDbEntity
  8
CONTINUOUS1
100
AcDbLine
 10
16.16057341515996
 20
8.735919425819881
 30
0.0
 11
16.16057341515996
 21
8.329719425819881
 31
0.0
  0
CIRCLE
  5
8D40
330
1F
100
AcDbEntity
  8
CONTINUOUS1
100
AcDbCircle
 10
16.41057341515995
 20
8.532819425819882
 30
0.0
 40
0.21875
  0
LINE
  5
8D41
330
1F
100
AcDbEntity
  8
CONTINUOUS1
100
AcDbLine
 10
16.3293210151954
 20
8.329719425819881
 30
0.0
 11
16.16057341515996
 21
8.329719425819881
 31
0.0
  0
LINE
  5
8D42
330
1F
100
AcDbEntity
  8
CONTINUOUS1
100
AcDbLine
 10
16.22569592193809
 20
8.501569425819882
 30
0.0
 11
16.59545090838182
 21
8.501569425819882
 31
0.0
  0
LINE
  5
8D43
330
1F
100
AcDbEntity
  8
CONTINUOUS1
100
AcDbLine
 10
16.22569592193809
 20
8.564069425819882
 30
0.0
 11
16.59545090838182
 21
8.564069425819882
 31
0.0
  0
LINE
  5
8D44
330
1F
100
AcDbEntity
  8
CONTINUOUS1
100
AcDbLine
 10
16.66057341515996
 20
8.329719425819881
 30
0.0
 11
16.49182581512451
 21
8.329719425819881
 31
0.0
  0
LINE
  5
8D45
330
1F
100
AcDbEntity
  8
CONTINUOUS1
100
AcDbLine
 10
16.19182341515996
 20
8.329719425819881
 30
0.0
 11
16.19182341515996
 21
8.297719425819883
 31
0.0
  0
LINE
  5
8D46
330
1F
100
AcDbEntity
  8
CONTINUOUS1
100
AcDbLine
 10
16.62932341515996
 20
8.329719425819881
 30
0.0
 11
16.62932341515996
 21
8.297719425819881
 31
0.0
  0
LINE
  5
8D47
330
1F
100
AcDbEntity
  8
CONTINUOUS1
100
AcDbLine
 10
16.74380154127402
 20
8.609769426207382
 30
0.0
 11
16.74380154127402
 21
8.297719425819879
 31
0.0
  0
LINE
  5
8D48
330
1F
100
AcDbEntity
  8
CONTINUOUS1
100
AcDbLine
 10
16.19182341515996
 20
8.797719425819883
 30
0.0
 11
16.03557341515996
 21
8.797719425819881
 31
0.0
  0
LINE
  5
8D49
330
1F
100
AcDbEntity
  8
CONTINUOUS1
100
AcDbLine
 10
16.3293210151954
 20
8.735919425819881
 30
0.0
 11
16.16057341515996
 21
8.735919425819881
 31
0.0
  0
LINE
  5
8D4A
330
1F
100
AcDbEntity
  8
CONTINUOUS1
100
AcDbLine
 10
16.66057341515996
 20
8.735919425819881
 30
0.0
 11
16.49182581512451
 21
8.735919425819881
 31
0.0
  0
LINE
  5
8D4B
330
1F
100
AcDbEntity
  8
CONTINUOUS1
100
AcDbLine
 10
16.19182341515996
 20
8.797719425819883
 30
0.0
 11
16.19182341515996
 21
8.735919425819881
 31
0.0
  0
LINE
  5
8D4C
330
1F
100
AcDbEntity
  8
CONTINUOUS1
100
AcDbLine
 10
16.78557341515996
 20
8.797719425819881
 30
0.0
 11
16.62932341515996
 21
8.797719425819883
 31
0.0
  0
LINE
  5
8D4D
330
1F
100
AcDbEntity
  8
CONTINUOUS1
100
AcDbLine
 10
16.62932341515996
 20
8.797719425819881
 30
0.0
 11
16.62932341515996
 21
8.735919425819881
 31
0.0
  0
ARC
  5
8D4E
330
1F
100
AcDbEntity
  8
CONTINUOUS1
100
AcDbCircle
 10
16.72839841632246
 20
8.729006924463631
 30
0.0
 40
0.06161249980625
100
AcDbArc
 50
90.0
 51
180.0
  0
LINE
  5
8D4F
330
1F
100
AcDbEntity
  8
CONTINUOUS1
100
AcDbLine
 10
14.43157982522266
 20
10.19029755081988
 30
0.0
 11
14.63956700509725
 21
10.19029755081988
 31
0.0
  0
LINE
  5
8D50
330
1F
100
AcDbEntity
  8
CONTINUOUS1
100
AcDbLine
 10
14.43157982522266
 20
10.15514130081988
 30
0.0
 11
14.63956700509725
 21
10.15514130081988
 31
0.0
  0
CIRCLE
  5
8D51
330
1F
100
AcDbEntity
  8
CONTINUOUS1
100
AcDbCircle
 10
14.53557341515995
 20
10.17271942581988
 30
0.0
 40
0.10546875
  0
LINE
  5
8D52
330
1F
100
AcDbEntity
  8
CONTINUOUS1
100
AcDbLine
 10
16.30657982522266
 20
10.19029755081988
 30
0.0
 11
16.51456700509725
 21
10.19029755081988
 31
0.0
  0
LINE
  5
8D53
330
1F
100
AcDbEntity
  8
CONTINUOUS1
100
AcDbLine
 10
16.30657982522266
 20
10.15514130081988
 30
0.0
 11
16.51456700509725
 21
10.15514130081988
 31
0.0
  0
CIRCLE
  5
8D54
330
1F
100
AcDbEntity
  8
CONTINUOUS1
100
AcDbCircle
 10
16.41057341515995
 20
10.17271942581988
 30
0.0
 40
0.10546875
  0
LINE
  5
8D55
330
1F
100
AcDbEntity
  8
CONTINUOUS1
100
AcDbLine
 10
16.78557341515996
 20
10.42271942581988
 30
0.0
 11
16.03557341515996
 21
10.42271942581988
 31
0.0
  0
LINE
  5
8D56
330
1F
100
AcDbEntity
  8
CENTER1
100
AcDbLine
 10
16.86702654088652
 20
8.514709918542632
 30
0.0
 11
16.86702654088652
 21
8.692153917984633
 31
0.0
  0
LINE
  5
8D57
330
1F
100
AcDbEntity
  8
CONTINUOUS1
100
AcDbLine
 10
17.09807341515996
 20
8.297719425819879
 30
0.0
 11
16.99025154049902
 21
8.297719425819881
 31
0.0
  0
LINE
  5
8D58
330
1F
100
AcDbEntity
  8
CONTINUOUS1
100
AcDbLine
 10
16.99025154049902
 20
8.609769426207382
 30
0.0
 11
16.99025154049902
 21
8.297719425819879
 31
0.0
  0
LINE
  5
8D59
330
1F
100
AcDbEntity
  8
HIDDEN1
100
AcDbLine
 10
16.03557341515996
 20
13.62521942581987
 30
0.0
 11
16.03557341515996
 21
15.11021942581987
 31
0.0
  0
LINE
  5
8D5A
330
1F
100
AcDbEntity
  8
HIDDEN1
100
AcDbLine
 10
14.91057341515996
 20
13.62521942581987
 30
0.0
 11
14.91057341515996
 21
15.11021942581987
 31
0.0
  0
LINE
  5
8D5B
330
1F
100
AcDbEntity
  8
HIDDEN1
100
AcDbLine
 10
16.78557341515996
 20
13.62521942581987
 30
0.0
 11
16.78557341515996
 21
15.11021942581987
 31
0.0
  0
ARC
  5
8D5C
330
1F
100
AcDbEntity
  8
CONTINUOUS1
100
AcDbCircle
 10
16.78557341515996
 20
13.18771942581988
 30
0.0
 40
0.0625
100
AcDbArc
 50
0.0
 51
90.0
  0
ARC
  5
8D5D
330
1F
100
AcDbEntity
  8
CONTINUOUS1
100
AcDbCircle
 10
16.78557341515996
 20
12.09391942581988
 30
0.0
 40
0.0625
100
AcDbArc
 50
270.0
 51
0.0
  0
CIRCLE
  5
8D5E
330
1F
100
AcDbEntity
  8
CONTINUOUS1
100
AcDbCircle
 10
14.53557341515995
 20
13.87521942581988
 30
0.0
 40
0.10546875
  0
LINE
  5
8D5F
330
1F
100
AcDbEntity
  8
CONTINUOUS1
100
AcDbLine
 10
14.91057341515996
 20
14.45331942581988
 30
0.0
 11
14.91057341515996
 21
13.84391942581988
 31
0.0
  0
LINE
  5
8D60
330
1F
100
AcDbEntity
  8
CONTINUOUS1
100
AcDbLine
 10
14.43157982522266
 20
13.89279755081987
 30
0.0
 11
14.63956700509725
 21
13.89279755081987
 31
0.0
  0
LINE
  5
8D61
330
1F
100
AcDbEntity
  8
CONTINUOUS1
100
AcDbLine
 10
14.43157982522266
 20
13.85764130081987
 30
0.0
 11
14.63956700509725
 21
13.85764130081987
 31
0.0
  0
CIRCLE
  5
8D62
330
1F
100
AcDbEntity
  8
CONTINUOUS1
100
AcDbCircle
 10
14.53557341515996
 20
14.33611942581988
 30
0.0
 40
0.046875
  0
CIRCLE
  5
8D63
330
1F
100
AcDbEntity
  8
CONTINUOUS1
100
AcDbCircle
 10
14.53557341515996
 20
14.14861942581988
 30
0.0
 40
0.078125
  0
LINE
  5
8D64
330
1F
100
AcDbEntity
  8
CENTER1
100
AcDbLine
 10
14.98825455124052
 20
14.60468191826363
 30
0.0
 11
15.16569855068251
 21
14.60468191826363
 31
0.0
  0
CIRCLE
  5
8D65
330
1F
100
AcDbEntity
  8
CONTINUOUS2
100
AcDbCircle
 10
15.07697655096151
 20
14.60468191826363
 30
0.0
 40
0.0955
  0
LINE
  5
8D66
330
1F
100
AcDbEntity
  8
CENTER1
100
AcDbLine
 10
15.07697655096151
 20
14.51595991854263
 30
0.0
 11
15.07697655096151
 21
14.69340391798463
 31
0.0
  0
CIRCLE
  5
8D67
330
1F
100
AcDbEntity
  8
CONTINUOUS1
100
AcDbCircle
 10
16.41057341515995
 20
13.87521942581988
 30
0.0
 40
0.10546875
  0
LINE
  5
8D68
330
1F
100
AcDbEntity
  8
CONTINUOUS1
100
AcDbLine
 10
15.94257341515995
 20
14.45331942581988
 30
0.0
 11
15.94257341515995
 21
13.84391942581988
 31
0.0
  0
LINE
  5
8D69
330
1F
100
AcDbEntity
  8
CONTINUOUS1
100
AcDbLine
 10
16.78557341515996
 20
14.45331942581988
 30
0.0
 11
16.78557341515996
 21
13.84391942581988
 31
0.0
  0
LINE
  5
8D6A
330
1F
100
AcDbEntity
  8
HIDDEN1
100
AcDbLine
 10
16.78557341515996
 20
13.62521942581987
 30
0.0
 11
16.03557341515996
 21
13.62521942581987
 31
0.0
  0
LINE
  5
8D6B
330
1F
100
AcDbEntity
  8
CONTINUOUS1
100
AcDbLine
 10
16.78557341515996
 20
13.84391942581988
 30
0.0
 11
15.94257341515995
 21
13.84391942581988
 31
0.0
  0
LINE
  5
8D6C
330
1F
100
AcDbEntity
  8
CONTINUOUS1
100
AcDbLine
 10
16.30657982522266
 20
13.89279755081987
 30
0.0
 11
16.51456700509725
 21
13.89279755081987
 31
0.0
  0
LINE
  5
8D6D
330
1F
100
AcDbEntity
  8
CONTINUOUS1
100
AcDbLine
 10
16.30657982522266
 20
13.85764130081987
 30
0.0
 11
16.51456700509725
 21
13.85764130081987
 31
0.0
  0
LINE
  5
8D6E
330
1F
100
AcDbEntity
  8
CONTINUOUS1
100
AcDbLine
 10
16.78557341515996
 20
14.45331942581988
 30
0.0
 11
15.94257341515995
 21
14.45331942581988
 31
0.0
  0
CIRCLE
  5
8D6F
330
1F
100
AcDbEntity
  8
CONTINUOUS1
100
AcDbCircle
 10
16.41057341515996
 20
14.33611942581988
 30
0.0
 40
0.046875
  0
CIRCLE
  5
8D70
330
1F
100
AcDbEntity
  8
CONTINUOUS1
100
AcDbCircle
 10
16.41057341515996
 20
14.14861942581988
 30
0.0
 40
0.078125
  0
LINE
  5
8D71
330
1F
100
AcDbEntity
  8
CONTINUOUS1
100
AcDbLine
 10
16.84807341515996
 20
13.18771942581988
 30
0.0
 11
16.84807341515996
 21
12.09391942581988
 31
0.0
  0
CIRCLE
  5
8D72
330
1F
100
AcDbEntity
  8
CONTINUOUS1
100
AcDbCircle
 10
14.53557341515995
 20
15.37511942581987
 30
0.0
 40
0.21875
  0
LINE
  5
8D73
330
1F
100
AcDbEntity
  8
CONTINUOUS1
100
AcDbLine
 10
14.28557341515996
 20
15.17201942581987
 30
0.0
 11
14.28557341515996
 21
15.57821942581987
 31
0.0
  0
CIRCLE
  5
8D74
330
1F
100
AcDbEntity
  8
CONTINUOUS1
100
AcDbCircle
 10
14.53557341515995
 20
15.37511942581987
 30
0.0
 40
0.1875
  0
LINE
  5
8D75
330
1F
100
AcDbEntity
  8
CONTINUOUS1
100
AcDbLine
 10
14.78557341515996
 20
15.17201942581987
 30
0.0
 11
14.78557341515996
 21
15.57821942581987
 31
0.0
  0
LINE
  5
8D76
330
1F
100
AcDbEntity
  8
CONTINUOUS1
100
AcDbLine
 10
14.91057341515996
 20
15.11021942581987
 30
0.0
 11
14.75432341515996
 21
15.11021942581987
 31
0.0
  0
LINE
  5
8D77
330
1F
100
AcDbEntity
  8
CONTINUOUS1
100
AcDbLine
 10
14.75432341515996
 20
15.11021942581987
 30
0.0
 11
14.75432341515996
 21
15.17201942581987
 31
0.0
  0
LINE
  5
8D78
330
1F
100
AcDbEntity
  8
CONTINUOUS1
100
AcDbLine
 10
14.31682341515996
 20
15.11021942581987
 30
0.0
 11
14.31682341515996
 21
15.17201942581987
 31
0.0
  0
LINE
  5
8D79
330
1F
100
AcDbEntity
  8
CONTINUOUS1
100
AcDbLine
 10
14.35069592193809
 20
15.34386942581987
 30
0.0
 11
14.72045090838182
 21
15.34386942581987
 31
0.0
  0
LINE
  5
8D7A
330
1F
100
AcDbEntity
  8
CONTINUOUS1
100
AcDbLine
 10
14.35069592193809
 20
15.40636942581987
 30
0.0
 11
14.72045090838182
 21
15.40636942581987
 31
0.0
  0
LINE
  5
8D7B
330
1F
100
AcDbEntity
  8
CONTINUOUS1
100
AcDbLine
 10
14.4543210151954
 20
15.17201942581987
 30
0.0
 11
14.28557341515996
 21
15.17201942581987
 31
0.0
  0
LINE
  5
8D7C
330
1F
100
AcDbEntity
  8
CONTINUOUS1
100
AcDbLine
 10
14.78557341515996
 20
15.17201942581987
 30
0.0
 11
14.61682581512451
 21
15.17201942581987
 31
0.0
  0
LINE
  5
8D7D
330
1F
100
AcDbEntity
  8
CONTINUOUS1
100
AcDbLine
 10
14.4543210151954
 20
15.57821942581987
 30
0.0
 11
14.28557341515996
 21
15.57821942581987
 31
0.0
  0
LINE
  5
8D7E
330
1F
100
AcDbEntity
  8
CONTINUOUS1
100
AcDbLine
 10
14.31682341515996
 20
15.57821942581987
 30
0.0
 11
14.31682341515996
 21
15.61021942581987
 31
0.0
  0
LINE
  5
8D7F
330
1F
100
AcDbEntity
  8
CONTINUOUS1
100
AcDbLine
 10
14.78557341515996
 20
15.57821942581987
 30
0.0
 11
14.61682581512451
 21
15.57821942581987
 31
0.0
  0
LINE
  5
8D80
330
1F
100
AcDbEntity
  8
CONTINUOUS1
100
AcDbLine
 10
14.75432341515996
 20
15.57821942581987
 30
0.0
 11
14.75432341515996
 21
15.61021942581987
 31
0.0
  0
LINE
  5
8D81
330
1F
100
AcDbEntity
  8
CONTINUOUS1
100
AcDbLine
 10
16.66057341515996
 20
15.17201942581987
 30
0.0
 11
16.66057341515996
 21
15.57821942581987
 31
0.0
  0
CIRCLE
  5
8D82
330
1F
100
AcDbEntity
  8
CONTINUOUS1
100
AcDbCircle
 10
16.41057341515995
 20
15.37511942581987
 30
0.0
 40
0.21875
  0
CIRCLE
  5
8D83
330
1F
100
AcDbEntity
  8
CONTINUOUS1
100
AcDbCircle
 10
16.41057341515995
 20
15.37511942581987
 30
0.0
 40
0.1875
  0
LINE
  5
8D84
330
1F
100
AcDbEntity
  8
CONTINUOUS1
100
AcDbLine
 10
16.16057341515996
 20
15.17201942581987
 30
0.0
 11
16.16057341515996
 21
15.57821942581987
 31
0.0
  0
LINE
  5
8D85
330
1F
100
AcDbEntity
  8
CONTINUOUS1
100
AcDbLine
 10
16.19182341515996
 20
15.11021942581987
 30
0.0
 11
16.03557341515996
 21
15.11021942581987
 31
0.0
  0
LINE
  5
8D86
330
1F
100
AcDbEntity
  8
CONTINUOUS1
100
AcDbLine
 10
16.3293210151954
 20
15.17201942581987
 30
0.0
 11
16.16057341515996
 21
15.17201942581987
 31
0.0
  0
LINE
  5
8D87
330
1F
100
AcDbEntity
  8
CONTINUOUS1
100
AcDbLine
 10
16.62932341515996
 20
15.11021942581987
 30
0.0
 11
16.62932341515996
 21
15.17201942581987
 31
0.0
  0
LINE
  5
8D88
330
1F
100
AcDbEntity
  8
CONTINUOUS1
100
AcDbLine
 10
16.19182341515996
 20
15.11021942581987
 30
0.0
 11
16.19182341515996
 21
15.17201942581987
 31
0.0
  0
LINE
  5
8D89
330
1F
100
AcDbEntity
  8
CONTINUOUS1
100
AcDbLine
 10
16.78557341515996
 20
15.11021942581987
 30
0.0
 11
16.62932341515996
 21
15.11021942581987
 31
0.0
  0
LINE
  5
8D8A
330
1F
100
AcDbEntity
  8
CONTINUOUS1
100
AcDbLine
 10
16.22569592193809
 20
15.34386942581987
 30
0.0
 11
16.59545090838182
 21
15.34386942581987
 31
0.0
  0
LINE
  5
8D8B
330
1F
100
AcDbEntity
  8
CONTINUOUS1
100
AcDbLine
 10
16.22569592193809
 20
15.40636942581987
 30
0.0
 11
16.59545090838182
 21
15.40636942581987
 31
0.0
  0
LINE
  5
8D8C
330
1F
100
AcDbEntity
  8
CONTINUOUS1
100
AcDbLine
 10
16.66057341515996
 20
15.17201942581987
 30
0.0
 11
16.49182581512451
 21
15.17201942581987
 31
0.0
  0
LINE
  5
8D8D
330
1F
100
AcDbEntity
  8
CONTINUOUS1
100
AcDbLine
 10
16.3293210151954
 20
15.57821942581987
 30
0.0
 11
16.16057341515996
 21
15.57821942581987
 31
0.0
  0
LINE
  5
8D8E
330
1F
100
AcDbEntity
  8
CONTINUOUS1
100
AcDbLine
 10
16.66057341515996
 20
15.57821942581987
 30
0.0
 11
16.49182581512451
 21
15.57821942581987
 31
0.0
  0
LINE
  5
8D8F
330
1F
100
AcDbEntity
  8
CONTINUOUS1
100
AcDbLine
 10
16.19182341515996
 20
15.57821942581987
 30
0.0
 11
16.19182341515996
 21
15.61021942581987
 31
0.0
  0
LINE
  5
8D90
330
1F
100
AcDbEntity
  8
CONTINUOUS1
100
AcDbLine
 10
16.62932341515996
 20
15.57821942581987
 30
0.0
 11
16.62932341515996
 21
15.61021942581987
 31
0.0
  0
SOLID
  5
8D91
330
1F
100
AcDbEntity
  8
DIM
100
AcDbTrace
 10
14.11412341515996
 20
15.84061942581988
 30
0.0
 11
14.19092341515996
 21
15.84061942581988
 31
0.0
 12
14.15252341515996
 22
15.61021942581987
 32
0.0
 13
14.15252341515996
 23
15.61021942581987
 33
0.0
  0
LINE
  5
8D92
330
1F
100
AcDbEntity
  8
DIM
100
AcDbLine
 10
14.15252341515996
 20
15.61021942581987
 30
0.0
 11
14.15252341515996
 21
16.24609916155992
 31
0.0
  0
TEXT
  5
8D93
330
1F
100
AcDbEntity
  8
DIM
100
AcDbText
 10
13.84894155064659
 20
17.32976079137837
 30
0.0
 40
0.2
  1
3.00
  7
SIMPLEX
 72
     4
 11
14.15370345540849
 21
17.42976079137837
 31
0.0
100
AcDbText
  0
LINE
  5
8D94
330
1F
100
AcDbEntity
  8
DIM
100
AcDbLine
 10
13.89340019957856
 20
17.83980024774083
 30
0.0
 11
14.07252341515996
 21
17.73021942581987
 31
0.0
  0
LINE
  5
8D95
330
1F
100
AcDbEntity
  8
DIM
100
AcDbLine
 10
13.89340019957856
 20
17.95980024774084
 30
0.0
 11
14.07252341515996
 21
17.85021942581987
 31
0.0
  0
LINE
  5
8D96
330
1F
100
AcDbEntity
  8
DIM
100
AcDbLine
 10
14.15252341515996
 20
18.48021942581987
 30
0.0
 11
14.15252341515996
 21
17.8952301693858
 31
0.0
  0
LINE
  5
8D97
330
1F
100
AcDbEntity
  8
DIM
100
AcDbLine
 10
14.07252341515996
 20
17.85021942581987
 30
0.0
 11
14.24099944536112
 21
17.94500981822475
 31
0.0
  0
LINE
  5
8D98
330
1F
100
AcDbEntity
  8
DIM
100
AcDbLine
 10
14.24099944536112
 20
17.94500981822475
 30
0.0
 11
14.41164663074136
 21
17.85652179988525
 31
0.0
  0
LINE
  5
8D99
330
1F
100
AcDbEntity
  8
DIM
100
AcDbLine
 10
14.07252341515996
 20
17.73021942581987
 30
0.0
 11
14.24099944536112
 21
17.82500981822475
 31
0.0
  0
LINE
  5
8D9A
330
1F
100
AcDbEntity
  8
DIM
100
AcDbLine
 10
14.15252341515996
 20
17.7752301693858
 30
0.0
 11
14.15252341515996
 21
17.62581942581987
 31
0.0
  0
LINE
  5
8D9B
330
1F
100
AcDbEntity
  8
DIM
100
AcDbLine
 10
14.24099944536112
 20
17.82500981822475
 30
0.0
 11
14.41164663074136
 21
17.73652179988525
 31
0.0
  0
SOLID
  5
8D9C
330
1F
100
AcDbEntity
  8
DIM
100
AcDbTrace
 10
14.11412341515996
 20
18.33021942581987
 30
0.0
 11
14.19092341515996
 21
18.33021942581987
 31
0.0
 12
14.15252341515996
 22
18.56061942581987
 32
0.0
 13
14.15252341515996
 23
18.56061942581987
 33
0.0
  0
TEXT
  5
8D9D
330
1F
100
AcDbEntity
  8
TEXT1
100
AcDbText
 10
11.06854722468377
 20
18.62490514010559
 30
0.0
 40
0.2
  1
Electrical Clearance/Wire Bending Space
  7
SIMPLEX
 72
     4
 11
14.15902341515996
 21
18.71061942581987
 31
0.0
100
AcDbText
  0
LINE
  5
8D9E
330
1F
100
AcDbEntity
  8
HIDDEN1
100
AcDbLine
 10
10.99352341515996
 20
18.56061942581987
 30
0.0
 11
17.32752341515996
 21
18.56061942581987
 31
0.0
  0
TEXT
  5
8DA7
330
1F
100
AcDbEntity
  8
TEXT1
100
AcDbText
 10
18.09521312647371
 20
6.930850807322947
 30
0.0
 40
0.2
  1
DEPTH=4.34
100
AcDbText
  0
TEXT
  5
8DA8
330
1F
100
AcDbEntity
  8
TEXT1
100
AcDbText
 10
18.09521312647371
 20
6.587993664465805
 30
0.0
 40
0.2
  1
W/MAXIMUM FUSE
100
AcDbText
  0
TEXT
  5
8DA9
330
1F
100
AcDbEntity
  8
TEXT1
100
AcDbText
 10
25.14297761149913
 20
13.44804647618688
 30
0.0
 40
0.2
  1
ROTARY HANDLE ENLOSURE
 72
     1
 11
27.3096442781658
 21
13.44804647618688
 31
0.0
100
AcDbText
  0
TEXT
  5
8DAA
330
1F
100
AcDbEntity
  8
TEXT1
100
AcDbText
 10
26.1096442781658
 20
13.10518933332974
 30
0.0
 40
0.2
  1
DOOR DRILLING
 72
     1
 11
27.3096442781658
 21
13.10518933332974
 31
0.0
100
AcDbText
  0
TEXT
  5
8DAB
330
1F
100
AcDbEntity
  8
TEXT1
100
AcDbText
 10
16.46934138905665
 20
18.03755334878599
 30
0.0
 40
0.2001
  1
Minimum to wall or barrier to insure adequate
  7
SIMPLEX
100
AcDbText
  0
TEXT
  5
8DAC
330
1F
100
AcDbEntity
  8
TEXT1
100
AcDbText
 10
16.46934138905665
 20
17.437253348786
 30
0.0
 40
0.2001
  1
the maximum wire size is used. REF. NEC 430-10
  7
SIMPLEX
100
AcDbText
  0
TEXT
  5
8DAD
330
1F
100
AcDbEntity
  8
TEXT1
100
AcDbText
 10
16.46934138905665
 20
17.73740334878599
 30
0.0
 40
0.2001
  1
wire bending space to lug surface when
  7
SIMPLEX
100
AcDbText
  0
INSERT
  5
8DB9
330
1F
100
AcDbEntity
  8
TEXT1
100
AcDbBlockReference
 66
     1
  2
REF2
 10
0.26433937403568
 20
1.956065555342254
 30
0.0
 41
1.6
 42
1.6
 43
1.6
  0
ATTRIB
  5
8DBA
330
8DB9
100
AcDbEntity
  8
TEXT1
100
AcDbText
 10
3.26433937403568
 20
2.308765243483912
 30
0.0
 40
0.2
  1
(4)-1/4-20 screws
100
AcDbAttribute
  2
MOUNTING_HWD
 70
     0
  0
ATTRIB
  5
8DBB
330
8DB9
100
AcDbEntity
  8
TEXT1
100
AcDbText
 10
3.26433937403568
 20
2.673632098914779
 30
0.0
 40
0.2
  1
35-45 lb-in
100
AcDbAttribute
  2
TERM_TORQUE
 70
     0
  0
ATTRIB
  5
8DBC
330
8DB9
100
AcDbEntity
  8
TEXT1
100
AcDbText
 10
3.26433937403568
 20
3.008765243483912
 30
0.0
 40
0.2
  1
#14-#4
100
AcDbAttribute
  2
WIRE_SIZE
 70
     0
  0
ATTRIB
  5
8DBD
330
8DB9
100
AcDbEntity
  8
TEXT1
100
AcDbText
 10
3.26433937403568
 20
3.326331815768477
 30
0.0
 40
0.2
  1
D10S2-5.6 lbs/D10S2H-4.51 lbs
100
AcDbAttribute
  2
WEIGHT
 70
     0
  0
ATTRIB
  5
8DBE
330
8DB9
100
AcDbEntity
  8
TEXT1
100
AcDbText
 10
3.26433937403568
 20
3.656065555342254
 30
0.0
 40
0.2
  1
 -
100
AcDbAttribute
  2
STANDARDS
 70
     0
  0
ATTRIB
  5
8DBF
330
8DB9
100
AcDbEntity
  8
TEXT1
100
AcDbText
 10
3.26433937403568
 20
4.026331787056435
 30
0.0
 40
0.2
  1
LR12721
100
AcDbAttribute
  2
CSA
 70
     0
  0
ATTRIB
  5
8DC0
330
8DB9
100
AcDbEntity
  8
TEXT1
100
AcDbText
 10
3.281912656172707
 20
4.356065555342254
 30
0.0
 40
0.2
  1
E6849
100
AcDbAttribute
  2
UL
 70
     0
  0
ATTRIB
  5
8DC1
330
8DB9
100
AcDbEntity
  8
TEXT1
100
AcDbText
 10
3.26433937403568
 20
4.70876524348391
 30
0.0
 40
0.2
  1
STARTER NEMA SIZE 2 (60A/600V)
100
AcDbAttribute
  2
RATING
 70
     0
  0
ATTRIB
  5
8DC2
330
8DB9
100
AcDbEntity
  8
TEXT1
100
AcDbText
 10
3.26433937403568
 20
5.056065555342255
 30
0.0
 40
0.2
  1
D10S2, D10S2H
100
AcDbAttribute
  2
CATALOG
 70
     0
  0
SEQEND
  5
8DC3
330
8DB9
100
AcDbEntity
  8
REFERENCE
  0
DIMENSION
  5
912C
330
1F
100
AcDbEntity
  8
DIM
100
AcDbDimension
  2
*D20
 10
27.84090971864538
 20
6.883419086049514
 30
0.0
 11
24.2118049349211
 21
5.056184580133603
 31
0.0
 70
   163
  1
\P%%C.39 3pls\P[10]
  3
SCHNEIDERELECTRIC
100
AcDbDiametricDimension
 15
27.52883378191265
 25
6.657864677447065
 35
0.0
 40
0.0
1001
ACAD
1000
DSTYLE
1002
{
1070
    40
1040
2.0
1002
}
  0
DIMENSION
  5
9138
330
1F
100
AcDbEntity
  8
DIM
100
AcDbDimension
  2
*D21
 10
27.87278046937915
 20
8.718226224626718
 30
0.0
 11
24.62132874444492
 21
6.040948461439914
 31
0.0
 70
   163
  1
\P%%c1.88\P[48]
  3
SCHNEIDERELECTRIC
100
AcDbDiametricDimension
 15
26.57696303117884
 25
7.36305753886986
 35
0.0
 40
0.0
1001
ACAD
1000
DSTYLE
1002
{
1070
    40
1040
2.0
1002
}
  0
LEADER
  5
9172
330
1F
100
AcDbEntity
  8
TEXT1
100
AcDbLeader
  3
SCHNEIDERELECTRIC
 76
     3
 10
13.61697655096151
 20
11.13588191826363
 30
0.0
 10
13.27650958755074
 20
9.71913338321619
 30
0.0
 10
10.19903717755099
 20
9.71913338321619
 30
0.0
1001
ACAD
1000
DSTYLE
1002
{
1070
     5
1000
SEARROW
1070
    40
1040
2.0
1070
   342
1005
91F9
1002
}
  0
LINE
  5
9362
330
1F
100
AcDbEntity
  8
DIM
100
AcDbLine
 10
14.15252341515996
 20
16.70757356360022
 30
0.0
 11
14.15252341515996
 21
16.95947080507999
 31
0.0
  0
TEXT
  5
936D
330
1F
100
AcDbEntity
  8
DIM
100
AcDbText
 10
13.8584653601704
 20
17.04404650566408
 30
0.0
 40
0.2
  1
[76]
  7
SIMPLEX
 72
     4
 11
14.15370345540849
 21
17.12976079137837
 31
0.0
100
AcDbText
  0
VIEWPORT
  5
32
330
1B
100
AcDbEntity
 67
     1
  8
0
100
AcDbViewport
 10
8.812554302834026
 20
5.977785532946785
 30
0.0
 40
19.16417646133319
 41
12.3577561060486
 68
     1
 69
     1
1001
ACAD
1000
MVIEW
1002
{
1070
    16
1010
0.0
1020
0.0
1030
0.0
1010
0.0
1020
0.0
1030
1.0
1040
0.0
1040
12.3577561060486
1040
8.812554302834026
1040
5.977785532946785
1040
50.0
1040
0.0
1040
0.0
1070
     0
1070
   100
1070
     1
1070
     0
1070
     0
1070
     0
1070
     0
1070
     0
1040
0.0
1040
0.0
1040
0.0
1040
0.5
1040
0.5
1040
0.5
1040
0.5
1070
     0
1002
{
1002
}
1002
}
  0
LWPOLYLINE
  5
175
330
1B
100
AcDbEntity
 67
     1
  8
VIEWPORT
100
AcDbPolyline
 90
        6
 70
     1
 43
0.0
 10
16.40000099999999
 20
10.25
 10
16.40000099999999
 20
0.9120019999999993
 10
8.002461
 20
0.9120019999999993
 10
8.002461
 20
0.0
 10
0.0
 20
0.0
 10
0.0
 20
10.25
1001
GENIUS_GENOREF_13
1005
0
1005
0
1005
0
1005
0
1005
0
1005
0
1005
0
  0
VIEWPORT
  5
177
330
1B
100
AcDbEntity
 67
     1
  8
VIEWPORT
100
AcDbViewport
 10
8.200000499999999
 20
5.125
 30
0.0
 40
16.40000099999999
 41
10.25
 68
     2
 69
     2
1001
ACAD
1000
MVIEW
1002
{
1070
    16
1010
0.0
1020
0.0
1030
0.0
1010
0.0
1020
0.0
1030
1.0
1040
0.0
1040
20.5
1040
16.40000115274158
1040
10.3214070949379
1040
50.0
1040
0.0
1040
0.0
1070
     0
1070
   100
1070
     1
1070
     2
1070
     0
1070
     0
1070
     0
1070
     0
1040
0.0
1040
0.0
1040
0.0
1040
0.5
1040
0.5
1040
0.5
1040
0.5
1070
     0
1002
{
1002
}
1002
}
1001
GENIUS_GENOREF_13
1005
0
1005
0
1005
0
1005
0
1005
0
1005
0
1005
0
1001
GENIUS_GENSCREG_15
1000
PF
1040
0.0
1000
DF
1040
0.0
1000
MIN
1011
0.0
1021
0.0
1031
0.0
1000
MAX
1011
16.40000099999999
1021
10.25
1031
0.0
1000
FLAGS
1070
     2
  0
INSERT
  5
B2C
330
1B
100
AcDbEntity
 67
     1
  8
TITLEBLOCK
100
AcDbBlockReference
 66
     1
  2
TITLE-PAD
 10
0.0
 20
0.0
 30
0.0
  0
ATTRIB
  5
B2D
330
B2C
100
AcDbEntity
 67
     1
  8
TEXT1
 62
     0
100
AcDbText
 10
9.637552634652273
 20
0.6974460884590166
 30
0.0
 40
0.1
  1
DISCONNECT
  7
ROMANS
 72
     4
 11
10.10183834893798
 21
0.7474460884590166
 31
0.0
100
AcDbAttribute
  2
DESCRIPTION 1
 70
     0
  0
ATTRIB
  5
B2E
330
B2C
100
AcDbEntity
 67
     1
  8
TEXT1
 62
     0
100
AcDbText
 10
9.49469549179513
 20
0.5612469806644811
 30
0.0
 40
0.1
  1
D10S2, D10S2H
  7
ROMANS
 72
     4
 11
10.10183834893798
 21
0.6017231711406717
 31
0.0
100
AcDbAttribute
  2
DESCRIPTION 2
 70
     0
  0
ATTRIB
  5
B2F
330
B2C
100
AcDbEntity
 67
     1
  8
TEXT1
 62
     0
100
AcDbText
 10
10.06183834893799
 20
0.4560002538223267
 30
0.0
 40
0.08
  1
 
  7
ROMANS
 72
     4
 11
10.10183834893798
 21
0.4560002538223267
 31
0.0
100
AcDbAttribute
  2
DESCRIPTION 3
 70
     0
  0
ATTRIB
  5
B30
330
B2C
100
AcDbEntity
 67
     1
  8
TEXT1
 62
     0
100
AcDbText
 10
9.981838348937989
 20
0.3202773365039833
 30
0.0
 40
0.08
  1
   
  7
ROMANS
 72
     4
 11
10.10183834893798
 21
0.3202773365039833
 31
0.0
100
AcDbAttribute
  2
DESCRIPTION 4
 70
     0
  0
ATTRIB
  5
B31
330
B2C
100
AcDbEntity
 67
     1
  8
TEXT1
 62
     0
100
AcDbText
 10
10.10183834893798
 20
0.1845544191856399
 30
0.0
 40
0.08
  1

  7
ROMANS
 72
     4
 11
10.10183834893798
 21
0.1845544191856399
 31
0.0
100
AcDbAttribute
  2
DESCRIPTION 5
 70
     0
  0
ATTRIB
  5
B32
330
B2C
100
AcDbEntity
 67
     1
  8
TEXT1
 62
     0
100
AcDbText
 10
12.74772367103195
 20
0.096540546036505
 30
0.0
 40
0.12
  1
D1OS_OUTLINE_002
 41
0.9512024731840066
  7
M_STANDARD
 11
12.74772367103195
 21
0.156540546036505
 31
0.0
100
AcDbAttribute
  2
DWGNO
 70
     0
 74
     2
  0
ATTRIB
  5
B33
330
B2C
100
AcDbEntity
 67
     1
  8
TEXT1
 62
     0
100
AcDbText
 10
15.78363597806468
 20
-0.1507193079929352
 30
0.0
 40
0.08
  1
E0103701
  7
ROMANS
 72
     2
 11
16.35506454949325
 21
-0.1107193079929352
 31
0.0
100
AcDbAttribute
  2
REF
 70
     0
 74
     2
  0
ATTRIB
  5
B34
330
B2C
100
AcDbEntity
 67
     1
  8
TEXT1
 62
     0
100
AcDbText
 10
0.0266402374038712
 20
-0.1507193079929352
 30
0.0
 40
0.08
  1
FEBRUARY 2001
  7
ROMANS
 11
0.0266402374038712
 21
-0.1107193079929352
 31
0.0
100
AcDbAttribute
  2
DATE
 70
     0
 74
     2
  0
SEQEND
  5
B35
330
B2C
100
AcDbEntity
 67
     1
  8
0
  0
INSERT
  5
D86
330
1B
100
AcDbEntity
 67
     1
  8
TITLEBLOCK
100
AcDbBlockReference
  2
OEM-NOTES
 10
0.0
 20
0.0
 30
0.0
 41
0.5
 42
0.5
 43
0.5
  0
ENDSEC
  0
SECTION
  2
OBJECTS
  0
DICTIONARY
  5
C
330
0
100
AcDbDictionary
  3
ACAD_GROUP
350
D
  3
ACAD_LAYOUT
350
1A
  3
ACAD_MLINESTYLE
350
17
  3
ACAD_PLOTSETTINGS
350
19
  3
ACAD_PLOTSTYLENAME
350
E
  3
ACADDIM
350
806A
  3
ACDBHEADERROUNDTRIPXREC
350
95B8
  3
ACDBVARIABLEDICTIONARY
350
374
  3
ACMDICTIONARY
350
383
  3
AMG
350
36B
  3
AMGSNAPSETTINGS
350
399
  3
ASE_INDEX_DICTIONARY
350
6A
  3
DWGPROPS
350
CB4
  0
DICTIONARY
  5
73
330
1F
100
AcDbDictionary
280
     1
  3
ACAD_INDEX
360
CB8
  3
ACAD_LAYOUTSELFREF
360
95DA
  0
DICTIONARY
  5
75
330
1B
100
AcDbDictionary
280
     1
  3
ACAD_LAYOUTSELFREF
360
95D9
  0
DICTIONARY
  5
D
102
{ACAD_REACTORS
330
C
102
}
330
C
100
AcDbDictionary
  0
DICTIONARY
  5
1A
102
{ACAD_REACTORS
330
C
102
}
330
C
100
AcDbDictionary
  0
DICTIONARY
  5
17
102
{ACAD_REACTORS
330
C
102
}
330
C
100
AcDbDictionary
  3
STANDARD
350
18
  0
DICTIONARY
  5
19
102
{ACAD_REACTORS
330
C
102
}
330
C
100
AcDbDictionary
  3
A_SIZE_PAPER
350
2FF
  3
B_SIZE_PAPER
350
2FD
  3
D_SIZE_PAPER
350
2FE
  0
ACDBDICTIONARYWDFLT
  5
E
102
{ACAD_REACTORS
330
C
102
}
330
C
100
AcDbDictionary
281
     1
  3
Normal
350
F
100
AcDbDictionaryWithDefault
340
F
  0
XRECORD
  5
806A
102
{ACAD_REACTORS
330
C
102
}
330
C
100
AcDbXrecord
 90
   990106
  3

 60
     0
 61
     0
 62
     1
 63
     3
 64
     0
 65
     0
 66
     0
 67
     3
 68
     1
 69
     0
 70
     0
 71
     0
 72
     0
 40
0.0
170
     0
  0
DICTIONARY
  5
95B8
102
{ACAD_REACTORS
330
C
102
}
330
C
100
AcDbDictionary
  3
CEPSNTYPE
350
95C2
  3
DIMSTYLEDATA
350
95C6
  3
FINGERPRINTGUID
350
95C3
  3
HYPERLINKBASE
350
95BB
  3
INSUNITS
350
95C1
  3
LAYOUTDICT
350
95BD
  3
LWETCUNION
350
95C0
  3
PLOTSETDICT
350
95BE
  3
PLOTSTYLNAMDICT
350
95BF
  3
PSVPSCALE
350
95C5
  3
PUCSBASE
350
95C9
  3
PUCSORGBACK
350
95CF
  3
PUCSORGBOTTOM
350
95CB
  3
PUCSORGFRONT
350
95CE
  3
PUCSORGLEFT
350
95CC
  3
PUCSORGRIGHT
350
95CD
  3
PUCSORGTOP
350
95CA
  3
PUCSORTHOREF
350
95C7
  3
PUCSORTHOVIEW
350
95C8
  3
STYLESHEET
350
95BC
  3
TSTACKALIGN
350
95B9
  3
TSTACKSIZE
350
95BA
  3
UCSBASE
350
95D2
  3
UCSORGBACK
350
95D8
  3
UCSORGBOTTOM
350
95D4
  3
UCSORGFRONT
350
95D7
  3
UCSORGLEFT
350
95D5
  3
UCSORGRIGHT
350
95D6
  3
UCSORGTOP
350
95D3
  3
UCSORTHOREF
350
95D0
  3
UCSORTHOVIEW
350
95D1
  3
VERSIONGUID
350
95C4
  0
DICTIONARY
  5
374
102
{ACAD_REACTORS
330
C
102
}
330
C
100
AcDbDictionary
  3
INDEXCTL
350
375
  0
DICTIONARY
  5
383
102
{ACAD_REACTORS
330
C
102
}
330
C
100
AcDbDictionary
  0
DICTIONARY
  5
36B
102
{ACAD_REACTORS
330
C
102
}
330
C
100
AcDbDictionary
  3
ACMGSETTINGS
350
36C
  0
DICTIONARY
  5
399
102
{ACAD_REACTORS
330
C
102
}
330
C
100
AcDbDictionary
  0
DICTIONARY
  5
6A
102
{ACAD_REACTORS
330
C
102
}
330
C
100
AcDbDictionary
  3
ASEBLOCKHIERARCHYINDEXRECORD
350
6C
1001
DCO15
1040
1379130883.246999
  0
XRECORD
  5
CB4
102
{ACAD_REACTORS
330
C
102
}
330
C
100
AcDbXrecord
  1
DWGPROPS COOKIE
  2

  3

  4

  6

  7

  8
mgp706
  9

300
AmdtFileType=84
301
=
302
=
303
=
304
=
305
=
306
=
307
=
308
=
309
=
 40
0.2107598032407407
 41
2451764.535041909
 42
2451851.591606284
  1

 90
        1
  0
DICTIONARY
  5
CB8
102
{ACAD_REACTORS
330
73
102
}
330
73
100
AcDbDictionary
  3
*A1
350
CB9
  0
XRECORD
  5
95DA
102
{ACAD_REACTORS
330
73
102
}
330
73
100
AcDbXrecord
340
1F
  0
XRECORD
  5
95D9
102
{ACAD_REACTORS
330
75
102
}
330
75
100
AcDbXrecord
340
1B
  0
MLINESTYLE
  5
18
102
{ACAD_REACTORS
330
17
102
}
330
17
100
AcDbMlineStyle
  2
STANDARD
 70
     0
  3

 62
   256
 51
90.0
 52
90.0
 71
     2
 49
0.5
 62
   256
  6
BYLAYER
 49
-0.5
 62
   256
  6
BYLAYER
  0
PLOTSETTINGS
  5
2FF
102
{ACAD_REACTORS
330
19
102
}
330
19
100
AcDbPlotSettings
  1
A Size Paper
  2
none_device
  4
ANSI_A_(8.50_x_11.00_Inches)
  6

 40
6.349999904632568
 41
19.04999923706054
 42
6.350006103515625
 43
19.04998779296875
 44
215.8999938964843
 45
279.3999938964843
 46
19.04999999999999
 47
-9.651999999999999
 48
0.0
 49
0.0
140
0.0
141
0.0
142
1.0
143
1.6
 70
   740
 72
     0
 73
     1
 74
     1
  7
monochrome.ctb
 75
     0
147
0.625
148
0.0034886547032954
149
0.0199946439100934
  0
PLOTSETTINGS
  5
2FD
102
{ACAD_REACTORS
330
19
102
}
330
19
100
AcDbPlotSettings
  1
B Size Paper
  2
none_device
  4
ANSI_B_(11.00_x_17.00_Inches)
  6

 40
6.349999904632568
 41
19.04999923706054
 42
6.350006103515625
 43
19.04998779296875
 44
279.3999938964843
 45
431.7999877929687
 46
1.27
 47
-11.43
 48
0.0
 49
0.0
140
0.0
141
0.0
142
1.0
143
1.0
 70
   756
 72
     0
 73
     1
 74
     1
  7
monochrome.ctb
 75
    16
147
1.0
148
0.0034886547032954
149
0.0199946439100934
  0
PLOTSETTINGS
  5
2FE
102
{ACAD_REACTORS
330
19
102
}
330
19
100
AcDbPlotSettings
  1
D Size Paper
  2
none_device
  4
ANSI_D_(22.00_x_34.00_Inches)
  6

 40
6.349999904632568
 41
19.04999923706054
 42
6.3499755859375
 43
19.04998779296875
 44
558.7999877929687
 45
863.5999755859375
 46
8.889999999999998
 47
-3.809999999999999
 48
0.0
 49
0.0
140
0.0
141
0.0
142
1.0
143
0.5
 70
   740
 72
     0
 73
     1
 74
     1
  7
monochrome.ctb
 75
     0
147
2.0
148
0.0034886547032954
149
0.0199946439100934
  0
ACDBPLACEHOLDER
  5
F
102
{ACAD_REACTORS
330
E
102
}
330
E
100
AcDbPlaceHolder
280
     0
  0
XRECORD
  5
95C2
102
{ACAD_REACTORS
330
95B8
102
}
330
95B8
100
AcDbXrecord
 90
        0
  0
XRECORD
  5
95C6
102
{ACAD_REACTORS
330
95B8
102
}
330
95B8
100
AcDbXrecord
1000
DSTYLE
1002
{
1070
    79
 70
     1
1070
   148
 40
0.1
1070
   341
340
91F9
1070
   342
340
91F9
1070
   371
 70
    -1
1070
   372
 70
    -1
1002
}
  0
XRECORD
  5
95C3
102
{ACAD_REACTORS
330
95B8
102
}
330
95B8
100
AcDbXrecord
  1
{4E694E3A-6C64-11D4-81E3-0004AC4461C9}
  0
XRECORD
  5
95BB
102
{ACAD_REACTORS
330
95B8
102
}
330
95B8
100
AcDbXrecord
  1

  0
XRECORD
  5
95C1
102
{ACAD_REACTORS
330
95B8
102
}
330
95B8
100
AcDbXrecord
 90
        1
  0
XRECORD
  5
95BD
102
{ACAD_REACTORS
330
95B8
102
}
330
95B8
100
AcDbXrecord
340
1A
  0
XRECORD
  5
95C0
102
{ACAD_REACTORS
330
95B8
102
}
330
95B8
100
AcDbXrecord
 90
    10269
  0
XRECORD
  5
95BE
102
{ACAD_REACTORS
330
95B8
102
}
330
95B8
100
AcDbXrecord
340
19
  0
XRECORD
  5
95BF
102
{ACAD_REACTORS
330
95B8
102
}
330
95B8
100
AcDbXrecord
340
E
  0
XRECORD
  5
95C5
102
{ACAD_REACTORS
330
95B8
102
}
330
95B8
100
AcDbXrecord
 40
1.0
  0
XRECORD
  5
95C9
102
{ACAD_REACTORS
330
95B8
102
}
330
95B8
100
AcDbXrecord
340
0
  0
XRECORD
  5
95CF
102
{ACAD_REACTORS
330
95B8
102
}
330
95B8
100
AcDbXrecord
 10
0.0
 20
0.0
 30
0.0
  0
XRECORD
  5
95CB
102
{ACAD_REACTORS
330
95B8
102
}
330
95B8
100
AcDbXrecord
 10
0.0
 20
0.0
 30
0.0
  0
XRECORD
  5
95CE
102
{ACAD_REACTORS
330
95B8
102
}
330
95B8
100
AcDbXrecord
 10
0.0
 20
0.0
 30
0.0
  0
XRECORD
  5
95CC
102
{ACAD_REACTORS
330
95B8
102
}
330
95B8
100
AcDbXrecord
 10
0.0
 20
0.0
 30
0.0
  0
XRECORD
  5
95CD
102
{ACAD_REACTORS
330
95B8
102
}
330
95B8
100
AcDbXrecord
 10
0.0
 20
0.0
 30
0.0
  0
XRECORD
  5
95CA
102
{ACAD_REACTORS
330
95B8
102
}
330
95B8
100
AcDbXrecord
 10
0.0
 20
0.0
 30
0.0
  0
XRECORD
  5
95C7
102
{ACAD_REACTORS
330
95B8
102
}
330
95B8
100
AcDbXrecord
340
0
  0
XRECORD
  5
95C8
102
{ACAD_REACTORS
330
95B8
102
}
330
95B8
100
AcDbXrecord
 70
     0
  0
XRECORD
  5
95BC
102
{ACAD_REACTORS
330
95B8
102
}
330
95B8
100
AcDbXrecord
  1

  0
XRECORD
  5
95B9
102
{ACAD_REACTORS
330
95B8
102
}
330
95B8
100
AcDbXrecord
 90
        1
  0
XRECORD
  5
95BA
102
{ACAD_REACTORS
330
95B8
102
}
330
95B8
100
AcDbXrecord
 90
       70
  0
XRECORD
  5
95D2
102
{ACAD_REACTORS
330
95B8
102
}
330
95B8
100
AcDbXrecord
340
0
  0
XRECORD
  5
95D8
102
{ACAD_REACTORS
330
95B8
102
}
330
95B8
100
AcDbXrecord
 10
0.0
 20
0.0
 30
0.0
  0
XRECORD
  5
95D4
102
{ACAD_REACTORS
330
95B8
102
}
330
95B8
100
AcDbXrecord
 10
0.0
 20
0.0
 30
0.0
  0
XRECORD
  5
95D7
102
{ACAD_REACTORS
330
95B8
102
}
330
95B8
100
AcDbXrecord
 10
0.0
 20
0.0
 30
0.0
  0
XRECORD
  5
95D5
102
{ACAD_REACTORS
330
95B8
102
}
330
95B8
100
AcDbXrecord
 10
0.0
 20
0.0
 30
0.0
  0
XRECORD
  5
95D6
102
{ACAD_REACTORS
330
95B8
102
}
330
95B8
100
AcDbXrecord
 10
0.0
 20
0.0
 30
0.0
  0
XRECORD
  5
95D3
102
{ACAD_REACTORS
330
95B8
102
}
330
95B8
100
AcDbXrecord
 10
0.0
 20
0.0
 30
0.0
  0
XRECORD
  5
95D0
102
{ACAD_REACTORS
330
95B8
102
}
330
95B8
100
AcDbXrecord
340
0
  0
XRECORD
  5
95D1
102
{ACAD_REACTORS
330
95B8
102
}
330
95B8
100
AcDbXrecord
 70
     0
  0
XRECORD
  5
95C4
102
{ACAD_REACTORS
330
95B8
102
}
330
95B8
100
AcDbXrecord
  1
{B6EAA552-0C2A-11D5-B1B2-000629309E34}
  0
DICTIONARYVAR
  5
375
102
{ACAD_REACTORS
330
374
102
}
330
374
100
DictionaryVariables
280
     0
  1
1
  0
DICTIONARY
  5
36C
102
{ACAD_REACTORS
330
36B
102
}
330
36B
100
AcDbDictionary
  3
DWGSETTINGS
350
CA0
  0
XRECORD
  5
6C
102
{ACAD_REACTORS
330
6A
102
}
330
6A
100
AcDbXrecord
  0
LAYER_INDEX
  5
CB9
102
{ACAD_REACTORS
330
CB8
102
}
330
CB8
100
AcDbIndex
 40
2451967.668090046
100
AcDbLayerIndex
  8
0
360
CBA
 90
        1
  8
BLOCKS
360
CBB
 90
        0
  8
CENTER1
360
CBC
 90
       10
  8
CENTER2
360
CBD
 90
        8
  8
CENTER3
360
CBE
 90
        0
  8
CONSTRUCTION
360
CBF
 90
        0
  8
CONTINUOUS1
360
CC0
 90
      171
  8
CONTINUOUS2
360
CC1
 90
       12
  8
CONTINUOUS3
360
CC2
 90
        0
  8
DASHDOT1
360
CC3
 90
        0
  8
DASHDOT2
360
CC4
 90
        0
  8
DASHDOT3
360
CC5
 90
        0
  8
DIM
360
CC6
 90
       31
  8
HIDDEN1
360
CC7
 90
       10
  8
HIDDEN2
360
CC8
 90
        0
  8
HIDDEN3
360
CC9
 90
        0
  8
PHANTOM1
360
CCA
 90
        0
  8
PHANTOM2
360
CCB
 90
        0
  8
PHANTOM3
360
CCC
 90
        0
  8
TEXT1
360
CCD
 90
       12
  8
TEXT2
360
CCE
 90
        0
  8
TEXT3
360
CCF
 90
        0
  8
TITLEBLOCK
360
CD0
 90
        0
  8
VIEWPORT
360
CD1
 90
        2
  8
REFERENCE
360
917E
 90
        0
  8
DEFPOINTS
360
917F
 90
        0
  0
XRECORD
  5
CA0
102
{ACAD_REACTORS
330
36C
102
}
330
36C
100
AcDbXrecord
  1
VERSION
140
15.0
  1
PRODUCT
  2
AutoCAD Mechanical 2000
  0
IDBUFFER
  5
CBA
330
0
100
AcDbIdBuffer
330
79E
  0
IDBUFFER
  5
CBB
330
0
100
AcDbIdBuffer
  0
IDBUFFER
  5
CBC
330
0
100
AcDbIdBuffer
330
8CCE
330
8CD4
330
8CDB
330
8CDE
330
8D0F
330
8D11
330
8D28
330
8D56
330
8D64
330
8D66
  0
IDBUFFER
  5
CBD
330
0
100
AcDbIdBuffer
330
8CAE
330
8CAF
330
8CB0
330
8CB1
330
8CB2
330
8CB3
330
8CB4
330
8CB5
  0
IDBUFFER
  5
CBE
330
0
100
AcDbIdBuffer
  0
IDBUFFER
  5
CBF
330
0
100
AcDbIdBuffer
  0
IDBUFFER
  5
CC0
330
0
100
AcDbIdBuffer
330
8CBF
330
8CC0
330
8CC1
330
8CC2
330
8CC3
330
8CC4
330
8CC5
330
8CC6
330
8CC7
330
8CC9
330
8CCF
330
8CD0
330
8CD1
330
8CD3
330
8CD9
330
8CDC
330
8CDF
330
8CE0
330
8CE1
330
8CE2
330
8CE3
330
8CE4
330
8CE5
330
8CE6
330
8CE7
330
8CE8
330
8CE9
330
8CEA
330
8CEB
330
8CEC
330
8CED
330
8CEE
330
8CEF
330
8CF0
330
8CF1
330
8CF2
330
8CF3
330
8CF4
330
8CF5
330
8CF6
330
8CF7
330
8CF8
330
8CF9
330
8CFA
330
8D01
330
8D02
330
8D03
330
8D04
330
8D06
330
8D07
330
8D08
330
8D09
330
8D0A
330
8D0B
330
8D0C
330
8D0D
330
8D0E
330
8D12
330
8D13
330
8D14
330
8D15
330
8D16
330
8D17
330
8D18
330
8D19
330
8D1A
330
8D1B
330
8D1C
330
8D1D
330
8D1E
330
8D1F
330
8D20
330
8D21
330
8D23
330
8D26
330
8D27
330
8D2A
330
8D2B
330
8D2C
330
8D2D
330
8D2E
330
8D2F
330
8D30
330
8D31
330
8D32
330
8D33
330
8D34
330
8D35
330
8D36
330
8D37
330
8D38
330
8D39
330
8D3A
330
8D3B
330
8D3C
330
8D3D
330
8D3E
330
8D3F
330
8D40
330
8D41
330
8D42
330
8D43
330
8D44
330
8D45
330
8D46
330
8D47
330
8D48
330
8D49
330
8D4A
330
8D4B
330
8D4C
330
8D4D
330
8D4E
330
8D4F
330
8D50
330
8D51
330
8D52
330
8D53
330
8D54
330
8D55
330
8D57
330
8D58
330
8D5C
330
8D5D
330
8D5E
330
8D5F
330
8D60
330
8D61
330
8D62
330
8D63
330
8D67
330
8D68
330
8D69
330
8D6B
330
8D6C
330
8D6D
330
8D6E
330
8D6F
330
8D70
330
8D71
330
8D72
330
8D73
330
8D74
330
8D75
330
8D76
330
8D77
330
8D78
330
8D79
330
8D7A
330
8D7B
330
8D7C
330
8D7D
330
8D7E
330
8D7F
330
8D80
330
8D81
330
8D82
330
8D83
330
8D84
330
8D85
330
8D86
330
8D87
330
8D88
330
8D89
330
8D8A
330
8D8B
330
8D8C
330
8D8D
330
8D8E
330
8D8F
330
8D90
  0
IDBUFFER
  5
CC1
330
0
100
AcDbIdBuffer
330
8CAB
330
8CAC
330
8CAD
330
8CBC
330
8CBD
330
8CBE
330
8CD2
330
8CDD
330
8D10
330
8D22
330
8D29
330
8D65
  0
IDBUFFER
  5
CC2
330
0
100
AcDbIdBuffer
  0
IDBUFFER
  5
CC3
330
0
100
AcDbIdBuffer
  0
IDBUFFER
  5
CC4
330
0
100
AcDbIdBuffer
  0
IDBUFFER
  5
CC5
330
0
100
AcDbIdBuffer
  0
IDBUFFER
  5
CC6
330
0
100
AcDbIdBuffer
330
9362
330
936D
330
8CB6
330
8CB7
330
8CB8
330
8CB9
330
8CBA
330
8CBB
330
8CCA
330
8CCB
330
8CCC
330
8CCD
330
8CD5
330
8CD6
330
8D00
330
8D24
330
8D25
330
8D91
330
8D92
330
8D93
330
8D94
330
8D95
330
8D96
330
8D97
330
8D98
330
8D99
330
8D9A
330
8D9B
330
8D9C
330
912C
330
9138
  0
IDBUFFER
  5
CC7
330
0
100
AcDbIdBuffer
330
8CC8
330
8CFD
330
8CFE
330
8CFF
330
8D05
330
8D59
330
8D5A
330
8D5B
330
8D6A
330
8D9E
  0
IDBUFFER
  5
CC8
330
0
100
AcDbIdBuffer
  0
IDBUFFER
  5
CC9
330
0
100
AcDbIdBuffer
  0
IDBUFFER
  5
CCA
330
0
100
AcDbIdBuffer
  0
IDBUFFER
  5
CCB
330
0
100
AcDbIdBuffer
  0
IDBUFFER
  5
CCC
330
0
100
AcDbIdBuffer
  0
IDBUFFER
  5
CCD
330
0
100
AcDbIdBuffer
330
8CD7
330
8CD8
330
8D9D
330
8DA7
330
8DA8
330
8DA9
330
8DAA
330
8DAB
330
8DAC
330
8DAD
330
8DB9
330
9172
  0
IDBUFFER
  5
CCE
330
0
100
AcDbIdBuffer
  0
IDBUFFER
  5
CCF
330
0
100
AcDbIdBuffer
  0
IDBUFFER
  5
CD0
330
0
100
AcDbIdBuffer
  0
IDBUFFER
  5
CD1
330
0
100
AcDbIdBuffer
330
BF7
330
BF8
  0
IDBUFFER
  5
917E
330
0
100
AcDbIdBuffer
  0
IDBUFFER
  5
917F
330
0
100
AcDbIdBuffer
  0
ENDSEC
  0
EOF
