  0
SECTION
  2
HEADER
  9
$ACADVER
  1
AC1009
  9
$INSBASE
 10
0.0
 20
0.0
 30
0.0
  9
$EXTMIN
 10
1337.22106
 20
-241.044452
 30
0.0
  9
$EXTMAX
 10
1814.248706
 20
428.955548
 30
0.0
  9
$LIMMIN
 10
0.0
 20
0.0
  9
$LIMMAX
 10
210.0
 20
297.0
  9
$ORTHOMODE
 70
     0
  9
$REGENMODE
 70
     1
  9
$FILLMODE
 70
     1
  9
$QTEXTMODE
 70
     0
  9
$MIRRTEXT
 70
     1
  9
$DRAGMODE
 70
     2
  9
$LTSCALE
 40
5.0
  9
$OSMODE
 70
     0
  9
$ATTMODE
 70
     1
  9
$TEXTSIZE
 40
0.2
  9
$TRACEWID
 40
0.05
  9
$TEXTSTYLE
  7
STANDARD
  9
$CLAYER
  8
0
  9
$CELTYPE
  6
BYLAYER
  9
$CECOLOR
 62
   256
  9
$DIMSCALE
 40
1.0
  9
$DIMASZ
 40
16.0
  9
$DIMEXO
 40
0.0625
  9
$DIMDLI
 40
0.38
  9
$DIMRND
 40
0.01
  9
$DIMDLE
 40
0.0
  9
$DIMEXE
 40
0.18
  9
$DIMTP
 40
0.0
  9
$DIMTM
 40
0.0
  9
$DIMTXT
 40
10.0
  9
$DIMCEN
 40
0.09
  9
$DIMTSZ
 40
0.0
  9
$DIMTOL
 70
     0
  9
$DIMLIM
 70
     0
  9
$DIMTIH
 70
     0
  9
$DIMTOH
 70
     0
  9
$DIMSE1
 70
     0
  9
$DIMSE2
 70
     0
  9
$DIMTAD
 70
     1
  9
$DIMZIN
 70
    12
  9
$DIMBLK
  1

  9
$DIMASO
 70
     1
  9
$DIMSHO
 70
     1
  9
$DIMPOST
  1

  9
$DIMAPOST
  1

  9
$DIMALT
 70
     0
  9
$DIMALTD
 70
     2
  9
$DIMALTF
 40
25.4
  9
$DIMLFAC
 40
1.0
  9
$DIMTOFL
 70
     1
  9
$DIMTVP
 40
0.0
  9
$DIMTIX
 70
     0
  9
$DIMSOXD
 70
     0
  9
$DIMSAH
 70
     0
  9
$DIMBLK1
  1

  9
$DIMBLK2
  1

  9
$DIMSTYLE
  2
SC_STAND
  9
$DIMCLRD
 70
     0
  9
$DIMCLRE
 70
     0
  9
$DIMCLRT
 70
     0
  9
$DIMTFAC
 40
1.0
  9
$DIMGAP
 40
1.0
  9
$LUNITS
 70
     2
  9
$LUPREC
 70
     4
  9
$SKETCHINC
 40
0.1
  9
$FILLETRAD
 40
0.0
  9
$AUNITS
 70
     0
  9
$AUPREC
 70
     0
  9
$MENU
  1
.
  9
$ELEVATION
 40
0.0
  9
$PELEVATION
 40
0.0
  9
$THICKNESS
 40
0.0
  9
$LIMCHECK
 70
     0
  9
$BLIPMODE
 70
     0
  9
$CHAMFERA
 40
0.0
  9
$CHAMFERB
 40
0.0
  9
$SKPOLY
 70
     0
  9
$TDCREATE
 40
2452082.615375
  9
$TDUPDATE
 40
2452312.69712
  9
$TDINDWG
 40
0.324003
  9
$TDUSRTIMER
 40
0.324003
  9
$USRTIMER
 70
     1
  9
$ANGBASE
 50
0.0
  9
$ANGDIR
 70
     0
  9
$PDMODE
 70
     0
  9
$PDSIZE
 40
0.0
  9
$PLINEWID
 40
0.0
  9
$COORDS
 70
     1
  9
$SPLFRAME
 70
     0
  9
$SPLINETYPE
 70
     6
  9
$SPLINESEGS
 70
     8
  9
$ATTDIA
 70
     0
  9
$ATTREQ
 70
     1
  9
$HANDLING
 70
     1
  9
$HANDSEED
  5
230EE
  9
$SURFTAB1
 70
     6
  9
$SURFTAB2
 70
     6
  9
$SURFTYPE
 70
     6
  9
$SURFU
 70
     6
  9
$SURFV
 70
     6
  9
$UCSNAME
  2

  9
$UCSORG
 10
0.0
 20
0.0
 30
0.0
  9
$UCSXDIR
 10
1.0
 20
0.0
 30
0.0
  9
$UCSYDIR
 10
0.0
 20
1.0
 30
0.0
  9
$PUCSNAME
  2

  9
$PUCSORG
 10
0.0
 20
0.0
 30
0.0
  9
$PUCSXDIR
 10
1.0
 20
0.0
 30
0.0
  9
$PUCSYDIR
 10
0.0
 20
1.0
 30
0.0
  9
$USERI1
 70
     0
  9
$USERI2
 70
     0
  9
$USERI3
 70
     0
  9
$USERI4
 70
     0
  9
$USERI5
 70
     0
  9
$USERR1
 40
0.0
  9
$USERR2
 40
0.0
  9
$USERR3
 40
0.0
  9
$USERR4
 40
0.0
  9
$USERR5
 40
0.0
  9
$WORLDVIEW
 70
     1
  9
$SHADEDGE
 70
     3
  9
$SHADEDIF
 70
    70
  9
$TILEMODE
 70
     1
  9
$MAXACTVP
 70
    48
  9
$PLIMCHECK
 70
     0
  9
$PEXTMIN
 10
1.000000E+020
 20
1.000000E+020
 30
1.000000E+020
  9
$PEXTMAX
 10
-1.000000E+020
 20
-1.000000E+020
 30
-1.000000E+020
  9
$PLIMMIN
 10
0.0
 20
0.0
  9
$PLIMMAX
 10
12.0
 20
9.0
  9
$UNITMODE
 70
     0
  9
$VISRETAIN
 70
     1
  9
$PLINEGEN
 70
     0
  9
$PSLTSCALE
 70
     1
  0
ENDSEC
  0
SECTION
  2
TABLES
  0
TABLE
  2
VPORT
 70
     2
  0
VPORT
  2
*ACTIVE
 70
     0
 10
0.0
 20
0.0
 11
1.0
 21
1.0
 12
1575.725394
 22
93.954307
 13
0.0
 23
0.0
 14
1.0
 24
1.0
 15
0.0
 25
0.0
 16
0.0
 26
0.0
 36
1.0
 17
0.0
 27
0.0
 37
0.0
 40
680.18543
 41
1.838384
 42
50.0
 43
0.0
 44
0.0
 50
0.0
 51
0.0
 71
     0
 72
  1000
 73
     1
 74
     1
 75
     0
 76
     0
 77
     0
 78
     0
  0
ENDTAB
  0
TABLE
  2
LTYPE
 70
     1
  0
LTYPE
  2
CONTINUOUS
 70
     0
  3
Solid line
 72
    65
 73
     0
 40
0.0
  0
ENDTAB
  0
TABLE
  2
LAYER
 70
     4
  0
LAYER
  2
0
 70
     0
 62
     7
  6
CONTINUOUS
  0
LAYER
  2
COTATION1
 70
     0
 62
     2
  6
CONTINUOUS
  0
LAYER
  2
ALPHA
 70
     0
 62
   254
  6
CONTINUOUS
  0
LAYER
  2
DEFPOINTS
 70
     0
 62
     7
  6
CONTINUOUS
  0
ENDTAB
  0
TABLE
  2
STYLE
 70
     1
  0
STYLE
  2
STANDARD
 70
     0
 40
0.0
 41
1.0
 50
0.0
 71
     0
 42
0.2
  3
txt
  4

  0
ENDTAB
  0
TABLE
  2
VIEW
 70
     0
  0
ENDTAB
  0
TABLE
  2
UCS
 70
     0
  0
ENDTAB
  0
TABLE
  2
APPID
 70
     3
  0
APPID
  2
ACAD
 70
     0
  0
APPID
  2
AVE_RENDER
 70
     0
  0
APPID
  2
AVE_MATERIAL
 70
     0
  0
ENDTAB
  0
TABLE
  2
DIMSTYLE
 70
     2
  0
DIMSTYLE
  2
STANDARD
 70
     0
  3

  4

  5

  6

  7

 40
1.0
 41
0.18
 42
0.0625
 43
0.38
 44
0.18
 45
0.0
 46
0.0
 47
0.0
 48
0.0
140
0.18
141
0.09
142
0.0
143
25.4
144
1.0
145
0.0
146
1.0
147
0.09
 71
     0
 72
     0
 73
     1
 74
     1
 75
     0
 76
     0
 77
     0
 78
     0
170
     0
171
     2
172
     0
173
     0
174
     0
175
     0
176
     0
177
     0
178
     0
  0
DIMSTYLE
  2
SC_STAND
 70
     0
  3

  4

  5

  6

  7

 40
1.0
 41
16.0
 42
0.0625
 43
0.38
 44
0.18
 45
0.01
 46
0.0
 47
0.0
 48
0.0
140
10.0
141
0.09
142
0.0
143
25.4
144
1.0
145
0.0
146
1.0
147
1.0
 71
     0
 72
     0
 73
     0
 74
     0
 75
     0
 76
     0
 77
     1
 78
    12
170
     0
171
     2
172
     1
173
     0
174
     0
175
     0
176
     0
177
     0
178
     0
  0
ENDTAB
  0
ENDSEC
  0
SECTION
  2
BLOCKS
  0
BLOCK
  8
0
  2
$MODEL_SPACE
 70
     0
 10
0.0
 20
0.0
 30
0.0
  3
$MODEL_SPACE
  1

  0
ENDBLK
  5
225E9
  8
0
  0
BLOCK
 67
     1
  8
0
  2
$PAPER_SPACE
 70
     0
 10
0.0
 20
0.0
 30
0.0
  3
$PAPER_SPACE
  1

  0
ENDBLK
  5
225E7
 67
     1
  8
0
  0
BLOCK
  8
0
  2
SCH_ISO
 70
     0
 10
0.0
 20
0.0
 30
0.0
  3
SCH_ISO
  1

  0
ENDBLK
  5
13A
  8
0
  0
BLOCK
  8
0
  2
*D1
 70
     1
 10
0.0
 20
0.0
 30
0.0
  3
*D1
  1

  0
LINE
  5
225B3
  8
0
  6
BYBLOCK
 62
     0
 10
1409.7583
 20
428.955548
 30
0.0
 11
1348.04106
 21
428.955548
 31
0.0
  0
LINE
  5
225B4
  8
0
  6
BYBLOCK
 62
     0
 10
1409.7583
 20
-241.044452
 30
0.0
 11
1348.04106
 21
-241.044452
 31
0.0
  0
LINE
  5
225B5
  8
0
  6
BYBLOCK
 62
     0
 10
1348.22106
 20
412.955548
 30
0.0
 11
1348.22106
 21
-225.044452
 31
0.0
  0
SOLID
  5
225B6
  8
0
  6
BYBLOCK
 62
     0
 10
1345.554394
 20
412.955548
 30
0.0
 11
1350.887727
 21
412.955548
 31
0.0
 12
1348.22106
 22
428.955548
 32
0.0
 13
1348.22106
 23
428.955548
 33
0.0
  0
SOLID
  5
225B7
  8
0
  6
BYBLOCK
 62
     0
 10
1345.554394
 20
-225.044452
 30
0.0
 11
1350.887727
 21
-225.044452
 31
0.0
 12
1348.22106
 22
-241.044452
 32
0.0
 13
1348.22106
 23
-241.044452
 33
0.0
  0
TEXT
  5
225B8
  8
0
  6
BYBLOCK
 62
     0
 10
1347.22106
 20
81.455548
 30
0.0
 40
10.0
  1
670
 50
90.0
  0
POINT
  5
225B9
  8
DEFPOINTS
  6
BYBLOCK
 62
     0
 10
1409.8208
 20
428.955548
 30
0.0
  0
POINT
  5
225BA
  8
DEFPOINTS
  6
BYBLOCK
 62
     0
 10
1409.8208
 20
-241.044452
 30
0.0
  0
POINT
  5
225BB
  8
DEFPOINTS
  6
BYBLOCK
 62
     0
 10
1348.22106
 20
-241.044452
 30
0.0
  0
ENDBLK
  5
225BC
  8
0
  0
ENDSEC
  0
SECTION
  2
ENTITIES
  0
INSERT
  5
13C
  8
ALPHA
 62
   255
  2
SCH_ISO
 10
0.0
 20
0.0
 30
0.0
  0
DIMENSION
  5
F8A5
  8
COTATION1
  2
*D1
 10
1348.22106
 20
-241.044452
 30
0.0
 11
1342.22106
 21
93.955548
 31
0.0
 13
1409.8208
 23
428.955548
 33
0.0
 14
1409.8208
 24
-241.044452
 34
0.0
 50
90.0
1001
ACAD
1000
DSTYLE
1002
{
1002
}
  0
LINE
  5
1EA2D
  8
ALPHA
 10
1809.9208
 20
368.955548
 30
0.0
 11
1809.9208
 21
334.955548
 31
0.0
  0
LINE
  5
1EA2E
  8
ALPHA
 10
1809.8208
 20
-241.044452
 30
0.0
 11
1809.8208
 21
428.955548
 31
0.0
  0
LINE
  5
1EA2F
  8
ALPHA
 10
1807.8208
 20
421.955548
 30
0.0
 11
1807.8208
 21
323.805548
 31
0.0
  0
LINE
  5
1EA30
  8
ALPHA
 10
1411.8208
 20
323.805548
 30
0.0
 11
1411.8208
 21
421.955548
 31
0.0
  0
LINE
  5
1EA31
  8
ALPHA
 10
1409.8208
 20
-241.044452
 30
0.0
 11
1409.8208
 21
428.955548
 31
0.0
  0
LINE
  5
1EA33
  8
ALPHA
 10
1690.7208
 20
318.305548
 30
0.0
 11
1528.8208
 21
318.305548
 31
0.0
  0
LINE
  5
1EA34
  8
ALPHA
 10
1688.321028
 20
317.305548
 30
0.0
 11
1531.320571
 21
317.305548
 31
0.0
  0
LINE
  5
1EA35
  8
ALPHA
 10
1565.613668
 20
316.743038
 30
0.0
 11
1651.627932
 21
316.743038
 31
0.0
  0
LINE
  5
1EA36
  8
ALPHA
 10
1565.8208
 20
315.243266
 30
0.0
 11
1651.4208
 21
315.243266
 31
0.0
  0
LINE
  5
1EA37
  8
ALPHA
 10
1650.9208
 20
257.755548
 30
0.0
 11
1566.3208
 21
257.755548
 31
0.0
  0
LINE
  5
1EA38
  8
ALPHA
 10
1566.3208
 20
245.755548
 30
0.0
 11
1650.9208
 21
245.755548
 31
0.0
  0
LINE
  5
1EA39
  8
ALPHA
 10
1650.9208
 20
244.755548
 30
0.0
 11
1566.3208
 21
244.755548
 31
0.0
  0
LINE
  5
1EA3A
  8
ALPHA
 10
1649.3708
 20
244.255548
 30
0.0
 11
1567.8708
 21
244.255548
 31
0.0
  0
LINE
  5
1EA3B
  8
ALPHA
 10
1567.8708
 20
237.255548
 30
0.0
 11
1649.3708
 21
237.255548
 31
0.0
  0
LINE
  5
1EA3C
  8
ALPHA
 10
1566.3208
 20
236.755548
 30
0.0
 11
1650.9208
 21
236.755548
 31
0.0
  0
LINE
  5
1EA3D
  8
ALPHA
 10
1650.9208
 20
235.755548
 30
0.0
 11
1566.3208
 21
235.755548
 31
0.0
  0
LINE
  5
1EA3E
  8
ALPHA
 10
1566.5708
 20
235.505548
 30
0.0
 11
1650.6708
 21
235.505548
 31
0.0
  0
LINE
  5
1EA3F
  8
ALPHA
 10
1585.1208
 20
230.255548
 30
0.0
 11
1629.4208
 21
230.255548
 31
0.0
  0
LINE
  5
1EA40
  8
ALPHA
 10
1585.649842
 20
230.196352
 30
0.0
 11
1628.891758
 21
230.196352
 31
0.0
  0
LINE
  5
1EA41
  8
ALPHA
 10
1607.180992
 20
216.365672
 30
0.0
 11
1607.869334
 21
216.149757
 31
0.0
  0
LINE
  5
1EA42
  8
ALPHA
 10
1590.490646
 20
225.355548
 30
0.0
 11
1624.050953
 21
225.355548
 31
0.0
  0
LINE
  5
1EA43
  8
ALPHA
 10
1621.6208
 20
223.095548
 30
0.0
 11
1591.6008
 21
223.095548
 31
0.0
  0
LINE
  5
1EA44
  8
ALPHA
 10
1607.21601
 20
220.683966
 30
0.0
 11
1607.942424
 21
220.683966
 31
0.0
  0
LINE
  5
1EA45
  8
ALPHA
 10
1591.6008
 20
210.295548
 30
0.0
 11
1621.6208
 21
210.295548
 31
0.0
  0
LINE
  5
1EA46
  8
ALPHA
 10
1603.4208
 20
208.305548
 30
0.0
 11
1609.3208
 21
208.305548
 31
0.0
  0
LINE
  5
1EA47
  8
ALPHA
 10
1624.050953
 20
208.005548
 30
0.0
 11
1590.490646
 21
208.005548
 31
0.0
  0
LINE
  5
1EA48
  8
ALPHA
 10
1628.891758
 20
203.164743
 30
0.0
 11
1585.649842
 21
203.164743
 31
0.0
  0
LINE
  5
1EA49
  8
ALPHA
 10
1629.4208
 20
203.105548
 30
0.0
 11
1585.1208
 21
203.105548
 31
0.0
  0
LINE
  5
1EA4A
  8
ALPHA
 10
1607.406368
 20
221.76354
 30
0.0
 11
1606.460279
 21
221.547625
 31
0.0
  0
LINE
  5
1EA4B
  8
ALPHA
 10
1606.52502
 20
211.615548
 30
0.0
 11
1607.471109
 21
211.831462
 31
0.0
  0
LINE
  5
1EA4C
  8
ALPHA
 10
1608.097763
 20
217.445245
 30
0.0
 11
1607.333278
 21
217.22933
 31
0.0
  0
POLYLINE
  5
1EA4D
  8
ALPHA
 66
     1
 10
0.0
 20
0.0
 30
0.0
  0
VERTEX
  5
225EE
  8
ALPHA
 10
1609.71614
 20
177.378445
 30
0.0
  0
VERTEX
  5
225EF
  8
ALPHA
 10
1602.761585
 20
176.140604
 30
0.0
  0
VERTEX
  5
225F0
  8
ALPHA
 10
1596.423824
 20
175.502496
 30
0.0
  0
VERTEX
  5
225F1
  8
ALPHA
 10
1590.700685
 20
175.419641
 30
0.0
  0
VERTEX
  5
225F2
  8
ALPHA
 10
1585.554301
 20
175.852579
 30
0.0
  0
VERTEX
  5
225F3
  8
ALPHA
 10
1581.034286
 20
176.769585
 30
0.0
  0
VERTEX
  5
225F4
  8
ALPHA
 10
1577.097324
 20
178.156625
 30
0.0
  0
VERTEX
  5
225F5
  8
ALPHA
 10
1574.005486
 20
179.789224
 30
0.0
  0
VERTEX
  5
225F6
  8
ALPHA
 10
1571.428881
 20
181.769732
 30
0.0
  0
VERTEX
  5
225F7
  8
ALPHA
 10
1569.266012
 20
184.292336
 30
0.0
  0
SEQEND
  5
225F8
  8
ALPHA
  0
POLYLINE
  5
1EA59
  8
ALPHA
 66
     1
 10
0.0
 20
0.0
 30
0.0
  0
VERTEX
  5
225F9
  8
ALPHA
 10
1607.080448
 20
177.11065
 30
0.0
  0
VERTEX
  5
225FA
  8
ALPHA
 10
1614.212837
 20
178.71174
 30
0.0
  0
VERTEX
  5
225FB
  8
ALPHA
 10
1622.199975
 20
181.054639
 30
0.0
  0
VERTEX
  5
225FC
  8
ALPHA
 10
1630.763477
 20
184.146332
 30
0.0
  0
VERTEX
  5
225FD
  8
ALPHA
 10
1640.237303
 20
188.218147
 30
0.0
  0
VERTEX
  5
225FE
  8
ALPHA
 10
1650.6708
 20
193.473287
 30
0.0
  0
SEQEND
  5
225FF
  8
ALPHA
  0
LINE
  5
1EA61
  8
ALPHA
 10
1662.856889
 20
129.221257
 30
0.0
 11
1536.962208
 21
129.221257
 31
0.0
  0
LINE
  5
1EA62
  8
ALPHA
 10
1528.8208
 20
127.305548
 30
0.0
 11
1690.7208
 21
127.305548
 31
0.0
  0
POLYLINE
  5
1EA63
  8
ALPHA
 66
     1
 10
0.0
 20
0.0
 30
0.0
  0
VERTEX
  5
22600
  8
ALPHA
 10
1531.540941
 20
130.755577
 30
0.0
  0
VERTEX
  5
22601
  8
ALPHA
 10
1562.688456
 20
130.824126
 30
0.0
  0
VERTEX
  5
22602
  8
ALPHA
 10
1594.082577
 20
130.85856
 30
0.0
  0
VERTEX
  5
22603
  8
ALPHA
 10
1625.559156
 20
130.85856
 30
0.0
  0
VERTEX
  5
22604
  8
ALPHA
 10
1656.953225
 20
130.824126
 30
0.0
  0
VERTEX
  5
22605
  8
ALPHA
 10
1688.100658
 20
130.755577
 30
0.0
  0
SEQEND
  5
22606
  8
ALPHA
  0
POLYLINE
  5
1EA6B
  8
ALPHA
 66
     1
 10
0.0
 20
0.0
 30
0.0
  0
VERTEX
  5
22607
  8
ALPHA
 10
1531.775782
 20
129.255801
 30
0.0
  0
VERTEX
  5
22608
  8
ALPHA
 10
1562.827985
 20
129.324351
 30
0.0
  0
VERTEX
  5
22609
  8
ALPHA
 10
1594.129161
 20
129.358788
 30
0.0
  0
VERTEX
  5
2260A
  8
ALPHA
 10
1625.512562
 20
129.358788
 30
0.0
  0
VERTEX
  5
2260B
  8
ALPHA
 10
1656.81367
 20
129.324351
 30
0.0
  0
SEQEND
  5
2260C
  8
ALPHA
  0
POLYLINE
  5
1EA72
  8
ALPHA
 66
     1
 10
0.0
 20
0.0
 30
0.0
  0
VERTEX
  5
2260D
  8
ALPHA
 10
1568.856436
 20
184.005548
 30
0.0
  0
VERTEX
  5
2260E
  8
ALPHA
 10
1571.281789
 20
181.225362
 30
0.0
  0
VERTEX
  5
2260F
  8
ALPHA
 10
1574.588799
 20
178.858484
 30
0.0
  0
VERTEX
  5
22610
  8
ALPHA
 10
1578.688006
 20
176.983432
 30
0.0
  0
VERTEX
  5
22611
  8
ALPHA
 10
1583.557951
 20
175.674956
 30
0.0
  0
VERTEX
  5
22612
  8
ALPHA
 10
1589.144246
 20
174.992865
 30
0.0
  0
VERTEX
  5
22613
  8
ALPHA
 10
1595.407579
 20
174.949993
 30
0.0
  0
VERTEX
  5
22614
  8
ALPHA
 10
1602.30521
 20
175.573487
 30
0.0
  0
VERTEX
  5
22615
  8
ALPHA
 10
1609.8208
 20
176.889522
 30
0.0
  0
SEQEND
  5
22616
  8
ALPHA
  0
POLYLINE
  5
1EA7D
  8
ALPHA
 66
     1
 10
0.0
 20
0.0
 30
0.0
  0
VERTEX
  5
22617
  8
ALPHA
 10
1568.661073
 20
183.868746
 30
0.0
  0
VERTEX
  5
22618
  8
ALPHA
 10
1571.114413
 20
181.092675
 30
0.0
  0
VERTEX
  5
22619
  8
ALPHA
 10
1574.447695
 20
178.736325
 30
0.0
  0
VERTEX
  5
2261A
  8
ALPHA
 10
1578.564163
 20
176.881954
 30
0.0
  0
VERTEX
  5
2261B
  8
ALPHA
 10
1583.455041
 20
175.595102
 30
0.0
  0
VERTEX
  5
2261C
  8
ALPHA
 10
1589.048702
 20
174.938099
 30
0.0
  0
VERTEX
  5
2261D
  8
ALPHA
 10
1595.332089
 20
174.917217
 30
0.0
  0
VERTEX
  5
2261E
  8
ALPHA
 10
1602.25772
 20
175.559038
 30
0.0
  0
VERTEX
  5
2261F
  8
ALPHA
 10
1609.8208
 20
176.889522
 30
0.0
  0
SEQEND
  5
22620
  8
ALPHA
  0
LINE
  5
1EA88
  8
ALPHA
 10
1606.6208
 20
238.255548
 30
0.0
 11
1608.287468
 21
243.255548
 31
0.0
  0
LINE
  5
1EA89
  8
ALPHA
 10
1607.662468
 20
239.532143
 30
0.0
 11
1607.2458
 21
238.255548
 31
0.0
  0
LINE
  5
1EA8A
  8
ALPHA
 10
1608.100817
 20
213.342865
 30
0.0
 11
1607.29826
 21
212.911036
 31
0.0
  0
LINE
  5
1EA8B
  8
ALPHA
 10
1809.8208
 20
-237.044452
 30
0.0
 11
1409.8208
 21
-237.044452
 31
0.0
  0
LINE
  5
1EA8C
  8
ALPHA
 10
1809.8208
 20
-241.044452
 30
0.0
 11
1409.8208
 21
-241.044452
 31
0.0
  0
ARC
  5
1EA8D
  8
ALPHA
 10
1417.3208
 20
-185.044452
 30
0.0
 40
3.545455
 50
9.743097
 51
170.256903
  0
ARC
  5
1EA8E
  8
ALPHA
 10
1417.3208
 20
-183.344452
 30
0.0
 40
0.3
 50
0.0
 51
180.0
  0
CIRCLE
  5
1EA8F
  8
ALPHA
 10
1417.3208
 20
-185.044452
 30
0.0
 40
4.0
  0
LINE
  5
1EA90
  8
ALPHA
 10
1411.8208
 20
-234.044452
 30
0.0
 11
1411.8208
 21
112.605548
 31
0.0
  0
LINE
  5
1EA91
  8
ALPHA
 10
1406.828495
 20
-219.976568
 30
0.0
 11
1406.828495
 21
-208.112336
 31
0.0
  0
POLYLINE
  5
1EA92
  8
ALPHA
 66
     1
 10
0.0
 20
0.0
 30
0.0
  0
VERTEX
  5
22621
  8
ALPHA
 10
1405.394151
 20
-215.866645
 30
0.0
  0
VERTEX
  5
22622
  8
ALPHA
 10
1405.456073
 20
-216.231048
 30
0.0
  0
VERTEX
  5
22623
  8
ALPHA
 10
1405.537845
 20
-216.632612
 30
0.0
  0
VERTEX
  5
22624
  8
ALPHA
 10
1405.644673
 20
-217.074846
 30
0.0
  0
VERTEX
  5
22625
  8
ALPHA
 10
1405.783026
 20
-217.561175
 30
0.0
  0
VERTEX
  5
22626
  8
ALPHA
 10
1405.960769
 20
-218.094356
 30
0.0
  0
VERTEX
  5
22627
  8
ALPHA
 10
1406.186875
 20
-218.675058
 30
0.0
  0
VERTEX
  5
22628
  8
ALPHA
 10
1406.472073
 20
-219.303242
 30
0.0
  0
SEQEND
  5
22629
  8
ALPHA
  0
LINE
  5
1EA9C
  8
ALPHA
 10
1412.8208
 20
-236.044452
 30
0.0
 11
1412.8208
 21
-234.044452
 31
0.0
  0
LINE
  5
1EA9D
  8
ALPHA
 10
1407.4208
 20
-219.976568
 30
0.0
 11
1407.4208
 21
-220.044411
 31
0.0
  0
LINE
  5
1EA9E
  8
ALPHA
 10
1406.472073
 20
-219.303242
 30
0.0
 11
1406.828495
 21
-219.976568
 31
0.0
  0
LINE
  5
1EA9F
  8
ALPHA
 10
1406.828495
 20
-219.976568
 30
0.0
 11
1407.4208
 21
-219.976568
 31
0.0
  0
LINE
  5
1EAA0
  8
ALPHA
 10
1407.4208
 20
-220.044452
 30
0.0
 11
1409.8208
 21
-220.044452
 31
0.0
  0
LINE
  5
1EAA1
  8
ALPHA
 10
1409.822332
 20
-234.044452
 30
0.0
 11
1412.8208
 21
-234.044452
 31
0.0
  0
LINE
  5
1EAA2
  8
ALPHA
 10
1409.8208
 20
-236.044452
 30
0.0
 11
1412.8208
 21
-236.044452
 31
0.0
  0
ARC
  5
1EAA3
  8
ALPHA
 10
1417.3208
 20
-185.044452
 30
0.0
 40
3.612813
 50
170.440278
 51
189.559722
  0
ARC
  5
1EAA4
  8
ALPHA
 10
1417.3208
 20
-185.044452
 30
0.0
 40
3.612813
 50
350.440278
 51
9.559722
  0
ARC
  5
1EAA5
  8
ALPHA
 10
1417.3208
 20
-185.044452
 30
0.0
 40
3.545455
 50
189.743097
 51
350.256903
  0
ARC
  5
1EAA6
  8
ALPHA
 10
1415.848557
 20
-185.894452
 30
0.0
 40
0.3
 50
120.0
 51
300.0
  0
ARC
  5
1EAA7
  8
ALPHA
 10
1415.357809
 20
-185.044452
 30
0.0
 40
0.681495
 50
300.0
 51
60.0
  0
ARC
  5
1EAA8
  8
ALPHA
 10
1415.848557
 20
-184.194452
 30
0.0
 40
0.3
 50
60.0
 51
240.0
  0
ARC
  5
1EAA9
  8
ALPHA
 10
1418.793043
 20
-184.194452
 30
0.0
 40
0.3
 50
300.0
 51
120.0
  0
ARC
  5
1EAAA
  8
ALPHA
 10
1419.283791
 20
-185.044452
 30
0.0
 40
0.681495
 50
120.0
 51
240.0
  0
ARC
  5
1EAAB
  8
ALPHA
 10
1418.793043
 20
-185.894452
 30
0.0
 40
0.3
 50
240.0
 51
60.0
  0
ARC
  5
1EAAC
  8
ALPHA
 10
1417.3208
 20
-186.744452
 30
0.0
 40
0.3
 50
180.0
 51
0.0
  0
ARC
  5
1EAAD
  8
ALPHA
 10
1416.339304
 20
-183.344452
 30
0.0
 40
0.681495
 50
240.0
 51
0.0
  0
ARC
  5
1EAAE
  8
ALPHA
 10
1418.302295
 20
-183.344452
 30
0.0
 40
0.681495
 50
180.0
 51
300.0
  0
ARC
  5
1EAAF
  8
ALPHA
 10
1418.302295
 20
-186.744452
 30
0.0
 40
0.681495
 50
60.0
 51
180.0
  0
ARC
  5
1EAB0
  8
ALPHA
 10
1416.339304
 20
-186.744452
 30
0.0
 40
0.681495
 50
0.0
 51
120.0
  0
POLYLINE
  5
1EAB1
  8
ALPHA
 66
     1
 10
0.0
 20
0.0
 30
0.0
  0
VERTEX
  5
2262A
  8
ALPHA
 10
1405.422651
 20
-212.411311
 30
0.0
  0
VERTEX
  5
2262B
  8
ALPHA
 10
1405.437586
 20
-212.404767
 30
0.0
  0
VERTEX
  5
2262C
  8
ALPHA
 10
1405.464361
 20
-212.371198
 30
0.0
  0
SEQEND
  5
2262D
  8
ALPHA
  0
POLYLINE
  5
1EAB6
  8
ALPHA
 66
     1
 10
0.0
 20
0.0
 30
0.0
  0
VERTEX
  5
2262E
  8
ALPHA
 10
1405.464361
 20
-212.371198
 30
0.0
  0
VERTEX
  5
2262F
  8
ALPHA
 10
1405.490312
 20
-212.345314
 30
0.0
  0
VERTEX
  5
22630
  8
ALPHA
 10
1405.495571
 20
-212.344452
 30
0.0
  0
SEQEND
  5
22631
  8
ALPHA
  0
LINE
  5
1EABB
  8
ALPHA
 10
1405.400999
 20
-215.789711
 30
0.0
 11
1405.395609
 21
-215.797184
 31
0.0
  0
LINE
  5
1EABC
  8
ALPHA
 10
1406.828495
 20
-208.112336
 30
0.0
 11
1406.476207
 21
-208.777222
 31
0.0
  0
POLYLINE
  5
1EABD
  8
ALPHA
 66
     1
 10
0.0
 20
0.0
 30
0.0
  0
VERTEX
  5
22632
  8
ALPHA
 10
1406.476207
 20
-208.777222
 30
0.0
  0
VERTEX
  5
22633
  8
ALPHA
 10
1406.193447
 20
-209.398219
 30
0.0
  0
VERTEX
  5
22634
  8
ALPHA
 10
1405.968379
 20
-209.973454
 30
0.0
  0
VERTEX
  5
22635
  8
ALPHA
 10
1405.790547
 20
-210.503363
 30
0.0
  0
VERTEX
  5
22636
  8
ALPHA
 10
1405.651262
 20
-210.989
 30
0.0
  0
VERTEX
  5
22637
  8
ALPHA
 10
1405.542933
 20
-211.433431
 30
0.0
  0
VERTEX
  5
22638
  8
ALPHA
 10
1405.459324
 20
-211.840436
 30
0.0
  0
VERTEX
  5
22639
  8
ALPHA
 10
1405.395634
 20
-212.213921
 30
0.0
  0
SEQEND
  5
2263A
  8
ALPHA
  0
POLYLINE
  5
1EAC7
  8
ALPHA
 66
     1
 10
0.0
 20
0.0
 30
0.0
  0
VERTEX
  5
2263B
  8
ALPHA
 10
1405.532006
 20
-215.731907
 30
0.0
  0
VERTEX
  5
2263C
  8
ALPHA
 10
1405.537084
 20
-215.709011
 30
0.0
  0
VERTEX
  5
2263D
  8
ALPHA
 10
1405.548062
 20
-215.595001
 30
0.0
  0
VERTEX
  5
2263E
  8
ALPHA
 10
1405.550544
 20
-215.502615
 30
0.0
  0
SEQEND
  5
2263F
  8
ALPHA
  0
POLYLINE
  5
1EACD
  8
ALPHA
 66
     1
 10
0.0
 20
0.0
 30
0.0
  0
VERTEX
  5
22640
  8
ALPHA
 10
1405.545018
 20
-215.782759
 30
0.0
  0
VERTEX
  5
22641
  8
ALPHA
 10
1405.531843
 20
-215.874804
 30
0.0
  0
VERTEX
  5
22642
  8
ALPHA
 10
1405.512309
 20
-215.929963
 30
0.0
  0
VERTEX
  5
22643
  8
ALPHA
 10
1405.492392
 20
-215.944242
 30
0.0
  0
SEQEND
  5
22644
  8
ALPHA
  0
POLYLINE
  5
1EAD3
  8
ALPHA
 66
     1
 10
0.0
 20
0.0
 30
0.0
  0
VERTEX
  5
22645
  8
ALPHA
 10
1405.393489
 20
-215.774311
 30
0.0
  0
VERTEX
  5
22646
  8
ALPHA
 10
1405.397823
 20
-215.743447
 30
0.0
  0
VERTEX
  5
22647
  8
ALPHA
 10
1405.40701
 20
-215.731907
 30
0.0
  0
SEQEND
  5
22648
  8
ALPHA
  0
POLYLINE
  5
1EAD8
  8
ALPHA
 66
     1
 10
0.0
 20
0.0
 30
0.0
  0
VERTEX
  5
22649
  8
ALPHA
 10
1405.395609
 20
-215.797184
 30
0.0
  0
VERTEX
  5
2264A
  8
ALPHA
 10
1405.392964
 20
-215.82322
 30
0.0
  0
VERTEX
  5
2264B
  8
ALPHA
 10
1405.394151
 20
-215.866645
 30
0.0
  0
SEQEND
  5
2264C
  8
ALPHA
  0
POLYLINE
  5
1EADD
  8
ALPHA
 66
     1
 10
0.0
 20
0.0
 30
0.0
  0
VERTEX
  5
2264D
  8
ALPHA
 10
1405.395444
 20
-212.213889
 30
0.0
  0
VERTEX
  5
2264E
  8
ALPHA
 10
1405.392894
 20
-212.292142
 30
0.0
  0
VERTEX
  5
2264F
  8
ALPHA
 10
1405.395637
 20
-212.351578
 30
0.0
  0
VERTEX
  5
22650
  8
ALPHA
 10
1405.403809
 20
-212.391701
 30
0.0
  0
VERTEX
  5
22651
  8
ALPHA
 10
1405.417591
 20
-212.410264
 30
0.0
  0
VERTEX
  5
22652
  8
ALPHA
 10
1405.422651
 20
-212.411311
 30
0.0
  0
SEQEND
  5
22653
  8
ALPHA
  0
LINE
  5
1EAE5
  8
ALPHA
 10
1405.393337
 20
-215.819547
 30
0.0
 11
1405.393489
 21
-215.774311
 31
0.0
  0
LINE
  5
1EAE6
  8
ALPHA
 10
1407.4208
 20
-208.044494
 30
0.0
 11
1407.4208
 21
-208.112336
 31
0.0
  0
POLYLINE
  5
1EAE7
  8
ALPHA
 66
     1
 10
0.0
 20
0.0
 30
0.0
  0
VERTEX
  5
22654
  8
ALPHA
 10
1405.531857
 20
-212.401689
 30
0.0
  0
VERTEX
  5
22655
  8
ALPHA
 10
1405.544425
 20
-212.477223
 30
0.0
  0
VERTEX
  5
22656
  8
ALPHA
 10
1405.551153
 20
-212.581912
 30
0.0
  0
VERTEX
  5
22657
  8
ALPHA
 10
1405.55118
 20
-212.710615
 30
0.0
  0
VERTEX
  5
22658
  8
ALPHA
 10
1405.544478
 20
-212.851301
 30
0.0
  0
VERTEX
  5
22659
  8
ALPHA
 10
1405.531875
 20
-212.994183
 30
0.0
  0
VERTEX
  5
2265A
  8
ALPHA
 10
1405.513353
 20
-213.13874
 30
0.0
  0
VERTEX
  5
2265B
  8
ALPHA
 10
1405.490139
 20
-213.272719
 30
0.0
  0
VERTEX
  5
2265C
  8
ALPHA
 10
1405.464361
 20
-213.38449
 30
0.0
  0
SEQEND
  5
2265D
  8
ALPHA
  0
POLYLINE
  5
1EAF2
  8
ALPHA
 66
     1
 10
0.0
 20
0.0
 30
0.0
  0
VERTEX
  5
2265E
  8
ALPHA
 10
1405.450681
 20
-214.648778
 30
0.0
  0
VERTEX
  5
2265F
  8
ALPHA
 10
1405.426281
 20
-214.518244
 30
0.0
  0
VERTEX
  5
22660
  8
ALPHA
 10
1405.409114
 20
-214.381615
 30
0.0
  0
VERTEX
  5
22661
  8
ALPHA
 10
1405.398084
 20
-214.237662
 30
0.0
  0
VERTEX
  5
22662
  8
ALPHA
 10
1405.393146
 20
-214.087315
 30
0.0
  0
VERTEX
  5
22663
  8
ALPHA
 10
1405.394538
 20
-213.93523
 30
0.0
  0
VERTEX
  5
22664
  8
ALPHA
 10
1405.402176
 20
-213.787302
 30
0.0
  0
VERTEX
  5
22665
  8
ALPHA
 10
1405.415858
 20
-213.646496
 30
0.0
  0
VERTEX
  5
22666
  8
ALPHA
 10
1405.436015
 20
-213.512501
 30
0.0
  0
VERTEX
  5
22667
  8
ALPHA
 10
1405.464361
 20
-213.38449
 30
0.0
  0
SEQEND
  5
22668
  8
ALPHA
  0
POLYLINE
  5
1EAFE
  8
ALPHA
 66
     1
 10
0.0
 20
0.0
 30
0.0
  0
VERTEX
  5
22669
  8
ALPHA
 10
1405.450681
 20
-214.648778
 30
0.0
  0
VERTEX
  5
2266A
  8
ALPHA
 10
1405.480428
 20
-214.799588
 30
0.0
  0
VERTEX
  5
2266B
  8
ALPHA
 10
1405.507141
 20
-214.97474
 30
0.0
  0
VERTEX
  5
2266C
  8
ALPHA
 10
1405.528478
 20
-215.159706
 30
0.0
  0
VERTEX
  5
2266D
  8
ALPHA
 10
1405.543049
 20
-215.33924
 30
0.0
  0
VERTEX
  5
2266E
  8
ALPHA
 10
1405.55078
 20
-215.50776
 30
0.0
  0
VERTEX
  5
2266F
  8
ALPHA
 10
1405.551439
 20
-215.658558
 30
0.0
  0
VERTEX
  5
22670
  8
ALPHA
 10
1405.545018
 20
-215.782759
 30
0.0
  0
SEQEND
  5
22671
  8
ALPHA
  0
LINE
  5
1EB08
  8
ALPHA
 10
1415.682725
 20
-184.444452
 30
0.0
 11
1413.758157
 21
-184.444452
 31
0.0
  0
LINE
  5
1EB09
  8
ALPHA
 10
1420.883442
 20
-184.444452
 30
0.0
 11
1418.958874
 21
-184.444452
 31
0.0
  0
LINE
  5
1EB0A
  8
ALPHA
 10
1418.958874
 20
-185.644452
 30
0.0
 11
1420.883442
 21
-185.644452
 31
0.0
  0
LINE
  5
1EB0B
  8
ALPHA
 10
1413.758157
 20
-185.644452
 30
0.0
 11
1415.682725
 21
-185.644452
 31
0.0
  0
POLYLINE
  5
1EB0C
  8
ALPHA
 66
     1
 10
0.0
 20
0.0
 30
0.0
  0
VERTEX
  5
22672
  8
ALPHA
 10
1405.425886
 20
-215.837162
 30
0.0
  0
VERTEX
  5
22673
  8
ALPHA
 10
1405.41211
 20
-215.802607
 30
0.0
  0
VERTEX
  5
22674
  8
ALPHA
 10
1405.401909
 20
-215.789834
 30
0.0
  0
VERTEX
  5
22675
  8
ALPHA
 10
1405.400999
 20
-215.789711
 30
0.0
  0
SEQEND
  5
22676
  8
ALPHA
  0
LINE
  5
1EB12
  8
ALPHA
 10
1407.4208
 20
-208.044452
 30
0.0
 11
1409.8208
 21
-208.044452
 31
0.0
  0
LINE
  5
1EB13
  8
ALPHA
 10
1406.828495
 20
-208.112336
 30
0.0
 11
1407.4208
 21
-208.112336
 31
0.0
  0
LINE
  5
1EB14
  8
ALPHA
 10
1405.464361
 20
-212.371198
 30
0.0
 11
1405.51963
 21
-212.371198
 31
0.0
  0
LINE
  5
1EB15
  8
ALPHA
 10
1405.533458
 20
-212.411311
 30
0.0
 11
1405.423301
 21
-212.411311
 31
0.0
  0
LINE
  5
1EB16
  8
ALPHA
 10
1405.547647
 20
-215.731907
 30
0.0
 11
1405.4071
 21
-215.731907
 31
0.0
  0
LINE
  5
1EB17
  8
ALPHA
 10
1405.544023
 20
-215.789711
 30
0.0
 11
1405.401194
 21
-215.789711
 31
0.0
  0
LINE
  5
1EB18
  8
ALPHA
 10
1405.425886
 20
-215.837162
 30
0.0
 11
1405.537231
 21
-215.837162
 31
0.0
  0
POLYLINE
  5
1EB19
  8
ALPHA
 66
     1
 10
0.0
 20
0.0
 30
0.0
  0
VERTEX
  5
22677
  8
ALPHA
 10
1405.492392
 20
-215.944242
 30
0.0
  0
VERTEX
  5
22678
  8
ALPHA
 10
1405.486747
 20
-215.943273
 30
0.0
  0
VERTEX
  5
22679
  8
ALPHA
 10
1405.45709
 20
-215.911108
 30
0.0
  0
VERTEX
  5
2267A
  8
ALPHA
 10
1405.425886
 20
-215.837162
 30
0.0
  0
SEQEND
  5
2267B
  8
ALPHA
  0
POLYLINE
  5
1EB1F
  8
ALPHA
 66
     1
 10
0.0
 20
0.0
 30
0.0
  0
VERTEX
  5
2267C
  8
ALPHA
 10
1405.495571
 20
-212.344452
 30
0.0
  0
VERTEX
  5
2267D
  8
ALPHA
 10
1405.513481
 20
-212.355864
 30
0.0
  0
VERTEX
  5
2267E
  8
ALPHA
 10
1405.531857
 20
-212.401689
 30
0.0
  0
SEQEND
  5
2267F
  8
ALPHA
  0
POLYLINE
  5
1EB24
  8
ALPHA
 66
     1
 10
0.0
 20
0.0
 30
0.0
  0
VERTEX
  5
22680
  8
ALPHA
 10
1405.422651
 20
-93.411311
 30
0.0
  0
VERTEX
  5
22681
  8
ALPHA
 10
1405.437586
 20
-93.404767
 30
0.0
  0
VERTEX
  5
22682
  8
ALPHA
 10
1405.464361
 20
-93.371198
 30
0.0
  0
SEQEND
  5
22683
  8
ALPHA
  0
POLYLINE
  5
1EB29
  8
ALPHA
 66
     1
 10
0.0
 20
0.0
 30
0.0
  0
VERTEX
  5
22684
  8
ALPHA
 10
1405.464361
 20
-93.371198
 30
0.0
  0
VERTEX
  5
22685
  8
ALPHA
 10
1405.490312
 20
-93.345314
 30
0.0
  0
VERTEX
  5
22686
  8
ALPHA
 10
1405.495571
 20
-93.344452
 30
0.0
  0
SEQEND
  5
22687
  8
ALPHA
  0
LINE
  5
1EB2E
  8
ALPHA
 10
1405.400999
 20
-96.789711
 30
0.0
 11
1405.395609
 21
-96.797184
 31
0.0
  0
LINE
  5
1EB2F
  8
ALPHA
 10
1406.828495
 20
-89.112336
 30
0.0
 11
1406.476207
 21
-89.777222
 31
0.0
  0
POLYLINE
  5
1EB30
  8
ALPHA
 66
     1
 10
0.0
 20
0.0
 30
0.0
  0
VERTEX
  5
22688
  8
ALPHA
 10
1406.476207
 20
-89.777222
 30
0.0
  0
VERTEX
  5
22689
  8
ALPHA
 10
1406.193447
 20
-90.398219
 30
0.0
  0
VERTEX
  5
2268A
  8
ALPHA
 10
1405.968379
 20
-90.973454
 30
0.0
  0
VERTEX
  5
2268B
  8
ALPHA
 10
1405.790547
 20
-91.503363
 30
0.0
  0
VERTEX
  5
2268C
  8
ALPHA
 10
1405.651262
 20
-91.989
 30
0.0
  0
VERTEX
  5
2268D
  8
ALPHA
 10
1405.542933
 20
-92.433431
 30
0.0
  0
VERTEX
  5
2268E
  8
ALPHA
 10
1405.459324
 20
-92.840436
 30
0.0
  0
VERTEX
  5
2268F
  8
ALPHA
 10
1405.395634
 20
-93.213921
 30
0.0
  0
SEQEND
  5
22690
  8
ALPHA
  0
POLYLINE
  5
1EB3A
  8
ALPHA
 66
     1
 10
0.0
 20
0.0
 30
0.0
  0
VERTEX
  5
22691
  8
ALPHA
 10
1405.532006
 20
-96.731907
 30
0.0
  0
VERTEX
  5
22692
  8
ALPHA
 10
1405.537084
 20
-96.709011
 30
0.0
  0
VERTEX
  5
22693
  8
ALPHA
 10
1405.548062
 20
-96.595001
 30
0.0
  0
VERTEX
  5
22694
  8
ALPHA
 10
1405.550544
 20
-96.502615
 30
0.0
  0
SEQEND
  5
22695
  8
ALPHA
  0
POLYLINE
  5
1EB40
  8
ALPHA
 66
     1
 10
0.0
 20
0.0
 30
0.0
  0
VERTEX
  5
22696
  8
ALPHA
 10
1405.545018
 20
-96.782759
 30
0.0
  0
VERTEX
  5
22697
  8
ALPHA
 10
1405.531843
 20
-96.874804
 30
0.0
  0
VERTEX
  5
22698
  8
ALPHA
 10
1405.512309
 20
-96.929963
 30
0.0
  0
VERTEX
  5
22699
  8
ALPHA
 10
1405.492392
 20
-96.944242
 30
0.0
  0
SEQEND
  5
2269A
  8
ALPHA
  0
POLYLINE
  5
1EB46
  8
ALPHA
 66
     1
 10
0.0
 20
0.0
 30
0.0
  0
VERTEX
  5
2269B
  8
ALPHA
 10
1405.393489
 20
-96.774311
 30
0.0
  0
VERTEX
  5
2269C
  8
ALPHA
 10
1405.397823
 20
-96.743447
 30
0.0
  0
VERTEX
  5
2269D
  8
ALPHA
 10
1405.40701
 20
-96.731907
 30
0.0
  0
SEQEND
  5
2269E
  8
ALPHA
  0
LINE
  5
1EB4B
  8
ALPHA
 10
1407.4208
 20
-89.044452
 30
0.0
 11
1409.8208
 21
-89.044452
 31
0.0
  0
LINE
  5
1EB4C
  8
ALPHA
 10
1406.828495
 20
-89.112336
 30
0.0
 11
1407.4208
 21
-89.112336
 31
0.0
  0
LINE
  5
1EB4D
  8
ALPHA
 10
1405.464361
 20
-93.371198
 30
0.0
 11
1405.51963
 21
-93.371198
 31
0.0
  0
LINE
  5
1EB4E
  8
ALPHA
 10
1405.533458
 20
-93.411311
 30
0.0
 11
1405.423301
 21
-93.411311
 31
0.0
  0
LINE
  5
1EB4F
  8
ALPHA
 10
1405.547647
 20
-96.731907
 30
0.0
 11
1405.4071
 21
-96.731907
 31
0.0
  0
LINE
  5
1EB50
  8
ALPHA
 10
1405.544023
 20
-96.789711
 30
0.0
 11
1405.401194
 21
-96.789711
 31
0.0
  0
LINE
  5
1EB51
  8
ALPHA
 10
1405.425886
 20
-96.837162
 30
0.0
 11
1405.537231
 21
-96.837162
 31
0.0
  0
LINE
  5
1EB52
  8
ALPHA
 10
1406.828495
 20
-100.976568
 30
0.0
 11
1407.4208
 21
-100.976568
 31
0.0
  0
LINE
  5
1EB53
  8
ALPHA
 10
1407.4208
 20
-101.044452
 30
0.0
 11
1409.8208
 21
-101.044452
 31
0.0
  0
POLYLINE
  5
1EB54
  8
ALPHA
 66
     1
 10
0.0
 20
0.0
 30
0.0
  0
VERTEX
  5
2269F
  8
ALPHA
 10
1405.395609
 20
-96.797184
 30
0.0
  0
VERTEX
  5
226A0
  8
ALPHA
 10
1405.392964
 20
-96.82322
 30
0.0
  0
VERTEX
  5
226A1
  8
ALPHA
 10
1405.394151
 20
-96.866645
 30
0.0
  0
SEQEND
  5
226A2
  8
ALPHA
  0
POLYLINE
  5
1EB59
  8
ALPHA
 66
     1
 10
0.0
 20
0.0
 30
0.0
  0
VERTEX
  5
226A3
  8
ALPHA
 10
1405.395444
 20
-93.213889
 30
0.0
  0
VERTEX
  5
226A4
  8
ALPHA
 10
1405.392894
 20
-93.292142
 30
0.0
  0
VERTEX
  5
226A5
  8
ALPHA
 10
1405.395637
 20
-93.351578
 30
0.0
  0
VERTEX
  5
226A6
  8
ALPHA
 10
1405.403809
 20
-93.391701
 30
0.0
  0
VERTEX
  5
226A7
  8
ALPHA
 10
1405.417591
 20
-93.410264
 30
0.0
  0
VERTEX
  5
226A8
  8
ALPHA
 10
1405.422651
 20
-93.411311
 30
0.0
  0
SEQEND
  5
226A9
  8
ALPHA
  0
LINE
  5
1EB61
  8
ALPHA
 10
1405.393337
 20
-96.819547
 30
0.0
 11
1405.393489
 21
-96.774311
 31
0.0
  0
LINE
  5
1EB62
  8
ALPHA
 10
1407.4208
 20
-100.976568
 30
0.0
 11
1407.4208
 21
-101.044411
 31
0.0
  0
LINE
  5
1EB63
  8
ALPHA
 10
1407.4208
 20
-89.044494
 30
0.0
 11
1407.4208
 21
-89.112336
 31
0.0
  0
LINE
  5
1EB64
  8
ALPHA
 10
1406.828495
 20
-100.976568
 30
0.0
 11
1406.828495
 21
-89.112336
 31
0.0
  0
POLYLINE
  5
1EB65
  8
ALPHA
 66
     1
 10
0.0
 20
0.0
 30
0.0
  0
VERTEX
  5
226AA
  8
ALPHA
 10
1405.492392
 20
-96.944242
 30
0.0
  0
VERTEX
  5
226AB
  8
ALPHA
 10
1405.486747
 20
-96.943273
 30
0.0
  0
VERTEX
  5
226AC
  8
ALPHA
 10
1405.45709
 20
-96.911108
 30
0.0
  0
VERTEX
  5
226AD
  8
ALPHA
 10
1405.425886
 20
-96.837162
 30
0.0
  0
SEQEND
  5
226AE
  8
ALPHA
  0
POLYLINE
  5
1EB6B
  8
ALPHA
 66
     1
 10
0.0
 20
0.0
 30
0.0
  0
VERTEX
  5
226AF
  8
ALPHA
 10
1405.531857
 20
-93.401689
 30
0.0
  0
VERTEX
  5
226B0
  8
ALPHA
 10
1405.544425
 20
-93.477223
 30
0.0
  0
VERTEX
  5
226B1
  8
ALPHA
 10
1405.551153
 20
-93.581912
 30
0.0
  0
VERTEX
  5
226B2
  8
ALPHA
 10
1405.55118
 20
-93.710615
 30
0.0
  0
VERTEX
  5
226B3
  8
ALPHA
 10
1405.544478
 20
-93.851301
 30
0.0
  0
VERTEX
  5
226B4
  8
ALPHA
 10
1405.531875
 20
-93.994183
 30
0.0
  0
VERTEX
  5
226B5
  8
ALPHA
 10
1405.513353
 20
-94.13874
 30
0.0
  0
VERTEX
  5
226B6
  8
ALPHA
 10
1405.490139
 20
-94.272719
 30
0.0
  0
VERTEX
  5
226B7
  8
ALPHA
 10
1405.464361
 20
-94.38449
 30
0.0
  0
SEQEND
  5
226B8
  8
ALPHA
  0
POLYLINE
  5
1EB76
  8
ALPHA
 66
     1
 10
0.0
 20
0.0
 30
0.0
  0
VERTEX
  5
226B9
  8
ALPHA
 10
1405.394151
 20
-96.866645
 30
0.0
  0
VERTEX
  5
226BA
  8
ALPHA
 10
1405.456073
 20
-97.231048
 30
0.0
  0
VERTEX
  5
226BB
  8
ALPHA
 10
1405.537845
 20
-97.632612
 30
0.0
  0
VERTEX
  5
226BC
  8
ALPHA
 10
1405.644673
 20
-98.074846
 30
0.0
  0
VERTEX
  5
226BD
  8
ALPHA
 10
1405.783026
 20
-98.561175
 30
0.0
  0
VERTEX
  5
226BE
  8
ALPHA
 10
1405.960769
 20
-99.094356
 30
0.0
  0
VERTEX
  5
226BF
  8
ALPHA
 10
1406.186875
 20
-99.675058
 30
0.0
  0
VERTEX
  5
226C0
  8
ALPHA
 10
1406.472073
 20
-100.303242
 30
0.0
  0
SEQEND
  5
226C1
  8
ALPHA
  0
POLYLINE
  5
1EB80
  8
ALPHA
 66
     1
 10
0.0
 20
0.0
 30
0.0
  0
VERTEX
  5
226C2
  8
ALPHA
 10
1405.450681
 20
-95.648778
 30
0.0
  0
VERTEX
  5
226C3
  8
ALPHA
 10
1405.426281
 20
-95.518244
 30
0.0
  0
VERTEX
  5
226C4
  8
ALPHA
 10
1405.409114
 20
-95.381615
 30
0.0
  0
VERTEX
  5
226C5
  8
ALPHA
 10
1405.398084
 20
-95.237662
 30
0.0
  0
VERTEX
  5
226C6
  8
ALPHA
 10
1405.393146
 20
-95.087315
 30
0.0
  0
VERTEX
  5
226C7
  8
ALPHA
 10
1405.394538
 20
-94.93523
 30
0.0
  0
VERTEX
  5
226C8
  8
ALPHA
 10
1405.402176
 20
-94.787302
 30
0.0
  0
VERTEX
  5
226C9
  8
ALPHA
 10
1405.415858
 20
-94.646496
 30
0.0
  0
VERTEX
  5
226CA
  8
ALPHA
 10
1405.436015
 20
-94.512501
 30
0.0
  0
VERTEX
  5
226CB
  8
ALPHA
 10
1405.464361
 20
-94.38449
 30
0.0
  0
SEQEND
  5
226CC
  8
ALPHA
  0
POLYLINE
  5
1EB8C
  8
ALPHA
 66
     1
 10
0.0
 20
0.0
 30
0.0
  0
VERTEX
  5
226CD
  8
ALPHA
 10
1405.450681
 20
-95.648778
 30
0.0
  0
VERTEX
  5
226CE
  8
ALPHA
 10
1405.480428
 20
-95.799588
 30
0.0
  0
VERTEX
  5
226CF
  8
ALPHA
 10
1405.507141
 20
-95.97474
 30
0.0
  0
VERTEX
  5
226D0
  8
ALPHA
 10
1405.528478
 20
-96.159706
 30
0.0
  0
VERTEX
  5
226D1
  8
ALPHA
 10
1405.543049
 20
-96.33924
 30
0.0
  0
VERTEX
  5
226D2
  8
ALPHA
 10
1405.55078
 20
-96.50776
 30
0.0
  0
VERTEX
  5
226D3
  8
ALPHA
 10
1405.551439
 20
-96.658558
 30
0.0
  0
VERTEX
  5
226D4
  8
ALPHA
 10
1405.545018
 20
-96.782759
 30
0.0
  0
SEQEND
  5
226D5
  8
ALPHA
  0
POLYLINE
  5
1EB96
  8
ALPHA
 66
     1
 10
0.0
 20
0.0
 30
0.0
  0
VERTEX
  5
226D6
  8
ALPHA
 10
1405.425886
 20
-96.837162
 30
0.0
  0
VERTEX
  5
226D7
  8
ALPHA
 10
1405.41211
 20
-96.802607
 30
0.0
  0
VERTEX
  5
226D8
  8
ALPHA
 10
1405.401909
 20
-96.789834
 30
0.0
  0
VERTEX
  5
226D9
  8
ALPHA
 10
1405.400999
 20
-96.789711
 30
0.0
  0
SEQEND
  5
226DA
  8
ALPHA
  0
LINE
  5
1EB9C
  8
ALPHA
 10
1406.472073
 20
-100.303242
 30
0.0
 11
1406.828495
 21
-100.976568
 31
0.0
  0
POLYLINE
  5
1EB9D
  8
ALPHA
 66
     1
 10
0.0
 20
0.0
 30
0.0
  0
VERTEX
  5
226DB
  8
ALPHA
 10
1405.495571
 20
-93.344452
 30
0.0
  0
VERTEX
  5
226DC
  8
ALPHA
 10
1405.513481
 20
-93.355864
 30
0.0
  0
VERTEX
  5
226DD
  8
ALPHA
 10
1405.531857
 20
-93.401689
 30
0.0
  0
SEQEND
  5
226DE
  8
ALPHA
  0
ARC
  5
1EBA2
  8
ALPHA
 10
1417.3208
 20
69.955548
 30
0.0
 40
3.612813
 50
170.440278
 51
189.559722
  0
ARC
  5
1EBA3
  8
ALPHA
 10
1417.3208
 20
69.955548
 30
0.0
 40
3.612813
 50
350.440278
 51
9.559722
  0
ARC
  5
1EBA4
  8
ALPHA
 10
1417.3208
 20
69.955548
 30
0.0
 40
3.545455
 50
9.743097
 51
170.256903
  0
ARC
  5
1EBA5
  8
ALPHA
 10
1417.3208
 20
69.955548
 30
0.0
 40
3.545455
 50
189.743097
 51
350.256903
  0
ARC
  5
1EBA6
  8
ALPHA
 10
1415.848557
 20
69.105548
 30
0.0
 40
0.3
 50
120.0
 51
300.0
  0
ARC
  5
1EBA7
  8
ALPHA
 10
1415.357809
 20
69.955548
 30
0.0
 40
0.681495
 50
300.0
 51
60.0
  0
ARC
  5
1EBA8
  8
ALPHA
 10
1415.848557
 20
70.805548
 30
0.0
 40
0.3
 50
60.0
 51
240.0
  0
ARC
  5
1EBA9
  8
ALPHA
 10
1418.793043
 20
70.805548
 30
0.0
 40
0.3
 50
300.0
 51
120.0
  0
ARC
  5
1EBAA
  8
ALPHA
 10
1419.283791
 20
69.955548
 30
0.0
 40
0.681495
 50
120.0
 51
240.0
  0
ARC
  5
1EBAB
  8
ALPHA
 10
1418.793043
 20
69.105548
 30
0.0
 40
0.3
 50
240.0
 51
60.0
  0
ARC
  5
1EBAC
  8
ALPHA
 10
1417.3208
 20
71.655548
 30
0.0
 40
0.3
 50
0.0
 51
180.0
  0
ARC
  5
1EBAD
  8
ALPHA
 10
1417.3208
 20
68.255548
 30
0.0
 40
0.3
 50
180.0
 51
0.0
  0
CIRCLE
  5
1EBAE
  8
ALPHA
 10
1417.3208
 20
69.955548
 30
0.0
 40
4.0
  0
ARC
  5
1EBAF
  8
ALPHA
 10
1416.339304
 20
71.655548
 30
0.0
 40
0.681495
 50
240.0
 51
0.0
  0
ARC
  5
1EBB0
  8
ALPHA
 10
1418.302295
 20
71.655548
 30
0.0
 40
0.681495
 50
180.0
 51
300.0
  0
ARC
  5
1EBB1
  8
ALPHA
 10
1418.302295
 20
68.255548
 30
0.0
 40
0.681495
 50
60.0
 51
180.0
  0
ARC
  5
1EBB2
  8
ALPHA
 10
1416.339304
 20
68.255548
 30
0.0
 40
0.681495
 50
0.0
 51
120.0
  0
LINE
  5
1EBB3
  8
ALPHA
 10
1415.682725
 20
70.555548
 30
0.0
 11
1413.758157
 21
70.555548
 31
0.0
  0
LINE
  5
1EBB4
  8
ALPHA
 10
1420.883442
 20
70.555548
 30
0.0
 11
1418.958874
 21
70.555548
 31
0.0
  0
LINE
  5
1EBB5
  8
ALPHA
 10
1418.958874
 20
69.355548
 30
0.0
 11
1420.883442
 21
69.355548
 31
0.0
  0
LINE
  5
1EBB6
  8
ALPHA
 10
1413.758157
 20
69.355548
 30
0.0
 11
1415.682725
 21
69.355548
 31
0.0
  0
CIRCLE
  5
1EBB7
  8
ALPHA
 10
1417.3208
 20
132.955548
 30
0.0
 40
5.0
  0
CIRCLE
  5
1EBB8
  8
ALPHA
 10
1417.3208
 20
303.955548
 30
0.0
 40
5.0
  0
LINE
  5
1EBB9
  8
ALPHA
 10
1407.4208
 20
99.955548
 30
0.0
 11
1409.8208
 21
99.955548
 31
0.0
  0
LINE
  5
1EBBA
  8
ALPHA
 10
1406.828495
 20
99.887664
 30
0.0
 11
1407.4208
 21
99.887664
 31
0.0
  0
LINE
  5
1EBBB
  8
ALPHA
 10
1405.464361
 20
95.628802
 30
0.0
 11
1405.51963
 21
95.628802
 31
0.0
  0
LINE
  5
1EBBC
  8
ALPHA
 10
1405.533458
 20
95.588689
 30
0.0
 11
1405.423301
 21
95.588689
 31
0.0
  0
LINE
  5
1EBBD
  8
ALPHA
 10
1405.547647
 20
92.268093
 30
0.0
 11
1405.4071
 21
92.268093
 31
0.0
  0
LINE
  5
1EBBE
  8
ALPHA
 10
1405.544023
 20
92.210289
 30
0.0
 11
1405.401194
 21
92.210289
 31
0.0
  0
LINE
  5
1EBBF
  8
ALPHA
 10
1405.425886
 20
92.162838
 30
0.0
 11
1405.537231
 21
92.162838
 31
0.0
  0
LINE
  5
1EBC0
  8
ALPHA
 10
1406.828495
 20
88.023432
 30
0.0
 11
1407.4208
 21
88.023432
 31
0.0
  0
LINE
  5
1EBC1
  8
ALPHA
 10
1407.4208
 20
87.955548
 30
0.0
 11
1409.8208
 21
87.955548
 31
0.0
  0
POLYLINE
  5
1EBC2
  8
ALPHA
 66
     1
 10
0.0
 20
0.0
 30
0.0
  0
VERTEX
  5
226DF
  8
ALPHA
 10
1405.492392
 20
92.055758
 30
0.0
  0
VERTEX
  5
226E0
  8
ALPHA
 10
1405.486747
 20
92.056727
 30
0.0
  0
VERTEX
  5
226E1
  8
ALPHA
 10
1405.45709
 20
92.088892
 30
0.0
  0
VERTEX
  5
226E2
  8
ALPHA
 10
1405.425886
 20
92.162838
 30
0.0
  0
SEQEND
  5
226E3
  8
ALPHA
  0
POLYLINE
  5
1EBC8
  8
ALPHA
 66
     1
 10
0.0
 20
0.0
 30
0.0
  0
VERTEX
  5
226E4
  8
ALPHA
 10
1405.422651
 20
95.588689
 30
0.0
  0
VERTEX
  5
226E5
  8
ALPHA
 10
1405.437586
 20
95.595233
 30
0.0
  0
VERTEX
  5
226E6
  8
ALPHA
 10
1405.464361
 20
95.628802
 30
0.0
  0
SEQEND
  5
226E7
  8
ALPHA
  0
POLYLINE
  5
1EBCD
  8
ALPHA
 66
     1
 10
0.0
 20
0.0
 30
0.0
  0
VERTEX
  5
226E8
  8
ALPHA
 10
1405.495571
 20
95.655548
 30
0.0
  0
VERTEX
  5
226E9
  8
ALPHA
 10
1405.513481
 20
95.644136
 30
0.0
  0
VERTEX
  5
226EA
  8
ALPHA
 10
1405.531857
 20
95.598311
 30
0.0
  0
SEQEND
  5
226EB
  8
ALPHA
  0
POLYLINE
  5
1EBD2
  8
ALPHA
 66
     1
 10
0.0
 20
0.0
 30
0.0
  0
VERTEX
  5
226EC
  8
ALPHA
 10
1405.464361
 20
95.628802
 30
0.0
  0
VERTEX
  5
226ED
  8
ALPHA
 10
1405.490312
 20
95.654686
 30
0.0
  0
VERTEX
  5
226EE
  8
ALPHA
 10
1405.495571
 20
95.655548
 30
0.0
  0
SEQEND
  5
226EF
  8
ALPHA
  0
LINE
  5
1EBD7
  8
ALPHA
 10
1405.400999
 20
92.210289
 30
0.0
 11
1405.395609
 21
92.202816
 31
0.0
  0
POLYLINE
  5
1EBD8
  8
ALPHA
 66
     1
 10
0.0
 20
0.0
 30
0.0
  0
VERTEX
  5
226F0
  8
ALPHA
 10
1405.531857
 20
95.598311
 30
0.0
  0
VERTEX
  5
226F1
  8
ALPHA
 10
1405.544425
 20
95.522777
 30
0.0
  0
VERTEX
  5
226F2
  8
ALPHA
 10
1405.551153
 20
95.418088
 30
0.0
  0
VERTEX
  5
226F3
  8
ALPHA
 10
1405.55118
 20
95.289385
 30
0.0
  0
VERTEX
  5
226F4
  8
ALPHA
 10
1405.544478
 20
95.148699
 30
0.0
  0
VERTEX
  5
226F5
  8
ALPHA
 10
1405.531875
 20
95.005817
 30
0.0
  0
VERTEX
  5
226F6
  8
ALPHA
 10
1405.513353
 20
94.86126
 30
0.0
  0
VERTEX
  5
226F7
  8
ALPHA
 10
1405.490139
 20
94.727281
 30
0.0
  0
VERTEX
  5
226F8
  8
ALPHA
 10
1405.464361
 20
94.61551
 30
0.0
  0
SEQEND
  5
226F9
  8
ALPHA
  0
POLYLINE
  5
1EBE3
  8
ALPHA
 66
     1
 10
0.0
 20
0.0
 30
0.0
  0
VERTEX
  5
226FA
  8
ALPHA
 10
1405.394151
 20
92.133355
 30
0.0
  0
VERTEX
  5
226FB
  8
ALPHA
 10
1405.456073
 20
91.768952
 30
0.0
  0
VERTEX
  5
226FC
  8
ALPHA
 10
1405.537845
 20
91.367388
 30
0.0
  0
VERTEX
  5
226FD
  8
ALPHA
 10
1405.644673
 20
90.925154
 30
0.0
  0
VERTEX
  5
226FE
  8
ALPHA
 10
1405.783026
 20
90.438825
 30
0.0
  0
VERTEX
  5
226FF
  8
ALPHA
 10
1405.960769
 20
89.905644
 30
0.0
  0
VERTEX
  5
22700
  8
ALPHA
 10
1406.186875
 20
89.324942
 30
0.0
  0
VERTEX
  5
22701
  8
ALPHA
 10
1406.472073
 20
88.696758
 30
0.0
  0
SEQEND
  5
22702
  8
ALPHA
  0
POLYLINE
  5
1EBED
  8
ALPHA
 66
     1
 10
0.0
 20
0.0
 30
0.0
  0
VERTEX
  5
22703
  8
ALPHA
 10
1405.450681
 20
93.351222
 30
0.0
  0
VERTEX
  5
22704
  8
ALPHA
 10
1405.426281
 20
93.481756
 30
0.0
  0
VERTEX
  5
22705
  8
ALPHA
 10
1405.409114
 20
93.618385
 30
0.0
  0
VERTEX
  5
22706
  8
ALPHA
 10
1405.398084
 20
93.762338
 30
0.0
  0
VERTEX
  5
22707
  8
ALPHA
 10
1405.393146
 20
93.912685
 30
0.0
  0
VERTEX
  5
22708
  8
ALPHA
 10
1405.394538
 20
94.06477
 30
0.0
  0
VERTEX
  5
22709
  8
ALPHA
 10
1405.402176
 20
94.212698
 30
0.0
  0
VERTEX
  5
2270A
  8
ALPHA
 10
1405.415858
 20
94.353504
 30
0.0
  0
VERTEX
  5
2270B
  8
ALPHA
 10
1405.436015
 20
94.487499
 30
0.0
  0
VERTEX
  5
2270C
  8
ALPHA
 10
1405.464361
 20
94.61551
 30
0.0
  0
SEQEND
  5
2270D
  8
ALPHA
  0
POLYLINE
  5
1EBF9
  8
ALPHA
 66
     1
 10
0.0
 20
0.0
 30
0.0
  0
VERTEX
  5
2270E
  8
ALPHA
 10
1405.450681
 20
93.351222
 30
0.0
  0
VERTEX
  5
2270F
  8
ALPHA
 10
1405.480428
 20
93.200412
 30
0.0
  0
VERTEX
  5
22710
  8
ALPHA
 10
1405.507141
 20
93.02526
 30
0.0
  0
VERTEX
  5
22711
  8
ALPHA
 10
1405.528478
 20
92.840294
 30
0.0
  0
VERTEX
  5
22712
  8
ALPHA
 10
1405.543049
 20
92.66076
 30
0.0
  0
VERTEX
  5
22713
  8
ALPHA
 10
1405.55078
 20
92.49224
 30
0.0
  0
VERTEX
  5
22714
  8
ALPHA
 10
1405.551439
 20
92.341442
 30
0.0
  0
VERTEX
  5
22715
  8
ALPHA
 10
1405.545018
 20
92.217241
 30
0.0
  0
SEQEND
  5
22716
  8
ALPHA
  0
POLYLINE
  5
1EC03
  8
ALPHA
 66
     1
 10
0.0
 20
0.0
 30
0.0
  0
VERTEX
  5
22717
  8
ALPHA
 10
1405.425886
 20
92.162838
 30
0.0
  0
VERTEX
  5
22718
  8
ALPHA
 10
1405.41211
 20
92.197393
 30
0.0
  0
VERTEX
  5
22719
  8
ALPHA
 10
1405.401909
 20
92.210166
 30
0.0
  0
VERTEX
  5
2271A
  8
ALPHA
 10
1405.400999
 20
92.210289
 30
0.0
  0
SEQEND
  5
2271B
  8
ALPHA
  0
LINE
  5
1EC09
  8
ALPHA
 10
1406.472073
 20
88.696758
 30
0.0
 11
1406.828495
 21
88.023432
 31
0.0
  0
LINE
  5
1EC0A
  8
ALPHA
 10
1406.828495
 20
99.887664
 30
0.0
 11
1406.476207
 21
99.222778
 31
0.0
  0
POLYLINE
  5
1EC0B
  8
ALPHA
 66
     1
 10
0.0
 20
0.0
 30
0.0
  0
VERTEX
  5
2271C
  8
ALPHA
 10
1406.476207
 20
99.222778
 30
0.0
  0
VERTEX
  5
2271D
  8
ALPHA
 10
1406.193447
 20
98.601781
 30
0.0
  0
VERTEX
  5
2271E
  8
ALPHA
 10
1405.968379
 20
98.026546
 30
0.0
  0
VERTEX
  5
2271F
  8
ALPHA
 10
1405.790547
 20
97.496637
 30
0.0
  0
VERTEX
  5
22720
  8
ALPHA
 10
1405.651262
 20
97.011
 30
0.0
  0
VERTEX
  5
22721
  8
ALPHA
 10
1405.542933
 20
96.566569
 30
0.0
  0
VERTEX
  5
22722
  8
ALPHA
 10
1405.459324
 20
96.159564
 30
0.0
  0
VERTEX
  5
22723
  8
ALPHA
 10
1405.395634
 20
95.786079
 30
0.0
  0
SEQEND
  5
22724
  8
ALPHA
  0
POLYLINE
  5
1EC15
  8
ALPHA
 66
     1
 10
0.0
 20
0.0
 30
0.0
  0
VERTEX
  5
22725
  8
ALPHA
 10
1405.532006
 20
92.268093
 30
0.0
  0
VERTEX
  5
22726
  8
ALPHA
 10
1405.537084
 20
92.290989
 30
0.0
  0
VERTEX
  5
22727
  8
ALPHA
 10
1405.548062
 20
92.404999
 30
0.0
  0
VERTEX
  5
22728
  8
ALPHA
 10
1405.550544
 20
92.497385
 30
0.0
  0
SEQEND
  5
22729
  8
ALPHA
  0
POLYLINE
  5
1EC1B
  8
ALPHA
 66
     1
 10
0.0
 20
0.0
 30
0.0
  0
VERTEX
  5
2272A
  8
ALPHA
 10
1405.545018
 20
92.217241
 30
0.0
  0
VERTEX
  5
2272B
  8
ALPHA
 10
1405.531843
 20
92.125196
 30
0.0
  0
VERTEX
  5
2272C
  8
ALPHA
 10
1405.512309
 20
92.070037
 30
0.0
  0
VERTEX
  5
2272D
  8
ALPHA
 10
1405.492392
 20
92.055758
 30
0.0
  0
SEQEND
  5
2272E
  8
ALPHA
  0
POLYLINE
  5
1EC21
  8
ALPHA
 66
     1
 10
0.0
 20
0.0
 30
0.0
  0
VERTEX
  5
2272F
  8
ALPHA
 10
1405.393489
 20
92.225689
 30
0.0
  0
VERTEX
  5
22730
  8
ALPHA
 10
1405.397823
 20
92.256553
 30
0.0
  0
VERTEX
  5
22731
  8
ALPHA
 10
1405.40701
 20
92.268093
 30
0.0
  0
SEQEND
  5
22732
  8
ALPHA
  0
POLYLINE
  5
1EC26
  8
ALPHA
 66
     1
 10
0.0
 20
0.0
 30
0.0
  0
VERTEX
  5
22733
  8
ALPHA
 10
1405.395609
 20
92.202816
 30
0.0
  0
VERTEX
  5
22734
  8
ALPHA
 10
1405.392964
 20
92.17678
 30
0.0
  0
VERTEX
  5
22735
  8
ALPHA
 10
1405.394151
 20
92.133355
 30
0.0
  0
SEQEND
  5
22736
  8
ALPHA
  0
POLYLINE
  5
1EC2B
  8
ALPHA
 66
     1
 10
0.0
 20
0.0
 30
0.0
  0
VERTEX
  5
22737
  8
ALPHA
 10
1405.395444
 20
95.786111
 30
0.0
  0
VERTEX
  5
22738
  8
ALPHA
 10
1405.392894
 20
95.707858
 30
0.0
  0
VERTEX
  5
22739
  8
ALPHA
 10
1405.395637
 20
95.648422
 30
0.0
  0
VERTEX
  5
2273A
  8
ALPHA
 10
1405.403809
 20
95.608299
 30
0.0
  0
VERTEX
  5
2273B
  8
ALPHA
 10
1405.417591
 20
95.589736
 30
0.0
  0
VERTEX
  5
2273C
  8
ALPHA
 10
1405.422651
 20
95.588689
 30
0.0
  0
SEQEND
  5
2273D
  8
ALPHA
  0
LINE
  5
1EC33
  8
ALPHA
 10
1405.393337
 20
92.180453
 30
0.0
 11
1405.393489
 21
92.225689
 31
0.0
  0
LINE
  5
1EC34
  8
ALPHA
 10
1407.4208
 20
88.023432
 30
0.0
 11
1407.4208
 21
87.955589
 31
0.0
  0
LINE
  5
1EC35
  8
ALPHA
 10
1407.4208
 20
99.955506
 30
0.0
 11
1407.4208
 21
99.887664
 31
0.0
  0
LINE
  5
1EC36
  8
ALPHA
 10
1406.828495
 20
88.023432
 30
0.0
 11
1406.828495
 21
99.887664
 31
0.0
  0
ARC
  5
1EC37
  8
ALPHA
 10
1417.916893
 20
131.855994
 30
0.0
 40
0.225738
 50
64.055271
 51
172.871056
  0
ARC
  5
1EC38
  8
ALPHA
 10
1417.3208
 20
131.930548
 30
0.0
 40
0.375
 50
190.240209
 51
352.871056
  0
ARC
  5
1EC39
  8
ALPHA
 10
1416.660105
 20
131.811191
 30
0.0
 40
0.296389
 50
10.240209
 51
109.759791
  0
CIRCLE
  5
1EC3A
  8
ALPHA
 10
1417.3208
 20
132.955548
 30
0.0
 40
4.0
  0
ARC
  5
1EC3B
  8
ALPHA
 10
1416.650886
 20
134.19554
 30
0.0
 40
0.384385
 50
253.335852
 51
348.196726
  0
ARC
  5
1EC3C
  8
ALPHA
 10
1417.3208
 20
134.055548
 30
0.0
 40
0.3
 50
15.033707
 51
168.196726
  0
ARC
  5
1EC3D
  8
ALPHA
 10
1418.072437
 20
134.257422
 30
0.0
 40
0.478275
 50
195.033707
 51
284.966293
  0
ARC
  5
1EC3E
  8
ALPHA
 10
1418.273428
 20
133.505548
 30
0.0
 40
0.3
 50
315.033707
 51
104.966293
  0
ARC
  5
1EC3F
  8
ALPHA
 10
1418.824075
 20
132.955548
 30
0.0
 40
0.478275
 50
135.033707
 51
220.960938
  0
ARC
  5
1EC40
  8
ALPHA
 10
1418.179719
 20
132.396188
 30
0.0
 40
0.375
 50
244.055271
 51
40.960938
  0
ARC
  5
1EC41
  8
ALPHA
 10
1416.433124
 20
133.468048
 30
0.0
 40
0.375
 50
73.335852
 51
229.759791
  0
ARC
  5
1EC42
  8
ALPHA
 10
1416.433124
 20
132.443048
 30
0.0
 40
0.375
 50
130.240209
 51
289.759791
  0
ARC
  5
1EC43
  8
ALPHA
 10
1415.999411
 20
132.955548
 30
0.0
 40
0.296389
 50
310.240209
 51
49.759791
  0
LINE
  5
1EC44
  8
ALPHA
 10
1409.8208
 20
114.605548
 30
0.0
 11
1412.8208
 21
114.605548
 31
0.0
  0
LINE
  5
1EC45
  8
ALPHA
 10
1409.822332
 20
112.605548
 30
0.0
 11
1412.8208
 21
112.605548
 31
0.0
  0
LINE
  5
1EC46
  8
ALPHA
 10
1417.8208
 20
133.850697
 30
0.0
 11
1417.8208
 21
136.924175
 31
0.0
  0
LINE
  5
1EC47
  8
ALPHA
 10
1417.8208
 20
128.986921
 30
0.0
 11
1417.8208
 21
132.060258
 31
0.0
  0
LINE
  5
1EC48
  8
ALPHA
 10
1416.8208
 20
132.060237
 30
0.0
 11
1416.8208
 21
128.986921
 31
0.0
  0
LINE
  5
1EC49
  8
ALPHA
 10
1416.8208
 20
136.924175
 30
0.0
 11
1416.8208
 21
133.850749
 31
0.0
  0
LINE
  5
1EC4A
  8
ALPHA
 10
1412.8208
 20
112.605548
 30
0.0
 11
1412.8208
 21
114.605548
 31
0.0
  0
ARC
  5
1EC4B
  8
ALPHA
 10
1417.916893
 20
302.855994
 30
0.0
 40
0.225738
 50
64.055271
 51
172.871056
  0
ARC
  5
1EC4C
  8
ALPHA
 10
1417.3208
 20
302.930548
 30
0.0
 40
0.375
 50
190.240209
 51
352.871056
  0
ARC
  5
1EC4D
  8
ALPHA
 10
1416.660105
 20
302.811191
 30
0.0
 40
0.296389
 50
10.240209
 51
109.759791
  0
CIRCLE
  5
1EC4E
  8
ALPHA
 10
1417.3208
 20
303.955548
 30
0.0
 40
4.0
  0
ARC
  5
1EC4F
  8
ALPHA
 10
1416.650886
 20
305.19554
 30
0.0
 40
0.384385
 50
253.335852
 51
348.196726
  0
ARC
  5
1EC50
  8
ALPHA
 10
1417.3208
 20
305.055548
 30
0.0
 40
0.3
 50
15.033707
 51
168.196726
  0
ARC
  5
1EC51
  8
ALPHA
 10
1418.072437
 20
305.257422
 30
0.0
 40
0.478275
 50
195.033707
 51
284.966293
  0
ARC
  5
1EC52
  8
ALPHA
 10
1418.273428
 20
304.505548
 30
0.0
 40
0.3
 50
315.033707
 51
104.966293
  0
ARC
  5
1EC53
  8
ALPHA
 10
1418.824075
 20
303.955548
 30
0.0
 40
0.478275
 50
135.033707
 51
220.960938
  0
ARC
  5
1EC54
  8
ALPHA
 10
1418.179719
 20
303.396188
 30
0.0
 40
0.375
 50
244.055271
 51
40.960938
  0
ARC
  5
1EC55
  8
ALPHA
 10
1416.433124
 20
304.468048
 30
0.0
 40
0.375
 50
73.335852
 51
229.759791
  0
ARC
  5
1EC56
  8
ALPHA
 10
1416.433124
 20
303.443048
 30
0.0
 40
0.375
 50
130.240209
 51
289.759791
  0
ARC
  5
1EC57
  8
ALPHA
 10
1415.999411
 20
303.955548
 30
0.0
 40
0.296389
 50
310.240209
 51
49.759791
  0
LINE
  5
1EC58
  8
ALPHA
 10
1407.4208
 20
288.955548
 30
0.0
 11
1409.8208
 21
288.955548
 31
0.0
  0
LINE
  5
1EC59
  8
ALPHA
 10
1406.828495
 20
288.887664
 30
0.0
 11
1407.4208
 21
288.887664
 31
0.0
  0
LINE
  5
1EC5A
  8
ALPHA
 10
1405.464361
 20
284.628802
 30
0.0
 11
1405.51963
 21
284.628802
 31
0.0
  0
LINE
  5
1EC5B
  8
ALPHA
 10
1405.533458
 20
284.588689
 30
0.0
 11
1405.423301
 21
284.588689
 31
0.0
  0
LINE
  5
1EC5C
  8
ALPHA
 10
1405.547647
 20
281.268093
 30
0.0
 11
1405.4071
 21
281.268093
 31
0.0
  0
LINE
  5
1EC5D
  8
ALPHA
 10
1405.544023
 20
281.210289
 30
0.0
 11
1405.401194
 21
281.210289
 31
0.0
  0
LINE
  5
1EC5E
  8
ALPHA
 10
1405.425886
 20
281.162838
 30
0.0
 11
1405.537231
 21
281.162838
 31
0.0
  0
LINE
  5
1EC5F
  8
ALPHA
 10
1406.828495
 20
277.023432
 30
0.0
 11
1407.4208
 21
277.023432
 31
0.0
  0
LINE
  5
1EC60
  8
ALPHA
 10
1407.4208
 20
276.955548
 30
0.0
 11
1409.8208
 21
276.955548
 31
0.0
  0
POLYLINE
  5
1EC61
  8
ALPHA
 66
     1
 10
0.0
 20
0.0
 30
0.0
  0
VERTEX
  5
2273E
  8
ALPHA
 10
1405.492392
 20
281.055758
 30
0.0
  0
VERTEX
  5
2273F
  8
ALPHA
 10
1405.486747
 20
281.056727
 30
0.0
  0
VERTEX
  5
22740
  8
ALPHA
 10
1405.45709
 20
281.088892
 30
0.0
  0
VERTEX
  5
22741
  8
ALPHA
 10
1405.425886
 20
281.162838
 30
0.0
  0
SEQEND
  5
22742
  8
ALPHA
  0
POLYLINE
  5
1EC67
  8
ALPHA
 66
     1
 10
0.0
 20
0.0
 30
0.0
  0
VERTEX
  5
22743
  8
ALPHA
 10
1405.495571
 20
284.655548
 30
0.0
  0
VERTEX
  5
22744
  8
ALPHA
 10
1405.513481
 20
284.644136
 30
0.0
  0
VERTEX
  5
22745
  8
ALPHA
 10
1405.531857
 20
284.598311
 30
0.0
  0
SEQEND
  5
22746
  8
ALPHA
  0
LINE
  5
1EC6C
  8
ALPHA
 10
1406.472073
 20
277.696758
 30
0.0
 11
1406.828495
 21
277.023432
 31
0.0
  0
POLYLINE
  5
1EC6D
  8
ALPHA
 66
     1
 10
0.0
 20
0.0
 30
0.0
  0
VERTEX
  5
22747
  8
ALPHA
 10
1405.425886
 20
281.162838
 30
0.0
  0
VERTEX
  5
22748
  8
ALPHA
 10
1405.41211
 20
281.197393
 30
0.0
  0
VERTEX
  5
22749
  8
ALPHA
 10
1405.401909
 20
281.210166
 30
0.0
  0
VERTEX
  5
2274A
  8
ALPHA
 10
1405.400999
 20
281.210289
 30
0.0
  0
SEQEND
  5
2274B
  8
ALPHA
  0
POLYLINE
  5
1EC73
  8
ALPHA
 66
     1
 10
0.0
 20
0.0
 30
0.0
  0
VERTEX
  5
2274C
  8
ALPHA
 10
1405.531857
 20
284.598311
 30
0.0
  0
VERTEX
  5
2274D
  8
ALPHA
 10
1405.544425
 20
284.522777
 30
0.0
  0
VERTEX
  5
2274E
  8
ALPHA
 10
1405.551153
 20
284.418088
 30
0.0
  0
VERTEX
  5
2274F
  8
ALPHA
 10
1405.55118
 20
284.289385
 30
0.0
  0
VERTEX
  5
22750
  8
ALPHA
 10
1405.544478
 20
284.148699
 30
0.0
  0
VERTEX
  5
22751
  8
ALPHA
 10
1405.531875
 20
284.005817
 30
0.0
  0
VERTEX
  5
22752
  8
ALPHA
 10
1405.513353
 20
283.86126
 30
0.0
  0
VERTEX
  5
22753
  8
ALPHA
 10
1405.490139
 20
283.727281
 30
0.0
  0
VERTEX
  5
22754
  8
ALPHA
 10
1405.464361
 20
283.61551
 30
0.0
  0
SEQEND
  5
22755
  8
ALPHA
  0
POLYLINE
  5
1EC7E
  8
ALPHA
 66
     1
 10
0.0
 20
0.0
 30
0.0
  0
VERTEX
  5
22756
  8
ALPHA
 10
1405.394151
 20
281.133355
 30
0.0
  0
VERTEX
  5
22757
  8
ALPHA
 10
1405.456073
 20
280.768952
 30
0.0
  0
VERTEX
  5
22758
  8
ALPHA
 10
1405.537845
 20
280.367388
 30
0.0
  0
VERTEX
  5
22759
  8
ALPHA
 10
1405.644673
 20
279.925154
 30
0.0
  0
VERTEX
  5
2275A
  8
ALPHA
 10
1405.783026
 20
279.438825
 30
0.0
  0
VERTEX
  5
2275B
  8
ALPHA
 10
1405.960769
 20
278.905644
 30
0.0
  0
VERTEX
  5
2275C
  8
ALPHA
 10
1406.186875
 20
278.324942
 30
0.0
  0
VERTEX
  5
2275D
  8
ALPHA
 10
1406.472073
 20
277.696758
 30
0.0
  0
SEQEND
  5
2275E
  8
ALPHA
  0
POLYLINE
  5
1EC88
  8
ALPHA
 66
     1
 10
0.0
 20
0.0
 30
0.0
  0
VERTEX
  5
2275F
  8
ALPHA
 10
1405.450681
 20
282.351222
 30
0.0
  0
VERTEX
  5
22760
  8
ALPHA
 10
1405.426281
 20
282.481756
 30
0.0
  0
VERTEX
  5
22761
  8
ALPHA
 10
1405.409114
 20
282.618385
 30
0.0
  0
VERTEX
  5
22762
  8
ALPHA
 10
1405.398084
 20
282.762338
 30
0.0
  0
VERTEX
  5
22763
  8
ALPHA
 10
1405.393146
 20
282.912685
 30
0.0
  0
VERTEX
  5
22764
  8
ALPHA
 10
1405.394538
 20
283.06477
 30
0.0
  0
VERTEX
  5
22765
  8
ALPHA
 10
1405.402176
 20
283.212698
 30
0.0
  0
VERTEX
  5
22766
  8
ALPHA
 10
1405.415858
 20
283.353504
 30
0.0
  0
VERTEX
  5
22767
  8
ALPHA
 10
1405.436015
 20
283.487499
 30
0.0
  0
VERTEX
  5
22768
  8
ALPHA
 10
1405.464361
 20
283.61551
 30
0.0
  0
SEQEND
  5
22769
  8
ALPHA
  0
POLYLINE
  5
1EC94
  8
ALPHA
 66
     1
 10
0.0
 20
0.0
 30
0.0
  0
VERTEX
  5
2276A
  8
ALPHA
 10
1405.450681
 20
282.351222
 30
0.0
  0
VERTEX
  5
2276B
  8
ALPHA
 10
1405.480428
 20
282.200412
 30
0.0
  0
VERTEX
  5
2276C
  8
ALPHA
 10
1405.507141
 20
282.02526
 30
0.0
  0
VERTEX
  5
2276D
  8
ALPHA
 10
1405.528478
 20
281.840294
 30
0.0
  0
VERTEX
  5
2276E
  8
ALPHA
 10
1405.543049
 20
281.66076
 30
0.0
  0
VERTEX
  5
2276F
  8
ALPHA
 10
1405.55078
 20
281.49224
 30
0.0
  0
VERTEX
  5
22770
  8
ALPHA
 10
1405.551439
 20
281.341442
 30
0.0
  0
VERTEX
  5
22771
  8
ALPHA
 10
1405.545018
 20
281.217241
 30
0.0
  0
SEQEND
  5
22772
  8
ALPHA
  0
LINE
  5
1EC9E
  8
ALPHA
 10
1405.393337
 20
281.180453
 30
0.0
 11
1405.393489
 21
281.225689
 31
0.0
  0
LINE
  5
1EC9F
  8
ALPHA
 10
1417.8208
 20
304.850697
 30
0.0
 11
1417.8208
 21
307.924175
 31
0.0
  0
LINE
  5
1ECA0
  8
ALPHA
 10
1417.8208
 20
299.986921
 30
0.0
 11
1417.8208
 21
303.060258
 31
0.0
  0
LINE
  5
1ECA1
  8
ALPHA
 10
1416.8208
 20
303.060237
 30
0.0
 11
1416.8208
 21
299.986921
 31
0.0
  0
LINE
  5
1ECA2
  8
ALPHA
 10
1416.8208
 20
307.924175
 30
0.0
 11
1416.8208
 21
304.850749
 31
0.0
  0
LINE
  5
1ECA3
  8
ALPHA
 10
1407.4208
 20
277.023432
 30
0.0
 11
1407.4208
 21
276.955589
 31
0.0
  0
LINE
  5
1ECA4
  8
ALPHA
 10
1407.4208
 20
288.955506
 30
0.0
 11
1407.4208
 21
288.887664
 31
0.0
  0
LINE
  5
1ECA5
  8
ALPHA
 10
1406.828495
 20
277.023432
 30
0.0
 11
1406.828495
 21
288.887664
 31
0.0
  0
POLYLINE
  5
1ECA6
  8
ALPHA
 66
     1
 10
0.0
 20
0.0
 30
0.0
  0
VERTEX
  5
22773
  8
ALPHA
 10
1405.545018
 20
281.217241
 30
0.0
  0
VERTEX
  5
22774
  8
ALPHA
 10
1405.531843
 20
281.125196
 30
0.0
  0
VERTEX
  5
22775
  8
ALPHA
 10
1405.512309
 20
281.070037
 30
0.0
  0
VERTEX
  5
22776
  8
ALPHA
 10
1405.492392
 20
281.055758
 30
0.0
  0
SEQEND
  5
22777
  8
ALPHA
  0
POLYLINE
  5
1ECAC
  8
ALPHA
 66
     1
 10
0.0
 20
0.0
 30
0.0
  0
VERTEX
  5
22778
  8
ALPHA
 10
1405.393489
 20
281.225689
 30
0.0
  0
VERTEX
  5
22779
  8
ALPHA
 10
1405.397823
 20
281.256553
 30
0.0
  0
VERTEX
  5
2277A
  8
ALPHA
 10
1405.40701
 20
281.268093
 30
0.0
  0
SEQEND
  5
2277B
  8
ALPHA
  0
POLYLINE
  5
1ECB1
  8
ALPHA
 66
     1
 10
0.0
 20
0.0
 30
0.0
  0
VERTEX
  5
2277C
  8
ALPHA
 10
1405.395609
 20
281.202816
 30
0.0
  0
VERTEX
  5
2277D
  8
ALPHA
 10
1405.392964
 20
281.17678
 30
0.0
  0
VERTEX
  5
2277E
  8
ALPHA
 10
1405.394151
 20
281.133355
 30
0.0
  0
SEQEND
  5
2277F
  8
ALPHA
  0
POLYLINE
  5
1ECB6
  8
ALPHA
 66
     1
 10
0.0
 20
0.0
 30
0.0
  0
VERTEX
  5
22780
  8
ALPHA
 10
1405.395444
 20
284.786111
 30
0.0
  0
VERTEX
  5
22781
  8
ALPHA
 10
1405.392894
 20
284.707858
 30
0.0
  0
VERTEX
  5
22782
  8
ALPHA
 10
1405.395637
 20
284.648422
 30
0.0
  0
VERTEX
  5
22783
  8
ALPHA
 10
1405.403809
 20
284.608299
 30
0.0
  0
VERTEX
  5
22784
  8
ALPHA
 10
1405.417591
 20
284.589736
 30
0.0
  0
VERTEX
  5
22785
  8
ALPHA
 10
1405.422651
 20
284.588689
 30
0.0
  0
SEQEND
  5
22786
  8
ALPHA
  0
POLYLINE
  5
1ECBE
  8
ALPHA
 66
     1
 10
0.0
 20
0.0
 30
0.0
  0
VERTEX
  5
22787
  8
ALPHA
 10
1405.422651
 20
284.588689
 30
0.0
  0
VERTEX
  5
22788
  8
ALPHA
 10
1405.437586
 20
284.595233
 30
0.0
  0
VERTEX
  5
22789
  8
ALPHA
 10
1405.464361
 20
284.628802
 30
0.0
  0
SEQEND
  5
2278A
  8
ALPHA
  0
POLYLINE
  5
1ECC3
  8
ALPHA
 66
     1
 10
0.0
 20
0.0
 30
0.0
  0
VERTEX
  5
2278B
  8
ALPHA
 10
1405.532006
 20
281.268093
 30
0.0
  0
VERTEX
  5
2278C
  8
ALPHA
 10
1405.537084
 20
281.290989
 30
0.0
  0
VERTEX
  5
2278D
  8
ALPHA
 10
1405.548062
 20
281.404999
 30
0.0
  0
VERTEX
  5
2278E
  8
ALPHA
 10
1405.550544
 20
281.497385
 30
0.0
  0
SEQEND
  5
2278F
  8
ALPHA
  0
POLYLINE
  5
1ECC9
  8
ALPHA
 66
     1
 10
0.0
 20
0.0
 30
0.0
  0
VERTEX
  5
22790
  8
ALPHA
 10
1405.464361
 20
284.628802
 30
0.0
  0
VERTEX
  5
22791
  8
ALPHA
 10
1405.490312
 20
284.654686
 30
0.0
  0
VERTEX
  5
22792
  8
ALPHA
 10
1405.495571
 20
284.655548
 30
0.0
  0
SEQEND
  5
22793
  8
ALPHA
  0
LINE
  5
1ECCE
  8
ALPHA
 10
1405.400999
 20
281.210289
 30
0.0
 11
1405.395609
 21
281.202816
 31
0.0
  0
LINE
  5
1ECCF
  8
ALPHA
 10
1406.828495
 20
288.887664
 30
0.0
 11
1406.476207
 21
288.222778
 31
0.0
  0
POLYLINE
  5
1ECD0
  8
ALPHA
 66
     1
 10
0.0
 20
0.0
 30
0.0
  0
VERTEX
  5
22794
  8
ALPHA
 10
1406.476207
 20
288.222778
 30
0.0
  0
VERTEX
  5
22795
  8
ALPHA
 10
1406.193447
 20
287.601781
 30
0.0
  0
VERTEX
  5
22796
  8
ALPHA
 10
1405.968379
 20
287.026546
 30
0.0
  0
VERTEX
  5
22797
  8
ALPHA
 10
1405.790547
 20
286.496637
 30
0.0
  0
VERTEX
  5
22798
  8
ALPHA
 10
1405.651262
 20
286.011
 30
0.0
  0
VERTEX
  5
22799
  8
ALPHA
 10
1405.542933
 20
285.566569
 30
0.0
  0
VERTEX
  5
2279A
  8
ALPHA
 10
1405.459324
 20
285.159564
 30
0.0
  0
VERTEX
  5
2279B
  8
ALPHA
 10
1405.395634
 20
284.786079
 30
0.0
  0
SEQEND
  5
2279C
  8
ALPHA
  0
LINE
  5
1ECDA
  8
ALPHA
 10
1409.822332
 20
323.805548
 30
0.0
 11
1412.8208
 21
323.805548
 31
0.0
  0
LINE
  5
1ECDB
  8
ALPHA
 10
1409.8208
 20
321.805548
 30
0.0
 11
1412.8208
 21
321.805548
 31
0.0
  0
LINE
  5
1ECDC
  8
ALPHA
 10
1412.8208
 20
321.805548
 30
0.0
 11
1412.8208
 21
323.805548
 31
0.0
  0
LINE
  5
1ECDD
  8
ALPHA
 10
1412.8208
 20
322.305548
 30
0.0
 11
1412.3208
 21
321.805548
 31
0.0
  0
LINE
  5
1ECDE
  8
ALPHA
 10
1591.6008
 20
223.095548
 30
0.0
 11
1591.6008
 21
210.295548
 31
0.0
  0
LINE
  5
1ECDF
  8
ALPHA
 10
1590.0208
 20
208.475394
 30
0.0
 11
1590.0208
 21
224.885701
 31
0.0
  0
LINE
  5
1ECE0
  8
ALPHA
 10
1585.179996
 20
203.63459
 30
0.0
 11
1585.179996
 21
229.726505
 31
0.0
  0
LINE
  5
1ECE1
  8
ALPHA
 10
1585.1208
 20
203.105548
 30
0.0
 11
1585.1208
 21
230.255548
 31
0.0
  0
LINE
  5
1ECE2
  8
ALPHA
 10
1566.5708
 20
192.128032
 30
0.0
 11
1566.5708
 21
235.505548
 31
0.0
  0
LINE
  5
1ECE3
  8
ALPHA
 10
1566.3208
 20
235.755548
 30
0.0
 11
1566.3208
 21
192.26226
 31
0.0
  0
LINE
  5
1ECE4
  8
ALPHA
 10
1565.8208
 20
192.230806
 30
0.0
 11
1565.8208
 21
315.243266
 31
0.0
  0
LINE
  5
1ECE5
  8
ALPHA
 10
1565.544746
 20
192.212992
 30
0.0
 11
1565.544746
 21
315.277449
 31
0.0
  0
POLYLINE
  5
1ECE6
  8
ALPHA
 66
     1
 10
0.0
 20
0.0
 30
0.0
  0
VERTEX
  5
2279D
  8
ALPHA
 10
1530.196956
 20
209.155548
 30
0.0
  0
VERTEX
  5
2279E
  8
ALPHA
 10
1530.20676
 20
209.268747
 30
0.0
  0
VERTEX
  5
2279F
  8
ALPHA
 10
1530.214995
 20
209.588461
 30
0.0
  0
VERTEX
  5
227A0
  8
ALPHA
 10
1530.220389
 20
210.057615
 30
0.0
  0
VERTEX
  5
227A1
  8
ALPHA
 10
1530.222266
 20
210.605548
 30
0.0
  0
VERTEX
  5
227A2
  8
ALPHA
 10
1530.220389
 20
211.15348
 30
0.0
  0
VERTEX
  5
227A3
  8
ALPHA
 10
1530.214995
 20
211.622634
 30
0.0
  0
VERTEX
  5
227A4
  8
ALPHA
 10
1530.20676
 20
211.942348
 30
0.0
  0
VERTEX
  5
227A5
  8
ALPHA
 10
1530.196956
 20
212.055548
 30
0.0
  0
SEQEND
  5
227A6
  8
ALPHA
  0
POLYLINE
  5
1ECF1
  8
ALPHA
 66
     1
 10
0.0
 20
0.0
 30
0.0
  0
VERTEX
  5
227A7
  8
ALPHA
 10
1529.91593
 20
212.055548
 30
0.0
  0
VERTEX
  5
227A8
  8
ALPHA
 10
1529.906126
 20
211.942348
 30
0.0
  0
VERTEX
  5
227A9
  8
ALPHA
 10
1529.897891
 20
211.622634
 30
0.0
  0
VERTEX
  5
227AA
  8
ALPHA
 10
1529.892497
 20
211.153479
 30
0.0
  0
VERTEX
  5
227AB
  8
ALPHA
 10
1529.89062
 20
210.605547
 30
0.0
  0
VERTEX
  5
227AC
  8
ALPHA
 10
1529.892497
 20
210.057615
 30
0.0
  0
VERTEX
  5
227AD
  8
ALPHA
 10
1529.897891
 20
209.588461
 30
0.0
  0
VERTEX
  5
227AE
  8
ALPHA
 10
1529.906126
 20
209.268747
 30
0.0
  0
VERTEX
  5
227AF
  8
ALPHA
 10
1529.91593
 20
209.155548
 30
0.0
  0
SEQEND
  5
227B0
  8
ALPHA
  0
LINE
  5
1ECFC
  8
ALPHA
 10
1531.540941
 20
315.350567
 30
0.0
 11
1531.540941
 21
130.755571
 31
0.0
  0
LINE
  5
1ECFD
  8
ALPHA
 10
1530.276009
 20
315.350567
 30
0.0
 11
1530.276009
 21
130.755571
 31
0.0
  0
LINE
  5
1ECFE
  8
ALPHA
 10
1529.8208
 20
127.305548
 30
0.0
 11
1529.8208
 21
315.805776
 31
0.0
  0
LINE
  5
1ECFF
  8
ALPHA
 10
1528.8208
 20
318.305548
 30
0.0
 11
1528.8208
 21
127.305548
 31
0.0
  0
LINE
  5
1ED00
  8
ALPHA
 10
1530.196956
 20
144.618431
 30
0.0
 11
1529.91593
 21
144.618431
 31
0.0
  0
LINE
  5
1ED01
  8
ALPHA
 10
1529.91593
 20
141.592665
 30
0.0
 11
1530.196956
 21
141.592665
 31
0.0
  0
LINE
  5
1ED02
  8
ALPHA
 10
1529.91593
 20
137.160363
 30
0.0
 11
1530.196956
 21
137.160363
 31
0.0
  0
LINE
  5
1ED03
  8
ALPHA
 10
1530.196956
 20
134.050732
 30
0.0
 11
1529.91593
 21
134.050732
 31
0.0
  0
LINE
  5
1ED04
  8
ALPHA
 10
1531.540941
 20
130.755571
 30
0.0
 11
1530.276009
 21
130.755571
 31
0.0
  0
LINE
  5
1ED05
  8
ALPHA
 10
1535.471241
 20
129.209615
 30
0.0
 11
1531.729597
 21
129.209615
 31
0.0
  0
LINE
  5
1ED06
  8
ALPHA
 10
1535.199808
 20
129.031039
 30
0.0
 11
1531.703686
 21
129.031039
 31
0.0
  0
POLYLINE
  5
1ED07
  8
ALPHA
 66
     1
 10
0.0
 20
0.0
 30
0.0
  0
VERTEX
  5
227B1
  8
ALPHA
 10
1535.471241
 20
129.209615
 30
0.0
  0
VERTEX
  5
227B2
  8
ALPHA
 10
1535.895013
 20
129.215872
 30
0.0
  0
VERTEX
  5
227B3
  8
ALPHA
 10
1536.405629
 20
129.219878
 30
0.0
  0
VERTEX
  5
227B4
  8
ALPHA
 10
1536.962208
 20
129.221257
 30
0.0
  0
SEQEND
  5
227B5
  8
ALPHA
  0
POLYLINE
  5
1ED0D
  8
ALPHA
 66
     1
 10
0.0
 20
0.0
 30
0.0
  0
VERTEX
  5
227B6
  8
ALPHA
 10
1535.471241
 20
129.209615
 30
0.0
  0
VERTEX
  5
227B7
  8
ALPHA
 10
1535.354365
 20
129.187184
 30
0.0
  0
VERTEX
  5
227B8
  8
ALPHA
 10
1535.263829
 20
129.125829
 30
0.0
  0
VERTEX
  5
227B9
  8
ALPHA
 10
1535.199808
 20
129.031039
 30
0.0
  0
SEQEND
  5
227BA
  8
ALPHA
  0
POLYLINE
  5
1ED13
  8
ALPHA
 66
     1
 10
0.0
 20
0.0
 30
0.0
  0
VERTEX
  5
227BB
  8
ALPHA
 10
1531.775781
 20
129.255799
 30
0.0
  0
VERTEX
  5
227BC
  8
ALPHA
 10
1531.201948
 20
129.370094
 30
0.0
  0
VERTEX
  5
227BD
  8
ALPHA
 10
1530.715443
 20
129.695234
 30
0.0
  0
VERTEX
  5
227BE
  8
ALPHA
 10
1530.390303
 20
130.181739
 30
0.0
  0
VERTEX
  5
227BF
  8
ALPHA
 10
1530.276009
 20
130.755571
 30
0.0
  0
SEQEND
  5
227C0
  8
ALPHA
  0
POLYLINE
  5
1ED1A
  8
ALPHA
 66
     1
 10
0.0
 20
0.0
 30
0.0
  0
VERTEX
  5
227C1
  8
ALPHA
 10
1531.729597
 20
129.209615
 30
0.0
  0
VERTEX
  5
227C2
  8
ALPHA
 10
1531.155764
 20
129.32391
 30
0.0
  0
VERTEX
  5
227C3
  8
ALPHA
 10
1530.669259
 20
129.64905
 30
0.0
  0
VERTEX
  5
227C4
  8
ALPHA
 10
1530.344119
 20
130.135555
 30
0.0
  0
VERTEX
  5
227C5
  8
ALPHA
 10
1530.229825
 20
130.709387
 30
0.0
  0
SEQEND
  5
227C6
  8
ALPHA
  0
POLYLINE
  5
1ED21
  8
ALPHA
 66
     1
 10
0.0
 20
0.0
 30
0.0
  0
VERTEX
  5
227C7
  8
ALPHA
 10
1531.703686
 20
129.031039
 30
0.0
  0
VERTEX
  5
227C8
  8
ALPHA
 10
1531.134229
 20
129.110425
 30
0.0
  0
VERTEX
  5
227C9
  8
ALPHA
 10
1530.650049
 20
129.326831
 30
0.0
  0
VERTEX
  5
227CA
  8
ALPHA
 10
1530.323651
 20
129.647848
 30
0.0
  0
VERTEX
  5
227CB
  8
ALPHA
 10
1530.203914
 20
130.025404
 30
0.0
  0
SEQEND
  5
227CC
  8
ALPHA
  0
LINE
  5
1ED28
  8
ALPHA
 10
1535.9708
 20
129.216466
 30
0.0
 11
1535.9708
 21
127.305548
 31
0.0
  0
LINE
  5
1ED29
  8
ALPHA
 10
1531.775782
 20
129.255801
 30
0.0
 11
1531.729597
 21
129.209615
 31
0.0
  0
LINE
  5
1ED2A
  8
ALPHA
 10
1530.276009
 20
130.755571
 30
0.0
 11
1530.229825
 21
130.709387
 31
0.0
  0
POLYLINE
  5
1ED2B
  8
ALPHA
 66
     1
 10
0.0
 20
0.0
 30
0.0
  0
VERTEX
  5
227CD
  8
ALPHA
 10
1531.729597
 20
129.209615
 30
0.0
  0
VERTEX
  5
227CE
  8
ALPHA
 10
1531.719933
 20
129.186987
 30
0.0
  0
VERTEX
  5
227CF
  8
ALPHA
 10
1531.711116
 20
129.126075
 30
0.0
  0
SEQEND
  5
227D0
  8
ALPHA
  0
POLYLINE
  5
1ED30
  8
ALPHA
 66
     1
 10
0.0
 20
0.0
 30
0.0
  0
VERTEX
  5
227D1
  8
ALPHA
 10
1530.229825
 20
130.709387
 30
0.0
  0
VERTEX
  5
227D2
  8
ALPHA
 10
1530.220175
 20
130.622519
 30
0.0
  0
VERTEX
  5
227D3
  8
ALPHA
 10
1530.211338
 20
130.389217
 30
0.0
  0
VERTEX
  5
227D4
  8
ALPHA
 10
1530.203914
 20
130.025404
 30
0.0
  0
SEQEND
  5
227D5
  8
ALPHA
  0
POLYLINE
  5
1ED36
  8
ALPHA
 66
     1
 10
0.0
 20
0.0
 30
0.0
  0
VERTEX
  5
227D6
  8
ALPHA
 10
1534.962513
 20
128.002617
 30
0.0
  0
VERTEX
  5
227D7
  8
ALPHA
 10
1534.994952
 20
128.370259
 30
0.0
  0
VERTEX
  5
227D8
  8
ALPHA
 10
1535.075867
 20
128.713823
 30
0.0
  0
VERTEX
  5
227D9
  8
ALPHA
 10
1535.199791
 20
129.031039
 30
0.0
  0
SEQEND
  5
227DA
  8
ALPHA
  0
POLYLINE
  5
1ED3C
  8
ALPHA
 66
     1
 10
0.0
 20
0.0
 30
0.0
  0
VERTEX
  5
227DB
  8
ALPHA
 10
1530.196956
 20
141.592665
 30
0.0
  0
VERTEX
  5
227DC
  8
ALPHA
 10
1530.207182
 20
141.710722
 30
0.0
  0
VERTEX
  5
227DD
  8
ALPHA
 10
1530.215768
 20
142.043825
 30
0.0
  0
VERTEX
  5
227DE
  8
ALPHA
 10
1530.221403
 20
142.533674
 30
0.0
  0
VERTEX
  5
227DF
  8
ALPHA
 10
1530.223363
 20
143.105548
 30
0.0
  0
VERTEX
  5
227E0
  8
ALPHA
 10
1530.221403
 20
143.677421
 30
0.0
  0
VERTEX
  5
227E1
  8
ALPHA
 10
1530.215768
 20
144.16727
 30
0.0
  0
VERTEX
  5
227E2
  8
ALPHA
 10
1530.207182
 20
144.500373
 30
0.0
  0
VERTEX
  5
227E3
  8
ALPHA
 10
1530.196956
 20
144.618431
 30
0.0
  0
SEQEND
  5
227E4
  8
ALPHA
  0
POLYLINE
  5
1ED47
  8
ALPHA
 66
     1
 10
0.0
 20
0.0
 30
0.0
  0
VERTEX
  5
227E5
  8
ALPHA
 10
1529.91593
 20
144.618431
 30
0.0
  0
VERTEX
  5
227E6
  8
ALPHA
 10
1529.905703
 20
144.500407
 30
0.0
  0
VERTEX
  5
227E7
  8
ALPHA
 10
1529.897117
 20
144.167312
 30
0.0
  0
VERTEX
  5
227E8
  8
ALPHA
 10
1529.891481
 20
143.677448
 30
0.0
  0
VERTEX
  5
227E9
  8
ALPHA
 10
1529.889521
 20
143.105547
 30
0.0
  0
VERTEX
  5
227EA
  8
ALPHA
 10
1529.891481
 20
142.533647
 30
0.0
  0
VERTEX
  5
227EB
  8
ALPHA
 10
1529.897117
 20
142.043783
 30
0.0
  0
VERTEX
  5
227EC
  8
ALPHA
 10
1529.905703
 20
141.710688
 30
0.0
  0
VERTEX
  5
227ED
  8
ALPHA
 10
1529.91593
 20
141.592665
 30
0.0
  0
SEQEND
  5
227EE
  8
ALPHA
  0
LINE
  5
1ED52
  8
ALPHA
 10
1531.711116
 20
129.126075
 30
0.0
 11
1531.703686
 21
129.031039
 31
0.0
  0
LINE
  5
1ED53
  8
ALPHA
 10
1534.95174
 20
127.305548
 30
0.0
 11
1534.962513
 21
128.002617
 31
0.0
  0
LINE
  5
1ED54
  8
ALPHA
 10
1531.703686
 20
129.031039
 30
0.0
 11
1531.677018
 21
127.305548
 31
0.0
  0
LINE
  5
1ED55
  8
ALPHA
 10
1530.203914
 20
130.025404
 30
0.0
 11
1530.161879
 21
127.305548
 31
0.0
  0
POLYLINE
  5
1ED56
  8
ALPHA
 66
     1
 10
0.0
 20
0.0
 30
0.0
  0
VERTEX
  5
227EF
  8
ALPHA
 10
1531.540941
 20
130.755571
 30
0.0
  0
VERTEX
  5
227F0
  8
ALPHA
 10
1531.560416
 20
130.185715
 30
0.0
  0
VERTEX
  5
227F1
  8
ALPHA
 10
1531.612045
 20
129.701101
 30
0.0
  0
VERTEX
  5
227F2
  8
ALPHA
 10
1531.688087
 20
129.37479
 30
0.0
  0
VERTEX
  5
227F3
  8
ALPHA
 10
1531.775781
 20
129.255799
 30
0.0
  0
SEQEND
  5
227F4
  8
ALPHA
  0
POLYLINE
  5
1ED5D
  8
ALPHA
 66
     1
 10
0.0
 20
0.0
 30
0.0
  0
VERTEX
  5
227F5
  8
ALPHA
 10
1530.196956
 20
137.160363
 30
0.0
  0
VERTEX
  5
227F6
  8
ALPHA
 10
1530.207463
 20
137.039074
 30
0.0
  0
VERTEX
  5
227F7
  8
ALPHA
 10
1530.216282
 20
136.697049
 30
0.0
  0
VERTEX
  5
227F8
  8
ALPHA
 10
1530.22208
 20
136.193385
 30
0.0
  0
VERTEX
  5
227F9
  8
ALPHA
 10
1530.224094
 20
135.605548
 30
0.0
  0
VERTEX
  5
227FA
  8
ALPHA
 10
1530.22208
 20
135.01771
 30
0.0
  0
VERTEX
  5
227FB
  8
ALPHA
 10
1530.216282
 20
134.514047
 30
0.0
  0
VERTEX
  5
227FC
  8
ALPHA
 10
1530.207463
 20
134.172022
 30
0.0
  0
VERTEX
  5
227FD
  8
ALPHA
 10
1530.196956
 20
134.050732
 30
0.0
  0
SEQEND
  5
227FE
  8
ALPHA
  0
POLYLINE
  5
1ED68
  8
ALPHA
 66
     1
 10
0.0
 20
0.0
 30
0.0
  0
VERTEX
  5
227FF
  8
ALPHA
 10
1529.91593
 20
134.050732
 30
0.0
  0
VERTEX
  5
22800
  8
ALPHA
 10
1529.905422
 20
134.171966
 30
0.0
  0
VERTEX
  5
22801
  8
ALPHA
 10
1529.896602
 20
134.513977
 30
0.0
  0
VERTEX
  5
22802
  8
ALPHA
 10
1529.890804
 20
135.017666
 30
0.0
  0
VERTEX
  5
22803
  8
ALPHA
 10
1529.888789
 20
135.605548
 30
0.0
  0
VERTEX
  5
22804
  8
ALPHA
 10
1529.890804
 20
136.19343
 30
0.0
  0
VERTEX
  5
22805
  8
ALPHA
 10
1529.896602
 20
136.697118
 30
0.0
  0
VERTEX
  5
22806
  8
ALPHA
 10
1529.905422
 20
137.039129
 30
0.0
  0
VERTEX
  5
22807
  8
ALPHA
 10
1529.91593
 20
137.160363
 30
0.0
  0
SEQEND
  5
22808
  8
ALPHA
  0
LINE
  5
1ED73
  8
ALPHA
 10
1598.9308
 20
129.221257
 30
0.0
 11
1598.9308
 21
127.305548
 31
0.0
  0
LINE
  5
1ED74
  8
ALPHA
 10
1596.9308
 20
129.221257
 30
0.0
 11
1596.9308
 21
127.305548
 31
0.0
  0
CIRCLE
  5
1ED75
  8
ALPHA
 10
1537.4208
 20
150.605548
 30
0.0
 40
4.004288
  0
CIRCLE
  5
1ED76
  8
ALPHA
 10
1537.4208
 20
150.605548
 30
0.0
 40
3.754304
  0
ARC
  5
1ED77
  8
ALPHA
 10
1538.474079
 20
152.42988
 30
0.0
 40
0.688158
 50
193.266405
 51
286.733595
  0
ARC
  5
1ED78
  8
ALPHA
 10
1538.474079
 20
148.781215
 30
0.0
 40
0.688158
 50
73.266405
 51
166.733595
  0
ARC
  5
1ED79
  8
ALPHA
 10
1537.4208
 20
152.181548
 30
0.0
 40
0.394
 50
13.266405
 51
166.733595
  0
ARC
  5
1ED7A
  8
ALPHA
 10
1537.4208
 20
150.605548
 30
0.0
 40
3.5
 50
80.650837
 51
99.349163
  0
ARC
  5
1ED7B
  8
ALPHA
 10
1537.4208
 20
150.605548
 30
0.0
 40
3.5
 50
260.650837
 51
279.349163
  0
ARC
  5
1ED7C
  8
ALPHA
 10
1537.4208
 20
149.029548
 30
0.0
 40
0.394
 50
193.266405
 51
346.733595
  0
POLYLINE
  5
1ED7D
  8
ALPHA
 66
     1
 10
0.0
 20
0.0
 30
0.0
  0
VERTEX
  5
22809
  8
ALPHA
 10
1542.444145
 20
150.605548
 30
0.0
  0
VERTEX
  5
2280A
  8
ALPHA
 10
1542.267263
 20
149.269303
 30
0.0
  0
VERTEX
  5
2280B
  8
ALPHA
 10
1541.747993
 20
148.023562
 30
0.0
  0
VERTEX
  5
2280C
  8
ALPHA
 10
1540.92673
 20
146.9598
 30
0.0
  0
VERTEX
  5
2280D
  8
ALPHA
 10
1539.859177
 20
146.145312
 30
0.0
  0
VERTEX
  5
2280E
  8
ALPHA
 10
1538.615737
 20
145.633511
 30
0.0
  0
VERTEX
  5
2280F
  8
ALPHA
 10
1537.275914
 20
145.460178
 30
0.0
  0
VERTEX
  5
22810
  8
ALPHA
 10
1535.934684
 20
145.640859
 30
0.0
  0
VERTEX
  5
22811
  8
ALPHA
 10
1534.686753
 20
146.163733
 30
0.0
  0
VERTEX
  5
22812
  8
ALPHA
 10
1533.622004
 20
146.988892
 30
0.0
  0
VERTEX
  5
22813
  8
ALPHA
 10
1532.811332
 20
148.055485
 30
0.0
  0
VERTEX
  5
22814
  8
ALPHA
 10
1532.305299
 20
149.288995
 30
0.0
  0
VERTEX
  5
22815
  8
ALPHA
 10
1532.133662
 20
150.605548
 30
0.0
  0
SEQEND
  5
22816
  8
ALPHA
  0
POLYLINE
  5
1ED8C
  8
ALPHA
 66
     1
 10
0.0
 20
0.0
 30
0.0
  0
VERTEX
  5
22817
  8
ALPHA
 10
1541.57905
 20
150.605548
 30
0.0
  0
VERTEX
  5
22818
  8
ALPHA
 10
1541.435004
 20
149.522181
 30
0.0
  0
VERTEX
  5
22819
  8
ALPHA
 10
1541.015647
 20
148.518861
 30
0.0
  0
VERTEX
  5
2281A
  8
ALPHA
 10
1540.353588
 20
147.66285
 30
0.0
  0
VERTEX
  5
2281B
  8
ALPHA
 10
1539.493994
 20
147.008201
 30
0.0
  0
VERTEX
  5
2281C
  8
ALPHA
 10
1538.493643
 20
146.597755
 30
0.0
  0
VERTEX
  5
2281D
  8
ALPHA
 10
1537.416634
 20
146.460036
 30
0.0
  0
VERTEX
  5
2281E
  8
ALPHA
 10
1536.339325
 20
146.607166
 30
0.0
  0
VERTEX
  5
2281F
  8
ALPHA
 10
1535.337613
 20
147.029253
 30
0.0
  0
VERTEX
  5
22820
  8
ALPHA
 10
1534.48316
 20
147.69413
 30
0.0
  0
VERTEX
  5
22821
  8
ALPHA
 10
1533.832655
 20
148.552938
 30
0.0
  0
VERTEX
  5
22822
  8
ALPHA
 10
1533.426597
 20
149.545855
 30
0.0
  0
VERTEX
  5
22823
  8
ALPHA
 10
1533.288884
 20
150.605548
 30
0.0
  0
SEQEND
  5
22824
  8
ALPHA
  0
POLYLINE
  5
1ED9B
  8
ALPHA
 66
     1
 10
0.0
 20
0.0
 30
0.0
  0
VERTEX
  5
22825
  8
ALPHA
 10
1533.288884
 20
150.605548
 30
0.0
  0
VERTEX
  5
22826
  8
ALPHA
 10
1533.431908
 20
151.685131
 30
0.0
  0
VERTEX
  5
22827
  8
ALPHA
 10
1533.849282
 20
152.687065
 30
0.0
  0
VERTEX
  5
22828
  8
ALPHA
 10
1534.509612
 20
153.54354
 30
0.0
  0
VERTEX
  5
22829
  8
ALPHA
 10
1535.368328
 20
154.199674
 30
0.0
  0
VERTEX
  5
2282A
  8
ALPHA
 10
1536.368612
 20
154.611834
 30
0.0
  0
VERTEX
  5
2282B
  8
ALPHA
 10
1537.44575
 20
154.751079
 30
0.0
  0
VERTEX
  5
2282C
  8
ALPHA
 10
1538.522981
 20
154.605467
 30
0.0
  0
VERTEX
  5
2282D
  8
ALPHA
 10
1539.524758
 20
154.185098
 30
0.0
  0
VERTEX
  5
2282E
  8
ALPHA
 10
1540.380101
 20
153.521695
 30
0.0
  0
VERTEX
  5
2282F
  8
ALPHA
 10
1541.032524
 20
152.662985
 30
0.0
  0
VERTEX
  5
22830
  8
ALPHA
 10
1541.440518
 20
151.668337
 30
0.0
  0
VERTEX
  5
22831
  8
ALPHA
 10
1541.57905
 20
150.605548
 30
0.0
  0
SEQEND
  5
22832
  8
ALPHA
  0
POLYLINE
  5
1EDAA
  8
ALPHA
 66
     1
 10
0.0
 20
0.0
 30
0.0
  0
VERTEX
  5
22833
  8
ALPHA
 10
1532.133662
 20
150.605548
 30
0.0
  0
VERTEX
  5
22834
  8
ALPHA
 10
1532.309722
 20
151.938746
 30
0.0
  0
VERTEX
  5
22835
  8
ALPHA
 10
1532.827697
 20
153.183906
 30
0.0
  0
VERTEX
  5
22836
  8
ALPHA
 10
1533.648407
 20
154.248646
 30
0.0
  0
VERTEX
  5
22837
  8
ALPHA
 10
1534.716459
 20
155.064539
 30
0.0
  0
VERTEX
  5
22838
  8
ALPHA
 10
1535.960991
 20
155.577298
 30
0.0
  0
VERTEX
  5
22839
  8
ALPHA
 10
1537.301425
 20
155.750919
 30
0.0
  0
VERTEX
  5
2283A
  8
ALPHA
 10
1538.642159
 20
155.570499
 30
0.0
  0
VERTEX
  5
2283B
  8
ALPHA
 10
1539.888993
 20
155.048564
 30
0.0
  0
VERTEX
  5
2283C
  8
ALPHA
 10
1540.953209
 20
154.224818
 30
0.0
  0
VERTEX
  5
2283D
  8
ALPHA
 10
1541.764646
 20
153.158799
 30
0.0
  0
VERTEX
  5
2283E
  8
ALPHA
 10
1542.271909
 20
151.924331
 30
0.0
  0
VERTEX
  5
2283F
  8
ALPHA
 10
1542.444145
 20
150.605548
 30
0.0
  0
SEQEND
  5
22840
  8
ALPHA
  0
ARC
  5
1EDB9
  8
ALPHA
 10
1537.4208
 20
150.605548
 30
0.0
 40
3.0
 50
101.536959
 51
258.463041
  0
ARC
  5
1EDBA
  8
ALPHA
 10
1537.4208
 20
150.605548
 30
0.0
 40
3.5
 50
99.653406
 51
260.346594
  0
ARC
  5
1EDBB
  8
ALPHA
 10
1536.367521
 20
152.42988
 30
0.0
 40
0.688158
 50
253.266405
 51
346.733595
  0
ARC
  5
1EDBC
  8
ALPHA
 10
1536.367521
 20
148.781215
 30
0.0
 40
0.688158
 50
13.266405
 51
106.733595
  0
ARC
  5
1EDBD
  8
ALPHA
 10
1536.055944
 20
151.393548
 30
0.0
 40
0.394
 50
73.266405
 51
226.733595
  0
ARC
  5
1EDBE
  8
ALPHA
 10
1536.055944
 20
149.817548
 30
0.0
 40
0.394
 50
133.266405
 51
286.733595
  0
ARC
  5
1EDBF
  8
ALPHA
 10
1535.314242
 20
150.605548
 30
0.0
 40
0.688158
 50
313.266405
 51
46.733595
  0
LINE
  5
1EDC0
  8
ALPHA
 10
1529.91593
 20
174.660363
 30
0.0
 11
1530.196956
 21
174.660363
 31
0.0
  0
LINE
  5
1EDC1
  8
ALPHA
 10
1530.196956
 20
171.550732
 30
0.0
 11
1529.91593
 21
171.550732
 31
0.0
  0
LINE
  5
1EDC2
  8
ALPHA
 10
1529.91593
 20
167.160363
 30
0.0
 11
1530.196956
 21
167.160363
 31
0.0
  0
LINE
  5
1EDC3
  8
ALPHA
 10
1530.196956
 20
164.050732
 30
0.0
 11
1529.91593
 21
164.050732
 31
0.0
  0
LINE
  5
1EDC4
  8
ALPHA
 10
1530.196956
 20
159.618431
 30
0.0
 11
1529.91593
 21
159.618431
 31
0.0
  0
LINE
  5
1EDC5
  8
ALPHA
 10
1529.91593
 20
156.592665
 30
0.0
 11
1530.196956
 21
156.592665
 31
0.0
  0
LINE
  5
1EDC6
  8
ALPHA
 10
1530.196956
 20
152.118431
 30
0.0
 11
1529.91593
 21
152.118431
 31
0.0
  0
LINE
  5
1EDC7
  8
ALPHA
 10
1536.852223
 20
154.059056
 30
0.0
 11
1536.833893
 21
154.055988
 31
0.0
  0
LINE
  5
1EDC8
  8
ALPHA
 10
1536.852223
 20
147.152039
 30
0.0
 11
1536.833893
 21
147.155107
 31
0.0
  0
LINE
  5
1EDC9
  8
ALPHA
 10
1529.91593
 20
149.092665
 30
0.0
 11
1530.196956
 21
149.092665
 31
0.0
  0
POLYLINE
  5
1EDCA
  8
ALPHA
 66
     1
 10
0.0
 20
0.0
 30
0.0
  0
VERTEX
  5
22841
  8
ALPHA
 10
1536.8208
 20
153.544935
 30
0.0
  0
VERTEX
  5
22842
  8
ALPHA
 10
1536.821254
 20
153.678173
 30
0.0
  0
VERTEX
  5
22843
  8
ALPHA
 10
1536.822577
 20
153.801585
 30
0.0
  0
VERTEX
  5
22844
  8
ALPHA
 10
1536.824671
 20
153.90709
 30
0.0
  0
VERTEX
  5
22845
  8
ALPHA
 10
1536.827386
 20
153.987772
 30
0.0
  0
VERTEX
  5
22846
  8
ALPHA
 10
1536.830533
 20
154.038434
 30
0.0
  0
VERTEX
  5
22847
  8
ALPHA
 10
1536.833893
 20
154.055988
 30
0.0
  0
SEQEND
  5
22848
  8
ALPHA
  0
LINE
  5
1EDD3
  8
ALPHA
 10
1536.852223
 20
151.941387
 30
0.0
 11
1536.852223
 21
154.059056
 31
0.0
  0
LINE
  5
1EDD4
  8
ALPHA
 10
1536.852223
 20
147.152039
 30
0.0
 11
1536.852223
 21
149.269708
 31
0.0
  0
LINE
  5
1EDD5
  8
ALPHA
 10
1536.8208
 20
151.912097
 30
0.0
 11
1536.8208
 21
153.544935
 31
0.0
  0
LINE
  5
1EDD6
  8
ALPHA
 10
1536.8208
 20
147.66616
 30
0.0
 11
1536.8208
 21
149.298998
 31
0.0
  0
POLYLINE
  5
1EDD7
  8
ALPHA
 66
     1
 10
0.0
 20
0.0
 30
0.0
  0
VERTEX
  5
22849
  8
ALPHA
 10
1536.8208
 20
147.66616
 30
0.0
  0
VERTEX
  5
2284A
  8
ALPHA
 10
1536.821254
 20
147.532922
 30
0.0
  0
VERTEX
  5
2284B
  8
ALPHA
 10
1536.822577
 20
147.40951
 30
0.0
  0
VERTEX
  5
2284C
  8
ALPHA
 10
1536.824671
 20
147.304005
 30
0.0
  0
VERTEX
  5
2284D
  8
ALPHA
 10
1536.827386
 20
147.223324
 30
0.0
  0
VERTEX
  5
2284E
  8
ALPHA
 10
1536.830533
 20
147.172661
 30
0.0
  0
VERTEX
  5
2284F
  8
ALPHA
 10
1536.833893
 20
147.155107
 30
0.0
  0
SEQEND
  5
22850
  8
ALPHA
  0
POLYLINE
  5
1EDE0
  8
ALPHA
 66
     1
 10
0.0
 20
0.0
 30
0.0
  0
VERTEX
  5
22851
  8
ALPHA
 10
1530.196956
 20
174.660363
 30
0.0
  0
VERTEX
  5
22852
  8
ALPHA
 10
1530.207463
 20
174.539074
 30
0.0
  0
VERTEX
  5
22853
  8
ALPHA
 10
1530.216282
 20
174.197049
 30
0.0
  0
VERTEX
  5
22854
  8
ALPHA
 10
1530.22208
 20
173.693385
 30
0.0
  0
VERTEX
  5
22855
  8
ALPHA
 10
1530.224094
 20
173.105548
 30
0.0
  0
VERTEX
  5
22856
  8
ALPHA
 10
1530.22208
 20
172.51771
 30
0.0
  0
VERTEX
  5
22857
  8
ALPHA
 10
1530.216282
 20
172.014047
 30
0.0
  0
VERTEX
  5
22858
  8
ALPHA
 10
1530.207463
 20
171.672022
 30
0.0
  0
VERTEX
  5
22859
  8
ALPHA
 10
1530.196956
 20
171.550732
 30
0.0
  0
SEQEND
  5
2285A
  8
ALPHA
  0
POLYLINE
  5
1EDEB
  8
ALPHA
 66
     1
 10
0.0
 20
0.0
 30
0.0
  0
VERTEX
  5
2285B
  8
ALPHA
 10
1529.91593
 20
171.550732
 30
0.0
  0
VERTEX
  5
2285C
  8
ALPHA
 10
1529.905422
 20
171.671966
 30
0.0
  0
VERTEX
  5
2285D
  8
ALPHA
 10
1529.896602
 20
172.013977
 30
0.0
  0
VERTEX
  5
2285E
  8
ALPHA
 10
1529.890804
 20
172.517666
 30
0.0
  0
VERTEX
  5
2285F
  8
ALPHA
 10
1529.888789
 20
173.105548
 30
0.0
  0
VERTEX
  5
22860
  8
ALPHA
 10
1529.890804
 20
173.69343
 30
0.0
  0
VERTEX
  5
22861
  8
ALPHA
 10
1529.896602
 20
174.197118
 30
0.0
  0
VERTEX
  5
22862
  8
ALPHA
 10
1529.905422
 20
174.539129
 30
0.0
  0
VERTEX
  5
22863
  8
ALPHA
 10
1529.91593
 20
174.660363
 30
0.0
  0
SEQEND
  5
22864
  8
ALPHA
  0
POLYLINE
  5
1EDF6
  8
ALPHA
 66
     1
 10
0.0
 20
0.0
 30
0.0
  0
VERTEX
  5
22865
  8
ALPHA
 10
1530.196956
 20
167.160363
 30
0.0
  0
VERTEX
  5
22866
  8
ALPHA
 10
1530.207463
 20
167.039074
 30
0.0
  0
VERTEX
  5
22867
  8
ALPHA
 10
1530.216282
 20
166.697049
 30
0.0
  0
VERTEX
  5
22868
  8
ALPHA
 10
1530.22208
 20
166.193385
 30
0.0
  0
VERTEX
  5
22869
  8
ALPHA
 10
1530.224094
 20
165.605548
 30
0.0
  0
VERTEX
  5
2286A
  8
ALPHA
 10
1530.22208
 20
165.01771
 30
0.0
  0
VERTEX
  5
2286B
  8
ALPHA
 10
1530.216282
 20
164.514047
 30
0.0
  0
VERTEX
  5
2286C
  8
ALPHA
 10
1530.207463
 20
164.172022
 30
0.0
  0
VERTEX
  5
2286D
  8
ALPHA
 10
1530.196956
 20
164.050732
 30
0.0
  0
SEQEND
  5
2286E
  8
ALPHA
  0
POLYLINE
  5
1EE01
  8
ALPHA
 66
     1
 10
0.0
 20
0.0
 30
0.0
  0
VERTEX
  5
2286F
  8
ALPHA
 10
1529.91593
 20
164.050732
 30
0.0
  0
VERTEX
  5
22870
  8
ALPHA
 10
1529.905422
 20
164.171966
 30
0.0
  0
VERTEX
  5
22871
  8
ALPHA
 10
1529.896602
 20
164.513977
 30
0.0
  0
VERTEX
  5
22872
  8
ALPHA
 10
1529.890804
 20
165.017666
 30
0.0
  0
VERTEX
  5
22873
  8
ALPHA
 10
1529.888789
 20
165.605548
 30
0.0
  0
VERTEX
  5
22874
  8
ALPHA
 10
1529.890804
 20
166.19343
 30
0.0
  0
VERTEX
  5
22875
  8
ALPHA
 10
1529.896602
 20
166.697118
 30
0.0
  0
VERTEX
  5
22876
  8
ALPHA
 10
1529.905422
 20
167.039129
 30
0.0
  0
VERTEX
  5
22877
  8
ALPHA
 10
1529.91593
 20
167.160363
 30
0.0
  0
SEQEND
  5
22878
  8
ALPHA
  0
POLYLINE
  5
1EE0C
  8
ALPHA
 66
     1
 10
0.0
 20
0.0
 30
0.0
  0
VERTEX
  5
22879
  8
ALPHA
 10
1530.196956
 20
149.092665
 30
0.0
  0
VERTEX
  5
2287A
  8
ALPHA
 10
1530.207182
 20
149.210722
 30
0.0
  0
VERTEX
  5
2287B
  8
ALPHA
 10
1530.215768
 20
149.543825
 30
0.0
  0
VERTEX
  5
2287C
  8
ALPHA
 10
1530.221403
 20
150.033674
 30
0.0
  0
VERTEX
  5
2287D
  8
ALPHA
 10
1530.223363
 20
150.605548
 30
0.0
  0
VERTEX
  5
2287E
  8
ALPHA
 10
1530.221403
 20
151.177422
 30
0.0
  0
VERTEX
  5
2287F
  8
ALPHA
 10
1530.215768
 20
151.66727
 30
0.0
  0
VERTEX
  5
22880
  8
ALPHA
 10
1530.207182
 20
152.000373
 30
0.0
  0
VERTEX
  5
22881
  8
ALPHA
 10
1530.196956
 20
152.118431
 30
0.0
  0
SEQEND
  5
22882
  8
ALPHA
  0
POLYLINE
  5
1EE17
  8
ALPHA
 66
     1
 10
0.0
 20
0.0
 30
0.0
  0
VERTEX
  5
22883
  8
ALPHA
 10
1529.91593
 20
152.118431
 30
0.0
  0
VERTEX
  5
22884
  8
ALPHA
 10
1529.905703
 20
152.000407
 30
0.0
  0
VERTEX
  5
22885
  8
ALPHA
 10
1529.897117
 20
151.667312
 30
0.0
  0
VERTEX
  5
22886
  8
ALPHA
 10
1529.891481
 20
151.177448
 30
0.0
  0
VERTEX
  5
22887
  8
ALPHA
 10
1529.889521
 20
150.605548
 30
0.0
  0
VERTEX
  5
22888
  8
ALPHA
 10
1529.891481
 20
150.033647
 30
0.0
  0
VERTEX
  5
22889
  8
ALPHA
 10
1529.897117
 20
149.543783
 30
0.0
  0
VERTEX
  5
2288A
  8
ALPHA
 10
1529.905703
 20
149.210688
 30
0.0
  0
VERTEX
  5
2288B
  8
ALPHA
 10
1529.91593
 20
149.092665
 30
0.0
  0
SEQEND
  5
2288C
  8
ALPHA
  0
POLYLINE
  5
1EE22
  8
ALPHA
 66
     1
 10
0.0
 20
0.0
 30
0.0
  0
VERTEX
  5
2288D
  8
ALPHA
 10
1530.196956
 20
156.592665
 30
0.0
  0
VERTEX
  5
2288E
  8
ALPHA
 10
1530.207182
 20
156.710722
 30
0.0
  0
VERTEX
  5
2288F
  8
ALPHA
 10
1530.215768
 20
157.043825
 30
0.0
  0
VERTEX
  5
22890
  8
ALPHA
 10
1530.221403
 20
157.533674
 30
0.0
  0
VERTEX
  5
22891
  8
ALPHA
 10
1530.223363
 20
158.105548
 30
0.0
  0
VERTEX
  5
22892
  8
ALPHA
 10
1530.221403
 20
158.677421
 30
0.0
  0
VERTEX
  5
22893
  8
ALPHA
 10
1530.215768
 20
159.16727
 30
0.0
  0
VERTEX
  5
22894
  8
ALPHA
 10
1530.207182
 20
159.500373
 30
0.0
  0
VERTEX
  5
22895
  8
ALPHA
 10
1530.196956
 20
159.618431
 30
0.0
  0
SEQEND
  5
22896
  8
ALPHA
  0
POLYLINE
  5
1EE2D
  8
ALPHA
 66
     1
 10
0.0
 20
0.0
 30
0.0
  0
VERTEX
  5
22897
  8
ALPHA
 10
1529.91593
 20
159.618431
 30
0.0
  0
VERTEX
  5
22898
  8
ALPHA
 10
1529.905703
 20
159.500407
 30
0.0
  0
VERTEX
  5
22899
  8
ALPHA
 10
1529.897117
 20
159.167312
 30
0.0
  0
VERTEX
  5
2289A
  8
ALPHA
 10
1529.891481
 20
158.677448
 30
0.0
  0
VERTEX
  5
2289B
  8
ALPHA
 10
1529.889521
 20
158.105548
 30
0.0
  0
VERTEX
  5
2289C
  8
ALPHA
 10
1529.891481
 20
157.533647
 30
0.0
  0
VERTEX
  5
2289D
  8
ALPHA
 10
1529.897117
 20
157.043783
 30
0.0
  0
VERTEX
  5
2289E
  8
ALPHA
 10
1529.905703
 20
156.710688
 30
0.0
  0
VERTEX
  5
2289F
  8
ALPHA
 10
1529.91593
 20
156.592665
 30
0.0
  0
SEQEND
  5
228A0
  8
ALPHA
  0
ARC
  5
1EE38
  8
ALPHA
 10
1537.4208
 20
150.605548
 30
0.0
 40
3.0
 50
281.536959
 51
78.463041
  0
ARC
  5
1EE39
  8
ALPHA
 10
1537.4208
 20
150.605548
 30
0.0
 40
3.5
 50
279.653406
 51
80.346594
  0
ARC
  5
1EE3A
  8
ALPHA
 10
1538.785656
 20
151.393548
 30
0.0
 40
0.394
 50
313.266405
 51
106.733595
  0
ARC
  5
1EE3B
  8
ALPHA
 10
1538.785656
 20
149.817548
 30
0.0
 40
0.394
 50
253.266405
 51
46.733595
  0
ARC
  5
1EE3C
  8
ALPHA
 10
1539.527358
 20
150.605548
 30
0.0
 40
0.688158
 50
133.266405
 51
226.733595
  0
LINE
  5
1EE3D
  8
ALPHA
 10
1537.989377
 20
147.152039
 30
0.0
 11
1538.007707
 21
147.155107
 31
0.0
  0
LINE
  5
1EE3E
  8
ALPHA
 10
1537.989377
 20
154.059056
 30
0.0
 11
1538.007707
 21
154.055988
 31
0.0
  0
POLYLINE
  5
1EE3F
  8
ALPHA
 66
     1
 10
0.0
 20
0.0
 30
0.0
  0
VERTEX
  5
228A1
  8
ALPHA
 10
1538.0208
 20
147.66616
 30
0.0
  0
VERTEX
  5
228A2
  8
ALPHA
 10
1538.020345
 20
147.532922
 30
0.0
  0
VERTEX
  5
228A3
  8
ALPHA
 10
1538.019022
 20
147.40951
 30
0.0
  0
VERTEX
  5
228A4
  8
ALPHA
 10
1538.016929
 20
147.304005
 30
0.0
  0
VERTEX
  5
228A5
  8
ALPHA
 10
1538.014213
 20
147.223324
 30
0.0
  0
VERTEX
  5
228A6
  8
ALPHA
 10
1538.011066
 20
147.172661
 30
0.0
  0
VERTEX
  5
228A7
  8
ALPHA
 10
1538.007707
 20
147.155107
 30
0.0
  0
SEQEND
  5
228A8
  8
ALPHA
  0
LINE
  5
1EE48
  8
ALPHA
 10
1538.0208
 20
151.912097
 30
0.0
 11
1538.0208
 21
153.544935
 31
0.0
  0
LINE
  5
1EE49
  8
ALPHA
 10
1538.0208
 20
147.66616
 30
0.0
 11
1538.0208
 21
149.298998
 31
0.0
  0
LINE
  5
1EE4A
  8
ALPHA
 10
1537.989377
 20
151.941387
 30
0.0
 11
1537.989377
 21
154.059056
 31
0.0
  0
LINE
  5
1EE4B
  8
ALPHA
 10
1537.989377
 20
147.152039
 30
0.0
 11
1537.989377
 21
149.269708
 31
0.0
  0
POLYLINE
  5
1EE4C
  8
ALPHA
 66
     1
 10
0.0
 20
0.0
 30
0.0
  0
VERTEX
  5
228A9
  8
ALPHA
 10
1538.0208
 20
153.544935
 30
0.0
  0
VERTEX
  5
228AA
  8
ALPHA
 10
1538.020345
 20
153.678173
 30
0.0
  0
VERTEX
  5
228AB
  8
ALPHA
 10
1538.019022
 20
153.801585
 30
0.0
  0
VERTEX
  5
228AC
  8
ALPHA
 10
1538.016929
 20
153.90709
 30
0.0
  0
VERTEX
  5
228AD
  8
ALPHA
 10
1538.014213
 20
153.987772
 30
0.0
  0
VERTEX
  5
228AE
  8
ALPHA
 10
1538.011066
 20
154.038434
 30
0.0
  0
VERTEX
  5
228AF
  8
ALPHA
 10
1538.007707
 20
154.055988
 30
0.0
  0
SEQEND
  5
228B0
  8
ALPHA
  0
LINE
  5
1EE55
  8
ALPHA
 10
1529.91593
 20
209.155548
 30
0.0
 11
1530.196956
 21
209.155548
 31
0.0
  0
LINE
  5
1EE56
  8
ALPHA
 10
1530.196956
 20
204.555548
 30
0.0
 11
1529.91593
 21
204.555548
 31
0.0
  0
LINE
  5
1EE57
  8
ALPHA
 10
1529.91593
 20
201.655548
 30
0.0
 11
1530.196956
 21
201.655548
 31
0.0
  0
LINE
  5
1EE58
  8
ALPHA
 10
1530.196956
 20
197.055548
 30
0.0
 11
1529.91593
 21
197.055548
 31
0.0
  0
LINE
  5
1EE59
  8
ALPHA
 10
1529.91593
 20
194.155548
 30
0.0
 11
1530.196956
 21
194.155548
 31
0.0
  0
LINE
  5
1EE5A
  8
ALPHA
 10
1529.91593
 20
189.660363
 30
0.0
 11
1530.196956
 21
189.660363
 31
0.0
  0
LINE
  5
1EE5B
  8
ALPHA
 10
1530.196956
 20
186.550732
 30
0.0
 11
1529.91593
 21
186.550732
 31
0.0
  0
LINE
  5
1EE5C
  8
ALPHA
 10
1529.91593
 20
182.160363
 30
0.0
 11
1530.196956
 21
182.160363
 31
0.0
  0
LINE
  5
1EE5D
  8
ALPHA
 10
1530.196956
 20
179.050732
 30
0.0
 11
1529.91593
 21
179.050732
 31
0.0
  0
POLYLINE
  5
1EE5E
  8
ALPHA
 66
     1
 10
0.0
 20
0.0
 30
0.0
  0
VERTEX
  5
228B1
  8
ALPHA
 10
1530.196956
 20
189.660363
 30
0.0
  0
VERTEX
  5
228B2
  8
ALPHA
 10
1530.207463
 20
189.539074
 30
0.0
  0
VERTEX
  5
228B3
  8
ALPHA
 10
1530.216282
 20
189.197049
 30
0.0
  0
VERTEX
  5
228B4
  8
ALPHA
 10
1530.22208
 20
188.693385
 30
0.0
  0
VERTEX
  5
228B5
  8
ALPHA
 10
1530.224094
 20
188.105548
 30
0.0
  0
VERTEX
  5
228B6
  8
ALPHA
 10
1530.22208
 20
187.51771
 30
0.0
  0
VERTEX
  5
228B7
  8
ALPHA
 10
1530.216282
 20
187.014047
 30
0.0
  0
VERTEX
  5
228B8
  8
ALPHA
 10
1530.207463
 20
186.672022
 30
0.0
  0
VERTEX
  5
228B9
  8
ALPHA
 10
1530.196956
 20
186.550732
 30
0.0
  0
SEQEND
  5
228BA
  8
ALPHA
  0
POLYLINE
  5
1EE69
  8
ALPHA
 66
     1
 10
0.0
 20
0.0
 30
0.0
  0
VERTEX
  5
228BB
  8
ALPHA
 10
1529.91593
 20
186.550732
 30
0.0
  0
VERTEX
  5
228BC
  8
ALPHA
 10
1529.905422
 20
186.671966
 30
0.0
  0
VERTEX
  5
228BD
  8
ALPHA
 10
1529.896602
 20
187.013977
 30
0.0
  0
VERTEX
  5
228BE
  8
ALPHA
 10
1529.890804
 20
187.517666
 30
0.0
  0
VERTEX
  5
228BF
  8
ALPHA
 10
1529.888789
 20
188.105548
 30
0.0
  0
VERTEX
  5
228C0
  8
ALPHA
 10
1529.890804
 20
188.69343
 30
0.0
  0
VERTEX
  5
228C1
  8
ALPHA
 10
1529.896602
 20
189.197118
 30
0.0
  0
VERTEX
  5
228C2
  8
ALPHA
 10
1529.905422
 20
189.539129
 30
0.0
  0
VERTEX
  5
228C3
  8
ALPHA
 10
1529.91593
 20
189.660363
 30
0.0
  0
SEQEND
  5
228C4
  8
ALPHA
  0
POLYLINE
  5
1EE74
  8
ALPHA
 66
     1
 10
0.0
 20
0.0
 30
0.0
  0
VERTEX
  5
228C5
  8
ALPHA
 10
1530.196956
 20
182.160363
 30
0.0
  0
VERTEX
  5
228C6
  8
ALPHA
 10
1530.207463
 20
182.039074
 30
0.0
  0
VERTEX
  5
228C7
  8
ALPHA
 10
1530.216282
 20
181.697049
 30
0.0
  0
VERTEX
  5
228C8
  8
ALPHA
 10
1530.22208
 20
181.193385
 30
0.0
  0
VERTEX
  5
228C9
  8
ALPHA
 10
1530.224094
 20
180.605548
 30
0.0
  0
VERTEX
  5
228CA
  8
ALPHA
 10
1530.22208
 20
180.01771
 30
0.0
  0
VERTEX
  5
228CB
  8
ALPHA
 10
1530.216282
 20
179.514047
 30
0.0
  0
VERTEX
  5
228CC
  8
ALPHA
 10
1530.207463
 20
179.172022
 30
0.0
  0
VERTEX
  5
228CD
  8
ALPHA
 10
1530.196956
 20
179.050732
 30
0.0
  0
SEQEND
  5
228CE
  8
ALPHA
  0
POLYLINE
  5
1EE7F
  8
ALPHA
 66
     1
 10
0.0
 20
0.0
 30
0.0
  0
VERTEX
  5
228CF
  8
ALPHA
 10
1529.91593
 20
179.050732
 30
0.0
  0
VERTEX
  5
228D0
  8
ALPHA
 10
1529.905422
 20
179.171966
 30
0.0
  0
VERTEX
  5
228D1
  8
ALPHA
 10
1529.896602
 20
179.513977
 30
0.0
  0
VERTEX
  5
228D2
  8
ALPHA
 10
1529.890804
 20
180.017666
 30
0.0
  0
VERTEX
  5
228D3
  8
ALPHA
 10
1529.888789
 20
180.605548
 30
0.0
  0
VERTEX
  5
228D4
  8
ALPHA
 10
1529.890804
 20
181.19343
 30
0.0
  0
VERTEX
  5
228D5
  8
ALPHA
 10
1529.896602
 20
181.697118
 30
0.0
  0
VERTEX
  5
228D6
  8
ALPHA
 10
1529.905422
 20
182.039129
 30
0.0
  0
VERTEX
  5
228D7
  8
ALPHA
 10
1529.91593
 20
182.160363
 30
0.0
  0
SEQEND
  5
228D8
  8
ALPHA
  0
POLYLINE
  5
1EE8A
  8
ALPHA
 66
     1
 10
0.0
 20
0.0
 30
0.0
  0
VERTEX
  5
228D9
  8
ALPHA
 10
1530.196956
 20
194.155548
 30
0.0
  0
VERTEX
  5
228DA
  8
ALPHA
 10
1530.20676
 20
194.268747
 30
0.0
  0
VERTEX
  5
228DB
  8
ALPHA
 10
1530.214995
 20
194.588461
 30
0.0
  0
VERTEX
  5
228DC
  8
ALPHA
 10
1530.220389
 20
195.057615
 30
0.0
  0
VERTEX
  5
228DD
  8
ALPHA
 10
1530.222266
 20
195.605548
 30
0.0
  0
VERTEX
  5
228DE
  8
ALPHA
 10
1530.220389
 20
196.15348
 30
0.0
  0
VERTEX
  5
228DF
  8
ALPHA
 10
1530.214995
 20
196.622634
 30
0.0
  0
VERTEX
  5
228E0
  8
ALPHA
 10
1530.20676
 20
196.942348
 30
0.0
  0
VERTEX
  5
228E1
  8
ALPHA
 10
1530.196956
 20
197.055548
 30
0.0
  0
SEQEND
  5
228E2
  8
ALPHA
  0
POLYLINE
  5
1EE95
  8
ALPHA
 66
     1
 10
0.0
 20
0.0
 30
0.0
  0
VERTEX
  5
228E3
  8
ALPHA
 10
1529.91593
 20
197.055548
 30
0.0
  0
VERTEX
  5
228E4
  8
ALPHA
 10
1529.906126
 20
196.942348
 30
0.0
  0
VERTEX
  5
228E5
  8
ALPHA
 10
1529.897891
 20
196.622634
 30
0.0
  0
VERTEX
  5
228E6
  8
ALPHA
 10
1529.892497
 20
196.15348
 30
0.0
  0
VERTEX
  5
228E7
  8
ALPHA
 10
1529.89062
 20
195.605548
 30
0.0
  0
VERTEX
  5
228E8
  8
ALPHA
 10
1529.892497
 20
195.057615
 30
0.0
  0
VERTEX
  5
228E9
  8
ALPHA
 10
1529.897891
 20
194.588461
 30
0.0
  0
VERTEX
  5
228EA
  8
ALPHA
 10
1529.906126
 20
194.268747
 30
0.0
  0
VERTEX
  5
228EB
  8
ALPHA
 10
1529.91593
 20
194.155548
 30
0.0
  0
SEQEND
  5
228EC
  8
ALPHA
  0
POLYLINE
  5
1EEA0
  8
ALPHA
 66
     1
 10
0.0
 20
0.0
 30
0.0
  0
VERTEX
  5
228ED
  8
ALPHA
 10
1530.196956
 20
201.655548
 30
0.0
  0
VERTEX
  5
228EE
  8
ALPHA
 10
1530.20676
 20
201.768747
 30
0.0
  0
VERTEX
  5
228EF
  8
ALPHA
 10
1530.214995
 20
202.088461
 30
0.0
  0
VERTEX
  5
228F0
  8
ALPHA
 10
1530.220389
 20
202.557615
 30
0.0
  0
VERTEX
  5
228F1
  8
ALPHA
 10
1530.222266
 20
203.105548
 30
0.0
  0
VERTEX
  5
228F2
  8
ALPHA
 10
1530.220389
 20
203.65348
 30
0.0
  0
VERTEX
  5
228F3
  8
ALPHA
 10
1530.214995
 20
204.122634
 30
0.0
  0
VERTEX
  5
228F4
  8
ALPHA
 10
1530.20676
 20
204.442348
 30
0.0
  0
VERTEX
  5
228F5
  8
ALPHA
 10
1530.196956
 20
204.555548
 30
0.0
  0
SEQEND
  5
228F6
  8
ALPHA
  0
POLYLINE
  5
1EEAB
  8
ALPHA
 66
     1
 10
0.0
 20
0.0
 30
0.0
  0
VERTEX
  5
228F7
  8
ALPHA
 10
1529.91593
 20
204.555548
 30
0.0
  0
VERTEX
  5
228F8
  8
ALPHA
 10
1529.906126
 20
204.442348
 30
0.0
  0
VERTEX
  5
228F9
  8
ALPHA
 10
1529.897891
 20
204.122634
 30
0.0
  0
VERTEX
  5
228FA
  8
ALPHA
 10
1529.892497
 20
203.65348
 30
0.0
  0
VERTEX
  5
228FB
  8
ALPHA
 10
1529.89062
 20
203.105548
 30
0.0
  0
VERTEX
  5
228FC
  8
ALPHA
 10
1529.892497
 20
202.557615
 30
0.0
  0
VERTEX
  5
228FD
  8
ALPHA
 10
1529.897891
 20
202.088461
 30
0.0
  0
VERTEX
  5
228FE
  8
ALPHA
 10
1529.906126
 20
201.768747
 30
0.0
  0
VERTEX
  5
228FF
  8
ALPHA
 10
1529.91593
 20
201.655548
 30
0.0
  0
SEQEND
  5
22900
  8
ALPHA
  0
POLYLINE
  5
1EEB6
  8
ALPHA
 66
     1
 10
0.0
 20
0.0
 30
0.0
  0
VERTEX
  5
22901
  8
ALPHA
 10
1569.4708
 20
184.505548
 30
0.0
  0
VERTEX
  5
22902
  8
ALPHA
 10
1571.607213
 20
182.012837
 30
0.0
  0
VERTEX
  5
22903
  8
ALPHA
 10
1574.126998
 20
180.058842
 30
0.0
  0
VERTEX
  5
22904
  8
ALPHA
 10
1577.048086
 20
178.479249
 30
0.0
  0
VERTEX
  5
22905
  8
ALPHA
 10
1580.408696
 20
177.224807
 30
0.0
  0
VERTEX
  5
22906
  8
ALPHA
 10
1584.484093
 20
176.27808
 30
0.0
  0
VERTEX
  5
22907
  8
ALPHA
 10
1589.226489
 20
175.739392
 30
0.0
  0
VERTEX
  5
22908
  8
ALPHA
 10
1594.608696
 20
175.669081
 30
0.0
  0
VERTEX
  5
22909
  8
ALPHA
 10
1600.463745
 20
176.103291
 30
0.0
  0
VERTEX
  5
2290A
  8
ALPHA
 10
1607.080448
 20
177.11065
 30
0.0
  0
SEQEND
  5
2290B
  8
ALPHA
  0
LINE
  5
1EEC2
  8
ALPHA
 10
1565.8208
 20
192.230806
 30
0.0
 11
1565.544746
 21
192.212992
 31
0.0
  0
POLYLINE
  5
1EEC3
  8
ALPHA
 66
     1
 10
0.0
 20
0.0
 30
0.0
  0
VERTEX
  5
2290C
  8
ALPHA
 10
1569.266012
 20
184.292336
 30
0.0
  0
VERTEX
  5
2290D
  8
ALPHA
 10
1567.844533
 20
186.724802
 30
0.0
  0
VERTEX
  5
2290E
  8
ALPHA
 10
1566.895961
 20
189.300015
 30
0.0
  0
VERTEX
  5
2290F
  8
ALPHA
 10
1566.3208
 20
192.26226
 30
0.0
  0
SEQEND
  5
22910
  8
ALPHA
  0
POLYLINE
  5
1EEC9
  8
ALPHA
 66
     1
 10
0.0
 20
0.0
 30
0.0
  0
VERTEX
  5
22911
  8
ALPHA
 10
1566.5708
 20
192.128032
 30
0.0
  0
VERTEX
  5
22912
  8
ALPHA
 10
1567.175878
 20
189.263679
 30
0.0
  0
VERTEX
  5
22913
  8
ALPHA
 10
1568.108846
 20
186.820053
 30
0.0
  0
VERTEX
  5
22914
  8
ALPHA
 10
1569.4708
 20
184.505548
 30
0.0
  0
SEQEND
  5
22915
  8
ALPHA
  0
POLYLINE
  5
1EECF
  8
ALPHA
 66
     1
 10
0.0
 20
0.0
 30
0.0
  0
VERTEX
  5
22916
  8
ALPHA
 10
1565.8208
 20
192.230806
 30
0.0
  0
VERTEX
  5
22917
  8
ALPHA
 10
1566.415545
 20
189.16494
 30
0.0
  0
VERTEX
  5
22918
  8
ALPHA
 10
1567.39997
 20
186.49798
 30
0.0
  0
VERTEX
  5
22919
  8
ALPHA
 10
1568.856436
 20
184.005548
 30
0.0
  0
SEQEND
  5
2291A
  8
ALPHA
  0
POLYLINE
  5
1EED5
  8
ALPHA
 66
     1
 10
0.0
 20
0.0
 30
0.0
  0
VERTEX
  5
2291B
  8
ALPHA
 10
1565.544746
 20
192.212992
 30
0.0
  0
VERTEX
  5
2291C
  8
ALPHA
 10
1566.14735
 20
189.124125
 30
0.0
  0
VERTEX
  5
2291D
  8
ALPHA
 10
1567.159016
 20
186.409336
 30
0.0
  0
VERTEX
  5
2291E
  8
ALPHA
 10
1568.661073
 20
183.868746
 30
0.0
  0
SEQEND
  5
2291F
  8
ALPHA
  0
LINE
  5
1EEDB
  8
ALPHA
 10
1568.856436
 20
184.005548
 30
0.0
 11
1568.661073
 21
183.868746
 31
0.0
  0
CIRCLE
  5
1EEDC
  8
ALPHA
 10
1601.3708
 20
192.805548
 30
0.0
 40
4.0
  0
CIRCLE
  5
1EEDD
  8
ALPHA
 10
1589.5708
 20
192.805548
 30
0.0
 40
4.0
  0
LINE
  5
1EEDE
  8
ALPHA
 10
1599.6208
 20
208.355548
 30
0.0
 11
1600.9208
 21
208.355548
 31
0.0
  0
LINE
  5
1EEDF
  8
ALPHA
 10
1585.649842
 20
203.164743
 30
0.0
 11
1585.40931
 21
203.226873
 31
0.0
  0
LINE
  5
1EEE0
  8
ALPHA
 10
1598.3708
 20
193.805548
 30
0.0
 11
1604.3708
 21
193.805548
 31
0.0
  0
LINE
  5
1EEE1
  8
ALPHA
 10
1592.5708
 20
191.805548
 30
0.0
 11
1586.5708
 21
191.805548
 31
0.0
  0
LINE
  5
1EEE2
  8
ALPHA
 10
1601.3708
 20
190.805548
 30
0.0
 11
1598.3708
 21
193.805548
 31
0.0
  0
LINE
  5
1EEE3
  8
ALPHA
 10
1585.40931
 20
203.226873
 30
0.0
 11
1585.242125
 21
203.394057
 31
0.0
  0
LINE
  5
1EEE4
  8
ALPHA
 10
1589.5708
 20
194.805548
 30
0.0
 11
1592.5708
 21
191.805548
 31
0.0
  0
POLYLINE
  5
1EEE5
  8
ALPHA
 66
     1
 10
0.0
 20
0.0
 30
0.0
  0
VERTEX
  5
22920
  8
ALPHA
 10
1590.0208
 20
208.475394
 30
0.0
  0
VERTEX
  5
22921
  8
ALPHA
 10
1590.082929
 20
208.234862
 30
0.0
  0
VERTEX
  5
22922
  8
ALPHA
 10
1590.250114
 20
208.067677
 30
0.0
  0
VERTEX
  5
22923
  8
ALPHA
 10
1590.490646
 20
208.005548
 30
0.0
  0
SEQEND
  5
22924
  8
ALPHA
  0
LINE
  5
1EEEB
  8
ALPHA
 10
1585.242125
 20
203.394057
 30
0.0
 11
1585.179996
 21
203.63459
 31
0.0
  0
LINE
  5
1EEEC
  8
ALPHA
 10
1603.4208
 20
208.005548
 30
0.0
 11
1603.4208
 21
208.305548
 31
0.0
  0
LINE
  5
1EEED
  8
ALPHA
 10
1600.9208
 20
208.355548
 30
0.0
 11
1600.9208
 21
208.005548
 31
0.0
  0
LINE
  5
1EEEE
  8
ALPHA
 10
1599.6208
 20
208.005548
 30
0.0
 11
1599.6208
 21
208.355548
 31
0.0
  0
LINE
  5
1EEEF
  8
ALPHA
 10
1604.3708
 20
193.805548
 30
0.0
 11
1601.3708
 21
190.805548
 31
0.0
  0
LINE
  5
1EEF0
  8
ALPHA
 10
1586.5708
 20
191.805548
 30
0.0
 11
1589.5708
 21
194.805548
 31
0.0
  0
LINE
  5
1EEF1
  8
ALPHA
 10
1590.490646
 20
208.005548
 30
0.0
 11
1585.649842
 21
203.164743
 31
0.0
  0
LINE
  5
1EEF2
  8
ALPHA
 10
1590.0208
 20
208.475394
 30
0.0
 11
1585.179996
 21
203.63459
 31
0.0
  0
POLYLINE
  5
1EEF3
  8
ALPHA
 66
     1
 10
0.0
 20
0.0
 30
0.0
  0
VERTEX
  5
22925
  8
ALPHA
 10
1530.196956
 20
279.660363
 30
0.0
  0
VERTEX
  5
22926
  8
ALPHA
 10
1530.207463
 20
279.539074
 30
0.0
  0
VERTEX
  5
22927
  8
ALPHA
 10
1530.216282
 20
279.197049
 30
0.0
  0
VERTEX
  5
22928
  8
ALPHA
 10
1530.22208
 20
278.693385
 30
0.0
  0
VERTEX
  5
22929
  8
ALPHA
 10
1530.224094
 20
278.105548
 30
0.0
  0
VERTEX
  5
2292A
  8
ALPHA
 10
1530.22208
 20
277.51771
 30
0.0
  0
VERTEX
  5
2292B
  8
ALPHA
 10
1530.216282
 20
277.014047
 30
0.0
  0
VERTEX
  5
2292C
  8
ALPHA
 10
1530.207463
 20
276.672022
 30
0.0
  0
VERTEX
  5
2292D
  8
ALPHA
 10
1530.196956
 20
276.550732
 30
0.0
  0
SEQEND
  5
2292E
  8
ALPHA
  0
POLYLINE
  5
1EEFE
  8
ALPHA
 66
     1
 10
0.0
 20
0.0
 30
0.0
  0
VERTEX
  5
2292F
  8
ALPHA
 10
1529.91593
 20
276.550732
 30
0.0
  0
VERTEX
  5
22930
  8
ALPHA
 10
1529.905422
 20
276.671966
 30
0.0
  0
VERTEX
  5
22931
  8
ALPHA
 10
1529.896602
 20
277.013977
 30
0.0
  0
VERTEX
  5
22932
  8
ALPHA
 10
1529.890804
 20
277.517666
 30
0.0
  0
VERTEX
  5
22933
  8
ALPHA
 10
1529.888789
 20
278.105548
 30
0.0
  0
VERTEX
  5
22934
  8
ALPHA
 10
1529.890804
 20
278.69343
 30
0.0
  0
VERTEX
  5
22935
  8
ALPHA
 10
1529.896602
 20
279.197118
 30
0.0
  0
VERTEX
  5
22936
  8
ALPHA
 10
1529.905422
 20
279.539129
 30
0.0
  0
VERTEX
  5
22937
  8
ALPHA
 10
1529.91593
 20
279.660363
 30
0.0
  0
SEQEND
  5
22938
  8
ALPHA
  0
LINE
  5
1EF09
  8
ALPHA
 10
1530.196956
 20
242.118431
 30
0.0
 11
1529.91593
 21
242.118431
 31
0.0
  0
LINE
  5
1EF0A
  8
ALPHA
 10
1529.91593
 20
239.092665
 30
0.0
 11
1530.196956
 21
239.092665
 31
0.0
  0
LINE
  5
1EF0B
  8
ALPHA
 10
1529.91593
 20
234.660363
 30
0.0
 11
1530.196956
 21
234.660363
 31
0.0
  0
LINE
  5
1EF0C
  8
ALPHA
 10
1530.196956
 20
231.550732
 30
0.0
 11
1529.91593
 21
231.550732
 31
0.0
  0
LINE
  5
1EF0D
  8
ALPHA
 10
1529.91593
 20
227.160363
 30
0.0
 11
1530.196956
 21
227.160363
 31
0.0
  0
LINE
  5
1EF0E
  8
ALPHA
 10
1530.196956
 20
224.050732
 30
0.0
 11
1529.91593
 21
224.050732
 31
0.0
  0
LINE
  5
1EF0F
  8
ALPHA
 10
1529.91593
 20
219.660363
 30
0.0
 11
1530.196956
 21
219.660363
 31
0.0
  0
LINE
  5
1EF10
  8
ALPHA
 10
1530.196956
 20
216.550732
 30
0.0
 11
1529.91593
 21
216.550732
 31
0.0
  0
LINE
  5
1EF11
  8
ALPHA
 10
1530.196956
 20
212.055548
 30
0.0
 11
1529.91593
 21
212.055548
 31
0.0
  0
POLYLINE
  5
1EF12
  8
ALPHA
 66
     1
 10
0.0
 20
0.0
 30
0.0
  0
VERTEX
  5
22939
  8
ALPHA
 10
1530.196956
 20
234.660363
 30
0.0
  0
VERTEX
  5
2293A
  8
ALPHA
 10
1530.207463
 20
234.539074
 30
0.0
  0
VERTEX
  5
2293B
  8
ALPHA
 10
1530.216282
 20
234.197049
 30
0.0
  0
VERTEX
  5
2293C
  8
ALPHA
 10
1530.22208
 20
233.693385
 30
0.0
  0
VERTEX
  5
2293D
  8
ALPHA
 10
1530.224094
 20
233.105548
 30
0.0
  0
VERTEX
  5
2293E
  8
ALPHA
 10
1530.22208
 20
232.51771
 30
0.0
  0
VERTEX
  5
2293F
  8
ALPHA
 10
1530.216282
 20
232.014047
 30
0.0
  0
VERTEX
  5
22940
  8
ALPHA
 10
1530.207463
 20
231.672022
 30
0.0
  0
VERTEX
  5
22941
  8
ALPHA
 10
1530.196956
 20
231.550732
 30
0.0
  0
SEQEND
  5
22942
  8
ALPHA
  0
POLYLINE
  5
1EF1D
  8
ALPHA
 66
     1
 10
0.0
 20
0.0
 30
0.0
  0
VERTEX
  5
22943
  8
ALPHA
 10
1529.91593
 20
231.550732
 30
0.0
  0
VERTEX
  5
22944
  8
ALPHA
 10
1529.905422
 20
231.671966
 30
0.0
  0
VERTEX
  5
22945
  8
ALPHA
 10
1529.896602
 20
232.013977
 30
0.0
  0
VERTEX
  5
22946
  8
ALPHA
 10
1529.890804
 20
232.517666
 30
0.0
  0
VERTEX
  5
22947
  8
ALPHA
 10
1529.888789
 20
233.105548
 30
0.0
  0
VERTEX
  5
22948
  8
ALPHA
 10
1529.890804
 20
233.69343
 30
0.0
  0
VERTEX
  5
22949
  8
ALPHA
 10
1529.896602
 20
234.197118
 30
0.0
  0
VERTEX
  5
2294A
  8
ALPHA
 10
1529.905422
 20
234.539129
 30
0.0
  0
VERTEX
  5
2294B
  8
ALPHA
 10
1529.91593
 20
234.660363
 30
0.0
  0
SEQEND
  5
2294C
  8
ALPHA
  0
POLYLINE
  5
1EF28
  8
ALPHA
 66
     1
 10
0.0
 20
0.0
 30
0.0
  0
VERTEX
  5
2294D
  8
ALPHA
 10
1530.196956
 20
227.160363
 30
0.0
  0
VERTEX
  5
2294E
  8
ALPHA
 10
1530.207463
 20
227.039074
 30
0.0
  0
VERTEX
  5
2294F
  8
ALPHA
 10
1530.216282
 20
226.697049
 30
0.0
  0
VERTEX
  5
22950
  8
ALPHA
 10
1530.22208
 20
226.193385
 30
0.0
  0
VERTEX
  5
22951
  8
ALPHA
 10
1530.224094
 20
225.605548
 30
0.0
  0
VERTEX
  5
22952
  8
ALPHA
 10
1530.22208
 20
225.01771
 30
0.0
  0
VERTEX
  5
22953
  8
ALPHA
 10
1530.216282
 20
224.514047
 30
0.0
  0
VERTEX
  5
22954
  8
ALPHA
 10
1530.207463
 20
224.172022
 30
0.0
  0
VERTEX
  5
22955
  8
ALPHA
 10
1530.196956
 20
224.050732
 30
0.0
  0
SEQEND
  5
22956
  8
ALPHA
  0
POLYLINE
  5
1EF33
  8
ALPHA
 66
     1
 10
0.0
 20
0.0
 30
0.0
  0
VERTEX
  5
22957
  8
ALPHA
 10
1529.91593
 20
224.050732
 30
0.0
  0
VERTEX
  5
22958
  8
ALPHA
 10
1529.905422
 20
224.171966
 30
0.0
  0
VERTEX
  5
22959
  8
ALPHA
 10
1529.896602
 20
224.513977
 30
0.0
  0
VERTEX
  5
2295A
  8
ALPHA
 10
1529.890804
 20
225.017666
 30
0.0
  0
VERTEX
  5
2295B
  8
ALPHA
 10
1529.888789
 20
225.605548
 30
0.0
  0
VERTEX
  5
2295C
  8
ALPHA
 10
1529.890804
 20
226.19343
 30
0.0
  0
VERTEX
  5
2295D
  8
ALPHA
 10
1529.896602
 20
226.697118
 30
0.0
  0
VERTEX
  5
2295E
  8
ALPHA
 10
1529.905422
 20
227.039129
 30
0.0
  0
VERTEX
  5
2295F
  8
ALPHA
 10
1529.91593
 20
227.160363
 30
0.0
  0
SEQEND
  5
22960
  8
ALPHA
  0
POLYLINE
  5
1EF3E
  8
ALPHA
 66
     1
 10
0.0
 20
0.0
 30
0.0
  0
VERTEX
  5
22961
  8
ALPHA
 10
1530.196956
 20
219.660363
 30
0.0
  0
VERTEX
  5
22962
  8
ALPHA
 10
1530.207463
 20
219.539074
 30
0.0
  0
VERTEX
  5
22963
  8
ALPHA
 10
1530.216282
 20
219.197049
 30
0.0
  0
VERTEX
  5
22964
  8
ALPHA
 10
1530.22208
 20
218.693385
 30
0.0
  0
VERTEX
  5
22965
  8
ALPHA
 10
1530.224094
 20
218.105548
 30
0.0
  0
VERTEX
  5
22966
  8
ALPHA
 10
1530.22208
 20
217.51771
 30
0.0
  0
VERTEX
  5
22967
  8
ALPHA
 10
1530.216282
 20
217.014047
 30
0.0
  0
VERTEX
  5
22968
  8
ALPHA
 10
1530.207463
 20
216.672022
 30
0.0
  0
VERTEX
  5
22969
  8
ALPHA
 10
1530.196956
 20
216.550732
 30
0.0
  0
SEQEND
  5
2296A
  8
ALPHA
  0
POLYLINE
  5
1EF49
  8
ALPHA
 66
     1
 10
0.0
 20
0.0
 30
0.0
  0
VERTEX
  5
2296B
  8
ALPHA
 10
1529.91593
 20
216.550732
 30
0.0
  0
VERTEX
  5
2296C
  8
ALPHA
 10
1529.905422
 20
216.671966
 30
0.0
  0
VERTEX
  5
2296D
  8
ALPHA
 10
1529.896602
 20
217.013977
 30
0.0
  0
VERTEX
  5
2296E
  8
ALPHA
 10
1529.890804
 20
217.517666
 30
0.0
  0
VERTEX
  5
2296F
  8
ALPHA
 10
1529.888789
 20
218.105548
 30
0.0
  0
VERTEX
  5
22970
  8
ALPHA
 10
1529.890804
 20
218.69343
 30
0.0
  0
VERTEX
  5
22971
  8
ALPHA
 10
1529.896602
 20
219.197118
 30
0.0
  0
VERTEX
  5
22972
  8
ALPHA
 10
1529.905422
 20
219.539129
 30
0.0
  0
VERTEX
  5
22973
  8
ALPHA
 10
1529.91593
 20
219.660363
 30
0.0
  0
SEQEND
  5
22974
  8
ALPHA
  0
POLYLINE
  5
1EF54
  8
ALPHA
 66
     1
 10
0.0
 20
0.0
 30
0.0
  0
VERTEX
  5
22975
  8
ALPHA
 10
1530.196956
 20
239.092665
 30
0.0
  0
VERTEX
  5
22976
  8
ALPHA
 10
1530.207182
 20
239.210722
 30
0.0
  0
VERTEX
  5
22977
  8
ALPHA
 10
1530.215768
 20
239.543825
 30
0.0
  0
VERTEX
  5
22978
  8
ALPHA
 10
1530.221403
 20
240.033674
 30
0.0
  0
VERTEX
  5
22979
  8
ALPHA
 10
1530.223363
 20
240.605548
 30
0.0
  0
VERTEX
  5
2297A
  8
ALPHA
 10
1530.221403
 20
241.177421
 30
0.0
  0
VERTEX
  5
2297B
  8
ALPHA
 10
1530.215768
 20
241.66727
 30
0.0
  0
VERTEX
  5
2297C
  8
ALPHA
 10
1530.207182
 20
242.000373
 30
0.0
  0
VERTEX
  5
2297D
  8
ALPHA
 10
1530.196956
 20
242.118431
 30
0.0
  0
SEQEND
  5
2297E
  8
ALPHA
  0
POLYLINE
  5
1EF5F
  8
ALPHA
 66
     1
 10
0.0
 20
0.0
 30
0.0
  0
VERTEX
  5
2297F
  8
ALPHA
 10
1529.91593
 20
242.118431
 30
0.0
  0
VERTEX
  5
22980
  8
ALPHA
 10
1529.905703
 20
242.000407
 30
0.0
  0
VERTEX
  5
22981
  8
ALPHA
 10
1529.897117
 20
241.667312
 30
0.0
  0
VERTEX
  5
22982
  8
ALPHA
 10
1529.891481
 20
241.177448
 30
0.0
  0
VERTEX
  5
22983
  8
ALPHA
 10
1529.889521
 20
240.605548
 30
0.0
  0
VERTEX
  5
22984
  8
ALPHA
 10
1529.891481
 20
240.033647
 30
0.0
  0
VERTEX
  5
22985
  8
ALPHA
 10
1529.897117
 20
239.543783
 30
0.0
  0
VERTEX
  5
22986
  8
ALPHA
 10
1529.905703
 20
239.210688
 30
0.0
  0
VERTEX
  5
22987
  8
ALPHA
 10
1529.91593
 20
239.092665
 30
0.0
  0
SEQEND
  5
22988
  8
ALPHA
  0
LINE
  5
1EF6A
  8
ALPHA
 10
1530.196956
 20
276.550732
 30
0.0
 11
1529.91593
 21
276.550732
 31
0.0
  0
LINE
  5
1EF6B
  8
ALPHA
 10
1529.91593
 20
272.160363
 30
0.0
 11
1530.196956
 21
272.160363
 31
0.0
  0
LINE
  5
1EF6C
  8
ALPHA
 10
1530.196956
 20
269.050732
 30
0.0
 11
1529.91593
 21
269.050732
 31
0.0
  0
LINE
  5
1EF6D
  8
ALPHA
 10
1529.91593
 20
264.660363
 30
0.0
 11
1530.196956
 21
264.660363
 31
0.0
  0
LINE
  5
1EF6E
  8
ALPHA
 10
1530.196956
 20
261.550732
 30
0.0
 11
1529.91593
 21
261.550732
 31
0.0
  0
LINE
  5
1EF6F
  8
ALPHA
 10
1529.91593
 20
257.160363
 30
0.0
 11
1530.196956
 21
257.160363
 31
0.0
  0
LINE
  5
1EF70
  8
ALPHA
 10
1530.196956
 20
254.050732
 30
0.0
 11
1529.91593
 21
254.050732
 31
0.0
  0
LINE
  5
1EF71
  8
ALPHA
 10
1529.91593
 20
249.660363
 30
0.0
 11
1530.196956
 21
249.660363
 31
0.0
  0
LINE
  5
1EF72
  8
ALPHA
 10
1530.196956
 20
246.550732
 30
0.0
 11
1529.91593
 21
246.550732
 31
0.0
  0
POLYLINE
  5
1EF73
  8
ALPHA
 66
     1
 10
0.0
 20
0.0
 30
0.0
  0
VERTEX
  5
22989
  8
ALPHA
 10
1530.196956
 20
272.160363
 30
0.0
  0
VERTEX
  5
2298A
  8
ALPHA
 10
1530.207463
 20
272.039074
 30
0.0
  0
VERTEX
  5
2298B
  8
ALPHA
 10
1530.216282
 20
271.697049
 30
0.0
  0
VERTEX
  5
2298C
  8
ALPHA
 10
1530.22208
 20
271.193385
 30
0.0
  0
VERTEX
  5
2298D
  8
ALPHA
 10
1530.224094
 20
270.605548
 30
0.0
  0
VERTEX
  5
2298E
  8
ALPHA
 10
1530.22208
 20
270.01771
 30
0.0
  0
VERTEX
  5
2298F
  8
ALPHA
 10
1530.216282
 20
269.514047
 30
0.0
  0
VERTEX
  5
22990
  8
ALPHA
 10
1530.207463
 20
269.172022
 30
0.0
  0
VERTEX
  5
22991
  8
ALPHA
 10
1530.196956
 20
269.050732
 30
0.0
  0
SEQEND
  5
22992
  8
ALPHA
  0
POLYLINE
  5
1EF7E
  8
ALPHA
 66
     1
 10
0.0
 20
0.0
 30
0.0
  0
VERTEX
  5
22993
  8
ALPHA
 10
1529.91593
 20
269.050732
 30
0.0
  0
VERTEX
  5
22994
  8
ALPHA
 10
1529.905422
 20
269.171966
 30
0.0
  0
VERTEX
  5
22995
  8
ALPHA
 10
1529.896602
 20
269.513977
 30
0.0
  0
VERTEX
  5
22996
  8
ALPHA
 10
1529.890804
 20
270.017666
 30
0.0
  0
VERTEX
  5
22997
  8
ALPHA
 10
1529.888789
 20
270.605548
 30
0.0
  0
VERTEX
  5
22998
  8
ALPHA
 10
1529.890804
 20
271.19343
 30
0.0
  0
VERTEX
  5
22999
  8
ALPHA
 10
1529.896602
 20
271.697118
 30
0.0
  0
VERTEX
  5
2299A
  8
ALPHA
 10
1529.905422
 20
272.039129
 30
0.0
  0
VERTEX
  5
2299B
  8
ALPHA
 10
1529.91593
 20
272.160363
 30
0.0
  0
SEQEND
  5
2299C
  8
ALPHA
  0
POLYLINE
  5
1EF89
  8
ALPHA
 66
     1
 10
0.0
 20
0.0
 30
0.0
  0
VERTEX
  5
2299D
  8
ALPHA
 10
1530.196956
 20
264.660363
 30
0.0
  0
VERTEX
  5
2299E
  8
ALPHA
 10
1530.207463
 20
264.539074
 30
0.0
  0
VERTEX
  5
2299F
  8
ALPHA
 10
1530.216282
 20
264.197049
 30
0.0
  0
VERTEX
  5
229A0
  8
ALPHA
 10
1530.22208
 20
263.693385
 30
0.0
  0
VERTEX
  5
229A1
  8
ALPHA
 10
1530.224094
 20
263.105548
 30
0.0
  0
VERTEX
  5
229A2
  8
ALPHA
 10
1530.22208
 20
262.51771
 30
0.0
  0
VERTEX
  5
229A3
  8
ALPHA
 10
1530.216282
 20
262.014047
 30
0.0
  0
VERTEX
  5
229A4
  8
ALPHA
 10
1530.207463
 20
261.672022
 30
0.0
  0
VERTEX
  5
229A5
  8
ALPHA
 10
1530.196956
 20
261.550732
 30
0.0
  0
SEQEND
  5
229A6
  8
ALPHA
  0
POLYLINE
  5
1EF94
  8
ALPHA
 66
     1
 10
0.0
 20
0.0
 30
0.0
  0
VERTEX
  5
229A7
  8
ALPHA
 10
1529.91593
 20
261.550732
 30
0.0
  0
VERTEX
  5
229A8
  8
ALPHA
 10
1529.905422
 20
261.671966
 30
0.0
  0
VERTEX
  5
229A9
  8
ALPHA
 10
1529.896602
 20
262.013977
 30
0.0
  0
VERTEX
  5
229AA
  8
ALPHA
 10
1529.890804
 20
262.517666
 30
0.0
  0
VERTEX
  5
229AB
  8
ALPHA
 10
1529.888789
 20
263.105548
 30
0.0
  0
VERTEX
  5
229AC
  8
ALPHA
 10
1529.890804
 20
263.69343
 30
0.0
  0
VERTEX
  5
229AD
  8
ALPHA
 10
1529.896602
 20
264.197118
 30
0.0
  0
VERTEX
  5
229AE
  8
ALPHA
 10
1529.905422
 20
264.539129
 30
0.0
  0
VERTEX
  5
229AF
  8
ALPHA
 10
1529.91593
 20
264.660363
 30
0.0
  0
SEQEND
  5
229B0
  8
ALPHA
  0
POLYLINE
  5
1EF9F
  8
ALPHA
 66
     1
 10
0.0
 20
0.0
 30
0.0
  0
VERTEX
  5
229B1
  8
ALPHA
 10
1530.196956
 20
257.160363
 30
0.0
  0
VERTEX
  5
229B2
  8
ALPHA
 10
1530.207463
 20
257.039074
 30
0.0
  0
VERTEX
  5
229B3
  8
ALPHA
 10
1530.216282
 20
256.697049
 30
0.0
  0
VERTEX
  5
229B4
  8
ALPHA
 10
1530.22208
 20
256.193385
 30
0.0
  0
VERTEX
  5
229B5
  8
ALPHA
 10
1530.224094
 20
255.605548
 30
0.0
  0
VERTEX
  5
229B6
  8
ALPHA
 10
1530.22208
 20
255.01771
 30
0.0
  0
VERTEX
  5
229B7
  8
ALPHA
 10
1530.216282
 20
254.514047
 30
0.0
  0
VERTEX
  5
229B8
  8
ALPHA
 10
1530.207463
 20
254.172022
 30
0.0
  0
VERTEX
  5
229B9
  8
ALPHA
 10
1530.196956
 20
254.050732
 30
0.0
  0
SEQEND
  5
229BA
  8
ALPHA
  0
POLYLINE
  5
1EFAA
  8
ALPHA
 66
     1
 10
0.0
 20
0.0
 30
0.0
  0
VERTEX
  5
229BB
  8
ALPHA
 10
1529.91593
 20
254.050732
 30
0.0
  0
VERTEX
  5
229BC
  8
ALPHA
 10
1529.905422
 20
254.171966
 30
0.0
  0
VERTEX
  5
229BD
  8
ALPHA
 10
1529.896602
 20
254.513977
 30
0.0
  0
VERTEX
  5
229BE
  8
ALPHA
 10
1529.890804
 20
255.017666
 30
0.0
  0
VERTEX
  5
229BF
  8
ALPHA
 10
1529.888789
 20
255.605548
 30
0.0
  0
VERTEX
  5
229C0
  8
ALPHA
 10
1529.890804
 20
256.19343
 30
0.0
  0
VERTEX
  5
229C1
  8
ALPHA
 10
1529.896602
 20
256.697118
 30
0.0
  0
VERTEX
  5
229C2
  8
ALPHA
 10
1529.905422
 20
257.039129
 30
0.0
  0
VERTEX
  5
229C3
  8
ALPHA
 10
1529.91593
 20
257.160363
 30
0.0
  0
SEQEND
  5
229C4
  8
ALPHA
  0
POLYLINE
  5
1EFB5
  8
ALPHA
 66
     1
 10
0.0
 20
0.0
 30
0.0
  0
VERTEX
  5
229C5
  8
ALPHA
 10
1530.196956
 20
249.660363
 30
0.0
  0
VERTEX
  5
229C6
  8
ALPHA
 10
1530.207463
 20
249.539074
 30
0.0
  0
VERTEX
  5
229C7
  8
ALPHA
 10
1530.216282
 20
249.197049
 30
0.0
  0
VERTEX
  5
229C8
  8
ALPHA
 10
1530.22208
 20
248.693385
 30
0.0
  0
VERTEX
  5
229C9
  8
ALPHA
 10
1530.224094
 20
248.105548
 30
0.0
  0
VERTEX
  5
229CA
  8
ALPHA
 10
1530.22208
 20
247.51771
 30
0.0
  0
VERTEX
  5
229CB
  8
ALPHA
 10
1530.216282
 20
247.014047
 30
0.0
  0
VERTEX
  5
229CC
  8
ALPHA
 10
1530.207463
 20
246.672022
 30
0.0
  0
VERTEX
  5
229CD
  8
ALPHA
 10
1530.196956
 20
246.550732
 30
0.0
  0
SEQEND
  5
229CE
  8
ALPHA
  0
POLYLINE
  5
1EFC0
  8
ALPHA
 66
     1
 10
0.0
 20
0.0
 30
0.0
  0
VERTEX
  5
229CF
  8
ALPHA
 10
1529.91593
 20
246.550732
 30
0.0
  0
VERTEX
  5
229D0
  8
ALPHA
 10
1529.905422
 20
246.671966
 30
0.0
  0
VERTEX
  5
229D1
  8
ALPHA
 10
1529.896602
 20
247.013977
 30
0.0
  0
VERTEX
  5
229D2
  8
ALPHA
 10
1529.890804
 20
247.517666
 30
0.0
  0
VERTEX
  5
229D3
  8
ALPHA
 10
1529.888789
 20
248.105548
 30
0.0
  0
VERTEX
  5
229D4
  8
ALPHA
 10
1529.890804
 20
248.69343
 30
0.0
  0
VERTEX
  5
229D5
  8
ALPHA
 10
1529.896602
 20
249.197118
 30
0.0
  0
VERTEX
  5
229D6
  8
ALPHA
 10
1529.905422
 20
249.539129
 30
0.0
  0
VERTEX
  5
229D7
  8
ALPHA
 10
1529.91593
 20
249.660363
 30
0.0
  0
SEQEND
  5
229D8
  8
ALPHA
  0
ARC
  5
1EFCB
  8
ALPHA
 10
1567.8708
 20
243.255548
 30
0.0
 40
1.0
 50
90.0
 51
180.0
  0
LINE
  5
1EFCC
  8
ALPHA
 10
1566.3208
 20
244.755548
 30
0.0
 11
1566.3208
 21
236.755548
 31
0.0
  0
ARC
  5
1EFCD
  8
ALPHA
 10
1567.8708
 20
238.255548
 30
0.0
 40
1.0
 50
180.0
 51
270.0
  0
LINE
  5
1EFCE
  8
ALPHA
 10
1566.8708
 20
243.255548
 30
0.0
 11
1566.8708
 21
238.255548
 31
0.0
  0
LINE
  5
1EFCF
  8
ALPHA
 10
1607.2458
 20
238.255548
 30
0.0
 11
1606.6208
 21
238.255548
 31
0.0
  0
LINE
  5
1EFD0
  8
ALPHA
 10
1585.40931
 20
230.134222
 30
0.0
 11
1585.649842
 21
230.196352
 31
0.0
  0
LINE
  5
1EFD1
  8
ALPHA
 10
1599.951874
 20
220.683966
 30
0.0
 11
1600.640216
 21
220.468051
 31
0.0
  0
LINE
  5
1EFD2
  8
ALPHA
 10
1606.606865
 20
217.22933
 30
0.0
 11
1605.918523
 21
217.445245
 31
0.0
  0
LINE
  5
1EFD3
  8
ALPHA
 10
1598.616315
 20
217.22933
 30
0.0
 11
1597.927973
 21
217.445245
 31
0.0
  0
LINE
  5
1EFD4
  8
ALPHA
 10
1599.190443
 20
216.365672
 30
0.0
 11
1599.878785
 21
216.149757
 31
0.0
  0
LINE
  5
1EFD5
  8
ALPHA
 10
1605.807361
 20
212.695121
 30
0.0
 11
1605.119019
 21
212.911036
 31
0.0
  0
LINE
  5
1EFD6
  8
ALPHA
 10
1597.816812
 20
212.695121
 30
0.0
 11
1597.12847
 21
212.911036
 31
0.0
  0
LINE
  5
1EFD7
  8
ALPHA
 10
1601.012178
 20
221.547625
 30
0.0
 11
1600.142232
 21
221.76354
 31
0.0
  0
LINE
  5
1EFD8
  8
ALPHA
 10
1604.565454
 20
211.831462
 30
0.0
 11
1605.4354
 21
211.615548
 31
0.0
  0
LINE
  5
1EFD9
  8
ALPHA
 10
1596.574905
 20
211.831462
 30
0.0
 11
1597.444851
 21
211.615548
 31
0.0
  0
LINE
  5
1EFDA
  8
ALPHA
 10
1600.142232
 20
221.76354
 30
0.0
 11
1599.415819
 21
221.76354
 31
0.0
  0
LINE
  5
1EFDB
  8
ALPHA
 10
1599.225461
 20
220.683966
 30
0.0
 11
1599.951874
 21
220.683966
 31
0.0
  0
LINE
  5
1EFDC
  8
ALPHA
 10
1599.342729
 20
217.22933
 30
0.0
 11
1598.616315
 21
217.22933
 31
0.0
  0
LINE
  5
1EFDD
  8
ALPHA
 10
1607.333278
 20
217.22933
 30
0.0
 11
1606.606865
 21
217.22933
 31
0.0
  0
LINE
  5
1EFDE
  8
ALPHA
 10
1606.454578
 20
216.365672
 30
0.0
 11
1607.180992
 21
216.365672
 31
0.0
  0
LINE
  5
1EFDF
  8
ALPHA
 10
1598.464029
 20
216.365672
 30
0.0
 11
1599.190443
 21
216.365672
 31
0.0
  0
LINE
  5
1EFE0
  8
ALPHA
 10
1598.543225
 20
212.695121
 30
0.0
 11
1597.816812
 21
212.695121
 31
0.0
  0
LINE
  5
1EFE1
  8
ALPHA
 10
1606.533775
 20
212.695121
 30
0.0
 11
1605.807361
 21
212.695121
 31
0.0
  0
LINE
  5
1EFE2
  8
ALPHA
 10
1605.4354
 20
211.615548
 30
0.0
 11
1606.52502
 21
211.615548
 31
0.0
  0
LINE
  5
1EFE3
  8
ALPHA
 10
1597.444851
 20
211.615548
 30
0.0
 11
1598.534471
 21
211.615548
 31
0.0
  0
LINE
  5
1EFE4
  8
ALPHA
 10
1599.415819
 20
221.76354
 30
0.0
 11
1598.46973
 21
221.547625
 31
0.0
  0
LINE
  5
1EFE5
  8
ALPHA
 10
1598.534471
 20
211.615548
 30
0.0
 11
1599.480559
 21
211.831462
 31
0.0
  0
POLYLINE
  5
1EFE6
  8
ALPHA
 66
     1
 10
0.0
 20
0.0
 30
0.0
  0
VERTEX
  5
229D9
  8
ALPHA
 10
1590.490646
 20
225.355548
 30
0.0
  0
VERTEX
  5
229DA
  8
ALPHA
 10
1590.250114
 20
225.293418
 30
0.0
  0
VERTEX
  5
229DB
  8
ALPHA
 10
1590.082929
 20
225.126234
 30
0.0
  0
VERTEX
  5
229DC
  8
ALPHA
 10
1590.0208
 20
224.885701
 30
0.0
  0
SEQEND
  5
229DD
  8
ALPHA
  0
LINE
  5
1EFEC
  8
ALPHA
 10
1598.460976
 20
220.468051
 30
0.0
 11
1599.225461
 21
220.683966
 31
0.0
  0
LINE
  5
1EFED
  8
ALPHA
 10
1606.451525
 20
220.468051
 30
0.0
 11
1607.21601
 21
220.683966
 31
0.0
  0
LINE
  5
1EFEE
  8
ALPHA
 10
1600.107214
 20
217.445245
 30
0.0
 11
1599.342729
 21
217.22933
 31
0.0
  0
LINE
  5
1EFEF
  8
ALPHA
 10
1597.699544
 20
216.149757
 30
0.0
 11
1598.464029
 21
216.365672
 31
0.0
  0
LINE
  5
1EFF0
  8
ALPHA
 10
1605.690093
 20
216.149757
 30
0.0
 11
1606.454578
 21
216.365672
 31
0.0
  0
LINE
  5
1EFF1
  8
ALPHA
 10
1599.307711
 20
212.911036
 30
0.0
 11
1598.543225
 21
212.695121
 31
0.0
  0
LINE
  5
1EFF2
  8
ALPHA
 10
1607.29826
 20
212.911036
 30
0.0
 11
1606.533775
 21
212.695121
 31
0.0
  0
LINE
  5
1EFF3
  8
ALPHA
 10
1601.80598
 20
220.899881
 30
0.0
 11
1601.012178
 21
221.547625
 31
0.0
  0
LINE
  5
1EFF4
  8
ALPHA
 10
1603.771652
 20
212.479207
 30
0.0
 11
1604.565454
 21
211.831462
 31
0.0
  0
LINE
  5
1EFF5
  8
ALPHA
 10
1595.781103
 20
212.479207
 30
0.0
 11
1596.574905
 21
211.831462
 31
0.0
  0
LINE
  5
1EFF6
  8
ALPHA
 10
1604.752759
 20
217.013416
 30
0.0
 11
1605.077894
 21
216.797501
 31
0.0
  0
LINE
  5
1EFF7
  8
ALPHA
 10
1601.044548
 20
216.581586
 30
0.0
 11
1600.719413
 21
216.797501
 31
0.0
  0
LINE
  5
1EFF8
  8
ALPHA
 10
1605.119019
 20
212.911036
 30
0.0
 11
1604.468749
 21
213.342865
 31
0.0
  0
LINE
  5
1EFF9
  8
ALPHA
 10
1599.878785
 20
216.149757
 30
0.0
 11
1600.529055
 21
215.717927
 31
0.0
  0
LINE
  5
1EFFA
  8
ALPHA
 10
1596.76221
 20
217.013416
 30
0.0
 11
1597.087345
 21
216.797501
 31
0.0
  0
LINE
  5
1EFFB
  8
ALPHA
 10
1597.12847
 20
212.911036
 30
0.0
 11
1596.4782
 21
213.342865
 31
0.0
  0
LINE
  5
1EFFC
  8
ALPHA
 10
1604.322163
 20
217.66116
 30
0.0
 11
1604.752759
 21
217.013416
 31
0.0
  0
LINE
  5
1EFFD
  8
ALPHA
 10
1602.236575
 20
220.252137
 30
0.0
 11
1601.80598
 21
220.899881
 31
0.0
  0
LINE
  5
1EFFE
  8
ALPHA
 10
1603.341057
 20
213.126951
 30
0.0
 11
1603.771652
 21
212.479207
 31
0.0
  0
LINE
  5
1EFFF
  8
ALPHA
 10
1596.331614
 20
217.66116
 30
0.0
 11
1596.76221
 21
217.013416
 31
0.0
  0
LINE
  5
1F000
  8
ALPHA
 10
1605.918523
 20
217.445245
 30
0.0
 11
1605.306324
 21
218.092989
 31
0.0
  0
LINE
  5
1F001
  8
ALPHA
 10
1600.640216
 20
220.468051
 30
0.0
 11
1601.252415
 21
219.820307
 31
0.0
  0
LINE
  5
1F002
  8
ALPHA
 10
1601.656747
 20
215.933842
 30
0.0
 11
1601.044548
 21
216.581586
 31
0.0
  0
LINE
  5
1F003
  8
ALPHA
 10
1597.927973
 20
217.445245
 30
0.0
 11
1597.315775
 21
218.092989
 31
0.0
  0
LINE
  5
1F004
  8
ALPHA
 10
1590.490646
 20
225.355548
 30
0.0
 11
1585.649842
 21
230.196352
 31
0.0
  0
LINE
  5
1F005
  8
ALPHA
 10
1590.0208
 20
224.885701
 30
0.0
 11
1585.179996
 21
229.726505
 31
0.0
  0
LINE
  5
1F006
  8
ALPHA
 10
1605.306324
 20
218.092989
 30
0.0
 11
1605.057332
 21
218.740734
 31
0.0
  0
LINE
  5
1F007
  8
ALPHA
 10
1601.252415
 20
219.820307
 30
0.0
 11
1601.501407
 21
219.172563
 31
0.0
  0
LINE
  5
1F008
  8
ALPHA
 10
1597.315775
 20
218.092989
 30
0.0
 11
1597.066783
 21
218.740734
 31
0.0
  0
LINE
  5
1F009
  8
ALPHA
 10
1604.468749
 20
213.342865
 30
0.0
 11
1604.076225
 21
214.206524
 31
0.0
  0
LINE
  5
1F00A
  8
ALPHA
 10
1600.529055
 20
215.717927
 30
0.0
 11
1600.921579
 21
214.854268
 31
0.0
  0
LINE
  5
1F00B
  8
ALPHA
 10
1596.4782
 20
213.342865
 30
0.0
 11
1596.085676
 21
214.206524
 31
0.0
  0
LINE
  5
1F00C
  8
ALPHA
 10
1595.350508
 20
213.126951
 30
0.0
 11
1595.781103
 21
212.479207
 31
0.0
  0
LINE
  5
1F00D
  8
ALPHA
 10
1602.409424
 20
219.172563
 30
0.0
 11
1602.236575
 21
220.252137
 31
0.0
  0
LINE
  5
1F00E
  8
ALPHA
 10
1603.168208
 20
214.206524
 30
0.0
 11
1603.341057
 21
213.126951
 31
0.0
  0
LINE
  5
1F00F
  8
ALPHA
 10
1601.829596
 20
214.854268
 30
0.0
 11
1601.656747
 21
215.933842
 31
0.0
  0
LINE
  5
1F010
  8
ALPHA
 10
1595.177659
 20
214.206524
 30
0.0
 11
1595.350508
 21
213.126951
 31
0.0
  0
LINE
  5
1F011
  8
ALPHA
 10
1604.111243
 20
218.524819
 30
0.0
 11
1604.322163
 21
217.66116
 31
0.0
  0
LINE
  5
1F012
  8
ALPHA
 10
1596.120694
 20
218.524819
 30
0.0
 11
1596.331614
 21
217.66116
 31
0.0
  0
LINE
  5
1F013
  8
ALPHA
 10
1605.057332
 20
218.740734
 30
0.0
 11
1605.133475
 21
219.172563
 31
0.0
  0
LINE
  5
1F014
  8
ALPHA
 10
1604.076225
 20
214.206524
 30
0.0
 11
1604.19044
 21
214.854268
 31
0.0
  0
LINE
  5
1F015
  8
ALPHA
 10
1604.225458
 20
219.172563
 30
0.0
 11
1604.111243
 21
218.524819
 31
0.0
  0
LINE
  5
1F016
  8
ALPHA
 10
1603.282423
 20
214.854268
 30
0.0
 11
1603.168208
 21
214.206524
 31
0.0
  0
LINE
  5
1F017
  8
ALPHA
 10
1601.715381
 20
214.206524
 30
0.0
 11
1601.829596
 21
214.854268
 31
0.0
  0
LINE
  5
1F018
  8
ALPHA
 10
1602.295209
 20
218.524819
 30
0.0
 11
1602.409424
 21
219.172563
 31
0.0
  0
LINE
  5
1F019
  8
ALPHA
 10
1600.921579
 20
214.854268
 30
0.0
 11
1600.807364
 21
214.206524
 31
0.0
  0
LINE
  5
1F01A
  8
ALPHA
 10
1601.501407
 20
219.172563
 30
0.0
 11
1601.425264
 21
218.740734
 31
0.0
  0
LINE
  5
1F01B
  8
ALPHA
 10
1597.066783
 20
218.740734
 30
0.0
 11
1597.142926
 21
219.172563
 31
0.0
  0
LINE
  5
1F01C
  8
ALPHA
 10
1596.085676
 20
214.206524
 30
0.0
 11
1596.19989
 21
214.854268
 31
0.0
  0
LINE
  5
1F01D
  8
ALPHA
 10
1596.234909
 20
219.172563
 30
0.0
 11
1596.120694
 21
218.524819
 31
0.0
  0
LINE
  5
1F01E
  8
ALPHA
 10
1595.291874
 20
214.854268
 30
0.0
 11
1595.177659
 21
214.206524
 31
0.0
  0
LINE
  5
1F01F
  8
ALPHA
 10
1601.779716
 20
217.66116
 30
0.0
 11
1602.295209
 21
218.524819
 31
0.0
  0
LINE
  5
1F020
  8
ALPHA
 10
1603.835988
 20
215.933842
 30
0.0
 11
1603.282423
 21
214.854268
 31
0.0
  0
LINE
  5
1F021
  8
ALPHA
 10
1601.161816
 20
213.126951
 30
0.0
 11
1601.715381
 21
214.206524
 31
0.0
  0
LINE
  5
1F022
  8
ALPHA
 10
1604.779023
 20
220.252137
 30
0.0
 11
1604.225458
 21
219.172563
 31
0.0
  0
LINE
  5
1F023
  8
ALPHA
 10
1595.845438
 20
215.933842
 30
0.0
 11
1595.291874
 21
214.854268
 31
0.0
  0
LINE
  5
1F024
  8
ALPHA
 10
1596.788473
 20
220.252137
 30
0.0
 11
1596.234909
 21
219.172563
 31
0.0
  0
LINE
  5
1F025
  8
ALPHA
 10
1585.179996
 20
229.726505
 30
0.0
 11
1585.242125
 21
229.967038
 31
0.0
  0
LINE
  5
1F026
  8
ALPHA
 10
1604.676616
 20
216.581586
 30
0.0
 11
1603.835988
 21
215.933842
 31
0.0
  0
LINE
  5
1F027
  8
ALPHA
 10
1600.502791
 20
212.479207
 30
0.0
 11
1601.161816
 21
213.126951
 31
0.0
  0
LINE
  5
1F028
  8
ALPHA
 10
1605.438048
 20
220.899881
 30
0.0
 11
1604.779023
 21
220.252137
 31
0.0
  0
LINE
  5
1F029
  8
ALPHA
 10
1601.120691
 20
217.013416
 30
0.0
 11
1601.779716
 21
217.66116
 31
0.0
  0
LINE
  5
1F02A
  8
ALPHA
 10
1597.447498
 20
220.899881
 30
0.0
 11
1596.788473
 21
220.252137
 31
0.0
  0
LINE
  5
1F02B
  8
ALPHA
 10
1604.19044
 20
214.854268
 30
0.0
 11
1604.887536
 21
215.717927
 31
0.0
  0
LINE
  5
1F02C
  8
ALPHA
 10
1600.807364
 20
214.206524
 30
0.0
 11
1600.110267
 21
213.342865
 31
0.0
  0
LINE
  5
1F02D
  8
ALPHA
 10
1596.19989
 20
214.854268
 30
0.0
 11
1596.896987
 21
215.717927
 31
0.0
  0
LINE
  5
1F02E
  8
ALPHA
 10
1605.133475
 20
219.172563
 30
0.0
 11
1605.610896
 21
219.820307
 31
0.0
  0
LINE
  5
1F02F
  8
ALPHA
 10
1601.425264
 20
218.740734
 30
0.0
 11
1600.947842
 21
218.092989
 31
0.0
  0
LINE
  5
1F030
  8
ALPHA
 10
1597.142926
 20
219.172563
 30
0.0
 11
1597.620347
 21
219.820307
 31
0.0
  0
LINE
  5
1F031
  8
ALPHA
 10
1604.887536
 20
215.717927
 30
0.0
 11
1605.690093
 21
216.149757
 31
0.0
  0
LINE
  5
1F032
  8
ALPHA
 10
1600.110267
 20
213.342865
 30
0.0
 11
1599.307711
 21
212.911036
 31
0.0
  0
LINE
  5
1F033
  8
ALPHA
 10
1605.077894
 20
216.797501
 30
0.0
 11
1604.676616
 21
216.581586
 31
0.0
  0
LINE
  5
1F034
  8
ALPHA
 10
1600.719413
 20
216.797501
 30
0.0
 11
1601.120691
 21
217.013416
 31
0.0
  0
LINE
  5
1F035
  8
ALPHA
 10
1596.896987
 20
215.717927
 30
0.0
 11
1597.699544
 21
216.149757
 31
0.0
  0
LINE
  5
1F036
  8
ALPHA
 10
1597.087345
 20
216.797501
 30
0.0
 11
1596.686067
 21
216.581586
 31
0.0
  0
LINE
  5
1F037
  8
ALPHA
 10
1599.480559
 20
211.831462
 30
0.0
 11
1600.502791
 21
212.479207
 31
0.0
  0
LINE
  5
1F038
  8
ALPHA
 10
1606.460279
 20
221.547625
 30
0.0
 11
1605.438048
 21
220.899881
 31
0.0
  0
LINE
  5
1F039
  8
ALPHA
 10
1598.46973
 20
221.547625
 30
0.0
 11
1597.447498
 21
220.899881
 31
0.0
  0
LINE
  5
1F03A
  8
ALPHA
 10
1605.610896
 20
219.820307
 30
0.0
 11
1606.451525
 21
220.468051
 31
0.0
  0
LINE
  5
1F03B
  8
ALPHA
 10
1600.947842
 20
218.092989
 30
0.0
 11
1600.107214
 21
217.445245
 31
0.0
  0
LINE
  5
1F03C
  8
ALPHA
 10
1596.686067
 20
216.581586
 30
0.0
 11
1595.845438
 21
215.933842
 31
0.0
  0
LINE
  5
1F03D
  8
ALPHA
 10
1597.620347
 20
219.820307
 30
0.0
 11
1598.460976
 21
220.468051
 31
0.0
  0
LINE
  5
1F03E
  8
ALPHA
 10
1585.242125
 20
229.967038
 30
0.0
 11
1585.40931
 21
230.134222
 31
0.0
  0
LINE
  5
1F03F
  8
ALPHA
 10
1566.3208
 20
257.755548
 30
0.0
 11
1566.3208
 21
245.755548
 31
0.0
  0
POLYLINE
  5
1F040
  8
ALPHA
 66
     1
 10
0.0
 20
0.0
 30
0.0
  0
VERTEX
  5
229DE
  8
ALPHA
 10
1531.775782
 20
316.850337
 30
0.0
  0
VERTEX
  5
229DF
  8
ALPHA
 10
1548.518727
 20
316.809082
 30
0.0
  0
VERTEX
  5
229E0
  8
ALPHA
 10
1565.334135
 20
316.777755
 30
0.0
  0
SEQEND
  5
229E1
  8
ALPHA
  0
POLYLINE
  5
1F045
  8
ALPHA
 66
     1
 10
0.0
 20
0.0
 30
0.0
  0
VERTEX
  5
229E2
  8
ALPHA
 10
1539.52728
 20
315.329686
 30
0.0
  0
VERTEX
  5
229E3
  8
ALPHA
 10
1552.511042
 20
315.300613
 30
0.0
  0
VERTEX
  5
229E4
  8
ALPHA
 10
1565.544746
 20
315.277449
 30
0.0
  0
SEQEND
  5
229E5
  8
ALPHA
  0
CIRCLE
  5
1F04A
  8
ALPHA
 10
1537.4208
 20
310.605548
 30
0.0
 40
4.004288
  0
CIRCLE
  5
1F04B
  8
ALPHA
 10
1537.4208
 20
310.605548
 30
0.0
 40
3.754319
  0
ARC
  5
1F04C
  8
ALPHA
 10
1537.4208
 20
310.605548
 30
0.0
 40
3.0
 50
101.536959
 51
258.463041
  0
ARC
  5
1F04D
  8
ALPHA
 10
1537.4208
 20
310.605548
 30
0.0
 40
3.0
 50
281.536959
 51
78.463041
  0
ARC
  5
1F04E
  8
ALPHA
 10
1537.4208
 20
310.605548
 30
0.0
 40
3.5
 50
99.653406
 51
260.346594
  0
ARC
  5
1F04F
  8
ALPHA
 10
1537.4208
 20
310.605548
 30
0.0
 40
3.5
 50
279.653406
 51
80.346594
  0
ARC
  5
1F050
  8
ALPHA
 10
1538.474079
 20
308.781215
 30
0.0
 40
0.688158
 50
73.266405
 51
166.733595
  0
ARC
  5
1F051
  8
ALPHA
 10
1536.367521
 20
308.781215
 30
0.0
 40
0.688158
 50
13.266405
 51
106.733595
  0
ARC
  5
1F052
  8
ALPHA
 10
1536.055944
 20
309.817548
 30
0.0
 40
0.394
 50
133.266405
 51
286.733595
  0
ARC
  5
1F053
  8
ALPHA
 10
1538.785656
 20
309.817548
 30
0.0
 40
0.394
 50
253.266405
 51
46.733595
  0
POLYLINE
  5
1F054
  8
ALPHA
 66
     1
 10
0.0
 20
0.0
 30
0.0
  0
VERTEX
  5
229E6
  8
ALPHA
 10
1537.4208
 20
306.379727
 30
0.0
  0
VERTEX
  5
229E7
  8
ALPHA
 10
1536.267703
 20
306.543925
 30
0.0
  0
VERTEX
  5
229E8
  8
ALPHA
 10
1535.213476
 20
307.010395
 30
0.0
  0
VERTEX
  5
229E9
  8
ALPHA
 10
1534.33299
 20
307.735317
 30
0.0
  0
VERTEX
  5
229EA
  8
ALPHA
 10
1533.682674
 20
308.661119
 30
0.0
  0
VERTEX
  5
229EB
  8
ALPHA
 10
1533.301994
 20
309.722958
 30
0.0
  0
VERTEX
  5
229EC
  8
ALPHA
 10
1533.215702
 20
310.846797
 30
0.0
  0
VERTEX
  5
229ED
  8
ALPHA
 10
1533.429664
 20
311.953883
 30
0.0
  0
VERTEX
  5
229EE
  8
ALPHA
 10
1533.929775
 20
312.96651
 30
0.0
  0
VERTEX
  5
229EF
  8
ALPHA
 10
1534.683732
 20
313.813522
 30
0.0
  0
VERTEX
  5
229F0
  8
ALPHA
 10
1535.64531
 20
314.433991
 30
0.0
  0
SEQEND
  5
229F1
  8
ALPHA
  0
POLYLINE
  5
1F061
  8
ALPHA
 66
     1
 10
0.0
 20
0.0
 30
0.0
  0
VERTEX
  5
229F2
  8
ALPHA
 10
1537.27571
 20
305.379879
 30
0.0
  0
VERTEX
  5
229F3
  8
ALPHA
 10
1535.854737
 20
305.579784
 30
0.0
  0
VERTEX
  5
229F4
  8
ALPHA
 10
1534.546425
 20
306.154333
 30
0.0
  0
VERTEX
  5
229F5
  8
ALPHA
 10
1533.452759
 20
307.049433
 30
0.0
  0
VERTEX
  5
229F6
  8
ALPHA
 10
1532.644267
 20
308.194095
 30
0.0
  0
VERTEX
  5
229F7
  8
ALPHA
 10
1532.170241
 20
309.507984
 30
0.0
  0
VERTEX
  5
229F8
  8
ALPHA
 10
1532.061725
 20
310.899318
 30
0.0
  0
VERTEX
  5
229F9
  8
ALPHA
 10
1532.326229
 20
312.270323
 30
0.0
  0
VERTEX
  5
229FA
  8
ALPHA
 10
1532.946327
 20
313.524445
 30
0.0
  0
VERTEX
  5
229FB
  8
ALPHA
 10
1533.881862
 20
314.573259
 30
0.0
  0
VERTEX
  5
229FC
  8
ALPHA
 10
1535.075162
 20
315.341043
 30
0.0
  0
SEQEND
  5
229FD
  8
ALPHA
  0
POLYLINE
  5
1F06E
  8
ALPHA
 66
     1
 10
0.0
 20
0.0
 30
0.0
  0
VERTEX
  5
229FE
  8
ALPHA
 10
1539.238393
 20
314.426776
 30
0.0
  0
VERTEX
  5
229FF
  8
ALPHA
 10
1539.821804
 20
314.092044
 30
0.0
  0
VERTEX
  5
22A00
  8
ALPHA
 10
1540.398416
 20
313.617026
 30
0.0
  0
VERTEX
  5
22A01
  8
ALPHA
 10
1540.928381
 20
312.981568
 30
0.0
  0
VERTEX
  5
22A02
  8
ALPHA
 10
1541.356957
 20
312.1759
 30
0.0
  0
VERTEX
  5
22A03
  8
ALPHA
 10
1541.613298
 20
311.22899
 30
0.0
  0
VERTEX
  5
22A04
  8
ALPHA
 10
1541.641327
 20
310.213666
 30
0.0
  0
VERTEX
  5
22A05
  8
ALPHA
 10
1541.421863
 20
309.208248
 30
0.0
  0
VERTEX
  5
22A06
  8
ALPHA
 10
1540.963932
 20
308.282682
 30
0.0
  0
VERTEX
  5
22A07
  8
ALPHA
 10
1540.294263
 20
307.494959
 30
0.0
  0
VERTEX
  5
22A08
  8
ALPHA
 10
1539.448742
 20
306.890938
 30
0.0
  0
VERTEX
  5
22A09
  8
ALPHA
 10
1538.471997
 20
306.509157
 30
0.0
  0
VERTEX
  5
22A0A
  8
ALPHA
 10
1537.4208
 20
306.379727
 30
0.0
  0
SEQEND
  5
22A0B
  8
ALPHA
  0
POLYLINE
  5
1F07D
  8
ALPHA
 66
     1
 10
0.0
 20
0.0
 30
0.0
  0
VERTEX
  5
22A0C
  8
ALPHA
 10
1539.52728
 20
315.329686
 30
0.0
  0
VERTEX
  5
22A0D
  8
ALPHA
 10
1540.249875
 20
314.915422
 30
0.0
  0
VERTEX
  5
22A0E
  8
ALPHA
 10
1540.963947
 20
314.32775
 30
0.0
  0
VERTEX
  5
22A0F
  8
ALPHA
 10
1541.620219
 20
313.541664
 30
0.0
  0
VERTEX
  5
22A10
  8
ALPHA
 10
1542.150934
 20
312.544777
 30
0.0
  0
VERTEX
  5
22A11
  8
ALPHA
 10
1542.468026
 20
311.372937
 30
0.0
  0
VERTEX
  5
22A12
  8
ALPHA
 10
1542.501841
 20
310.116979
 30
0.0
  0
VERTEX
  5
22A13
  8
ALPHA
 10
1542.228954
 20
308.873938
 30
0.0
  0
VERTEX
  5
22A14
  8
ALPHA
 10
1541.660823
 20
307.730085
 30
0.0
  0
VERTEX
  5
22A15
  8
ALPHA
 10
1540.830643
 20
306.756826
 30
0.0
  0
VERTEX
  5
22A16
  8
ALPHA
 10
1539.782771
 20
306.010743
 30
0.0
  0
VERTEX
  5
22A17
  8
ALPHA
 10
1538.572538
 20
305.539305
 30
0.0
  0
VERTEX
  5
22A18
  8
ALPHA
 10
1537.27571
 20
305.379879
 30
0.0
  0
SEQEND
  5
22A19
  8
ALPHA
  0
ARC
  5
1F08C
  8
ALPHA
 10
1537.4208
 20
310.605548
 30
0.0
 40
3.5
 50
260.650837
 51
279.349163
  0
ARC
  5
1F08D
  8
ALPHA
 10
1537.4208
 20
309.029548
 30
0.0
 40
0.394
 50
193.266405
 51
346.733595
  0
LINE
  5
1F08E
  8
ALPHA
 10
1536.852223
 20
307.152039
 30
0.0
 11
1536.833893
 21
307.155107
 31
0.0
  0
LINE
  5
1F08F
  8
ALPHA
 10
1529.91593
 20
302.160363
 30
0.0
 11
1530.196956
 21
302.160363
 31
0.0
  0
LINE
  5
1F090
  8
ALPHA
 10
1530.196956
 20
299.050732
 30
0.0
 11
1529.91593
 21
299.050732
 31
0.0
  0
LINE
  5
1F091
  8
ALPHA
 10
1529.91593
 20
294.660363
 30
0.0
 11
1530.196956
 21
294.660363
 31
0.0
  0
LINE
  5
1F092
  8
ALPHA
 10
1530.196956
 20
291.550732
 30
0.0
 11
1529.91593
 21
291.550732
 31
0.0
  0
LINE
  5
1F093
  8
ALPHA
 10
1529.91593
 20
287.160363
 30
0.0
 11
1530.196956
 21
287.160363
 31
0.0
  0
LINE
  5
1F094
  8
ALPHA
 10
1530.196956
 20
284.050732
 30
0.0
 11
1529.91593
 21
284.050732
 31
0.0
  0
LINE
  5
1F095
  8
ALPHA
 10
1529.91593
 20
279.660363
 30
0.0
 11
1530.196956
 21
279.660363
 31
0.0
  0
LINE
  5
1F096
  8
ALPHA
 10
1536.852223
 20
307.152039
 30
0.0
 11
1536.852223
 21
309.269708
 31
0.0
  0
LINE
  5
1F097
  8
ALPHA
 10
1536.8208
 20
307.66616
 30
0.0
 11
1536.8208
 21
309.298998
 31
0.0
  0
POLYLINE
  5
1F098
  8
ALPHA
 66
     1
 10
0.0
 20
0.0
 30
0.0
  0
VERTEX
  5
22A1A
  8
ALPHA
 10
1536.8208
 20
307.66616
 30
0.0
  0
VERTEX
  5
22A1B
  8
ALPHA
 10
1536.821254
 20
307.532922
 30
0.0
  0
VERTEX
  5
22A1C
  8
ALPHA
 10
1536.822577
 20
307.40951
 30
0.0
  0
VERTEX
  5
22A1D
  8
ALPHA
 10
1536.824671
 20
307.304005
 30
0.0
  0
VERTEX
  5
22A1E
  8
ALPHA
 10
1536.827386
 20
307.223324
 30
0.0
  0
VERTEX
  5
22A1F
  8
ALPHA
 10
1536.830533
 20
307.172661
 30
0.0
  0
VERTEX
  5
22A20
  8
ALPHA
 10
1536.833893
 20
307.155107
 30
0.0
  0
SEQEND
  5
22A21
  8
ALPHA
  0
POLYLINE
  5
1F0A1
  8
ALPHA
 66
     1
 10
0.0
 20
0.0
 30
0.0
  0
VERTEX
  5
22A22
  8
ALPHA
 10
1530.196956
 20
302.160363
 30
0.0
  0
VERTEX
  5
22A23
  8
ALPHA
 10
1530.207463
 20
302.039074
 30
0.0
  0
VERTEX
  5
22A24
  8
ALPHA
 10
1530.216282
 20
301.697049
 30
0.0
  0
VERTEX
  5
22A25
  8
ALPHA
 10
1530.22208
 20
301.193385
 30
0.0
  0
VERTEX
  5
22A26
  8
ALPHA
 10
1530.224094
 20
300.605548
 30
0.0
  0
VERTEX
  5
22A27
  8
ALPHA
 10
1530.22208
 20
300.01771
 30
0.0
  0
VERTEX
  5
22A28
  8
ALPHA
 10
1530.216282
 20
299.514047
 30
0.0
  0
VERTEX
  5
22A29
  8
ALPHA
 10
1530.207463
 20
299.172022
 30
0.0
  0
VERTEX
  5
22A2A
  8
ALPHA
 10
1530.196956
 20
299.050732
 30
0.0
  0
SEQEND
  5
22A2B
  8
ALPHA
  0
POLYLINE
  5
1F0AC
  8
ALPHA
 66
     1
 10
0.0
 20
0.0
 30
0.0
  0
VERTEX
  5
22A2C
  8
ALPHA
 10
1529.91593
 20
299.050732
 30
0.0
  0
VERTEX
  5
22A2D
  8
ALPHA
 10
1529.905422
 20
299.171966
 30
0.0
  0
VERTEX
  5
22A2E
  8
ALPHA
 10
1529.896602
 20
299.513977
 30
0.0
  0
VERTEX
  5
22A2F
  8
ALPHA
 10
1529.890804
 20
300.017666
 30
0.0
  0
VERTEX
  5
22A30
  8
ALPHA
 10
1529.888789
 20
300.605548
 30
0.0
  0
VERTEX
  5
22A31
  8
ALPHA
 10
1529.890804
 20
301.19343
 30
0.0
  0
VERTEX
  5
22A32
  8
ALPHA
 10
1529.896602
 20
301.697118
 30
0.0
  0
VERTEX
  5
22A33
  8
ALPHA
 10
1529.905422
 20
302.039129
 30
0.0
  0
VERTEX
  5
22A34
  8
ALPHA
 10
1529.91593
 20
302.160363
 30
0.0
  0
SEQEND
  5
22A35
  8
ALPHA
  0
POLYLINE
  5
1F0B7
  8
ALPHA
 66
     1
 10
0.0
 20
0.0
 30
0.0
  0
VERTEX
  5
22A36
  8
ALPHA
 10
1530.196956
 20
294.660363
 30
0.0
  0
VERTEX
  5
22A37
  8
ALPHA
 10
1530.207463
 20
294.539074
 30
0.0
  0
VERTEX
  5
22A38
  8
ALPHA
 10
1530.216282
 20
294.197049
 30
0.0
  0
VERTEX
  5
22A39
  8
ALPHA
 10
1530.22208
 20
293.693385
 30
0.0
  0
VERTEX
  5
22A3A
  8
ALPHA
 10
1530.224094
 20
293.105548
 30
0.0
  0
VERTEX
  5
22A3B
  8
ALPHA
 10
1530.22208
 20
292.51771
 30
0.0
  0
VERTEX
  5
22A3C
  8
ALPHA
 10
1530.216282
 20
292.014047
 30
0.0
  0
VERTEX
  5
22A3D
  8
ALPHA
 10
1530.207463
 20
291.672022
 30
0.0
  0
VERTEX
  5
22A3E
  8
ALPHA
 10
1530.196956
 20
291.550732
 30
0.0
  0
SEQEND
  5
22A3F
  8
ALPHA
  0
POLYLINE
  5
1F0C2
  8
ALPHA
 66
     1
 10
0.0
 20
0.0
 30
0.0
  0
VERTEX
  5
22A40
  8
ALPHA
 10
1529.91593
 20
291.550732
 30
0.0
  0
VERTEX
  5
22A41
  8
ALPHA
 10
1529.905422
 20
291.671966
 30
0.0
  0
VERTEX
  5
22A42
  8
ALPHA
 10
1529.896602
 20
292.013977
 30
0.0
  0
VERTEX
  5
22A43
  8
ALPHA
 10
1529.890804
 20
292.517666
 30
0.0
  0
VERTEX
  5
22A44
  8
ALPHA
 10
1529.888789
 20
293.105548
 30
0.0
  0
VERTEX
  5
22A45
  8
ALPHA
 10
1529.890804
 20
293.69343
 30
0.0
  0
VERTEX
  5
22A46
  8
ALPHA
 10
1529.896602
 20
294.197118
 30
0.0
  0
VERTEX
  5
22A47
  8
ALPHA
 10
1529.905422
 20
294.539129
 30
0.0
  0
VERTEX
  5
22A48
  8
ALPHA
 10
1529.91593
 20
294.660363
 30
0.0
  0
SEQEND
  5
22A49
  8
ALPHA
  0
POLYLINE
  5
1F0CD
  8
ALPHA
 66
     1
 10
0.0
 20
0.0
 30
0.0
  0
VERTEX
  5
22A4A
  8
ALPHA
 10
1530.196956
 20
287.160363
 30
0.0
  0
VERTEX
  5
22A4B
  8
ALPHA
 10
1530.207463
 20
287.039074
 30
0.0
  0
VERTEX
  5
22A4C
  8
ALPHA
 10
1530.216282
 20
286.697049
 30
0.0
  0
VERTEX
  5
22A4D
  8
ALPHA
 10
1530.22208
 20
286.193385
 30
0.0
  0
VERTEX
  5
22A4E
  8
ALPHA
 10
1530.224094
 20
285.605548
 30
0.0
  0
VERTEX
  5
22A4F
  8
ALPHA
 10
1530.22208
 20
285.01771
 30
0.0
  0
VERTEX
  5
22A50
  8
ALPHA
 10
1530.216282
 20
284.514047
 30
0.0
  0
VERTEX
  5
22A51
  8
ALPHA
 10
1530.207463
 20
284.172022
 30
0.0
  0
VERTEX
  5
22A52
  8
ALPHA
 10
1530.196956
 20
284.050732
 30
0.0
  0
SEQEND
  5
22A53
  8
ALPHA
  0
POLYLINE
  5
1F0D8
  8
ALPHA
 66
     1
 10
0.0
 20
0.0
 30
0.0
  0
VERTEX
  5
22A54
  8
ALPHA
 10
1529.91593
 20
284.050732
 30
0.0
  0
VERTEX
  5
22A55
  8
ALPHA
 10
1529.905422
 20
284.171966
 30
0.0
  0
VERTEX
  5
22A56
  8
ALPHA
 10
1529.896602
 20
284.513977
 30
0.0
  0
VERTEX
  5
22A57
  8
ALPHA
 10
1529.890804
 20
285.017666
 30
0.0
  0
VERTEX
  5
22A58
  8
ALPHA
 10
1529.888789
 20
285.605548
 30
0.0
  0
VERTEX
  5
22A59
  8
ALPHA
 10
1529.890804
 20
286.19343
 30
0.0
  0
VERTEX
  5
22A5A
  8
ALPHA
 10
1529.896602
 20
286.697118
 30
0.0
  0
VERTEX
  5
22A5B
  8
ALPHA
 10
1529.905422
 20
287.039129
 30
0.0
  0
VERTEX
  5
22A5C
  8
ALPHA
 10
1529.91593
 20
287.160363
 30
0.0
  0
SEQEND
  5
22A5D
  8
ALPHA
  0
LINE
  5
1F0E3
  8
ALPHA
 10
1537.989377
 20
307.152039
 30
0.0
 11
1538.007707
 21
307.155107
 31
0.0
  0
POLYLINE
  5
1F0E4
  8
ALPHA
 66
     1
 10
0.0
 20
0.0
 30
0.0
  0
VERTEX
  5
22A5E
  8
ALPHA
 10
1538.0208
 20
307.66616
 30
0.0
  0
VERTEX
  5
22A5F
  8
ALPHA
 10
1538.020345
 20
307.532922
 30
0.0
  0
VERTEX
  5
22A60
  8
ALPHA
 10
1538.019022
 20
307.40951
 30
0.0
  0
VERTEX
  5
22A61
  8
ALPHA
 10
1538.016929
 20
307.304005
 30
0.0
  0
VERTEX
  5
22A62
  8
ALPHA
 10
1538.014213
 20
307.223324
 30
0.0
  0
VERTEX
  5
22A63
  8
ALPHA
 10
1538.011066
 20
307.172661
 30
0.0
  0
VERTEX
  5
22A64
  8
ALPHA
 10
1538.007707
 20
307.155107
 30
0.0
  0
SEQEND
  5
22A65
  8
ALPHA
  0
LINE
  5
1F0ED
  8
ALPHA
 10
1538.0208
 20
307.66616
 30
0.0
 11
1538.0208
 21
309.298998
 31
0.0
  0
LINE
  5
1F0EE
  8
ALPHA
 10
1537.989377
 20
307.152039
 30
0.0
 11
1537.989377
 21
309.269708
 31
0.0
  0
ARC
  5
1F0EF
  8
ALPHA
 10
1538.474079
 20
312.42988
 30
0.0
 40
0.688158
 50
193.266405
 51
286.733595
  0
ARC
  5
1F0F0
  8
ALPHA
 10
1537.4208
 20
312.181548
 30
0.0
 40
0.394
 50
13.266405
 51
166.733595
  0
ARC
  5
1F0F1
  8
ALPHA
 10
1537.4208
 20
310.605548
 30
0.0
 40
3.5
 50
80.650837
 51
99.349163
  0
POLYLINE
  5
1F0F2
  8
ALPHA
 66
     1
 10
0.0
 20
0.0
 30
0.0
  0
VERTEX
  5
22A66
  8
ALPHA
 10
1537.392643
 20
316.801775
 30
0.0
  0
VERTEX
  5
22A67
  8
ALPHA
 10
1537.589682
 20
316.793362
 30
0.0
  0
VERTEX
  5
22A68
  8
ALPHA
 10
1537.784905
 20
316.762136
 30
0.0
  0
VERTEX
  5
22A69
  8
ALPHA
 10
1537.983554
 20
316.704488
 30
0.0
  0
VERTEX
  5
22A6A
  8
ALPHA
 10
1538.188084
 20
316.617038
 30
0.0
  0
VERTEX
  5
22A6B
  8
ALPHA
 10
1538.40546
 20
316.492427
 30
0.0
  0
VERTEX
  5
22A6C
  8
ALPHA
 10
1538.642794
 20
316.318888
 30
0.0
  0
VERTEX
  5
22A6D
  8
ALPHA
 10
1538.906844
 20
316.079728
 30
0.0
  0
VERTEX
  5
22A6E
  8
ALPHA
 10
1539.202608
 20
315.754776
 30
0.0
  0
VERTEX
  5
22A6F
  8
ALPHA
 10
1539.527274
 20
315.329687
 30
0.0
  0
SEQEND
  5
22A70
  8
ALPHA
  0
POLYLINE
  5
1F0FE
  8
ALPHA
 66
     1
 10
0.0
 20
0.0
 30
0.0
  0
VERTEX
  5
22A71
  8
ALPHA
 10
1537.4208
 20
314.824406
 30
0.0
  0
VERTEX
  5
22A72
  8
ALPHA
 10
1537.581995
 20
314.822034
 30
0.0
  0
VERTEX
  5
22A73
  8
ALPHA
 10
1537.748904
 20
314.813516
 30
0.0
  0
VERTEX
  5
22A74
  8
ALPHA
 10
1537.921117
 20
314.79796
 30
0.0
  0
VERTEX
  5
22A75
  8
ALPHA
 10
1538.099517
 20
314.774357
 30
0.0
  0
VERTEX
  5
22A76
  8
ALPHA
 10
1538.288901
 20
314.740731
 30
0.0
  0
VERTEX
  5
22A77
  8
ALPHA
 10
1538.494692
 20
314.69387
 30
0.0
  0
VERTEX
  5
22A78
  8
ALPHA
 10
1538.72146
 20
314.629267
 30
0.0
  0
VERTEX
  5
22A79
  8
ALPHA
 10
1538.971421
 20
314.541412
 30
0.0
  0
VERTEX
  5
22A7A
  8
ALPHA
 10
1539.238393
 20
314.426776
 30
0.0
  0
SEQEND
  5
22A7B
  8
ALPHA
  0
LINE
  5
1F10A
  8
ALPHA
 10
1556.8208
 20
332.305548
 30
0.0
 11
1533.8208
 21
332.305548
 31
0.0
  0
LINE
  5
1F10B
  8
ALPHA
 10
1533.8208
 20
323.305548
 30
0.0
 11
1556.8208
 21
323.305548
 31
0.0
  0
ARC
  5
1F10C
  8
ALPHA
 10
1536.367521
 20
312.42988
 30
0.0
 40
0.688158
 50
253.266405
 51
346.733595
  0
ARC
  5
1F10D
  8
ALPHA
 10
1536.055944
 20
311.393548
 30
0.0
 40
0.394
 50
73.266405
 51
226.733595
  0
ARC
  5
1F10E
  8
ALPHA
 10
1535.314242
 20
310.605548
 30
0.0
 40
0.688158
 50
313.266405
 51
46.733595
  0
LINE
  5
1F10F
  8
ALPHA
 10
1535.075162
 20
315.341043
 30
0.0
 11
1531.540941
 21
315.350565
 31
0.0
  0
LINE
  5
1F110
  8
ALPHA
 10
1531.540941
 20
315.350567
 30
0.0
 11
1530.276009
 21
315.350567
 31
0.0
  0
LINE
  5
1F111
  8
ALPHA
 10
1536.852223
 20
314.059056
 30
0.0
 11
1536.833893
 21
314.055988
 31
0.0
  0
POLYLINE
  5
1F112
  8
ALPHA
 66
     1
 10
0.0
 20
0.0
 30
0.0
  0
VERTEX
  5
22A7C
  8
ALPHA
 10
1531.775781
 20
316.850338
 30
0.0
  0
VERTEX
  5
22A7D
  8
ALPHA
 10
1531.201948
 20
316.736044
 30
0.0
  0
VERTEX
  5
22A7E
  8
ALPHA
 10
1530.715443
 20
316.410904
 30
0.0
  0
VERTEX
  5
22A7F
  8
ALPHA
 10
1530.390303
 20
315.924399
 30
0.0
  0
VERTEX
  5
22A80
  8
ALPHA
 10
1530.276009
 20
315.350567
 30
0.0
  0
SEQEND
  5
22A81
  8
ALPHA
  0
LINE
  5
1F119
  8
ALPHA
 10
1531.320571
 20
317.305548
 30
0.0
 11
1531.775782
 21
316.850337
 31
0.0
  0
LINE
  5
1F11A
  8
ALPHA
 10
1529.8208
 20
315.805776
 30
0.0
 11
1530.276009
 21
315.350567
 31
0.0
  0
POLYLINE
  5
1F11B
  8
ALPHA
 66
     1
 10
0.0
 20
0.0
 30
0.0
  0
VERTEX
  5
22A82
  8
ALPHA
 10
1535.075161
 20
315.341043
 30
0.0
  0
VERTEX
  5
22A83
  8
ALPHA
 10
1535.250095
 20
314.984021
 30
0.0
  0
VERTEX
  5
22A84
  8
ALPHA
 10
1535.42093
 20
314.684509
 30
0.0
  0
VERTEX
  5
22A85
  8
ALPHA
 10
1535.560145
 20
314.490757
 30
0.0
  0
VERTEX
  5
22A86
  8
ALPHA
 10
1535.645316
 20
314.433978
 30
0.0
  0
SEQEND
  5
22A87
  8
ALPHA
  0
POLYLINE
  5
1F122
  8
ALPHA
 66
     1
 10
0.0
 20
0.0
 30
0.0
  0
VERTEX
  5
22A88
  8
ALPHA
 10
1536.8208
 20
313.544935
 30
0.0
  0
VERTEX
  5
22A89
  8
ALPHA
 10
1536.821254
 20
313.678173
 30
0.0
  0
VERTEX
  5
22A8A
  8
ALPHA
 10
1536.822577
 20
313.801585
 30
0.0
  0
VERTEX
  5
22A8B
  8
ALPHA
 10
1536.824671
 20
313.90709
 30
0.0
  0
VERTEX
  5
22A8C
  8
ALPHA
 10
1536.827386
 20
313.987772
 30
0.0
  0
VERTEX
  5
22A8D
  8
ALPHA
 10
1536.830533
 20
314.038434
 30
0.0
  0
VERTEX
  5
22A8E
  8
ALPHA
 10
1536.833893
 20
314.055988
 30
0.0
  0
SEQEND
  5
22A8F
  8
ALPHA
  0
LINE
  5
1F12B
  8
ALPHA
 10
1536.852223
 20
311.941387
 30
0.0
 11
1536.852223
 21
314.059056
 31
0.0
  0
LINE
  5
1F12C
  8
ALPHA
 10
1536.8208
 20
311.912097
 30
0.0
 11
1536.8208
 21
313.544935
 31
0.0
  0
LINE
  5
1F12D
  8
ALPHA
 10
1533.8208
 20
332.305548
 30
0.0
 11
1533.8208
 21
323.305548
 31
0.0
  0
POLYLINE
  5
1F12E
  8
ALPHA
 66
     1
 10
0.0
 20
0.0
 30
0.0
  0
VERTEX
  5
22A90
  8
ALPHA
 10
1529.8208
 20
315.805776
 30
0.0
  0
VERTEX
  5
22A91
  8
ALPHA
 10
1529.934946
 20
316.379728
 30
0.0
  0
VERTEX
  5
22A92
  8
ALPHA
 10
1530.260045
 20
316.866302
 30
0.0
  0
VERTEX
  5
22A93
  8
ALPHA
 10
1530.746619
 20
317.191402
 30
0.0
  0
VERTEX
  5
22A94
  8
ALPHA
 10
1531.320571
 20
317.305548
 30
0.0
  0
SEQEND
  5
22A95
  8
ALPHA
  0
POLYLINE
  5
1F135
  8
ALPHA
 66
     1
 10
0.0
 20
0.0
 30
0.0
  0
VERTEX
  5
22A96
  8
ALPHA
 10
1537.392643
 20
316.801775
 30
0.0
  0
VERTEX
  5
22A97
  8
ALPHA
 10
1537.34591
 20
316.633231
 30
0.0
  0
VERTEX
  5
22A98
  8
ALPHA
 10
1537.312006
 20
316.326669
 30
0.0
  0
VERTEX
  5
22A99
  8
ALPHA
 10
1537.296705
 20
315.934389
 30
0.0
  0
VERTEX
  5
22A9A
  8
ALPHA
 10
1537.302599
 20
315.523315
 30
0.0
  0
VERTEX
  5
22A9B
  8
ALPHA
 10
1537.328667
 20
315.16358
 30
0.0
  0
VERTEX
  5
22A9C
  8
ALPHA
 10
1537.370449
 20
314.916556
 30
0.0
  0
VERTEX
  5
22A9D
  8
ALPHA
 10
1537.4208
 20
314.824386
 30
0.0
  0
SEQEND
  5
22A9E
  8
ALPHA
  0
POLYLINE
  5
1F13F
  8
ALPHA
 66
     1
 10
0.0
 20
0.0
 30
0.0
  0
VERTEX
  5
22A9F
  8
ALPHA
 10
1535.075161
 20
315.341043
 30
0.0
  0
VERTEX
  5
22AA0
  8
ALPHA
 10
1535.41707
 20
315.768
 30
0.0
  0
VERTEX
  5
22AA1
  8
ALPHA
 10
1535.754097
 20
316.101981
 30
0.0
  0
VERTEX
  5
22AA2
  8
ALPHA
 10
1536.071893
 20
316.350448
 30
0.0
  0
VERTEX
  5
22AA3
  8
ALPHA
 10
1536.367326
 20
316.529391
 30
0.0
  0
VERTEX
  5
22AA4
  8
ALPHA
 10
1536.641163
 20
316.653658
 30
0.0
  0
VERTEX
  5
22AA5
  8
ALPHA
 10
1536.897137
 20
316.735258
 30
0.0
  0
VERTEX
  5
22AA6
  8
ALPHA
 10
1537.141745
 20
316.783087
 30
0.0
  0
VERTEX
  5
22AA7
  8
ALPHA
 10
1537.392643
 20
316.801794
 30
0.0
  0
SEQEND
  5
22AA8
  8
ALPHA
  0
POLYLINE
  5
1F14A
  8
ALPHA
 66
     1
 10
0.0
 20
0.0
 30
0.0
  0
VERTEX
  5
22AA9
  8
ALPHA
 10
1531.775781
 20
316.850338
 30
0.0
  0
VERTEX
  5
22AAA
  8
ALPHA
 10
1531.688082
 20
316.731347
 30
0.0
  0
VERTEX
  5
22AAB
  8
ALPHA
 10
1531.612037
 20
316.405036
 30
0.0
  0
VERTEX
  5
22AAC
  8
ALPHA
 10
1531.56041
 20
315.920422
 30
0.0
  0
VERTEX
  5
22AAD
  8
ALPHA
 10
1531.540941
 20
315.350567
 30
0.0
  0
SEQEND
  5
22AAE
  8
ALPHA
  0
POLYLINE
  5
1F151
  8
ALPHA
 66
     1
 10
0.0
 20
0.0
 30
0.0
  0
VERTEX
  5
22AAF
  8
ALPHA
 10
1535.64531
 20
314.433991
 30
0.0
  0
VERTEX
  5
22AB0
  8
ALPHA
 10
1535.915268
 20
314.548523
 30
0.0
  0
VERTEX
  5
22AB1
  8
ALPHA
 10
1536.175236
 20
314.638178
 30
0.0
  0
VERTEX
  5
22AB2
  8
ALPHA
 10
1536.416945
 20
314.704723
 30
0.0
  0
VERTEX
  5
22AB3
  8
ALPHA
 10
1536.63979
 20
314.75251
 30
0.0
  0
VERTEX
  5
22AB4
  8
ALPHA
 10
1536.845831
 20
314.785585
 30
0.0
  0
VERTEX
  5
22AB5
  8
ALPHA
 10
1537.038343
 20
314.807148
 30
0.0
  0
VERTEX
  5
22AB6
  8
ALPHA
 10
1537.225513
 20
314.819721
 30
0.0
  0
VERTEX
  5
22AB7
  8
ALPHA
 10
1537.4208
 20
314.824406
 30
0.0
  0
SEQEND
  5
22AB8
  8
ALPHA
  0
ARC
  5
1F15C
  8
ALPHA
 10
1538.785656
 20
311.393548
 30
0.0
 40
0.394
 50
313.266405
 51
106.733595
  0
ARC
  5
1F15D
  8
ALPHA
 10
1539.527358
 20
310.605548
 30
0.0
 40
0.688158
 50
133.266405
 51
226.733595
  0
LINE
  5
1F15E
  8
ALPHA
 10
1544.987467
 20
330.305548
 30
0.0
 11
1545.8208
 21
330.305548
 31
0.0
  0
LINE
  5
1F15F
  8
ALPHA
 10
1546.341633
 20
327.007675
 30
0.0
 11
1544.466633
 21
327.007675
 31
0.0
  0
LINE
  5
1F160
  8
ALPHA
 10
1546.4458
 20
326.582143
 30
0.0
 11
1544.362467
 21
326.582143
 31
0.0
  0
LINE
  5
1F161
  8
ALPHA
 10
1543.9458
 20
325.305548
 30
0.0
 11
1543.3208
 21
325.305548
 31
0.0
  0
LINE
  5
1F162
  8
ALPHA
 10
1547.487467
 20
325.305548
 30
0.0
 11
1546.862467
 21
325.305548
 31
0.0
  0
LINE
  5
1F163
  8
ALPHA
 10
1537.989377
 20
314.059056
 30
0.0
 11
1538.007707
 21
314.055988
 31
0.0
  0
LINE
  5
1F164
  8
ALPHA
 10
1545.404133
 20
329.880016
 30
0.0
 11
1546.341633
 21
327.007675
 31
0.0
  0
LINE
  5
1F165
  8
ALPHA
 10
1546.862467
 20
325.305548
 30
0.0
 11
1546.4458
 21
326.582143
 31
0.0
  0
LINE
  5
1F166
  8
ALPHA
 10
1545.8208
 20
330.305548
 30
0.0
 11
1547.487467
 21
325.305548
 31
0.0
  0
LINE
  5
1F167
  8
ALPHA
 10
1556.8208
 20
323.305548
 30
0.0
 11
1556.8208
 21
332.305548
 31
0.0
  0
LINE
  5
1F168
  8
ALPHA
 10
1538.0208
 20
311.912097
 30
0.0
 11
1538.0208
 21
313.544935
 31
0.0
  0
LINE
  5
1F169
  8
ALPHA
 10
1537.989377
 20
311.941387
 30
0.0
 11
1537.989377
 21
314.059056
 31
0.0
  0
POLYLINE
  5
1F16A
  8
ALPHA
 66
     1
 10
0.0
 20
0.0
 30
0.0
  0
VERTEX
  5
22AB9
  8
ALPHA
 10
1538.0208
 20
313.544935
 30
0.0
  0
VERTEX
  5
22ABA
  8
ALPHA
 10
1538.020345
 20
313.678173
 30
0.0
  0
VERTEX
  5
22ABB
  8
ALPHA
 10
1538.019022
 20
313.801585
 30
0.0
  0
VERTEX
  5
22ABC
  8
ALPHA
 10
1538.016929
 20
313.90709
 30
0.0
  0
VERTEX
  5
22ABD
  8
ALPHA
 10
1538.014213
 20
313.987772
 30
0.0
  0
VERTEX
  5
22ABE
  8
ALPHA
 10
1538.011066
 20
314.038434
 30
0.0
  0
VERTEX
  5
22ABF
  8
ALPHA
 10
1538.007707
 20
314.055988
 30
0.0
  0
SEQEND
  5
22AC0
  8
ALPHA
  0
POLYLINE
  5
1F173
  8
ALPHA
 66
     1
 10
0.0
 20
0.0
 30
0.0
  0
VERTEX
  5
22AC1
  8
ALPHA
 10
1539.52728
 20
315.329686
 30
0.0
  0
VERTEX
  5
22AC2
  8
ALPHA
 10
1539.343909
 20
314.897329
 30
0.0
  0
VERTEX
  5
22AC3
  8
ALPHA
 10
1539.239139
 20
314.569874
 30
0.0
  0
VERTEX
  5
22AC4
  8
ALPHA
 10
1539.23839
 20
314.42677
 30
0.0
  0
SEQEND
  5
22AC5
  8
ALPHA
  0
LINE
  5
1F179
  8
ALPHA
 10
1543.3208
 20
325.305548
 30
0.0
 11
1544.987467
 21
330.305548
 31
0.0
  0
LINE
  5
1F17A
  8
ALPHA
 10
1544.362467
 20
326.582143
 30
0.0
 11
1543.9458
 21
325.305548
 31
0.0
  0
LINE
  5
1F17B
  8
ALPHA
 10
1544.466633
 20
327.007675
 30
0.0
 11
1545.404133
 21
329.880016
 31
0.0
  0
LINE
  5
1F17C
  8
ALPHA
 10
1565.334135
 20
316.777755
 30
0.0
 11
1565.613668
 21
316.743038
 31
0.0
  0
POLYLINE
  5
1F17D
  8
ALPHA
 66
     1
 10
0.0
 20
0.0
 30
0.0
  0
VERTEX
  5
22AC6
  8
ALPHA
 10
1565.334135
 20
316.777755
 30
0.0
  0
VERTEX
  5
22AC7
  8
ALPHA
 10
1565.415734
 20
316.653807
 30
0.0
  0
VERTEX
  5
22AC8
  8
ALPHA
 10
1565.483844
 20
316.324998
 30
0.0
  0
VERTEX
  5
22AC9
  8
ALPHA
 10
1565.529093
 20
315.840212
 30
0.0
  0
VERTEX
  5
22ACA
  8
ALPHA
 10
1565.544746
 20
315.277449
 30
0.0
  0
SEQEND
  5
22ACB
  8
ALPHA
  0
POLYLINE
  5
1F184
  8
ALPHA
 66
     1
 10
0.0
 20
0.0
 30
0.0
  0
VERTEX
  5
22ACC
  8
ALPHA
 10
1565.8208
 20
315.243266
 30
0.0
  0
VERTEX
  5
22ACD
  8
ALPHA
 10
1565.805214
 20
315.809297
 30
0.0
  0
VERTEX
  5
22ACE
  8
ALPHA
 10
1565.760554
 20
316.293151
 30
0.0
  0
VERTEX
  5
22ACF
  8
ALPHA
 10
1565.69347
 20
316.620641
 30
0.0
  0
VERTEX
  5
22AD0
  8
ALPHA
 10
1565.613668
 20
316.743038
 30
0.0
  0
SEQEND
  5
22AD1
  8
ALPHA
  0
ARC
  5
1F18B
  8
ALPHA
 10
1802.3208
 20
-185.044452
 30
0.0
 40
3.545455
 50
9.743097
 51
170.256903
  0
ARC
  5
1F18C
  8
ALPHA
 10
1802.3208
 20
-183.344452
 30
0.0
 40
0.3
 50
0.0
 51
180.0
  0
CIRCLE
  5
1F18D
  8
ALPHA
 10
1802.3208
 20
-185.044452
 30
0.0
 40
4.0
  0
LINE
  5
1F18E
  8
ALPHA
 10
1807.8208
 20
112.605548
 30
0.0
 11
1807.8208
 21
-234.044452
 31
0.0
  0
POLYLINE
  5
1F18F
  8
ALPHA
 66
     1
 10
0.0
 20
0.0
 30
0.0
  0
VERTEX
  5
22AD2
  8
ALPHA
 10
1813.164049
 20
-219.314423
 30
0.0
  0
VERTEX
  5
22AD3
  8
ALPHA
 10
1813.446004
 20
-218.695781
 30
0.0
  0
VERTEX
  5
22AD4
  8
ALPHA
 10
1813.670665
 20
-218.122508
 30
0.0
  0
VERTEX
  5
22AD5
  8
ALPHA
 10
1813.848371
 20
-217.594185
 30
0.0
  0
VERTEX
  5
22AD6
  8
ALPHA
 10
1813.987722
 20
-217.109793
 30
0.0
  0
VERTEX
  5
22AD7
  8
ALPHA
 10
1814.096234
 20
-216.666328
 30
0.0
  0
VERTEX
  5
22AD8
  8
ALPHA
 10
1814.180096
 20
-216.260065
 30
0.0
  0
VERTEX
  5
22AD9
  8
ALPHA
 10
1814.243977
 20
-215.887075
 30
0.0
  0
SEQEND
  5
22ADA
  8
ALPHA
  0
LINE
  5
1F199
  8
ALPHA
 10
1812.813105
 20
-219.976568
 30
0.0
 11
1812.813105
 21
-208.112336
 31
0.0
  0
LINE
  5
1F19A
  8
ALPHA
 10
1812.813105
 20
-219.976568
 30
0.0
 11
1813.164049
 21
-219.314423
 31
0.0
  0
LINE
  5
1F19B
  8
ALPHA
 10
1812.2208
 20
-220.044411
 30
0.0
 11
1812.2208
 21
-219.976568
 31
0.0
  0
LINE
  5
1F19C
  8
ALPHA
 10
1806.8208
 20
-234.044452
 30
0.0
 11
1806.8208
 21
-236.044452
 31
0.0
  0
LINE
  5
1F19D
  8
ALPHA
 10
1812.813105
 20
-219.976568
 30
0.0
 11
1812.2208
 21
-219.976568
 31
0.0
  0
LINE
  5
1F19E
  8
ALPHA
 10
1812.2208
 20
-220.044452
 30
0.0
 11
1809.8208
 21
-220.044452
 31
0.0
  0
LINE
  5
1F19F
  8
ALPHA
 10
1806.8208
 20
-234.044452
 30
0.0
 11
1809.819267
 21
-234.044452
 31
0.0
  0
LINE
  5
1F1A0
  8
ALPHA
 10
1809.8208
 20
-236.044452
 30
0.0
 11
1806.8208
 21
-236.044452
 31
0.0
  0
ARC
  5
1F1A1
  8
ALPHA
 10
1802.3208
 20
-185.044452
 30
0.0
 40
3.612813
 50
170.440278
 51
189.559722
  0
ARC
  5
1F1A2
  8
ALPHA
 10
1802.3208
 20
-185.044452
 30
0.0
 40
3.612813
 50
350.440278
 51
9.559722
  0
ARC
  5
1F1A3
  8
ALPHA
 10
1802.3208
 20
-185.044452
 30
0.0
 40
3.545455
 50
189.743097
 51
350.256903
  0
ARC
  5
1F1A4
  8
ALPHA
 10
1800.848557
 20
-185.894452
 30
0.0
 40
0.3
 50
120.0
 51
300.0
  0
ARC
  5
1F1A5
  8
ALPHA
 10
1800.357809
 20
-185.044452
 30
0.0
 40
0.681495
 50
300.0
 51
60.0
  0
ARC
  5
1F1A6
  8
ALPHA
 10
1800.848557
 20
-184.194452
 30
0.0
 40
0.3
 50
60.0
 51
240.0
  0
ARC
  5
1F1A7
  8
ALPHA
 10
1803.793043
 20
-184.194452
 30
0.0
 40
0.3
 50
300.0
 51
120.0
  0
ARC
  5
1F1A8
  8
ALPHA
 10
1804.283791
 20
-185.044452
 30
0.0
 40
0.681495
 50
120.0
 51
240.0
  0
ARC
  5
1F1A9
  8
ALPHA
 10
1803.793043
 20
-185.894452
 30
0.0
 40
0.3
 50
240.0
 51
60.0
  0
ARC
  5
1F1AA
  8
ALPHA
 10
1802.3208
 20
-186.744452
 30
0.0
 40
0.3
 50
180.0
 51
0.0
  0
ARC
  5
1F1AB
  8
ALPHA
 10
1801.339304
 20
-183.344452
 30
0.0
 40
0.681495
 50
240.0
 51
0.0
  0
ARC
  5
1F1AC
  8
ALPHA
 10
1803.302295
 20
-183.344452
 30
0.0
 40
0.681495
 50
180.0
 51
300.0
  0
ARC
  5
1F1AD
  8
ALPHA
 10
1803.302295
 20
-186.744452
 30
0.0
 40
0.681495
 50
60.0
 51
180.0
  0
ARC
  5
1F1AE
  8
ALPHA
 10
1801.339304
 20
-186.744452
 30
0.0
 40
0.681495
 50
0.0
 51
120.0
  0
POLYLINE
  5
1F1AF
  8
ALPHA
 66
     1
 10
0.0
 20
0.0
 30
0.0
  0
VERTEX
  5
22ADB
  8
ALPHA
 10
1814.23459
 20
-215.731907
 30
0.0
  0
VERTEX
  5
22ADC
  8
ALPHA
 10
1814.222465
 20
-215.741511
 30
0.0
  0
VERTEX
  5
22ADD
  8
ALPHA
 10
1814.20684
 20
-215.770876
 30
0.0
  0
SEQEND
  5
22ADE
  8
ALPHA
  0
POLYLINE
  5
1F1B4
  8
ALPHA
 66
     1
 10
0.0
 20
0.0
 30
0.0
  0
VERTEX
  5
22ADF
  8
ALPHA
 10
1814.20684
 20
-215.770876
 30
0.0
  0
VERTEX
  5
22AE0
  8
ALPHA
 10
1814.175568
 20
-215.822384
 30
0.0
  0
VERTEX
  5
22AE1
  8
ALPHA
 10
1814.156613
 20
-215.831952
 30
0.0
  0
SEQEND
  5
22AE2
  8
ALPHA
  0
POLYLINE
  5
1F1B9
  8
ALPHA
 66
     1
 10
0.0
 20
0.0
 30
0.0
  0
VERTEX
  5
22AE3
  8
ALPHA
 10
1814.245962
 20
-212.351578
 30
0.0
  0
VERTEX
  5
22AE4
  8
ALPHA
 10
1814.23779
 20
-212.391701
 30
0.0
  0
VERTEX
  5
22AE5
  8
ALPHA
 10
1814.224008
 20
-212.410264
 30
0.0
  0
VERTEX
  5
22AE6
  8
ALPHA
 10
1814.218949
 20
-212.411311
 30
0.0
  0
SEQEND
  5
22AE7
  8
ALPHA
  0
POLYLINE
  5
1F1BF
  8
ALPHA
 66
     1
 10
0.0
 20
0.0
 30
0.0
  0
VERTEX
  5
22AE8
  8
ALPHA
 10
1814.190918
 20
-214.648778
 30
0.0
  0
VERTEX
  5
22AE9
  8
ALPHA
 10
1814.161171
 20
-214.799588
 30
0.0
  0
VERTEX
  5
22AEA
  8
ALPHA
 10
1814.134459
 20
-214.97474
 30
0.0
  0
VERTEX
  5
22AEB
  8
ALPHA
 10
1814.113121
 20
-215.159706
 30
0.0
  0
VERTEX
  5
22AEC
  8
ALPHA
 10
1814.098551
 20
-215.33924
 30
0.0
  0
VERTEX
  5
22AED
  8
ALPHA
 10
1814.091055
 20
-215.502615
 30
0.0
  0
SEQEND
  5
22AEE
  8
ALPHA
  0
POLYLINE
  5
1F1C7
  8
ALPHA
 66
     1
 10
0.0
 20
0.0
 30
0.0
  0
VERTEX
  5
22AEF
  8
ALPHA
 10
1814.102009
 20
-212.398262
 30
0.0
  0
VERTEX
  5
22AF0
  8
ALPHA
 10
1814.118181
 20
-212.312884
 30
0.0
  0
VERTEX
  5
22AF1
  8
ALPHA
 10
1814.140739
 20
-212.26491
 30
0.0
  0
VERTEX
  5
22AF2
  8
ALPHA
 10
1814.156667
 20
-212.256952
 30
0.0
  0
SEQEND
  5
22AF3
  8
ALPHA
  0
LINE
  5
1F1CD
  8
ALPHA
 10
1814.190918
 20
-214.648778
 30
0.0
 11
1814.215318
 21
-214.518244
 31
0.0
  0
POLYLINE
  5
1F1CE
  8
ALPHA
 66
     1
 10
0.0
 20
0.0
 30
0.0
  0
VERTEX
  5
22AF4
  8
ALPHA
 10
1814.108141
 20
-212.411311
 30
0.0
  0
VERTEX
  5
22AF5
  8
ALPHA
 10
1814.097174
 20
-212.477223
 30
0.0
  0
VERTEX
  5
22AF6
  8
ALPHA
 10
1814.091456
 20
-212.566214
 30
0.0
  0
SEQEND
  5
22AF7
  8
ALPHA
  0
POLYLINE
  5
1F1D3
  8
ALPHA
 66
     1
 10
0.0
 20
0.0
 30
0.0
  0
VERTEX
  5
22AF8
  8
ALPHA
 10
1814.215318
 20
-214.518244
 30
0.0
  0
VERTEX
  5
22AF9
  8
ALPHA
 10
1814.232485
 20
-214.381615
 30
0.0
  0
VERTEX
  5
22AFA
  8
ALPHA
 10
1814.243516
 20
-214.237662
 30
0.0
  0
VERTEX
  5
22AFB
  8
ALPHA
 10
1814.248454
 20
-214.087315
 30
0.0
  0
VERTEX
  5
22AFC
  8
ALPHA
 10
1814.248237
 20
-214.063603
 30
0.0
  0
SEQEND
  5
22AFD
  8
ALPHA
  0
LINE
  5
1F1DA
  8
ALPHA
 10
1814.244274
 20
-215.887126
 30
0.0
 11
1814.248262
 21
-215.819547
 31
0.0
  0
LINE
  5
1F1DB
  8
ALPHA
 10
1814.248705
 20
-212.292142
 30
0.0
 11
1814.245962
 21
-212.351578
 31
0.0
  0
LINE
  5
1F1DC
  8
ALPHA
 10
1814.248091
 20
-212.28275
 30
0.0
 11
1814.248127
 21
-212.22667
 31
0.0
  0
LINE
  5
1F1DD
  8
ALPHA
 10
1812.2208
 20
-208.112336
 30
0.0
 11
1812.2208
 21
-208.044494
 31
0.0
  0
POLYLINE
  5
1F1DE
  8
ALPHA
 66
     1
 10
0.0
 20
0.0
 30
0.0
  0
VERTEX
  5
22AFE
  8
ALPHA
 10
1814.248262
 20
-215.819547
 30
0.0
  0
VERTEX
  5
22AFF
  8
ALPHA
 10
1814.24811
 20
-215.774311
 30
0.0
  0
VERTEX
  5
22B00
  8
ALPHA
 10
1814.243776
 20
-215.743447
 30
0.0
  0
VERTEX
  5
22B01
  8
ALPHA
 10
1814.23459
 20
-215.731907
 30
0.0
  0
SEQEND
  5
22B02
  8
ALPHA
  0
POLYLINE
  5
1F1E4
  8
ALPHA
 66
     1
 10
0.0
 20
0.0
 30
0.0
  0
VERTEX
  5
22B03
  8
ALPHA
 10
1814.247668
 20
-214.001486
 30
0.0
  0
VERTEX
  5
22B04
  8
ALPHA
 10
1814.247061
 20
-213.93523
 30
0.0
  0
VERTEX
  5
22B05
  8
ALPHA
 10
1814.239423
 20
-213.787302
 30
0.0
  0
SEQEND
  5
22B06
  8
ALPHA
  0
POLYLINE
  5
1F1E9
  8
ALPHA
 66
     1
 10
0.0
 20
0.0
 30
0.0
  0
VERTEX
  5
22B07
  8
ALPHA
 10
1814.091541
 20
-212.734162
 30
0.0
  0
VERTEX
  5
22B08
  8
ALPHA
 10
1814.097121
 20
-212.851301
 30
0.0
  0
VERTEX
  5
22B09
  8
ALPHA
 10
1814.109725
 20
-212.994183
 30
0.0
  0
VERTEX
  5
22B0A
  8
ALPHA
 10
1814.128246
 20
-213.13874
 30
0.0
  0
VERTEX
  5
22B0B
  8
ALPHA
 10
1814.151461
 20
-213.272719
 30
0.0
  0
VERTEX
  5
22B0C
  8
ALPHA
 10
1814.177238
 20
-213.38449
 30
0.0
  0
SEQEND
  5
22B0D
  8
ALPHA
  0
POLYLINE
  5
1F1F1
  8
ALPHA
 66
     1
 10
0.0
 20
0.0
 30
0.0
  0
VERTEX
  5
22B0E
  8
ALPHA
 10
1814.239423
 20
-213.787302
 30
0.0
  0
VERTEX
  5
22B0F
  8
ALPHA
 10
1814.225741
 20
-213.646496
 30
0.0
  0
VERTEX
  5
22B10
  8
ALPHA
 10
1814.205584
 20
-213.512501
 30
0.0
  0
VERTEX
  5
22B11
  8
ALPHA
 10
1814.177238
 20
-213.38449
 30
0.0
  0
SEQEND
  5
22B12
  8
ALPHA
  0
POLYLINE
  5
1F1F7
  8
ALPHA
 66
     1
 10
0.0
 20
0.0
 30
0.0
  0
VERTEX
  5
22B13
  8
ALPHA
 10
1814.248127
 20
-212.22667
 30
0.0
  0
VERTEX
  5
22B14
  8
ALPHA
 10
1814.186321
 20
-211.862135
 30
0.0
  0
VERTEX
  5
22B15
  8
ALPHA
 10
1814.104649
 20
-211.460336
 30
0.0
  0
VERTEX
  5
22B16
  8
ALPHA
 10
1813.997897
 20
-211.01777
 30
0.0
  0
VERTEX
  5
22B17
  8
ALPHA
 10
1813.859575
 20
-210.530991
 30
0.0
  0
VERTEX
  5
22B18
  8
ALPHA
 10
1813.681791
 20
-209.997222
 30
0.0
  0
VERTEX
  5
22B19
  8
ALPHA
 10
1813.455536
 20
-209.415781
 30
0.0
  0
VERTEX
  5
22B1A
  8
ALPHA
 10
1813.170036
 20
-208.786704
 30
0.0
  0
SEQEND
  5
22B1B
  8
ALPHA
  0
POLYLINE
  5
1F201
  8
ALPHA
 66
     1
 10
0.0
 20
0.0
 30
0.0
  0
VERTEX
  5
22B1C
  8
ALPHA
 10
1814.20684
 20
-213.650073
 30
0.0
  0
VERTEX
  5
22B1D
  8
ALPHA
 10
1814.225187
 20
-213.733138
 30
0.0
  0
VERTEX
  5
22B1E
  8
ALPHA
 10
1814.238103
 20
-213.828285
 30
0.0
  0
VERTEX
  5
22B1F
  8
ALPHA
 10
1814.246001
 20
-213.933114
 30
0.0
  0
VERTEX
  5
22B20
  8
ALPHA
 10
1814.248706
 20
-214.044094
 30
0.0
  0
VERTEX
  5
22B21
  8
ALPHA
 10
1814.246033
 20
-214.155152
 30
0.0
  0
VERTEX
  5
22B22
  8
ALPHA
 10
1814.23815
 20
-214.260172
 30
0.0
  0
VERTEX
  5
22B23
  8
ALPHA
 10
1814.225218
 20
-214.355589
 30
0.0
  0
VERTEX
  5
22B24
  8
ALPHA
 10
1814.20684
 20
-214.438832
 30
0.0
  0
SEQEND
  5
22B25
  8
ALPHA
  0
POLYLINE
  5
1F20C
  8
ALPHA
 66
     1
 10
0.0
 20
0.0
 30
0.0
  0
VERTEX
  5
22B26
  8
ALPHA
 10
1814.122259
 20
-215.789021
 30
0.0
  0
VERTEX
  5
22B27
  8
ALPHA
 10
1814.104516
 20
-215.709011
 30
0.0
  0
VERTEX
  5
22B28
  8
ALPHA
 10
1814.093538
 20
-215.595001
 30
0.0
  0
VERTEX
  5
22B29
  8
ALPHA
 10
1814.089562
 20
-215.447059
 30
0.0
  0
VERTEX
  5
22B2A
  8
ALPHA
 10
1814.093365
 20
-215.274993
 30
0.0
  0
VERTEX
  5
22B2B
  8
ALPHA
 10
1814.104467
 20
-215.094284
 30
0.0
  0
VERTEX
  5
22B2C
  8
ALPHA
 10
1814.122301
 20
-214.91084
 30
0.0
  0
VERTEX
  5
22B2D
  8
ALPHA
 10
1814.146683
 20
-214.729998
 30
0.0
  0
VERTEX
  5
22B2E
  8
ALPHA
 10
1814.175733
 20
-214.568299
 30
0.0
  0
VERTEX
  5
22B2F
  8
ALPHA
 10
1814.20684
 20
-214.438832
 30
0.0
  0
SEQEND
  5
22B30
  8
ALPHA
  0
POLYLINE
  5
1F218
  8
ALPHA
 66
     1
 10
0.0
 20
0.0
 30
0.0
  0
VERTEX
  5
22B31
  8
ALPHA
 10
1814.20684
 20
-213.650073
 30
0.0
  0
VERTEX
  5
22B32
  8
ALPHA
 10
1814.176414
 20
-213.52388
 30
0.0
  0
VERTEX
  5
22B33
  8
ALPHA
 10
1814.147967
 20
-213.367088
 30
0.0
  0
VERTEX
  5
22B34
  8
ALPHA
 10
1814.123942
 20
-213.192122
 30
0.0
  0
VERTEX
  5
22B35
  8
ALPHA
 10
1814.106001
 20
-213.013512
 30
0.0
  0
VERTEX
  5
22B36
  8
ALPHA
 10
1814.094352
 20
-212.835812
 30
0.0
  0
VERTEX
  5
22B37
  8
ALPHA
 10
1814.089622
 20
-212.664743
 30
0.0
  0
VERTEX
  5
22B38
  8
ALPHA
 10
1814.092401
 20
-212.515448
 30
0.0
  0
VERTEX
  5
22B39
  8
ALPHA
 10
1814.102009
 20
-212.398262
 30
0.0
  0
SEQEND
  5
22B3A
  8
ALPHA
  0
LINE
  5
1F223
  8
ALPHA
 10
1813.170036
 20
-208.786704
 30
0.0
 11
1812.813105
 21
-208.112336
 31
0.0
  0
POLYLINE
  5
1F224
  8
ALPHA
 66
     1
 10
0.0
 20
0.0
 30
0.0
  0
VERTEX
  5
22B3B
  8
ALPHA
 10
1814.198061
 20
-212.299507
 30
0.0
  0
VERTEX
  5
22B3C
  8
ALPHA
 10
1814.218342
 20
-212.330617
 30
0.0
  0
VERTEX
  5
22B3D
  8
ALPHA
 10
1814.230184
 20
-212.337398
 30
0.0
  0
SEQEND
  5
22B3E
  8
ALPHA
  0
POLYLINE
  5
1F229
  8
ALPHA
 66
     1
 10
0.0
 20
0.0
 30
0.0
  0
VERTEX
  5
22B3F
  8
ALPHA
 10
1814.156667
 20
-212.256952
 30
0.0
  0
VERTEX
  5
22B40
  8
ALPHA
 10
1814.168124
 20
-212.260586
 30
0.0
  0
VERTEX
  5
22B41
  8
ALPHA
 10
1814.198061
 20
-212.299507
 30
0.0
  0
SEQEND
  5
22B42
  8
ALPHA
  0
POLYLINE
  5
1F22E
  8
ALPHA
 66
     1
 10
0.0
 20
0.0
 30
0.0
  0
VERTEX
  5
22B43
  8
ALPHA
 10
1814.156613
 20
-215.831952
 30
0.0
  0
VERTEX
  5
22B44
  8
ALPHA
 10
1814.146521
 20
-215.828846
 30
0.0
  0
VERTEX
  5
22B45
  8
ALPHA
 10
1814.122259
 20
-215.789021
 30
0.0
  0
SEQEND
  5
22B46
  8
ALPHA
  0
LINE
  5
1F233
  8
ALPHA
 10
1800.682725
 20
-184.444452
 30
0.0
 11
1798.758157
 21
-184.444452
 31
0.0
  0
LINE
  5
1F234
  8
ALPHA
 10
1805.883442
 20
-184.444452
 30
0.0
 11
1803.958874
 21
-184.444452
 31
0.0
  0
LINE
  5
1F235
  8
ALPHA
 10
1803.958874
 20
-185.644452
 30
0.0
 11
1805.883442
 21
-185.644452
 31
0.0
  0
LINE
  5
1F236
  8
ALPHA
 10
1798.758157
 20
-185.644452
 30
0.0
 11
1800.682725
 21
-185.644452
 31
0.0
  0
LINE
  5
1F237
  8
ALPHA
 10
1812.2208
 20
-208.044452
 30
0.0
 11
1809.8208
 21
-208.044452
 31
0.0
  0
LINE
  5
1F238
  8
ALPHA
 10
1812.813105
 20
-208.112336
 30
0.0
 11
1812.2208
 21
-208.112336
 31
0.0
  0
LINE
  5
1F239
  8
ALPHA
 10
1814.198061
 20
-212.299507
 30
0.0
 11
1814.124471
 21
-212.299507
 31
0.0
  0
LINE
  5
1F23A
  8
ALPHA
 10
1814.113538
 20
-212.337398
 30
0.0
 11
1814.229708
 21
-212.337398
 31
0.0
  0
LINE
  5
1F23B
  8
ALPHA
 10
1814.100939
 20
-212.411311
 30
0.0
 11
1814.218298
 21
-212.411311
 31
0.0
  0
LINE
  5
1F23C
  8
ALPHA
 10
1814.177238
 20
-213.38449
 30
0.0
 11
1814.151124
 21
-213.38449
 31
0.0
  0
LINE
  5
1F23D
  8
ALPHA
 10
1814.190918
 20
-214.648778
 30
0.0
 11
1814.161274
 21
-214.648778
 31
0.0
  0
LINE
  5
1F23E
  8
ALPHA
 10
1814.109593
 20
-215.731907
 30
0.0
 11
1814.234499
 21
-215.731907
 31
0.0
  0
LINE
  5
1F23F
  8
ALPHA
 10
1814.20684
 20
-215.770876
 30
0.0
 11
1814.118235
 21
-215.770876
 31
0.0
  0
POLYLINE
  5
1F240
  8
ALPHA
 66
     1
 10
0.0
 20
0.0
 30
0.0
  0
VERTEX
  5
22B47
  8
ALPHA
 10
1814.230184
 20
-212.337398
 30
0.0
  0
VERTEX
  5
22B48
  8
ALPHA
 10
1814.233342
 20
-212.336704
 30
0.0
  0
VERTEX
  5
22B49
  8
ALPHA
 10
1814.243181
 20
-212.320167
 30
0.0
  0
VERTEX
  5
22B4A
  8
ALPHA
 10
1814.248091
 20
-212.28275
 30
0.0
  0
SEQEND
  5
22B4B
  8
ALPHA
  0
LINE
  5
1F246
  8
ALPHA
 10
1809.9208
 20
-121.044452
 30
0.0
 11
1809.9208
 21
-181.044452
 31
0.0
  0
LINE
  5
1F247
  8
ALPHA
 10
1809.9208
 20
-56.044452
 30
0.0
 11
1809.9208
 21
-89.044452
 31
0.0
  0
POLYLINE
  5
1F248
  8
ALPHA
 66
     1
 10
0.0
 20
0.0
 30
0.0
  0
VERTEX
  5
22B4C
  8
ALPHA
 10
1814.23459
 20
-96.731907
 30
0.0
  0
VERTEX
  5
22B4D
  8
ALPHA
 10
1814.222465
 20
-96.741511
 30
0.0
  0
VERTEX
  5
22B4E
  8
ALPHA
 10
1814.20684
 20
-96.770876
 30
0.0
  0
SEQEND
  5
22B4F
  8
ALPHA
  0
POLYLINE
  5
1F24D
  8
ALPHA
 66
     1
 10
0.0
 20
0.0
 30
0.0
  0
VERTEX
  5
22B50
  8
ALPHA
 10
1814.20684
 20
-96.770876
 30
0.0
  0
VERTEX
  5
22B51
  8
ALPHA
 10
1814.175568
 20
-96.822384
 30
0.0
  0
VERTEX
  5
22B52
  8
ALPHA
 10
1814.156613
 20
-96.831952
 30
0.0
  0
SEQEND
  5
22B53
  8
ALPHA
  0
LINE
  5
1F252
  8
ALPHA
 10
1812.813105
 20
-100.976568
 30
0.0
 11
1813.164049
 21
-100.314423
 31
0.0
  0
POLYLINE
  5
1F253
  8
ALPHA
 66
     1
 10
0.0
 20
0.0
 30
0.0
  0
VERTEX
  5
22B54
  8
ALPHA
 10
1813.164049
 20
-100.314423
 30
0.0
  0
VERTEX
  5
22B55
  8
ALPHA
 10
1813.446004
 20
-99.695781
 30
0.0
  0
VERTEX
  5
22B56
  8
ALPHA
 10
1813.670665
 20
-99.122508
 30
0.0
  0
VERTEX
  5
22B57
  8
ALPHA
 10
1813.848371
 20
-98.594185
 30
0.0
  0
VERTEX
  5
22B58
  8
ALPHA
 10
1813.987722
 20
-98.109793
 30
0.0
  0
VERTEX
  5
22B59
  8
ALPHA
 10
1814.096234
 20
-97.666328
 30
0.0
  0
VERTEX
  5
22B5A
  8
ALPHA
 10
1814.180096
 20
-97.260065
 30
0.0
  0
VERTEX
  5
22B5B
  8
ALPHA
 10
1814.243977
 20
-96.887075
 30
0.0
  0
SEQEND
  5
22B5C
  8
ALPHA
  0
POLYLINE
  5
1F25D
  8
ALPHA
 66
     1
 10
0.0
 20
0.0
 30
0.0
  0
VERTEX
  5
22B5D
  8
ALPHA
 10
1814.245962
 20
-93.351578
 30
0.0
  0
VERTEX
  5
22B5E
  8
ALPHA
 10
1814.23779
 20
-93.391701
 30
0.0
  0
VERTEX
  5
22B5F
  8
ALPHA
 10
1814.224008
 20
-93.410264
 30
0.0
  0
VERTEX
  5
22B60
  8
ALPHA
 10
1814.218949
 20
-93.411311
 30
0.0
  0
SEQEND
  5
22B61
  8
ALPHA
  0
POLYLINE
  5
1F263
  8
ALPHA
 66
     1
 10
0.0
 20
0.0
 30
0.0
  0
VERTEX
  5
22B62
  8
ALPHA
 10
1814.190918
 20
-95.648778
 30
0.0
  0
VERTEX
  5
22B63
  8
ALPHA
 10
1814.161171
 20
-95.799588
 30
0.0
  0
VERTEX
  5
22B64
  8
ALPHA
 10
1814.134459
 20
-95.97474
 30
0.0
  0
VERTEX
  5
22B65
  8
ALPHA
 10
1814.113121
 20
-96.159706
 30
0.0
  0
VERTEX
  5
22B66
  8
ALPHA
 10
1814.098551
 20
-96.33924
 30
0.0
  0
VERTEX
  5
22B67
  8
ALPHA
 10
1814.091055
 20
-96.502615
 30
0.0
  0
SEQEND
  5
22B68
  8
ALPHA
  0
POLYLINE
  5
1F26B
  8
ALPHA
 66
     1
 10
0.0
 20
0.0
 30
0.0
  0
VERTEX
  5
22B69
  8
ALPHA
 10
1814.102009
 20
-93.398262
 30
0.0
  0
VERTEX
  5
22B6A
  8
ALPHA
 10
1814.118181
 20
-93.312884
 30
0.0
  0
VERTEX
  5
22B6B
  8
ALPHA
 10
1814.140739
 20
-93.26491
 30
0.0
  0
VERTEX
  5
22B6C
  8
ALPHA
 10
1814.156667
 20
-93.256952
 30
0.0
  0
SEQEND
  5
22B6D
  8
ALPHA
  0
LINE
  5
1F271
  8
ALPHA
 10
1814.190918
 20
-95.648778
 30
0.0
 11
1814.215318
 21
-95.518244
 31
0.0
  0
POLYLINE
  5
1F272
  8
ALPHA
 66
     1
 10
0.0
 20
0.0
 30
0.0
  0
VERTEX
  5
22B6E
  8
ALPHA
 10
1814.108141
 20
-93.411311
 30
0.0
  0
VERTEX
  5
22B6F
  8
ALPHA
 10
1814.097174
 20
-93.477223
 30
0.0
  0
VERTEX
  5
22B70
  8
ALPHA
 10
1814.091456
 20
-93.566214
 30
0.0
  0
SEQEND
  5
22B71
  8
ALPHA
  0
POLYLINE
  5
1F277
  8
ALPHA
 66
     1
 10
0.0
 20
0.0
 30
0.0
  0
VERTEX
  5
22B72
  8
ALPHA
 10
1814.215318
 20
-95.518244
 30
0.0
  0
VERTEX
  5
22B73
  8
ALPHA
 10
1814.232485
 20
-95.381615
 30
0.0
  0
VERTEX
  5
22B74
  8
ALPHA
 10
1814.243516
 20
-95.237662
 30
0.0
  0
VERTEX
  5
22B75
  8
ALPHA
 10
1814.248454
 20
-95.087315
 30
0.0
  0
VERTEX
  5
22B76
  8
ALPHA
 10
1814.248237
 20
-95.063603
 30
0.0
  0
SEQEND
  5
22B77
  8
ALPHA
  0
LINE
  5
1F27E
  8
ALPHA
 10
1814.244274
 20
-96.887126
 30
0.0
 11
1814.248262
 21
-96.819547
 31
0.0
  0
LINE
  5
1F27F
  8
ALPHA
 10
1814.248705
 20
-93.292142
 30
0.0
 11
1814.245962
 21
-93.351578
 31
0.0
  0
LINE
  5
1F280
  8
ALPHA
 10
1814.248091
 20
-93.28275
 30
0.0
 11
1814.248127
 21
-93.22667
 31
0.0
  0
LINE
  5
1F281
  8
ALPHA
 10
1812.813105
 20
-100.976568
 30
0.0
 11
1812.813105
 21
-89.112336
 31
0.0
  0
LINE
  5
1F282
  8
ALPHA
 10
1812.2208
 20
-89.112336
 30
0.0
 11
1812.2208
 21
-89.044494
 31
0.0
  0
LINE
  5
1F283
  8
ALPHA
 10
1812.2208
 20
-101.044411
 30
0.0
 11
1812.2208
 21
-100.976568
 31
0.0
  0
LINE
  5
1F284
  8
ALPHA
 10
1809.9208
 20
-101.044452
 30
0.0
 11
1809.9208
 21
-116.044452
 31
0.0
  0
POLYLINE
  5
1F285
  8
ALPHA
 66
     1
 10
0.0
 20
0.0
 30
0.0
  0
VERTEX
  5
22B78
  8
ALPHA
 10
1814.248262
 20
-96.819547
 30
0.0
  0
VERTEX
  5
22B79
  8
ALPHA
 10
1814.24811
 20
-96.774311
 30
0.0
  0
VERTEX
  5
22B7A
  8
ALPHA
 10
1814.243776
 20
-96.743447
 30
0.0
  0
VERTEX
  5
22B7B
  8
ALPHA
 10
1814.23459
 20
-96.731907
 30
0.0
  0
SEQEND
  5
22B7C
  8
ALPHA
  0
POLYLINE
  5
1F28B
  8
ALPHA
 66
     1
 10
0.0
 20
0.0
 30
0.0
  0
VERTEX
  5
22B7D
  8
ALPHA
 10
1814.247668
 20
-95.001486
 30
0.0
  0
VERTEX
  5
22B7E
  8
ALPHA
 10
1814.247061
 20
-94.93523
 30
0.0
  0
VERTEX
  5
22B7F
  8
ALPHA
 10
1814.239423
 20
-94.787302
 30
0.0
  0
SEQEND
  5
22B80
  8
ALPHA
  0
POLYLINE
  5
1F290
  8
ALPHA
 66
     1
 10
0.0
 20
0.0
 30
0.0
  0
VERTEX
  5
22B81
  8
ALPHA
 10
1814.091541
 20
-93.734162
 30
0.0
  0
VERTEX
  5
22B82
  8
ALPHA
 10
1814.097121
 20
-93.851301
 30
0.0
  0
VERTEX
  5
22B83
  8
ALPHA
 10
1814.109725
 20
-93.994183
 30
0.0
  0
VERTEX
  5
22B84
  8
ALPHA
 10
1814.128246
 20
-94.13874
 30
0.0
  0
VERTEX
  5
22B85
  8
ALPHA
 10
1814.151461
 20
-94.272719
 30
0.0
  0
VERTEX
  5
22B86
  8
ALPHA
 10
1814.177238
 20
-94.38449
 30
0.0
  0
SEQEND
  5
22B87
  8
ALPHA
  0
POLYLINE
  5
1F298
  8
ALPHA
 66
     1
 10
0.0
 20
0.0
 30
0.0
  0
VERTEX
  5
22B88
  8
ALPHA
 10
1814.248127
 20
-93.22667
 30
0.0
  0
VERTEX
  5
22B89
  8
ALPHA
 10
1814.186321
 20
-92.862135
 30
0.0
  0
VERTEX
  5
22B8A
  8
ALPHA
 10
1814.104649
 20
-92.460336
 30
0.0
  0
VERTEX
  5
22B8B
  8
ALPHA
 10
1813.997897
 20
-92.01777
 30
0.0
  0
VERTEX
  5
22B8C
  8
ALPHA
 10
1813.859575
 20
-91.530991
 30
0.0
  0
VERTEX
  5
22B8D
  8
ALPHA
 10
1813.681791
 20
-90.997222
 30
0.0
  0
VERTEX
  5
22B8E
  8
ALPHA
 10
1813.455536
 20
-90.415781
 30
0.0
  0
VERTEX
  5
22B8F
  8
ALPHA
 10
1813.170036
 20
-89.786704
 30
0.0
  0
SEQEND
  5
22B90
  8
ALPHA
  0
POLYLINE
  5
1F2A2
  8
ALPHA
 66
     1
 10
0.0
 20
0.0
 30
0.0
  0
VERTEX
  5
22B91
  8
ALPHA
 10
1814.239423
 20
-94.787302
 30
0.0
  0
VERTEX
  5
22B92
  8
ALPHA
 10
1814.225741
 20
-94.646496
 30
0.0
  0
VERTEX
  5
22B93
  8
ALPHA
 10
1814.205584
 20
-94.512501
 30
0.0
  0
VERTEX
  5
22B94
  8
ALPHA
 10
1814.177238
 20
-94.38449
 30
0.0
  0
SEQEND
  5
22B95
  8
ALPHA
  0
POLYLINE
  5
1F2A8
  8
ALPHA
 66
     1
 10
0.0
 20
0.0
 30
0.0
  0
VERTEX
  5
22B96
  8
ALPHA
 10
1814.20684
 20
-94.650073
 30
0.0
  0
VERTEX
  5
22B97
  8
ALPHA
 10
1814.225187
 20
-94.733138
 30
0.0
  0
VERTEX
  5
22B98
  8
ALPHA
 10
1814.238103
 20
-94.828285
 30
0.0
  0
VERTEX
  5
22B99
  8
ALPHA
 10
1814.246001
 20
-94.933114
 30
0.0
  0
VERTEX
  5
22B9A
  8
ALPHA
 10
1814.248706
 20
-95.044094
 30
0.0
  0
VERTEX
  5
22B9B
  8
ALPHA
 10
1814.246033
 20
-95.155152
 30
0.0
  0
VERTEX
  5
22B9C
  8
ALPHA
 10
1814.23815
 20
-95.260172
 30
0.0
  0
VERTEX
  5
22B9D
  8
ALPHA
 10
1814.225218
 20
-95.355589
 30
0.0
  0
VERTEX
  5
22B9E
  8
ALPHA
 10
1814.20684
 20
-95.438832
 30
0.0
  0
SEQEND
  5
22B9F
  8
ALPHA
  0
POLYLINE
  5
1F2B3
  8
ALPHA
 66
     1
 10
0.0
 20
0.0
 30
0.0
  0
VERTEX
  5
22BA0
  8
ALPHA
 10
1814.122259
 20
-96.789021
 30
0.0
  0
VERTEX
  5
22BA1
  8
ALPHA
 10
1814.104516
 20
-96.709011
 30
0.0
  0
VERTEX
  5
22BA2
  8
ALPHA
 10
1814.093538
 20
-96.595001
 30
0.0
  0
VERTEX
  5
22BA3
  8
ALPHA
 10
1814.089562
 20
-96.447059
 30
0.0
  0
VERTEX
  5
22BA4
  8
ALPHA
 10
1814.093365
 20
-96.274993
 30
0.0
  0
VERTEX
  5
22BA5
  8
ALPHA
 10
1814.104467
 20
-96.094284
 30
0.0
  0
VERTEX
  5
22BA6
  8
ALPHA
 10
1814.122301
 20
-95.91084
 30
0.0
  0
VERTEX
  5
22BA7
  8
ALPHA
 10
1814.146683
 20
-95.729998
 30
0.0
  0
VERTEX
  5
22BA8
  8
ALPHA
 10
1814.175733
 20
-95.568299
 30
0.0
  0
VERTEX
  5
22BA9
  8
ALPHA
 10
1814.20684
 20
-95.438832
 30
0.0
  0
SEQEND
  5
22BAA
  8
ALPHA
  0
POLYLINE
  5
1F2BF
  8
ALPHA
 66
     1
 10
0.0
 20
0.0
 30
0.0
  0
VERTEX
  5
22BAB
  8
ALPHA
 10
1814.20684
 20
-94.650073
 30
0.0
  0
VERTEX
  5
22BAC
  8
ALPHA
 10
1814.176414
 20
-94.52388
 30
0.0
  0
VERTEX
  5
22BAD
  8
ALPHA
 10
1814.147967
 20
-94.367088
 30
0.0
  0
VERTEX
  5
22BAE
  8
ALPHA
 10
1814.123942
 20
-94.192122
 30
0.0
  0
VERTEX
  5
22BAF
  8
ALPHA
 10
1814.106001
 20
-94.013512
 30
0.0
  0
VERTEX
  5
22BB0
  8
ALPHA
 10
1814.094352
 20
-93.835812
 30
0.0
  0
VERTEX
  5
22BB1
  8
ALPHA
 10
1814.089622
 20
-93.664743
 30
0.0
  0
VERTEX
  5
22BB2
  8
ALPHA
 10
1814.092401
 20
-93.515448
 30
0.0
  0
VERTEX
  5
22BB3
  8
ALPHA
 10
1814.102009
 20
-93.398262
 30
0.0
  0
SEQEND
  5
22BB4
  8
ALPHA
  0
LINE
  5
1F2CA
  8
ALPHA
 10
1813.170036
 20
-89.786704
 30
0.0
 11
1812.813105
 21
-89.112336
 31
0.0
  0
POLYLINE
  5
1F2CB
  8
ALPHA
 66
     1
 10
0.0
 20
0.0
 30
0.0
  0
VERTEX
  5
22BB5
  8
ALPHA
 10
1814.198061
 20
-93.299507
 30
0.0
  0
VERTEX
  5
22BB6
  8
ALPHA
 10
1814.218342
 20
-93.330617
 30
0.0
  0
VERTEX
  5
22BB7
  8
ALPHA
 10
1814.230184
 20
-93.337398
 30
0.0
  0
SEQEND
  5
22BB8
  8
ALPHA
  0
POLYLINE
  5
1F2D0
  8
ALPHA
 66
     1
 10
0.0
 20
0.0
 30
0.0
  0
VERTEX
  5
22BB9
  8
ALPHA
 10
1814.156667
 20
-93.256952
 30
0.0
  0
VERTEX
  5
22BBA
  8
ALPHA
 10
1814.168124
 20
-93.260586
 30
0.0
  0
VERTEX
  5
22BBB
  8
ALPHA
 10
1814.198061
 20
-93.299507
 30
0.0
  0
SEQEND
  5
22BBC
  8
ALPHA
  0
POLYLINE
  5
1F2D5
  8
ALPHA
 66
     1
 10
0.0
 20
0.0
 30
0.0
  0
VERTEX
  5
22BBD
  8
ALPHA
 10
1814.156613
 20
-96.831952
 30
0.0
  0
VERTEX
  5
22BBE
  8
ALPHA
 10
1814.146521
 20
-96.828846
 30
0.0
  0
VERTEX
  5
22BBF
  8
ALPHA
 10
1814.122259
 20
-96.789021
 30
0.0
  0
SEQEND
  5
22BC0
  8
ALPHA
  0
LINE
  5
1F2DA
  8
ALPHA
 10
1812.2208
 20
-89.044452
 30
0.0
 11
1809.8208
 21
-89.044452
 31
0.0
  0
LINE
  5
1F2DB
  8
ALPHA
 10
1812.813105
 20
-89.112336
 30
0.0
 11
1812.2208
 21
-89.112336
 31
0.0
  0
LINE
  5
1F2DC
  8
ALPHA
 10
1814.198061
 20
-93.299507
 30
0.0
 11
1814.124471
 21
-93.299507
 31
0.0
  0
LINE
  5
1F2DD
  8
ALPHA
 10
1814.113538
 20
-93.337398
 30
0.0
 11
1814.229708
 21
-93.337398
 31
0.0
  0
LINE
  5
1F2DE
  8
ALPHA
 10
1814.100939
 20
-93.411311
 30
0.0
 11
1814.218298
 21
-93.411311
 31
0.0
  0
LINE
  5
1F2DF
  8
ALPHA
 10
1814.177238
 20
-94.38449
 30
0.0
 11
1814.151124
 21
-94.38449
 31
0.0
  0
LINE
  5
1F2E0
  8
ALPHA
 10
1814.190918
 20
-95.648778
 30
0.0
 11
1814.161274
 21
-95.648778
 31
0.0
  0
LINE
  5
1F2E1
  8
ALPHA
 10
1814.109593
 20
-96.731907
 30
0.0
 11
1814.234499
 21
-96.731907
 31
0.0
  0
LINE
  5
1F2E2
  8
ALPHA
 10
1814.20684
 20
-96.770876
 30
0.0
 11
1814.118235
 21
-96.770876
 31
0.0
  0
LINE
  5
1F2E3
  8
ALPHA
 10
1812.813105
 20
-100.976568
 30
0.0
 11
1812.2208
 21
-100.976568
 31
0.0
  0
LINE
  5
1F2E4
  8
ALPHA
 10
1812.2208
 20
-101.044452
 30
0.0
 11
1809.8208
 21
-101.044452
 31
0.0
  0
POLYLINE
  5
1F2E5
  8
ALPHA
 66
     1
 10
0.0
 20
0.0
 30
0.0
  0
VERTEX
  5
22BC1
  8
ALPHA
 10
1814.230184
 20
-93.337398
 30
0.0
  0
VERTEX
  5
22BC2
  8
ALPHA
 10
1814.233342
 20
-93.336704
 30
0.0
  0
VERTEX
  5
22BC3
  8
ALPHA
 10
1814.243181
 20
-93.320167
 30
0.0
  0
VERTEX
  5
22BC4
  8
ALPHA
 10
1814.248091
 20
-93.28275
 30
0.0
  0
SEQEND
  5
22BC5
  8
ALPHA
  0
ARC
  5
1F2EB
  8
ALPHA
 10
1802.3208
 20
69.955548
 30
0.0
 40
3.612813
 50
170.440278
 51
189.559722
  0
ARC
  5
1F2EC
  8
ALPHA
 10
1802.3208
 20
69.955548
 30
0.0
 40
3.612813
 50
350.440278
 51
9.559722
  0
ARC
  5
1F2ED
  8
ALPHA
 10
1802.3208
 20
69.955548
 30
0.0
 40
3.545455
 50
9.743097
 51
170.256903
  0
ARC
  5
1F2EE
  8
ALPHA
 10
1802.3208
 20
69.955548
 30
0.0
 40
3.545455
 50
189.743097
 51
350.256903
  0
ARC
  5
1F2EF
  8
ALPHA
 10
1800.848557
 20
69.105548
 30
0.0
 40
0.3
 50
120.0
 51
300.0
  0
ARC
  5
1F2F0
  8
ALPHA
 10
1800.357809
 20
69.955548
 30
0.0
 40
0.681495
 50
300.0
 51
60.0
  0
ARC
  5
1F2F1
  8
ALPHA
 10
1800.848557
 20
70.805548
 30
0.0
 40
0.3
 50
60.0
 51
240.0
  0
ARC
  5
1F2F2
  8
ALPHA
 10
1803.793043
 20
70.805548
 30
0.0
 40
0.3
 50
300.0
 51
120.0
  0
ARC
  5
1F2F3
  8
ALPHA
 10
1804.283791
 20
69.955548
 30
0.0
 40
0.681495
 50
120.0
 51
240.0
  0
ARC
  5
1F2F4
  8
ALPHA
 10
1803.793043
 20
69.105548
 30
0.0
 40
0.3
 50
240.0
 51
60.0
  0
ARC
  5
1F2F5
  8
ALPHA
 10
1802.3208
 20
71.655548
 30
0.0
 40
0.3
 50
0.0
 51
180.0
  0
ARC
  5
1F2F6
  8
ALPHA
 10
1802.3208
 20
68.255548
 30
0.0
 40
0.3
 50
180.0
 51
0.0
  0
CIRCLE
  5
1F2F7
  8
ALPHA
 10
1802.3208
 20
69.955548
 30
0.0
 40
4.0
  0
ARC
  5
1F2F8
  8
ALPHA
 10
1801.339304
 20
71.655548
 30
0.0
 40
0.681495
 50
240.0
 51
0.0
  0
ARC
  5
1F2F9
  8
ALPHA
 10
1803.302295
 20
71.655548
 30
0.0
 40
0.681495
 50
180.0
 51
300.0
  0
ARC
  5
1F2FA
  8
ALPHA
 10
1803.302295
 20
68.255548
 30
0.0
 40
0.681495
 50
60.0
 51
180.0
  0
ARC
  5
1F2FB
  8
ALPHA
 10
1801.339304
 20
68.255548
 30
0.0
 40
0.681495
 50
0.0
 51
120.0
  0
LINE
  5
1F2FC
  8
ALPHA
 10
1800.682725
 20
70.555548
 30
0.0
 11
1798.758157
 21
70.555548
 31
0.0
  0
LINE
  5
1F2FD
  8
ALPHA
 10
1805.883442
 20
70.555548
 30
0.0
 11
1803.958874
 21
70.555548
 31
0.0
  0
LINE
  5
1F2FE
  8
ALPHA
 10
1803.958874
 20
69.355548
 30
0.0
 11
1805.883442
 21
69.355548
 31
0.0
  0
LINE
  5
1F2FF
  8
ALPHA
 10
1798.758157
 20
69.355548
 30
0.0
 11
1800.682725
 21
69.355548
 31
0.0
  0
POLYLINE
  5
1F300
  8
ALPHA
 66
     1
 10
0.0
 20
0.0
 30
0.0
  0
VERTEX
  5
22BC6
  8
ALPHA
 10
1689.72567
 20
209.050732
 30
0.0
  0
VERTEX
  5
22BC7
  8
ALPHA
 10
1689.736178
 20
209.171966
 30
0.0
  0
VERTEX
  5
22BC8
  8
ALPHA
 10
1689.744998
 20
209.513977
 30
0.0
  0
VERTEX
  5
22BC9
  8
ALPHA
 10
1689.750796
 20
210.017666
 30
0.0
  0
VERTEX
  5
22BCA
  8
ALPHA
 10
1689.752811
 20
210.605548
 30
0.0
  0
VERTEX
  5
22BCB
  8
ALPHA
 10
1689.750796
 20
211.19343
 30
0.0
  0
VERTEX
  5
22BCC
  8
ALPHA
 10
1689.744998
 20
211.697118
 30
0.0
  0
VERTEX
  5
22BCD
  8
ALPHA
 10
1689.736178
 20
212.039129
 30
0.0
  0
VERTEX
  5
22BCE
  8
ALPHA
 10
1689.72567
 20
212.160363
 30
0.0
  0
SEQEND
  5
22BCF
  8
ALPHA
  0
POLYLINE
  5
1F30B
  8
ALPHA
 66
     1
 10
0.0
 20
0.0
 30
0.0
  0
VERTEX
  5
22BD0
  8
ALPHA
 10
1689.444643
 20
212.160363
 30
0.0
  0
VERTEX
  5
22BD1
  8
ALPHA
 10
1689.434136
 20
212.039074
 30
0.0
  0
VERTEX
  5
22BD2
  8
ALPHA
 10
1689.425317
 20
211.697049
 30
0.0
  0
VERTEX
  5
22BD3
  8
ALPHA
 10
1689.41952
 20
211.193385
 30
0.0
  0
VERTEX
  5
22BD4
  8
ALPHA
 10
1689.417505
 20
210.605548
 30
0.0
  0
VERTEX
  5
22BD5
  8
ALPHA
 10
1689.41952
 20
210.01771
 30
0.0
  0
VERTEX
  5
22BD6
  8
ALPHA
 10
1689.425317
 20
209.514047
 30
0.0
  0
VERTEX
  5
22BD7
  8
ALPHA
 10
1689.434136
 20
209.172022
 30
0.0
  0
VERTEX
  5
22BD8
  8
ALPHA
 10
1689.444643
 20
209.050732
 30
0.0
  0
SEQEND
  5
22BD9
  8
ALPHA
  0
LINE
  5
1F316
  8
ALPHA
 10
1690.7208
 20
127.305548
 30
0.0
 11
1690.7208
 21
318.305548
 31
0.0
  0
LINE
  5
1F317
  8
ALPHA
 10
1689.8208
 20
127.305548
 30
0.0
 11
1689.8208
 21
315.805776
 31
0.0
  0
LINE
  5
1F318
  8
ALPHA
 10
1689.36559
 20
315.350567
 30
0.0
 11
1689.36559
 21
130.755571
 31
0.0
  0
LINE
  5
1F319
  8
ALPHA
 10
1688.100658
 20
315.350567
 30
0.0
 11
1688.100658
 21
130.755571
 31
0.0
  0
LINE
  5
1F31A
  8
ALPHA
 10
1651.667338
 20
192.820009
 30
0.0
 11
1651.667338
 21
315.273794
 31
0.0
  0
LINE
  5
1F31B
  8
ALPHA
 10
1651.4208
 20
315.243266
 30
0.0
 11
1651.4208
 21
192.966396
 31
0.0
  0
LINE
  5
1F31C
  8
ALPHA
 10
1650.9208
 20
193.263646
 30
0.0
 11
1650.9208
 21
235.755548
 31
0.0
  0
LINE
  5
1F31D
  8
ALPHA
 10
1650.6708
 20
193.473287
 30
0.0
 11
1650.6708
 21
235.505548
 31
0.0
  0
LINE
  5
1F31E
  8
ALPHA
 10
1629.4208
 20
230.255548
 30
0.0
 11
1629.4208
 21
203.105548
 31
0.0
  0
LINE
  5
1F31F
  8
ALPHA
 10
1629.361604
 20
229.726505
 30
0.0
 11
1629.361604
 21
203.63459
 31
0.0
  0
LINE
  5
1F320
  8
ALPHA
 10
1624.5208
 20
224.885701
 30
0.0
 11
1624.5208
 21
208.475394
 31
0.0
  0
LINE
  5
1F321
  8
ALPHA
 10
1621.6208
 20
210.295548
 30
0.0
 11
1621.6208
 21
223.095548
 31
0.0
  0
LINE
  5
1F322
  8
ALPHA
 10
1656.81367
 20
129.324351
 30
0.0
 11
1687.865817
 21
129.255801
 31
0.0
  0
LINE
  5
1F323
  8
ALPHA
 10
1677.7358
 20
129.272596
 30
0.0
 11
1670.2058
 21
129.289769
 31
0.0
  0
LINE
  5
1F324
  8
ALPHA
 10
1670.2058
 20
129.289769
 30
0.0
 11
1670.2058
 21
127.305548
 31
0.0
  0
LINE
  5
1F325
  8
ALPHA
 10
1667.5758
 20
129.295084
 30
0.0
 11
1667.5758
 21
127.305548
 31
0.0
  0
LINE
  5
1F326
  8
ALPHA
 10
1665.8408
 20
127.305548
 30
0.0
 11
1665.8408
 21
129.29859
 31
0.0
  0
LINE
  5
1F327
  8
ALPHA
 10
1670.2058
 20
129.289769
 30
0.0
 11
1663.9208
 21
129.302471
 31
0.0
  0
POLYLINE
  5
1F328
  8
ALPHA
 66
     1
 10
0.0
 20
0.0
 30
0.0
  0
VERTEX
  5
22BDA
  8
ALPHA
 10
1662.856889
 20
129.221257
 30
0.0
  0
VERTEX
  5
22BDB
  8
ALPHA
 10
1663.235518
 20
129.222557
 30
0.0
  0
VERTEX
  5
22BDC
  8
ALPHA
 10
1663.557783
 20
129.226262
 30
0.0
  0
VERTEX
  5
22BDD
  8
ALPHA
 10
1663.775672
 20
129.231822
 30
0.0
  0
VERTEX
  5
22BDE
  8
ALPHA
 10
1663.856737
 20
129.238408
 30
0.0
  0
SEQEND
  5
22BDF
  8
ALPHA
  0
LINE
  5
1F32F
  8
ALPHA
 10
1661.8908
 20
129.221257
 30
0.0
 11
1661.8908
 21
127.305548
 31
0.0
  0
LINE
  5
1F330
  8
ALPHA
 10
1663.9208
 20
129.302471
 30
0.0
 11
1663.856737
 21
129.238408
 31
0.0
  0
POLYLINE
  5
1F331
  8
ALPHA
 66
     1
 10
0.0
 20
0.0
 30
0.0
  0
VERTEX
  5
22BE0
  8
ALPHA
 10
1689.411774
 20
130.709387
 30
0.0
  0
VERTEX
  5
22BE1
  8
ALPHA
 10
1689.421468
 20
130.621768
 30
0.0
  0
VERTEX
  5
22BE2
  8
ALPHA
 10
1689.430296
 20
130.387999
 30
0.0
  0
VERTEX
  5
22BE3
  8
ALPHA
 10
1689.437685
 20
130.025404
 30
0.0
  0
SEQEND
  5
22BE4
  8
ALPHA
  0
POLYLINE
  5
1F337
  8
ALPHA
 66
     1
 10
0.0
 20
0.0
 30
0.0
  0
VERTEX
  5
22BE5
  8
ALPHA
 10
1687.912003
 20
129.209615
 30
0.0
  0
VERTEX
  5
22BE6
  8
ALPHA
 10
1687.92171
 20
129.186791
 30
0.0
  0
VERTEX
  5
22BE7
  8
ALPHA
 10
1687.930523
 20
129.12576
 30
0.0
  0
SEQEND
  5
22BE8
  8
ALPHA
  0
LINE
  5
1F33C
  8
ALPHA
 10
1689.36559
 20
130.755571
 30
0.0
 11
1689.411774
 21
130.709387
 31
0.0
  0
LINE
  5
1F33D
  8
ALPHA
 10
1687.865817
 20
129.255801
 30
0.0
 11
1687.912003
 21
129.209615
 31
0.0
  0
LINE
  5
1F33E
  8
ALPHA
 10
1684.640242
 20
129.225801
 30
0.0
 11
1684.656427
 21
129.209615
 31
0.0
  0
POLYLINE
  5
1F33F
  8
ALPHA
 66
     1
 10
0.0
 20
0.0
 30
0.0
  0
VERTEX
  5
22BE9
  8
ALPHA
 10
1689.437685
 20
130.025404
 30
0.0
  0
VERTEX
  5
22BEA
  8
ALPHA
 10
1689.317948
 20
129.647848
 30
0.0
  0
VERTEX
  5
22BEB
  8
ALPHA
 10
1688.991551
 20
129.326831
 30
0.0
  0
VERTEX
  5
22BEC
  8
ALPHA
 10
1688.50737
 20
129.110425
 30
0.0
  0
VERTEX
  5
22BED
  8
ALPHA
 10
1687.937914
 20
129.031039
 30
0.0
  0
SEQEND
  5
22BEE
  8
ALPHA
  0
POLYLINE
  5
1F346
  8
ALPHA
 66
     1
 10
0.0
 20
0.0
 30
0.0
  0
VERTEX
  5
22BEF
  8
ALPHA
 10
1689.411774
 20
130.709387
 30
0.0
  0
VERTEX
  5
22BF0
  8
ALPHA
 10
1689.297479
 20
130.135554
 30
0.0
  0
VERTEX
  5
22BF1
  8
ALPHA
 10
1688.972339
 20
129.649049
 30
0.0
  0
VERTEX
  5
22BF2
  8
ALPHA
 10
1688.485834
 20
129.323909
 30
0.0
  0
VERTEX
  5
22BF3
  8
ALPHA
 10
1687.912003
 20
129.209615
 30
0.0
  0
SEQEND
  5
22BF4
  8
ALPHA
  0
POLYLINE
  5
1F34D
  8
ALPHA
 66
     1
 10
0.0
 20
0.0
 30
0.0
  0
VERTEX
  5
22BF5
  8
ALPHA
 10
1689.36559
 20
130.755571
 30
0.0
  0
VERTEX
  5
22BF6
  8
ALPHA
 10
1689.251296
 20
130.181739
 30
0.0
  0
VERTEX
  5
22BF7
  8
ALPHA
 10
1688.926156
 20
129.695234
 30
0.0
  0
VERTEX
  5
22BF8
  8
ALPHA
 10
1688.439651
 20
129.370094
 30
0.0
  0
VERTEX
  5
22BF9
  8
ALPHA
 10
1687.865819
 20
129.255799
 30
0.0
  0
SEQEND
  5
22BFA
  8
ALPHA
  0
POLYLINE
  5
1F354
  8
ALPHA
 66
     1
 10
0.0
 20
0.0
 30
0.0
  0
VERTEX
  5
22BFB
  8
ALPHA
 10
1689.72567
 20
134.050732
 30
0.0
  0
VERTEX
  5
22BFC
  8
ALPHA
 10
1689.736178
 20
134.171966
 30
0.0
  0
VERTEX
  5
22BFD
  8
ALPHA
 10
1689.744998
 20
134.513977
 30
0.0
  0
VERTEX
  5
22BFE
  8
ALPHA
 10
1689.750796
 20
135.017666
 30
0.0
  0
VERTEX
  5
22BFF
  8
ALPHA
 10
1689.752811
 20
135.605548
 30
0.0
  0
VERTEX
  5
22C00
  8
ALPHA
 10
1689.750796
 20
136.19343
 30
0.0
  0
VERTEX
  5
22C01
  8
ALPHA
 10
1689.744998
 20
136.697118
 30
0.0
  0
VERTEX
  5
22C02
  8
ALPHA
 10
1689.736178
 20
137.039129
 30
0.0
  0
VERTEX
  5
22C03
  8
ALPHA
 10
1689.72567
 20
137.160363
 30
0.0
  0
SEQEND
  5
22C04
  8
ALPHA
  0
POLYLINE
  5
1F35F
  8
ALPHA
 66
     1
 10
0.0
 20
0.0
 30
0.0
  0
VERTEX
  5
22C05
  8
ALPHA
 10
1689.444643
 20
137.160363
 30
0.0
  0
VERTEX
  5
22C06
  8
ALPHA
 10
1689.434136
 20
137.039074
 30
0.0
  0
VERTEX
  5
22C07
  8
ALPHA
 10
1689.425317
 20
136.697049
 30
0.0
  0
VERTEX
  5
22C08
  8
ALPHA
 10
1689.41952
 20
136.193385
 30
0.0
  0
VERTEX
  5
22C09
  8
ALPHA
 10
1689.417505
 20
135.605548
 30
0.0
  0
VERTEX
  5
22C0A
  8
ALPHA
 10
1689.41952
 20
135.01771
 30
0.0
  0
VERTEX
  5
22C0B
  8
ALPHA
 10
1689.425317
 20
134.514047
 30
0.0
  0
VERTEX
  5
22C0C
  8
ALPHA
 10
1689.434136
 20
134.172022
 30
0.0
  0
VERTEX
  5
22C0D
  8
ALPHA
 10
1689.444643
 20
134.050732
 30
0.0
  0
SEQEND
  5
22C0E
  8
ALPHA
  0
POLYLINE
  5
1F36A
  8
ALPHA
 66
     1
 10
0.0
 20
0.0
 30
0.0
  0
VERTEX
  5
22C0F
  8
ALPHA
 10
1689.72567
 20
141.592665
 30
0.0
  0
VERTEX
  5
22C10
  8
ALPHA
 10
1689.735896
 20
141.710688
 30
0.0
  0
VERTEX
  5
22C11
  8
ALPHA
 10
1689.744482
 20
142.043784
 30
0.0
  0
VERTEX
  5
22C12
  8
ALPHA
 10
1689.750119
 20
142.533647
 30
0.0
  0
VERTEX
  5
22C13
  8
ALPHA
 10
1689.752078
 20
143.105548
 30
0.0
  0
VERTEX
  5
22C14
  8
ALPHA
 10
1689.750119
 20
143.677448
 30
0.0
  0
VERTEX
  5
22C15
  8
ALPHA
 10
1689.744482
 20
144.167312
 30
0.0
  0
VERTEX
  5
22C16
  8
ALPHA
 10
1689.735896
 20
144.500407
 30
0.0
  0
VERTEX
  5
22C17
  8
ALPHA
 10
1689.72567
 20
144.618431
 30
0.0
  0
SEQEND
  5
22C18
  8
ALPHA
  0
POLYLINE
  5
1F375
  8
ALPHA
 66
     1
 10
0.0
 20
0.0
 30
0.0
  0
VERTEX
  5
22C19
  8
ALPHA
 10
1689.444643
 20
144.618431
 30
0.0
  0
VERTEX
  5
22C1A
  8
ALPHA
 10
1689.434417
 20
144.500373
 30
0.0
  0
VERTEX
  5
22C1B
  8
ALPHA
 10
1689.425832
 20
144.16727
 30
0.0
  0
VERTEX
  5
22C1C
  8
ALPHA
 10
1689.420196
 20
143.677421
 30
0.0
  0
VERTEX
  5
22C1D
  8
ALPHA
 10
1689.418237
 20
143.105548
 30
0.0
  0
VERTEX
  5
22C1E
  8
ALPHA
 10
1689.420196
 20
142.533674
 30
0.0
  0
VERTEX
  5
22C1F
  8
ALPHA
 10
1689.425832
 20
142.043825
 30
0.0
  0
VERTEX
  5
22C20
  8
ALPHA
 10
1689.434417
 20
141.710722
 30
0.0
  0
VERTEX
  5
22C21
  8
ALPHA
 10
1689.444643
 20
141.592665
 30
0.0
  0
SEQEND
  5
22C22
  8
ALPHA
  0
POLYLINE
  5
1F380
  8
ALPHA
 66
     1
 10
0.0
 20
0.0
 30
0.0
  0
VERTEX
  5
22C23
  8
ALPHA
 10
1688.100658
 20
130.755571
 30
0.0
  0
VERTEX
  5
22C24
  8
ALPHA
 10
1688.081177
 20
130.185715
 30
0.0
  0
VERTEX
  5
22C25
  8
ALPHA
 10
1688.029546
 20
129.701101
 30
0.0
  0
VERTEX
  5
22C26
  8
ALPHA
 10
1687.953506
 20
129.37479
 30
0.0
  0
VERTEX
  5
22C27
  8
ALPHA
 10
1687.865819
 20
129.255799
 30
0.0
  0
SEQEND
  5
22C28
  8
ALPHA
  0
LINE
  5
1F387
  8
ALPHA
 10
1682.1008
 20
127.305548
 30
0.0
 11
1682.1008
 21
129.261787
 31
0.0
  0
LINE
  5
1F388
  8
ALPHA
 10
1680.3658
 20
129.266084
 30
0.0
 11
1680.3658
 21
127.305548
 31
0.0
  0
LINE
  5
1F389
  8
ALPHA
 10
1677.7358
 20
129.272596
 30
0.0
 11
1677.7358
 21
127.305548
 31
0.0
  0
LINE
  5
1F38A
  8
ALPHA
 10
1689.437685
 20
130.025404
 30
0.0
 11
1689.479721
 21
127.305548
 31
0.0
  0
LINE
  5
1F38B
  8
ALPHA
 10
1687.937914
 20
129.031039
 30
0.0
 11
1687.964581
 21
127.305548
 31
0.0
  0
LINE
  5
1F38C
  8
ALPHA
 10
1684.68986
 20
127.305548
 30
0.0
 11
1684.663192
 21
129.031039
 31
0.0
  0
POLYLINE
  5
1F38D
  8
ALPHA
 66
     1
 10
0.0
 20
0.0
 30
0.0
  0
VERTEX
  5
22C29
  8
ALPHA
 10
1684.663192
 20
129.031039
 30
0.0
  0
VERTEX
  5
22C2A
  8
ALPHA
 10
1684.661257
 20
129.125934
 30
0.0
  0
VERTEX
  5
22C2B
  8
ALPHA
 10
1684.658944
 20
129.187005
 30
0.0
  0
VERTEX
  5
22C2C
  8
ALPHA
 10
1684.656427
 20
129.209615
 30
0.0
  0
SEQEND
  5
22C2D
  8
ALPHA
  0
LINE
  5
1F393
  8
ALPHA
 10
1687.930523
 20
129.12576
 30
0.0
 11
1687.937914
 21
129.031039
 31
0.0
  0
POLYLINE
  5
1F394
  8
ALPHA
 66
     1
 10
0.0
 20
0.0
 30
0.0
  0
VERTEX
  5
22C2E
  8
ALPHA
 10
1682.934173
 20
129.259723
 30
0.0
  0
VERTEX
  5
22C2F
  8
ALPHA
 10
1683.597336
 20
129.255848
 30
0.0
  0
VERTEX
  5
22C30
  8
ALPHA
 10
1684.143533
 20
129.248223
 30
0.0
  0
VERTEX
  5
22C31
  8
ALPHA
 10
1684.505943
 20
129.237782
 30
0.0
  0
VERTEX
  5
22C32
  8
ALPHA
 10
1684.640242
 20
129.225801
 30
0.0
  0
SEQEND
  5
22C33
  8
ALPHA
  0
LINE
  5
1F39B
  8
ALPHA
 10
1682.934173
 20
129.259723
 30
0.0
 11
1677.7358
 21
129.272596
 31
0.0
  0
LINE
  5
1F39C
  8
ALPHA
 10
1689.72567
 20
144.618431
 30
0.0
 11
1689.444643
 21
144.618431
 31
0.0
  0
LINE
  5
1F39D
  8
ALPHA
 10
1689.444643
 20
141.592665
 30
0.0
 11
1689.72567
 21
141.592665
 31
0.0
  0
LINE
  5
1F39E
  8
ALPHA
 10
1689.72567
 20
137.160363
 30
0.0
 11
1689.444643
 21
137.160363
 31
0.0
  0
LINE
  5
1F39F
  8
ALPHA
 10
1689.444643
 20
134.050732
 30
0.0
 11
1689.72567
 21
134.050732
 31
0.0
  0
LINE
  5
1F3A0
  8
ALPHA
 10
1689.36559
 20
130.755571
 30
0.0
 11
1688.100658
 21
130.755571
 31
0.0
  0
LINE
  5
1F3A1
  8
ALPHA
 10
1687.912003
 20
129.209615
 30
0.0
 11
1684.656427
 21
129.209615
 31
0.0
  0
LINE
  5
1F3A2
  8
ALPHA
 10
1687.937914
 20
129.031039
 30
0.0
 11
1684.663192
 21
129.031039
 31
0.0
  0
POLYLINE
  5
1F3A3
  8
ALPHA
 66
     1
 10
0.0
 20
0.0
 30
0.0
  0
VERTEX
  5
22C34
  8
ALPHA
 10
1609.8208
 20
176.889522
 30
0.0
  0
VERTEX
  5
22C35
  8
ALPHA
 10
1623.653539
 20
180.690308
 30
0.0
  0
VERTEX
  5
22C36
  8
ALPHA
 10
1637.630473
 20
186.044768
 30
0.0
  0
VERTEX
  5
22C37
  8
ALPHA
 10
1651.667338
 20
192.820009
 30
0.0
  0
SEQEND
  5
22C38
  8
ALPHA
  0
POLYLINE
  5
1F3A9
  8
ALPHA
 66
     1
 10
0.0
 20
0.0
 30
0.0
  0
VERTEX
  5
22C39
  8
ALPHA
 10
1609.8208
 20
176.889522
 30
0.0
  0
VERTEX
  5
22C3A
  8
ALPHA
 10
1623.580357
 20
180.694147
 30
0.0
  0
VERTEX
  5
22C3B
  8
ALPHA
 10
1637.475752
 20
186.095359
 30
0.0
  0
VERTEX
  5
22C3C
  8
ALPHA
 10
1651.4208
 20
192.966396
 30
0.0
  0
SEQEND
  5
22C3D
  8
ALPHA
  0
POLYLINE
  5
1F3AF
  8
ALPHA
 66
     1
 10
0.0
 20
0.0
 30
0.0
  0
VERTEX
  5
22C3E
  8
ALPHA
 10
1650.9208
 20
193.263646
 30
0.0
  0
VERTEX
  5
22C3F
  8
ALPHA
 10
1636.124056
 20
186.050542
 30
0.0
  0
VERTEX
  5
22C40
  8
ALPHA
 10
1622.344547
 20
180.812255
 30
0.0
  0
VERTEX
  5
22C41
  8
ALPHA
 10
1609.71614
 20
177.378445
 30
0.0
  0
SEQEND
  5
22C42
  8
ALPHA
  0
CIRCLE
  5
1F3B5
  8
ALPHA
 10
1613.1708
 20
192.805548
 30
0.0
 40
4.0
  0
CIRCLE
  5
1F3B6
  8
ALPHA
 10
1624.9708
 20
192.805548
 30
0.0
 40
4.0
  0
LINE
  5
1F3B7
  8
ALPHA
 10
1624.2633
 20
210.050548
 30
0.0
 11
1624.5208
 21
210.050548
 31
0.0
  0
LINE
  5
1F3B8
  8
ALPHA
 10
1615.7208
 20
208.355548
 30
0.0
 11
1617.0208
 21
208.355548
 31
0.0
  0
LINE
  5
1F3B9
  8
ALPHA
 10
1610.7208
 20
208.355548
 30
0.0
 11
1612.0208
 21
208.355548
 31
0.0
  0
LINE
  5
1F3BA
  8
ALPHA
 10
1624.5208
 20
208.475394
 30
0.0
 11
1629.361604
 21
203.63459
 31
0.0
  0
LINE
  5
1F3BB
  8
ALPHA
 10
1624.050953
 20
208.005548
 30
0.0
 11
1628.891758
 21
203.164743
 31
0.0
  0
LINE
  5
1F3BC
  8
ALPHA
 10
1613.536425
 20
193.934272
 30
0.0
 11
1613.42705
 21
194.008738
 31
0.0
  0
LINE
  5
1F3BD
  8
ALPHA
 10
1613.098925
 20
193.040652
 30
0.0
 11
1613.2083
 21
192.966185
 31
0.0
  0
LINE
  5
1F3BE
  8
ALPHA
 10
1615.322883
 20
193.934272
 30
0.0
 11
1615.17705
 21
194.008738
 31
0.0
  0
LINE
  5
1F3BF
  8
ALPHA
 10
1613.572883
 20
192.444911
 30
0.0
 11
1613.42705
 21
192.519378
 31
0.0
  0
LINE
  5
1F3C0
  8
ALPHA
 10
1613.2083
 20
192.519378
 30
0.0
 11
1613.062466
 21
192.593844
 31
0.0
  0
LINE
  5
1F3C1
  8
ALPHA
 10
1614.703091
 20
191.476825
 30
0.0
 11
1614.848925
 21
191.402358
 31
0.0
  0
LINE
  5
1F3C2
  8
ALPHA
 10
1612.98955
 20
191.476825
 30
0.0
 11
1613.135383
 21
191.402358
 31
0.0
  0
LINE
  5
1F3C3
  8
ALPHA
 10
1615.17705
 20
194.455546
 30
0.0
 11
1615.359341
 21
194.38108
 31
0.0
  0
LINE
  5
1F3C4
  8
ALPHA
 10
1613.390591
 20
194.455546
 30
0.0
 11
1613.572883
 21
194.38108
 31
0.0
  0
LINE
  5
1F3C5
  8
ALPHA
 10
1613.42705
 20
192.966185
 30
0.0
 11
1613.609341
 21
192.891719
 31
0.0
  0
LINE
  5
1F3C6
  8
ALPHA
 10
1614.848925
 20
190.955546
 30
0.0
 11
1614.666633
 21
191.030017
 31
0.0
  0
LINE
  5
1F3C7
  8
ALPHA
 10
1613.135383
 20
190.955546
 30
0.0
 11
1612.953091
 21
191.030017
 31
0.0
  0
LINE
  5
1F3C8
  8
ALPHA
 10
1626.174967
 20
194.455546
 30
0.0
 11
1627.560383
 21
194.455546
 31
0.0
  0
LINE
  5
1F3C9
  8
ALPHA
 10
1625.66455
 20
194.455546
 30
0.0
 11
1625.8833
 21
194.455546
 31
0.0
  0
LINE
  5
1F3CA
  8
ALPHA
 10
1624.424967
 20
194.455546
 30
0.0
 11
1624.753092
 21
194.455546
 31
0.0
  0
LINE
  5
1F3CB
  8
ALPHA
 10
1622.8208
 20
194.455546
 30
0.0
 11
1624.1333
 21
194.455546
 31
0.0
  0
LINE
  5
1F3CC
  8
ALPHA
 10
1614.848925
 20
194.455546
 30
0.0
 11
1615.17705
 21
194.455546
 31
0.0
  0
LINE
  5
1F3CD
  8
ALPHA
 10
1613.2083
 20
194.455546
 30
0.0
 11
1613.390591
 21
194.455546
 31
0.0
  0
LINE
  5
1F3CE
  8
ALPHA
 10
1611.0208
 20
194.455546
 30
0.0
 11
1612.3333
 21
194.455546
 31
0.0
  0
LINE
  5
1F3CF
  8
ALPHA
 10
1627.560383
 20
194.083209
 30
0.0
 11
1626.97705
 21
194.083209
 31
0.0
  0
LINE
  5
1F3D0
  8
ALPHA
 10
1626.7583
 20
194.083209
 30
0.0
 11
1626.174967
 21
194.083209
 31
0.0
  0
LINE
  5
1F3D1
  8
ALPHA
 10
1613.42705
 20
194.008738
 30
0.0
 11
1613.2083
 21
194.008738
 31
0.0
  0
LINE
  5
1F3D2
  8
ALPHA
 10
1612.3333
 20
194.008738
 30
0.0
 11
1611.23955
 21
194.008738
 31
0.0
  0
LINE
  5
1F3D3
  8
ALPHA
 10
1615.17705
 20
194.008738
 30
0.0
 11
1614.848925
 21
194.008738
 31
0.0
  0
LINE
  5
1F3D4
  8
ALPHA
 10
1624.1333
 20
194.008738
 30
0.0
 11
1623.03955
 21
194.008738
 31
0.0
  0
LINE
  5
1F3D5
  8
ALPHA
 10
1613.86455
 20
193.636397
 30
0.0
 11
1613.6458
 21
193.636397
 31
0.0
  0
LINE
  5
1F3D6
  8
ALPHA
 10
1615.687466
 20
193.561931
 30
0.0
 11
1615.468716
 21
193.561931
 31
0.0
  0
LINE
  5
1F3D7
  8
ALPHA
 10
1623.03955
 20
193.040652
 30
0.0
 11
1623.987467
 21
193.040652
 31
0.0
  0
LINE
  5
1F3D8
  8
ALPHA
 10
1611.23955
 20
193.040652
 30
0.0
 11
1612.187466
 21
193.040652
 31
0.0
  0
LINE
  5
1F3D9
  8
ALPHA
 10
1613.2083
 20
192.966185
 30
0.0
 11
1613.42705
 21
192.966185
 31
0.0
  0
LINE
  5
1F3DA
  8
ALPHA
 10
1612.187466
 20
192.593844
 30
0.0
 11
1611.23955
 21
192.593844
 31
0.0
  0
LINE
  5
1F3DB
  8
ALPHA
 10
1623.987467
 20
192.593844
 30
0.0
 11
1623.03955
 21
192.593844
 31
0.0
  0
LINE
  5
1F3DC
  8
ALPHA
 10
1613.42705
 20
192.519378
 30
0.0
 11
1613.2083
 21
192.519378
 31
0.0
  0
LINE
  5
1F3DD
  8
ALPHA
 10
1612.624966
 20
191.923632
 30
0.0
 11
1612.843716
 21
191.923632
 31
0.0
  0
LINE
  5
1F3DE
  8
ALPHA
 10
1615.468716
 20
191.849166
 30
0.0
 11
1615.687466
 21
191.849166
 31
0.0
  0
LINE
  5
1F3DF
  8
ALPHA
 10
1623.03955
 20
191.402358
 30
0.0
 11
1624.1333
 21
191.402358
 31
0.0
  0
LINE
  5
1F3E0
  8
ALPHA
 10
1614.848925
 20
191.402358
 30
0.0
 11
1615.17705
 21
191.402358
 31
0.0
  0
LINE
  5
1F3E1
  8
ALPHA
 10
1613.135383
 20
191.402358
 30
0.0
 11
1613.42705
 21
191.402358
 31
0.0
  0
LINE
  5
1F3E2
  8
ALPHA
 10
1611.23955
 20
191.402358
 30
0.0
 11
1612.3333
 21
191.402358
 31
0.0
  0
LINE
  5
1F3E3
  8
ALPHA
 10
1613.42705
 20
190.955546
 30
0.0
 11
1613.135383
 21
190.955546
 31
0.0
  0
LINE
  5
1F3E4
  8
ALPHA
 10
1612.3333
 20
190.955546
 30
0.0
 11
1611.0208
 21
190.955546
 31
0.0
  0
LINE
  5
1F3E5
  8
ALPHA
 10
1615.17705
 20
190.955546
 30
0.0
 11
1614.848925
 21
190.955546
 31
0.0
  0
LINE
  5
1F3E6
  8
ALPHA
 10
1624.1333
 20
190.955546
 30
0.0
 11
1622.8208
 21
190.955546
 31
0.0
  0
LINE
  5
1F3E7
  8
ALPHA
 10
1624.643717
 20
190.955546
 30
0.0
 11
1624.424967
 21
190.955546
 31
0.0
  0
LINE
  5
1F3E8
  8
ALPHA
 10
1626.97705
 20
190.955546
 30
0.0
 11
1626.7583
 21
190.955546
 31
0.0
  0
LINE
  5
1F3E9
  8
ALPHA
 10
1625.8833
 20
190.955546
 30
0.0
 11
1625.555175
 21
190.955546
 31
0.0
  0
POLYLINE
  5
1F3EA
  8
ALPHA
 66
     1
 10
0.0
 20
0.0
 30
0.0
  0
VERTEX
  5
22C43
  8
ALPHA
 10
1624.050953
 20
208.005548
 30
0.0
  0
VERTEX
  5
22C44
  8
ALPHA
 10
1624.291486
 20
208.067677
 30
0.0
  0
VERTEX
  5
22C45
  8
ALPHA
 10
1624.45867
 20
208.234862
 30
0.0
  0
VERTEX
  5
22C46
  8
ALPHA
 10
1624.5208
 20
208.475394
 30
0.0
  0
SEQEND
  5
22C47
  8
ALPHA
  0
LINE
  5
1F3F0
  8
ALPHA
 10
1629.13229
 20
203.226873
 30
0.0
 11
1628.891758
 21
203.164743
 31
0.0
  0
LINE
  5
1F3F1
  8
ALPHA
 10
1613.572883
 20
194.38108
 30
0.0
 11
1613.718716
 21
194.157676
 31
0.0
  0
LINE
  5
1F3F2
  8
ALPHA
 10
1615.432258
 20
193.785334
 30
0.0
 11
1615.322883
 21
193.934272
 31
0.0
  0
LINE
  5
1F3F3
  8
ALPHA
 10
1614.593716
 20
191.625762
 30
0.0
 11
1614.703091
 21
191.476825
 31
0.0
  0
LINE
  5
1F3F4
  8
ALPHA
 10
1613.682258
 20
192.295974
 30
0.0
 11
1613.572883
 21
192.444911
 31
0.0
  0
LINE
  5
1F3F5
  8
ALPHA
 10
1612.98955
 20
193.189589
 30
0.0
 11
1613.098925
 21
193.040652
 31
0.0
  0
LINE
  5
1F3F6
  8
ALPHA
 10
1612.953091
 20
191.030017
 30
0.0
 11
1612.7708
 21
191.253421
 31
0.0
  0
LINE
  5
1F3F7
  8
ALPHA
 10
1615.359341
 20
194.38108
 30
0.0
 11
1615.505175
 21
194.232142
 31
0.0
  0
LINE
  5
1F3F8
  8
ALPHA
 10
1613.609341
 20
192.891719
 30
0.0
 11
1613.755175
 21
192.742781
 31
0.0
  0
LINE
  5
1F3F9
  8
ALPHA
 10
1613.062466
 20
192.593844
 30
0.0
 11
1612.916633
 21
192.742781
 31
0.0
  0
LINE
  5
1F3FA
  8
ALPHA
 10
1614.666633
 20
191.030017
 30
0.0
 11
1614.5208
 21
191.17895
 31
0.0
  0
LINE
  5
1F3FB
  8
ALPHA
 10
1612.7708
 20
191.253421
 30
0.0
 11
1612.661425
 21
191.625762
 31
0.0
  0
LINE
  5
1F3FC
  8
ALPHA
 10
1625.555175
 20
190.955546
 30
0.0
 11
1624.643717
 21
194.008738
 31
0.0
  0
LINE
  5
1F3FD
  8
ALPHA
 10
1624.753092
 20
194.455546
 30
0.0
 11
1625.66455
 21
191.476825
 31
0.0
  0
LINE
  5
1F3FE
  8
ALPHA
 10
1614.5208
 20
191.849166
 30
0.0
 11
1614.593716
 21
191.625762
 31
0.0
  0
LINE
  5
1F3FF
  8
ALPHA
 10
1613.755175
 20
192.07257
 30
0.0
 11
1613.682258
 21
192.295974
 31
0.0
  0
LINE
  5
1F400
  8
ALPHA
 10
1613.718716
 20
194.157676
 30
0.0
 11
1613.828091
 21
193.859801
 31
0.0
  0
LINE
  5
1F401
  8
ALPHA
 10
1615.505175
 20
194.232142
 30
0.0
 11
1615.651008
 21
193.934272
 31
0.0
  0
LINE
  5
1F402
  8
ALPHA
 10
1613.609341
 20
193.785334
 30
0.0
 11
1613.536425
 21
193.934272
 31
0.0
  0
LINE
  5
1F403
  8
ALPHA
 10
1613.755175
 20
192.742781
 30
0.0
 11
1613.901008
 21
192.444911
 31
0.0
  0
LINE
  5
1F404
  8
ALPHA
 10
1614.5208
 20
191.17895
 30
0.0
 11
1614.374966
 21
191.476825
 31
0.0
  0
LINE
  5
1F405
  8
ALPHA
 10
1612.916633
 20
192.742781
 30
0.0
 11
1612.7708
 21
193.040652
 31
0.0
  0
LINE
  5
1F406
  8
ALPHA
 10
1612.880175
 20
191.700229
 30
0.0
 11
1612.98955
 21
191.476825
 31
0.0
  0
LINE
  5
1F407
  8
ALPHA
 10
1614.484341
 20
192.147036
 30
0.0
 11
1614.5208
 21
191.849166
 31
0.0
  0
LINE
  5
1F408
  8
ALPHA
 10
1612.7708
 20
193.040652
 30
0.0
 11
1612.734341
 21
193.338527
 31
0.0
  0
LINE
  5
1F409
  8
ALPHA
 10
1612.661425
 20
191.625762
 30
0.0
 11
1612.624966
 21
191.923632
 31
0.0
  0
LINE
  5
1F40A
  8
ALPHA
 10
1615.468716
 20
193.561931
 30
0.0
 11
1615.432258
 21
193.785334
 31
0.0
  0
LINE
  5
1F40B
  8
ALPHA
 10
1613.828091
 20
193.859801
 30
0.0
 11
1613.86455
 21
193.636397
 31
0.0
  0
LINE
  5
1F40C
  8
ALPHA
 10
1612.953091
 20
193.412993
 30
0.0
 11
1612.98955
 21
193.189589
 31
0.0
  0
LINE
  5
1F40D
  8
ALPHA
 10
1612.843716
 20
191.923632
 30
0.0
 11
1612.880175
 21
191.700229
 31
0.0
  0
LINE
  5
1F40E
  8
ALPHA
 10
1614.374966
 20
191.476825
 30
0.0
 11
1614.30205
 21
191.774695
 31
0.0
  0
LINE
  5
1F40F
  8
ALPHA
 10
1613.6458
 20
193.636397
 30
0.0
 11
1613.609341
 21
193.785334
 31
0.0
  0
LINE
  5
1F410
  8
ALPHA
 10
1613.901008
 20
192.444911
 30
0.0
 11
1613.973925
 21
192.147036
 31
0.0
  0
LINE
  5
1F411
  8
ALPHA
 10
1627.560383
 20
194.455546
 30
0.0
 11
1627.560383
 21
194.083209
 31
0.0
  0
LINE
  5
1F412
  8
ALPHA
 10
1626.97705
 20
194.083209
 30
0.0
 11
1626.97705
 21
190.955546
 31
0.0
  0
LINE
  5
1F413
  8
ALPHA
 10
1626.7583
 20
190.955546
 30
0.0
 11
1626.7583
 21
194.083209
 31
0.0
  0
LINE
  5
1F414
  8
ALPHA
 10
1626.174967
 20
194.083209
 30
0.0
 11
1626.174967
 21
194.455546
 31
0.0
  0
LINE
  5
1F415
  8
ALPHA
 10
1625.8833
 20
194.455546
 30
0.0
 11
1625.8833
 21
190.955546
 31
0.0
  0
LINE
  5
1F416
  8
ALPHA
 10
1625.66455
 20
191.476825
 30
0.0
 11
1625.66455
 21
194.455546
 31
0.0
  0
LINE
  5
1F417
  8
ALPHA
 10
1624.643717
 20
194.008738
 30
0.0
 11
1624.643717
 21
190.955546
 31
0.0
  0
LINE
  5
1F418
  8
ALPHA
 10
1624.424967
 20
190.955546
 30
0.0
 11
1624.424967
 21
194.455546
 31
0.0
  0
LINE
  5
1F419
  8
ALPHA
 10
1624.2633
 20
208.060397
 30
0.0
 11
1624.2633
 21
210.050548
 31
0.0
  0
LINE
  5
1F41A
  8
ALPHA
 10
1624.1333
 20
191.402358
 30
0.0
 11
1624.1333
 21
190.955546
 31
0.0
  0
LINE
  5
1F41B
  8
ALPHA
 10
1624.1333
 20
194.455546
 30
0.0
 11
1624.1333
 21
194.008738
 31
0.0
  0
LINE
  5
1F41C
  8
ALPHA
 10
1623.987467
 20
193.040652
 30
0.0
 11
1623.987467
 21
192.593844
 31
0.0
  0
LINE
  5
1F41D
  8
ALPHA
 10
1623.03955
 20
192.593844
 30
0.0
 11
1623.03955
 21
191.402358
 31
0.0
  0
LINE
  5
1F41E
  8
ALPHA
 10
1623.03955
 20
194.008738
 30
0.0
 11
1623.03955
 21
193.040652
 31
0.0
  0
LINE
  5
1F41F
  8
ALPHA
 10
1622.8208
 20
190.955546
 30
0.0
 11
1622.8208
 21
194.455546
 31
0.0
  0
LINE
  5
1F420
  8
ALPHA
 10
1617.0208
 20
208.355548
 30
0.0
 11
1617.0208
 21
208.005548
 31
0.0
  0
LINE
  5
1F421
  8
ALPHA
 10
1615.7208
 20
208.005548
 30
0.0
 11
1615.7208
 21
208.355548
 31
0.0
  0
LINE
  5
1F422
  8
ALPHA
 10
1614.484341
 20
193.26406
 30
0.0
 11
1614.484341
 21
192.147036
 31
0.0
  0
LINE
  5
1F423
  8
ALPHA
 10
1614.265591
 20
192.147036
 30
0.0
 11
1614.265591
 21
193.26406
 31
0.0
  0
LINE
  5
1F424
  8
ALPHA
 10
1613.973925
 20
192.147036
 30
0.0
 11
1613.973925
 21
191.774695
 31
0.0
  0
LINE
  5
1F425
  8
ALPHA
 10
1613.755175
 20
191.849166
 30
0.0
 11
1613.755175
 21
192.07257
 31
0.0
  0
LINE
  5
1F426
  8
ALPHA
 10
1615.651008
 20
193.934272
 30
0.0
 11
1615.687466
 21
193.561931
 31
0.0
  0
LINE
  5
1F427
  8
ALPHA
 10
1614.30205
 20
191.774695
 30
0.0
 11
1614.265591
 21
192.147036
 31
0.0
  0
LINE
  5
1F428
  8
ALPHA
 10
1629.361604
 20
203.63459
 30
0.0
 11
1629.299474
 21
203.394057
 31
0.0
  0
LINE
  5
1F429
  8
ALPHA
 10
1613.973925
 20
191.774695
 30
0.0
 11
1613.901008
 21
191.476825
 31
0.0
  0
LINE
  5
1F42A
  8
ALPHA
 10
1614.30205
 20
193.636397
 30
0.0
 11
1614.374966
 21
193.934272
 31
0.0
  0
LINE
  5
1F42B
  8
ALPHA
 10
1615.432258
 20
191.625762
 30
0.0
 11
1615.468716
 21
191.849166
 31
0.0
  0
LINE
  5
1F42C
  8
ALPHA
 10
1612.98955
 20
193.785334
 30
0.0
 11
1612.953091
 21
193.561931
 31
0.0
  0
LINE
  5
1F42D
  8
ALPHA
 10
1614.5208
 20
193.561931
 30
0.0
 11
1614.484341
 21
193.26406
 31
0.0
  0
LINE
  5
1F42E
  8
ALPHA
 10
1612.734341
 20
193.636397
 30
0.0
 11
1612.7708
 21
193.934272
 31
0.0
  0
LINE
  5
1F42F
  8
ALPHA
 10
1615.687466
 20
191.849166
 30
0.0
 11
1615.651008
 21
191.476825
 31
0.0
  0
LINE
  5
1F430
  8
ALPHA
 10
1614.265591
 20
193.26406
 30
0.0
 11
1614.30205
 21
193.636397
 31
0.0
  0
LINE
  5
1F431
  8
ALPHA
 10
1612.953091
 20
193.561931
 30
0.0
 11
1612.953091
 21
193.412993
 31
0.0
  0
LINE
  5
1F432
  8
ALPHA
 10
1612.734341
 20
193.338527
 30
0.0
 11
1612.734341
 21
193.636397
 31
0.0
  0
LINE
  5
1F433
  8
ALPHA
 10
1612.3333
 20
191.402358
 30
0.0
 11
1612.3333
 21
190.955546
 31
0.0
  0
LINE
  5
1F434
  8
ALPHA
 10
1612.3333
 20
194.455546
 30
0.0
 11
1612.3333
 21
194.008738
 31
0.0
  0
LINE
  5
1F435
  8
ALPHA
 10
1612.187466
 20
193.040652
 30
0.0
 11
1612.187466
 21
192.593844
 31
0.0
  0
LINE
  5
1F436
  8
ALPHA
 10
1612.0208
 20
208.355548
 30
0.0
 11
1612.0208
 21
208.005548
 31
0.0
  0
LINE
  5
1F437
  8
ALPHA
 10
1611.23955
 20
192.593844
 30
0.0
 11
1611.23955
 21
191.402358
 31
0.0
  0
LINE
  5
1F438
  8
ALPHA
 10
1611.23955
 20
194.008738
 30
0.0
 11
1611.23955
 21
193.040652
 31
0.0
  0
LINE
  5
1F439
  8
ALPHA
 10
1611.0208
 20
190.955546
 30
0.0
 11
1611.0208
 21
194.455546
 31
0.0
  0
LINE
  5
1F43A
  8
ALPHA
 10
1610.7208
 20
208.005548
 30
0.0
 11
1610.7208
 21
208.355548
 31
0.0
  0
LINE
  5
1F43B
  8
ALPHA
 10
1609.3208
 20
208.305548
 30
0.0
 11
1609.3208
 21
208.005548
 31
0.0
  0
LINE
  5
1F43C
  8
ALPHA
 10
1615.651008
 20
191.476825
 30
0.0
 11
1615.505175
 21
191.17895
 31
0.0
  0
LINE
  5
1F43D
  8
ALPHA
 10
1613.901008
 20
191.476825
 30
0.0
 11
1613.755175
 21
191.17895
 31
0.0
  0
LINE
  5
1F43E
  8
ALPHA
 10
1614.374966
 20
193.934272
 30
0.0
 11
1614.5208
 21
194.232142
 31
0.0
  0
LINE
  5
1F43F
  8
ALPHA
 10
1612.7708
 20
193.934272
 30
0.0
 11
1612.916633
 21
194.232142
 31
0.0
  0
LINE
  5
1F440
  8
ALPHA
 10
1614.593716
 20
193.785334
 30
0.0
 11
1614.5208
 21
193.561931
 31
0.0
  0
LINE
  5
1F441
  8
ALPHA
 10
1613.682258
 20
191.625762
 30
0.0
 11
1613.755175
 21
191.849166
 31
0.0
  0
LINE
  5
1F442
  8
ALPHA
 10
1629.299474
 20
203.394057
 30
0.0
 11
1629.13229
 21
203.226873
 31
0.0
  0
LINE
  5
1F443
  8
ALPHA
 10
1615.505175
 20
191.17895
 30
0.0
 11
1615.359341
 21
191.030017
 31
0.0
  0
LINE
  5
1F444
  8
ALPHA
 10
1613.755175
 20
191.17895
 30
0.0
 11
1613.609341
 21
191.030017
 31
0.0
  0
LINE
  5
1F445
  8
ALPHA
 10
1614.5208
 20
194.232142
 30
0.0
 11
1614.666633
 21
194.38108
 31
0.0
  0
LINE
  5
1F446
  8
ALPHA
 10
1612.916633
 20
194.232142
 30
0.0
 11
1613.062466
 21
194.38108
 31
0.0
  0
LINE
  5
1F447
  8
ALPHA
 10
1615.322883
 20
191.476825
 30
0.0
 11
1615.432258
 21
191.625762
 31
0.0
  0
LINE
  5
1F448
  8
ALPHA
 10
1613.572883
 20
191.476825
 30
0.0
 11
1613.682258
 21
191.625762
 31
0.0
  0
LINE
  5
1F449
  8
ALPHA
 10
1614.703091
 20
193.934272
 30
0.0
 11
1614.593716
 21
193.785334
 31
0.0
  0
LINE
  5
1F44A
  8
ALPHA
 10
1613.098925
 20
193.934272
 30
0.0
 11
1612.98955
 21
193.785334
 31
0.0
  0
LINE
  5
1F44B
  8
ALPHA
 10
1615.359341
 20
191.030017
 30
0.0
 11
1615.17705
 21
190.955546
 31
0.0
  0
LINE
  5
1F44C
  8
ALPHA
 10
1613.609341
 20
191.030017
 30
0.0
 11
1613.42705
 21
190.955546
 31
0.0
  0
LINE
  5
1F44D
  8
ALPHA
 10
1614.666633
 20
194.38108
 30
0.0
 11
1614.848925
 21
194.455546
 31
0.0
  0
LINE
  5
1F44E
  8
ALPHA
 10
1615.17705
 20
191.402358
 30
0.0
 11
1615.322883
 21
191.476825
 31
0.0
  0
LINE
  5
1F44F
  8
ALPHA
 10
1613.42705
 20
191.402358
 30
0.0
 11
1613.572883
 21
191.476825
 31
0.0
  0
LINE
  5
1F450
  8
ALPHA
 10
1614.848925
 20
194.008738
 30
0.0
 11
1614.703091
 21
193.934272
 31
0.0
  0
LINE
  5
1F451
  8
ALPHA
 10
1613.062466
 20
194.38108
 30
0.0
 11
1613.2083
 21
194.455546
 31
0.0
  0
LINE
  5
1F452
  8
ALPHA
 10
1613.2083
 20
194.008738
 30
0.0
 11
1613.098925
 21
193.934272
 31
0.0
  0
LINE
  5
1F453
  8
ALPHA
 10
1651.4208
 20
192.966396
 30
0.0
 11
1651.667338
 21
192.820009
 31
0.0
  0
ARC
  5
1F454
  8
ALPHA
 10
1683.274079
 20
148.781215
 30
0.0
 40
0.688158
 50
73.266405
 51
166.733595
  0
ARC
  5
1F455
  8
ALPHA
 10
1682.2208
 20
149.029548
 30
0.0
 40
0.394
 50
193.266405
 51
346.733595
  0
ARC
  5
1F456
  8
ALPHA
 10
1681.167521
 20
148.781215
 30
0.0
 40
0.688158
 50
13.266405
 51
106.733595
  0
ARC
  5
1F457
  8
ALPHA
 10
1681.167521
 20
152.42988
 30
0.0
 40
0.688158
 50
253.266405
 51
346.733595
  0
ARC
  5
1F458
  8
ALPHA
 10
1683.274079
 20
152.42988
 30
0.0
 40
0.688158
 50
193.266405
 51
286.733595
  0
ARC
  5
1F459
  8
ALPHA
 10
1682.2208
 20
152.181548
 30
0.0
 40
0.394
 50
13.266405
 51
166.733595
  0
ARC
  5
1F45A
  8
ALPHA
 10
1680.855944
 20
151.393548
 30
0.0
 40
0.394
 50
73.266405
 51
226.733595
  0
ARC
  5
1F45B
  8
ALPHA
 10
1680.855944
 20
149.817548
 30
0.0
 40
0.394
 50
133.266405
 51
286.733595
  0
ARC
  5
1F45C
  8
ALPHA
 10
1683.585656
 20
151.393548
 30
0.0
 40
0.394
 50
313.266405
 51
106.733595
  0
ARC
  5
1F45D
  8
ALPHA
 10
1683.585656
 20
149.817548
 30
0.0
 40
0.394
 50
253.266405
 51
46.733595
  0
ARC
  5
1F45E
  8
ALPHA
 10
1684.327358
 20
150.605548
 30
0.0
 40
0.688158
 50
133.266405
 51
226.733595
  0
ARC
  5
1F45F
  8
ALPHA
 10
1680.114242
 20
150.605548
 30
0.0
 40
0.688158
 50
313.266405
 51
46.733595
  0
LINE
  5
1F460
  8
ALPHA
 10
1686.204105
 20
151.769926
 30
0.0
 11
1686.3708
 21
150.605543
 31
0.0
  0
POLYLINE
  5
1F461
  8
ALPHA
 66
     1
 10
0.0
 20
0.0
 30
0.0
  0
VERTEX
  5
22C48
  8
ALPHA
 10
1681.624065
 20
146.498674
 30
0.0
  0
VERTEX
  5
22C49
  8
ALPHA
 10
1680.498418
 20
146.829848
 30
0.0
  0
VERTEX
  5
22C4A
  8
ALPHA
 10
1679.499229
 20
147.472571
 30
0.0
  0
VERTEX
  5
22C4B
  8
ALPHA
 10
1678.732745
 20
148.356996
 30
0.0
  0
VERTEX
  5
22C4C
  8
ALPHA
 10
1678.238066
 20
149.439217
 30
0.0
  0
VERTEX
  5
22C4D
  8
ALPHA
 10
1678.0708
 20
150.605545
 30
0.0
  0
SEQEND
  5
22C4E
  8
ALPHA
  0
POLYLINE
  5
1F469
  8
ALPHA
 66
     1
 10
0.0
 20
0.0
 30
0.0
  0
VERTEX
  5
22C4F
  8
ALPHA
 10
1682.2208
 20
153.105548
 30
0.0
  0
VERTEX
  5
22C50
  8
ALPHA
 10
1683.078496
 20
152.953815
 30
0.0
  0
VERTEX
  5
22C51
  8
ALPHA
 10
1683.839219
 20
152.510994
 30
0.0
  0
VERTEX
  5
22C52
  8
ALPHA
 10
1684.386722
 20
151.854057
 30
0.0
  0
VERTEX
  5
22C53
  8
ALPHA
 10
1684.6843
 20
151.031189
 30
0.0
  0
VERTEX
  5
22C54
  8
ALPHA
 10
1684.684273
 20
150.179747
 30
0.0
  0
VERTEX
  5
22C55
  8
ALPHA
 10
1684.386656
 20
149.356923
 30
0.0
  0
VERTEX
  5
22C56
  8
ALPHA
 10
1683.83917
 20
148.700059
 30
0.0
  0
VERTEX
  5
22C57
  8
ALPHA
 10
1683.078445
 20
148.257262
 30
0.0
  0
VERTEX
  5
22C58
  8
ALPHA
 10
1682.2208
 20
148.105548
 30
0.0
  0
SEQEND
  5
22C59
  8
ALPHA
  0
POLYLINE
  5
1F475
  8
ALPHA
 66
     1
 10
0.0
 20
0.0
 30
0.0
  0
VERTEX
  5
22C5A
  8
ALPHA
 10
1682.2208
 20
148.105548
 30
0.0
  0
VERTEX
  5
22C5B
  8
ALPHA
 10
1681.363588
 20
148.257104
 30
0.0
  0
VERTEX
  5
22C5C
  8
ALPHA
 10
1680.602671
 20
148.699854
 30
0.0
  0
VERTEX
  5
22C5D
  8
ALPHA
 10
1680.054952
 20
149.35691
 30
0.0
  0
VERTEX
  5
22C5E
  8
ALPHA
 10
1679.757305
 20
150.179873
 30
0.0
  0
VERTEX
  5
22C5F
  8
ALPHA
 10
1679.757332
 20
151.031378
 30
0.0
  0
VERTEX
  5
22C60
  8
ALPHA
 10
1680.055017
 20
151.854299
 30
0.0
  0
VERTEX
  5
22C61
  8
ALPHA
 10
1680.602719
 20
152.511282
 30
0.0
  0
VERTEX
  5
22C62
  8
ALPHA
 10
1681.363637
 20
152.95401
 30
0.0
  0
VERTEX
  5
22C63
  8
ALPHA
 10
1682.2208
 20
153.105548
 30
0.0
  0
SEQEND
  5
22C64
  8
ALPHA
  0
LINE
  5
1F481
  8
ALPHA
 10
1689.72567
 20
174.660363
 30
0.0
 11
1689.444643
 21
174.660363
 31
0.0
  0
LINE
  5
1F482
  8
ALPHA
 10
1689.444643
 20
171.550732
 30
0.0
 11
1689.72567
 21
171.550732
 31
0.0
  0
LINE
  5
1F483
  8
ALPHA
 10
1689.72567
 20
167.160363
 30
0.0
 11
1689.444643
 21
167.160363
 31
0.0
  0
LINE
  5
1F484
  8
ALPHA
 10
1689.444643
 20
164.050732
 30
0.0
 11
1689.72567
 21
164.050732
 31
0.0
  0
LINE
  5
1F485
  8
ALPHA
 10
1689.72567
 20
159.618431
 30
0.0
 11
1689.444643
 21
159.618431
 31
0.0
  0
LINE
  5
1F486
  8
ALPHA
 10
1689.444643
 20
156.592665
 30
0.0
 11
1689.72567
 21
156.592665
 31
0.0
  0
LINE
  5
1F487
  8
ALPHA
 10
1689.72567
 20
152.118431
 30
0.0
 11
1689.444643
 21
152.118431
 31
0.0
  0
POLYLINE
  5
1F488
  8
ALPHA
 66
     1
 10
0.0
 20
0.0
 30
0.0
  0
VERTEX
  5
22C65
  8
ALPHA
 10
1678.0708
 20
150.605545
 30
0.0
  0
VERTEX
  5
22C66
  8
ALPHA
 10
1678.238062
 20
151.771865
 30
0.0
  0
VERTEX
  5
22C67
  8
ALPHA
 10
1678.732737
 20
152.854087
 30
0.0
  0
VERTEX
  5
22C68
  8
ALPHA
 10
1679.499217
 20
153.738514
 30
0.0
  0
VERTEX
  5
22C69
  8
ALPHA
 10
1680.498394
 20
154.381236
 30
0.0
  0
VERTEX
  5
22C6A
  8
ALPHA
 10
1681.62404
 20
154.712417
 30
0.0
  0
VERTEX
  5
22C6B
  8
ALPHA
 10
1682.819575
 20
154.712124
 30
0.0
  0
VERTEX
  5
22C6C
  8
ALPHA
 10
1683.945139
 20
154.380354
 30
0.0
  0
VERTEX
  5
22C6D
  8
ALPHA
 10
1684.94411
 20
153.737012
 30
0.0
  0
VERTEX
  5
22C6E
  8
ALPHA
 10
1685.710145
 20
152.852095
 30
0.0
  0
VERTEX
  5
22C6F
  8
ALPHA
 10
1686.204105
 20
151.769926
 30
0.0
  0
SEQEND
  5
22C70
  8
ALPHA
  0
LINE
  5
1F495
  8
ALPHA
 10
1686.3708
 20
150.605543
 30
0.0
 11
1686.204105
 21
149.441172
 31
0.0
  0
POLYLINE
  5
1F496
  8
ALPHA
 66
     1
 10
0.0
 20
0.0
 30
0.0
  0
VERTEX
  5
22C71
  8
ALPHA
 10
1689.72567
 20
164.050732
 30
0.0
  0
VERTEX
  5
22C72
  8
ALPHA
 10
1689.736178
 20
164.171966
 30
0.0
  0
VERTEX
  5
22C73
  8
ALPHA
 10
1689.744998
 20
164.513977
 30
0.0
  0
VERTEX
  5
22C74
  8
ALPHA
 10
1689.750796
 20
165.017666
 30
0.0
  0
VERTEX
  5
22C75
  8
ALPHA
 10
1689.752811
 20
165.605548
 30
0.0
  0
VERTEX
  5
22C76
  8
ALPHA
 10
1689.750796
 20
166.19343
 30
0.0
  0
VERTEX
  5
22C77
  8
ALPHA
 10
1689.744998
 20
166.697118
 30
0.0
  0
VERTEX
  5
22C78
  8
ALPHA
 10
1689.736178
 20
167.039129
 30
0.0
  0
VERTEX
  5
22C79
  8
ALPHA
 10
1689.72567
 20
167.160363
 30
0.0
  0
SEQEND
  5
22C7A
  8
ALPHA
  0
POLYLINE
  5
1F4A1
  8
ALPHA
 66
     1
 10
0.0
 20
0.0
 30
0.0
  0
VERTEX
  5
22C7B
  8
ALPHA
 10
1689.72567
 20
171.550732
 30
0.0
  0
VERTEX
  5
22C7C
  8
ALPHA
 10
1689.736178
 20
171.671966
 30
0.0
  0
VERTEX
  5
22C7D
  8
ALPHA
 10
1689.744998
 20
172.013977
 30
0.0
  0
VERTEX
  5
22C7E
  8
ALPHA
 10
1689.750796
 20
172.517666
 30
0.0
  0
VERTEX
  5
22C7F
  8
ALPHA
 10
1689.752811
 20
173.105548
 30
0.0
  0
VERTEX
  5
22C80
  8
ALPHA
 10
1689.750796
 20
173.69343
 30
0.0
  0
VERTEX
  5
22C81
  8
ALPHA
 10
1689.744998
 20
174.197118
 30
0.0
  0
VERTEX
  5
22C82
  8
ALPHA
 10
1689.736178
 20
174.539129
 30
0.0
  0
VERTEX
  5
22C83
  8
ALPHA
 10
1689.72567
 20
174.660363
 30
0.0
  0
SEQEND
  5
22C84
  8
ALPHA
  0
POLYLINE
  5
1F4AC
  8
ALPHA
 66
     1
 10
0.0
 20
0.0
 30
0.0
  0
VERTEX
  5
22C85
  8
ALPHA
 10
1689.72567
 20
149.092665
 30
0.0
  0
VERTEX
  5
22C86
  8
ALPHA
 10
1689.735896
 20
149.210688
 30
0.0
  0
VERTEX
  5
22C87
  8
ALPHA
 10
1689.744482
 20
149.543784
 30
0.0
  0
VERTEX
  5
22C88
  8
ALPHA
 10
1689.750119
 20
150.033647
 30
0.0
  0
VERTEX
  5
22C89
  8
ALPHA
 10
1689.752078
 20
150.605548
 30
0.0
  0
VERTEX
  5
22C8A
  8
ALPHA
 10
1689.750119
 20
151.177448
 30
0.0
  0
VERTEX
  5
22C8B
  8
ALPHA
 10
1689.744482
 20
151.667312
 30
0.0
  0
VERTEX
  5
22C8C
  8
ALPHA
 10
1689.735896
 20
152.000407
 30
0.0
  0
VERTEX
  5
22C8D
  8
ALPHA
 10
1689.72567
 20
152.118431
 30
0.0
  0
SEQEND
  5
22C8E
  8
ALPHA
  0
POLYLINE
  5
1F4B7
  8
ALPHA
 66
     1
 10
0.0
 20
0.0
 30
0.0
  0
VERTEX
  5
22C8F
  8
ALPHA
 10
1689.444643
 20
152.118431
 30
0.0
  0
VERTEX
  5
22C90
  8
ALPHA
 10
1689.434417
 20
152.000373
 30
0.0
  0
VERTEX
  5
22C91
  8
ALPHA
 10
1689.425832
 20
151.66727
 30
0.0
  0
VERTEX
  5
22C92
  8
ALPHA
 10
1689.420196
 20
151.177421
 30
0.0
  0
VERTEX
  5
22C93
  8
ALPHA
 10
1689.418237
 20
150.605548
 30
0.0
  0
VERTEX
  5
22C94
  8
ALPHA
 10
1689.420196
 20
150.033674
 30
0.0
  0
VERTEX
  5
22C95
  8
ALPHA
 10
1689.425832
 20
149.543825
 30
0.0
  0
VERTEX
  5
22C96
  8
ALPHA
 10
1689.434417
 20
149.210722
 30
0.0
  0
VERTEX
  5
22C97
  8
ALPHA
 10
1689.444643
 20
149.092665
 30
0.0
  0
SEQEND
  5
22C98
  8
ALPHA
  0
POLYLINE
  5
1F4C2
  8
ALPHA
 66
     1
 10
0.0
 20
0.0
 30
0.0
  0
VERTEX
  5
22C99
  8
ALPHA
 10
1689.72567
 20
156.592665
 30
0.0
  0
VERTEX
  5
22C9A
  8
ALPHA
 10
1689.735896
 20
156.710688
 30
0.0
  0
VERTEX
  5
22C9B
  8
ALPHA
 10
1689.744482
 20
157.043784
 30
0.0
  0
VERTEX
  5
22C9C
  8
ALPHA
 10
1689.750119
 20
157.533647
 30
0.0
  0
VERTEX
  5
22C9D
  8
ALPHA
 10
1689.752078
 20
158.105548
 30
0.0
  0
VERTEX
  5
22C9E
  8
ALPHA
 10
1689.750119
 20
158.677448
 30
0.0
  0
VERTEX
  5
22C9F
  8
ALPHA
 10
1689.744482
 20
159.167312
 30
0.0
  0
VERTEX
  5
22CA0
  8
ALPHA
 10
1689.735896
 20
159.500407
 30
0.0
  0
VERTEX
  5
22CA1
  8
ALPHA
 10
1689.72567
 20
159.618431
 30
0.0
  0
SEQEND
  5
22CA2
  8
ALPHA
  0
POLYLINE
  5
1F4CD
  8
ALPHA
 66
     1
 10
0.0
 20
0.0
 30
0.0
  0
VERTEX
  5
22CA3
  8
ALPHA
 10
1689.444643
 20
159.618431
 30
0.0
  0
VERTEX
  5
22CA4
  8
ALPHA
 10
1689.434417
 20
159.500373
 30
0.0
  0
VERTEX
  5
22CA5
  8
ALPHA
 10
1689.425832
 20
159.16727
 30
0.0
  0
VERTEX
  5
22CA6
  8
ALPHA
 10
1689.420196
 20
158.677421
 30
0.0
  0
VERTEX
  5
22CA7
  8
ALPHA
 10
1689.418237
 20
158.105548
 30
0.0
  0
VERTEX
  5
22CA8
  8
ALPHA
 10
1689.420196
 20
157.533674
 30
0.0
  0
VERTEX
  5
22CA9
  8
ALPHA
 10
1689.425832
 20
157.043825
 30
0.0
  0
VERTEX
  5
22CAA
  8
ALPHA
 10
1689.434417
 20
156.710722
 30
0.0
  0
VERTEX
  5
22CAB
  8
ALPHA
 10
1689.444643
 20
156.592665
 30
0.0
  0
SEQEND
  5
22CAC
  8
ALPHA
  0
POLYLINE
  5
1F4D8
  8
ALPHA
 66
     1
 10
0.0
 20
0.0
 30
0.0
  0
VERTEX
  5
22CAD
  8
ALPHA
 10
1689.444643
 20
167.160363
 30
0.0
  0
VERTEX
  5
22CAE
  8
ALPHA
 10
1689.434136
 20
167.039074
 30
0.0
  0
VERTEX
  5
22CAF
  8
ALPHA
 10
1689.425317
 20
166.697049
 30
0.0
  0
VERTEX
  5
22CB0
  8
ALPHA
 10
1689.41952
 20
166.193385
 30
0.0
  0
VERTEX
  5
22CB1
  8
ALPHA
 10
1689.417505
 20
165.605548
 30
0.0
  0
VERTEX
  5
22CB2
  8
ALPHA
 10
1689.41952
 20
165.01771
 30
0.0
  0
VERTEX
  5
22CB3
  8
ALPHA
 10
1689.425317
 20
164.514047
 30
0.0
  0
VERTEX
  5
22CB4
  8
ALPHA
 10
1689.434136
 20
164.172022
 30
0.0
  0
VERTEX
  5
22CB5
  8
ALPHA
 10
1689.444643
 20
164.050732
 30
0.0
  0
SEQEND
  5
22CB6
  8
ALPHA
  0
POLYLINE
  5
1F4E3
  8
ALPHA
 66
     1
 10
0.0
 20
0.0
 30
0.0
  0
VERTEX
  5
22CB7
  8
ALPHA
 10
1689.444643
 20
174.660363
 30
0.0
  0
VERTEX
  5
22CB8
  8
ALPHA
 10
1689.434136
 20
174.539074
 30
0.0
  0
VERTEX
  5
22CB9
  8
ALPHA
 10
1689.425317
 20
174.197049
 30
0.0
  0
VERTEX
  5
22CBA
  8
ALPHA
 10
1689.41952
 20
173.693385
 30
0.0
  0
VERTEX
  5
22CBB
  8
ALPHA
 10
1689.417505
 20
173.105548
 30
0.0
  0
VERTEX
  5
22CBC
  8
ALPHA
 10
1689.41952
 20
172.51771
 30
0.0
  0
VERTEX
  5
22CBD
  8
ALPHA
 10
1689.425317
 20
172.014047
 30
0.0
  0
VERTEX
  5
22CBE
  8
ALPHA
 10
1689.434136
 20
171.672022
 30
0.0
  0
VERTEX
  5
22CBF
  8
ALPHA
 10
1689.444643
 20
171.550732
 30
0.0
  0
SEQEND
  5
22CC0
  8
ALPHA
  0
POLYLINE
  5
1F4EE
  8
ALPHA
 66
     1
 10
0.0
 20
0.0
 30
0.0
  0
VERTEX
  5
22CC1
  8
ALPHA
 10
1678.063681
 20
150.605546
 30
0.0
  0
VERTEX
  5
22CC2
  8
ALPHA
 10
1678.091132
 20
151.082678
 30
0.0
  0
VERTEX
  5
22CC3
  8
ALPHA
 10
1678.185716
 20
151.605178
 30
0.0
  0
VERTEX
  5
22CC4
  8
ALPHA
 10
1678.365728
 20
152.160718
 30
0.0
  0
VERTEX
  5
22CC5
  8
ALPHA
 10
1678.616681
 20
152.676618
 30
0.0
  0
VERTEX
  5
22CC6
  8
ALPHA
 10
1678.906682
 20
153.114426
 30
0.0
  0
VERTEX
  5
22CC7
  8
ALPHA
 10
1679.22827
 20
153.490222
 30
0.0
  0
VERTEX
  5
22CC8
  8
ALPHA
 10
1679.589959
 20
153.82317
 30
0.0
  0
VERTEX
  5
22CC9
  8
ALPHA
 10
1680.017702
 20
154.129584
 30
0.0
  0
VERTEX
  5
22CCA
  8
ALPHA
 10
1680.540541
 20
154.406464
 30
0.0
  0
VERTEX
  5
22CCB
  8
ALPHA
 10
1681.163299
 20
154.62413
 30
0.0
  0
VERTEX
  5
22CCC
  8
ALPHA
 10
1681.888657
 20
154.747147
 30
0.0
  0
VERTEX
  5
22CCD
  8
ALPHA
 10
1682.726546
 20
154.72905
 30
0.0
  0
VERTEX
  5
22CCE
  8
ALPHA
 10
1683.577453
 20
154.531652
 30
0.0
  0
VERTEX
  5
22CCF
  8
ALPHA
 10
1684.300231
 20
154.200905
 30
0.0
  0
VERTEX
  5
22CD0
  8
ALPHA
 10
1684.877047
 20
153.798018
 30
0.0
  0
VERTEX
  5
22CD1
  8
ALPHA
 10
1685.328402
 20
153.36014
 30
0.0
  0
VERTEX
  5
22CD2
  8
ALPHA
 10
1685.673451
 20
152.912528
 30
0.0
  0
VERTEX
  5
22CD3
  8
ALPHA
 10
1685.930491
 20
152.470965
 30
0.0
  0
VERTEX
  5
22CD4
  8
ALPHA
 10
1686.115015
 20
152.046141
 30
0.0
  0
VERTEX
  5
22CD5
  8
ALPHA
 10
1686.240708
 20
151.644852
 30
0.0
  0
VERTEX
  5
22CD6
  8
ALPHA
 10
1686.319416
 20
151.269318
 30
0.0
  0
VERTEX
  5
22CD7
  8
ALPHA
 10
1686.360722
 20
150.922757
 30
0.0
  0
VERTEX
  5
22CD8
  8
ALPHA
 10
1686.372788
 20
150.605543
 30
0.0
  0
SEQEND
  5
22CD9
  8
ALPHA
  0
POLYLINE
  5
1F508
  8
ALPHA
 66
     1
 10
0.0
 20
0.0
 30
0.0
  0
VERTEX
  5
22CDA
  8
ALPHA
 10
1677.198589
 20
150.605546
 30
0.0
  0
VERTEX
  5
22CDB
  8
ALPHA
 10
1677.232726
 20
151.197518
 30
0.0
  0
VERTEX
  5
22CDC
  8
ALPHA
 10
1677.350137
 20
151.845099
 30
0.0
  0
VERTEX
  5
22CDD
  8
ALPHA
 10
1677.573636
 20
152.533883
 30
0.0
  0
VERTEX
  5
22CDE
  8
ALPHA
 10
1677.885314
 20
153.173757
 30
0.0
  0
VERTEX
  5
22CDF
  8
ALPHA
 10
1678.245549
 20
153.716852
 30
0.0
  0
VERTEX
  5
22CE0
  8
ALPHA
 10
1678.644909
 20
154.182929
 30
0.0
  0
VERTEX
  5
22CE1
  8
ALPHA
 10
1679.094303
 20
154.596139
 30
0.0
  0
VERTEX
  5
22CE2
  8
ALPHA
 10
1679.625826
 20
154.97647
 30
0.0
  0
VERTEX
  5
22CE3
  8
ALPHA
 10
1680.275297
 20
155.320104
 30
0.0
  0
VERTEX
  5
22CE4
  8
ALPHA
 10
1681.049238
 20
155.590509
 30
0.0
  0
VERTEX
  5
22CE5
  8
ALPHA
 10
1681.950976
 20
155.743629
 30
0.0
  0
VERTEX
  5
22CE6
  8
ALPHA
 10
1682.992658
 20
155.721698
 30
0.0
  0
VERTEX
  5
22CE7
  8
ALPHA
 10
1684.050653
 20
155.477287
 30
0.0
  0
VERTEX
  5
22CE8
  8
ALPHA
 10
1684.949279
 20
155.067451
 30
0.0
  0
VERTEX
  5
22CE9
  8
ALPHA
 10
1685.666678
 20
154.567907
 30
0.0
  0
VERTEX
  5
22CEA
  8
ALPHA
 10
1686.228333
 20
154.024603
 30
0.0
  0
VERTEX
  5
22CEB
  8
ALPHA
 10
1686.657764
 20
153.469065
 30
0.0
  0
VERTEX
  5
22CEC
  8
ALPHA
 10
1686.977579
 20
152.921127
 30
0.0
  0
VERTEX
  5
22CED
  8
ALPHA
 10
1687.207185
 20
152.393975
 30
0.0
  0
VERTEX
  5
22CEE
  8
ALPHA
 10
1687.363671
 20
151.895646
 30
0.0
  0
VERTEX
  5
22CEF
  8
ALPHA
 10
1687.461586
 20
151.429811
 30
0.0
  0
VERTEX
  5
22CF0
  8
ALPHA
 10
1687.513024
 20
150.999221
 30
0.0
  0
VERTEX
  5
22CF1
  8
ALPHA
 10
1687.52805
 20
150.605542
 30
0.0
  0
SEQEND
  5
22CF2
  8
ALPHA
  0
POLYLINE
  5
1F522
  8
ALPHA
 66
     1
 10
0.0
 20
0.0
 30
0.0
  0
VERTEX
  5
22CF3
  8
ALPHA
 10
1687.52805
 20
150.605542
 30
0.0
  0
VERTEX
  5
22CF4
  8
ALPHA
 10
1687.494362
 20
150.017469
 30
0.0
  0
VERTEX
  5
22CF5
  8
ALPHA
 10
1687.378258
 20
149.373092
 30
0.0
  0
VERTEX
  5
22CF6
  8
ALPHA
 10
1687.155956
 20
148.684534
 30
0.0
  0
VERTEX
  5
22CF7
  8
ALPHA
 10
1686.844201
 20
148.042341
 30
0.0
  0
VERTEX
  5
22CF8
  8
ALPHA
 10
1686.482297
 20
147.495836
 30
0.0
  0
VERTEX
  5
22CF9
  8
ALPHA
 10
1686.080659
 20
147.027058
 30
0.0
  0
VERTEX
  5
22CFA
  8
ALPHA
 10
1685.62878
 20
146.612058
 30
0.0
  0
VERTEX
  5
22CFB
  8
ALPHA
 10
1685.093649
 20
146.230172
 30
0.0
  0
VERTEX
  5
22CFC
  8
ALPHA
 10
1684.4393
 20
145.885697
 30
0.0
  0
VERTEX
  5
22CFD
  8
ALPHA
 10
1683.659537
 20
145.615925
 30
0.0
  0
VERTEX
  5
22CFE
  8
ALPHA
 10
1682.748884
 20
145.465387
 30
0.0
  0
VERTEX
  5
22CFF
  8
ALPHA
 10
1681.799575
 20
145.481794
 30
0.0
  0
VERTEX
  5
22D00
  8
ALPHA
 10
1680.944915
 20
145.649173
 30
0.0
  0
VERTEX
  5
22D01
  8
ALPHA
 10
1680.221702
 20
145.915048
 30
0.0
  0
VERTEX
  5
22D02
  8
ALPHA
 10
1679.613655
 20
146.242239
 30
0.0
  0
VERTEX
  5
22D03
  8
ALPHA
 10
1679.110778
 20
146.601538
 30
0.0
  0
VERTEX
  5
22D04
  8
ALPHA
 10
1678.689369
 20
146.982734
 30
0.0
  0
VERTEX
  5
22D05
  8
ALPHA
 10
1678.321907
 20
147.39604
 30
0.0
  0
VERTEX
  5
22D06
  8
ALPHA
 10
1677.998165
 20
147.850596
 30
0.0
  0
VERTEX
  5
22D07
  8
ALPHA
 10
1677.723427
 20
148.341593
 30
0.0
  0
VERTEX
  5
22D08
  8
ALPHA
 10
1677.505329
 20
148.855633
 30
0.0
  0
VERTEX
  5
22D09
  8
ALPHA
 10
1677.351207
 20
149.361828
 30
0.0
  0
VERTEX
  5
22D0A
  8
ALPHA
 10
1677.258045
 20
149.825511
 30
0.0
  0
VERTEX
  5
22D0B
  8
ALPHA
 10
1677.211709
 20
150.23769
 30
0.0
  0
VERTEX
  5
22D0C
  8
ALPHA
 10
1677.198589
 20
150.605546
 30
0.0
  0
SEQEND
  5
22D0D
  8
ALPHA
  0
POLYLINE
  5
1F53E
  8
ALPHA
 66
     1
 10
0.0
 20
0.0
 30
0.0
  0
VERTEX
  5
22D0E
  8
ALPHA
 10
1686.372788
 20
150.605543
 30
0.0
  0
VERTEX
  5
22D0F
  8
ALPHA
 10
1686.345765
 20
150.132137
 30
0.0
  0
VERTEX
  5
22D10
  8
ALPHA
 10
1686.252466
 20
149.61285
 30
0.0
  0
VERTEX
  5
22D11
  8
ALPHA
 10
1686.073834
 20
149.058065
 30
0.0
  0
VERTEX
  5
22D12
  8
ALPHA
 10
1685.823376
 20
148.540731
 30
0.0
  0
VERTEX
  5
22D13
  8
ALPHA
 10
1685.532632
 20
148.10043
 30
0.0
  0
VERTEX
  5
22D14
  8
ALPHA
 10
1685.209825
 20
147.722559
 30
0.0
  0
VERTEX
  5
22D15
  8
ALPHA
 10
1684.846722
 20
147.388097
 30
0.0
  0
VERTEX
  5
22D16
  8
ALPHA
 10
1684.416725
 20
147.080243
 30
0.0
  0
VERTEX
  5
22D17
  8
ALPHA
 10
1683.890611
 20
146.802289
 30
0.0
  0
VERTEX
  5
22D18
  8
ALPHA
 10
1683.263698
 20
146.584485
 30
0.0
  0
VERTEX
  5
22D19
  8
ALPHA
 10
1682.531301
 20
146.46266
 30
0.0
  0
VERTEX
  5
22D1A
  8
ALPHA
 10
1681.767392
 20
146.475374
 30
0.0
  0
VERTEX
  5
22D1B
  8
ALPHA
 10
1681.079627
 20
146.609894
 30
0.0
  0
VERTEX
  5
22D1C
  8
ALPHA
 10
1680.497751
 20
146.823856
 30
0.0
  0
VERTEX
  5
22D1D
  8
ALPHA
 10
1680.008349
 20
147.08736
 30
0.0
  0
VERTEX
  5
22D1E
  8
ALPHA
 10
1679.603294
 20
147.377059
 30
0.0
  0
VERTEX
  5
22D1F
  8
ALPHA
 10
1679.264163
 20
147.684142
 30
0.0
  0
VERTEX
  5
22D20
  8
ALPHA
 10
1678.968311
 20
148.017317
 30
0.0
  0
VERTEX
  5
22D21
  8
ALPHA
 10
1678.707618
 20
148.383794
 30
0.0
  0
VERTEX
  5
22D22
  8
ALPHA
 10
1678.486418
 20
148.779598
 30
0.0
  0
VERTEX
  5
22D23
  8
ALPHA
 10
1678.310705
 20
149.194341
 30
0.0
  0
VERTEX
  5
22D24
  8
ALPHA
 10
1678.186592
 20
149.602428
 30
0.0
  0
VERTEX
  5
22D25
  8
ALPHA
 10
1678.111546
 20
149.97667
 30
0.0
  0
VERTEX
  5
22D26
  8
ALPHA
 10
1678.074232
 20
150.308791
 30
0.0
  0
VERTEX
  5
22D27
  8
ALPHA
 10
1678.063681
 20
150.605546
 30
0.0
  0
SEQEND
  5
22D28
  8
ALPHA
  0
LINE
  5
1F55A
  8
ALPHA
 10
1682.8208
 20
151.912097
 30
0.0
 11
1682.8208
 21
152.999403
 31
0.0
  0
LINE
  5
1F55B
  8
ALPHA
 10
1682.8208
 20
148.211685
 30
0.0
 11
1682.8208
 21
149.298998
 31
0.0
  0
LINE
  5
1F55C
  8
ALPHA
 10
1682.789377
 20
151.941387
 30
0.0
 11
1682.789377
 21
153.004962
 31
0.0
  0
LINE
  5
1F55D
  8
ALPHA
 10
1682.789377
 20
148.206127
 30
0.0
 11
1682.789377
 21
149.269708
 31
0.0
  0
LINE
  5
1F55E
  8
ALPHA
 10
1681.652223
 20
151.941387
 30
0.0
 11
1681.652223
 21
153.005029
 31
0.0
  0
LINE
  5
1F55F
  8
ALPHA
 10
1681.652223
 20
148.206073
 30
0.0
 11
1681.652223
 21
149.269708
 31
0.0
  0
LINE
  5
1F560
  8
ALPHA
 10
1681.6208
 20
151.912097
 30
0.0
 11
1681.6208
 21
152.999473
 31
0.0
  0
LINE
  5
1F561
  8
ALPHA
 10
1681.6208
 20
148.211628
 30
0.0
 11
1681.6208
 21
149.298998
 31
0.0
  0
LINE
  5
1F562
  8
ALPHA
 10
1689.444643
 20
149.092665
 30
0.0
 11
1689.72567
 21
149.092665
 31
0.0
  0
LINE
  5
1F563
  8
ALPHA
 10
1682.819599
 20
146.498975
 30
0.0
 11
1681.624065
 21
146.498674
 31
0.0
  0
LINE
  5
1F564
  8
ALPHA
 10
1686.204105
 20
149.441172
 30
0.0
 11
1685.710149
 21
148.359005
 31
0.0
  0
LINE
  5
1F565
  8
ALPHA
 10
1685.710149
 20
148.359005
 30
0.0
 11
1684.944118
 21
147.47409
 31
0.0
  0
LINE
  5
1F566
  8
ALPHA
 10
1684.944118
 20
147.47409
 30
0.0
 11
1683.94516
 21
146.830751
 31
0.0
  0
LINE
  5
1F567
  8
ALPHA
 10
1683.94516
 20
146.830751
 30
0.0
 11
1682.819599
 21
146.498975
 31
0.0
  0
LINE
  5
1F568
  8
ALPHA
 10
1689.444643
 20
209.050732
 30
0.0
 11
1689.72567
 21
209.050732
 31
0.0
  0
LINE
  5
1F569
  8
ALPHA
 10
1689.72567
 20
204.660363
 30
0.0
 11
1689.444643
 21
204.660363
 31
0.0
  0
LINE
  5
1F56A
  8
ALPHA
 10
1689.444643
 20
201.550732
 30
0.0
 11
1689.72567
 21
201.550732
 31
0.0
  0
LINE
  5
1F56B
  8
ALPHA
 10
1689.72567
 20
197.160363
 30
0.0
 11
1689.444643
 21
197.160363
 31
0.0
  0
LINE
  5
1F56C
  8
ALPHA
 10
1689.444643
 20
194.050732
 30
0.0
 11
1689.72567
 21
194.050732
 31
0.0
  0
LINE
  5
1F56D
  8
ALPHA
 10
1689.72567
 20
189.660363
 30
0.0
 11
1689.444643
 21
189.660363
 31
0.0
  0
LINE
  5
1F56E
  8
ALPHA
 10
1689.444643
 20
186.550732
 30
0.0
 11
1689.72567
 21
186.550732
 31
0.0
  0
LINE
  5
1F56F
  8
ALPHA
 10
1689.72567
 20
182.160363
 30
0.0
 11
1689.444643
 21
182.160363
 31
0.0
  0
LINE
  5
1F570
  8
ALPHA
 10
1689.444643
 20
179.050732
 30
0.0
 11
1689.72567
 21
179.050732
 31
0.0
  0
POLYLINE
  5
1F571
  8
ALPHA
 66
     1
 10
0.0
 20
0.0
 30
0.0
  0
VERTEX
  5
22D29
  8
ALPHA
 10
1689.72567
 20
179.050732
 30
0.0
  0
VERTEX
  5
22D2A
  8
ALPHA
 10
1689.736178
 20
179.171966
 30
0.0
  0
VERTEX
  5
22D2B
  8
ALPHA
 10
1689.744998
 20
179.513977
 30
0.0
  0
VERTEX
  5
22D2C
  8
ALPHA
 10
1689.750796
 20
180.017666
 30
0.0
  0
VERTEX
  5
22D2D
  8
ALPHA
 10
1689.752811
 20
180.605548
 30
0.0
  0
VERTEX
  5
22D2E
  8
ALPHA
 10
1689.750796
 20
181.19343
 30
0.0
  0
VERTEX
  5
22D2F
  8
ALPHA
 10
1689.744998
 20
181.697118
 30
0.0
  0
VERTEX
  5
22D30
  8
ALPHA
 10
1689.736178
 20
182.039129
 30
0.0
  0
VERTEX
  5
22D31
  8
ALPHA
 10
1689.72567
 20
182.160363
 30
0.0
  0
SEQEND
  5
22D32
  8
ALPHA
  0
POLYLINE
  5
1F57C
  8
ALPHA
 66
     1
 10
0.0
 20
0.0
 30
0.0
  0
VERTEX
  5
22D33
  8
ALPHA
 10
1689.72567
 20
186.550732
 30
0.0
  0
VERTEX
  5
22D34
  8
ALPHA
 10
1689.736178
 20
186.671966
 30
0.0
  0
VERTEX
  5
22D35
  8
ALPHA
 10
1689.744998
 20
187.013977
 30
0.0
  0
VERTEX
  5
22D36
  8
ALPHA
 10
1689.750796
 20
187.517666
 30
0.0
  0
VERTEX
  5
22D37
  8
ALPHA
 10
1689.752811
 20
188.105548
 30
0.0
  0
VERTEX
  5
22D38
  8
ALPHA
 10
1689.750796
 20
188.69343
 30
0.0
  0
VERTEX
  5
22D39
  8
ALPHA
 10
1689.744998
 20
189.197118
 30
0.0
  0
VERTEX
  5
22D3A
  8
ALPHA
 10
1689.736178
 20
189.539129
 30
0.0
  0
VERTEX
  5
22D3B
  8
ALPHA
 10
1689.72567
 20
189.660363
 30
0.0
  0
SEQEND
  5
22D3C
  8
ALPHA
  0
POLYLINE
  5
1F587
  8
ALPHA
 66
     1
 10
0.0
 20
0.0
 30
0.0
  0
VERTEX
  5
22D3D
  8
ALPHA
 10
1689.72567
 20
194.050732
 30
0.0
  0
VERTEX
  5
22D3E
  8
ALPHA
 10
1689.736178
 20
194.171966
 30
0.0
  0
VERTEX
  5
22D3F
  8
ALPHA
 10
1689.744998
 20
194.513977
 30
0.0
  0
VERTEX
  5
22D40
  8
ALPHA
 10
1689.750796
 20
195.017666
 30
0.0
  0
VERTEX
  5
22D41
  8
ALPHA
 10
1689.752811
 20
195.605548
 30
0.0
  0
VERTEX
  5
22D42
  8
ALPHA
 10
1689.750796
 20
196.19343
 30
0.0
  0
VERTEX
  5
22D43
  8
ALPHA
 10
1689.744998
 20
196.697118
 30
0.0
  0
VERTEX
  5
22D44
  8
ALPHA
 10
1689.736178
 20
197.039129
 30
0.0
  0
VERTEX
  5
22D45
  8
ALPHA
 10
1689.72567
 20
197.160363
 30
0.0
  0
SEQEND
  5
22D46
  8
ALPHA
  0
POLYLINE
  5
1F592
  8
ALPHA
 66
     1
 10
0.0
 20
0.0
 30
0.0
  0
VERTEX
  5
22D47
  8
ALPHA
 10
1689.72567
 20
201.550732
 30
0.0
  0
VERTEX
  5
22D48
  8
ALPHA
 10
1689.736178
 20
201.671966
 30
0.0
  0
VERTEX
  5
22D49
  8
ALPHA
 10
1689.744998
 20
202.013977
 30
0.0
  0
VERTEX
  5
22D4A
  8
ALPHA
 10
1689.750796
 20
202.517666
 30
0.0
  0
VERTEX
  5
22D4B
  8
ALPHA
 10
1689.752811
 20
203.105548
 30
0.0
  0
VERTEX
  5
22D4C
  8
ALPHA
 10
1689.750796
 20
203.69343
 30
0.0
  0
VERTEX
  5
22D4D
  8
ALPHA
 10
1689.744998
 20
204.197118
 30
0.0
  0
VERTEX
  5
22D4E
  8
ALPHA
 10
1689.736178
 20
204.539129
 30
0.0
  0
VERTEX
  5
22D4F
  8
ALPHA
 10
1689.72567
 20
204.660363
 30
0.0
  0
SEQEND
  5
22D50
  8
ALPHA
  0
POLYLINE
  5
1F59D
  8
ALPHA
 66
     1
 10
0.0
 20
0.0
 30
0.0
  0
VERTEX
  5
22D51
  8
ALPHA
 10
1689.444643
 20
182.160363
 30
0.0
  0
VERTEX
  5
22D52
  8
ALPHA
 10
1689.434136
 20
182.039074
 30
0.0
  0
VERTEX
  5
22D53
  8
ALPHA
 10
1689.425317
 20
181.697049
 30
0.0
  0
VERTEX
  5
22D54
  8
ALPHA
 10
1689.41952
 20
181.193385
 30
0.0
  0
VERTEX
  5
22D55
  8
ALPHA
 10
1689.417505
 20
180.605548
 30
0.0
  0
VERTEX
  5
22D56
  8
ALPHA
 10
1689.41952
 20
180.01771
 30
0.0
  0
VERTEX
  5
22D57
  8
ALPHA
 10
1689.425317
 20
179.514047
 30
0.0
  0
VERTEX
  5
22D58
  8
ALPHA
 10
1689.434136
 20
179.172022
 30
0.0
  0
VERTEX
  5
22D59
  8
ALPHA
 10
1689.444643
 20
179.050732
 30
0.0
  0
SEQEND
  5
22D5A
  8
ALPHA
  0
POLYLINE
  5
1F5A8
  8
ALPHA
 66
     1
 10
0.0
 20
0.0
 30
0.0
  0
VERTEX
  5
22D5B
  8
ALPHA
 10
1689.444643
 20
189.660363
 30
0.0
  0
VERTEX
  5
22D5C
  8
ALPHA
 10
1689.434136
 20
189.539074
 30
0.0
  0
VERTEX
  5
22D5D
  8
ALPHA
 10
1689.425317
 20
189.197049
 30
0.0
  0
VERTEX
  5
22D5E
  8
ALPHA
 10
1689.41952
 20
188.693385
 30
0.0
  0
VERTEX
  5
22D5F
  8
ALPHA
 10
1689.417505
 20
188.105548
 30
0.0
  0
VERTEX
  5
22D60
  8
ALPHA
 10
1689.41952
 20
187.51771
 30
0.0
  0
VERTEX
  5
22D61
  8
ALPHA
 10
1689.425317
 20
187.014047
 30
0.0
  0
VERTEX
  5
22D62
  8
ALPHA
 10
1689.434136
 20
186.672022
 30
0.0
  0
VERTEX
  5
22D63
  8
ALPHA
 10
1689.444643
 20
186.550732
 30
0.0
  0
SEQEND
  5
22D64
  8
ALPHA
  0
POLYLINE
  5
1F5B3
  8
ALPHA
 66
     1
 10
0.0
 20
0.0
 30
0.0
  0
VERTEX
  5
22D65
  8
ALPHA
 10
1689.444643
 20
197.160363
 30
0.0
  0
VERTEX
  5
22D66
  8
ALPHA
 10
1689.434136
 20
197.039074
 30
0.0
  0
VERTEX
  5
22D67
  8
ALPHA
 10
1689.425317
 20
196.697049
 30
0.0
  0
VERTEX
  5
22D68
  8
ALPHA
 10
1689.41952
 20
196.193385
 30
0.0
  0
VERTEX
  5
22D69
  8
ALPHA
 10
1689.417505
 20
195.605548
 30
0.0
  0
VERTEX
  5
22D6A
  8
ALPHA
 10
1689.41952
 20
195.01771
 30
0.0
  0
VERTEX
  5
22D6B
  8
ALPHA
 10
1689.425317
 20
194.514047
 30
0.0
  0
VERTEX
  5
22D6C
  8
ALPHA
 10
1689.434136
 20
194.172022
 30
0.0
  0
VERTEX
  5
22D6D
  8
ALPHA
 10
1689.444643
 20
194.050732
 30
0.0
  0
SEQEND
  5
22D6E
  8
ALPHA
  0
POLYLINE
  5
1F5BE
  8
ALPHA
 66
     1
 10
0.0
 20
0.0
 30
0.0
  0
VERTEX
  5
22D6F
  8
ALPHA
 10
1689.444643
 20
204.660363
 30
0.0
  0
VERTEX
  5
22D70
  8
ALPHA
 10
1689.434136
 20
204.539074
 30
0.0
  0
VERTEX
  5
22D71
  8
ALPHA
 10
1689.425317
 20
204.197049
 30
0.0
  0
VERTEX
  5
22D72
  8
ALPHA
 10
1689.41952
 20
203.693385
 30
0.0
  0
VERTEX
  5
22D73
  8
ALPHA
 10
1689.417505
 20
203.105548
 30
0.0
  0
VERTEX
  5
22D74
  8
ALPHA
 10
1689.41952
 20
202.51771
 30
0.0
  0
VERTEX
  5
22D75
  8
ALPHA
 10
1689.425317
 20
202.014047
 30
0.0
  0
VERTEX
  5
22D76
  8
ALPHA
 10
1689.434136
 20
201.672022
 30
0.0
  0
VERTEX
  5
22D77
  8
ALPHA
 10
1689.444643
 20
201.550732
 30
0.0
  0
SEQEND
  5
22D78
  8
ALPHA
  0
POLYLINE
  5
1F5C9
  8
ALPHA
 66
     1
 10
0.0
 20
0.0
 30
0.0
  0
VERTEX
  5
22D79
  8
ALPHA
 10
1689.72567
 20
276.550732
 30
0.0
  0
VERTEX
  5
22D7A
  8
ALPHA
 10
1689.736178
 20
276.671966
 30
0.0
  0
VERTEX
  5
22D7B
  8
ALPHA
 10
1689.744998
 20
277.013977
 30
0.0
  0
VERTEX
  5
22D7C
  8
ALPHA
 10
1689.750796
 20
277.517666
 30
0.0
  0
VERTEX
  5
22D7D
  8
ALPHA
 10
1689.752811
 20
278.105548
 30
0.0
  0
VERTEX
  5
22D7E
  8
ALPHA
 10
1689.750796
 20
278.69343
 30
0.0
  0
VERTEX
  5
22D7F
  8
ALPHA
 10
1689.744998
 20
279.197118
 30
0.0
  0
VERTEX
  5
22D80
  8
ALPHA
 10
1689.736178
 20
279.539129
 30
0.0
  0
VERTEX
  5
22D81
  8
ALPHA
 10
1689.72567
 20
279.660363
 30
0.0
  0
SEQEND
  5
22D82
  8
ALPHA
  0
POLYLINE
  5
1F5D4
  8
ALPHA
 66
     1
 10
0.0
 20
0.0
 30
0.0
  0
VERTEX
  5
22D83
  8
ALPHA
 10
1689.444643
 20
279.660363
 30
0.0
  0
VERTEX
  5
22D84
  8
ALPHA
 10
1689.434136
 20
279.539074
 30
0.0
  0
VERTEX
  5
22D85
  8
ALPHA
 10
1689.425317
 20
279.197049
 30
0.0
  0
VERTEX
  5
22D86
  8
ALPHA
 10
1689.41952
 20
278.693385
 30
0.0
  0
VERTEX
  5
22D87
  8
ALPHA
 10
1689.417505
 20
278.105548
 30
0.0
  0
VERTEX
  5
22D88
  8
ALPHA
 10
1689.41952
 20
277.51771
 30
0.0
  0
VERTEX
  5
22D89
  8
ALPHA
 10
1689.425317
 20
277.014047
 30
0.0
  0
VERTEX
  5
22D8A
  8
ALPHA
 10
1689.434136
 20
276.672022
 30
0.0
  0
VERTEX
  5
22D8B
  8
ALPHA
 10
1689.444643
 20
276.550732
 30
0.0
  0
SEQEND
  5
22D8C
  8
ALPHA
  0
ARC
  5
1F5DF
  8
ALPHA
 10
1649.3708
 20
243.255548
 30
0.0
 40
1.0
 50
0.0
 51
90.0
  0
LINE
  5
1F5E0
  8
ALPHA
 10
1650.9208
 20
236.755548
 30
0.0
 11
1650.9208
 21
244.755548
 31
0.0
  0
LINE
  5
1F5E1
  8
ALPHA
 10
1628.891758
 20
230.196352
 30
0.0
 11
1629.13229
 21
230.134222
 31
0.0
  0
LINE
  5
1F5E2
  8
ALPHA
 10
1608.287468
 20
243.255548
 30
0.0
 11
1609.1208
 21
243.255548
 31
0.0
  0
LINE
  5
1F5E3
  8
ALPHA
 10
1609.641632
 20
239.957675
 30
0.0
 11
1607.766632
 21
239.957675
 31
0.0
  0
LINE
  5
1F5E4
  8
ALPHA
 10
1609.7458
 20
239.532143
 30
0.0
 11
1607.662468
 21
239.532143
 31
0.0
  0
LINE
  5
1F5E5
  8
ALPHA
 10
1610.787468
 20
238.255548
 30
0.0
 11
1610.162468
 21
238.255548
 31
0.0
  0
LINE
  5
1F5E6
  8
ALPHA
 10
1629.13229
 20
230.134222
 30
0.0
 11
1629.299474
 21
229.967038
 31
0.0
  0
LINE
  5
1F5E7
  8
ALPHA
 10
1615.932973
 20
220.683966
 30
0.0
 11
1616.621315
 21
220.468051
 31
0.0
  0
LINE
  5
1F5E8
  8
ALPHA
 10
1607.942424
 20
220.683966
 30
0.0
 11
1608.630765
 21
220.468051
 31
0.0
  0
LINE
  5
1F5E9
  8
ALPHA
 10
1614.597413
 20
217.22933
 30
0.0
 11
1613.909072
 21
217.445245
 31
0.0
  0
LINE
  5
1F5EA
  8
ALPHA
 10
1615.171541
 20
216.365672
 30
0.0
 11
1615.859883
 21
216.149757
 31
0.0
  0
LINE
  5
1F5EB
  8
ALPHA
 10
1613.79791
 20
212.695121
 30
0.0
 11
1613.109568
 21
212.911036
 31
0.0
  0
LINE
  5
1F5EC
  8
ALPHA
 10
1616.993277
 20
221.547625
 30
0.0
 11
1616.12333
 21
221.76354
 31
0.0
  0
LINE
  5
1F5ED
  8
ALPHA
 10
1609.002727
 20
221.547625
 30
0.0
 11
1608.132781
 21
221.76354
 31
0.0
  0
LINE
  5
1F5EE
  8
ALPHA
 10
1612.556004
 20
211.831462
 30
0.0
 11
1613.425949
 21
211.615548
 31
0.0
  0
LINE
  5
1F5EF
  8
ALPHA
 10
1608.132781
 20
221.76354
 30
0.0
 11
1607.406368
 21
221.76354
 31
0.0
  0
LINE
  5
1F5F0
  8
ALPHA
 10
1616.12333
 20
221.76354
 30
0.0
 11
1615.396917
 21
221.76354
 31
0.0
  0
LINE
  5
1F5F1
  8
ALPHA
 10
1615.206559
 20
220.683966
 30
0.0
 11
1615.932973
 21
220.683966
 31
0.0
  0
LINE
  5
1F5F2
  8
ALPHA
 10
1615.323827
 20
217.22933
 30
0.0
 11
1614.597413
 21
217.22933
 31
0.0
  0
LINE
  5
1F5F3
  8
ALPHA
 10
1614.445128
 20
216.365672
 30
0.0
 11
1615.171541
 21
216.365672
 31
0.0
  0
LINE
  5
1F5F4
  8
ALPHA
 10
1614.524324
 20
212.695121
 30
0.0
 11
1613.79791
 21
212.695121
 31
0.0
  0
LINE
  5
1F5F5
  8
ALPHA
 10
1613.425949
 20
211.615548
 30
0.0
 11
1614.515569
 21
211.615548
 31
0.0
  0
LINE
  5
1F5F6
  8
ALPHA
 10
1615.396917
 20
221.76354
 30
0.0
 11
1614.450829
 21
221.547625
 31
0.0
  0
LINE
  5
1F5F7
  8
ALPHA
 10
1614.515569
 20
211.615548
 30
0.0
 11
1615.461658
 21
211.831462
 31
0.0
  0
LINE
  5
1F5F8
  8
ALPHA
 10
1614.442074
 20
220.468051
 30
0.0
 11
1615.206559
 21
220.683966
 31
0.0
  0
LINE
  5
1F5F9
  8
ALPHA
 10
1616.088312
 20
217.445245
 30
0.0
 11
1615.323827
 21
217.22933
 31
0.0
  0
LINE
  5
1F5FA
  8
ALPHA
 10
1613.680642
 20
216.149757
 30
0.0
 11
1614.445128
 21
216.365672
 31
0.0
  0
LINE
  5
1F5FB
  8
ALPHA
 10
1615.288809
 20
212.911036
 30
0.0
 11
1614.524324
 21
212.695121
 31
0.0
  0
LINE
  5
1F5FC
  8
ALPHA
 10
1616.621315
 20
220.468051
 30
0.0
 11
1617.233513
 21
219.820307
 31
0.0
  0
LINE
  5
1F5FD
  8
ALPHA
 10
1617.637844
 20
215.933842
 30
0.0
 11
1617.025647
 21
216.581586
 31
0.0
  0
LINE
  5
1F5FE
  8
ALPHA
 10
1613.909072
 20
217.445245
 30
0.0
 11
1613.296873
 21
218.092989
 31
0.0
  0
LINE
  5
1F5FF
  8
ALPHA
 10
1608.630765
 20
220.468051
 30
0.0
 11
1609.242964
 21
219.820307
 31
0.0
  0
LINE
  5
1F600
  8
ALPHA
 10
1609.647296
 20
215.933842
 30
0.0
 11
1609.035097
 21
216.581586
 31
0.0
  0
LINE
  5
1F601
  8
ALPHA
 10
1617.787079
 20
220.899881
 30
0.0
 11
1616.993277
 21
221.547625
 31
0.0
  0
LINE
  5
1F602
  8
ALPHA
 10
1609.796529
 20
220.899881
 30
0.0
 11
1609.002727
 21
221.547625
 31
0.0
  0
LINE
  5
1F603
  8
ALPHA
 10
1611.762202
 20
212.479207
 30
0.0
 11
1612.556004
 21
211.831462
 31
0.0
  0
LINE
  5
1F604
  8
ALPHA
 10
1617.025647
 20
216.581586
 30
0.0
 11
1616.70051
 21
216.797501
 31
0.0
  0
LINE
  5
1F605
  8
ALPHA
 10
1615.859883
 20
216.149757
 30
0.0
 11
1616.510153
 21
215.717927
 31
0.0
  0
LINE
  5
1F606
  8
ALPHA
 10
1612.743308
 20
217.013416
 30
0.0
 11
1613.068444
 21
216.797501
 31
0.0
  0
LINE
  5
1F607
  8
ALPHA
 10
1609.035097
 20
216.581586
 30
0.0
 11
1608.709962
 21
216.797501
 31
0.0
  0
LINE
  5
1F608
  8
ALPHA
 10
1613.109568
 20
212.911036
 30
0.0
 11
1612.459298
 21
213.342865
 31
0.0
  0
LINE
  5
1F609
  8
ALPHA
 10
1607.869334
 20
216.149757
 30
0.0
 11
1608.519604
 21
215.717927
 31
0.0
  0
LINE
  5
1F60A
  8
ALPHA
 10
1616.510153
 20
215.717927
 30
0.0
 11
1616.902678
 21
214.854268
 31
0.0
  0
LINE
  5
1F60B
  8
ALPHA
 10
1618.217675
 20
220.252137
 30
0.0
 11
1617.787079
 21
220.899881
 31
0.0
  0
LINE
  5
1F60C
  8
ALPHA
 10
1612.312713
 20
217.66116
 30
0.0
 11
1612.743308
 21
217.013416
 31
0.0
  0
LINE
  5
1F60D
  8
ALPHA
 10
1610.227125
 20
220.252137
 30
0.0
 11
1609.796529
 21
220.899881
 31
0.0
  0
LINE
  5
1F60E
  8
ALPHA
 10
1611.331606
 20
213.126951
 30
0.0
 11
1611.762202
 21
212.479207
 31
0.0
  0
LINE
  5
1F60F
  8
ALPHA
 10
1612.101793
 20
218.524819
 30
0.0
 11
1612.312713
 21
217.66116
 31
0.0
  0
LINE
  5
1F610
  8
ALPHA
 10
1629.299474
 20
229.967038
 30
0.0
 11
1629.361604
 21
229.726505
 31
0.0
  0
POLYLINE
  5
1F611
  8
ALPHA
 66
     1
 10
0.0
 20
0.0
 30
0.0
  0
VERTEX
  5
22D8D
  8
ALPHA
 10
1624.5208
 20
224.885701
 30
0.0
  0
VERTEX
  5
22D8E
  8
ALPHA
 10
1624.45867
 20
225.126234
 30
0.0
  0
VERTEX
  5
22D8F
  8
ALPHA
 10
1624.291486
 20
225.293418
 30
0.0
  0
VERTEX
  5
22D90
  8
ALPHA
 10
1624.050953
 20
225.355548
 30
0.0
  0
SEQEND
  5
22D91
  8
ALPHA
  0
LINE
  5
1F617
  8
ALPHA
 10
1608.704132
 20
242.830016
 30
0.0
 11
1609.641632
 21
239.957675
 31
0.0
  0
LINE
  5
1F618
  8
ALPHA
 10
1610.162468
 20
238.255548
 30
0.0
 11
1609.7458
 21
239.532143
 31
0.0
  0
LINE
  5
1F619
  8
ALPHA
 10
1609.1208
 20
243.255548
 30
0.0
 11
1610.787468
 21
238.255548
 31
0.0
  0
LINE
  5
1F61A
  8
ALPHA
 10
1617.233513
 20
219.820307
 30
0.0
 11
1617.482506
 21
219.172563
 31
0.0
  0
LINE
  5
1F61B
  8
ALPHA
 10
1613.296873
 20
218.092989
 30
0.0
 11
1613.047881
 21
218.740734
 31
0.0
  0
LINE
  5
1F61C
  8
ALPHA
 10
1609.242964
 20
219.820307
 30
0.0
 11
1609.491956
 21
219.172563
 31
0.0
  0
LINE
  5
1F61D
  8
ALPHA
 10
1612.459298
 20
213.342865
 30
0.0
 11
1612.066774
 21
214.206524
 31
0.0
  0
LINE
  5
1F61E
  8
ALPHA
 10
1608.519604
 20
215.717927
 30
0.0
 11
1608.912128
 21
214.854268
 31
0.0
  0
LINE
  5
1F61F
  8
ALPHA
 10
1618.390522
 20
219.172563
 30
0.0
 11
1618.217675
 21
220.252137
 31
0.0
  0
LINE
  5
1F620
  8
ALPHA
 10
1617.810694
 20
214.854268
 30
0.0
 11
1617.637844
 21
215.933842
 31
0.0
  0
LINE
  5
1F621
  8
ALPHA
 10
1610.399973
 20
219.172563
 30
0.0
 11
1610.227125
 21
220.252137
 31
0.0
  0
LINE
  5
1F622
  8
ALPHA
 10
1611.158758
 20
214.206524
 30
0.0
 11
1611.331606
 21
213.126951
 31
0.0
  0
LINE
  5
1F623
  8
ALPHA
 10
1609.820145
 20
214.854268
 30
0.0
 11
1609.647296
 21
215.933842
 31
0.0
  0
LINE
  5
1F624
  8
ALPHA
 10
1617.69648
 20
214.206524
 30
0.0
 11
1617.810694
 21
214.854268
 31
0.0
  0
LINE
  5
1F625
  8
ALPHA
 10
1618.276308
 20
218.524819
 30
0.0
 11
1618.390522
 21
219.172563
 31
0.0
  0
LINE
  5
1F626
  8
ALPHA
 10
1616.902678
 20
214.854268
 30
0.0
 11
1616.788462
 21
214.206524
 31
0.0
  0
LINE
  5
1F627
  8
ALPHA
 10
1617.482506
 20
219.172563
 30
0.0
 11
1617.406363
 21
218.740734
 31
0.0
  0
LINE
  5
1F628
  8
ALPHA
 10
1613.047881
 20
218.740734
 30
0.0
 11
1613.124024
 21
219.172563
 31
0.0
  0
LINE
  5
1F629
  8
ALPHA
 10
1612.066774
 20
214.206524
 30
0.0
 11
1612.180989
 21
214.854268
 31
0.0
  0
LINE
  5
1F62A
  8
ALPHA
 10
1612.216008
 20
219.172563
 30
0.0
 11
1612.101793
 21
218.524819
 31
0.0
  0
LINE
  5
1F62B
  8
ALPHA
 10
1611.272972
 20
214.854268
 30
0.0
 11
1611.158758
 21
214.206524
 31
0.0
  0
LINE
  5
1F62C
  8
ALPHA
 10
1609.70593
 20
214.206524
 30
0.0
 11
1609.820145
 21
214.854268
 31
0.0
  0
LINE
  5
1F62D
  8
ALPHA
 10
1610.285758
 20
218.524819
 30
0.0
 11
1610.399973
 21
219.172563
 31
0.0
  0
LINE
  5
1F62E
  8
ALPHA
 10
1608.912128
 20
214.854268
 30
0.0
 11
1608.797913
 21
214.206524
 31
0.0
  0
LINE
  5
1F62F
  8
ALPHA
 10
1609.491956
 20
219.172563
 30
0.0
 11
1609.415813
 21
218.740734
 31
0.0
  0
LINE
  5
1F630
  8
ALPHA
 10
1617.142914
 20
213.126951
 30
0.0
 11
1617.69648
 21
214.206524
 31
0.0
  0
LINE
  5
1F631
  8
ALPHA
 10
1607.766632
 20
239.957675
 30
0.0
 11
1608.704132
 21
242.830016
 31
0.0
  0
LINE
  5
1F632
  8
ALPHA
 10
1616.788462
 20
214.206524
 30
0.0
 11
1616.091366
 21
213.342865
 31
0.0
  0
LINE
  5
1F633
  8
ALPHA
 10
1612.180989
 20
214.854268
 30
0.0
 11
1612.878085
 21
215.717927
 31
0.0
  0
LINE
  5
1F634
  8
ALPHA
 10
1617.406363
 20
218.740734
 30
0.0
 11
1616.92894
 21
218.092989
 31
0.0
  0
LINE
  5
1F635
  8
ALPHA
 10
1613.124024
 20
219.172563
 30
0.0
 11
1613.601445
 21
219.820307
 31
0.0
  0
LINE
  5
1F636
  8
ALPHA
 10
1609.415813
 20
218.740734
 30
0.0
 11
1608.938392
 21
218.092989
 31
0.0
  0
LINE
  5
1F637
  8
ALPHA
 10
1617.760815
 20
217.66116
 30
0.0
 11
1618.276308
 21
218.524819
 31
0.0
  0
LINE
  5
1F638
  8
ALPHA
 10
1609.770265
 20
217.66116
 30
0.0
 11
1610.285758
 21
218.524819
 31
0.0
  0
LINE
  5
1F639
  8
ALPHA
 10
1611.826536
 20
215.933842
 30
0.0
 11
1611.272972
 21
214.854268
 31
0.0
  0
LINE
  5
1F63A
  8
ALPHA
 10
1609.152365
 20
213.126951
 30
0.0
 11
1609.70593
 21
214.206524
 31
0.0
  0
LINE
  5
1F63B
  8
ALPHA
 10
1612.769572
 20
220.252137
 30
0.0
 11
1612.216008
 21
219.172563
 31
0.0
  0
LINE
  5
1F63C
  8
ALPHA
 10
1615.461658
 20
211.831462
 30
0.0
 11
1616.483889
 21
212.479207
 31
0.0
  0
LINE
  5
1F63D
  8
ALPHA
 10
1607.471109
 20
211.831462
 30
0.0
 11
1608.493341
 21
212.479207
 31
0.0
  0
LINE
  5
1F63E
  8
ALPHA
 10
1616.92894
 20
218.092989
 30
0.0
 11
1616.088312
 21
217.445245
 31
0.0
  0
LINE
  5
1F63F
  8
ALPHA
 10
1612.667165
 20
216.581586
 30
0.0
 11
1611.826536
 21
215.933842
 31
0.0
  0
LINE
  5
1F640
  8
ALPHA
 10
1613.601445
 20
219.820307
 30
0.0
 11
1614.442074
 21
220.468051
 31
0.0
  0
LINE
  5
1F641
  8
ALPHA
 10
1608.938392
 20
218.092989
 30
0.0
 11
1608.097763
 21
217.445245
 31
0.0
  0
LINE
  5
1F642
  8
ALPHA
 10
1616.483889
 20
212.479207
 30
0.0
 11
1617.142914
 21
213.126951
 31
0.0
  0
LINE
  5
1F643
  8
ALPHA
 10
1617.10179
 20
217.013416
 30
0.0
 11
1617.760815
 21
217.66116
 31
0.0
  0
LINE
  5
1F644
  8
ALPHA
 10
1608.493341
 20
212.479207
 30
0.0
 11
1609.152365
 21
213.126951
 31
0.0
  0
LINE
  5
1F645
  8
ALPHA
 10
1613.428597
 20
220.899881
 30
0.0
 11
1612.769572
 21
220.252137
 31
0.0
  0
LINE
  5
1F646
  8
ALPHA
 10
1609.111241
 20
217.013416
 30
0.0
 11
1609.770265
 21
217.66116
 31
0.0
  0
LINE
  5
1F647
  8
ALPHA
 10
1629.361604
 20
229.726505
 30
0.0
 11
1624.5208
 21
224.885701
 31
0.0
  0
LINE
  5
1F648
  8
ALPHA
 10
1628.891758
 20
230.196352
 30
0.0
 11
1624.050953
 21
225.355548
 31
0.0
  0
LINE
  5
1F649
  8
ALPHA
 10
1608.797913
 20
214.206524
 30
0.0
 11
1608.100817
 21
213.342865
 31
0.0
  0
LINE
  5
1F64A
  8
ALPHA
 10
1616.091366
 20
213.342865
 30
0.0
 11
1615.288809
 21
212.911036
 31
0.0
  0
LINE
  5
1F64B
  8
ALPHA
 10
1616.70051
 20
216.797501
 30
0.0
 11
1617.10179
 21
217.013416
 31
0.0
  0
LINE
  5
1F64C
  8
ALPHA
 10
1612.878085
 20
215.717927
 30
0.0
 11
1613.680642
 21
216.149757
 31
0.0
  0
LINE
  5
1F64D
  8
ALPHA
 10
1613.068444
 20
216.797501
 30
0.0
 11
1612.667165
 21
216.581586
 31
0.0
  0
LINE
  5
1F64E
  8
ALPHA
 10
1608.709962
 20
216.797501
 30
0.0
 11
1609.111241
 21
217.013416
 31
0.0
  0
LINE
  5
1F64F
  8
ALPHA
 10
1614.450829
 20
221.547625
 30
0.0
 11
1613.428597
 21
220.899881
 31
0.0
  0
ARC
  5
1F650
  8
ALPHA
 10
1649.3708
 20
238.255548
 30
0.0
 40
1.0
 50
270.0
 51
0.0
  0
LINE
  5
1F651
  8
ALPHA
 10
1650.3708
 20
238.255548
 30
0.0
 11
1650.3708
 21
243.255548
 31
0.0
  0
LINE
  5
1F652
  8
ALPHA
 10
1650.9208
 20
245.755548
 30
0.0
 11
1650.9208
 21
257.755548
 31
0.0
  0
LINE
  5
1F653
  8
ALPHA
 10
1689.72567
 20
242.118431
 30
0.0
 11
1689.444643
 21
242.118431
 31
0.0
  0
LINE
  5
1F654
  8
ALPHA
 10
1689.444643
 20
239.092665
 30
0.0
 11
1689.72567
 21
239.092665
 31
0.0
  0
LINE
  5
1F655
  8
ALPHA
 10
1689.72567
 20
234.660363
 30
0.0
 11
1689.444643
 21
234.660363
 31
0.0
  0
LINE
  5
1F656
  8
ALPHA
 10
1689.444643
 20
231.550732
 30
0.0
 11
1689.72567
 21
231.550732
 31
0.0
  0
LINE
  5
1F657
  8
ALPHA
 10
1689.72567
 20
227.160363
 30
0.0
 11
1689.444643
 21
227.160363
 31
0.0
  0
LINE
  5
1F658
  8
ALPHA
 10
1689.444643
 20
224.050732
 30
0.0
 11
1689.72567
 21
224.050732
 31
0.0
  0
LINE
  5
1F659
  8
ALPHA
 10
1689.72567
 20
219.660363
 30
0.0
 11
1689.444643
 21
219.660363
 31
0.0
  0
LINE
  5
1F65A
  8
ALPHA
 10
1689.444643
 20
216.550732
 30
0.0
 11
1689.72567
 21
216.550732
 31
0.0
  0
LINE
  5
1F65B
  8
ALPHA
 10
1689.72567
 20
212.160363
 30
0.0
 11
1689.444643
 21
212.160363
 31
0.0
  0
POLYLINE
  5
1F65C
  8
ALPHA
 66
     1
 10
0.0
 20
0.0
 30
0.0
  0
VERTEX
  5
22D92
  8
ALPHA
 10
1689.72567
 20
216.550732
 30
0.0
  0
VERTEX
  5
22D93
  8
ALPHA
 10
1689.736178
 20
216.671966
 30
0.0
  0
VERTEX
  5
22D94
  8
ALPHA
 10
1689.744998
 20
217.013977
 30
0.0
  0
VERTEX
  5
22D95
  8
ALPHA
 10
1689.750796
 20
217.517666
 30
0.0
  0
VERTEX
  5
22D96
  8
ALPHA
 10
1689.752811
 20
218.105548
 30
0.0
  0
VERTEX
  5
22D97
  8
ALPHA
 10
1689.750796
 20
218.69343
 30
0.0
  0
VERTEX
  5
22D98
  8
ALPHA
 10
1689.744998
 20
219.197118
 30
0.0
  0
VERTEX
  5
22D99
  8
ALPHA
 10
1689.736178
 20
219.539129
 30
0.0
  0
VERTEX
  5
22D9A
  8
ALPHA
 10
1689.72567
 20
219.660363
 30
0.0
  0
SEQEND
  5
22D9B
  8
ALPHA
  0
POLYLINE
  5
1F667
  8
ALPHA
 66
     1
 10
0.0
 20
0.0
 30
0.0
  0
VERTEX
  5
22D9C
  8
ALPHA
 10
1689.72567
 20
224.050732
 30
0.0
  0
VERTEX
  5
22D9D
  8
ALPHA
 10
1689.736178
 20
224.171966
 30
0.0
  0
VERTEX
  5
22D9E
  8
ALPHA
 10
1689.744998
 20
224.513977
 30
0.0
  0
VERTEX
  5
22D9F
  8
ALPHA
 10
1689.750796
 20
225.017666
 30
0.0
  0
VERTEX
  5
22DA0
  8
ALPHA
 10
1689.752811
 20
225.605548
 30
0.0
  0
VERTEX
  5
22DA1
  8
ALPHA
 10
1689.750796
 20
226.19343
 30
0.0
  0
VERTEX
  5
22DA2
  8
ALPHA
 10
1689.744998
 20
226.697118
 30
0.0
  0
VERTEX
  5
22DA3
  8
ALPHA
 10
1689.736178
 20
227.039129
 30
0.0
  0
VERTEX
  5
22DA4
  8
ALPHA
 10
1689.72567
 20
227.160363
 30
0.0
  0
SEQEND
  5
22DA5
  8
ALPHA
  0
POLYLINE
  5
1F672
  8
ALPHA
 66
     1
 10
0.0
 20
0.0
 30
0.0
  0
VERTEX
  5
22DA6
  8
ALPHA
 10
1689.72567
 20
231.550732
 30
0.0
  0
VERTEX
  5
22DA7
  8
ALPHA
 10
1689.736178
 20
231.671966
 30
0.0
  0
VERTEX
  5
22DA8
  8
ALPHA
 10
1689.744998
 20
232.013977
 30
0.0
  0
VERTEX
  5
22DA9
  8
ALPHA
 10
1689.750796
 20
232.517666
 30
0.0
  0
VERTEX
  5
22DAA
  8
ALPHA
 10
1689.752811
 20
233.105548
 30
0.0
  0
VERTEX
  5
22DAB
  8
ALPHA
 10
1689.750796
 20
233.69343
 30
0.0
  0
VERTEX
  5
22DAC
  8
ALPHA
 10
1689.744998
 20
234.197118
 30
0.0
  0
VERTEX
  5
22DAD
  8
ALPHA
 10
1689.736178
 20
234.539129
 30
0.0
  0
VERTEX
  5
22DAE
  8
ALPHA
 10
1689.72567
 20
234.660363
 30
0.0
  0
SEQEND
  5
22DAF
  8
ALPHA
  0
POLYLINE
  5
1F67D
  8
ALPHA
 66
     1
 10
0.0
 20
0.0
 30
0.0
  0
VERTEX
  5
22DB0
  8
ALPHA
 10
1689.444643
 20
219.660363
 30
0.0
  0
VERTEX
  5
22DB1
  8
ALPHA
 10
1689.434136
 20
219.539074
 30
0.0
  0
VERTEX
  5
22DB2
  8
ALPHA
 10
1689.425317
 20
219.197049
 30
0.0
  0
VERTEX
  5
22DB3
  8
ALPHA
 10
1689.41952
 20
218.693385
 30
0.0
  0
VERTEX
  5
22DB4
  8
ALPHA
 10
1689.417505
 20
218.105548
 30
0.0
  0
VERTEX
  5
22DB5
  8
ALPHA
 10
1689.41952
 20
217.51771
 30
0.0
  0
VERTEX
  5
22DB6
  8
ALPHA
 10
1689.425317
 20
217.014047
 30
0.0
  0
VERTEX
  5
22DB7
  8
ALPHA
 10
1689.434136
 20
216.672022
 30
0.0
  0
VERTEX
  5
22DB8
  8
ALPHA
 10
1689.444643
 20
216.550732
 30
0.0
  0
SEQEND
  5
22DB9
  8
ALPHA
  0
POLYLINE
  5
1F688
  8
ALPHA
 66
     1
 10
0.0
 20
0.0
 30
0.0
  0
VERTEX
  5
22DBA
  8
ALPHA
 10
1689.444643
 20
227.160363
 30
0.0
  0
VERTEX
  5
22DBB
  8
ALPHA
 10
1689.434136
 20
227.039074
 30
0.0
  0
VERTEX
  5
22DBC
  8
ALPHA
 10
1689.425317
 20
226.697049
 30
0.0
  0
VERTEX
  5
22DBD
  8
ALPHA
 10
1689.41952
 20
226.193385
 30
0.0
  0
VERTEX
  5
22DBE
  8
ALPHA
 10
1689.417505
 20
225.605548
 30
0.0
  0
VERTEX
  5
22DBF
  8
ALPHA
 10
1689.41952
 20
225.01771
 30
0.0
  0
VERTEX
  5
22DC0
  8
ALPHA
 10
1689.425317
 20
224.514047
 30
0.0
  0
VERTEX
  5
22DC1
  8
ALPHA
 10
1689.434136
 20
224.172022
 30
0.0
  0
VERTEX
  5
22DC2
  8
ALPHA
 10
1689.444643
 20
224.050732
 30
0.0
  0
SEQEND
  5
22DC3
  8
ALPHA
  0
POLYLINE
  5
1F693
  8
ALPHA
 66
     1
 10
0.0
 20
0.0
 30
0.0
  0
VERTEX
  5
22DC4
  8
ALPHA
 10
1689.444643
 20
234.660363
 30
0.0
  0
VERTEX
  5
22DC5
  8
ALPHA
 10
1689.434136
 20
234.539074
 30
0.0
  0
VERTEX
  5
22DC6
  8
ALPHA
 10
1689.425317
 20
234.197049
 30
0.0
  0
VERTEX
  5
22DC7
  8
ALPHA
 10
1689.41952
 20
233.693385
 30
0.0
  0
VERTEX
  5
22DC8
  8
ALPHA
 10
1689.417505
 20
233.105548
 30
0.0
  0
VERTEX
  5
22DC9
  8
ALPHA
 10
1689.41952
 20
232.51771
 30
0.0
  0
VERTEX
  5
22DCA
  8
ALPHA
 10
1689.425317
 20
232.014047
 30
0.0
  0
VERTEX
  5
22DCB
  8
ALPHA
 10
1689.434136
 20
231.672022
 30
0.0
  0
VERTEX
  5
22DCC
  8
ALPHA
 10
1689.444643
 20
231.550732
 30
0.0
  0
SEQEND
  5
22DCD
  8
ALPHA
  0
POLYLINE
  5
1F69E
  8
ALPHA
 66
     1
 10
0.0
 20
0.0
 30
0.0
  0
VERTEX
  5
22DCE
  8
ALPHA
 10
1689.72567
 20
239.092665
 30
0.0
  0
VERTEX
  5
22DCF
  8
ALPHA
 10
1689.735896
 20
239.210688
 30
0.0
  0
VERTEX
  5
22DD0
  8
ALPHA
 10
1689.744482
 20
239.543784
 30
0.0
  0
VERTEX
  5
22DD1
  8
ALPHA
 10
1689.750119
 20
240.033647
 30
0.0
  0
VERTEX
  5
22DD2
  8
ALPHA
 10
1689.752078
 20
240.605548
 30
0.0
  0
VERTEX
  5
22DD3
  8
ALPHA
 10
1689.750119
 20
241.177448
 30
0.0
  0
VERTEX
  5
22DD4
  8
ALPHA
 10
1689.744482
 20
241.667312
 30
0.0
  0
VERTEX
  5
22DD5
  8
ALPHA
 10
1689.735896
 20
242.000407
 30
0.0
  0
VERTEX
  5
22DD6
  8
ALPHA
 10
1689.72567
 20
242.118431
 30
0.0
  0
SEQEND
  5
22DD7
  8
ALPHA
  0
POLYLINE
  5
1F6A9
  8
ALPHA
 66
     1
 10
0.0
 20
0.0
 30
0.0
  0
VERTEX
  5
22DD8
  8
ALPHA
 10
1689.444643
 20
242.118431
 30
0.0
  0
VERTEX
  5
22DD9
  8
ALPHA
 10
1689.434417
 20
242.000373
 30
0.0
  0
VERTEX
  5
22DDA
  8
ALPHA
 10
1689.425832
 20
241.66727
 30
0.0
  0
VERTEX
  5
22DDB
  8
ALPHA
 10
1689.420196
 20
241.177421
 30
0.0
  0
VERTEX
  5
22DDC
  8
ALPHA
 10
1689.418237
 20
240.605548
 30
0.0
  0
VERTEX
  5
22DDD
  8
ALPHA
 10
1689.420196
 20
240.033674
 30
0.0
  0
VERTEX
  5
22DDE
  8
ALPHA
 10
1689.425832
 20
239.543825
 30
0.0
  0
VERTEX
  5
22DDF
  8
ALPHA
 10
1689.434417
 20
239.210722
 30
0.0
  0
VERTEX
  5
22DE0
  8
ALPHA
 10
1689.444643
 20
239.092665
 30
0.0
  0
SEQEND
  5
22DE1
  8
ALPHA
  0
LINE
  5
1F6B4
  8
ALPHA
 10
1689.444643
 20
276.550732
 30
0.0
 11
1689.72567
 21
276.550732
 31
0.0
  0
LINE
  5
1F6B5
  8
ALPHA
 10
1689.72567
 20
272.160363
 30
0.0
 11
1689.444643
 21
272.160363
 31
0.0
  0
LINE
  5
1F6B6
  8
ALPHA
 10
1689.444643
 20
269.050732
 30
0.0
 11
1689.72567
 21
269.050732
 31
0.0
  0
LINE
  5
1F6B7
  8
ALPHA
 10
1689.72567
 20
264.660363
 30
0.0
 11
1689.444643
 21
264.660363
 31
0.0
  0
LINE
  5
1F6B8
  8
ALPHA
 10
1689.444643
 20
261.550732
 30
0.0
 11
1689.72567
 21
261.550732
 31
0.0
  0
LINE
  5
1F6B9
  8
ALPHA
 10
1689.72567
 20
257.160363
 30
0.0
 11
1689.444643
 21
257.160363
 31
0.0
  0
LINE
  5
1F6BA
  8
ALPHA
 10
1689.444643
 20
254.050732
 30
0.0
 11
1689.72567
 21
254.050732
 31
0.0
  0
LINE
  5
1F6BB
  8
ALPHA
 10
1689.72567
 20
249.660363
 30
0.0
 11
1689.444643
 21
249.660363
 31
0.0
  0
LINE
  5
1F6BC
  8
ALPHA
 10
1689.444643
 20
246.550732
 30
0.0
 11
1689.72567
 21
246.550732
 31
0.0
  0
POLYLINE
  5
1F6BD
  8
ALPHA
 66
     1
 10
0.0
 20
0.0
 30
0.0
  0
VERTEX
  5
22DE2
  8
ALPHA
 10
1689.72567
 20
246.550732
 30
0.0
  0
VERTEX
  5
22DE3
  8
ALPHA
 10
1689.736178
 20
246.671966
 30
0.0
  0
VERTEX
  5
22DE4
  8
ALPHA
 10
1689.744998
 20
247.013977
 30
0.0
  0
VERTEX
  5
22DE5
  8
ALPHA
 10
1689.750796
 20
247.517666
 30
0.0
  0
VERTEX
  5
22DE6
  8
ALPHA
 10
1689.752811
 20
248.105548
 30
0.0
  0
VERTEX
  5
22DE7
  8
ALPHA
 10
1689.750796
 20
248.69343
 30
0.0
  0
VERTEX
  5
22DE8
  8
ALPHA
 10
1689.744998
 20
249.197118
 30
0.0
  0
VERTEX
  5
22DE9
  8
ALPHA
 10
1689.736178
 20
249.539129
 30
0.0
  0
VERTEX
  5
22DEA
  8
ALPHA
 10
1689.72567
 20
249.660363
 30
0.0
  0
SEQEND
  5
22DEB
  8
ALPHA
  0
POLYLINE
  5
1F6C8
  8
ALPHA
 66
     1
 10
0.0
 20
0.0
 30
0.0
  0
VERTEX
  5
22DEC
  8
ALPHA
 10
1689.72567
 20
254.050732
 30
0.0
  0
VERTEX
  5
22DED
  8
ALPHA
 10
1689.736178
 20
254.171966
 30
0.0
  0
VERTEX
  5
22DEE
  8
ALPHA
 10
1689.744998
 20
254.513977
 30
0.0
  0
VERTEX
  5
22DEF
  8
ALPHA
 10
1689.750796
 20
255.017666
 30
0.0
  0
VERTEX
  5
22DF0
  8
ALPHA
 10
1689.752811
 20
255.605548
 30
0.0
  0
VERTEX
  5
22DF1
  8
ALPHA
 10
1689.750796
 20
256.19343
 30
0.0
  0
VERTEX
  5
22DF2
  8
ALPHA
 10
1689.744998
 20
256.697118
 30
0.0
  0
VERTEX
  5
22DF3
  8
ALPHA
 10
1689.736178
 20
257.039129
 30
0.0
  0
VERTEX
  5
22DF4
  8
ALPHA
 10
1689.72567
 20
257.160363
 30
0.0
  0
SEQEND
  5
22DF5
  8
ALPHA
  0
POLYLINE
  5
1F6D3
  8
ALPHA
 66
     1
 10
0.0
 20
0.0
 30
0.0
  0
VERTEX
  5
22DF6
  8
ALPHA
 10
1689.72567
 20
261.550732
 30
0.0
  0
VERTEX
  5
22DF7
  8
ALPHA
 10
1689.736178
 20
261.671966
 30
0.0
  0
VERTEX
  5
22DF8
  8
ALPHA
 10
1689.744998
 20
262.013977
 30
0.0
  0
VERTEX
  5
22DF9
  8
ALPHA
 10
1689.750796
 20
262.517666
 30
0.0
  0
VERTEX
  5
22DFA
  8
ALPHA
 10
1689.752811
 20
263.105548
 30
0.0
  0
VERTEX
  5
22DFB
  8
ALPHA
 10
1689.750796
 20
263.69343
 30
0.0
  0
VERTEX
  5
22DFC
  8
ALPHA
 10
1689.744998
 20
264.197118
 30
0.0
  0
VERTEX
  5
22DFD
  8
ALPHA
 10
1689.736178
 20
264.539129
 30
0.0
  0
VERTEX
  5
22DFE
  8
ALPHA
 10
1689.72567
 20
264.660363
 30
0.0
  0
SEQEND
  5
22DFF
  8
ALPHA
  0
POLYLINE
  5
1F6DE
  8
ALPHA
 66
     1
 10
0.0
 20
0.0
 30
0.0
  0
VERTEX
  5
22E00
  8
ALPHA
 10
1689.72567
 20
269.050732
 30
0.0
  0
VERTEX
  5
22E01
  8
ALPHA
 10
1689.736178
 20
269.171966
 30
0.0
  0
VERTEX
  5
22E02
  8
ALPHA
 10
1689.744998
 20
269.513977
 30
0.0
  0
VERTEX
  5
22E03
  8
ALPHA
 10
1689.750796
 20
270.017666
 30
0.0
  0
VERTEX
  5
22E04
  8
ALPHA
 10
1689.752811
 20
270.605548
 30
0.0
  0
VERTEX
  5
22E05
  8
ALPHA
 10
1689.750796
 20
271.19343
 30
0.0
  0
VERTEX
  5
22E06
  8
ALPHA
 10
1689.744998
 20
271.697118
 30
0.0
  0
VERTEX
  5
22E07
  8
ALPHA
 10
1689.736178
 20
272.039129
 30
0.0
  0
VERTEX
  5
22E08
  8
ALPHA
 10
1689.72567
 20
272.160363
 30
0.0
  0
SEQEND
  5
22E09
  8
ALPHA
  0
POLYLINE
  5
1F6E9
  8
ALPHA
 66
     1
 10
0.0
 20
0.0
 30
0.0
  0
VERTEX
  5
22E0A
  8
ALPHA
 10
1689.444643
 20
249.660363
 30
0.0
  0
VERTEX
  5
22E0B
  8
ALPHA
 10
1689.434136
 20
249.539074
 30
0.0
  0
VERTEX
  5
22E0C
  8
ALPHA
 10
1689.425317
 20
249.197049
 30
0.0
  0
VERTEX
  5
22E0D
  8
ALPHA
 10
1689.41952
 20
248.693385
 30
0.0
  0
VERTEX
  5
22E0E
  8
ALPHA
 10
1689.417505
 20
248.105548
 30
0.0
  0
VERTEX
  5
22E0F
  8
ALPHA
 10
1689.41952
 20
247.51771
 30
0.0
  0
VERTEX
  5
22E10
  8
ALPHA
 10
1689.425317
 20
247.014047
 30
0.0
  0
VERTEX
  5
22E11
  8
ALPHA
 10
1689.434136
 20
246.672022
 30
0.0
  0
VERTEX
  5
22E12
  8
ALPHA
 10
1689.444643
 20
246.550732
 30
0.0
  0
SEQEND
  5
22E13
  8
ALPHA
  0
POLYLINE
  5
1F6F4
  8
ALPHA
 66
     1
 10
0.0
 20
0.0
 30
0.0
  0
VERTEX
  5
22E14
  8
ALPHA
 10
1689.444643
 20
257.160363
 30
0.0
  0
VERTEX
  5
22E15
  8
ALPHA
 10
1689.434136
 20
257.039074
 30
0.0
  0
VERTEX
  5
22E16
  8
ALPHA
 10
1689.425317
 20
256.697049
 30
0.0
  0
VERTEX
  5
22E17
  8
ALPHA
 10
1689.41952
 20
256.193385
 30
0.0
  0
VERTEX
  5
22E18
  8
ALPHA
 10
1689.417505
 20
255.605548
 30
0.0
  0
VERTEX
  5
22E19
  8
ALPHA
 10
1689.41952
 20
255.01771
 30
0.0
  0
VERTEX
  5
22E1A
  8
ALPHA
 10
1689.425317
 20
254.514047
 30
0.0
  0
VERTEX
  5
22E1B
  8
ALPHA
 10
1689.434136
 20
254.172022
 30
0.0
  0
VERTEX
  5
22E1C
  8
ALPHA
 10
1689.444643
 20
254.050732
 30
0.0
  0
SEQEND
  5
22E1D
  8
ALPHA
  0
POLYLINE
  5
1F6FF
  8
ALPHA
 66
     1
 10
0.0
 20
0.0
 30
0.0
  0
VERTEX
  5
22E1E
  8
ALPHA
 10
1689.444643
 20
264.660363
 30
0.0
  0
VERTEX
  5
22E1F
  8
ALPHA
 10
1689.434136
 20
264.539074
 30
0.0
  0
VERTEX
  5
22E20
  8
ALPHA
 10
1689.425317
 20
264.197049
 30
0.0
  0
VERTEX
  5
22E21
  8
ALPHA
 10
1689.41952
 20
263.693385
 30
0.0
  0
VERTEX
  5
22E22
  8
ALPHA
 10
1689.417505
 20
263.105548
 30
0.0
  0
VERTEX
  5
22E23
  8
ALPHA
 10
1689.41952
 20
262.51771
 30
0.0
  0
VERTEX
  5
22E24
  8
ALPHA
 10
1689.425317
 20
262.014047
 30
0.0
  0
VERTEX
  5
22E25
  8
ALPHA
 10
1689.434136
 20
261.672022
 30
0.0
  0
VERTEX
  5
22E26
  8
ALPHA
 10
1689.444643
 20
261.550732
 30
0.0
  0
SEQEND
  5
22E27
  8
ALPHA
  0
POLYLINE
  5
1F70A
  8
ALPHA
 66
     1
 10
0.0
 20
0.0
 30
0.0
  0
VERTEX
  5
22E28
  8
ALPHA
 10
1689.444643
 20
272.160363
 30
0.0
  0
VERTEX
  5
22E29
  8
ALPHA
 10
1689.434136
 20
272.039074
 30
0.0
  0
VERTEX
  5
22E2A
  8
ALPHA
 10
1689.425317
 20
271.697049
 30
0.0
  0
VERTEX
  5
22E2B
  8
ALPHA
 10
1689.41952
 20
271.193385
 30
0.0
  0
VERTEX
  5
22E2C
  8
ALPHA
 10
1689.417505
 20
270.605548
 30
0.0
  0
VERTEX
  5
22E2D
  8
ALPHA
 10
1689.41952
 20
270.01771
 30
0.0
  0
VERTEX
  5
22E2E
  8
ALPHA
 10
1689.425317
 20
269.514047
 30
0.0
  0
VERTEX
  5
22E2F
  8
ALPHA
 10
1689.434136
 20
269.172022
 30
0.0
  0
VERTEX
  5
22E30
  8
ALPHA
 10
1689.444643
 20
269.050732
 30
0.0
  0
SEQEND
  5
22E31
  8
ALPHA
  0
LINE
  5
1F715
  8
ALPHA
 10
1651.877711
 20
316.77406
 30
0.0
 11
1669.91402
 21
316.806493
 31
0.0
  0
POLYLINE
  5
1F716
  8
ALPHA
 66
     1
 10
0.0
 20
0.0
 30
0.0
  0
VERTEX
  5
22E32
  8
ALPHA
 10
1651.667338
 20
315.273794
 30
0.0
  0
VERTEX
  5
22E33
  8
ALPHA
 10
1665.920275
 20
315.298209
 30
0.0
  0
VERTEX
  5
22E34
  8
ALPHA
 10
1680.114319
 20
315.329686
 30
0.0
  0
SEQEND
  5
22E35
  8
ALPHA
  0
LINE
  5
1F71B
  8
ALPHA
 10
1651.627932
 20
316.743038
 30
0.0
 11
1651.877711
 21
316.77406
 31
0.0
  0
POLYLINE
  5
1F71C
  8
ALPHA
 66
     1
 10
0.0
 20
0.0
 30
0.0
  0
VERTEX
  5
22E36
  8
ALPHA
 10
1651.667338
 20
315.273794
 30
0.0
  0
VERTEX
  5
22E37
  8
ALPHA
 10
1651.682986
 20
315.836779
 30
0.0
  0
VERTEX
  5
22E38
  8
ALPHA
 10
1651.728195
 20
316.3215
 30
0.0
  0
VERTEX
  5
22E39
  8
ALPHA
 10
1651.796234
 20
316.650217
 30
0.0
  0
VERTEX
  5
22E3A
  8
ALPHA
 10
1651.877711
 20
316.77406
 30
0.0
  0
SEQEND
  5
22E3B
  8
ALPHA
  0
POLYLINE
  5
1F723
  8
ALPHA
 66
     1
 10
0.0
 20
0.0
 30
0.0
  0
VERTEX
  5
22E3C
  8
ALPHA
 10
1651.627932
 20
316.743038
 30
0.0
  0
VERTEX
  5
22E3D
  8
ALPHA
 10
1651.548129
 20
316.620641
 30
0.0
  0
VERTEX
  5
22E3E
  8
ALPHA
 10
1651.481046
 20
316.293151
 30
0.0
  0
VERTEX
  5
22E3F
  8
ALPHA
 10
1651.436385
 20
315.809297
 30
0.0
  0
VERTEX
  5
22E40
  8
ALPHA
 10
1651.4208
 20
315.243266
 30
0.0
  0
SEQEND
  5
22E41
  8
ALPHA
  0
CIRCLE
  5
1F72A
  8
ALPHA
 10
1682.2208
 20
310.605548
 30
0.0
 40
4.004288
  0
CIRCLE
  5
1F72B
  8
ALPHA
 10
1682.2208
 20
310.605548
 30
0.0
 40
3.754319
  0
ARC
  5
1F72C
  8
ALPHA
 10
1682.2208
 20
310.605548
 30
0.0
 40
3.0
 50
101.536959
 51
258.463041
  0
ARC
  5
1F72D
  8
ALPHA
 10
1682.2208
 20
310.605548
 30
0.0
 40
3.0
 50
281.536959
 51
78.463041
  0
ARC
  5
1F72E
  8
ALPHA
 10
1682.2208
 20
310.605548
 30
0.0
 40
3.5
 50
99.653406
 51
260.346594
  0
ARC
  5
1F72F
  8
ALPHA
 10
1682.2208
 20
310.605548
 30
0.0
 40
3.5
 50
279.653406
 51
80.346594
  0
ARC
  5
1F730
  8
ALPHA
 10
1683.274079
 20
308.781215
 30
0.0
 40
0.688158
 50
73.266405
 51
166.733595
  0
ARC
  5
1F731
  8
ALPHA
 10
1681.167521
 20
308.781215
 30
0.0
 40
0.688158
 50
13.266405
 51
106.733595
  0
ARC
  5
1F732
  8
ALPHA
 10
1680.855944
 20
309.817548
 30
0.0
 40
0.394
 50
133.266405
 51
286.733595
  0
ARC
  5
1F733
  8
ALPHA
 10
1683.585656
 20
309.817548
 30
0.0
 40
0.394
 50
253.266405
 51
46.733595
  0
POLYLINE
  5
1F734
  8
ALPHA
 66
     1
 10
0.0
 20
0.0
 30
0.0
  0
VERTEX
  5
22E42
  8
ALPHA
 10
1683.99629
 20
314.433991
 30
0.0
  0
VERTEX
  5
22E43
  8
ALPHA
 10
1684.573633
 20
314.106624
 30
0.0
  0
VERTEX
  5
22E44
  8
ALPHA
 10
1685.145818
 20
313.642262
 30
0.0
  0
VERTEX
  5
22E45
  8
ALPHA
 10
1685.674935
 20
313.020375
 30
0.0
  0
VERTEX
  5
22E46
  8
ALPHA
 10
1686.108407
 20
312.229319
 30
0.0
  0
VERTEX
  5
22E47
  8
ALPHA
 10
1686.376527
 20
311.292857
 30
0.0
  0
VERTEX
  5
22E48
  8
ALPHA
 10
1686.420197
 20
310.279551
 30
0.0
  0
VERTEX
  5
22E49
  8
ALPHA
 10
1686.215455
 20
309.267713
 30
0.0
  0
VERTEX
  5
22E4A
  8
ALPHA
 10
1685.768094
 20
308.330353
 30
0.0
  0
VERTEX
  5
22E4B
  8
ALPHA
 10
1685.104167
 20
307.529067
 30
0.0
  0
VERTEX
  5
22E4C
  8
ALPHA
 10
1684.259499
 20
306.911528
 30
0.0
  0
VERTEX
  5
22E4D
  8
ALPHA
 10
1683.278898
 20
306.517831
 30
0.0
  0
VERTEX
  5
22E4E
  8
ALPHA
 10
1682.2208
 20
306.379727
 30
0.0
  0
SEQEND
  5
22E4F
  8
ALPHA
  0
POLYLINE
  5
1F743
  8
ALPHA
 66
     1
 10
0.0
 20
0.0
 30
0.0
  0
VERTEX
  5
22E50
  8
ALPHA
 10
1684.566438
 20
315.341043
 30
0.0
  0
VERTEX
  5
22E51
  8
ALPHA
 10
1685.282383
 20
314.93639
 30
0.0
  0
VERTEX
  5
22E52
  8
ALPHA
 10
1685.992075
 20
314.362098
 30
0.0
  0
VERTEX
  5
22E53
  8
ALPHA
 10
1686.648527
 20
313.592556
 30
0.0
  0
VERTEX
  5
22E54
  8
ALPHA
 10
1687.186452
 20
312.612968
 30
0.0
  0
VERTEX
  5
22E55
  8
ALPHA
 10
1687.518893
 20
311.452813
 30
0.0
  0
VERTEX
  5
22E56
  8
ALPHA
 10
1687.572195
 20
310.197823
 30
0.0
  0
VERTEX
  5
22E57
  8
ALPHA
 10
1687.316905
 20
308.945409
 30
0.0
  0
VERTEX
  5
22E58
  8
ALPHA
 10
1686.760625
 20
307.786016
 30
0.0
  0
VERTEX
  5
22E59
  8
ALPHA
 10
1685.936002
 20
306.795727
 30
0.0
  0
VERTEX
  5
22E5A
  8
ALPHA
 10
1684.887665
 20
306.033425
 30
0.0
  0
VERTEX
  5
22E5B
  8
ALPHA
 10
1683.671546
 20
305.548427
 30
0.0
  0
VERTEX
  5
22E5C
  8
ALPHA
 10
1682.36589
 20
305.379879
 30
0.0
  0
SEQEND
  5
22E5D
  8
ALPHA
  0
POLYLINE
  5
1F752
  8
ALPHA
 66
     1
 10
0.0
 20
0.0
 30
0.0
  0
VERTEX
  5
22E5E
  8
ALPHA
 10
1682.2208
 20
306.379727
 30
0.0
  0
VERTEX
  5
22E5F
  8
ALPHA
 10
1681.144613
 20
306.515571
 30
0.0
  0
VERTEX
  5
22E60
  8
ALPHA
 10
1680.147851
 20
306.915708
 30
0.0
  0
VERTEX
  5
22E61
  8
ALPHA
 10
1679.291578
 20
307.547177
 30
0.0
  0
VERTEX
  5
22E62
  8
ALPHA
 10
1678.624313
 20
308.365879
 30
0.0
  0
VERTEX
  5
22E63
  8
ALPHA
 10
1678.181814
 20
309.321609
 30
0.0
  0
VERTEX
  5
22E64
  8
ALPHA
 10
1677.98936
 20
310.357329
 30
0.0
  0
VERTEX
  5
22E65
  8
ALPHA
 10
1678.059024
 20
311.408408
 30
0.0
  0
VERTEX
  5
22E66
  8
ALPHA
 10
1678.382101
 20
312.400345
 30
0.0
  0
VERTEX
  5
22E67
  8
ALPHA
 10
1678.922098
 20
313.262972
 30
0.0
  0
VERTEX
  5
22E68
  8
ALPHA
 10
1679.620227
 20
313.946598
 30
0.0
  0
VERTEX
  5
22E69
  8
ALPHA
 10
1680.403206
 20
314.426776
 30
0.0
  0
SEQEND
  5
22E6A
  8
ALPHA
  0
POLYLINE
  5
1F760
  8
ALPHA
 66
     1
 10
0.0
 20
0.0
 30
0.0
  0
VERTEX
  5
22E6B
  8
ALPHA
 10
1682.36589
 20
305.379879
 30
0.0
  0
VERTEX
  5
22E6C
  8
ALPHA
 10
1681.040249
 20
305.546647
 30
0.0
  0
VERTEX
  5
22E6D
  8
ALPHA
 10
1679.804361
 20
306.040571
 30
0.0
  0
VERTEX
  5
22E6E
  8
ALPHA
 10
1678.742163
 20
306.820981
 30
0.0
  0
VERTEX
  5
22E6F
  8
ALPHA
 10
1677.914049
 20
307.833698
 30
0.0
  0
VERTEX
  5
22E70
  8
ALPHA
 10
1677.36473
 20
309.016554
 30
0.0
  0
VERTEX
  5
22E71
  8
ALPHA
 10
1677.125906
 20
310.297976
 30
0.0
  0
VERTEX
  5
22E72
  8
ALPHA
 10
1677.212107
 20
311.59781
 30
0.0
  0
VERTEX
  5
22E73
  8
ALPHA
 10
1677.61211
 20
312.824023
 30
0.0
  0
VERTEX
  5
22E74
  8
ALPHA
 10
1678.280522
 20
313.890282
 30
0.0
  0
VERTEX
  5
22E75
  8
ALPHA
 10
1679.144734
 20
314.735522
 30
0.0
  0
VERTEX
  5
22E76
  8
ALPHA
 10
1680.114319
 20
315.329686
 30
0.0
  0
SEQEND
  5
22E77
  8
ALPHA
  0
ARC
  5
1F76E
  8
ALPHA
 10
1682.2208
 20
310.605548
 30
0.0
 40
3.5
 50
260.650837
 51
279.349163
  0
ARC
  5
1F76F
  8
ALPHA
 10
1682.2208
 20
309.029548
 30
0.0
 40
0.394
 50
193.266405
 51
346.733595
  0
LINE
  5
1F770
  8
ALPHA
 10
1681.652223
 20
307.152039
 30
0.0
 11
1681.633893
 21
307.155107
 31
0.0
  0
LINE
  5
1F771
  8
ALPHA
 10
1689.72567
 20
302.160363
 30
0.0
 11
1689.444643
 21
302.160363
 31
0.0
  0
LINE
  5
1F772
  8
ALPHA
 10
1689.444643
 20
299.050732
 30
0.0
 11
1689.72567
 21
299.050732
 31
0.0
  0
LINE
  5
1F773
  8
ALPHA
 10
1689.72567
 20
294.660363
 30
0.0
 11
1689.444643
 21
294.660363
 31
0.0
  0
LINE
  5
1F774
  8
ALPHA
 10
1689.444643
 20
291.550732
 30
0.0
 11
1689.72567
 21
291.550732
 31
0.0
  0
LINE
  5
1F775
  8
ALPHA
 10
1689.72567
 20
287.160363
 30
0.0
 11
1689.444643
 21
287.160363
 31
0.0
  0
LINE
  5
1F776
  8
ALPHA
 10
1689.444643
 20
284.050732
 30
0.0
 11
1689.72567
 21
284.050732
 31
0.0
  0
LINE
  5
1F777
  8
ALPHA
 10
1682.789377
 20
307.152039
 30
0.0
 11
1682.807707
 21
307.155107
 31
0.0
  0
LINE
  5
1F778
  8
ALPHA
 10
1689.72567
 20
279.660363
 30
0.0
 11
1689.444643
 21
279.660363
 31
0.0
  0
POLYLINE
  5
1F779
  8
ALPHA
 66
     1
 10
0.0
 20
0.0
 30
0.0
  0
VERTEX
  5
22E78
  8
ALPHA
 10
1689.72567
 20
284.050732
 30
0.0
  0
VERTEX
  5
22E79
  8
ALPHA
 10
1689.736178
 20
284.171966
 30
0.0
  0
VERTEX
  5
22E7A
  8
ALPHA
 10
1689.744998
 20
284.513977
 30
0.0
  0
VERTEX
  5
22E7B
  8
ALPHA
 10
1689.750796
 20
285.017666
 30
0.0
  0
VERTEX
  5
22E7C
  8
ALPHA
 10
1689.752811
 20
285.605548
 30
0.0
  0
VERTEX
  5
22E7D
  8
ALPHA
 10
1689.750796
 20
286.19343
 30
0.0
  0
VERTEX
  5
22E7E
  8
ALPHA
 10
1689.744998
 20
286.697118
 30
0.0
  0
VERTEX
  5
22E7F
  8
ALPHA
 10
1689.736178
 20
287.039129
 30
0.0
  0
VERTEX
  5
22E80
  8
ALPHA
 10
1689.72567
 20
287.160363
 30
0.0
  0
SEQEND
  5
22E81
  8
ALPHA
  0
POLYLINE
  5
1F784
  8
ALPHA
 66
     1
 10
0.0
 20
0.0
 30
0.0
  0
VERTEX
  5
22E82
  8
ALPHA
 10
1689.72567
 20
291.550732
 30
0.0
  0
VERTEX
  5
22E83
  8
ALPHA
 10
1689.736178
 20
291.671966
 30
0.0
  0
VERTEX
  5
22E84
  8
ALPHA
 10
1689.744998
 20
292.013977
 30
0.0
  0
VERTEX
  5
22E85
  8
ALPHA
 10
1689.750796
 20
292.517666
 30
0.0
  0
VERTEX
  5
22E86
  8
ALPHA
 10
1689.752811
 20
293.105548
 30
0.0
  0
VERTEX
  5
22E87
  8
ALPHA
 10
1689.750796
 20
293.69343
 30
0.0
  0
VERTEX
  5
22E88
  8
ALPHA
 10
1689.744998
 20
294.197118
 30
0.0
  0
VERTEX
  5
22E89
  8
ALPHA
 10
1689.736178
 20
294.539129
 30
0.0
  0
VERTEX
  5
22E8A
  8
ALPHA
 10
1689.72567
 20
294.660363
 30
0.0
  0
SEQEND
  5
22E8B
  8
ALPHA
  0
POLYLINE
  5
1F78F
  8
ALPHA
 66
     1
 10
0.0
 20
0.0
 30
0.0
  0
VERTEX
  5
22E8C
  8
ALPHA
 10
1689.72567
 20
299.050732
 30
0.0
  0
VERTEX
  5
22E8D
  8
ALPHA
 10
1689.736178
 20
299.171966
 30
0.0
  0
VERTEX
  5
22E8E
  8
ALPHA
 10
1689.744998
 20
299.513977
 30
0.0
  0
VERTEX
  5
22E8F
  8
ALPHA
 10
1689.750796
 20
300.017666
 30
0.0
  0
VERTEX
  5
22E90
  8
ALPHA
 10
1689.752811
 20
300.605548
 30
0.0
  0
VERTEX
  5
22E91
  8
ALPHA
 10
1689.750796
 20
301.19343
 30
0.0
  0
VERTEX
  5
22E92
  8
ALPHA
 10
1689.744998
 20
301.697118
 30
0.0
  0
VERTEX
  5
22E93
  8
ALPHA
 10
1689.736178
 20
302.039129
 30
0.0
  0
VERTEX
  5
22E94
  8
ALPHA
 10
1689.72567
 20
302.160363
 30
0.0
  0
SEQEND
  5
22E95
  8
ALPHA
  0
POLYLINE
  5
1F79A
  8
ALPHA
 66
     1
 10
0.0
 20
0.0
 30
0.0
  0
VERTEX
  5
22E96
  8
ALPHA
 10
1689.444643
 20
287.160363
 30
0.0
  0
VERTEX
  5
22E97
  8
ALPHA
 10
1689.434136
 20
287.039074
 30
0.0
  0
VERTEX
  5
22E98
  8
ALPHA
 10
1689.425317
 20
286.697049
 30
0.0
  0
VERTEX
  5
22E99
  8
ALPHA
 10
1689.41952
 20
286.193385
 30
0.0
  0
VERTEX
  5
22E9A
  8
ALPHA
 10
1689.417505
 20
285.605548
 30
0.0
  0
VERTEX
  5
22E9B
  8
ALPHA
 10
1689.41952
 20
285.01771
 30
0.0
  0
VERTEX
  5
22E9C
  8
ALPHA
 10
1689.425317
 20
284.514047
 30
0.0
  0
VERTEX
  5
22E9D
  8
ALPHA
 10
1689.434136
 20
284.172022
 30
0.0
  0
VERTEX
  5
22E9E
  8
ALPHA
 10
1689.444643
 20
284.050732
 30
0.0
  0
SEQEND
  5
22E9F
  8
ALPHA
  0
POLYLINE
  5
1F7A5
  8
ALPHA
 66
     1
 10
0.0
 20
0.0
 30
0.0
  0
VERTEX
  5
22EA0
  8
ALPHA
 10
1689.444643
 20
294.660363
 30
0.0
  0
VERTEX
  5
22EA1
  8
ALPHA
 10
1689.434136
 20
294.539074
 30
0.0
  0
VERTEX
  5
22EA2
  8
ALPHA
 10
1689.425317
 20
294.197049
 30
0.0
  0
VERTEX
  5
22EA3
  8
ALPHA
 10
1689.41952
 20
293.693385
 30
0.0
  0
VERTEX
  5
22EA4
  8
ALPHA
 10
1689.417505
 20
293.105548
 30
0.0
  0
VERTEX
  5
22EA5
  8
ALPHA
 10
1689.41952
 20
292.51771
 30
0.0
  0
VERTEX
  5
22EA6
  8
ALPHA
 10
1689.425317
 20
292.014047
 30
0.0
  0
VERTEX
  5
22EA7
  8
ALPHA
 10
1689.434136
 20
291.672022
 30
0.0
  0
VERTEX
  5
22EA8
  8
ALPHA
 10
1689.444643
 20
291.550732
 30
0.0
  0
SEQEND
  5
22EA9
  8
ALPHA
  0
POLYLINE
  5
1F7B0
  8
ALPHA
 66
     1
 10
0.0
 20
0.0
 30
0.0
  0
VERTEX
  5
22EAA
  8
ALPHA
 10
1689.444643
 20
302.160363
 30
0.0
  0
VERTEX
  5
22EAB
  8
ALPHA
 10
1689.434136
 20
302.039074
 30
0.0
  0
VERTEX
  5
22EAC
  8
ALPHA
 10
1689.425317
 20
301.697049
 30
0.0
  0
VERTEX
  5
22EAD
  8
ALPHA
 10
1689.41952
 20
301.193385
 30
0.0
  0
VERTEX
  5
22EAE
  8
ALPHA
 10
1689.417505
 20
300.605548
 30
0.0
  0
VERTEX
  5
22EAF
  8
ALPHA
 10
1689.41952
 20
300.01771
 30
0.0
  0
VERTEX
  5
22EB0
  8
ALPHA
 10
1689.425317
 20
299.514047
 30
0.0
  0
VERTEX
  5
22EB1
  8
ALPHA
 10
1689.434136
 20
299.172022
 30
0.0
  0
VERTEX
  5
22EB2
  8
ALPHA
 10
1689.444643
 20
299.050732
 30
0.0
  0
SEQEND
  5
22EB3
  8
ALPHA
  0
POLYLINE
  5
1F7BB
  8
ALPHA
 66
     1
 10
0.0
 20
0.0
 30
0.0
  0
VERTEX
  5
22EB4
  8
ALPHA
 10
1682.8208
 20
307.66616
 30
0.0
  0
VERTEX
  5
22EB5
  8
ALPHA
 10
1682.820345
 20
307.532922
 30
0.0
  0
VERTEX
  5
22EB6
  8
ALPHA
 10
1682.819022
 20
307.40951
 30
0.0
  0
VERTEX
  5
22EB7
  8
ALPHA
 10
1682.816929
 20
307.304005
 30
0.0
  0
VERTEX
  5
22EB8
  8
ALPHA
 10
1682.814213
 20
307.223324
 30
0.0
  0
VERTEX
  5
22EB9
  8
ALPHA
 10
1682.811066
 20
307.172661
 30
0.0
  0
VERTEX
  5
22EBA
  8
ALPHA
 10
1682.807707
 20
307.155107
 30
0.0
  0
SEQEND
  5
22EBB
  8
ALPHA
  0
LINE
  5
1F7C4
  8
ALPHA
 10
1682.8208
 20
307.66616
 30
0.0
 11
1682.8208
 21
309.298998
 31
0.0
  0
LINE
  5
1F7C5
  8
ALPHA
 10
1682.789377
 20
307.152039
 30
0.0
 11
1682.789377
 21
309.269708
 31
0.0
  0
LINE
  5
1F7C6
  8
ALPHA
 10
1681.652223
 20
307.152039
 30
0.0
 11
1681.652223
 21
309.269708
 31
0.0
  0
LINE
  5
1F7C7
  8
ALPHA
 10
1681.6208
 20
307.66616
 30
0.0
 11
1681.6208
 21
309.298998
 31
0.0
  0
POLYLINE
  5
1F7C8
  8
ALPHA
 66
     1
 10
0.0
 20
0.0
 30
0.0
  0
VERTEX
  5
22EBC
  8
ALPHA
 10
1681.6208
 20
307.66616
 30
0.0
  0
VERTEX
  5
22EBD
  8
ALPHA
 10
1681.621254
 20
307.532922
 30
0.0
  0
VERTEX
  5
22EBE
  8
ALPHA
 10
1681.622577
 20
307.40951
 30
0.0
  0
VERTEX
  5
22EBF
  8
ALPHA
 10
1681.624671
 20
307.304005
 30
0.0
  0
VERTEX
  5
22EC0
  8
ALPHA
 10
1681.627386
 20
307.223324
 30
0.0
  0
VERTEX
  5
22EC1
  8
ALPHA
 10
1681.630533
 20
307.172661
 30
0.0
  0
VERTEX
  5
22EC2
  8
ALPHA
 10
1681.633893
 20
307.155107
 30
0.0
  0
SEQEND
  5
22EC3
  8
ALPHA
  0
LINE
  5
1F7D1
  8
ALPHA
 10
1669.91402
 20
316.806493
 30
0.0
 11
1687.865817
 21
316.850337
 31
0.0
  0
ARC
  5
1F7D2
  8
ALPHA
 10
1683.274079
 20
312.42988
 30
0.0
 40
0.688158
 50
193.266405
 51
286.733595
  0
ARC
  5
1F7D3
  8
ALPHA
 10
1681.167521
 20
312.42988
 30
0.0
 40
0.688158
 50
253.266405
 51
346.733595
  0
ARC
  5
1F7D4
  8
ALPHA
 10
1682.2208
 20
312.181548
 30
0.0
 40
0.394
 50
13.266405
 51
166.733595
  0
ARC
  5
1F7D5
  8
ALPHA
 10
1682.2208
 20
310.605548
 30
0.0
 40
3.5
 50
80.650837
 51
99.349163
  0
ARC
  5
1F7D6
  8
ALPHA
 10
1680.855944
 20
311.393548
 30
0.0
 40
0.394
 50
73.266405
 51
226.733595
  0
ARC
  5
1F7D7
  8
ALPHA
 10
1683.585656
 20
311.393548
 30
0.0
 40
0.394
 50
313.266405
 51
106.733595
  0
ARC
  5
1F7D8
  8
ALPHA
 10
1684.327358
 20
310.605548
 30
0.0
 40
0.688158
 50
133.266405
 51
226.733595
  0
ARC
  5
1F7D9
  8
ALPHA
 10
1680.114242
 20
310.605548
 30
0.0
 40
0.688158
 50
313.266405
 51
46.733595
  0
POLYLINE
  5
1F7DA
  8
ALPHA
 66
     1
 10
0.0
 20
0.0
 30
0.0
  0
VERTEX
  5
22EC4
  8
ALPHA
 10
1687.865819
 20
316.850338
 30
0.0
  0
VERTEX
  5
22EC5
  8
ALPHA
 10
1688.440912
 20
316.735521
 30
0.0
  0
VERTEX
  5
22EC6
  8
ALPHA
 10
1688.927868
 20
316.409189
 30
0.0
  0
VERTEX
  5
22EC7
  8
ALPHA
 10
1689.25277
 20
315.920831
 30
0.0
  0
VERTEX
  5
22EC8
  8
ALPHA
 10
1689.36559
 20
315.350567
 30
0.0
  0
SEQEND
  5
22EC9
  8
ALPHA
  0
POLYLINE
  5
1F7E1
  8
ALPHA
 66
     1
 10
0.0
 20
0.0
 30
0.0
  0
VERTEX
  5
22ECA
  8
ALPHA
 10
1688.321028
 20
317.305548
 30
0.0
  0
VERTEX
  5
22ECB
  8
ALPHA
 10
1688.89498
 20
317.191402
 30
0.0
  0
VERTEX
  5
22ECC
  8
ALPHA
 10
1689.381554
 20
316.866302
 30
0.0
  0
VERTEX
  5
22ECD
  8
ALPHA
 10
1689.706654
 20
316.379728
 30
0.0
  0
VERTEX
  5
22ECE
  8
ALPHA
 10
1689.8208
 20
315.805776
 30
0.0
  0
SEQEND
  5
22ECF
  8
ALPHA
  0
LINE
  5
1F7E8
  8
ALPHA
 10
1682.789377
 20
314.059056
 30
0.0
 11
1682.807707
 21
314.055988
 31
0.0
  0
POLYLINE
  5
1F7E9
  8
ALPHA
 66
     1
 10
0.0
 20
0.0
 30
0.0
  0
VERTEX
  5
22ED0
  8
ALPHA
 10
1682.248956
 20
316.801779
 30
0.0
  0
VERTEX
  5
22ED1
  8
ALPHA
 10
1682.522713
 20
316.779958
 30
0.0
  0
VERTEX
  5
22ED2
  8
ALPHA
 10
1682.819313
 20
316.714471
 30
0.0
  0
VERTEX
  5
22ED3
  8
ALPHA
 10
1683.133557
 20
316.598509
 30
0.0
  0
VERTEX
  5
22ED4
  8
ALPHA
 10
1683.466212
 20
316.41843
 30
0.0
  0
VERTEX
  5
22ED5
  8
ALPHA
 10
1683.822713
 20
316.157649
 30
0.0
  0
VERTEX
  5
22ED6
  8
ALPHA
 10
1684.197343
 20
315.797828
 30
0.0
  0
VERTEX
  5
22ED7
  8
ALPHA
 10
1684.566443
 20
315.341042
 30
0.0
  0
SEQEND
  5
22ED8
  8
ALPHA
  0
POLYLINE
  5
1F7F3
  8
ALPHA
 66
     1
 10
0.0
 20
0.0
 30
0.0
  0
VERTEX
  5
22ED9
  8
ALPHA
 10
1682.2208
 20
314.824406
 30
0.0
  0
VERTEX
  5
22EDA
  8
ALPHA
 10
1682.435708
 20
314.818785
 30
0.0
  0
VERTEX
  5
22EDB
  8
ALPHA
 10
1682.661102
 20
314.801599
 30
0.0
  0
VERTEX
  5
22EDC
  8
ALPHA
 10
1682.896636
 20
314.770705
 30
0.0
  0
VERTEX
  5
22EDD
  8
ALPHA
 10
1683.147706
 20
314.722663
 30
0.0
  0
VERTEX
  5
22EDE
  8
ALPHA
 10
1683.417706
 20
314.652842
 30
0.0
  0
VERTEX
  5
22EDF
  8
ALPHA
 10
1683.705831
 20
314.556305
 30
0.0
  0
VERTEX
  5
22EE0
  8
ALPHA
 10
1683.99629
 20
314.433991
 30
0.0
  0
SEQEND
  5
22EE1
  8
ALPHA
  0
LINE
  5
1F7FD
  8
ALPHA
 10
1688.100658
 20
315.341043
 30
0.0
 11
1684.566438
 21
315.350565
 31
0.0
  0
LINE
  5
1F7FE
  8
ALPHA
 10
1689.36559
 20
315.350567
 30
0.0
 11
1688.100658
 21
315.350567
 31
0.0
  0
POLYLINE
  5
1F7FF
  8
ALPHA
 66
     1
 10
0.0
 20
0.0
 30
0.0
  0
VERTEX
  5
22EE2
  8
ALPHA
 10
1687.865819
 20
316.850338
 30
0.0
  0
VERTEX
  5
22EE3
  8
ALPHA
 10
1687.95481
 20
316.727831
 30
0.0
  0
VERTEX
  5
22EE4
  8
ALPHA
 10
1688.030552
 20
316.398727
 30
0.0
  0
VERTEX
  5
22EE5
  8
ALPHA
 10
1688.081709
 20
315.912464
 30
0.0
  0
VERTEX
  5
22EE6
  8
ALPHA
 10
1688.100658
 20
315.350567
 30
0.0
  0
SEQEND
  5
22EE7
  8
ALPHA
  0
LINE
  5
1F806
  8
ALPHA
 10
1681.652223
 20
314.059056
 30
0.0
 11
1681.633893
 21
314.055988
 31
0.0
  0
POLYLINE
  5
1F807
  8
ALPHA
 66
     1
 10
0.0
 20
0.0
 30
0.0
  0
VERTEX
  5
22EE8
  8
ALPHA
 10
1680.114316
 20
315.329686
 30
0.0
  0
VERTEX
  5
22EE9
  8
ALPHA
 10
1680.297683
 20
314.897341
 30
0.0
  0
VERTEX
  5
22EEA
  8
ALPHA
 10
1680.402453
 20
314.569888
 30
0.0
  0
VERTEX
  5
22EEB
  8
ALPHA
 10
1680.403208
 20
314.426772
 30
0.0
  0
SEQEND
  5
22EEC
  8
ALPHA
  0
POLYLINE
  5
1F80D
  8
ALPHA
 66
     1
 10
0.0
 20
0.0
 30
0.0
  0
VERTEX
  5
22EED
  8
ALPHA
 10
1682.248956
 20
316.801779
 30
0.0
  0
VERTEX
  5
22EEE
  8
ALPHA
 10
1682.296635
 20
316.633241
 30
0.0
  0
VERTEX
  5
22EEF
  8
ALPHA
 10
1682.331223
 20
316.3267
 30
0.0
  0
VERTEX
  5
22EF0
  8
ALPHA
 10
1682.34685
 20
315.934445
 30
0.0
  0
VERTEX
  5
22EF1
  8
ALPHA
 10
1682.340893
 20
315.523391
 30
0.0
  0
VERTEX
  5
22EF2
  8
ALPHA
 10
1682.314409
 20
315.163658
 30
0.0
  0
VERTEX
  5
22EF3
  8
ALPHA
 10
1682.271951
 20
314.916611
 30
0.0
  0
VERTEX
  5
22EF4
  8
ALPHA
 10
1682.2208
 20
314.824392
 30
0.0
  0
SEQEND
  5
22EF5
  8
ALPHA
  0
POLYLINE
  5
1F817
  8
ALPHA
 66
     1
 10
0.0
 20
0.0
 30
0.0
  0
VERTEX
  5
22EF6
  8
ALPHA
 10
1681.6208
 20
313.544935
 30
0.0
  0
VERTEX
  5
22EF7
  8
ALPHA
 10
1681.621254
 20
313.678173
 30
0.0
  0
VERTEX
  5
22EF8
  8
ALPHA
 10
1681.622577
 20
313.801585
 30
0.0
  0
VERTEX
  5
22EF9
  8
ALPHA
 10
1681.624671
 20
313.90709
 30
0.0
  0
VERTEX
  5
22EFA
  8
ALPHA
 10
1681.627386
 20
313.987772
 30
0.0
  0
VERTEX
  5
22EFB
  8
ALPHA
 10
1681.630533
 20
314.038434
 30
0.0
  0
VERTEX
  5
22EFC
  8
ALPHA
 10
1681.633893
 20
314.055988
 30
0.0
  0
SEQEND
  5
22EFD
  8
ALPHA
  0
LINE
  5
1F820
  8
ALPHA
 10
1682.8208
 20
311.912097
 30
0.0
 11
1682.8208
 21
313.544935
 31
0.0
  0
LINE
  5
1F821
  8
ALPHA
 10
1682.789377
 20
311.941387
 30
0.0
 11
1682.789377
 21
314.059056
 31
0.0
  0
LINE
  5
1F822
  8
ALPHA
 10
1681.652223
 20
311.941387
 30
0.0
 11
1681.652223
 21
314.059056
 31
0.0
  0
LINE
  5
1F823
  8
ALPHA
 10
1681.6208
 20
311.912097
 30
0.0
 11
1681.6208
 21
313.544935
 31
0.0
  0
POLYLINE
  5
1F824
  8
ALPHA
 66
     1
 10
0.0
 20
0.0
 30
0.0
  0
VERTEX
  5
22EFE
  8
ALPHA
 10
1682.8208
 20
313.544935
 30
0.0
  0
VERTEX
  5
22EFF
  8
ALPHA
 10
1682.820345
 20
313.678173
 30
0.0
  0
VERTEX
  5
22F00
  8
ALPHA
 10
1682.819022
 20
313.801585
 30
0.0
  0
VERTEX
  5
22F01
  8
ALPHA
 10
1682.816929
 20
313.90709
 30
0.0
  0
VERTEX
  5
22F02
  8
ALPHA
 10
1682.814213
 20
313.987772
 30
0.0
  0
VERTEX
  5
22F03
  8
ALPHA
 10
1682.811066
 20
314.038434
 30
0.0
  0
VERTEX
  5
22F04
  8
ALPHA
 10
1682.807707
 20
314.055988
 30
0.0
  0
SEQEND
  5
22F05
  8
ALPHA
  0
POLYLINE
  5
1F82D
  8
ALPHA
 66
     1
 10
0.0
 20
0.0
 30
0.0
  0
VERTEX
  5
22F06
  8
ALPHA
 10
1684.566437
 20
315.341043
 30
0.0
  0
VERTEX
  5
22F07
  8
ALPHA
 10
1684.391505
 20
314.984014
 30
0.0
  0
VERTEX
  5
22F08
  8
ALPHA
 10
1684.220671
 20
314.684501
 30
0.0
  0
VERTEX
  5
22F09
  8
ALPHA
 10
1684.081456
 20
314.490754
 30
0.0
  0
VERTEX
  5
22F0A
  8
ALPHA
 10
1683.996287
 20
314.433986
 30
0.0
  0
SEQEND
  5
22F0B
  8
ALPHA
  0
LINE
  5
1F834
  8
ALPHA
 10
1689.36559
 20
315.350567
 30
0.0
 11
1689.8208
 21
315.805776
 31
0.0
  0
POLYLINE
  5
1F835
  8
ALPHA
 66
     1
 10
0.0
 20
0.0
 30
0.0
  0
VERTEX
  5
22F0C
  8
ALPHA
 10
1680.114316
 20
315.329686
 30
0.0
  0
VERTEX
  5
22F0D
  8
ALPHA
 10
1680.439407
 20
315.755465
 30
0.0
  0
VERTEX
  5
22F0E
  8
ALPHA
 10
1680.757653
 20
316.102416
 30
0.0
  0
VERTEX
  5
22F0F
  8
ALPHA
 10
1681.048537
 20
316.358498
 30
0.0
  0
VERTEX
  5
22F10
  8
ALPHA
 10
1681.312601
 20
316.540014
 30
0.0
  0
VERTEX
  5
22F11
  8
ALPHA
 10
1681.553778
 20
316.663446
 30
0.0
  0
VERTEX
  5
22F12
  8
ALPHA
 10
1681.777631
 20
316.742462
 30
0.0
  0
VERTEX
  5
22F13
  8
ALPHA
 10
1681.999056
 20
316.787236
 30
0.0
  0
VERTEX
  5
22F14
  8
ALPHA
 10
1682.248956
 20
316.801786
 30
0.0
  0
SEQEND
  5
22F15
  8
ALPHA
  0
LINE
  5
1F840
  8
ALPHA
 10
1687.865817
 20
316.850337
 30
0.0
 11
1688.321028
 21
317.305548
 31
0.0
  0
POLYLINE
  5
1F841
  8
ALPHA
 66
     1
 10
0.0
 20
0.0
 30
0.0
  0
VERTEX
  5
22F16
  8
ALPHA
 10
1680.403206
 20
314.426776
 30
0.0
  0
VERTEX
  5
22F17
  8
ALPHA
 10
1680.671301
 20
314.541848
 30
0.0
  0
VERTEX
  5
22F18
  8
ALPHA
 10
1680.94031
 20
314.635581
 30
0.0
  0
VERTEX
  5
22F19
  8
ALPHA
 10
1681.190433
 20
314.704697
 30
0.0
  0
VERTEX
  5
22F1A
  8
ALPHA
 10
1681.419718
 20
314.753656
 30
0.0
  0
VERTEX
  5
22F1B
  8
ALPHA
 10
1681.629999
 20
314.786953
 30
0.0
  0
VERTEX
  5
22F1C
  8
ALPHA
 10
1681.82465
 20
314.808206
 30
0.0
  0
VERTEX
  5
22F1D
  8
ALPHA
 10
1682.015465
 20
314.820386
 30
0.0
  0
VERTEX
  5
22F1E
  8
ALPHA
 10
1682.2208
 20
314.824406
 30
0.0
  0
SEQEND
  5
22F1F
  8
ALPHA
  0
POLYLINE
  5
1F84C
  8
ALPHA
 66
     1
 10
0.0
 20
0.0
 30
0.0
  0
VERTEX
  5
22F20
  8
ALPHA
 10
1814.248127
 20
95.77333
 30
0.0
  0
VERTEX
  5
22F21
  8
ALPHA
 10
1814.186321
 20
96.137865
 30
0.0
  0
VERTEX
  5
22F22
  8
ALPHA
 10
1814.104649
 20
96.539664
 30
0.0
  0
VERTEX
  5
22F23
  8
ALPHA
 10
1813.997897
 20
96.98223
 30
0.0
  0
VERTEX
  5
22F24
  8
ALPHA
 10
1813.859575
 20
97.469009
 30
0.0
  0
VERTEX
  5
22F25
  8
ALPHA
 10
1813.681791
 20
98.002778
 30
0.0
  0
VERTEX
  5
22F26
  8
ALPHA
 10
1813.455536
 20
98.584219
 30
0.0
  0
VERTEX
  5
22F27
  8
ALPHA
 10
1813.170036
 20
99.213296
 30
0.0
  0
SEQEND
  5
22F28
  8
ALPHA
  0
POLYLINE
  5
1F856
  8
ALPHA
 66
     1
 10
0.0
 20
0.0
 30
0.0
  0
VERTEX
  5
22F29
  8
ALPHA
 10
1814.20684
 20
94.349927
 30
0.0
  0
VERTEX
  5
22F2A
  8
ALPHA
 10
1814.225187
 20
94.266862
 30
0.0
  0
VERTEX
  5
22F2B
  8
ALPHA
 10
1814.238103
 20
94.171715
 30
0.0
  0
VERTEX
  5
22F2C
  8
ALPHA
 10
1814.246001
 20
94.066886
 30
0.0
  0
VERTEX
  5
22F2D
  8
ALPHA
 10
1814.248706
 20
93.955906
 30
0.0
  0
VERTEX
  5
22F2E
  8
ALPHA
 10
1814.246033
 20
93.844848
 30
0.0
  0
VERTEX
  5
22F2F
  8
ALPHA
 10
1814.23815
 20
93.739828
 30
0.0
  0
VERTEX
  5
22F30
  8
ALPHA
 10
1814.225218
 20
93.644411
 30
0.0
  0
VERTEX
  5
22F31
  8
ALPHA
 10
1814.20684
 20
93.561168
 30
0.0
  0
SEQEND
  5
22F32
  8
ALPHA
  0
POLYLINE
  5
1F861
  8
ALPHA
 66
     1
 10
0.0
 20
0.0
 30
0.0
  0
VERTEX
  5
22F33
  8
ALPHA
 10
1814.122259
 20
92.210979
 30
0.0
  0
VERTEX
  5
22F34
  8
ALPHA
 10
1814.104516
 20
92.290989
 30
0.0
  0
VERTEX
  5
22F35
  8
ALPHA
 10
1814.093538
 20
92.404999
 30
0.0
  0
VERTEX
  5
22F36
  8
ALPHA
 10
1814.089562
 20
92.552941
 30
0.0
  0
VERTEX
  5
22F37
  8
ALPHA
 10
1814.093365
 20
92.725007
 30
0.0
  0
VERTEX
  5
22F38
  8
ALPHA
 10
1814.104467
 20
92.905716
 30
0.0
  0
VERTEX
  5
22F39
  8
ALPHA
 10
1814.122301
 20
93.08916
 30
0.0
  0
VERTEX
  5
22F3A
  8
ALPHA
 10
1814.146683
 20
93.270002
 30
0.0
  0
VERTEX
  5
22F3B
  8
ALPHA
 10
1814.175733
 20
93.431701
 30
0.0
  0
VERTEX
  5
22F3C
  8
ALPHA
 10
1814.20684
 20
93.561168
 30
0.0
  0
SEQEND
  5
22F3D
  8
ALPHA
  0
POLYLINE
  5
1F86D
  8
ALPHA
 66
     1
 10
0.0
 20
0.0
 30
0.0
  0
VERTEX
  5
22F3E
  8
ALPHA
 10
1814.20684
 20
94.349927
 30
0.0
  0
VERTEX
  5
22F3F
  8
ALPHA
 10
1814.176414
 20
94.47612
 30
0.0
  0
VERTEX
  5
22F40
  8
ALPHA
 10
1814.147967
 20
94.632912
 30
0.0
  0
VERTEX
  5
22F41
  8
ALPHA
 10
1814.123942
 20
94.807878
 30
0.0
  0
VERTEX
  5
22F42
  8
ALPHA
 10
1814.106001
 20
94.986488
 30
0.0
  0
VERTEX
  5
22F43
  8
ALPHA
 10
1814.094352
 20
95.164188
 30
0.0
  0
VERTEX
  5
22F44
  8
ALPHA
 10
1814.089622
 20
95.335257
 30
0.0
  0
VERTEX
  5
22F45
  8
ALPHA
 10
1814.092401
 20
95.484552
 30
0.0
  0
VERTEX
  5
22F46
  8
ALPHA
 10
1814.102009
 20
95.601738
 30
0.0
  0
SEQEND
  5
22F47
  8
ALPHA
  0
POLYLINE
  5
1F878
  8
ALPHA
 66
     1
 10
0.0
 20
0.0
 30
0.0
  0
VERTEX
  5
22F48
  8
ALPHA
 10
1813.164049
 20
88.685577
 30
0.0
  0
VERTEX
  5
22F49
  8
ALPHA
 10
1813.446004
 20
89.304219
 30
0.0
  0
VERTEX
  5
22F4A
  8
ALPHA
 10
1813.670665
 20
89.877492
 30
0.0
  0
VERTEX
  5
22F4B
  8
ALPHA
 10
1813.848371
 20
90.405815
 30
0.0
  0
VERTEX
  5
22F4C
  8
ALPHA
 10
1813.987722
 20
90.890207
 30
0.0
  0
VERTEX
  5
22F4D
  8
ALPHA
 10
1814.096234
 20
91.333672
 30
0.0
  0
VERTEX
  5
22F4E
  8
ALPHA
 10
1814.180096
 20
91.739935
 30
0.0
  0
VERTEX
  5
22F4F
  8
ALPHA
 10
1814.243977
 20
92.112925
 30
0.0
  0
SEQEND
  5
22F50
  8
ALPHA
  0
POLYLINE
  5
1F882
  8
ALPHA
 66
     1
 10
0.0
 20
0.0
 30
0.0
  0
VERTEX
  5
22F51
  8
ALPHA
 10
1814.245962
 20
95.648422
 30
0.0
  0
VERTEX
  5
22F52
  8
ALPHA
 10
1814.23779
 20
95.608299
 30
0.0
  0
VERTEX
  5
22F53
  8
ALPHA
 10
1814.224008
 20
95.589736
 30
0.0
  0
VERTEX
  5
22F54
  8
ALPHA
 10
1814.218949
 20
95.588689
 30
0.0
  0
SEQEND
  5
22F55
  8
ALPHA
  0
POLYLINE
  5
1F888
  8
ALPHA
 66
     1
 10
0.0
 20
0.0
 30
0.0
  0
VERTEX
  5
22F56
  8
ALPHA
 10
1814.190918
 20
93.351222
 30
0.0
  0
VERTEX
  5
22F57
  8
ALPHA
 10
1814.161171
 20
93.200412
 30
0.0
  0
VERTEX
  5
22F58
  8
ALPHA
 10
1814.134459
 20
93.02526
 30
0.0
  0
VERTEX
  5
22F59
  8
ALPHA
 10
1814.113121
 20
92.840294
 30
0.0
  0
VERTEX
  5
22F5A
  8
ALPHA
 10
1814.098551
 20
92.66076
 30
0.0
  0
VERTEX
  5
22F5B
  8
ALPHA
 10
1814.091055
 20
92.497385
 30
0.0
  0
SEQEND
  5
22F5C
  8
ALPHA
  0
POLYLINE
  5
1F890
  8
ALPHA
 66
     1
 10
0.0
 20
0.0
 30
0.0
  0
VERTEX
  5
22F5D
  8
ALPHA
 10
1814.102009
 20
95.601738
 30
0.0
  0
VERTEX
  5
22F5E
  8
ALPHA
 10
1814.118181
 20
95.687116
 30
0.0
  0
VERTEX
  5
22F5F
  8
ALPHA
 10
1814.140739
 20
95.73509
 30
0.0
  0
VERTEX
  5
22F60
  8
ALPHA
 10
1814.156667
 20
95.743048
 30
0.0
  0
SEQEND
  5
22F61
  8
ALPHA
  0
LINE
  5
1F896
  8
ALPHA
 10
1814.190918
 20
93.351222
 30
0.0
 11
1814.215318
 21
93.481756
 31
0.0
  0
POLYLINE
  5
1F897
  8
ALPHA
 66
     1
 10
0.0
 20
0.0
 30
0.0
  0
VERTEX
  5
22F62
  8
ALPHA
 10
1814.108141
 20
95.588689
 30
0.0
  0
VERTEX
  5
22F63
  8
ALPHA
 10
1814.097174
 20
95.522777
 30
0.0
  0
VERTEX
  5
22F64
  8
ALPHA
 10
1814.091456
 20
95.433786
 30
0.0
  0
SEQEND
  5
22F65
  8
ALPHA
  0
POLYLINE
  5
1F89C
  8
ALPHA
 66
     1
 10
0.0
 20
0.0
 30
0.0
  0
VERTEX
  5
22F66
  8
ALPHA
 10
1814.215318
 20
93.481756
 30
0.0
  0
VERTEX
  5
22F67
  8
ALPHA
 10
1814.232485
 20
93.618385
 30
0.0
  0
VERTEX
  5
22F68
  8
ALPHA
 10
1814.243516
 20
93.762338
 30
0.0
  0
VERTEX
  5
22F69
  8
ALPHA
 10
1814.248454
 20
93.912685
 30
0.0
  0
VERTEX
  5
22F6A
  8
ALPHA
 10
1814.248237
 20
93.936397
 30
0.0
  0
SEQEND
  5
22F6B
  8
ALPHA
  0
LINE
  5
1F8A3
  8
ALPHA
 10
1814.244274
 20
92.112874
 30
0.0
 11
1814.248262
 21
92.180453
 31
0.0
  0
LINE
  5
1F8A4
  8
ALPHA
 10
1814.248705
 20
95.707858
 30
0.0
 11
1814.245962
 21
95.648422
 31
0.0
  0
LINE
  5
1F8A5
  8
ALPHA
 10
1814.248091
 20
95.71725
 30
0.0
 11
1814.248127
 21
95.77333
 31
0.0
  0
LINE
  5
1F8A6
  8
ALPHA
 10
1812.813105
 20
88.023432
 30
0.0
 11
1812.813105
 21
99.887664
 31
0.0
  0
LINE
  5
1F8A7
  8
ALPHA
 10
1812.2208
 20
99.887664
 30
0.0
 11
1812.2208
 21
99.955506
 31
0.0
  0
LINE
  5
1F8A8
  8
ALPHA
 10
1812.2208
 20
87.955589
 30
0.0
 11
1812.2208
 21
88.023432
 31
0.0
  0
POLYLINE
  5
1F8A9
  8
ALPHA
 66
     1
 10
0.0
 20
0.0
 30
0.0
  0
VERTEX
  5
22F6C
  8
ALPHA
 10
1814.248262
 20
92.180453
 30
0.0
  0
VERTEX
  5
22F6D
  8
ALPHA
 10
1814.24811
 20
92.225689
 30
0.0
  0
VERTEX
  5
22F6E
  8
ALPHA
 10
1814.243776
 20
92.256553
 30
0.0
  0
VERTEX
  5
22F6F
  8
ALPHA
 10
1814.23459
 20
92.268093
 30
0.0
  0
SEQEND
  5
22F70
  8
ALPHA
  0
POLYLINE
  5
1F8AF
  8
ALPHA
 66
     1
 10
0.0
 20
0.0
 30
0.0
  0
VERTEX
  5
22F71
  8
ALPHA
 10
1814.247668
 20
93.998514
 30
0.0
  0
VERTEX
  5
22F72
  8
ALPHA
 10
1814.247061
 20
94.06477
 30
0.0
  0
VERTEX
  5
22F73
  8
ALPHA
 10
1814.239423
 20
94.212698
 30
0.0
  0
SEQEND
  5
22F74
  8
ALPHA
  0
POLYLINE
  5
1F8B4
  8
ALPHA
 66
     1
 10
0.0
 20
0.0
 30
0.0
  0
VERTEX
  5
22F75
  8
ALPHA
 10
1814.091541
 20
95.265838
 30
0.0
  0
VERTEX
  5
22F76
  8
ALPHA
 10
1814.097121
 20
95.148699
 30
0.0
  0
VERTEX
  5
22F77
  8
ALPHA
 10
1814.109725
 20
95.005817
 30
0.0
  0
VERTEX
  5
22F78
  8
ALPHA
 10
1814.128246
 20
94.86126
 30
0.0
  0
VERTEX
  5
22F79
  8
ALPHA
 10
1814.151461
 20
94.727281
 30
0.0
  0
VERTEX
  5
22F7A
  8
ALPHA
 10
1814.177238
 20
94.61551
 30
0.0
  0
SEQEND
  5
22F7B
  8
ALPHA
  0
POLYLINE
  5
1F8BC
  8
ALPHA
 66
     1
 10
0.0
 20
0.0
 30
0.0
  0
VERTEX
  5
22F7C
  8
ALPHA
 10
1814.239423
 20
94.212698
 30
0.0
  0
VERTEX
  5
22F7D
  8
ALPHA
 10
1814.225741
 20
94.353504
 30
0.0
  0
VERTEX
  5
22F7E
  8
ALPHA
 10
1814.205584
 20
94.487499
 30
0.0
  0
VERTEX
  5
22F7F
  8
ALPHA
 10
1814.177238
 20
94.61551
 30
0.0
  0
SEQEND
  5
22F80
  8
ALPHA
  0
LINE
  5
1F8C2
  8
ALPHA
 10
1813.170036
 20
99.213296
 30
0.0
 11
1812.813105
 21
99.887664
 31
0.0
  0
POLYLINE
  5
1F8C3
  8
ALPHA
 66
     1
 10
0.0
 20
0.0
 30
0.0
  0
VERTEX
  5
22F81
  8
ALPHA
 10
1814.198061
 20
95.700493
 30
0.0
  0
VERTEX
  5
22F82
  8
ALPHA
 10
1814.218342
 20
95.669383
 30
0.0
  0
VERTEX
  5
22F83
  8
ALPHA
 10
1814.230184
 20
95.662602
 30
0.0
  0
SEQEND
  5
22F84
  8
ALPHA
  0
POLYLINE
  5
1F8C8
  8
ALPHA
 66
     1
 10
0.0
 20
0.0
 30
0.0
  0
VERTEX
  5
22F85
  8
ALPHA
 10
1814.20684
 20
92.229124
 30
0.0
  0
VERTEX
  5
22F86
  8
ALPHA
 10
1814.175568
 20
92.177616
 30
0.0
  0
VERTEX
  5
22F87
  8
ALPHA
 10
1814.156613
 20
92.168048
 30
0.0
  0
SEQEND
  5
22F88
  8
ALPHA
  0
LINE
  5
1F8CD
  8
ALPHA
 10
1812.813105
 20
88.023432
 30
0.0
 11
1813.164049
 21
88.685577
 31
0.0
  0
POLYLINE
  5
1F8CE
  8
ALPHA
 66
     1
 10
0.0
 20
0.0
 30
0.0
  0
VERTEX
  5
22F89
  8
ALPHA
 10
1814.23459
 20
92.268093
 30
0.0
  0
VERTEX
  5
22F8A
  8
ALPHA
 10
1814.222465
 20
92.258489
 30
0.0
  0
VERTEX
  5
22F8B
  8
ALPHA
 10
1814.20684
 20
92.229124
 30
0.0
  0
SEQEND
  5
22F8C
  8
ALPHA
  0
POLYLINE
  5
1F8D3
  8
ALPHA
 66
     1
 10
0.0
 20
0.0
 30
0.0
  0
VERTEX
  5
22F8D
  8
ALPHA
 10
1814.156667
 20
95.743048
 30
0.0
  0
VERTEX
  5
22F8E
  8
ALPHA
 10
1814.168124
 20
95.739414
 30
0.0
  0
VERTEX
  5
22F8F
  8
ALPHA
 10
1814.198061
 20
95.700493
 30
0.0
  0
SEQEND
  5
22F90
  8
ALPHA
  0
POLYLINE
  5
1F8D8
  8
ALPHA
 66
     1
 10
0.0
 20
0.0
 30
0.0
  0
VERTEX
  5
22F91
  8
ALPHA
 10
1814.156613
 20
92.168048
 30
0.0
  0
VERTEX
  5
22F92
  8
ALPHA
 10
1814.146521
 20
92.171154
 30
0.0
  0
VERTEX
  5
22F93
  8
ALPHA
 10
1814.122259
 20
92.210979
 30
0.0
  0
SEQEND
  5
22F94
  8
ALPHA
  0
LINE
  5
1F8DD
  8
ALPHA
 10
1812.2208
 20
99.955548
 30
0.0
 11
1809.8208
 21
99.955548
 31
0.0
  0
LINE
  5
1F8DE
  8
ALPHA
 10
1812.813105
 20
99.887664
 30
0.0
 11
1812.2208
 21
99.887664
 31
0.0
  0
LINE
  5
1F8DF
  8
ALPHA
 10
1814.198061
 20
95.700493
 30
0.0
 11
1814.124471
 21
95.700493
 31
0.0
  0
LINE
  5
1F8E0
  8
ALPHA
 10
1814.113538
 20
95.662602
 30
0.0
 11
1814.229708
 21
95.662602
 31
0.0
  0
LINE
  5
1F8E1
  8
ALPHA
 10
1814.100939
 20
95.588689
 30
0.0
 11
1814.218298
 21
95.588689
 31
0.0
  0
LINE
  5
1F8E2
  8
ALPHA
 10
1814.177238
 20
94.61551
 30
0.0
 11
1814.151124
 21
94.61551
 31
0.0
  0
LINE
  5
1F8E3
  8
ALPHA
 10
1814.190918
 20
93.351222
 30
0.0
 11
1814.161274
 21
93.351222
 31
0.0
  0
LINE
  5
1F8E4
  8
ALPHA
 10
1814.109593
 20
92.268093
 30
0.0
 11
1814.234499
 21
92.268093
 31
0.0
  0
LINE
  5
1F8E5
  8
ALPHA
 10
1814.20684
 20
92.229124
 30
0.0
 11
1814.118235
 21
92.229124
 31
0.0
  0
LINE
  5
1F8E6
  8
ALPHA
 10
1812.813105
 20
88.023432
 30
0.0
 11
1812.2208
 21
88.023432
 31
0.0
  0
LINE
  5
1F8E7
  8
ALPHA
 10
1812.2208
 20
87.955548
 30
0.0
 11
1809.8208
 21
87.955548
 31
0.0
  0
POLYLINE
  5
1F8E8
  8
ALPHA
 66
     1
 10
0.0
 20
0.0
 30
0.0
  0
VERTEX
  5
22F95
  8
ALPHA
 10
1814.230184
 20
95.662602
 30
0.0
  0
VERTEX
  5
22F96
  8
ALPHA
 10
1814.233342
 20
95.663296
 30
0.0
  0
VERTEX
  5
22F97
  8
ALPHA
 10
1814.243181
 20
95.679833
 30
0.0
  0
VERTEX
  5
22F98
  8
ALPHA
 10
1814.248091
 20
95.71725
 30
0.0
  0
SEQEND
  5
22F99
  8
ALPHA
  0
CIRCLE
  5
1F8EE
  8
ALPHA
 10
1802.3208
 20
132.955548
 30
0.0
 40
5.0
  0
ARC
  5
1F8EF
  8
ALPHA
 10
1802.916893
 20
131.855994
 30
0.0
 40
0.225738
 50
64.055271
 51
172.871056
  0
ARC
  5
1F8F0
  8
ALPHA
 10
1802.3208
 20
131.930548
 30
0.0
 40
0.375
 50
190.240209
 51
352.871056
  0
ARC
  5
1F8F1
  8
ALPHA
 10
1801.660105
 20
131.811191
 30
0.0
 40
0.296389
 50
10.240209
 51
109.759791
  0
CIRCLE
  5
1F8F2
  8
ALPHA
 10
1802.3208
 20
132.955548
 30
0.0
 40
4.0
  0
ARC
  5
1F8F3
  8
ALPHA
 10
1801.650886
 20
134.19554
 30
0.0
 40
0.384385
 50
253.335852
 51
348.196726
  0
ARC
  5
1F8F4
  8
ALPHA
 10
1802.3208
 20
134.055548
 30
0.0
 40
0.3
 50
15.033707
 51
168.196726
  0
ARC
  5
1F8F5
  8
ALPHA
 10
1803.072437
 20
134.257422
 30
0.0
 40
0.478275
 50
195.033707
 51
284.966293
  0
ARC
  5
1F8F6
  8
ALPHA
 10
1803.273428
 20
133.505548
 30
0.0
 40
0.3
 50
315.033707
 51
104.966293
  0
ARC
  5
1F8F7
  8
ALPHA
 10
1803.824075
 20
132.955548
 30
0.0
 40
0.478275
 50
135.033707
 51
220.960938
  0
ARC
  5
1F8F8
  8
ALPHA
 10
1803.179719
 20
132.396188
 30
0.0
 40
0.375
 50
244.055271
 51
40.960938
  0
ARC
  5
1F8F9
  8
ALPHA
 10
1801.433124
 20
133.468048
 30
0.0
 40
0.375
 50
73.335852
 51
229.759791
  0
ARC
  5
1F8FA
  8
ALPHA
 10
1801.433124
 20
132.443048
 30
0.0
 40
0.375
 50
130.240209
 51
289.759791
  0
ARC
  5
1F8FB
  8
ALPHA
 10
1800.999411
 20
132.955548
 30
0.0
 40
0.296389
 50
310.240209
 51
49.759791
  0
LINE
  5
1F8FC
  8
ALPHA
 10
1806.8208
 20
114.605548
 30
0.0
 11
1806.8208
 21
112.605548
 31
0.0
  0
LINE
  5
1F8FD
  8
ALPHA
 10
1802.8208
 20
133.850697
 30
0.0
 11
1802.8208
 21
136.924175
 31
0.0
  0
LINE
  5
1F8FE
  8
ALPHA
 10
1802.8208
 20
128.986921
 30
0.0
 11
1802.8208
 21
132.060258
 31
0.0
  0
LINE
  5
1F8FF
  8
ALPHA
 10
1801.8208
 20
132.060237
 30
0.0
 11
1801.8208
 21
128.986921
 31
0.0
  0
LINE
  5
1F900
  8
ALPHA
 10
1801.8208
 20
136.924175
 30
0.0
 11
1801.8208
 21
133.850749
 31
0.0
  0
LINE
  5
1F901
  8
ALPHA
 10
1809.8208
 20
114.605548
 30
0.0
 11
1806.8208
 21
114.605548
 31
0.0
  0
LINE
  5
1F902
  8
ALPHA
 10
1809.819267
 20
112.605548
 30
0.0
 11
1806.8208
 21
112.605548
 31
0.0
  0
CIRCLE
  5
1F903
  8
ALPHA
 10
1802.3208
 20
303.955548
 30
0.0
 40
5.0
  0
ARC
  5
1F904
  8
ALPHA
 10
1802.916893
 20
302.855994
 30
0.0
 40
0.225738
 50
64.055271
 51
172.871056
  0
ARC
  5
1F905
  8
ALPHA
 10
1802.3208
 20
302.930548
 30
0.0
 40
0.375
 50
190.240209
 51
352.871056
  0
ARC
  5
1F906
  8
ALPHA
 10
1801.660105
 20
302.811191
 30
0.0
 40
0.296389
 50
10.240209
 51
109.759791
  0
CIRCLE
  5
1F907
  8
ALPHA
 10
1802.3208
 20
303.955548
 30
0.0
 40
4.0
  0
ARC
  5
1F908
  8
ALPHA
 10
1801.650886
 20
305.19554
 30
0.0
 40
0.384385
 50
253.335852
 51
348.196726
  0
ARC
  5
1F909
  8
ALPHA
 10
1802.3208
 20
305.055548
 30
0.0
 40
0.3
 50
15.033707
 51
168.196726
  0
ARC
  5
1F90A
  8
ALPHA
 10
1803.072437
 20
305.257422
 30
0.0
 40
0.478275
 50
195.033707
 51
284.966293
  0
ARC
  5
1F90B
  8
ALPHA
 10
1803.273428
 20
304.505548
 30
0.0
 40
0.3
 50
315.033707
 51
104.966293
  0
ARC
  5
1F90C
  8
ALPHA
 10
1803.824075
 20
303.955548
 30
0.0
 40
0.478275
 50
135.033707
 51
220.960938
  0
ARC
  5
1F90D
  8
ALPHA
 10
1803.179719
 20
303.396188
 30
0.0
 40
0.375
 50
244.055271
 51
40.960938
  0
ARC
  5
1F90E
  8
ALPHA
 10
1801.433124
 20
304.468048
 30
0.0
 40
0.375
 50
73.335852
 51
229.759791
  0
ARC
  5
1F90F
  8
ALPHA
 10
1801.433124
 20
303.443048
 30
0.0
 40
0.375
 50
130.240209
 51
289.759791
  0
ARC
  5
1F910
  8
ALPHA
 10
1800.999411
 20
303.955548
 30
0.0
 40
0.296389
 50
310.240209
 51
49.759791
  0
LINE
  5
1F911
  8
ALPHA
 10
1813.170036
 20
288.213296
 30
0.0
 11
1812.813105
 21
288.887664
 31
0.0
  0
POLYLINE
  5
1F912
  8
ALPHA
 66
     1
 10
0.0
 20
0.0
 30
0.0
  0
VERTEX
  5
22F9A
  8
ALPHA
 10
1814.198061
 20
284.700493
 30
0.0
  0
VERTEX
  5
22F9B
  8
ALPHA
 10
1814.218342
 20
284.669383
 30
0.0
  0
VERTEX
  5
22F9C
  8
ALPHA
 10
1814.230184
 20
284.662602
 30
0.0
  0
SEQEND
  5
22F9D
  8
ALPHA
  0
POLYLINE
  5
1F917
  8
ALPHA
 66
     1
 10
0.0
 20
0.0
 30
0.0
  0
VERTEX
  5
22F9E
  8
ALPHA
 10
1814.20684
 20
283.349927
 30
0.0
  0
VERTEX
  5
22F9F
  8
ALPHA
 10
1814.225187
 20
283.266862
 30
0.0
  0
VERTEX
  5
22FA0
  8
ALPHA
 10
1814.238103
 20
283.171715
 30
0.0
  0
VERTEX
  5
22FA1
  8
ALPHA
 10
1814.246001
 20
283.066886
 30
0.0
  0
VERTEX
  5
22FA2
  8
ALPHA
 10
1814.248706
 20
282.955906
 30
0.0
  0
VERTEX
  5
22FA3
  8
ALPHA
 10
1814.246033
 20
282.844848
 30
0.0
  0
VERTEX
  5
22FA4
  8
ALPHA
 10
1814.23815
 20
282.739828
 30
0.0
  0
VERTEX
  5
22FA5
  8
ALPHA
 10
1814.225218
 20
282.644411
 30
0.0
  0
VERTEX
  5
22FA6
  8
ALPHA
 10
1814.20684
 20
282.561168
 30
0.0
  0
SEQEND
  5
22FA7
  8
ALPHA
  0
POLYLINE
  5
1F922
  8
ALPHA
 66
     1
 10
0.0
 20
0.0
 30
0.0
  0
VERTEX
  5
22FA8
  8
ALPHA
 10
1814.122259
 20
281.210979
 30
0.0
  0
VERTEX
  5
22FA9
  8
ALPHA
 10
1814.104516
 20
281.290989
 30
0.0
  0
VERTEX
  5
22FAA
  8
ALPHA
 10
1814.093538
 20
281.404999
 30
0.0
  0
VERTEX
  5
22FAB
  8
ALPHA
 10
1814.089562
 20
281.552941
 30
0.0
  0
VERTEX
  5
22FAC
  8
ALPHA
 10
1814.093365
 20
281.725007
 30
0.0
  0
VERTEX
  5
22FAD
  8
ALPHA
 10
1814.104467
 20
281.905716
 30
0.0
  0
VERTEX
  5
22FAE
  8
ALPHA
 10
1814.122301
 20
282.08916
 30
0.0
  0
VERTEX
  5
22FAF
  8
ALPHA
 10
1814.146683
 20
282.270002
 30
0.0
  0
VERTEX
  5
22FB0
  8
ALPHA
 10
1814.175733
 20
282.431701
 30
0.0
  0
VERTEX
  5
22FB1
  8
ALPHA
 10
1814.20684
 20
282.561168
 30
0.0
  0
SEQEND
  5
22FB2
  8
ALPHA
  0
POLYLINE
  5
1F92E
  8
ALPHA
 66
     1
 10
0.0
 20
0.0
 30
0.0
  0
VERTEX
  5
22FB3
  8
ALPHA
 10
1814.20684
 20
283.349927
 30
0.0
  0
VERTEX
  5
22FB4
  8
ALPHA
 10
1814.176414
 20
283.47612
 30
0.0
  0
VERTEX
  5
22FB5
  8
ALPHA
 10
1814.147967
 20
283.632912
 30
0.0
  0
VERTEX
  5
22FB6
  8
ALPHA
 10
1814.123942
 20
283.807878
 30
0.0
  0
VERTEX
  5
22FB7
  8
ALPHA
 10
1814.106001
 20
283.986488
 30
0.0
  0
VERTEX
  5
22FB8
  8
ALPHA
 10
1814.094352
 20
284.164188
 30
0.0
  0
VERTEX
  5
22FB9
  8
ALPHA
 10
1814.089622
 20
284.335257
 30
0.0
  0
VERTEX
  5
22FBA
  8
ALPHA
 10
1814.092401
 20
284.484552
 30
0.0
  0
VERTEX
  5
22FBB
  8
ALPHA
 10
1814.102009
 20
284.601738
 30
0.0
  0
SEQEND
  5
22FBC
  8
ALPHA
  0
POLYLINE
  5
1F939
  8
ALPHA
 66
     1
 10
0.0
 20
0.0
 30
0.0
  0
VERTEX
  5
22FBD
  8
ALPHA
 10
1814.156667
 20
284.743048
 30
0.0
  0
VERTEX
  5
22FBE
  8
ALPHA
 10
1814.168124
 20
284.739414
 30
0.0
  0
VERTEX
  5
22FBF
  8
ALPHA
 10
1814.198061
 20
284.700493
 30
0.0
  0
SEQEND
  5
22FC0
  8
ALPHA
  0
POLYLINE
  5
1F93E
  8
ALPHA
 66
     1
 10
0.0
 20
0.0
 30
0.0
  0
VERTEX
  5
22FC1
  8
ALPHA
 10
1814.156613
 20
281.168048
 30
0.0
  0
VERTEX
  5
22FC2
  8
ALPHA
 10
1814.146521
 20
281.171154
 30
0.0
  0
VERTEX
  5
22FC3
  8
ALPHA
 10
1814.122259
 20
281.210979
 30
0.0
  0
SEQEND
  5
22FC4
  8
ALPHA
  0
POLYLINE
  5
1F943
  8
ALPHA
 66
     1
 10
0.0
 20
0.0
 30
0.0
  0
VERTEX
  5
22FC5
  8
ALPHA
 10
1814.248127
 20
284.77333
 30
0.0
  0
VERTEX
  5
22FC6
  8
ALPHA
 10
1814.186321
 20
285.137865
 30
0.0
  0
VERTEX
  5
22FC7
  8
ALPHA
 10
1814.104649
 20
285.539664
 30
0.0
  0
VERTEX
  5
22FC8
  8
ALPHA
 10
1813.997897
 20
285.98223
 30
0.0
  0
VERTEX
  5
22FC9
  8
ALPHA
 10
1813.859575
 20
286.469009
 30
0.0
  0
VERTEX
  5
22FCA
  8
ALPHA
 10
1813.681791
 20
287.002778
 30
0.0
  0
VERTEX
  5
22FCB
  8
ALPHA
 10
1813.455536
 20
287.584219
 30
0.0
  0
VERTEX
  5
22FCC
  8
ALPHA
 10
1813.170036
 20
288.213296
 30
0.0
  0
SEQEND
  5
22FCD
  8
ALPHA
  0
POLYLINE
  5
1F94D
  8
ALPHA
 66
     1
 10
0.0
 20
0.0
 30
0.0
  0
VERTEX
  5
22FCE
  8
ALPHA
 10
1814.091541
 20
284.265838
 30
0.0
  0
VERTEX
  5
22FCF
  8
ALPHA
 10
1814.097121
 20
284.148699
 30
0.0
  0
VERTEX
  5
22FD0
  8
ALPHA
 10
1814.109725
 20
284.005817
 30
0.0
  0
VERTEX
  5
22FD1
  8
ALPHA
 10
1814.128246
 20
283.86126
 30
0.0
  0
VERTEX
  5
22FD2
  8
ALPHA
 10
1814.151461
 20
283.727281
 30
0.0
  0
VERTEX
  5
22FD3
  8
ALPHA
 10
1814.177238
 20
283.61551
 30
0.0
  0
SEQEND
  5
22FD4
  8
ALPHA
  0
POLYLINE
  5
1F955
  8
ALPHA
 66
     1
 10
0.0
 20
0.0
 30
0.0
  0
VERTEX
  5
22FD5
  8
ALPHA
 10
1814.239423
 20
283.212698
 30
0.0
  0
VERTEX
  5
22FD6
  8
ALPHA
 10
1814.225741
 20
283.353504
 30
0.0
  0
VERTEX
  5
22FD7
  8
ALPHA
 10
1814.205584
 20
283.487499
 30
0.0
  0
VERTEX
  5
22FD8
  8
ALPHA
 10
1814.177238
 20
283.61551
 30
0.0
  0
SEQEND
  5
22FD9
  8
ALPHA
  0
LINE
  5
1F95B
  8
ALPHA
 10
1812.2208
 20
288.955548
 30
0.0
 11
1809.8208
 21
288.955548
 31
0.0
  0
LINE
  5
1F95C
  8
ALPHA
 10
1812.813105
 20
288.887664
 30
0.0
 11
1812.2208
 21
288.887664
 31
0.0
  0
LINE
  5
1F95D
  8
ALPHA
 10
1814.198061
 20
284.700493
 30
0.0
 11
1814.124471
 21
284.700493
 31
0.0
  0
LINE
  5
1F95E
  8
ALPHA
 10
1814.113538
 20
284.662602
 30
0.0
 11
1814.229708
 21
284.662602
 31
0.0
  0
LINE
  5
1F95F
  8
ALPHA
 10
1814.100939
 20
284.588689
 30
0.0
 11
1814.218298
 21
284.588689
 31
0.0
  0
LINE
  5
1F960
  8
ALPHA
 10
1814.177238
 20
283.61551
 30
0.0
 11
1814.151124
 21
283.61551
 31
0.0
  0
LINE
  5
1F961
  8
ALPHA
 10
1814.190918
 20
282.351222
 30
0.0
 11
1814.161274
 21
282.351222
 31
0.0
  0
LINE
  5
1F962
  8
ALPHA
 10
1814.109593
 20
281.268093
 30
0.0
 11
1814.234499
 21
281.268093
 31
0.0
  0
LINE
  5
1F963
  8
ALPHA
 10
1814.20684
 20
281.229124
 30
0.0
 11
1814.118235
 21
281.229124
 31
0.0
  0
LINE
  5
1F964
  8
ALPHA
 10
1814.244274
 20
281.112874
 30
0.0
 11
1814.248262
 21
281.180453
 31
0.0
  0
LINE
  5
1F965
  8
ALPHA
 10
1814.248705
 20
284.707858
 30
0.0
 11
1814.245962
 21
284.648422
 31
0.0
  0
LINE
  5
1F966
  8
ALPHA
 10
1814.248091
 20
284.71725
 30
0.0
 11
1814.248127
 21
284.77333
 31
0.0
  0
LINE
  5
1F967
  8
ALPHA
 10
1812.813105
 20
277.023432
 30
0.0
 11
1812.813105
 21
288.887664
 31
0.0
  0
LINE
  5
1F968
  8
ALPHA
 10
1812.2208
 20
288.887664
 30
0.0
 11
1812.2208
 21
288.955506
 31
0.0
  0
LINE
  5
1F969
  8
ALPHA
 10
1812.2208
 20
276.955589
 30
0.0
 11
1812.2208
 21
277.023432
 31
0.0
  0
LINE
  5
1F96A
  8
ALPHA
 10
1802.8208
 20
304.850697
 30
0.0
 11
1802.8208
 21
307.924175
 31
0.0
  0
LINE
  5
1F96B
  8
ALPHA
 10
1802.8208
 20
299.986921
 30
0.0
 11
1802.8208
 21
303.060258
 31
0.0
  0
LINE
  5
1F96C
  8
ALPHA
 10
1801.8208
 20
303.060237
 30
0.0
 11
1801.8208
 21
299.986921
 31
0.0
  0
LINE
  5
1F96D
  8
ALPHA
 10
1801.8208
 20
307.924175
 30
0.0
 11
1801.8208
 21
304.850749
 31
0.0
  0
POLYLINE
  5
1F96E
  8
ALPHA
 66
     1
 10
0.0
 20
0.0
 30
0.0
  0
VERTEX
  5
22FDA
  8
ALPHA
 10
1814.248262
 20
281.180453
 30
0.0
  0
VERTEX
  5
22FDB
  8
ALPHA
 10
1814.24811
 20
281.225689
 30
0.0
  0
VERTEX
  5
22FDC
  8
ALPHA
 10
1814.243776
 20
281.256553
 30
0.0
  0
VERTEX
  5
22FDD
  8
ALPHA
 10
1814.23459
 20
281.268093
 30
0.0
  0
SEQEND
  5
22FDE
  8
ALPHA
  0
POLYLINE
  5
1F974
  8
ALPHA
 66
     1
 10
0.0
 20
0.0
 30
0.0
  0
VERTEX
  5
22FDF
  8
ALPHA
 10
1814.247668
 20
282.998514
 30
0.0
  0
VERTEX
  5
22FE0
  8
ALPHA
 10
1814.247061
 20
283.06477
 30
0.0
  0
VERTEX
  5
22FE1
  8
ALPHA
 10
1814.239423
 20
283.212698
 30
0.0
  0
SEQEND
  5
22FE2
  8
ALPHA
  0
LINE
  5
1F979
  8
ALPHA
 10
1812.813105
 20
277.023432
 30
0.0
 11
1812.2208
 21
277.023432
 31
0.0
  0
LINE
  5
1F97A
  8
ALPHA
 10
1812.2208
 20
276.955548
 30
0.0
 11
1809.8208
 21
276.955548
 31
0.0
  0
POLYLINE
  5
1F97B
  8
ALPHA
 66
     1
 10
0.0
 20
0.0
 30
0.0
  0
VERTEX
  5
22FE3
  8
ALPHA
 10
1814.245962
 20
284.648422
 30
0.0
  0
VERTEX
  5
22FE4
  8
ALPHA
 10
1814.23779
 20
284.608299
 30
0.0
  0
VERTEX
  5
22FE5
  8
ALPHA
 10
1814.224008
 20
284.589736
 30
0.0
  0
VERTEX
  5
22FE6
  8
ALPHA
 10
1814.218949
 20
284.588689
 30
0.0
  0
SEQEND
  5
22FE7
  8
ALPHA
  0
POLYLINE
  5
1F981
  8
ALPHA
 66
     1
 10
0.0
 20
0.0
 30
0.0
  0
VERTEX
  5
22FE8
  8
ALPHA
 10
1814.190918
 20
282.351222
 30
0.0
  0
VERTEX
  5
22FE9
  8
ALPHA
 10
1814.161171
 20
282.200412
 30
0.0
  0
VERTEX
  5
22FEA
  8
ALPHA
 10
1814.134459
 20
282.02526
 30
0.0
  0
VERTEX
  5
22FEB
  8
ALPHA
 10
1814.113121
 20
281.840294
 30
0.0
  0
VERTEX
  5
22FEC
  8
ALPHA
 10
1814.098551
 20
281.66076
 30
0.0
  0
VERTEX
  5
22FED
  8
ALPHA
 10
1814.091055
 20
281.497385
 30
0.0
  0
SEQEND
  5
22FEE
  8
ALPHA
  0
POLYLINE
  5
1F989
  8
ALPHA
 66
     1
 10
0.0
 20
0.0
 30
0.0
  0
VERTEX
  5
22FEF
  8
ALPHA
 10
1814.102009
 20
284.601738
 30
0.0
  0
VERTEX
  5
22FF0
  8
ALPHA
 10
1814.118181
 20
284.687116
 30
0.0
  0
VERTEX
  5
22FF1
  8
ALPHA
 10
1814.140739
 20
284.73509
 30
0.0
  0
VERTEX
  5
22FF2
  8
ALPHA
 10
1814.156667
 20
284.743048
 30
0.0
  0
SEQEND
  5
22FF3
  8
ALPHA
  0
LINE
  5
1F98F
  8
ALPHA
 10
1814.190918
 20
282.351222
 30
0.0
 11
1814.215318
 21
282.481756
 31
0.0
  0
POLYLINE
  5
1F990
  8
ALPHA
 66
     1
 10
0.0
 20
0.0
 30
0.0
  0
VERTEX
  5
22FF4
  8
ALPHA
 10
1814.108141
 20
284.588689
 30
0.0
  0
VERTEX
  5
22FF5
  8
ALPHA
 10
1814.097174
 20
284.522777
 30
0.0
  0
VERTEX
  5
22FF6
  8
ALPHA
 10
1814.091456
 20
284.433786
 30
0.0
  0
SEQEND
  5
22FF7
  8
ALPHA
  0
POLYLINE
  5
1F995
  8
ALPHA
 66
     1
 10
0.0
 20
0.0
 30
0.0
  0
VERTEX
  5
22FF8
  8
ALPHA
 10
1814.215318
 20
282.481756
 30
0.0
  0
VERTEX
  5
22FF9
  8
ALPHA
 10
1814.232485
 20
282.618385
 30
0.0
  0
VERTEX
  5
22FFA
  8
ALPHA
 10
1814.243516
 20
282.762338
 30
0.0
  0
VERTEX
  5
22FFB
  8
ALPHA
 10
1814.248454
 20
282.912685
 30
0.0
  0
VERTEX
  5
22FFC
  8
ALPHA
 10
1814.248237
 20
282.936397
 30
0.0
  0
SEQEND
  5
22FFD
  8
ALPHA
  0
POLYLINE
  5
1F99C
  8
ALPHA
 66
     1
 10
0.0
 20
0.0
 30
0.0
  0
VERTEX
  5
22FFE
  8
ALPHA
 10
1814.230184
 20
284.662602
 30
0.0
  0
VERTEX
  5
22FFF
  8
ALPHA
 10
1814.233342
 20
284.663296
 30
0.0
  0
VERTEX
  5
23000
  8
ALPHA
 10
1814.243181
 20
284.679833
 30
0.0
  0
VERTEX
  5
23001
  8
ALPHA
 10
1814.248091
 20
284.71725
 30
0.0
  0
SEQEND
  5
23002
  8
ALPHA
  0
POLYLINE
  5
1F9A2
  8
ALPHA
 66
     1
 10
0.0
 20
0.0
 30
0.0
  0
VERTEX
  5
23003
  8
ALPHA
 10
1813.164049
 20
277.685577
 30
0.0
  0
VERTEX
  5
23004
  8
ALPHA
 10
1813.446004
 20
278.304219
 30
0.0
  0
VERTEX
  5
23005
  8
ALPHA
 10
1813.670665
 20
278.877492
 30
0.0
  0
VERTEX
  5
23006
  8
ALPHA
 10
1813.848371
 20
279.405815
 30
0.0
  0
VERTEX
  5
23007
  8
ALPHA
 10
1813.987722
 20
279.890207
 30
0.0
  0
VERTEX
  5
23008
  8
ALPHA
 10
1814.096234
 20
280.333672
 30
0.0
  0
VERTEX
  5
23009
  8
ALPHA
 10
1814.180096
 20
280.739935
 30
0.0
  0
VERTEX
  5
2300A
  8
ALPHA
 10
1814.243977
 20
281.112925
 30
0.0
  0
SEQEND
  5
2300B
  8
ALPHA
  0
LINE
  5
1F9AC
  8
ALPHA
 10
1812.813105
 20
277.023432
 30
0.0
 11
1813.164049
 21
277.685577
 31
0.0
  0
POLYLINE
  5
1F9AD
  8
ALPHA
 66
     1
 10
0.0
 20
0.0
 30
0.0
  0
VERTEX
  5
2300C
  8
ALPHA
 10
1814.20684
 20
281.229124
 30
0.0
  0
VERTEX
  5
2300D
  8
ALPHA
 10
1814.175568
 20
281.177616
 30
0.0
  0
VERTEX
  5
2300E
  8
ALPHA
 10
1814.156613
 20
281.168048
 30
0.0
  0
SEQEND
  5
2300F
  8
ALPHA
  0
POLYLINE
  5
1F9B2
  8
ALPHA
 66
     1
 10
0.0
 20
0.0
 30
0.0
  0
VERTEX
  5
23010
  8
ALPHA
 10
1814.23459
 20
281.268093
 30
0.0
  0
VERTEX
  5
23011
  8
ALPHA
 10
1814.222465
 20
281.258489
 30
0.0
  0
VERTEX
  5
23012
  8
ALPHA
 10
1814.20684
 20
281.229124
 30
0.0
  0
SEQEND
  5
23013
  8
ALPHA
  0
LINE
  5
1F9B7
  8
ALPHA
 10
1806.8208
 20
322.305548
 30
0.0
 11
1807.3208
 21
321.805548
 31
0.0
  0
LINE
  5
1F9B8
  8
ALPHA
 10
1809.8208
 20
334.955548
 30
0.0
 11
1809.9208
 21
334.955548
 31
0.0
  0
LINE
  5
1F9B9
  8
ALPHA
 10
1806.8208
 20
323.805548
 30
0.0
 11
1809.819267
 21
323.805548
 31
0.0
  0
LINE
  5
1F9BA
  8
ALPHA
 10
1809.8208
 20
321.805548
 30
0.0
 11
1806.8208
 21
321.805548
 31
0.0
  0
LINE
  5
1F9BB
  8
ALPHA
 10
1806.8208
 20
323.805548
 30
0.0
 11
1806.8208
 21
321.805548
 31
0.0
  0
LINE
  5
1F9F1
  8
ALPHA
 10
1809.8208
 20
428.955548
 30
0.0
 11
1409.8208
 21
428.955548
 31
0.0
  0
LINE
  5
1F9F2
  8
ALPHA
 10
1809.8208
 20
424.955548
 30
0.0
 11
1409.8208
 21
424.955548
 31
0.0
  0
LINE
  5
1F9F3
  8
ALPHA
 10
1804.8208
 20
383.305548
 30
0.0
 11
1414.8208
 21
383.305548
 31
0.0
  0
LINE
  5
1F9F4
  8
ALPHA
 10
1414.8208
 20
358.305548
 30
0.0
 11
1804.8208
 21
358.305548
 31
0.0
  0
LINE
  5
1F9F5
  8
ALPHA
 10
1602.8208
 20
359.305548
 30
0.0
 11
1612.8208
 21
379.305548
 31
0.0
  0
LINE
  5
1F9F6
  8
ALPHA
 10
1609.0708
 20
364.41193
 30
0.0
 11
1606.5708
 21
359.305548
 31
0.0
  0
LINE
  5
1FA11
  8
ALPHA
 10
1412.8208
 20
381.305548
 30
0.0
 11
1412.8208
 21
360.305548
 31
0.0
  0
ARC
  5
1FA12
  8
ALPHA
 10
1414.8208
 20
360.305548
 30
0.0
 40
2.0
 50
180.0
 51
270.0
  0
ARC
  5
1FA13
  8
ALPHA
 10
1414.8208
 20
381.305548
 30
0.0
 40
2.0
 50
90.0
 51
180.0
  0
ARC
  5
1FA14
  8
ALPHA
 10
1417.3208
 20
397.455548
 30
0.0
 40
3.612813
 50
170.440278
 51
189.559722
  0
ARC
  5
1FA15
  8
ALPHA
 10
1417.3208
 20
397.455548
 30
0.0
 40
3.612813
 50
350.440278
 51
9.559722
  0
ARC
  5
1FA16
  8
ALPHA
 10
1417.3208
 20
397.455548
 30
0.0
 40
3.545455
 50
9.743097
 51
170.256903
  0
ARC
  5
1FA17
  8
ALPHA
 10
1417.3208
 20
397.455548
 30
0.0
 40
3.545455
 50
189.743097
 51
350.256903
  0
ARC
  5
1FA18
  8
ALPHA
 10
1415.848557
 20
396.605548
 30
0.0
 40
0.3
 50
120.0
 51
300.0
  0
ARC
  5
1FA19
  8
ALPHA
 10
1415.357809
 20
397.455548
 30
0.0
 40
0.681495
 50
300.0
 51
60.0
  0
ARC
  5
1FA1A
  8
ALPHA
 10
1415.848557
 20
398.305548
 30
0.0
 40
0.3
 50
60.0
 51
240.0
  0
ARC
  5
1FA1B
  8
ALPHA
 10
1418.793043
 20
398.305548
 30
0.0
 40
0.3
 50
300.0
 51
120.0
  0
ARC
  5
1FA1C
  8
ALPHA
 10
1419.283791
 20
397.455548
 30
0.0
 40
0.681495
 50
120.0
 51
240.0
  0
ARC
  5
1FA1D
  8
ALPHA
 10
1418.793043
 20
396.605548
 30
0.0
 40
0.3
 50
240.0
 51
60.0
  0
ARC
  5
1FA1E
  8
ALPHA
 10
1417.3208
 20
399.155548
 30
0.0
 40
0.3
 50
0.0
 51
180.0
  0
ARC
  5
1FA1F
  8
ALPHA
 10
1417.3208
 20
395.755548
 30
0.0
 40
0.3
 50
180.0
 51
0.0
  0
CIRCLE
  5
1FA20
  8
ALPHA
 10
1417.3208
 20
397.455548
 30
0.0
 40
4.0
  0
ARC
  5
1FA21
  8
ALPHA
 10
1416.339304
 20
399.155548
 30
0.0
 40
0.681495
 50
240.0
 51
0.0
  0
ARC
  5
1FA22
  8
ALPHA
 10
1418.302295
 20
399.155548
 30
0.0
 40
0.681495
 50
180.0
 51
300.0
  0
ARC
  5
1FA23
  8
ALPHA
 10
1418.302295
 20
395.755548
 30
0.0
 40
0.681495
 50
60.0
 51
180.0
  0
ARC
  5
1FA24
  8
ALPHA
 10
1416.339304
 20
395.755548
 30
0.0
 40
0.681495
 50
0.0
 51
120.0
  0
LINE
  5
1FA25
  8
ALPHA
 10
1407.4208
 20
407.955548
 30
0.0
 11
1409.8208
 21
407.955548
 31
0.0
  0
LINE
  5
1FA26
  8
ALPHA
 10
1406.828495
 20
407.887664
 30
0.0
 11
1407.4208
 21
407.887664
 31
0.0
  0
LINE
  5
1FA27
  8
ALPHA
 10
1405.464361
 20
403.628802
 30
0.0
 11
1405.51963
 21
403.628802
 31
0.0
  0
LINE
  5
1FA28
  8
ALPHA
 10
1405.533458
 20
403.588689
 30
0.0
 11
1405.423301
 21
403.588689
 31
0.0
  0
LINE
  5
1FA29
  8
ALPHA
 10
1405.547647
 20
400.268093
 30
0.0
 11
1405.4071
 21
400.268093
 31
0.0
  0
LINE
  5
1FA2A
  8
ALPHA
 10
1405.544023
 20
400.210289
 30
0.0
 11
1405.401194
 21
400.210289
 31
0.0
  0
LINE
  5
1FA2B
  8
ALPHA
 10
1405.425886
 20
400.162838
 30
0.0
 11
1405.537231
 21
400.162838
 31
0.0
  0
LINE
  5
1FA2C
  8
ALPHA
 10
1415.682725
 20
398.055548
 30
0.0
 11
1413.758157
 21
398.055548
 31
0.0
  0
LINE
  5
1FA2D
  8
ALPHA
 10
1420.883442
 20
398.055548
 30
0.0
 11
1418.958874
 21
398.055548
 31
0.0
  0
LINE
  5
1FA2E
  8
ALPHA
 10
1418.958874
 20
396.855548
 30
0.0
 11
1420.883442
 21
396.855548
 31
0.0
  0
LINE
  5
1FA2F
  8
ALPHA
 10
1413.758157
 20
396.855548
 30
0.0
 11
1415.682725
 21
396.855548
 31
0.0
  0
LINE
  5
1FA30
  8
ALPHA
 10
1406.828495
 20
396.023432
 30
0.0
 11
1407.4208
 21
396.023432
 31
0.0
  0
LINE
  5
1FA31
  8
ALPHA
 10
1407.4208
 20
395.955548
 30
0.0
 11
1409.8208
 21
395.955548
 31
0.0
  0
POLYLINE
  5
1FA32
  8
ALPHA
 66
     1
 10
0.0
 20
0.0
 30
0.0
  0
VERTEX
  5
23014
  8
ALPHA
 10
1405.492392
 20
400.055758
 30
0.0
  0
VERTEX
  5
23015
  8
ALPHA
 10
1405.486747
 20
400.056727
 30
0.0
  0
VERTEX
  5
23016
  8
ALPHA
 10
1405.45709
 20
400.088892
 30
0.0
  0
VERTEX
  5
23017
  8
ALPHA
 10
1405.425886
 20
400.162838
 30
0.0
  0
SEQEND
  5
23018
  8
ALPHA
  0
POLYLINE
  5
1FA38
  8
ALPHA
 66
     1
 10
0.0
 20
0.0
 30
0.0
  0
VERTEX
  5
23019
  8
ALPHA
 10
1405.495571
 20
403.655548
 30
0.0
  0
VERTEX
  5
2301A
  8
ALPHA
 10
1405.513481
 20
403.644136
 30
0.0
  0
VERTEX
  5
2301B
  8
ALPHA
 10
1405.531857
 20
403.598311
 30
0.0
  0
SEQEND
  5
2301C
  8
ALPHA
  0
LINE
  5
1FA3D
  8
ALPHA
 10
1406.472073
 20
396.696758
 30
0.0
 11
1406.828495
 21
396.023432
 31
0.0
  0
POLYLINE
  5
1FA3E
  8
ALPHA
 66
     1
 10
0.0
 20
0.0
 30
0.0
  0
VERTEX
  5
2301D
  8
ALPHA
 10
1405.425886
 20
400.162838
 30
0.0
  0
VERTEX
  5
2301E
  8
ALPHA
 10
1405.41211
 20
400.197393
 30
0.0
  0
VERTEX
  5
2301F
  8
ALPHA
 10
1405.401909
 20
400.210166
 30
0.0
  0
VERTEX
  5
23020
  8
ALPHA
 10
1405.400999
 20
400.210289
 30
0.0
  0
SEQEND
  5
23021
  8
ALPHA
  0
POLYLINE
  5
1FA44
  8
ALPHA
 66
     1
 10
0.0
 20
0.0
 30
0.0
  0
VERTEX
  5
23022
  8
ALPHA
 10
1405.531857
 20
403.598311
 30
0.0
  0
VERTEX
  5
23023
  8
ALPHA
 10
1405.544425
 20
403.522777
 30
0.0
  0
VERTEX
  5
23024
  8
ALPHA
 10
1405.551153
 20
403.418088
 30
0.0
  0
VERTEX
  5
23025
  8
ALPHA
 10
1405.55118
 20
403.289385
 30
0.0
  0
VERTEX
  5
23026
  8
ALPHA
 10
1405.544478
 20
403.148699
 30
0.0
  0
VERTEX
  5
23027
  8
ALPHA
 10
1405.531875
 20
403.005817
 30
0.0
  0
VERTEX
  5
23028
  8
ALPHA
 10
1405.513353
 20
402.86126
 30
0.0
  0
VERTEX
  5
23029
  8
ALPHA
 10
1405.490139
 20
402.727281
 30
0.0
  0
VERTEX
  5
2302A
  8
ALPHA
 10
1405.464361
 20
402.61551
 30
0.0
  0
SEQEND
  5
2302B
  8
ALPHA
  0
POLYLINE
  5
1FA4F
  8
ALPHA
 66
     1
 10
0.0
 20
0.0
 30
0.0
  0
VERTEX
  5
2302C
  8
ALPHA
 10
1405.394151
 20
400.133355
 30
0.0
  0
VERTEX
  5
2302D
  8
ALPHA
 10
1405.456073
 20
399.768952
 30
0.0
  0
VERTEX
  5
2302E
  8
ALPHA
 10
1405.537845
 20
399.367388
 30
0.0
  0
VERTEX
  5
2302F
  8
ALPHA
 10
1405.644673
 20
398.925154
 30
0.0
  0
VERTEX
  5
23030
  8
ALPHA
 10
1405.783026
 20
398.438825
 30
0.0
  0
VERTEX
  5
23031
  8
ALPHA
 10
1405.960769
 20
397.905644
 30
0.0
  0
VERTEX
  5
23032
  8
ALPHA
 10
1406.186875
 20
397.324942
 30
0.0
  0
VERTEX
  5
23033
  8
ALPHA
 10
1406.472073
 20
396.696758
 30
0.0
  0
SEQEND
  5
23034
  8
ALPHA
  0
POLYLINE
  5
1FA59
  8
ALPHA
 66
     1
 10
0.0
 20
0.0
 30
0.0
  0
VERTEX
  5
23035
  8
ALPHA
 10
1405.450681
 20
401.351222
 30
0.0
  0
VERTEX
  5
23036
  8
ALPHA
 10
1405.426281
 20
401.481756
 30
0.0
  0
VERTEX
  5
23037
  8
ALPHA
 10
1405.409114
 20
401.618385
 30
0.0
  0
VERTEX
  5
23038
  8
ALPHA
 10
1405.398084
 20
401.762338
 30
0.0
  0
VERTEX
  5
23039
  8
ALPHA
 10
1405.393146
 20
401.912685
 30
0.0
  0
VERTEX
  5
2303A
  8
ALPHA
 10
1405.394538
 20
402.06477
 30
0.0
  0
VERTEX
  5
2303B
  8
ALPHA
 10
1405.402176
 20
402.212698
 30
0.0
  0
VERTEX
  5
2303C
  8
ALPHA
 10
1405.415858
 20
402.353504
 30
0.0
  0
VERTEX
  5
2303D
  8
ALPHA
 10
1405.436015
 20
402.487499
 30
0.0
  0
VERTEX
  5
2303E
  8
ALPHA
 10
1405.464361
 20
402.61551
 30
0.0
  0
SEQEND
  5
2303F
  8
ALPHA
  0
POLYLINE
  5
1FA65
  8
ALPHA
 66
     1
 10
0.0
 20
0.0
 30
0.0
  0
VERTEX
  5
23040
  8
ALPHA
 10
1405.450681
 20
401.351222
 30
0.0
  0
VERTEX
  5
23041
  8
ALPHA
 10
1405.480428
 20
401.200412
 30
0.0
  0
VERTEX
  5
23042
  8
ALPHA
 10
1405.507141
 20
401.02526
 30
0.0
  0
VERTEX
  5
23043
  8
ALPHA
 10
1405.528478
 20
400.840294
 30
0.0
  0
VERTEX
  5
23044
  8
ALPHA
 10
1405.543049
 20
400.66076
 30
0.0
  0
VERTEX
  5
23045
  8
ALPHA
 10
1405.55078
 20
400.49224
 30
0.0
  0
VERTEX
  5
23046
  8
ALPHA
 10
1405.551439
 20
400.341442
 30
0.0
  0
VERTEX
  5
23047
  8
ALPHA
 10
1405.545018
 20
400.217241
 30
0.0
  0
SEQEND
  5
23048
  8
ALPHA
  0
LINE
  5
1FA6F
  8
ALPHA
 10
1405.393337
 20
400.180453
 30
0.0
 11
1405.393489
 21
400.225689
 31
0.0
  0
LINE
  5
1FA70
  8
ALPHA
 10
1407.4208
 20
396.023432
 30
0.0
 11
1407.4208
 21
395.955589
 31
0.0
  0
LINE
  5
1FA71
  8
ALPHA
 10
1407.4208
 20
407.955506
 30
0.0
 11
1407.4208
 21
407.887664
 31
0.0
  0
LINE
  5
1FA72
  8
ALPHA
 10
1406.828495
 20
396.023432
 30
0.0
 11
1406.828495
 21
407.887664
 31
0.0
  0
POLYLINE
  5
1FA73
  8
ALPHA
 66
     1
 10
0.0
 20
0.0
 30
0.0
  0
VERTEX
  5
23049
  8
ALPHA
 10
1405.395444
 20
403.786111
 30
0.0
  0
VERTEX
  5
2304A
  8
ALPHA
 10
1405.392894
 20
403.707858
 30
0.0
  0
VERTEX
  5
2304B
  8
ALPHA
 10
1405.395637
 20
403.648422
 30
0.0
  0
VERTEX
  5
2304C
  8
ALPHA
 10
1405.403809
 20
403.608299
 30
0.0
  0
VERTEX
  5
2304D
  8
ALPHA
 10
1405.417591
 20
403.589736
 30
0.0
  0
VERTEX
  5
2304E
  8
ALPHA
 10
1405.422651
 20
403.588689
 30
0.0
  0
SEQEND
  5
2304F
  8
ALPHA
  0
POLYLINE
  5
1FA7B
  8
ALPHA
 66
     1
 10
0.0
 20
0.0
 30
0.0
  0
VERTEX
  5
23050
  8
ALPHA
 10
1405.545018
 20
400.217241
 30
0.0
  0
VERTEX
  5
23051
  8
ALPHA
 10
1405.531843
 20
400.125196
 30
0.0
  0
VERTEX
  5
23052
  8
ALPHA
 10
1405.512309
 20
400.070037
 30
0.0
  0
VERTEX
  5
23053
  8
ALPHA
 10
1405.492392
 20
400.055758
 30
0.0
  0
SEQEND
  5
23054
  8
ALPHA
  0
POLYLINE
  5
1FA81
  8
ALPHA
 66
     1
 10
0.0
 20
0.0
 30
0.0
  0
VERTEX
  5
23055
  8
ALPHA
 10
1405.393489
 20
400.225689
 30
0.0
  0
VERTEX
  5
23056
  8
ALPHA
 10
1405.397823
 20
400.256553
 30
0.0
  0
VERTEX
  5
23057
  8
ALPHA
 10
1405.40701
 20
400.268093
 30
0.0
  0
SEQEND
  5
23058
  8
ALPHA
  0
POLYLINE
  5
1FA86
  8
ALPHA
 66
     1
 10
0.0
 20
0.0
 30
0.0
  0
VERTEX
  5
23059
  8
ALPHA
 10
1405.395609
 20
400.202816
 30
0.0
  0
VERTEX
  5
2305A
  8
ALPHA
 10
1405.392964
 20
400.17678
 30
0.0
  0
VERTEX
  5
2305B
  8
ALPHA
 10
1405.394151
 20
400.133355
 30
0.0
  0
SEQEND
  5
2305C
  8
ALPHA
  0
POLYLINE
  5
1FA8B
  8
ALPHA
 66
     1
 10
0.0
 20
0.0
 30
0.0
  0
VERTEX
  5
2305D
  8
ALPHA
 10
1405.532006
 20
400.268093
 30
0.0
  0
VERTEX
  5
2305E
  8
ALPHA
 10
1405.537084
 20
400.290989
 30
0.0
  0
VERTEX
  5
2305F
  8
ALPHA
 10
1405.548062
 20
400.404999
 30
0.0
  0
VERTEX
  5
23060
  8
ALPHA
 10
1405.550544
 20
400.497385
 30
0.0
  0
SEQEND
  5
23061
  8
ALPHA
  0
LINE
  5
1FA91
  8
ALPHA
 10
1406.828495
 20
407.887664
 30
0.0
 11
1406.476207
 21
407.222778
 31
0.0
  0
POLYLINE
  5
1FA92
  8
ALPHA
 66
     1
 10
0.0
 20
0.0
 30
0.0
  0
VERTEX
  5
23062
  8
ALPHA
 10
1406.476207
 20
407.222778
 30
0.0
  0
VERTEX
  5
23063
  8
ALPHA
 10
1406.193447
 20
406.601781
 30
0.0
  0
VERTEX
  5
23064
  8
ALPHA
 10
1405.968379
 20
406.026546
 30
0.0
  0
VERTEX
  5
23065
  8
ALPHA
 10
1405.790547
 20
405.496637
 30
0.0
  0
VERTEX
  5
23066
  8
ALPHA
 10
1405.651262
 20
405.011
 30
0.0
  0
VERTEX
  5
23067
  8
ALPHA
 10
1405.542933
 20
404.566569
 30
0.0
  0
VERTEX
  5
23068
  8
ALPHA
 10
1405.459324
 20
404.159564
 30
0.0
  0
VERTEX
  5
23069
  8
ALPHA
 10
1405.395634
 20
403.786079
 30
0.0
  0
SEQEND
  5
2306A
  8
ALPHA
  0
LINE
  5
1FA9C
  8
ALPHA
 10
1405.400999
 20
400.210289
 30
0.0
 11
1405.395609
 21
400.202816
 31
0.0
  0
POLYLINE
  5
1FA9D
  8
ALPHA
 66
     1
 10
0.0
 20
0.0
 30
0.0
  0
VERTEX
  5
2306B
  8
ALPHA
 10
1405.422651
 20
403.588689
 30
0.0
  0
VERTEX
  5
2306C
  8
ALPHA
 10
1405.437586
 20
403.595233
 30
0.0
  0
VERTEX
  5
2306D
  8
ALPHA
 10
1405.464361
 20
403.628802
 30
0.0
  0
SEQEND
  5
2306E
  8
ALPHA
  0
POLYLINE
  5
1FAA2
  8
ALPHA
 66
     1
 10
0.0
 20
0.0
 30
0.0
  0
VERTEX
  5
2306F
  8
ALPHA
 10
1405.464361
 20
403.628802
 30
0.0
  0
VERTEX
  5
23070
  8
ALPHA
 10
1405.490312
 20
403.654686
 30
0.0
  0
VERTEX
  5
23071
  8
ALPHA
 10
1405.495571
 20
403.655548
 30
0.0
  0
SEQEND
  5
23072
  8
ALPHA
  0
LINE
  5
1FAA7
  8
ALPHA
 10
1409.8208
 20
423.955548
 30
0.0
 11
1412.8208
 21
423.955548
 31
0.0
  0
LINE
  5
1FAA8
  8
ALPHA
 10
1409.822332
 20
421.955548
 30
0.0
 11
1412.8208
 21
421.955548
 31
0.0
  0
LINE
  5
1FAA9
  8
ALPHA
 10
1412.8208
 20
421.955548
 30
0.0
 11
1412.8208
 21
423.955548
 31
0.0
  0
LINE
  5
1FAAA
  8
ALPHA
 10
1606.5708
 20
359.305548
 30
0.0
 11
1602.8208
 21
359.305548
 31
0.0
  0
LINE
  5
201CB
  8
ALPHA
 10
1617.8208
 20
379.305548
 30
0.0
 11
1627.8208
 21
359.305548
 31
0.0
  0
LINE
  5
201CC
  8
ALPHA
 10
1615.3208
 20
377.60342
 30
0.0
 11
1620.9458
 21
366.114057
 31
0.0
  0
LINE
  5
201CD
  8
ALPHA
 10
1609.6958
 20
366.114057
 30
0.0
 11
1615.3208
 21
377.60342
 31
0.0
  0
LINE
  5
201CE
  8
ALPHA
 10
1620.9458
 20
366.114057
 30
0.0
 11
1609.6958
 21
366.114057
 31
0.0
  0
LINE
  5
201CF
  8
ALPHA
 10
1621.5708
 20
364.41193
 30
0.0
 11
1609.0708
 21
364.41193
 31
0.0
  0
LINE
  5
201D0
  8
ALPHA
 10
1627.8208
 20
359.305548
 30
0.0
 11
1624.0708
 21
359.305548
 31
0.0
  0
LINE
  5
201D1
  8
ALPHA
 10
1624.0708
 20
359.305548
 30
0.0
 11
1621.5708
 21
364.41193
 31
0.0
  0
LINE
  5
201D2
  8
ALPHA
 10
1612.8208
 20
379.305548
 30
0.0
 11
1617.8208
 21
379.305548
 31
0.0
  0
LINE
  5
201D3
  8
ALPHA
 10
1806.8208
 20
360.305548
 30
0.0
 11
1806.8208
 21
381.305548
 31
0.0
  0
ARC
  5
201D4
  8
ALPHA
 10
1804.8208
 20
360.305548
 30
0.0
 40
2.0
 50
270.0
 51
0.0
  0
LINE
  5
201D5
  8
ALPHA
 10
1809.8208
 20
368.955548
 30
0.0
 11
1809.9208
 21
368.955548
 31
0.0
  0
ARC
  5
201D6
  8
ALPHA
 10
1804.8208
 20
381.305548
 30
0.0
 40
2.0
 50
0.0
 51
90.0
  0
ARC
  5
201D7
  8
ALPHA
 10
1802.3208
 20
397.455548
 30
0.0
 40
3.612813
 50
170.440278
 51
189.559722
  0
ARC
  5
201D8
  8
ALPHA
 10
1802.3208
 20
397.455548
 30
0.0
 40
3.612813
 50
350.440278
 51
9.559722
  0
ARC
  5
201D9
  8
ALPHA
 10
1802.3208
 20
397.455548
 30
0.0
 40
3.545455
 50
9.743097
 51
170.256903
  0
ARC
  5
201DA
  8
ALPHA
 10
1802.3208
 20
397.455548
 30
0.0
 40
3.545455
 50
189.743097
 51
350.256903
  0
ARC
  5
201DB
  8
ALPHA
 10
1800.848557
 20
396.605548
 30
0.0
 40
0.3
 50
120.0
 51
300.0
  0
ARC
  5
201DC
  8
ALPHA
 10
1800.357809
 20
397.455548
 30
0.0
 40
0.681495
 50
300.0
 51
60.0
  0
ARC
  5
201DD
  8
ALPHA
 10
1800.848557
 20
398.305548
 30
0.0
 40
0.3
 50
60.0
 51
240.0
  0
ARC
  5
201DE
  8
ALPHA
 10
1803.793043
 20
398.305548
 30
0.0
 40
0.3
 50
300.0
 51
120.0
  0
ARC
  5
201DF
  8
ALPHA
 10
1804.283791
 20
397.455548
 30
0.0
 40
0.681495
 50
120.0
 51
240.0
  0
ARC
  5
201E0
  8
ALPHA
 10
1803.793043
 20
396.605548
 30
0.0
 40
0.3
 50
240.0
 51
60.0
  0
ARC
  5
201E1
  8
ALPHA
 10
1802.3208
 20
399.155548
 30
0.0
 40
0.3
 50
0.0
 51
180.0
  0
ARC
  5
201E2
  8
ALPHA
 10
1802.3208
 20
395.755548
 30
0.0
 40
0.3
 50
180.0
 51
0.0
  0
CIRCLE
  5
201E3
  8
ALPHA
 10
1802.3208
 20
397.455548
 30
0.0
 40
4.0
  0
ARC
  5
201E4
  8
ALPHA
 10
1801.339304
 20
399.155548
 30
0.0
 40
0.681495
 50
240.0
 51
0.0
  0
ARC
  5
201E5
  8
ALPHA
 10
1803.302295
 20
399.155548
 30
0.0
 40
0.681495
 50
180.0
 51
300.0
  0
ARC
  5
201E6
  8
ALPHA
 10
1803.302295
 20
395.755548
 30
0.0
 40
0.681495
 50
60.0
 51
180.0
  0
ARC
  5
201E7
  8
ALPHA
 10
1801.339304
 20
395.755548
 30
0.0
 40
0.681495
 50
0.0
 51
120.0
  0
POLYLINE
  5
201E8
  8
ALPHA
 66
     1
 10
0.0
 20
0.0
 30
0.0
  0
VERTEX
  5
23073
  8
ALPHA
 10
1814.156667
 20
403.743048
 30
0.0
  0
VERTEX
  5
23074
  8
ALPHA
 10
1814.168124
 20
403.739414
 30
0.0
  0
VERTEX
  5
23075
  8
ALPHA
 10
1814.198061
 20
403.700493
 30
0.0
  0
SEQEND
  5
23076
  8
ALPHA
  0
POLYLINE
  5
201ED
  8
ALPHA
 66
     1
 10
0.0
 20
0.0
 30
0.0
  0
VERTEX
  5
23077
  8
ALPHA
 10
1814.156613
 20
400.168048
 30
0.0
  0
VERTEX
  5
23078
  8
ALPHA
 10
1814.146521
 20
400.171154
 30
0.0
  0
VERTEX
  5
23079
  8
ALPHA
 10
1814.122259
 20
400.210979
 30
0.0
  0
SEQEND
  5
2307A
  8
ALPHA
  0
LINE
  5
201F2
  8
ALPHA
 10
1813.170036
 20
407.213296
 30
0.0
 11
1812.813105
 21
407.887664
 31
0.0
  0
POLYLINE
  5
201F3
  8
ALPHA
 66
     1
 10
0.0
 20
0.0
 30
0.0
  0
VERTEX
  5
2307B
  8
ALPHA
 10
1814.198061
 20
403.700493
 30
0.0
  0
VERTEX
  5
2307C
  8
ALPHA
 10
1814.218342
 20
403.669383
 30
0.0
  0
VERTEX
  5
2307D
  8
ALPHA
 10
1814.230184
 20
403.662602
 30
0.0
  0
SEQEND
  5
2307E
  8
ALPHA
  0
LINE
  5
201F8
  8
ALPHA
 10
1812.2208
 20
407.955548
 30
0.0
 11
1809.8208
 21
407.955548
 31
0.0
  0
LINE
  5
201F9
  8
ALPHA
 10
1812.813105
 20
407.887664
 30
0.0
 11
1812.2208
 21
407.887664
 31
0.0
  0
LINE
  5
201FA
  8
ALPHA
 10
1814.198061
 20
403.700493
 30
0.0
 11
1814.124471
 21
403.700493
 31
0.0
  0
LINE
  5
201FB
  8
ALPHA
 10
1814.113538
 20
403.662602
 30
0.0
 11
1814.229708
 21
403.662602
 31
0.0
  0
LINE
  5
201FC
  8
ALPHA
 10
1814.100939
 20
403.588689
 30
0.0
 11
1814.218298
 21
403.588689
 31
0.0
  0
LINE
  5
201FD
  8
ALPHA
 10
1814.177238
 20
402.61551
 30
0.0
 11
1814.151124
 21
402.61551
 31
0.0
  0
LINE
  5
201FE
  8
ALPHA
 10
1814.190918
 20
401.351222
 30
0.0
 11
1814.161274
 21
401.351222
 31
0.0
  0
LINE
  5
201FF
  8
ALPHA
 10
1814.109593
 20
400.268093
 30
0.0
 11
1814.234499
 21
400.268093
 31
0.0
  0
LINE
  5
20200
  8
ALPHA
 10
1814.20684
 20
400.229124
 30
0.0
 11
1814.118235
 21
400.229124
 31
0.0
  0
LINE
  5
20201
  8
ALPHA
 10
1800.682725
 20
398.055548
 30
0.0
 11
1798.758157
 21
398.055548
 31
0.0
  0
LINE
  5
20202
  8
ALPHA
 10
1805.883442
 20
398.055548
 30
0.0
 11
1803.958874
 21
398.055548
 31
0.0
  0
LINE
  5
20203
  8
ALPHA
 10
1803.958874
 20
396.855548
 30
0.0
 11
1805.883442
 21
396.855548
 31
0.0
  0
LINE
  5
20204
  8
ALPHA
 10
1798.758157
 20
396.855548
 30
0.0
 11
1800.682725
 21
396.855548
 31
0.0
  0
LINE
  5
20205
  8
ALPHA
 10
1812.813105
 20
396.023432
 30
0.0
 11
1812.2208
 21
396.023432
 31
0.0
  0
LINE
  5
20206
  8
ALPHA
 10
1812.2208
 20
395.955548
 30
0.0
 11
1809.8208
 21
395.955548
 31
0.0
  0
POLYLINE
  5
20207
  8
ALPHA
 66
     1
 10
0.0
 20
0.0
 30
0.0
  0
VERTEX
  5
2307F
  8
ALPHA
 10
1814.20684
 20
402.349927
 30
0.0
  0
VERTEX
  5
23080
  8
ALPHA
 10
1814.225187
 20
402.266862
 30
0.0
  0
VERTEX
  5
23081
  8
ALPHA
 10
1814.238103
 20
402.171715
 30
0.0
  0
VERTEX
  5
23082
  8
ALPHA
 10
1814.246001
 20
402.066886
 30
0.0
  0
VERTEX
  5
23083
  8
ALPHA
 10
1814.248706
 20
401.955906
 30
0.0
  0
VERTEX
  5
23084
  8
ALPHA
 10
1814.246033
 20
401.844848
 30
0.0
  0
VERTEX
  5
23085
  8
ALPHA
 10
1814.23815
 20
401.739828
 30
0.0
  0
VERTEX
  5
23086
  8
ALPHA
 10
1814.225218
 20
401.644411
 30
0.0
  0
VERTEX
  5
23087
  8
ALPHA
 10
1814.20684
 20
401.561168
 30
0.0
  0
SEQEND
  5
23088
  8
ALPHA
  0
POLYLINE
  5
20212
  8
ALPHA
 66
     1
 10
0.0
 20
0.0
 30
0.0
  0
VERTEX
  5
23089
  8
ALPHA
 10
1814.122259
 20
400.210979
 30
0.0
  0
VERTEX
  5
2308A
  8
ALPHA
 10
1814.104516
 20
400.290989
 30
0.0
  0
VERTEX
  5
2308B
  8
ALPHA
 10
1814.093538
 20
400.404999
 30
0.0
  0
VERTEX
  5
2308C
  8
ALPHA
 10
1814.089562
 20
400.552941
 30
0.0
  0
VERTEX
  5
2308D
  8
ALPHA
 10
1814.093365
 20
400.725007
 30
0.0
  0
VERTEX
  5
2308E
  8
ALPHA
 10
1814.104467
 20
400.905716
 30
0.0
  0
VERTEX
  5
2308F
  8
ALPHA
 10
1814.122301
 20
401.08916
 30
0.0
  0
VERTEX
  5
23090
  8
ALPHA
 10
1814.146683
 20
401.270002
 30
0.0
  0
VERTEX
  5
23091
  8
ALPHA
 10
1814.175733
 20
401.431701
 30
0.0
  0
VERTEX
  5
23092
  8
ALPHA
 10
1814.20684
 20
401.561168
 30
0.0
  0
SEQEND
  5
23093
  8
ALPHA
  0
POLYLINE
  5
2021E
  8
ALPHA
 66
     1
 10
0.0
 20
0.0
 30
0.0
  0
VERTEX
  5
23094
  8
ALPHA
 10
1814.20684
 20
402.349927
 30
0.0
  0
VERTEX
  5
23095
  8
ALPHA
 10
1814.176414
 20
402.47612
 30
0.0
  0
VERTEX
  5
23096
  8
ALPHA
 10
1814.147967
 20
402.632912
 30
0.0
  0
VERTEX
  5
23097
  8
ALPHA
 10
1814.123942
 20
402.807878
 30
0.0
  0
VERTEX
  5
23098
  8
ALPHA
 10
1814.106001
 20
402.986488
 30
0.0
  0
VERTEX
  5
23099
  8
ALPHA
 10
1814.094352
 20
403.164188
 30
0.0
  0
VERTEX
  5
2309A
  8
ALPHA
 10
1814.089622
 20
403.335257
 30
0.0
  0
VERTEX
  5
2309B
  8
ALPHA
 10
1814.092401
 20
403.484552
 30
0.0
  0
VERTEX
  5
2309C
  8
ALPHA
 10
1814.102009
 20
403.601738
 30
0.0
  0
SEQEND
  5
2309D
  8
ALPHA
  0
POLYLINE
  5
20229
  8
ALPHA
 66
     1
 10
0.0
 20
0.0
 30
0.0
  0
VERTEX
  5
2309E
  8
ALPHA
 10
1814.248127
 20
403.77333
 30
0.0
  0
VERTEX
  5
2309F
  8
ALPHA
 10
1814.186321
 20
404.137865
 30
0.0
  0
VERTEX
  5
230A0
  8
ALPHA
 10
1814.104649
 20
404.539664
 30
0.0
  0
VERTEX
  5
230A1
  8
ALPHA
 10
1813.997897
 20
404.98223
 30
0.0
  0
VERTEX
  5
230A2
  8
ALPHA
 10
1813.859575
 20
405.469009
 30
0.0
  0
VERTEX
  5
230A3
  8
ALPHA
 10
1813.681791
 20
406.002778
 30
0.0
  0
VERTEX
  5
230A4
  8
ALPHA
 10
1813.455536
 20
406.584219
 30
0.0
  0
VERTEX
  5
230A5
  8
ALPHA
 10
1813.170036
 20
407.213296
 30
0.0
  0
SEQEND
  5
230A6
  8
ALPHA
  0
POLYLINE
  5
20233
  8
ALPHA
 66
     1
 10
0.0
 20
0.0
 30
0.0
  0
VERTEX
  5
230A7
  8
ALPHA
 10
1814.230184
 20
403.662602
 30
0.0
  0
VERTEX
  5
230A8
  8
ALPHA
 10
1814.233342
 20
403.663296
 30
0.0
  0
VERTEX
  5
230A9
  8
ALPHA
 10
1814.243181
 20
403.679833
 30
0.0
  0
VERTEX
  5
230AA
  8
ALPHA
 10
1814.248091
 20
403.71725
 30
0.0
  0
SEQEND
  5
230AB
  8
ALPHA
  0
POLYLINE
  5
20239
  8
ALPHA
 66
     1
 10
0.0
 20
0.0
 30
0.0
  0
VERTEX
  5
230AC
  8
ALPHA
 10
1814.091541
 20
403.265838
 30
0.0
  0
VERTEX
  5
230AD
  8
ALPHA
 10
1814.097121
 20
403.148699
 30
0.0
  0
VERTEX
  5
230AE
  8
ALPHA
 10
1814.109725
 20
403.005817
 30
0.0
  0
VERTEX
  5
230AF
  8
ALPHA
 10
1814.128246
 20
402.86126
 30
0.0
  0
VERTEX
  5
230B0
  8
ALPHA
 10
1814.151461
 20
402.727281
 30
0.0
  0
VERTEX
  5
230B1
  8
ALPHA
 10
1814.177238
 20
402.61551
 30
0.0
  0
SEQEND
  5
230B2
  8
ALPHA
  0
POLYLINE
  5
20241
  8
ALPHA
 66
     1
 10
0.0
 20
0.0
 30
0.0
  0
VERTEX
  5
230B3
  8
ALPHA
 10
1814.239423
 20
402.212698
 30
0.0
  0
VERTEX
  5
230B4
  8
ALPHA
 10
1814.225741
 20
402.353504
 30
0.0
  0
VERTEX
  5
230B5
  8
ALPHA
 10
1814.205584
 20
402.487499
 30
0.0
  0
VERTEX
  5
230B6
  8
ALPHA
 10
1814.177238
 20
402.61551
 30
0.0
  0
SEQEND
  5
230B7
  8
ALPHA
  0
LINE
  5
20247
  8
ALPHA
 10
1814.248705
 20
403.707858
 30
0.0
 11
1814.245962
 21
403.648422
 31
0.0
  0
LINE
  5
20248
  8
ALPHA
 10
1814.248091
 20
403.71725
 30
0.0
 11
1814.248127
 21
403.77333
 31
0.0
  0
LINE
  5
20249
  8
ALPHA
 10
1812.813105
 20
396.023432
 30
0.0
 11
1812.813105
 21
407.887664
 31
0.0
  0
LINE
  5
2024A
  8
ALPHA
 10
1812.2208
 20
407.887664
 30
0.0
 11
1812.2208
 21
407.955506
 31
0.0
  0
LINE
  5
2024B
  8
ALPHA
 10
1812.2208
 20
395.955589
 30
0.0
 11
1812.2208
 21
396.023432
 31
0.0
  0
POLYLINE
  5
2024C
  8
ALPHA
 66
     1
 10
0.0
 20
0.0
 30
0.0
  0
VERTEX
  5
230B8
  8
ALPHA
 10
1814.248262
 20
400.180453
 30
0.0
  0
VERTEX
  5
230B9
  8
ALPHA
 10
1814.24811
 20
400.225689
 30
0.0
  0
VERTEX
  5
230BA
  8
ALPHA
 10
1814.243776
 20
400.256553
 30
0.0
  0
VERTEX
  5
230BB
  8
ALPHA
 10
1814.23459
 20
400.268093
 30
0.0
  0
SEQEND
  5
230BC
  8
ALPHA
  0
POLYLINE
  5
20252
  8
ALPHA
 66
     1
 10
0.0
 20
0.0
 30
0.0
  0
VERTEX
  5
230BD
  8
ALPHA
 10
1814.247668
 20
401.998514
 30
0.0
  0
VERTEX
  5
230BE
  8
ALPHA
 10
1814.247061
 20
402.06477
 30
0.0
  0
VERTEX
  5
230BF
  8
ALPHA
 10
1814.239423
 20
402.212698
 30
0.0
  0
SEQEND
  5
230C0
  8
ALPHA
  0
POLYLINE
  5
20257
  8
ALPHA
 66
     1
 10
0.0
 20
0.0
 30
0.0
  0
VERTEX
  5
230C1
  8
ALPHA
 10
1814.215318
 20
401.481756
 30
0.0
  0
VERTEX
  5
230C2
  8
ALPHA
 10
1814.232485
 20
401.618385
 30
0.0
  0
VERTEX
  5
230C3
  8
ALPHA
 10
1814.243516
 20
401.762338
 30
0.0
  0
VERTEX
  5
230C4
  8
ALPHA
 10
1814.248454
 20
401.912685
 30
0.0
  0
VERTEX
  5
230C5
  8
ALPHA
 10
1814.248237
 20
401.936397
 30
0.0
  0
SEQEND
  5
230C6
  8
ALPHA
  0
LINE
  5
2025E
  8
ALPHA
 10
1814.244274
 20
400.112874
 30
0.0
 11
1814.248262
 21
400.180453
 31
0.0
  0
POLYLINE
  5
2025F
  8
ALPHA
 66
     1
 10
0.0
 20
0.0
 30
0.0
  0
VERTEX
  5
230C7
  8
ALPHA
 10
1814.245962
 20
403.648422
 30
0.0
  0
VERTEX
  5
230C8
  8
ALPHA
 10
1814.23779
 20
403.608299
 30
0.0
  0
VERTEX
  5
230C9
  8
ALPHA
 10
1814.224008
 20
403.589736
 30
0.0
  0
VERTEX
  5
230CA
  8
ALPHA
 10
1814.218949
 20
403.588689
 30
0.0
  0
SEQEND
  5
230CB
  8
ALPHA
  0
POLYLINE
  5
20265
  8
ALPHA
 66
     1
 10
0.0
 20
0.0
 30
0.0
  0
VERTEX
  5
230CC
  8
ALPHA
 10
1814.190918
 20
401.351222
 30
0.0
  0
VERTEX
  5
230CD
  8
ALPHA
 10
1814.161171
 20
401.200412
 30
0.0
  0
VERTEX
  5
230CE
  8
ALPHA
 10
1814.134459
 20
401.02526
 30
0.0
  0
VERTEX
  5
230CF
  8
ALPHA
 10
1814.113121
 20
400.840294
 30
0.0
  0
VERTEX
  5
230D0
  8
ALPHA
 10
1814.098551
 20
400.66076
 30
0.0
  0
VERTEX
  5
230D1
  8
ALPHA
 10
1814.091055
 20
400.497385
 30
0.0
  0
SEQEND
  5
230D2
  8
ALPHA
  0
POLYLINE
  5
2026D
  8
ALPHA
 66
     1
 10
0.0
 20
0.0
 30
0.0
  0
VERTEX
  5
230D3
  8
ALPHA
 10
1814.102009
 20
403.601738
 30
0.0
  0
VERTEX
  5
230D4
  8
ALPHA
 10
1814.118181
 20
403.687116
 30
0.0
  0
VERTEX
  5
230D5
  8
ALPHA
 10
1814.140739
 20
403.73509
 30
0.0
  0
VERTEX
  5
230D6
  8
ALPHA
 10
1814.156667
 20
403.743048
 30
0.0
  0
SEQEND
  5
230D7
  8
ALPHA
  0
LINE
  5
20273
  8
ALPHA
 10
1814.190918
 20
401.351222
 30
0.0
 11
1814.215318
 21
401.481756
 31
0.0
  0
POLYLINE
  5
20274
  8
ALPHA
 66
     1
 10
0.0
 20
0.0
 30
0.0
  0
VERTEX
  5
230D8
  8
ALPHA
 10
1814.108141
 20
403.588689
 30
0.0
  0
VERTEX
  5
230D9
  8
ALPHA
 10
1814.097174
 20
403.522777
 30
0.0
  0
VERTEX
  5
230DA
  8
ALPHA
 10
1814.091456
 20
403.433786
 30
0.0
  0
SEQEND
  5
230DB
  8
ALPHA
  0
POLYLINE
  5
20279
  8
ALPHA
 66
     1
 10
0.0
 20
0.0
 30
0.0
  0
VERTEX
  5
230DC
  8
ALPHA
 10
1813.164049
 20
396.685577
 30
0.0
  0
VERTEX
  5
230DD
  8
ALPHA
 10
1813.446004
 20
397.304219
 30
0.0
  0
VERTEX
  5
230DE
  8
ALPHA
 10
1813.670665
 20
397.877492
 30
0.0
  0
VERTEX
  5
230DF
  8
ALPHA
 10
1813.848371
 20
398.405815
 30
0.0
  0
VERTEX
  5
230E0
  8
ALPHA
 10
1813.987722
 20
398.890207
 30
0.0
  0
VERTEX
  5
230E1
  8
ALPHA
 10
1814.096234
 20
399.333672
 30
0.0
  0
VERTEX
  5
230E2
  8
ALPHA
 10
1814.180096
 20
399.739935
 30
0.0
  0
VERTEX
  5
230E3
  8
ALPHA
 10
1814.243977
 20
400.112925
 30
0.0
  0
SEQEND
  5
230E4
  8
ALPHA
  0
LINE
  5
20283
  8
ALPHA
 10
1812.813105
 20
396.023432
 30
0.0
 11
1813.164049
 21
396.685577
 31
0.0
  0
POLYLINE
  5
20284
  8
ALPHA
 66
     1
 10
0.0
 20
0.0
 30
0.0
  0
VERTEX
  5
230E5
  8
ALPHA
 10
1814.20684
 20
400.229124
 30
0.0
  0
VERTEX
  5
230E6
  8
ALPHA
 10
1814.175568
 20
400.177616
 30
0.0
  0
VERTEX
  5
230E7
  8
ALPHA
 10
1814.156613
 20
400.168048
 30
0.0
  0
SEQEND
  5
230E8
  8
ALPHA
  0
POLYLINE
  5
20289
  8
ALPHA
 66
     1
 10
0.0
 20
0.0
 30
0.0
  0
VERTEX
  5
230E9
  8
ALPHA
 10
1814.23459
 20
400.268093
 30
0.0
  0
VERTEX
  5
230EA
  8
ALPHA
 10
1814.222465
 20
400.258489
 30
0.0
  0
VERTEX
  5
230EB
  8
ALPHA
 10
1814.20684
 20
400.229124
 30
0.0
  0
SEQEND
  5
230EC
  8
ALPHA
  0
LINE
  5
2028E
  8
ALPHA
 10
1809.8208
 20
423.955548
 30
0.0
 11
1806.8208
 21
423.955548
 31
0.0
  0
LINE
  5
2028F
  8
ALPHA
 10
1809.819267
 20
421.955548
 30
0.0
 11
1806.8208
 21
421.955548
 31
0.0
  0
LINE
  5
20290
  8
ALPHA
 10
1806.8208
 20
423.955548
 30
0.0
 11
1806.8208
 21
421.955548
 31
0.0
  0
ENDSEC
  0
EOF
