  0
SECTION
  2
HEADER
  9
$ACADVER
  1
AC1014
  9
$ACADMAINTVER
 70
     9
  9
$DWGCODEPAGE
  3
ANSI_1252
  9
$INSBASE
 10
0.0
 20
0.0
 30
0.0
  9
$EXTMIN
 10
0.0
 20
0.0
 30
0.0
  9
$EXTMAX
 10
131.1999999999999
 20
80.7632
 30
0.0
  9
$LIMMIN
 10
0.0
 20
0.0
  9
$LIMMAX
 10
1632.0
 20
1056.0
  9
$ORTHOMODE
 70
     1
  9
$REGENMODE
 70
     1
  9
$FILLMODE
 70
     1
  9
$QTEXTMODE
 70
     0
  9
$MIRRTEXT
 70
     1
  9
$DRAGMODE
 70
     2
  9
$LTSCALE
 40
1.0
  9
$OSMODE
 70
   237
  9
$ATTMODE
 70
     1
  9
$TEXTSIZE
 40
0.2
  9
$TRACEWID
 40
0.05
  9
$TEXTSTYLE
  7
ROMANS
  9
$CLAYER
  8
0
  9
$CELTYPE
  6
BYLAYER
  9
$CECOLOR
 62
   256
  9
$CELTSCALE
 40
1.0
  9
$DELOBJ
 70
     1
  9
$DISPSILH
 70
     0
  9
$DIMSCALE
 40
0.0
  9
$DIMASZ
 40
0.07
  9
$DIMEXO
 40
0.0625
  9
$DIMDLI
 40
0.38
  9
$DIMRND
 40
0.001
  9
$DIMDLE
 40
0.0
  9
$DIMEXE
 40
0.0625
  9
$DIMTP
 40
0.0
  9
$DIMTM
 40
0.0
  9
$DIMTXT
 40
0.1
  9
$DIMCEN
 40
0.09
  9
$DIMTSZ
 40
0.0
  9
$DIMTOL
 70
     0
  9
$DIMLIM
 70
     0
  9
$DIMTIH
 70
     1
  9
$DIMTOH
 70
     1
  9
$DIMSE1
 70
     0
  9
$DIMSE2
 70
     0
  9
$DIMTAD
 70
     0
  9
$DIMZIN
 70
     4
  9
$DIMBLK
  1
SEARROW
  9
$DIMASO
 70
     1
  9
$DIMSHO
 70
     1
  9
$DIMPOST
  1
\P{\H0.8x;
  9
$DIMAPOST
  1

  9
$DIMALT
 70
     1
  9
$DIMALTD
 70
     0
  9
$DIMALTF
 40
25.4
  9
$DIMLFAC
 40
1.0
  9
$DIMTOFL
 70
     0
  9
$DIMTVP
 40
0.0
  9
$DIMTIX
 70
     0
  9
$DIMSOXD
 70
     0
  9
$DIMSAH
 70
     0
  9
$DIMBLK1
  1

  9
$DIMBLK2
  1

  9
$DIMSTYLE
  2
SCHNEIDERELECTRIC_DUAL_BEL
  9
$DIMCLRD
 70
   256
  9
$DIMCLRE
 70
   256
  9
$DIMCLRT
 70
   256
  9
$DIMTFAC
 40
1.0
  9
$DIMGAP
 40
0.04
  9
$DIMJUST
 70
     0
  9
$DIMSD1
 70
     0
  9
$DIMSD2
 70
     0
  9
$DIMTOLJ
 70
     1
  9
$DIMTZIN
 70
     0
  9
$DIMALTZ
 70
     4
  9
$DIMALTTZ
 70
     0
  9
$DIMFIT
 70
     3
  9
$DIMUPT
 70
     0
  9
$DIMUNIT
 70
     2
  9
$DIMDEC
 70
     2
  9
$DIMTDEC
 70
     2
  9
$DIMALTU
 70
     2
  9
$DIMALTTD
 70
     0
  9
$DIMTXSTY
  7
ROMANS
  9
$DIMAUNIT
 70
     0
  9
$LUNITS
 70
     2
  9
$LUPREC
 70
     4
  9
$SKETCHINC
 40
0.1
  9
$FILLETRAD
 40
0.5
  9
$AUNITS
 70
     0
  9
$AUPREC
 70
     0
  9
$MENU
  1
.
  9
$ELEVATION
 40
0.0
  9
$PELEVATION
 40
0.0
  9
$THICKNESS
 40
0.0
  9
$LIMCHECK
 70
     0
  9
$BLIPMODE
 70
     0
  9
$CHAMFERA
 40
0.5
  9
$CHAMFERB
 40
0.5
  9
$CHAMFERC
 40
1.0
  9
$CHAMFERD
 40
0.0
  9
$SKPOLY
 70
     0
  9
$TDCREATE
 40
2451764.576708576
  9
$TDUPDATE
 40
2453039.340650069
  9
$TDINDWG
 40
0.1217934375
  9
$TDUSRTIMER
 40
0.1217932060
  9
$USRTIMER
 70
     1
  9
$ANGBASE
 50
0.0
  9
$ANGDIR
 70
     0
  9
$PDMODE
 70
     0
  9
$PDSIZE
 40
0.0
  9
$PLINEWID
 40
0.0
  9
$COORDS
 70
     0
  9
$SPLFRAME
 70
     0
  9
$SPLINETYPE
 70
     6
  9
$SPLINESEGS
 70
     8
  9
$ATTDIA
 70
     0
  9
$ATTREQ
 70
     1
  9
$HANDLING
 70
 22529
  9
$HANDSEED
  5
31A8
  9
$SURFTAB1
 70
     6
  9
$SURFTAB2
 70
     6
  9
$SURFTYPE
 70
     6
  9
$SURFU
 70
     6
  9
$SURFV
 70
     6
  9
$UCSNAME
  2

  9
$UCSORG
 10
0.0
 20
0.0
 30
0.0
  9
$UCSXDIR
 10
1.0
 20
0.0
 30
0.0
  9
$UCSYDIR
 10
0.0
 20
1.0
 30
0.0
  9
$PUCSNAME
  2

  9
$PUCSORG
 10
0.0
 20
0.0
 30
0.0
  9
$PUCSXDIR
 10
1.0
 20
0.0
 30
0.0
  9
$PUCSYDIR
 10
0.0
 20
1.0
 30
0.0
  9
$USERI1
 70
     0
  9
$USERI2
 70
     0
  9
$USERI3
 70
     0
  9
$USERI4
 70
     0
  9
$USERI5
 70
     0
  9
$USERR1
 40
0.0
  9
$USERR2
 40
0.0
  9
$USERR3
 40
0.0
  9
$USERR4
 40
0.0
  9
$USERR5
 40
0.0
  9
$WORLDVIEW
 70
     1
  9
$SHADEDGE
 70
     3
  9
$SHADEDIF
 70
    70
  9
$TILEMODE
 70
     0
  9
$MAXACTVP
 70
    48
  9
$PINSBASE
 10
0.0
 20
0.0
 30
0.0
  9
$PLIMCHECK
 70
     0
  9
$PEXTMIN
 10
0.0
 20
-0.1507193164174602
 30
0.0
  9
$PEXTMAX
 10
16.4000010086626
 20
10.1
 30
0.0
  9
$PLIMMIN
 10
-0.3103317859659827
 20
-1.609410762032017
  9
$PLIMMAX
 10
16.7329103006111
 20
11.56036712934322
  9
$UNITMODE
 70
     0
  9
$VISRETAIN
 70
     1
  9
$PLINEGEN
 70
     0
  9
$PSLTSCALE
 70
     1
  9
$TREEDEPTH
 70
  3020
  9
$PICKSTYLE
 70
     1
  9
$CMLSTYLE
  2
STANDARD
  9
$CMLJUST
 70
     0
  9
$CMLSCALE
 40
1.0
  9
$PROXYGRAPHICS
 70
     1
  9
$MEASUREMENT
 70
     0
  0
ENDSEC
  0
SECTION
  2
CLASSES
  0
CLASS
  1
ACDBDICTIONARYWDFLT
  2
AcDbDictionaryWithDefault
  3
AutoCAD 2000
 90
        0
280
     0
281
     0
  0
CLASS
  1
ACDBPLACEHOLDER
  2
AcDbPlaceHolder
  3
AutoCAD 2000
 90
        0
280
     0
281
     0
  0
CLASS
  1
LAYOUT
  2
AcDbLayout
  3
AutoCAD 2000
 90
        0
280
     0
281
     0
  0
CLASS
  1
LONG_TRANSACTION
  2
AcDbLongTransaction
  3
AutoCAD 2000
 90
        0
280
     0
281
     0
  0
CLASS
  1
LWPOLYLINE
  2
AcDbPolyline
  3
AutoCAD 2000
 90
        0
280
     0
281
     1
  0
CLASS
  1
HATCH
  2
AcDbHatch
  3
AutoCAD 2000
 90
        0
280
     0
281
     1
  0
CLASS
  1
XRECORD
  2
AcDbXrecord
  3
AutoCAD 2000
 90
        0
280
     0
281
     0
  0
CLASS
  1
LONG_TRANSACTION
  2
AcDbLongTransaction
  3
AutoCAD 2000
 90
        0
280
     0
281
     0
  0
CLASS
  1
LWPOLYLINE
  2
AcDbPolyline
  3
AutoCAD 2000
 90
        0
280
     0
281
     1
  0
CLASS
  1
HATCH
  2
AcDbHatch
  3
AutoCAD 2000
 90
        0
280
     0
281
     1
  0
CLASS
  1
XRECORD
  2
AcDbXrecord
  3
AutoCAD 2000
 90
        0
280
     0
281
     0
  0
CLASS
  1
PLOTSETTINGS
  2
AcDbPlotSettings
  3
AutoCAD 2000
 90
        0
280
     0
281
     0
  0
CLASS
  1
LONG_TRANSACTION
  2
AcDbLongTransaction
  3
AutoCAD 2000
 90
        0
280
     0
281
     0
  0
CLASS
  1
LWPOLYLINE
  2
AcDbPolyline
  3
AutoCAD 2000
 90
        0
280
     0
281
     1
  0
CLASS
  1
HATCH
  2
AcDbHatch
  3
AutoCAD 2000
 90
        0
280
     0
281
     1
  0
CLASS
  1
XRECORD
  2
AcDbXrecord
  3
AutoCAD 2000
 90
        0
280
     0
281
     0
  0
CLASS
  1
LONG_TRANSACTION
  2
AcDbLongTransaction
  3
AutoCAD 2000
 90
        0
280
     0
281
     0
  0
CLASS
  1
LWPOLYLINE
  2
AcDbPolyline
  3
AutoCAD 2000
 90
        0
280
     0
281
     1
  0
CLASS
  1
HATCH
  2
AcDbHatch
  3
AutoCAD 2000
 90
        0
280
     0
281
     1
  0
CLASS
  1
XRECORD
  2
AcDbXrecord
  3
AutoCAD 2000
 90
        0
280
     0
281
     0
  0
CLASS
  1
DICTIONARYVAR
  2
AcDbDictionaryVar
  3
AutoCAD 2000
 90
        0
280
     0
281
     0
  0
CLASS
  1
LONG_TRANSACTION
  2
AcDbLongTransaction
  3
AutoCAD 2000
 90
        0
280
     0
281
     0
  0
CLASS
  1
LWPOLYLINE
  2
AcDbPolyline
  3
AutoCAD 2000
 90
        0
280
     0
281
     1
  0
CLASS
  1
HATCH
  2
AcDbHatch
  3
AutoCAD 2000
 90
        0
280
     0
281
     1
  0
CLASS
  1
XRECORD
  2
AcDbXrecord
  3
AutoCAD 2000
 90
        0
280
     0
281
     0
  0
CLASS
  1
LONG_TRANSACTION
  2
AcDbLongTransaction
  3
AutoCAD 2000
 90
        0
280
     0
281
     0
  0
CLASS
  1
LWPOLYLINE
  2
AcDbPolyline
  3
AutoCAD 2000
 90
        0
280
     0
281
     1
  0
CLASS
  1
HATCH
  2
AcDbHatch
  3
AutoCAD 2000
 90
        0
280
     0
281
     1
  0
CLASS
  1
XRECORD
  2
AcDbXrecord
  3
AutoCAD 2000
 90
        0
280
     0
281
     0
  0
CLASS
  1
LONG_TRANSACTION
  2
AcDbLongTransaction
  3
AutoCAD 2000
 90
        0
280
     0
281
     0
  0
CLASS
  1
LWPOLYLINE
  2
AcDbPolyline
  3
AutoCAD 2000
 90
        0
280
     0
281
     1
  0
CLASS
  1
HATCH
  2
AcDbHatch
  3
AutoCAD 2000
 90
        0
280
     0
281
     1
  0
CLASS
  1
XRECORD
  2
AcDbXrecord
  3
AutoCAD 2000
 90
        0
280
     0
281
     0
  0
CLASS
  1
LONG_TRANSACTION
  2
AcDbLongTransaction
  3
AutoCAD 2000
 90
        0
280
     0
281
     0
  0
CLASS
  1
LWPOLYLINE
  2
AcDbPolyline
  3
AutoCAD 2000
 90
        0
280
     0
281
     1
  0
CLASS
  1
HATCH
  2
AcDbHatch
  3
AutoCAD 2000
 90
        0
280
     0
281
     1
  0
CLASS
  1
XRECORD
  2
AcDbXrecord
  3
AutoCAD 2000
 90
        0
280
     0
281
     0
  0
CLASS
  1
LONG_TRANSACTION
  2
AcDbLongTransaction
  3
AutoCAD 2000
 90
        0
280
     0
281
     0
  0
CLASS
  1
LWPOLYLINE
  2
AcDbPolyline
  3
AutoCAD 2000
 90
        0
280
     0
281
     1
  0
CLASS
  1
HATCH
  2
AcDbHatch
  3
AutoCAD 2000
 90
        0
280
     0
281
     1
  0
CLASS
  1
XRECORD
  2
AcDbXrecord
  3
AutoCAD 2000
 90
        0
280
     0
281
     0
  0
CLASS
  1
LONG_TRANSACTION
  2
AcDbLongTransaction
  3
AutoCAD 2000
 90
        0
280
     0
281
     0
  0
CLASS
  1
LWPOLYLINE
  2
AcDbPolyline
  3
AutoCAD 2000
 90
        0
280
     0
281
     1
  0
CLASS
  1
HATCH
  2
AcDbHatch
  3
AutoCAD 2000
 90
        0
280
     0
281
     1
  0
CLASS
  1
XRECORD
  2
AcDbXrecord
  3
AutoCAD 2000
 90
        0
280
     0
281
     0
  0
CLASS
  1
LONG_TRANSACTION
  2
AcDbLongTransaction
  3
AutoCAD 2000
 90
        0
280
     0
281
     0
  0
CLASS
  1
LWPOLYLINE
  2
AcDbPolyline
  3
AutoCAD 2000
 90
        0
280
     0
281
     1
  0
CLASS
  1
HATCH
  2
AcDbHatch
  3
AutoCAD 2000
 90
        0
280
     0
281
     1
  0
CLASS
  1
XRECORD
  2
AcDbXrecord
  3
AutoCAD 2000
 90
        0
280
     0
281
     0
  0
ENDSEC
  0
SECTION
  2
TABLES
  0
TABLE
  2
VPORT
  5
8
330
0
100
AcDbSymbolTable
 70
     1
  0
VPORT
  5
1B00
330
8
100
AcDbSymbolTableRecord
100
AcDbViewportTableRecord
  2
*ACTIVE
 70
     0
 10
0.0
 20
0.0
 11
1.0
 21
1.0
 12
66.43500711490152
 22
40.37182806289275
 13
0.0
 23
0.0
 14
0.5
 24
0.5
 15
0.5
 25
0.5
 16
0.0
 26
0.0
 36
1.0
 17
0.0
 27
0.0
 37
0.0
 40
83.16367903696814
 41
1.606535947712418
 42
50.0
 43
0.0
 44
0.0
 50
0.0
 51
0.0
 71
     0
 72
   100
 73
     1
 74
     2
 75
     0
 76
     0
 77
     0
 78
     0
  0
ENDTAB
  0
TABLE
  2
LTYPE
  5
5
330
0
100
AcDbSymbolTable
 70
     3
  0
LTYPE
  5
14
330
5
100
AcDbSymbolTableRecord
100
AcDbLinetypeTableRecord
  2
BYBLOCK
 70
     0
  3

 72
    65
 73
     0
 40
0.0
  0
LTYPE
  5
15
330
5
100
AcDbSymbolTableRecord
100
AcDbLinetypeTableRecord
  2
BYLAYER
 70
     0
  3

 72
    65
 73
     0
 40
0.0
  0
LTYPE
  5
16
330
5
100
AcDbSymbolTableRecord
100
AcDbLinetypeTableRecord
  2
CONTINUOUS
 70
     0
  3
Solid line
 72
    65
 73
     0
 40
0.0
  0
LTYPE
  5
3D
330
5
100
AcDbSymbolTableRecord
100
AcDbLinetypeTableRecord
  2
CENTER2
 70
     0
  3
Center (.5x) ___ _ ___ _ ___ _ ___ _ ___ _ ___
 72
    65
 73
     4
 40
1.125
 49
0.75
 74
     0
 49
-0.125
 74
     0
 49
0.125
 74
     0
 49
-0.125
 74
     0
  0
LTYPE
  5
428
330
5
100
AcDbSymbolTableRecord
100
AcDbLinetypeTableRecord
  2
HIDDEN2
 70
     0
  3
Hidden (.5x) _ _ _ _ _ _ _ _ _ _ _ _ _ _ _ _ _
 72
    65
 73
     2
 40
0.08
 49
0.035
 74
     0
 49
-0.045
 74
     0
  0
ENDTAB
  0
TABLE
  2
LAYER
  5
2
330
0
100
AcDbSymbolTable
 70
    11
  0
LAYER
  5
10
330
2
100
AcDbSymbolTableRecord
100
AcDbLayerTableRecord
  2
0
 70
     0
 62
     7
  6
CONTINUOUS
  0
LAYER
  5
43
330
2
100
AcDbSymbolTableRecord
100
AcDbLayerTableRecord
  2
CENTER1
 70
     0
 62
     2
  6
CENTER2
  0
LAYER
  5
47
330
2
100
AcDbSymbolTableRecord
100
AcDbLayerTableRecord
  2
CONTINUOUS1
 70
     0
 62
     7
  6
CONTINUOUS
  0
LAYER
  5
48
330
2
100
AcDbSymbolTableRecord
100
AcDbLayerTableRecord
  2
CONTINUOUS2
 70
     0
 62
   254
  6
CONTINUOUS
  0
LAYER
  5
49
330
2
100
AcDbSymbolTableRecord
100
AcDbLayerTableRecord
  2
CONTINUOUS3
 70
     0
 62
   253
  6
CONTINUOUS
  0
LAYER
  5
4D
330
2
100
AcDbSymbolTableRecord
100
AcDbLayerTableRecord
  2
DIM
 70
     0
 62
     2
  6
CONTINUOUS
  0
LAYER
  5
4E
330
2
100
AcDbSymbolTableRecord
100
AcDbLayerTableRecord
  2
HIDDEN1
 70
     0
 62
     5
  6
HIDDEN2
  0
LAYER
  5
55
330
2
100
AcDbSymbolTableRecord
100
AcDbLayerTableRecord
  2
TEXT1
 70
     0
 62
     3
  6
CONTINUOUS
  0
LAYER
  5
58
330
2
100
AcDbSymbolTableRecord
100
AcDbLayerTableRecord
  2
TITLEBLOCK
 70
     0
 62
     9
  6
CONTINUOUS
  0
LAYER
  5
59
330
2
100
AcDbSymbolTableRecord
100
AcDbLayerTableRecord
  2
VIEWPORT
 70
     0
 62
     9
  6
CONTINUOUS
  0
LAYER
  5
19F
330
2
100
AcDbSymbolTableRecord
100
AcDbLayerTableRecord
  2
DEFPOINTS
 70
     0
 62
     7
  6
CONTINUOUS
  0
ENDTAB
  0
TABLE
  2
STYLE
  5
3
330
0
100
AcDbSymbolTable
 70
     3
  0
STYLE
  5
11
330
3
100
AcDbSymbolTableRecord
100
AcDbTextStyleTableRecord
  2
STANDARD
 70
     0
 40
0.0
 41
1.0
 50
0.0
 71
     0
 42
0.2
  3
txt
  4

  0
STYLE
  5
36
330
3
100
AcDbSymbolTableRecord
100
AcDbTextStyleTableRecord
  2
ROMANS
 70
     0
 40
0.0
 41
1.0
 50
0.0
 71
     0
 42
0.2
  3
romans.shx
  4

  0
STYLE
  5
531
330
3
100
AcDbSymbolTableRecord
100
AcDbTextStyleTableRecord
  2
M_STANDARD
 70
     0
 40
0.0
 41
0.8
 50
0.0
 71
     0
 42
0.0
  3
MEDUSA.SHX
  4

  0
ENDTAB
  0
TABLE
  2
VIEW
  5
6
330
0
100
AcDbSymbolTable
 70
     0
  0
ENDTAB
  0
TABLE
  2
UCS
  5
7
330
0
100
AcDbSymbolTable
 70
     0
  0
ENDTAB
  0
TABLE
  2
APPID
  5
9
330
0
100
AcDbSymbolTable
 70
    11
  0
APPID
  5
12
330
9
100
AcDbSymbolTableRecord
100
AcDbRegAppTableRecord
  2
ACAD
 70
     0
  0
APPID
  5
6B
330
9
100
AcDbSymbolTableRecord
100
AcDbRegAppTableRecord
  2
DCO15
 70
     0
  0
APPID
  5
532
330
9
100
AcDbSymbolTableRecord
100
AcDbRegAppTableRecord
  2
MCAD_NO_VIS
 70
     0
  0
APPID
  5
533
330
9
100
AcDbSymbolTableRecord
100
AcDbRegAppTableRecord
  2
ACAD_TEMP_GRAPHIC
 70
     0
  0
APPID
  5
534
330
9
100
AcDbSymbolTableRecord
100
AcDbRegAppTableRecord
  2
GENIUS_GENSCREG_15
 70
     0
  0
APPID
  5
535
330
9
100
AcDbSymbolTableRecord
100
AcDbRegAppTableRecord
  2
GENIUS_GENODEF_13
 70
     0
  0
APPID
  5
536
330
9
100
AcDbSymbolTableRecord
100
AcDbRegAppTableRecord
  2
GENIUS_GENOBJ-N-SDF_13
 70
     0
  0
APPID
  5
537
330
9
100
AcDbSymbolTableRecord
100
AcDbRegAppTableRecord
  2
GENIUS_GENOENT_13
 70
     0
  0
APPID
  5
538
330
9
100
AcDbSymbolTableRecord
100
AcDbRegAppTableRecord
  2
GENIUS_GENOREF_13
 70
     0
  0
APPID
  5
539
330
9
100
AcDbSymbolTableRecord
100
AcDbRegAppTableRecord
  2
GENIUS_GENOLIS_13
 70
     0
  0
APPID
  5
53A
330
9
100
AcDbSymbolTableRecord
100
AcDbRegAppTableRecord
  2
MED_PRIMTYPE
 70
     0
  0
ENDTAB
  0
TABLE
  2
DIMSTYLE
  5
A
330
0
100
AcDbSymbolTable
 70
     2
  0
DIMSTYLE
105
35
330
A
100
AcDbSymbolTableRecord
100
AcDbDimStyleTableRecord
  2
SCHNEIDERELECTRIC
 70
     0
  3

  4

  5
SEARROW
  6

  7

 40
0.0
 41
0.07
 42
0.0625
 43
0.38
 44
0.0625
 45
0.001
 46
0.0
 47
0.0
 48
0.0
140
0.1
141
0.09
142
0.0
143
25.4
144
1.0
145
0.0
146
1.0
147
0.04
 71
     0
 72
     0
 73
     1
 74
     1
 75
     0
 76
     0
 77
     0
 78
     4
170
     0
171
     1
172
     0
173
     0
174
     0
175
     0
176
   256
177
   256
178
   256
270
     2
271
     2
272
     2
273
     2
274
     1
340
36
275
     0
280
     0
281
     0
282
     0
283
     1
284
     0
285
     0
286
     0
287
     3
288
     0
  0
DIMSTYLE
105
1A1
102
{ACAD_REACTORS
330
A8C
330
A91
330
A92
330
A93
330
A94
330
A95
330
A96
330
A97
330
A98
330
A99
330
A9C
330
A9D
330
A9E
330
A9F
330
AA0
330
AA1
330
AA2
330
AA3
330
AA4
330
AA5
330
CCC
330
CDA
102
}
330
A
100
AcDbSymbolTableRecord
100
AcDbDimStyleTableRecord
  2
SCHNEIDERELECTRIC_DUAL_BEL
 70
     0
  3
\P{\H0.8x;
  4

  5
SEARROW
  6

  7

 40
0.0
 41
0.07
 42
0.0625
 43
0.38
 44
0.0625
 45
0.001
 46
0.0
 47
0.0
 48
0.0
140
0.1
141
0.09
142
0.0
143
25.4
144
1.0
145
0.0
146
1.0
147
0.04
 71
     0
 72
     0
 73
     1
 74
     1
 75
     0
 76
     0
 77
     0
 78
     4
170
     1
171
     0
172
     0
173
     0
174
     0
175
     0
176
   256
177
   256
178
   256
270
     2
271
     2
272
     2
273
     2
274
     0
340
36
275
     0
280
     0
281
     0
282
     0
283
     1
284
     0
285
     4
286
     0
287
     3
288
     0
  0
ENDTAB
  0
TABLE
  2
BLOCK_RECORD
  5
1
330
0
100
AcDbSymbolTable
 70
    27
  0
BLOCK_RECORD
  5
1F
102
{ACAD_XDICTIONARY
360
73
102
}
330
1
100
AcDbSymbolTableRecord
100
AcDbBlockTableRecord
  2
*MODEL_SPACE
  0
BLOCK_RECORD
  5
1B
102
{ACAD_XDICTIONARY
360
75
102
}
330
1
100
AcDbSymbolTableRecord
100
AcDbBlockTableRecord
  2
*PAPER_SPACE
  0
BLOCK_RECORD
  5
195
330
1
100
AcDbSymbolTableRecord
100
AcDbBlockTableRecord
  2
SEARROW
1001
ACAD
1000
DesignCenter Data
1002
{
1070
     1
1070
     1
1002
}
  0
BLOCK_RECORD
  5
53C
330
1
100
AcDbSymbolTableRecord
100
AcDbBlockTableRecord
  2
TB-PAD
  0
BLOCK_RECORD
  5
557
330
1
100
AcDbSymbolTableRecord
100
AcDbBlockTableRecord
  2
LOGO-PAD
  0
BLOCK_RECORD
  5
6B3
330
1
100
AcDbSymbolTableRecord
100
AcDbBlockTableRecord
  2
M_PFN_101
  0
BLOCK_RECORD
  5
6B7
330
1
100
AcDbSymbolTableRecord
100
AcDbBlockTableRecord
  2
M_PFN_2
  0
BLOCK_RECORD
  5
ACB
330
1
100
AcDbSymbolTableRecord
100
AcDbBlockTableRecord
  2
*D5
  0
BLOCK_RECORD
  5
AD8
330
1
100
AcDbSymbolTableRecord
100
AcDbBlockTableRecord
  2
*D6
  0
BLOCK_RECORD
  5
AE5
330
1
100
AcDbSymbolTableRecord
100
AcDbBlockTableRecord
  2
*D7
  0
BLOCK_RECORD
  5
AF3
330
1
100
AcDbSymbolTableRecord
100
AcDbBlockTableRecord
  2
*D8
  0
BLOCK_RECORD
  5
B00
330
1
100
AcDbSymbolTableRecord
100
AcDbBlockTableRecord
  2
*D9
  0
BLOCK_RECORD
  5
B0D
330
1
100
AcDbSymbolTableRecord
100
AcDbBlockTableRecord
  2
*D10
  0
BLOCK_RECORD
  5
B1B
330
1
100
AcDbSymbolTableRecord
100
AcDbBlockTableRecord
  2
*D11
  0
BLOCK_RECORD
  5
B29
330
1
100
AcDbSymbolTableRecord
100
AcDbBlockTableRecord
  2
*D12
  0
BLOCK_RECORD
  5
B36
330
1
100
AcDbSymbolTableRecord
100
AcDbBlockTableRecord
  2
*D13
  0
BLOCK_RECORD
  5
B42
330
1
100
AcDbSymbolTableRecord
100
AcDbBlockTableRecord
  2
*D14
  0
BLOCK_RECORD
  5
B4E
330
1
100
AcDbSymbolTableRecord
100
AcDbBlockTableRecord
  2
*D15
  0
BLOCK_RECORD
  5
B5B
330
1
100
AcDbSymbolTableRecord
100
AcDbBlockTableRecord
  2
*D16
  0
BLOCK_RECORD
  5
B68
330
1
100
AcDbSymbolTableRecord
100
AcDbBlockTableRecord
  2
*D17
  0
BLOCK_RECORD
  5
B75
330
1
100
AcDbSymbolTableRecord
100
AcDbBlockTableRecord
  2
*D18
  0
BLOCK_RECORD
  5
B82
330
1
100
AcDbSymbolTableRecord
100
AcDbBlockTableRecord
  2
*D19
  0
BLOCK_RECORD
  5
B8F
330
1
100
AcDbSymbolTableRecord
100
AcDbBlockTableRecord
  2
*D20
  0
BLOCK_RECORD
  5
B9D
330
1
100
AcDbSymbolTableRecord
100
AcDbBlockTableRecord
  2
*D21
  0
BLOCK_RECORD
  5
BAB
330
1
100
AcDbSymbolTableRecord
100
AcDbBlockTableRecord
  2
*D22
  0
BLOCK_RECORD
  5
BBA
330
1
100
AcDbSymbolTableRecord
100
AcDbBlockTableRecord
  2
*D23
  0
BLOCK_RECORD
  5
BC7
330
1
100
AcDbSymbolTableRecord
100
AcDbBlockTableRecord
  2
*D24
  0
BLOCK_RECORD
  5
CCD
330
1
100
AcDbSymbolTableRecord
100
AcDbBlockTableRecord
  2
*D25
  0
BLOCK_RECORD
  5
CDB
330
1
100
AcDbSymbolTableRecord
100
AcDbBlockTableRecord
  2
*D26
  0
ENDTAB
  0
ENDSEC
  0
SECTION
  2
BLOCKS
  0
BLOCK
  5
20
330
1F
100
AcDbEntity
  8
0
100
AcDbBlockBegin
  2
*MODEL_SPACE
 70
     0
 10
0.0
 20
0.0
 30
0.0
  3
*MODEL_SPACE
  1

  0
ENDBLK
  5
21
330
1F
100
AcDbEntity
  8
0
100
AcDbBlockEnd
  0
BLOCK
  5
1C
330
1B
100
AcDbEntity
 67
     1
  8
0
100
AcDbBlockBegin
  2
*PAPER_SPACE
 70
     0
 10
0.0
 20
0.0
 30
0.0
  3
*PAPER_SPACE
  1

  0
ENDBLK
  5
1D
330
1B
100
AcDbEntity
 67
     1
  8
0
100
AcDbBlockEnd
  0
BLOCK
  5
197
330
195
100
AcDbEntity
  8
0
100
AcDbBlockBegin
  2
SEARROW
 70
     0
 10
0.0
 20
0.0
 30
0.0
  3
SEARROW
  1

  0
LWPOLYLINE
  5
196
330
195
100
AcDbEntity
  8
0
  6
BYBLOCK
100
AcDbPolyline
 90
        2
 70
     0
 10
0.0
 20
0.0
 40
0.0
 41
0.5000000001500001
 10
-1.000000000300019
 20
0.0
 40
0.5000000001500001
 41
0.5000000001500001
  0
ENDBLK
  5
198
330
195
100
AcDbEntity
  8
0
100
AcDbBlockEnd
  0
BLOCK
  5
54B
330
53C
100
AcDbEntity
  8
0
100
AcDbBlockBegin
  2
TB-PAD
 70
     2
 10
0.0
 20
0.0
 30
0.0
  3
TB-PAD
  1

  0
LWPOLYLINE
  5
53D
330
53C
100
AcDbEntity
  8
CONTINUOUS2
 62
     0
100
AcDbPolyline
 90
        7
 70
     1
 43
0.0
 10
16.4000010086626
 20
-0.0000000084245251
 10
16.4000010086626
 20
-0.0000000084245251
 10
16.4000010086626
 20
-0.0000000084245251
 10
8.002461008662603
 20
-0.0000000084245251
 10
8.002461008662603
 20
0.9120019915754742
 10
16.4000010086626
 20
0.9120019915754742
 10
16.4000010086626
 20
-0.0000000084245251
  0
LINE
  5
53E
330
53C
100
AcDbEntity
  8
CONTINUOUS2
 62
     0
100
AcDbLine
 10
16.4000010086626
 20
0.3039999915754752
 30
0.0
 11
12.2457010086626
 21
0.3039999915754752
 31
0.0
  0
LINE
  5
53F
330
53C
100
AcDbEntity
  8
CONTINUOUS2
 62
     0
100
AcDbLine
 10
12.2457010086626
 20
0.9120019915754742
 30
0.0
 11
12.2457010086626
 21
-0.0000000084245251
 31
0.0
  0
TEXT
  5
540
330
53C
100
AcDbEntity
  8
TEXT1
  6
CONTINUOUS
 62
     0
100
AcDbText
 10
12.36897712979916
 20
0.0611566646937659
 30
0.0
 40
0.0699999951940822
  1
NO.
  7
ROMANS
 11
12.36897712979916
 21
0.096156662290807
 31
0.0
100
AcDbText
 73
     2
  0
TEXT
  5
541
330
53C
100
AcDbEntity
  8
TEXT1
  6
CONTINUOUS
 62
     0
100
AcDbText
 10
12.36897712979916
 20
0.1661566646937658
 30
0.0
 40
0.0699999951940822
  1
DWG#
  7
ROMANS
 11
12.36897712979916
 21
0.2011566622908068
 31
0.0
100
AcDbText
 73
     2
  0
ATTDEF
  5
542
330
53C
100
AcDbEntity
  8
TEXT1
 62
     0
100
AcDbText
 10
10.10183835760059
 20
0.7474460800344916
 30
0.0
 40
0.1
  1

  7
ROMANS
 72
     4
 11
10.10183835760059
 21
0.7474460800344916
 31
0.0
100
AcDbAttributeDefinition
  3
DESCRIPTION 1
  2
DESCRIPTION 1
 70
     0
  0
ATTDEF
  5
543
330
53C
100
AcDbEntity
  8
TEXT1
 62
     0
100
AcDbText
 10
10.10183835760059
 20
0.6017231627161466
 30
0.0
 40
0.1
  1

  7
ROMANS
 72
     4
 11
10.10183835760059
 21
0.6017231627161466
 31
0.0
100
AcDbAttributeDefinition
  3
DESCRIPTION 2
  2
DESCRIPTION 2
 70
     0
  0
ATTDEF
  5
544
330
53C
100
AcDbEntity
  8
TEXT1
 62
     0
100
AcDbText
 10
10.10183835760059
 20
0.4560002453978016
 30
0.0
 40
0.08
  1

  7
ROMANS
 72
     4
 11
10.10183835760059
 21
0.4560002453978016
 31
0.0
100
AcDbAttributeDefinition
  3
DESCRIPTION 3
  2
DESCRIPTION 3
 70
     0
  0
ATTDEF
  5
545
330
53C
100
AcDbEntity
  8
TEXT1
 62
     0
100
AcDbText
 10
10.10183835760059
 20
0.3202773280794582
 30
0.0
 40
0.08
  1

  7
ROMANS
 72
     4
 11
10.10183835760059
 21
0.3202773280794582
 31
0.0
100
AcDbAttributeDefinition
  3
DESCRIPTION 4
  2
DESCRIPTION 4
 70
     0
  0
ATTDEF
  5
546
330
53C
100
AcDbEntity
  8
TEXT1
 62
     0
100
AcDbText
 10
10.10183835760059
 20
0.1845544107611148
 30
0.0
 40
0.08
  1

  7
ROMANS
 72
     4
 11
10.10183835760059
 21
0.1845544107611148
 31
0.0
100
AcDbAttributeDefinition
  3
DESCRIPTION 5
  2
DESCRIPTION 5
 70
     0
  0
ATTDEF
  5
547
330
53C
100
AcDbEntity
  8
TEXT1
 62
     0
100
AcDbText
 10
12.74772367969455
 20
0.09654053761198
 30
0.0
 40
0.12
  1

 41
0.9512024731840066
  7
M_STANDARD
 11
12.74772367969455
 21
0.1565405376119799
 31
0.0
100
AcDbAttributeDefinition
  3
DRAWING NUMBER
  2
DWGNO
 70
     0
 74
     2
  0
ATTDEF
  5
548
330
53C
100
AcDbEntity
  8
TEXT1
 62
     0
100
AcDbText
 10
16.35506455815586
 20
-0.1507193164174602
 30
0.0
 40
0.08
  1

  7
ROMANS
 72
     2
 11
16.35506455815586
 21
-0.1107193164174602
 31
0.0
100
AcDbAttributeDefinition
  3
REF DWG #
  2
REF
 70
     0
 74
     2
  0
ATTDEF
  5
549
330
53C
100
AcDbEntity
  8
TEXT1
 62
     0
100
AcDbText
 10
0.0266402460664743
 20
-0.1507193164174602
 30
0.0
 40
0.08
  1

  7
ROMANS
 11
0.0266402460664743
 21
-0.1107193164174602
 31
0.0
100
AcDbAttributeDefinition
  3
DATE MODIFIED
  2
DATE
 70
     0
 74
     2
  0
LWPOLYLINE
  5
54A
330
53C
100
AcDbEntity
  8
CONTINUOUS3
 62
     0
100
AcDbPolyline
 90
        4
 70
   129
 43
0.0
 10
0.0000000086626031
 20
-0.0000000084245251
 10
16.4000010086626
 20
-0.0000000084245251
 10
16.4000010086626
 20
10.1
 10
0.0000000086626031
 20
10.1
  0
ENDBLK
  5
54C
330
53C
100
AcDbEntity
  8
0
100
AcDbBlockEnd
  0
BLOCK
  5
599
330
557
100
AcDbEntity
  8
0
100
AcDbBlockBegin
  2
LOGO-PAD
 70
     0
 10
0.0
 20
0.0
 30
0.0
  3
LOGO-PAD
  1

  0
HATCH
  5
558
330
557
100
AcDbEntity
  8
CONTINUOUS1
 62
     9
100
AcDbHatch
 10
0.0
 20
0.0
 30
0.0
210
0.0
220
0.0
230
1.0
  2
SOLID
 70
     1
 71
     1
 91
        1
 92
        1
 93
        4
 72
     1
 10
1.830314246824318
 20
0.3820863083685713
 11
1.830314246824318
 21
0.3931967807444612
 72
     2
 10
1.808269786605604
 20
0.3584765545696773
 40
0.041127269930821
 50
57.58784372121546
 51
302.4121562787845
 73
     1
 72
     1
 10
1.830314246824318
 20
0.3237563283948935
 11
1.830314246824318
 21
0.3348668007707834
 72
     2
 10
1.812192479989334
 20
0.3584765545696773
 40
0.0297627100188458
 50
52.49180531393238
 51
307.5081946860675
 73
     0
 97
        1
330
55D
 75
     0
 76
     1
 98
        1
 10
-6.623918024059631
 20
-0.1308261527660757
  0
HATCH
  5
559
330
557
100
AcDbEntity
  8
CONTINUOUS1
 62
     9
100
AcDbHatch
 10
0.0
 20
0.0
 30
0.0
210
0.0
220
0.0
230
1.0
  2
SOLID
 70
     1
 71
     1
 91
        1
 92
        1
 93
        4
 72
     1
 10
2.998736751853392
 20
0.4763401613594179
 11
1.673816157100507
 21
0.4763642794500816
 72
     1
 10
1.673816157100507
 20
0.4763642794500816
 11
1.673816157100507
 21
0.4979941642056934
 72
     1
 10
1.673816157100507
 20
0.4979941642056934
 11
2.998736751853392
 21
0.4979700461150296
 72
     1
 10
2.998736751853392
 20
0.4979700461150296
 11
2.998736751853392
 21
0.4763401613594179
 97
        1
330
55B
 75
     0
 76
     1
 98
        1
 10
-6.623918024059631
 20
-0.1308261527660757
  0
HATCH
  5
55A
330
557
100
AcDbEntity
  8
CONTINUOUS1
 62
     9
100
AcDbHatch
 10
0.0
 20
0.0
 30
0.0
210
0.0
220
0.0
230
1.0
  2
SOLID
 70
     1
 71
     1
 91
        1
 92
        1
 93
       26
 72
     1
 10
1.706158971979878
 20
0.6423016628555165
 11
1.794659236046104
 21
0.6423016628555165
 72
     2
 10
1.794659059797441
 20
0.6315206045637596
 40
0.0107810582931976
 50
270.0009366709926
 51
360.0009366862294
 73
     0
 72
     1
 10
1.805440118089197
 20
0.6315204283122289
 11
1.827002575925892
 21
0.6315204283122289
 72
     1
 10
1.827002575925892
 20
0.6315204283122289
 11
1.827002575925892
 21
0.6423016628555165
 72
     2
 10
1.805440021527005
 20
0.6423017594181574
 40
0.0215625543991033
 50
359.9997434148255
 51
449.9997434160159
 73
     1
 72
     1
 10
1.805440118089197
 20
0.6638643138170442
 11
1.695377564936368
 21
0.6638643138170442
 72
     2
 10
1.695378186492716
 20
0.6423022844272413
 40
0.0215620293987615
 50
90.00165163282177
 51
180.0014125206716
 73
     1
 72
     1
 10
1.673816157100507
 20
0.6423017528555879
 11
1.673816157100507
 21
0.6107079034654821
 72
     2
 10
1.695378141491445
 20
0.6107073268949657
 40
0.0215619843986475
 50
179.9984679027414
 51
269.9984679437668
 73
     1
 72
     1
 10
1.695377564936368
 20
0.5891453425040259
 11
1.794659236046104
 21
0.5891456106290894
 72
     2
 10
1.794659058859963
 20
0.5783645513998547
 40
0.0107810592306907
 50
270.0009416531222
 51
360.0009416684906
 73
     0
 72
     1
 10
1.805440118089197
 20
0.5783643742108216
 11
1.805440286839289
 21
0.5675829596673912
 72
     2
 10
1.794659009170951
 20
0.5675828227932667
 40
0.0107812776692067
 50
359.9992725992319
 51
449.9997907459082
 73
     0
 72
     1
 10
1.794659048546041
 20
0.5568015451241313
 11
1.706158971979878
 21
0.5568015451239608
 72
     2
 10
1.706158926979732
 20
0.5675830946673887
 40
0.0107815495435218
 50
89.99976085826782
 51
179.9997608594354
 73
     0
 72
     1
 10
1.695377377436305
 20
0.5675830496674626
 11
1.673816157100507
 21
0.5675830496674626
 72
     1
 10
1.673816157100507
 20
0.5675830496674626
 11
1.673816157100507
 21
0.5568018132491948
 72
     2
 10
1.695378051486819
 20
0.5568010585565073
 40
0.0215618943995203
 50
179.9979945776083
 51
269.9987071039827
 73
     1
 72
     1
 10
1.695377564936368
 20
0.5352391641624768
 11
1.805440118089197
 21
0.5352391641624768
 72
     2
 10
1.805440156527087
 20
0.5568015835616184
 40
0.0215624193991759
 50
269.9998978626289
 51
359.9996636967671
 73
     1
 72
     1
 10
1.827002575925892
 20
0.5568014569988696
 11
1.827002575925892
 21
0.5887705485089332
 72
     2
 10
1.805440111526664
 20
0.5887705550714311
 40
0.0215624643992288
 50
359.9999825621309
 51
449.9999825620359
 73
     1
 72
     1
 10
1.805440118089197
 20
0.6103330194706591
 11
1.706158971979878
 21
0.6103327513454251
 72
     2
 10
1.706158881980003
 20
0.6211142558887484
 40
0.0107815045436989
 50
89.99952171675776
 51
179.9999900368059
 73
     0
 72
     1
 10
1.695377377436305
 20
0.6211142540139467
 11
1.695377564936368
 21
0.6315205164371496
 72
     2
 10
1.706158885728571
 20
0.6315203420622487
 40
0.0107813207936133
 50
180.0009266903443
 51
270.0004583701697
 73
     0
 97
        1
330
55C
 75
     0
 76
     1
 98
        1
 10
-6.623918024059631
 20
-0.1308261527660757
  0
LWPOLYLINE
  5
55B
102
{ACAD_REACTORS
330
559
102
}
330
557
100
AcDbEntity
  8
CONTINUOUS1
  6
CONTINUOUS
 62
     9
100
AcDbPolyline
 90
        4
 70
     1
 43
0.0
 10
2.998736751853392
 20
0.4763401613594179
 10
1.673816157100507
 20
0.4763642794500816
 10
1.673816157100507
 20
0.4979941642056934
 10
2.998736751853392
 20
0.4979700461150296
  0
LWPOLYLINE
  5
55C
102
{ACAD_REACTORS
330
55A
102
}
330
557
100
AcDbEntity
  8
CONTINUOUS1
  6
CONTINUOUS
 62
     9
100
AcDbPolyline
 90
       26
 70
     1
 43
0.0
 10
1.706158971979878
 20
0.6423016628555165
 10
1.794659236046104
 20
0.6423016628555165
 42
-0.4142135624509854
 10
1.805440118089197
 20
0.6315204283122289
 10
1.827002575925892
 20
0.6315204283122289
 10
1.827002575925892
 20
0.6423016628555165
 42
0.4142135623791847
 10
1.805440118089197
 20
0.6638643138170442
 10
1.695377564936368
 20
0.6638643138170442
 42
0.4142123400440204
 10
1.673816157100507
 20
0.6423017528555879
 10
1.673816157100507
 20
0.6107079034654821
 42
0.4142135625828059
 10
1.695377564936368
 20
0.5891453425040259
 10
1.794659236046104
 20
0.5891456106290894
 42
-0.4142135624516547
 10
1.805440118089197
 20
0.5783643742108216
 10
1.805440286839289
 20
0.5675829596673912
 42
-0.4142162111159897
 10
1.794659048546041
 20
0.5568015451241313
 10
1.706158971979878
 20
0.5568015451239608
 42
-0.4142135623790486
 10
1.695377377436305
 20
0.5675830496674626
 10
1.673816157100507
 20
0.5675830496674626
 10
1.673816157100507
 20
0.5568018132491948
 42
0.4142172047777202
 10
1.695377564936368
 20
0.5352391641624768
 10
1.805440118089197
 20
0.5352391641624768
 42
0.4142123653291911
 10
1.827002575925892
 20
0.5568014569988696
 10
1.827002575925892
 20
0.5887705485089332
 42
0.4142135623726066
 10
1.805440118089197
 20
0.6103330194706591
 10
1.706158971979878
 20
0.6103327513454251
 42
-0.4142159564042797
 10
1.695377377436305
 20
0.6211142540139467
 10
1.695377564936368
 20
0.6315205164371496
 42
-0.4142111683453352
  0
LWPOLYLINE
  5
55D
102
{ACAD_REACTORS
330
558
102
}
330
557
100
AcDbEntity
  8
CONTINUOUS1
  6
CONTINUOUS
 62
     9
100
AcDbPolyline
 90
        4
 70
     1
 43
0.0
 10
1.830314246824318
 20
0.3820863083685713
 10
1.830314246824318
 20
0.3931967807444612
 42
1.819450421535996
 10
1.830314246824318
 20
0.3237563283948935
 10
1.830314246824318
 20
0.3348668007707834
 42
-2.028165022884401
  0
HATCH
  5
55E
330
557
100
AcDbEntity
  8
CONTINUOUS1
 62
     9
100
AcDbHatch
 10
0.0
 20
0.0
 30
0.0
210
0.0
220
0.0
230
1.0
  2
SOLID
 70
     1
 71
     1
 91
        4
 92
        1
 93
        4
 72
     1
 10
1.486316041326151
 20
0.6638643138170442
 11
1.111315796341873
 21
0.6638643138170442
 72
     1
 10
1.111315796341873
 20
0.6638643138170442
 11
1.111315796341873
 21
0.2888644264609757
 72
     1
 10
1.111315796341873
 20
0.2888644264609757
 11
1.486316041326151
 21
0.2888644264609757
 72
     1
 10
1.486316041326151
 20
0.2888644264609757
 11
1.486316041326151
 21
0.6638643138170442
 97
        1
330
55F
 92
        0
 93
       10
 72
     1
 10
1.392565980080039
 20
0.6001142882630579
 11
1.175065956006481
 21
0.6001142882630579
 72
     1
 10
1.175065956006481
 20
0.6001142882630579
 11
1.175065956006481
 21
0.5569891671065084
 72
     1
 10
1.175065956006481
 20
0.5569891671065084
 11
1.208816124682616
 21
0.5569891671065084
 72
     1
 10
1.208816124682616
 20
0.5569891671065084
 11
1.208816124682616
 21
0.3957395731715114
 72
     1
 10
1.208816124682616
 20
0.3957395731715114
 11
1.175065956006481
 21
0.3957395731715114
 72
     1
 10
1.175065956006481
 20
0.3957395731715114
 11
1.175065956006481
 21
0.3526143179045111
 72
     1
 10
1.175065956006481
 20
0.3526143179045111
 11
1.392565980080039
 21
0.3526143179045111
 72
     1
 10
1.392565980080039
 20
0.3526143179045111
 11
1.422565792254577
 21
0.3826143535964666
 72
     1
 10
1.422565792254577
 20
0.3826143535964666
 11
1.422565792254577
 21
0.5701142078676189
 72
     1
 10
1.422565792254577
 20
0.5701142078676189
 11
1.392565980080039
 21
0.6001142882630579
 97
        1
330
560
 92
       16
 93
        4
 72
     1
 10
1.454440827383312
 20
0.631989144577688
 11
1.143190831470779
 21
0.631989144577688
 72
     1
 10
1.143190831470779
 20
0.631989144577688
 11
1.143190831470779
 21
0.3207393721827434
 72
     1
 10
1.143190831470779
 20
0.3207393721827434
 11
1.454440827383312
 21
0.3207393721827434
 72
     1
 10
1.454440827383312
 20
0.3207393721827434
 11
1.454440827383312
 21
0.631989144577688
 97
        1
330
561
 92
        0
 93
        4
 72
     1
 10
1.251941245839166
 20
0.5569891671065084
 11
1.251941245839166
 21
0.3957395731715114
 72
     1
 10
1.251941245839166
 20
0.3957395731715114
 11
1.379440760504994
 21
0.3957395731715114
 72
     1
 10
1.379440760504994
 20
0.3957395731715114
 11
1.379440760504994
 21
0.5569891671065084
 72
     1
 10
1.379440760504994
 20
0.5569891671065084
 11
1.251941245839166
 21
0.5569891671065084
 97
        1
330
562
 75
     0
 76
     1
 98
        1
 10
-6.623918024059631
 20
-0.1308261527660757
  0
LWPOLYLINE
  5
55F
102
{ACAD_REACTORS
330
55E
102
}
330
557
100
AcDbEntity
  8
CONTINUOUS1
  6
CONTINUOUS
 62
     9
100
AcDbPolyline
 90
        4
 70
     1
 43
0.0
 10
1.486316041326151
 20
0.6638643138170442
 10
1.111315796341873
 20
0.6638643138170442
 10
1.111315796341873
 20
0.2888644264609757
 10
1.486316041326151
 20
0.2888644264609757
  0
LWPOLYLINE
  5
560
102
{ACAD_REACTORS
330
55E
102
}
330
557
100
AcDbEntity
  8
CONTINUOUS1
  6
CONTINUOUS
 62
     9
100
AcDbPolyline
 90
       10
 70
     1
 43
0.0
 10
1.392565980080039
 20
0.6001142882630579
 10
1.175065956006481
 20
0.6001142882630579
 10
1.175065956006481
 20
0.5569891671065084
 10
1.208816124682616
 20
0.5569891671065084
 10
1.208816124682616
 20
0.3957395731715114
 10
1.175065956006481
 20
0.3957395731715114
 10
1.175065956006481
 20
0.3526143179045111
 10
1.392565980080039
 20
0.3526143179045111
 10
1.422565792254577
 20
0.3826143535964666
 10
1.422565792254577
 20
0.5701142078676189
  0
LWPOLYLINE
  5
561
102
{ACAD_REACTORS
330
55E
102
}
330
557
100
AcDbEntity
  8
CONTINUOUS1
  6
CONTINUOUS
 62
     9
100
AcDbPolyline
 90
        4
 70
     1
 43
0.0
 10
1.454440827383312
 20
0.631989144577688
 10
1.143190831470779
 20
0.631989144577688
 10
1.143190831470779
 20
0.3207393721827434
 10
1.454440827383312
 20
0.3207393721827434
  0
LWPOLYLINE
  5
562
102
{ACAD_REACTORS
330
55E
102
}
330
557
100
AcDbEntity
  8
CONTINUOUS1
  6
CONTINUOUS
 62
     9
100
AcDbPolyline
 90
        4
 70
     1
 43
0.0
 10
1.251941245839166
 20
0.5569891671065084
 10
1.251941245839166
 20
0.3957395731715114
 10
1.379440760504994
 20
0.3957395731715114
 10
1.379440760504994
 20
0.5569891671065084
  0
HATCH
  5
563
330
557
100
AcDbEntity
  8
CONTINUOUS1
 62
     9
100
AcDbHatch
 10
0.0
 20
0.0
 30
0.0
210
0.0
220
0.0
230
1.0
  2
SOLID
 70
     1
 71
     1
 91
        1
 92
        1
 93
       89
 72
     2
 10
1.645257337476964
 20
0.0814143414971476
 40
0.3138538690791402
 50
284.6944519958723
 51
285.4191253488389
 73
     0
 72
     2
 10
1.720457213394254
 20
0.3531253338612149
 40
0.0319296518074946
 50
284.9683007167661
 51
291.8740039713855
 73
     0
 72
     2
 10
1.718195577080779
 20
0.3443304300779819
 40
0.0409509237081423
 50
290.2257686458056
 51
296.0035662963079
 73
     0
 72
     2
 10
1.72314595174561
 20
0.3537733468281424
 40
0.0302951436135202
 50
295.4187775578141
 51
306.3988581780349
 73
     0
 72
     2
 10
1.730025090825645
 20
0.361238674598352
 40
0.0202344686019184
 50
303.2624042499299
 51
317.2878846799652
 73
     0
 72
     2
 10
1.730612078202064
 20
0.3607780556607589
 40
0.0201290944001072
 50
315.1907124339085
 51
326.4916231752553
 73
     0
 72
     2
 10
1.731384680029217
 20
0.360485539114584
 40
0.0196578170187561
 50
324.5371901048516
 51
336.7528223782186
 73
     0
 72
     2
 10
1.740306489368903
 20
0.3630067677477766
 40
0.0105343712984082
 50
330.185107206006
 51
345.1051507906131
 73
     0
 72
     2
 10
1.730807356874114
 20
0.3584209650416714
 40
0.0209876439961997
 50
339.6643160257259
 51
350.0934782379626
 73
     0
 72
     2
 10
1.736619499258567
 20
0.3581357520531636
 40
0.0153647146054281
 50
345.3114316897936
 51
354.9413954442734
 73
     0
 72
     2
 10
1.736768036672925
 20
0.3568918841578894
 40
0.0153774953930229
 50
350.2708870332075
 51
359.9231366677853
 73
     0
 72
     2
 10
1.730590676285318
 20
0.3543834528394247
 40
0.0217027039382449
 50
353.3080009674447
 51
359.6430783683235
 73
     0
 72
     2
 10
1.740274031623638
 20
0.3541129784720702
 40
0.0120257717465816
 50
358.0668546616999
 51
370.2286816408818
 73
     0
 72
     2
 10
1.734983328508103
 20
0.3525209240439113
 40
0.0171339680084192
 50
1.817597670723287
 51
10.12122589077211
 73
     0
 72
     2
 10
1.720741037007382
 20
0.3544475624347459
 40
0.0314990269535048
 50
9.018567450089358
 51
13.77874652122445
 73
     0
 72
     2
 10
1.736924488523371
 20
0.3496574086216055
 40
0.0146621286791563
 50
10.65944881196798
 51
20.70103934564268
 73
     0
 72
     2
 10
1.736504343267595
 20
0.3481737388171249
 40
0.0146116828357803
 50
14.66530941358183
 51
25.10867622728001
 73
     0
 72
     2
 10
1.732146476908514
 20
0.3484117679524195
 40
0.0187301362989403
 50
20.10490982839685
 51
28.61210132811573
 73
     0
 72
     2
 10
1.735923851992664
 20
0.3448321994977361
 40
0.013764623253097
 50
23.05247272481818
 51
34.97873691770508
 73
     0
 72
     2
 10
1.736817050777414
 20
0.3420413163283825
 40
0.0115697541019344
 50
26.15519936339432
 51
41.2675437975994
 73
     0
 72
     2
 10
1.718278281875029
 20
0.3540391568686173
 40
0.0335714709763406
 50
35.78123864162446
 51
41.15363322202702
 73
     0
 72
     2
 10
1.727768982569827
 20
0.3459769352513192
 40
0.0211206067808035
 50
41.628953043204
 51
51.13236693201276
 73
     0
 72
     2
 10
1.7049361419961
 20
0.3726572867131739
 40
0.0562315357389323
 50
50.07766185775929
 51
54.48975877743766
 73
     0
 72
     2
 10
1.721996710283804
 20
0.3482674527964862
 40
0.0264697940015853
 50
53.88519289323266
 51
64.03139621868574
 73
     0
 72
     2
 10
1.71549323629139
 20
0.3583918783868048
 40
0.0384457260336791
 50
61.92426471048903
 51
71.20704351412637
 73
     0
 72
     2
 10
1.713056446365431
 20
0.3691361880596826
 40
0.0494157401965211
 50
72.54563927506668
 51
79.16534470614535
 73
     0
 72
     2
 10
1.712368390340278
 20
0.378009241623432
 40
0.0582684049416463
 50
80.14095651381211
 51
90.0416888893921
 73
     0
 72
     2
 10
1.711034894028758
 20
0.4162808932093566
 40
0.096548674122413
 50
89.23378781360057
 51
94.71296871457857
 73
     0
 72
     2
 10
1.715019285167041
 20
0.4355757642229089
 40
0.1161301845769512
 50
95.89003491054352
 51
99.42152931169502
 73
     0
 72
     2
 10
1.707384050587419
 20
0.3824129170476944
 40
0.0624455715380243
 50
100.4954159019732
 51
106.3873755254328
 73
     0
 72
     2
 10
1.716129204411812
 20
0.4114303679072302
 40
0.0927517156651875
 50
106.512896770692
 51
110.5690487960562
 73
     0
 72
     2
 10
1.696198413310064
 20
0.3625905204389435
 40
0.0400511678448031
 50
108.4212700638492
 51
114.2391927251731
 73
     0
 72
     2
 10
1.710118011273555
 20
0.4023608384343336
 40
0.082110467699766
 50
111.7018026255303
 51
116.2385814647555
 73
     0
 72
     1
 10
1.673816157100507
 20
0.3287109620632696
 11
1.673816157100507
 21
0.348755448516386
 72
     2
 10
1.683151915978065
 20
0.3592465940770362
 40
0.0140435226704221
 50
228.3350642341723
 51
234.1997399115519
 73
     1
 72
     2
 10
1.71106741933919
 20
0.3855932213725186
 40
0.0522443504544944
 50
226.2457929287056
 51
246.6255762978013
 73
     1
 72
     2
 10
1.7124653088878
 20
0.3860023780454533
 40
0.0531863360228971
 50
245.4180460169437
 51
259.9919736394325
 73
     1
 72
     2
 10
1.710648990849527
 20
0.3758156686850265
 40
0.042838986613708
 50
260.0165443283761
 51
273.9182757893534
 73
     1
 72
     2
 10
1.704270595794476
 20
0.4586741074147547
 40
0.125941558255588
 50
274.2374069265417
 51
275.5960285914579
 73
     1
 72
     2
 10
1.687010818636519
 20
0.5411427391697574
 40
0.2098991318858489
 50
278.0905665143724
 51
278.7875532853595
 73
     1
 72
     2
 10
1.674916599532425
 20
0.5319581852745105
 40
0.2031096024358981
 50
282.5577335184531
 51
283.2741998696473
 73
     1
 72
     2
 10
1.712960478455043
 20
0.3650274495505624
 40
0.0319300969034177
 50
285.6107769316435
 51
293.9249150269261
 73
     1
 72
     2
 10
1.717091548593948
 20
0.3539696976826635
 40
0.0201595864519346
 50
295.9382025947192
 51
314.8152667683908
 73
     1
 72
     2
 10
1.6400442733431
 20
0.4219905414971168
 40
0.1229006178787137
 50
317.946563084173
 51
318.8734190764908
 73
     1
 72
     2
 10
1.689533775167257
 20
0.3727603930704881
 40
0.0534349306228064
 50
323.7393060910158
 51
325.8371011508592
 73
     1
 72
     2
 10
1.732847152652873
 20
0.3433656347877086
 40
0.0010889614970517
 50
325.8371011415855
 51
338.3720801963383
 73
     1
 72
     2
 10
1.729762363574412
 20
0.345527035075586
 40
0.0048325847931998
 50
327.9736107298026
 51
337.3435922236591
 73
     1
 72
     2
 10
1.728938576684472
 20
0.3470616501634721
 40
0.0062808146373788
 50
327.2675058013616
 51
338.1636262704569
 73
     1
 72
     2
 10
1.718066376903955
 20
0.3518592455185608
 40
0.0181620471788818
 50
336.8720644633642
 51
339.5841382784865
 73
     1
 72
     2
 10
1.728443171512713
 20
0.3485112543123717
 40
0.0072851481640173
 50
335.7900569772922
 51
348.373615422373
 73
     1
 72
     2
 10
1.727754169766592
 20
0.3495237604987842
 40
0.0082084908006828
 50
342.4097077310363
 51
352.3427229945868
 73
     1
 72
     2
 10
1.728619171594273
 20
0.3504840831181579
 40
0.0075548925971309
 50
344.2233826564188
 51
361.8598518928816
 73
     1
 72
     2
 10
1.720733754063239
 20
0.3523571712334882
 40
0.0155219307481708
 50
353.9799134066503
 51
362.7705430541222
 73
     1
 72
     2
 10
1.726132206714243
 20
0.3535683939447038
 40
0.0101158423979231
 50
357.3882870010598
 51
372.3082229322081
 73
     1
 72
     2
 10
1.724756018715517
 20
0.3547830051705612
 40
0.0112988364300847
 50
4.781307968932465
 51
20.9890143012329
 73
     1
 72
     2
 10
1.726660663964363
 20
0.3566320215872782
 40
0.0089195903363647
 50
14.2666708584078
 51
35.42677828019
 73
     1
 72
     2
 10
1.725007785367363
 20
0.3573460494205585
 40
0.0099721744159251
 50
26.54339514703695
 51
53.39459405095841
 73
     1
 72
     2
 10
1.719832069396286
 20
0.353126094907573
 40
0.0165274923585889
 50
47.70505911180914
 51
69.77619662812056
 73
     1
 72
     2
 10
1.710207974215595
 20
0.3313170294772276
 40
0.0403465351747173
 50
67.65746071435081
 51
78.07775985177944
 73
     1
 72
     2
 10
1.601474124602898
 20
-0.0764452376149089
 40
0.4623065683695236
 50
75.33141058767751
 51
77.08564753834979
 73
     1
 72
     2
 10
1.727562810239215
 20
0.4665872614049196
 40
0.0951825269178676
 50
103.8381813161471
 51
111.0296444355485
 73
     0
 72
     2
 10
1.70471971545613
 20
0.4062361413736136
 40
0.030655669555327
 50
111.65657497264
 51
141.0002630637684
 73
     0
 72
     2
 10
1.700542583280421
 20
0.4033450635238994
 40
0.0255928623197818
 50
140.1451628894058
 51
170.4005157591877
 73
     0
 72
     2
 10
1.707946390985723
 20
0.4059675729609214
 40
0.0333577023314167
 50
168.0791562340355
 51
196.714918276154
 73
     0
 72
     2
 10
1.706228373491397
 20
0.4054484368029155
 40
0.0318770017390912
 50
198.4970064170468
 51
236.9071959398739
 73
     0
 72
     2
 10
1.712467544153362
 20
0.3958721183130906
 40
0.043306486619005
 50
236.9092344715733
 51
272.9993782410681
 73
     0
 72
     2
 10
1.713943818059902
 20
0.3576895869998347
 40
0.0814335220491864
 50
270.5556637982262
 51
294.5824803086023
 73
     0
 72
     1
 10
1.747820387170609
 20
0.4317422478475242
 11
1.747820387170609
 21
0.4116977613945783
 72
     2
 10
1.740625727683456
 20
0.4079966488085459
 40
0.0080908194585325
 50
27.22242166817361
 51
41.56665402458706
 73
     1
 72
     2
 10
1.706598002528515
 20
0.3661008206880739
 40
0.0619708439541246
 50
49.70116220293705
 51
59.84734228048411
 73
     1
 72
     2
 10
1.71458845708311
 20
0.3777828381052394
 40
0.0478671962964794
 50
61.09387816236751
 51
68.21315356019836
 73
     1
 72
     2
 10
1.721754113738912
 20
0.4005694677942343
 40
0.0241161586298676
 50
63.92424707162
 51
76.50768984029872
 73
     1
 72
     2
 10
1.720387329033739
 20
0.4052584665162603
 40
0.0200226190349931
 50
69.55689277879226
 51
79.95640428982631
 73
     1
 72
     2
 10
1.714854713299164
 20
0.3864537173573991
 40
0.0395635296700699
 50
76.81466162170224
 51
103.1853383782977
 73
     1
 72
     2
 10
1.711556222792086
 20
0.401176318347385
 40
0.0244771044560784
 50
103.5287750504826
 51
118.7111022038487
 73
     1
 72
     2
 10
1.709210382761595
 20
0.405247847997013
 40
0.0197794909640232
 50
118.4171119187522
 51
136.9427492139033
 73
     1
 72
     2
 10
1.705219023490787
 20
0.4088531486190613
 40
0.0144019602014125
 50
136.5818159972848
 51
158.311705465411
 73
     1
 72
     2
 10
1.705906344939513
 20
0.4084853055890463
 40
0.0151768177531213
 50
157.9802459264048
 51
175.7279862744334
 73
     1
 72
     2
 10
1.708158378716641
 20
0.4073882615894271
 40
0.0175288039263104
 50
172.6990132420623
 51
188.9919500615153
 73
     1
 72
     2
 10
1.709434724792039
 20
0.4071277136839012
 40
0.018754306378342
 50
187.5961529692752
 51
202.8514728843145
 73
     1
 72
     2
 10
1.713415982510703
 20
0.4098029626068265
 40
0.0234800083169512
 50
205.095036290115
 51
208.7062773863674
 73
     1
 72
     2
 10
1.716530427614822
 20
0.4130319444988484
 40
0.0277947475210845
 50
211.4617467723877
 51
214.4776167681863
 73
     1
 72
     2
 10
1.798805844752166
 20
0.4794678086208626
 40
0.1334781556174936
 50
217.9960096590552
 51
218.6051445060782
 73
     1
 72
     2
 10
1.71411393594937
 20
0.4147818027158588
 40
0.0270311104968983
 50
223.4727412172602
 51
231.5765454796655
 73
     1
 72
     2
 10
1.714970516181898
 20
0.4199578584883053
 40
0.0317208861058423
 50
236.179619535216
 51
243.9627139296284
 73
     1
 72
     2
 10
1.714189405924324
 20
0.4219347204146949
 40
0.0331913735031554
 50
246.6731896134593
 51
253.5722006974093
 73
     1
 72
     2
 10
1.744025458148191
 20
0.5256870746424274
 40
0.141147928729737
 50
253.8660232573638
 51
256.4915086256218
 73
     1
 72
     2
 10
1.777665220868062
 20
0.6375281662311756
 40
0.2578369482397982
 50
255.0282214889518
 51
257.0441428996435
 73
     1
 72
     2
 10
1.816666655740251
 20
0.7631436335592352
 40
0.3891233421787054
 50
255.5942969765304
 51
256.3550761129648
 73
     1
 97
        1
330
564
 75
     0
 76
     1
 98
        1
 10
-6.623918024059631
 20
-0.1308261527660757
  0
LWPOLYLINE
  5
564
102
{ACAD_REACTORS
330
563
102
}
330
557
100
AcDbEntity
  8
CONTINUOUS1
  6
CONTINUOUS
 62
     9
100
AcDbPolyline
 90
       89
 70
     1
 43
0.0
 10
1.724870853814341
 20
0.3850027786161268
 42
-0.0031619945407147
 10
1.728704150753092
 20
0.3839715765618625
 42
-0.030140937208008
 10
1.732353140628195
 20
0.3827562228082688
 42
-0.0252157404289211
 10
1.736149571400208
 20
0.3811357590471407
 42
-0.0479463296275325
 10
1.741123176189407
 20
0.3781580782775795
 42
-0.0612742161665951
 10
1.744892795204041
 20
0.3749640192613701
 42
-0.0493495283417487
 10
1.747395820137942
 20
0.3718905012960936
 42
-0.0533512835500878
 10
1.749446491741114
 20
0.3682444519009782
 42
-0.0651930963851117
 10
1.750486897271546
 20
0.3657145848738996
 42
-0.0455372415571768
 10
1.751482069845824
 20
0.3620317051387478
 42
-0.0420433899694379
 10
1.751924368767706
 20
0.3594905303429532
 42
-0.0421408027509401
 10
1.752145518228733
 20
0.3569125133419679
 42
-0.0276490321326908
 10
1.752292959125814
 20
0.3545186480399711
 42
-0.0531158483705343
 10
1.752108675831355
 20
0.351977473244347
 42
-0.0362472752477507
 10
1.751850660203931
 20
0.3495099472627889
 42
-0.0207731867223286
 10
1.751333606869341
 20
0.3469453382139709
 42
-0.0438427632265486
 10
1.750639995259209
 20
0.344474466177076
 42
-0.0455993495213645
 10
1.749735288597239
 20
0.3419734677764841
 42
-0.0371366834740924
 10
1.748589323656208
 20
0.3394423311468704
 42
-0.0520851678945367
 10
1.747202100436116
 20
0.3369413208807833
 42
-0.0660357795919543
 10
1.745513316251706
 20
0.3344101842511696
 42
-0.023445788208571
 10
1.743555844029206
 20
0.3319464314809016
 42
-0.0414902487431464
 10
1.741022655867912
 20
0.3295324779815592
 42
-0.0192537831905492
 10
1.737598143154318
 20
0.3268841582216742
 42
-0.0443001092257388
 10
1.733587265860453
 20
0.3244702047221613
 42
-0.0405259275577274
 10
1.727878500744825
 20
0.321995737455723
 42
-0.0288919489310161
 10
1.722345390671794
 20
0.320601346009426
 42
-0.0432269886872848
 10
1.712325993764213
 20
0.3197408521058383
 42
-0.0239119926891615
 10
1.703102059868147
 20
0.320058668037746
 42
-0.0154102708889789
 10
1.696009161539993
 20
0.3210120921031608
 42
-0.0257141890330953
 10
1.689766276740588
 20
0.3225041242924367
 42
-0.0177001500616332
 10
1.68354219344852
 20
0.3245916238161617
 42
-0.0253909309126544
 10
1.679755531853889
 20
0.3260702836495857
 42
-0.0197980181237655
 10
1.673816157100507
 20
0.3287109620632696
 10
1.673816157100507
 20
0.348755448516386
 42
0.0255950620068941
 10
1.674936997903589
 20
0.3478564382385803
 42
0.0891587087538363
 10
1.690340091136224
 20
0.3376364698146977
 42
0.0636766101274314
 10
1.703222261160565
 20
0.3336253562873144
 42
0.0607322500225615
 10
1.713576329651434
 20
0.333076816786218
 42
0.0059281747790857
 10
1.716551650349604
 20
0.3333327662903689
 42
0.0030411878748934
 10
1.719077351184896
 20
0.3337074888945045
 42
0.0031261843860593
 10
1.721552898821219
 20
0.33427519108858
 42
0.0362931935570043
 10
1.725909381570975
 20
0.3358408602267678
 42
0.0825535038755105
 10
1.731300493913952
 20
0.3396688306178253
 42
0.004044194237512
 10
1.732620188585404
 20
0.3411557606659703
 42
0.0091536133499963
 10
1.733748207713492
 20
0.3427541309694111
 42
0.054748767696608
 10
1.733859447984034
 20
0.342964267992159
 42
0.0409070518720577
 10
1.734222024712014
 20
0.3436655038990471
 42
0.0475791486181886
 10
1.734768742118806
 20
0.3447254559255275
 42
0.0118342068154451
 10
1.735087583355696
 20
0.3455237511688556
 42
0.0549613731019633
 10
1.735578847012138
 20
0.3470430857462366
 42
0.0433681134276899
 10
1.73588946407526
 20
0.3484300019622428
 42
0.0771058776446834
 10
1.736170084296336
 20
0.3507292759402394
 42
0.0383751788318603
 10
1.736237541537239
 20
0.3531074432588643
 42
0.0651926246618979
 10
1.736015536381987
 20
0.355724794208641
 42
0.0708375912954788
 10
1.735305167423494
 20
0.3588301234306077
 42
0.092591635874942
 10
1.733928854306643
 20
0.3618023698267057
 42
0.1176994875674221
 10
1.730954199148673
 20
0.3653513242892363
 42
0.0966023314025739
 10
1.725545426224218
 20
0.3686346589100826
 42
0.045498488973316
 10
1.718542922500464
 20
0.370793244312154
 42
0.0076544521501666
 10
1.704797000298331
 20
0.3741673970455399
 42
-0.0313889801307479
 10
1.693406471978821
 20
0.3777443776881459
 42
-0.1287402518965054
 10
1.68089569708869
 20
0.3869440128048614
 42
-0.1327861629458718
 10
1.675308084036803
 20
0.399077201103069
 42
-0.1256013842756795
 10
1.675998130253706
 20
0.4155615784346769
 42
-0.1691830721684855
 10
1.688823634294099
 20
0.4321545839108017
 42
-0.1587876586997674
 10
1.714733561235252
 20
0.4391192794900581
 42
-0.1052225384089748
 10
1.747820387170609
 20
0.4317422478475242
 10
1.747820387170609
 20
0.4116977613945783
 42
0.0626703755683868
 10
1.746679152318026
 20
0.4133648337628988
 42
0.0443000075885412
 10
1.737726307158229
 20
0.4196863985170585
 42
0.0310736945441558
 10
1.732354590554709
 20
0.4222309312336852
 42
0.0549608668437835
 10
1.727380771841954
 20
0.4240200504235081
 42
0.0454075984514084
 10
1.723879222863931
 20
0.4249742457425332
 42
0.1155742899323605
 10
1.705830203734397
 20
0.4249742457425332
 42
0.0663424745816582
 10
1.699797582061794
 20
0.4226440385507435
 42
0.0810098588725135
 10
1.694758065035475
 20
0.418751876104921
 42
0.0950996757952028
 10
1.691836605545322
 20
0.4141754927995867
 42
0.0775942943034753
 10
1.69077169387825
 20
0.4096158516364317
 42
0.0712113554365052
 10
1.690844998364273
 20
0.4046485849914921
 42
0.0666623741392031
 10
1.692152356774816
 20
0.3998445987287487
 42
0.0157583160010225
 10
1.692821818787681
 20
0.3985250545067633
 42
0.0131599749339241
 10
1.693617899800845
 20
0.3972977759814289
 42
0.0026578584258268
 10
1.694497411016957
 20
0.3961841446839576
 42
0.0353742605666019
 10
1.697314951177393
 20
0.3936045733095743
 42
0.0339732171468453
 10
1.70104644425314
 20
0.391456370171682
 42
0.0301117106030551
 10
1.704802657389084
 20
0.3900983225819918
 42
0.0114563422017746
 10
1.711054788441661
 20
0.3884439592457061
 42
0.0087963433832554
 10
1.719858101006852
 20
0.3862549508440911
 42
0.0033195373957588
  0
HATCH
  5
565
330
557
100
AcDbEntity
  8
CONTINUOUS1
 62
     9
100
AcDbHatch
 10
0.0
 20
0.0
 30
0.0
210
0.0
220
0.0
230
1.0
  2
SOLID
 70
     1
 71
     1
 91
        1
 92
        1
 93
       63
 72
     1
 10
2.811736575584777
 20
0.3185392197908646
 11
2.814514193678665
 21
0.3185392197908646
 72
     1
 10
2.814514193678665
 20
0.3185392197908646
 11
2.817291811772722
 21
0.3185392197908646
 72
     1
 10
2.817291811772722
 20
0.3185392197908646
 11
2.82006942986678
 21
0.3185392197908646
 72
     1
 10
2.82006942986678
 20
0.3185392197908646
 11
2.822847047960667
 21
0.3185392197908646
 72
     1
 10
2.822847047960667
 20
0.3185392197908646
 11
2.825624666054725
 21
0.3185392197908646
 72
     1
 10
2.825624666054725
 20
0.3185392197908646
 11
2.825624666054725
 21
0.3213168378847518
 72
     1
 10
2.825624666054725
 20
0.3213168378847518
 11
2.825624666054725
 21
0.3240944559788095
 72
     1
 10
2.825624666054725
 20
0.3240944559788095
 11
2.825624666054725
 21
0.3629811092945947
 72
     1
 10
2.825624666054725
 20
0.3629811092945947
 11
2.825624666054725
 21
0.3657587273886524
 72
     1
 10
2.825624666054725
 20
0.3657587273886524
 11
2.825624666054725
 21
0.3685363454825397
 72
     1
 10
2.825624666054725
 20
0.3685363454825397
 11
2.826336506825416
 21
0.3713139635765974
 72
     1
 10
2.826336506825416
 20
0.3713139635765974
 11
2.827485670177711
 21
0.3740915816706551
 72
     1
 10
2.827485670177711
 20
0.3740915816706551
 11
2.828930031586512
 21
0.3764803332313709
 72
     1
 10
2.828930031586512
 20
0.3764803332313709
 11
2.83117990224267
 21
0.378258008811486
 72
     1
 10
2.83117990224267
 20
0.378258008811486
 11
2.833957520336728
 21
0.3803481447481549
 72
     1
 10
2.833957520336728
 20
0.3803481447481549
 11
2.836458499551472
 21
0.3821533245041455
 72
     1
 10
2.836458499551472
 20
0.3821533245041455
 11
2.838496571758387
 21
0.3835311386972085
 72
     1
 10
2.838496571758387
 20
0.3835311386972085
 11
2.840318265771859
 21
0.3843965447991882
 72
     1
 10
2.840318265771859
 20
0.3843965447991882
 11
2.84229037461856
 21
0.3852020540465451
 72
     1
 10
2.84229037461856
 20
0.3852020540465451
 11
2.845067992712618
 21
0.3860225445559995
 72
     1
 10
2.845067992712618
 20
0.3860225445559995
 11
2.848792121584697
 21
0.3859647625154712
 72
     1
 10
2.848792121584697
 20
0.3859647625154712
 11
2.851394365793826
 21
0.3851557727118125
 72
     1
 10
2.851394365793826
 20
0.3851557727118125
 11
2.85340084699462
 21
0.3838132449996015
 72
     1
 10
2.85340084699462
 20
0.3838132449996015
 11
2.855500116228117
 21
0.3819776024104162
 72
     1
 10
2.855500116228117
 20
0.3819776024104162
 11
2.857567274135451
 21
0.3796468178584296
 72
     1
 10
2.857567274135451
 20
0.3796468178584296
 11
2.858956083182565
 21
0.3784524420782422
 72
     1
 10
2.858956083182565
 20
0.3784524420782422
 11
2.859999004466235
 21
0.380049012932091
 72
     1
 10
2.859999004466235
 20
0.380049012932091
 11
2.861508043922615
 21
0.3823591474088066
 72
     1
 10
2.861508043922615
 20
0.3823591474088066
 11
2.86329254810855
 21
0.3850909809773389
 72
     1
 10
2.86329254810855
 20
0.3850909809773389
 11
2.864332596004462
 21
0.3866831530647805
 72
     1
 10
2.864332596004462
 20
0.3866831530647805
 11
2.865705695150868
 21
0.3887851813877892
 72
     1
 10
2.865705695150868
 20
0.3887851813877892
 11
2.86451131937051
 21
0.39075729023449
 72
     1
 10
2.86451131937051
 20
0.39075729023449
 11
2.862459275569538
 21
0.3932298076646252
 72
     1
 10
2.862459275569538
 20
0.3932298076646252
 11
2.859413586285572
 21
0.3956385659741959
 72
     1
 10
2.859413586285572
 20
0.3956385659741959
 11
2.857697565716623
 21
0.3970016751998178
 72
     1
 10
2.857697565716623
 20
0.3970016751998178
 11
2.855372955841321
 21
0.3982846352691358
 72
     1
 10
2.855372955841321
 20
0.3982846352691358
 11
2.85340084699462
 21
0.3990901445163222
 72
     1
 10
2.85340084699462
 20
0.3990901445163222
 11
2.850623228900563
 21
0.3990901445163222
 72
     1
 10
2.850623228900563
 20
0.3990901445163222
 11
2.847845610806505
 21
0.3990901445163222
 72
     1
 10
2.847845610806505
 20
0.3990901445163222
 11
2.845067992712618
 21
0.3987012779831507
 72
     1
 10
2.845067992712618
 20
0.3987012779831507
 11
2.84229037461856
 21
0.3977013354693786
 72
     1
 10
2.84229037461856
 20
0.3977013354693786
 11
2.839707189791258
 21
0.3961180931558492
 72
     1
 10
2.839707189791258
 20
0.3961180931558492
 11
2.837429542954087
 21
0.394229312851849
 72
     1
 10
2.837429542954087
 20
0.394229312851849
 11
2.835346329383671
 21
0.3921460992814336
 72
     1
 10
2.835346329383671
 20
0.3921460992814336
 11
2.833263115813085
 21
0.3900628857110182
 72
     1
 10
2.833263115813085
 20
0.3900628857110182
 11
2.831537288210913
 21
0.3878950002004449
 72
     1
 10
2.831537288210913
 20
0.3878950002004449
 11
2.829863986653013
 21
0.3860075632937314
 72
     1
 10
2.829863986653013
 20
0.3860075632937314
 11
2.825624666054725
 21
0.3814779152569376
 72
     1
 10
2.825624666054725
 20
0.3814779152569376
 11
2.825624666054725
 21
0.3860075632937314
 72
     1
 10
2.825624666054725
 20
0.3860075632937314
 11
2.825624666054725
 21
0.3879796721404323
 72
     1
 10
2.825624666054725
 20
0.3879796721404323
 11
2.825624666054725
 21
0.39075729023449
 72
     1
 10
2.825624666054725
 20
0.39075729023449
 11
2.825624666054725
 21
0.3935349083285478
 72
     1
 10
2.825624666054725
 20
0.3935349083285478
 11
2.825624666054725
 21
0.396312526422435
 72
     1
 10
2.825624666054725
 20
0.396312526422435
 11
2.822847047960667
 21
0.396312526422435
 72
     1
 10
2.822847047960667
 20
0.396312526422435
 11
2.82006942986678
 21
0.396312526422435
 72
     1
 10
2.82006942986678
 20
0.396312526422435
 11
2.817291811772722
 21
0.396312526422435
 72
     1
 10
2.817291811772722
 20
0.396312526422435
 11
2.814514193678665
 21
0.396312526422435
 72
     1
 10
2.814514193678665
 20
0.396312526422435
 11
2.811736575584777
 21
0.396312526422435
 72
     1
 10
2.811736575584777
 20
0.396312526422435
 11
2.811736575584777
 21
0.3935349083285478
 72
     1
 10
2.811736575584777
 20
0.3935349083285478
 11
2.811736575584777
 21
0.39075729023449
 72
     1
 10
2.811736575584777
 20
0.39075729023449
 11
2.811736575584777
 21
0.3240944559788095
 72
     1
 10
2.811736575584777
 20
0.3240944559788095
 11
2.811736575584777
 21
0.3213168378847518
 72
     1
 10
2.811736575584777
 20
0.3213168378847518
 11
2.811736575584777
 21
0.3185392197908646
 97
        1
330
566
 75
     0
 76
     1
 98
        1
 10
-6.623918024059631
 20
-0.1308261527660757
  0
LWPOLYLINE
  5
566
102
{ACAD_REACTORS
330
565
102
}
330
557
100
AcDbEntity
  8
CONTINUOUS1
  6
CONTINUOUS
 62
     9
100
AcDbPolyline
 90
       64
 70
     0
 43
0.0
 10
2.811736575584777
 20
0.3185392197908646
 10
2.814514193678665
 20
0.3185392197908646
 10
2.817291811772722
 20
0.3185392197908646
 10
2.82006942986678
 20
0.3185392197908646
 10
2.822847047960667
 20
0.3185392197908646
 10
2.825624666054725
 20
0.3185392197908646
 10
2.825624666054725
 20
0.3213168378847518
 10
2.825624666054725
 20
0.3240944559788095
 10
2.825624666054725
 20
0.3629811092945947
 10
2.825624666054725
 20
0.3657587273886524
 10
2.825624666054725
 20
0.3685363454825397
 10
2.826336506825416
 20
0.3713139635765974
 10
2.827485670177711
 20
0.3740915816706551
 10
2.828930031586512
 20
0.3764803332313709
 10
2.83117990224267
 20
0.378258008811486
 10
2.833957520336728
 20
0.3803481447481549
 10
2.836458499551472
 20
0.3821533245041455
 10
2.838496571758387
 20
0.3835311386972085
 10
2.840318265771859
 20
0.3843965447991882
 10
2.84229037461856
 20
0.3852020540465451
 10
2.845067992712618
 20
0.3860225445559995
 10
2.848792121584697
 20
0.3859647625154712
 10
2.851394365793826
 20
0.3851557727118125
 10
2.85340084699462
 20
0.3838132449996015
 10
2.855500116228117
 20
0.3819776024104162
 10
2.857567274135451
 20
0.3796468178584296
 10
2.858956083182565
 20
0.3784524420782422
 10
2.859999004466235
 20
0.380049012932091
 10
2.861508043922615
 20
0.3823591474088066
 10
2.86329254810855
 20
0.3850909809773389
 10
2.864332596004462
 20
0.3866831530647805
 10
2.865705695150868
 20
0.3887851813877892
 10
2.86451131937051
 20
0.39075729023449
 10
2.862459275569538
 20
0.3932298076646252
 10
2.859413586285572
 20
0.3956385659741959
 10
2.857697565716623
 20
0.3970016751998178
 10
2.855372955841321
 20
0.3982846352691358
 10
2.85340084699462
 20
0.3990901445163222
 10
2.850623228900563
 20
0.3990901445163222
 10
2.847845610806505
 20
0.3990901445163222
 10
2.845067992712618
 20
0.3987012779831507
 10
2.84229037461856
 20
0.3977013354693786
 10
2.839707189791258
 20
0.3961180931558492
 10
2.837429542954087
 20
0.394229312851849
 10
2.835346329383671
 20
0.3921460992814336
 10
2.833263115813085
 20
0.3900628857110182
 10
2.831537288210913
 20
0.3878950002004449
 10
2.829863986653013
 20
0.3860075632937314
 10
2.825624666054725
 20
0.3814779152569376
 10
2.825624666054725
 20
0.3860075632937314
 10
2.825624666054725
 20
0.3879796721404323
 10
2.825624666054725
 20
0.39075729023449
 10
2.825624666054725
 20
0.3935349083285478
 10
2.825624666054725
 20
0.396312526422435
 10
2.822847047960667
 20
0.396312526422435
 10
2.82006942986678
 20
0.396312526422435
 10
2.817291811772722
 20
0.396312526422435
 10
2.814514193678665
 20
0.396312526422435
 10
2.811736575584777
 20
0.396312526422435
 10
2.811736575584777
 20
0.3935349083285478
 10
2.811736575584777
 20
0.39075729023449
 10
2.811736575584777
 20
0.3240944559788095
 10
2.811736575584777
 20
0.3213168378847518
 10
2.811736575584777
 20
0.3185392197908646
  0
HATCH
  5
567
330
557
100
AcDbEntity
  8
CONTINUOUS1
 62
     9
100
AcDbHatch
 10
0.0
 20
0.0
 30
0.0
210
0.0
220
0.0
230
1.0
  2
SOLID
 70
     1
 71
     1
 91
        2
 92
        1
 93
       10
 72
     1
 10
2.824501390082563
 20
0.6423016628555165
 11
2.824501390082563
 21
0.5568015451240994
 72
     1
 10
2.824501390082563
 20
0.5568015451240994
 11
2.803688857735931
 21
0.5568015451240994
 72
     1
 10
2.803688857735931
 20
0.5568015451240994
 11
2.803688857735931
 21
0.5352391641626002
 72
     1
 10
2.803688857735931
 20
0.5352391641626002
 11
2.97056404175391
 21
0.5352391641626002
 72
     2
 10
2.970564089566778
 20
0.5568015929366667
 40
0.0215624287741196
 50
269.9998729514383
 51
359.9996387859521
 73
     1
 72
     1
 10
2.992126518340469
 20
0.5568014569990419
 11
2.992126518340469
 21
0.6423016628555165
 72
     2
 10
2.970563865504514
 20
0.6423018391063527
 40
0.0215626528366757
 50
359.9995316703782
 51
449.9995316742062
 73
     1
 72
     1
 10
2.97056404175391
 20
0.6638644919423083
 11
2.803688857735931
 21
0.6638644919423083
 72
     1
 10
2.803688857735931
 20
0.6638644919423083
 11
2.803688857735931
 21
0.6423016628555165
 72
     1
 10
2.803688857735931
 20
0.6423016628555165
 11
2.824501390082563
 21
0.6423016628555165
 97
        1
330
568
 92
       16
 93
        6
 72
     1
 10
2.846064035419235
 20
0.6423016628555165
 11
2.959782634710521
 21
0.6423016628555165
 72
     2
 10
2.959782720960921
 20
0.6315203420625278
 40
0.0107813207933337
 50
269.9995416346447
 51
359.9995416383139
 73
     0
 72
     1
 10
2.97056404175391
 20
0.6315204283122381
 11
2.97056404175391
 21
0.5675829596674955
 72
     2
 10
2.959782585960379
 20
0.5675830009175986
 40
0.0107814557936096
 50
0.0002192149982456
 51
89.99974092762393
 73
     0
 72
     1
 10
2.959782634710521
 20
0.5568015451240994
 11
2.846064035419235
 21
0.5568015451240994
 72
     1
 10
2.846064035419235
 20
0.5568015451240994
 11
2.846064035419235
 21
0.6423016628555165
 97
        1
330
598
 75
     0
 76
     1
 98
        1
 10
-6.623918024059631
 20
-0.1308261527660757
  0
LWPOLYLINE
  5
568
102
{ACAD_REACTORS
330
567
102
}
330
557
100
AcDbEntity
  8
CONTINUOUS1
  6
CONTINUOUS
 62
     9
100
AcDbPolyline
 90
       11
 70
     0
 43
0.0
 10
2.824501390082563
 20
0.6423016628555165
 10
2.824501390082563
 20
0.5568015451240994
 10
2.803688857735931
 20
0.5568015451240994
 10
2.803688857735931
 20
0.5352391641626002
 10
2.97056404175391
 20
0.5352391641626002
 42
0.4142123653311114
 10
2.992126518340469
 20
0.5568014569990419
 10
2.992126518340469
 20
0.6423016628555165
 42
0.4142135623926597
 10
2.97056404175391
 20
0.6638644919423083
 10
2.803688857735931
 20
0.6638644919423083
 10
2.803688857735931
 20
0.6423016628555165
 10
2.824501390082563
 20
0.6423016628555165
  0
HATCH
  5
569
330
557
100
AcDbEntity
  8
CONTINUOUS1
 62
     9
100
AcDbHatch
 10
0.0
 20
0.0
 30
0.0
210
0.0
220
0.0
230
1.0
  2
SOLID
 70
     1
 71
     1
 91
        2
 92
        1
 93
        8
 72
     1
 10
2.270499521908366
 20
0.6638644919422068
 11
2.186814373487525
 21
0.5352389860374847
 72
     1
 10
2.186814373487525
 20
0.5352389860374847
 11
2.212539634043626
 21
0.5352391641624768
 72
     1
 10
2.212539634043626
 20
0.5352391641624768
 11
2.226567774458121
 21
0.5568015451239608
 72
     1
 10
2.226567774458121
 20
0.5568015451239608
 11
2.329499210452329
 21
0.5568015451239608
 72
     1
 10
2.329499210452329
 20
0.5568015451239608
 11
2.343527538366888
 21
0.5352394322875403
 72
     1
 10
2.343527538366888
 20
0.5352394322875403
 11
2.369251898922275
 21
0.5352394322875403
 72
     1
 10
2.369251898922275
 20
0.5352394322875403
 11
2.285566919251696
 21
0.6638644919422068
 72
     1
 10
2.285566919251696
 20
0.6638644919422068
 11
2.270499521908366
 21
0.6638644919422068
 97
        1
330
56A
 92
       16
 93
        3
 72
     1
 10
2.278033314329977
 20
0.6359049480514618
 11
2.315470001287028
 21
0.5783643742108216
 72
     1
 10
2.315470001287028
 20
0.5783643742108216
 11
2.240596983623252
 21
0.578364196085659
 72
     1
 10
2.240596983623252
 20
0.578364196085659
 11
2.278033126829914
 21
0.635904589926327
 97
        1
330
580
 75
     0
 76
     1
 98
        1
 10
-6.623918024059631
 20
-0.1308261527660757
  0
LWPOLYLINE
  5
56A
102
{ACAD_REACTORS
330
569
102
}
330
557
100
AcDbEntity
  8
CONTINUOUS1
  6
CONTINUOUS
 62
     9
100
AcDbPolyline
 90
        9
 70
     0
 43
0.0
 10
2.270499521908366
 20
0.6638644919422068
 10
2.186814373487525
 20
0.5352389860374847
 10
2.212539634043626
 20
0.5352391641624768
 10
2.226567774458121
 20
0.5568015451239608
 10
2.329499210452329
 20
0.5568015451239608
 10
2.343527538366888
 20
0.5352394322875403
 10
2.369251898922275
 20
0.5352394322875403
 10
2.285566919251696
 20
0.6638644919422068
 10
2.270499521908366
 20
0.6638644919422068
  0
HATCH
  5
56B
330
557
100
AcDbEntity
  8
CONTINUOUS1
 62
     9
100
AcDbHatch
 10
0.0
 20
0.0
 30
0.0
210
0.0
220
0.0
230
1.0
  2
SOLID
 70
     1
 71
     1
 91
        2
 92
        7
 72
     0
 73
     1
 93
       20
 10
2.128442524464478
 20
0.39075729023449
 10
2.128442524464478
 20
0.3935349083285478
 10
2.128443163460961
 20
0.396312526422435
 10
2.125664906370591
 20
0.396312526422435
 10
2.122887288276533
 20
0.396312526422435
 10
2.120109670182646
 20
0.396312526422435
 10
2.117332052088588
 20
0.396312526422435
 10
2.114554433994529
 20
0.3963125264224349
 10
2.114554433994531
 20
0.3935349083285478
 10
2.114554433994531
 20
0.39075729023449
 10
2.114554433994531
 20
0.3240944559788095
 10
2.114554433994531
 20
0.3213168378847518
 10
2.114554433994529
 20
0.3185392197908645
 10
2.117332052088588
 20
0.3185392197908646
 10
2.120109670182646
 20
0.3185392197908646
 10
2.122887288276533
 20
0.3185392197908646
 10
2.125664906370591
 20
0.3185392197908646
 10
2.128442524464478
 20
0.3185392197908646
 10
2.128442524464478
 20
0.3213168378847518
 10
2.128442524464478
 20
0.3240944559788095
 97
        1
330
57A
 92
        7
 72
     1
 73
     1
 93
        2
 10
2.129831333511544
 20
0.4213110892682726
 42
1.0
 10
2.113165624947635
 20
0.4213110892682726
 42
1.0
 97
        1
330
57D
 75
     0
 76
     1
 47
0.0005102668735142
 98
        2
 10
2.122640693305477
 20
0.3456997447544359
 10
2.123406352313963
 20
0.4207089780563021
  0
HATCH
  5
56C
330
557
100
AcDbEntity
  8
CONTINUOUS1
 62
     9
100
AcDbHatch
 10
0.0
 20
0.0
 30
0.0
210
0.0
220
0.0
230
1.0
  2
SOLID
 70
     1
 71
     1
 91
        2
 92
       16
 93
       18
 72
     2
 10
2.321414633785401
 20
0.3528851545616271
 40
0.0664396543383199
 50
198.4619958207183
 51
200.1842354247361
 73
     0
 72
     2
 10
2.346555496252456
 20
0.3352454129199108
 40
0.096445586517071
 50
204.8718608834226
 51
205.9393865440841
 73
     0
 72
     2
 10
2.284841225309381
 20
0.3643060230231959
 40
0.0282500412151287
 50
207.6881291807204
 51
212.1468522298009
 73
     0
 72
     2
 10
2.282909253313798
 20
0.3643452262975984
 40
0.0266120055644413
 50
214.289143935524
 51
220.152251626646
 73
     0
 72
     2
 10
2.278385727874132
 20
0.3678076991082785
 40
0.0209235948276609
 50
220.892661179859
 51
232.6516971443595
 73
     0
 72
     2
 10
2.276895739610928
 20
0.3706911836161677
 40
0.0177364140530899
 50
230.8268348175522
 51
247.1055208447452
 73
     0
 72
     2
 10
2.276817950372624
 20
0.370391197006481
 40
0.0179834923776296
 50
247.7056716281972
 51
261.203082165149
 73
     0
 72
     2
 10
2.278151306688851
 20
0.36717654635147
 40
0.0213802051303731
 50
258.9888491839005
 51
271.7108857747937
 73
     0
 72
     2
 10
2.279349636213083
 20
0.3639169558453035
 40
0.0246366297664502
 50
268.6975355392314
 51
280.2804749251206
 73
     0
 72
     2
 10
2.280596940506969
 20
0.369608213028888
 40
0.0188153276110619
 50
279.6361688894454
 51
298.0573516433577
 73
     0
 72
     2
 10
2.281663127814024
 20
0.3730218708912918
 40
0.0153157982727261
 50
300.5449189786844
 51
323.3255645340623
 73
     0
 72
     2
 10
2.278053685300495
 20
0.3712331984285728
 40
0.0192925244149349
 50
325.4679485472512
 51
338.7424644189146
 73
     0
 72
     2
 10
2.27572340908584
 20
0.3699536532293334
 40
0.0219309169397976
 50
337.8342522704153
 51
350.2507032151334
 73
     0
 72
     2
 10
2.256877395661122
 20
0.3664737796651569
 40
0.0410947224300675
 50
349.9184788839777
 51
358.9348353768806
 73
     0
 72
     1
 10
2.297965016891087
 20
0.3672377124287327
 11
2.257140622649931
 21
0.3672377124287327
 72
     2
 10
2.308122798849584
 20
0.3622878182718704
 40
0.051221906858459
 50
185.5455046984018
 51
188.2011430538267
 73
     0
 72
     2
 10
2.608837683911046
 20
0.3072422364761533
 40
0.3569017845664977
 50
190.0614576287786
 51
190.4239000976597
 73
     0
 72
     2
 10
2.44271291905515
 20
0.3231292571124805
 40
0.1911897814441117
 50
194.7530117273464
 51
195.4074903055051
 73
     0
 97
        1
330
57E
 92
        1
 93
       47
 72
     2
 10
2.281525461809295
 20
0.3532598947256552
 40
0.0241752923918273
 50
138.3496533346511
 51
148.4595555609686
 73
     0
 72
     2
 10
2.281020321028989
 20
0.3521059761880958
 40
0.0231523339774945
 50
150.2396979683238
 51
156.5937677099167
 73
     0
 72
     2
 10
2.296899550485688
 20
0.3585924636724106
 40
0.040303192361997
 50
157.0988242481769
 51
160.8634840437796
 73
     0
 72
     2
 10
2.35918612564275
 20
0.3744094790060188
 40
0.1044765553251907
 50
163.8678439431619
 51
165.4002231692524
 73
     0
 72
     2
 10
2.290868471540939
 20
0.3551965516179019
 40
0.033550015770866
 50
167.7439659185812
 51
173.0844435487628
 73
     0
 72
     2
 10
2.296499925882827
 20
0.356927593697432
 40
0.0393626795107542
 50
171.5698966947791
 51
180.4334275361526
 73
     0
 72
     1
 10
2.257138372636379
 20
0.3572253591981966
 11
2.310532446287798
 21
0.3572253591981966
 72
     1
 10
2.310532446287798
 20
0.3572253591981966
 11
2.310532446287798
 21
0.367418047889942
 72
     2
 10
2.275762964348938
 20
0.36817833181333
 40
0.0347777932873957
 50
358.7473463266968
 51
388.6031824377397
 73
     1
 72
     2
 10
2.281548948774631
 20
0.3715980049238856
 40
0.0280617767156418
 50
28.12879544758857
 51
54.95063515022645
 73
     1
 72
     2
 10
2.282693890302713
 20
0.3712425033481648
 40
0.0277188046407911
 50
57.31076922041544
 51
82.4940245374038
 73
     1
 72
     2
 10
2.280728554650892
 20
0.3702747845720343
 40
0.0289922752746188
 50
78.89077226525315
 51
93.81071159195634
 73
     1
 72
     2
 10
2.277977672205905
 20
0.3689225917587153
 40
0.0302915785144063
 50
88.44115042377268
 51
109.8107905333598
 73
     1
 72
     2
 10
2.275222109874093
 20
0.3727814463646621
 40
0.0257592548203171
 50
106.9521716693699
 51
124.603661569856
 73
     1
 72
     2
 10
2.274773416578598
 20
0.370745022031955
 40
0.027223416564771
 50
121.3907074886569
 51
136.2843774046689
 73
     1
 72
     2
 10
2.281149153841504
 20
0.3640611980123525
 40
0.0364531928221072
 50
135.6167017519909
 51
147.4469381469264
 73
     1
 72
     2
 10
2.274957111114595
 20
0.367416191215975
 40
0.0294330181030494
 50
146.4659438100723
 51
157.2122986253005
 73
     1
 72
     2
 10
2.267138403680966
 20
0.3693204846406612
 40
0.0215246798664316
 50
153.8226534473667
 51
165.5519937306932
 73
     1
 72
     2
 10
2.282236151108303
 20
0.3626756489903522
 40
0.0378968651110208
 50
161.515271747222
 51
170.1818189345484
 73
     1
 72
     2
 10
2.283166665329934
 20
0.3609961355594354
 40
0.0391287629611654
 50
167.9903558377853
 51
176.6960496179407
 73
     1
 72
     2
 10
2.304890836559504
 20
0.3584175027964993
 40
0.0609797779044622
 50
175.4535176021835
 51
184.5464823978164
 73
     1
 72
     2
 10
2.295769604053971
 20
0.3567421254133762
 40
0.0517631080522538
 50
183.4981100536811
 51
194.429389032572
 73
     1
 72
     2
 10
2.267924221356157
 20
0.3485424727520852
 40
0.0227749164074815
 50
191.9070472796621
 51
206.3889894285758
 73
     1
 72
     2
 10
2.273199831303323
 20
0.3487142209845105
 40
0.0276640261495296
 50
201.8464660881787
 51
222.1274079961559
 73
     1
 72
     2
 10
2.27556874488612
 20
0.3494265410796771
 40
0.0299175639630403
 50
220.0955596825676
 51
233.6759197426415
 73
     1
 72
     2
 10
2.276351476329496
 20
0.3502744687142416
 40
0.0310646393940598
 50
233.4391728830817
 51
246.8725717081748
 73
     1
 72
     2
 10
2.278595672201573
 20
0.3544982286952896
 40
0.035832707340859
 50
246.2252262725147
 51
255.2219052108666
 73
     1
 72
     2
 10
2.281256856845732
 20
0.3625382973605903
 40
0.0442887031977101
 50
254.5461626614621
 51
261.28331875032
 73
     1
 72
     2
 10
2.282043884726467
 20
0.3737944212376278
 40
0.0555418412898209
 50
262.2405778669421
 51
267.866769692275
 73
     1
 72
     2
 10
2.283144833705298
 20
0.3642090186578022
 40
0.0460271287848912
 50
266.0527719165295
 51
277.1377488483287
 73
     1
 72
     2
 10
2.281272771008767
 20
0.3743809067507015
 40
0.0563559280448384
 50
277.7413046158855
 51
284.930809102693
 73
     1
 72
     2
 10
2.279338009686233
 20
0.3840626065593292
 40
0.0662121975991039
 50
284.3899023200388
 51
289.2072984924262
 73
     1
 72
     2
 10
2.2245252206173
 20
0.5275821421545017
 40
0.2198223362827568
 50
290.3921624947603
 51
292.6481637583187
 73
     1
 72
     1
 10
2.309172482915673
 20
0.3247109995190845
 11
2.309172482915673
 21
0.3403736793267176
 72
     2
 10
2.305671207258226
 20
0.3412559357119335
 40
0.0036107211964766
 50
14.14304208538034
 51
40.5809188106621
 73
     0
 72
     2
 10
2.288515538402338
 20
0.3631952191068923
 40
0.0313981308170948
 50
50.67407287050084
 51
56.95139529671177
 73
     0
 72
     2
 10
2.289265767974786
 20
0.3612619791193873
 40
0.0293716166250663
 50
56.12144370235181
 51
61.7382303285629
 73
     0
 72
     2
 10
2.280777067438011
 20
0.3754051721516405
 40
0.0458548879987645
 50
60.76359459619522
 51
64.75139576529091
 73
     0
 72
     2
 10
2.279144285908056
 20
0.3763099703744814
 40
0.047382263147091
 50
63.43218982647736
 51
70.38756687457111
 73
     0
 72
     2
 10
2.276591631531688
 20
0.3888655443368394
 40
0.0600934929530564
 50
72.11336347133055
 51
75.85532826122167
 73
     0
 72
     2
 10
2.283489762083886
 20
0.3621959788453819
 40
0.0325472503124577
 50
76.15762347795572
 51
80.1548619188531
 73
     0
 72
     2
 10
2.280375450633645
 20
0.3826983276081179
 40
0.0532819675598692
 50
80.6249603204364
 51
83.12798914716191
 73
     0
 72
     2
 10
2.282758565718186
 20
0.368048205585744
 40
0.0384568363547721
 50
84.04143915734456
 51
95.95856084265543
 73
     0
 72
     2
 10
2.281672526878255
 20
0.3621321664056745
 40
0.0324633646414816
 50
95.13601524590475
 51
98.33322003417473
 73
     0
 72
     2
 10
2.28073781445788
 20
0.3541936259354742
 40
0.0244742127063064
 50
98.86157888906135
 51
112.110164074241
 73
     0
 72
     2
 10
2.279691010914149
 20
0.3522740777554137
 40
0.0223031909484424
 50
111.4747791446618
 51
123.1250142208017
 73
     0
 72
     2
 10
2.280026853888051
 20
0.3517336784423094
 40
0.0220416868943367
 50
124.6239441549396
 51
138.7251729097469
 73
     0
 97
        1
330
57F
 75
     0
 76
     1
 98
        1
 10
-6.623918024059631
 20
-0.1308261527660757
  0
HATCH
  5
56D
330
557
100
AcDbEntity
  8
CONTINUOUS1
 62
     9
100
AcDbHatch
 10
0.0
 20
0.0
 30
0.0
210
0.0
220
0.0
230
1.0
  2
SOLID
 70
     1
 71
     1
 91
        2
 92
       16
 93
       18
 72
     2
 10
2.101715475561753
 20
0.3528851545616271
 40
0.0664396543383199
 50
198.4619958207183
 51
200.1842354247361
 73
     0
 72
     2
 10
2.126856338028808
 20
0.3352454129199108
 40
0.096445586517071
 50
204.8718608834226
 51
205.9393865440841
 73
     0
 72
     2
 10
2.065142067085734
 20
0.3643060230231959
 40
0.0282500412151287
 50
207.6881291807204
 51
212.1468522298009
 73
     0
 72
     2
 10
2.06321009509015
 20
0.3643452262975984
 40
0.0266120055644413
 50
214.289143935524
 51
220.152251626646
 73
     0
 72
     2
 10
2.058686569650484
 20
0.3678076991082785
 40
0.0209235948276609
 50
220.892661179859
 51
232.6516971443595
 73
     0
 72
     2
 10
2.05719658138728
 20
0.3706911836161677
 40
0.0177364140530899
 50
230.8268348175522
 51
247.1055208447452
 73
     0
 72
     2
 10
2.057118792149061
 20
0.3703911970057605
 40
0.0179834923783286
 50
247.7056716288168
 51
261.2030821657686
 73
     0
 72
     2
 10
2.058452148465288
 20
0.3671765463522348
 40
0.021380205129606
 50
258.9888491837334
 51
271.7108857746265
 73
     0
 72
     2
 10
2.059650477989436
 20
0.3639169558453035
 40
0.0246366297664502
 50
268.6975355392314
 51
280.2804749251206
 73
     0
 72
     2
 10
2.060897782283406
 20
0.3696082130283622
 40
0.018815327611566
 50
279.6361688889214
 51
298.0573516428338
 73
     0
 72
     2
 10
2.061963969590546
 20
0.3730218708912918
 40
0.0153157982727261
 50
300.5449189786844
 51
323.3255645340623
 73
     0
 72
     2
 10
2.058354527077018
 20
0.3712331984285728
 40
0.0192925244149349
 50
325.4679485472512
 51
338.7424644189146
 73
     0
 72
     2
 10
2.056024250862277
 20
0.3699536532301173
 40
0.0219309169395808
 50
337.834252272396
 51
350.2507032171141
 73
     0
 72
     2
 10
2.037178237437474
 20
0.3664737796651569
 40
0.0410947224300675
 50
349.9184788839777
 51
358.9348353768806
 73
     0
 72
     1
 10
2.078265858667439
 20
0.3672377124287327
 11
2.037441464426283
 21
0.3672377124287327
 72
     2
 10
2.088423640626022
 20
0.3622878182681919
 40
0.0512219068588993
 50
185.545504702488
 51
188.201143057913
 73
     0
 72
     2
 10
2.389138525687483
 20
0.3072422365031111
 40
0.3569017845617042
 50
190.0614576245198
 51
190.4239000934009
 73
     0
 72
     2
 10
2.223013760831502
 20
0.3231292571124805
 40
0.1911897814441117
 50
194.7530117273464
 51
195.4074903055051
 73
     0
 97
        1
330
57B
 92
        1
 93
       47
 72
     2
 10
2.061826303585647
 20
0.3532598947256552
 40
0.0241752923918273
 50
138.3496533346511
 51
148.4595555609686
 73
     0
 72
     2
 10
2.061321162805342
 20
0.3521059761880958
 40
0.0231523339774945
 50
150.2396979683238
 51
156.5937677099167
 73
     0
 72
     2
 10
2.077200392262041
 20
0.3585924636724106
 40
0.040303192361997
 50
157.0988242481769
 51
160.8634840437796
 73
     0
 72
     2
 10
2.139486967419102
 20
0.3744094790060188
 40
0.1044765553251907
 50
163.8678439431619
 51
165.4002231692524
 73
     0
 72
     2
 10
2.071169313317291
 20
0.3551965516179019
 40
0.033550015770866
 50
167.7439659185812
 51
173.0844435487628
 73
     0
 72
     2
 10
2.076800767659179
 20
0.356927593697432
 40
0.0393626795107542
 50
171.5698966947791
 51
180.4334275361526
 73
     0
 72
     1
 10
2.037439214412732
 20
0.3572253591981966
 11
2.09083328806415
 21
0.3572253591981966
 72
     1
 10
2.09083328806415
 20
0.3572253591981966
 11
2.09083328806415
 21
0.367418047889942
 72
     2
 10
2.05606380612529
 20
0.36817833181333
 40
0.0347777932873957
 50
358.7473463266968
 51
388.6031824377397
 73
     1
 72
     2
 10
2.061849790550983
 20
0.3715980049238856
 40
0.0280617767156418
 50
28.12879544758857
 51
54.95063515022645
 73
     1
 72
     2
 10
2.062994732079065
 20
0.3712425033481648
 40
0.0277188046407911
 50
57.31076922041544
 51
82.4940245374038
 73
     1
 72
     2
 10
2.061029396427244
 20
0.3702747845720343
 40
0.0289922752746188
 50
78.89077226525315
 51
93.81071159195634
 73
     1
 72
     2
 10
2.058278513982257
 20
0.3689225917587153
 40
0.0302915785144063
 50
88.44115042377268
 51
109.8107905333598
 73
     1
 72
     2
 10
2.055522951650445
 20
0.3727814463646621
 40
0.0257592548203171
 50
106.9521716693699
 51
124.603661569856
 73
     1
 72
     2
 10
2.055074258354951
 20
0.370745022031955
 40
0.027223416564771
 50
121.3907074886569
 51
136.2843774046689
 73
     1
 72
     2
 10
2.061449995617856
 20
0.3640611980123525
 40
0.0364531928221072
 50
135.6167017519909
 51
147.4469381469264
 73
     1
 72
     2
 10
2.055257952890947
 20
0.367416191215975
 40
0.0294330181030494
 50
146.4659438100723
 51
157.2122986253005
 73
     1
 72
     2
 10
2.047439245457319
 20
0.3693204846406612
 40
0.0215246798664316
 50
153.8226534473667
 51
165.5519937306932
 73
     1
 72
     2
 10
2.062536992884655
 20
0.3626756489903522
 40
0.0378968651110208
 50
161.515271747222
 51
170.1818189345484
 73
     1
 72
     2
 10
2.063467507106286
 20
0.3609961355594354
 40
0.0391287629611654
 50
167.9903558377853
 51
176.6960496179407
 73
     1
 72
     2
 10
2.085191678335856
 20
0.3584175027964993
 40
0.0609797779044622
 50
175.4535176021835
 51
184.5464823978164
 73
     1
 72
     2
 10
2.076070445830323
 20
0.3567421254133762
 40
0.0517631080522538
 50
183.4981100536811
 51
194.429389032572
 73
     1
 72
     2
 10
2.048225063132509
 20
0.3485424727520852
 40
0.0227749164074815
 50
191.9070472796621
 51
206.3889894285758
 73
     1
 72
     2
 10
2.053500673079675
 20
0.3487142209845105
 40
0.0276640261495296
 50
201.8464660881787
 51
222.1274079961559
 73
     1
 72
     2
 10
2.055869586662472
 20
0.3494265410796771
 40
0.0299175639630403
 50
220.0955596825676
 51
233.6759197426415
 73
     1
 72
     2
 10
2.056652318105848
 20
0.3502744687142416
 40
0.0310646393940598
 50
233.4391728830817
 51
246.8725717081748
 73
     1
 72
     2
 10
2.058896513977925
 20
0.3544982286952896
 40
0.035832707340859
 50
246.2252262725147
 51
255.2219052108666
 73
     1
 72
     2
 10
2.061557698622085
 20
0.3625382973605903
 40
0.0442887031977101
 50
254.5461626614621
 51
261.28331875032
 73
     1
 72
     2
 10
2.06234472650282
 20
0.3737944212376278
 40
0.0555418412898209
 50
262.2405778669421
 51
267.866769692275
 73
     1
 72
     2
 10
2.063445675481736
 20
0.3642090186586808
 40
0.0460271287857736
 50
266.052771916499
 51
277.1377488482981
 73
     1
 72
     2
 10
2.061573612785204
 20
0.3743809067493442
 40
0.056355928043505
 50
277.7413046161573
 51
284.9308091029648
 73
     1
 72
     2
 10
2.059638851462585
 20
0.3840626065593292
 40
0.0662121975991039
 50
284.3899023200388
 51
289.2072984924262
 73
     1
 72
     2
 10
2.004826062393652
 20
0.5275821421545017
 40
0.2198223362827568
 50
290.3921624947603
 51
292.6481637583187
 73
     1
 72
     1
 10
2.089473324692026
 20
0.3247109995190845
 11
2.089473324692026
 21
0.3403736793267176
 72
     2
 10
2.085972049034579
 20
0.3412559357119335
 40
0.0036107211964766
 50
14.14304208538034
 51
40.5809188106621
 73
     0
 72
     2
 10
2.06881638017869
 20
0.3631952191068923
 40
0.0313981308170948
 50
50.67407287050084
 51
56.95139529671177
 73
     0
 72
     2
 10
2.069566609751138
 20
0.3612619791193873
 40
0.0293716166250663
 50
56.12144370235181
 51
61.7382303285629
 73
     0
 72
     2
 10
2.061077909214363
 20
0.3754051721516405
 40
0.0458548879987645
 50
60.76359459619522
 51
64.75139576529091
 73
     0
 72
     2
 10
2.059445127684409
 20
0.3763099703744814
 40
0.047382263147091
 50
63.43218982647736
 51
70.38756687457111
 73
     0
 72
     2
 10
2.056892473308041
 20
0.3888655443368394
 40
0.0600934929530564
 50
72.11336347133055
 51
75.85532826122167
 73
     0
 72
     2
 10
2.063790603860239
 20
0.3621959788453819
 40
0.0325472503124577
 50
76.15762347795572
 51
80.1548619188531
 73
     0
 72
     2
 10
2.060676292409997
 20
0.3826983276081179
 40
0.0532819675598692
 50
80.6249603204364
 51
83.12798914716191
 73
     0
 72
     2
 10
2.063059407494538
 20
0.368048205585744
 40
0.0384568363547721
 50
84.04143915734456
 51
95.95856084265543
 73
     0
 72
     2
 10
2.061973368654692
 20
0.3621321664026192
 40
0.0324633646384463
 50
95.13601524653735
 51
98.33322003480732
 73
     0
 72
     2
 10
2.061038656234403
 20
0.3541936259354742
 40
0.0244742127063064
 50
98.86157888906135
 51
112.110164074241
 73
     0
 72
     2
 10
2.059991852690671
 20
0.3522740777554137
 40
0.0223031909484424
 50
111.4747791446618
 51
123.1250142208017
 73
     0
 72
     2
 10
2.060327695664488
 20
0.3517336784429987
 40
0.0220416868948555
 50
124.6239441537391
 51
138.7251729085464
 73
     0
 97
        1
330
57C
 75
     0
 76
     1
 98
        1
 10
-6.623918024059631
 20
-0.1308261527660757
  0
HATCH
  5
56E
330
557
100
AcDbEntity
  8
CONTINUOUS1
 62
     9
100
AcDbHatch
 10
0.0
 20
0.0
 30
0.0
210
0.0
220
0.0
230
1.0
  2
SOLID
 70
     1
 71
     1
 91
        1
 92
        1
 93
       78
 72
     1
 10
1.93678687597961
 20
0.3185392197908646
 11
1.939564494073497
 21
0.3185392197908646
 72
     1
 10
1.939564494073497
 20
0.3185392197908646
 11
1.942342112167555
 21
0.3185392197908646
 72
     1
 10
1.942342112167555
 20
0.3185392197908646
 11
1.945119730261442
 21
0.3185392197908646
 72
     1
 10
1.945119730261442
 20
0.3185392197908646
 11
1.9478973483555
 21
0.3185392197908646
 72
     1
 10
1.9478973483555
 20
0.3185392197908646
 11
1.950674966449557
 21
0.3185392197908646
 72
     1
 10
1.950674966449557
 20
0.3185392197908646
 11
1.950674966449557
 21
0.3213168378847518
 72
     1
 10
1.950674966449557
 20
0.3213168378847518
 11
1.950674966449557
 21
0.3240944559788095
 72
     1
 10
1.950674966449557
 20
0.3240944559788095
 11
1.950674966449557
 21
0.3713139635765974
 72
     1
 10
1.950674966449557
 20
0.3713139635765974
 11
1.950674966449557
 21
0.3740915816706551
 72
     1
 10
1.950674966449557
 20
0.3740915816706551
 11
1.950674966449557
 21
0.3764121066624857
 72
     1
 10
1.950674966449557
 20
0.3764121066624857
 11
1.953452584543445
 21
0.3787302038875286
 72
     1
 10
1.953452584543445
 20
0.3787302038875286
 11
1.956003614602682
 21
0.3809067470338623
 72
     1
 10
1.956003614602682
 20
0.3809067470338623
 11
1.958366196022527
 21
0.3826818394989009
 72
     1
 10
1.958366196022527
 20
0.3826818394989009
 11
1.961291878825964
 21
0.3848664295055646
 72
     1
 10
1.961291878825964
 20
0.3848664295055646
 11
1.963519951262444
 21
0.3862728726654727
 72
     1
 10
1.963519951262444
 20
0.3862728726654727
 11
1.965368566166691
 21
0.3871741628932459
 72
     1
 10
1.965368566166691
 20
0.3871741628932459
 11
1.967340675013392
 21
0.3877239703094806
 72
     1
 10
1.967340675013392
 20
0.3877239703094806
 11
1.97011829310745
 21
0.3879796721404323
 72
     1
 10
1.97011829310745
 20
0.3879796721404323
 11
1.972895911201337
 21
0.3879796721404323
 72
     1
 10
1.972895911201337
 20
0.3879796721404323
 11
1.975673529295395
 21
0.3875908056072608
 72
     1
 10
1.975673529295395
 20
0.3875908056072608
 11
1.978408481664164
 21
0.3864723471903067
 72
     1
 10
1.978408481664164
 20
0.3864723471903067
 11
1.980423256236154
 21
0.3848131875133736
 72
     1
 10
1.980423256236154
 20
0.3848131875133736
 11
1.982347794679387
 21
0.3828455775268371
 72
     1
 10
1.982347794679387
 20
0.3828455775268371
 11
1.983898127081747
 21
0.3807960064739295
 72
     1
 10
1.983898127081747
 20
0.3807960064739295
 11
1.985408544715742
 21
0.3785266344276583
 72
     1
 10
1.985408544715742
 20
0.3785266344276583
 11
1.986436641229861
 21
0.3760636905171855
 72
     1
 10
1.986436641229861
 20
0.3760636905171855
 11
1.986784001671285
 21
0.3740915816706551
 72
     1
 10
1.986784001671285
 20
0.3740915816706551
 11
1.986784001671285
 21
0.3713139635765974
 72
     1
 10
1.986784001671285
 20
0.3713139635765974
 11
1.986784001671285
 21
0.3240944559788095
 72
     1
 10
1.986784001671285
 20
0.3240944559788095
 11
1.986784001671285
 21
0.3213168378847518
 72
     1
 10
1.986784001671285
 20
0.3213168378847518
 11
1.986784001671285
 21
0.3185392197908646
 72
     1
 10
1.986784001671285
 20
0.3185392197908646
 11
1.989561619765343
 21
0.3185392197908646
 72
     1
 10
1.989561619765343
 20
0.3185392197908646
 11
1.99233923785923
 21
0.3185392197908646
 72
     1
 10
1.99233923785923
 20
0.3185392197908646
 11
1.995116855953288
 21
0.3185392197908646
 72
     1
 10
1.995116855953288
 20
0.3185392197908646
 11
1.997894474047175
 21
0.3185392197908646
 72
     1
 10
1.997894474047175
 20
0.3185392197908646
 11
2.000672092141233
 21
0.3185392197908646
 72
     1
 10
2.000672092141233
 20
0.3185392197908646
 11
2.000672092141233
 21
0.3213168378847518
 72
     1
 10
2.000672092141233
 20
0.3213168378847518
 11
2.000672092141233
 21
0.3240944559788095
 72
     1
 10
2.000672092141233
 20
0.3240944559788095
 11
2.000672092141233
 21
0.3740915816706551
 72
     1
 10
2.000672092141233
 20
0.3740915816706551
 11
2.000672092141233
 21
0.3768691997645424
 72
     1
 10
2.000672092141233
 20
0.3768691997645424
 11
2.000394330331776
 21
0.3796468178584296
 72
     1
 10
2.000394330331776
 20
0.3796468178584296
 11
1.999755478170161
 21
0.3824244359524873
 72
     1
 10
1.999755478170161
 20
0.3824244359524873
 11
1.998811088018246
 21
0.3852020540465451
 72
     1
 10
1.998811088018246
 20
0.3852020540465451
 11
1.997366726609445
 21
0.3877019103309753
 72
     1
 10
1.997366726609445
 20
0.3877019103309753
 11
1.995116855953288
 21
0.3898406762634186
 72
     1
 10
1.995116855953288
 20
0.3898406762634186
 11
1.992605073201364
 21
0.3920766850267801
 72
     1
 10
1.992605073201364
 20
0.3920766850267801
 11
1.989896866645583
 21
0.3938452989406192
 72
     1
 10
1.989896866645583
 20
0.3938452989406192
 11
1.987855574154341
 21
0.3953124560483166
 72
     1
 10
1.987855574154341
 20
0.3953124560483166
 11
1.985252932763362
 21
0.3964598354054947
 72
     1
 10
1.985252932763362
 20
0.3964598354054947
 11
1.982498395711534
 21
0.3975734953987744
 72
     1
 10
1.982498395711534
 20
0.3975734953987744
 11
1.980191734394711
 21
0.3984640481231172
 72
     1
 10
1.980191734394711
 20
0.3984640481231172
 11
1.978042304217613
 21
0.3990083828482516
 72
     1
 10
1.978042304217613
 20
0.3990083828482516
 11
1.975645085390201
 21
0.3994741650645897
 72
     1
 10
1.975645085390201
 20
0.3994741650645897
 11
1.972895911201337
 21
0.3994820966067327
 72
     1
 10
1.972895911201337
 20
0.3994820966067327
 11
1.970108168823831
 21
0.3992749623910759
 72
     1
 10
1.970108168823831
 20
0.3992749623910759
 11
1.967507332098964
 21
0.39861794944045
 72
     1
 10
1.967507332098964
 20
0.39861794944045
 11
1.965118580538248
 21
0.3974235736599217
 72
     1
 10
1.965118580538248
 20
0.3974235736599217
 11
1.962966544042192
 21
0.3962323293606009
 72
     1
 10
1.962966544042192
 20
0.3962323293606009
 11
1.960659803288965
 21
0.3947017891629803
 72
     1
 10
1.960659803288965
 20
0.3947017891629803
 11
1.958231061444994
 21
0.3928857065760103
 72
     1
 10
1.958231061444994
 20
0.3928857065760103
 11
1.95606354555176
 21
0.3912294853105327
 72
     1
 10
1.95606354555176
 20
0.3912294853105327
 11
1.953417691445029
 21
0.3893715454285034
 72
     1
 10
1.953417691445029
 20
0.3893715454285034
 11
1.950674966449557
 21
0.3873342800367259
 72
     1
 10
1.950674966449557
 20
0.3873342800367259
 11
1.950674966449557
 21
0.3935349083285478
 72
     1
 10
1.950674966449557
 20
0.3935349083285478
 11
1.950674966449557
 21
0.396312526422435
 72
     1
 10
1.950674966449557
 20
0.396312526422435
 11
1.950674966449557
 21
0.39075729023449
 72
     1
 10
1.950674966449557
 20
0.39075729023449
 11
1.950674966449557
 21
0.3935349083285478
 72
     1
 10
1.950674966449557
 20
0.3935349083285478
 11
1.950674966449557
 21
0.396312526422435
 72
     1
 10
1.950674966449557
 20
0.396312526422435
 11
1.9478973483555
 21
0.396312526422435
 72
     1
 10
1.9478973483555
 20
0.396312526422435
 11
1.945119730261442
 21
0.396312526422435
 72
     1
 10
1.945119730261442
 20
0.396312526422435
 11
1.942342112167555
 21
0.396312526422435
 72
     1
 10
1.942342112167555
 20
0.396312526422435
 11
1.939564494073497
 21
0.396312526422435
 72
     1
 10
1.939564494073497
 20
0.396312526422435
 11
1.93678687597961
 21
0.396312526422435
 72
     1
 10
1.93678687597961
 20
0.396312526422435
 11
1.93678687597961
 21
0.3935349083285478
 72
     1
 10
1.93678687597961
 20
0.3935349083285478
 11
1.93678687597961
 21
0.39075729023449
 72
     1
 10
1.93678687597961
 20
0.39075729023449
 11
1.93678687597961
 21
0.3240944559788095
 72
     1
 10
1.93678687597961
 20
0.3240944559788095
 11
1.93678687597961
 21
0.3213168378847518
 72
     1
 10
1.93678687597961
 20
0.3213168378847518
 11
1.93678687597961
 21
0.3185392197908646
 97
        1
330
576
 75
     0
 76
     1
 98
        1
 10
-6.623918024059631
 20
-0.1308261527660757
  0
HATCH
  5
56F
330
557
100
AcDbEntity
  8
CONTINUOUS1
 62
     9
100
AcDbHatch
 10
0.0
 20
0.0
 30
0.0
210
0.0
220
0.0
230
1.0
  2
SOLID
 70
     1
 71
     1
 91
        1
 92
        1
 93
       78
 72
     1
 10
1.847903096971979
 20
0.3185392197908646
 11
1.850680715066037
 21
0.3185392197908646
 72
     1
 10
1.850680715066037
 20
0.3185392197908646
 11
1.853458333160094
 21
0.3185392197908646
 72
     1
 10
1.853458333160094
 20
0.3185392197908646
 11
1.856235951253982
 21
0.3185392197908646
 72
     1
 10
1.856235951253982
 20
0.3185392197908646
 11
1.859013569348039
 21
0.3185392197908646
 72
     1
 10
1.859013569348039
 20
0.3185392197908646
 11
1.861791187441927
 21
0.3185392197908646
 72
     1
 10
1.861791187441927
 20
0.3185392197908646
 11
1.861791187441927
 21
0.3213168378847518
 72
     1
 10
1.861791187441927
 20
0.3213168378847518
 11
1.861791187441927
 21
0.3240944559788095
 72
     1
 10
1.861791187441927
 20
0.3240944559788095
 11
1.861791187441927
 21
0.3713139635765974
 72
     1
 10
1.861791187441927
 20
0.3713139635765974
 11
1.861791187441927
 21
0.3740915816706551
 72
     1
 10
1.861791187441927
 20
0.3740915816706551
 11
1.861791187441927
 21
0.3764121066624857
 72
     1
 10
1.861791187441927
 20
0.3764121066624857
 11
1.864568805535984
 21
0.3787302038875286
 72
     1
 10
1.864568805535984
 20
0.3787302038875286
 11
1.867119835595051
 21
0.3809067470338623
 72
     1
 10
1.867119835595051
 20
0.3809067470338623
 11
1.869482417015067
 21
0.3826818394989009
 72
     1
 10
1.869482417015067
 20
0.3826818394989009
 11
1.872408099818333
 21
0.3848664295055646
 72
     1
 10
1.872408099818333
 20
0.3848664295055646
 11
1.874636172254813
 21
0.3862728726654727
 72
     1
 10
1.874636172254813
 20
0.3862728726654727
 11
1.876484787159231
 21
0.3871741628932459
 72
     1
 10
1.876484787159231
 20
0.3871741628932459
 11
1.878456896005932
 21
0.3877239703094806
 72
     1
 10
1.878456896005932
 20
0.3877239703094806
 11
1.881234514099819
 21
0.3879796721404323
 72
     1
 10
1.881234514099819
 20
0.3879796721404323
 11
1.884012132193877
 21
0.3879796721404323
 72
     1
 10
1.884012132193877
 20
0.3879796721404323
 11
1.886789750287764
 21
0.3875908056072608
 72
     1
 10
1.886789750287764
 20
0.3875908056072608
 11
1.889524702656704
 21
0.3864723471903067
 72
     1
 10
1.889524702656704
 20
0.3864723471903067
 11
1.891539477228523
 21
0.3848131875133736
 72
     1
 10
1.891539477228523
 20
0.3848131875133736
 11
1.893464015671927
 21
0.3828455775268371
 72
     1
 10
1.893464015671927
 20
0.3828455775268371
 11
1.895014348074116
 21
0.3807960064739295
 72
     1
 10
1.895014348074116
 20
0.3807960064739295
 11
1.896524765708281
 21
0.3785266344276583
 72
     1
 10
1.896524765708281
 20
0.3785266344276583
 11
1.897552862222401
 21
0.3760636905171855
 72
     1
 10
1.897552862222401
 20
0.3760636905171855
 11
1.897900222663825
 21
0.3740915816706551
 72
     1
 10
1.897900222663825
 20
0.3740915816706551
 11
1.897900222663825
 21
0.3713139635765974
 72
     1
 10
1.897900222663825
 20
0.3713139635765974
 11
1.897900222663825
 21
0.3240944559788095
 72
     1
 10
1.897900222663825
 20
0.3240944559788095
 11
1.897900222663825
 21
0.3213168378847518
 72
     1
 10
1.897900222663825
 20
0.3213168378847518
 11
1.897900222663825
 21
0.3185392197908646
 72
     1
 10
1.897900222663825
 20
0.3185392197908646
 11
1.900677840757712
 21
0.3185392197908646
 72
     1
 10
1.900677840757712
 20
0.3185392197908646
 11
1.90345545885177
 21
0.3185392197908646
 72
     1
 10
1.90345545885177
 20
0.3185392197908646
 11
1.906233076945657
 21
0.3185392197908646
 72
     1
 10
1.906233076945657
 20
0.3185392197908646
 11
1.909010695039714
 21
0.3185392197908646
 72
     1
 10
1.909010695039714
 20
0.3185392197908646
 11
1.911788313133772
 21
0.3185392197908646
 72
     1
 10
1.911788313133772
 20
0.3185392197908646
 11
1.911788313133772
 21
0.3213168378847518
 72
     1
 10
1.911788313133772
 20
0.3213168378847518
 11
1.911788313133772
 21
0.3240944559788095
 72
     1
 10
1.911788313133772
 20
0.3240944559788095
 11
1.911788313133772
 21
0.3740915816706551
 72
     1
 10
1.911788313133772
 20
0.3740915816706551
 11
1.911788313133772
 21
0.3768691997645424
 72
     1
 10
1.911788313133772
 20
0.3768691997645424
 11
1.911510551324315
 21
0.3796468178584296
 72
     1
 10
1.911510551324315
 20
0.3796468178584296
 11
1.910871699162701
 21
0.3824244359524873
 72
     1
 10
1.910871699162701
 20
0.3824244359524873
 11
1.909927309010786
 21
0.3852020540465451
 72
     1
 10
1.909927309010786
 20
0.3852020540465451
 11
1.908482947601815
 21
0.3877019103309753
 72
     1
 10
1.908482947601815
 20
0.3877019103309753
 11
1.906233076945657
 21
0.3898406762634186
 72
     1
 10
1.906233076945657
 20
0.3898406762634186
 11
1.903721294193903
 21
0.3920766850267801
 72
     1
 10
1.903721294193903
 20
0.3920766850267801
 11
1.901013087638123
 21
0.3938452989406192
 72
     1
 10
1.901013087638123
 20
0.3938452989406192
 11
1.898971795146881
 21
0.3953124560483166
 72
     1
 10
1.898971795146881
 20
0.3953124560483166
 11
1.896369153755731
 21
0.3964598354054947
 72
     1
 10
1.896369153755731
 20
0.3964598354054947
 11
1.893614616703903
 21
0.3975734953987744
 72
     1
 10
1.893614616703903
 20
0.3975734953987744
 11
1.89130795538708
 21
0.3984640481231172
 72
     1
 10
1.89130795538708
 20
0.3984640481231172
 11
1.889158525210152
 21
0.3990083828482516
 72
     1
 10
1.889158525210152
 20
0.3990083828482516
 11
1.886761306382741
 21
0.3994741650645897
 72
     1
 10
1.886761306382741
 20
0.3994741650645897
 11
1.884012132193877
 21
0.3994820966067327
 72
     1
 10
1.884012132193877
 20
0.3994820966067327
 11
1.88122438981637
 21
0.3992749623910759
 72
     1
 10
1.88122438981637
 20
0.3992749623910759
 11
1.878623553091504
 21
0.39861794944045
 72
     1
 10
1.878623553091504
 20
0.39861794944045
 11
1.876234801530788
 21
0.3974235736599217
 72
     1
 10
1.876234801530788
 20
0.3974235736599217
 11
1.874082765034561
 21
0.3962323293606009
 72
     1
 10
1.874082765034561
 20
0.3962323293606009
 11
1.871776024281334
 21
0.3947017891629803
 72
     1
 10
1.871776024281334
 20
0.3947017891629803
 11
1.869347282437363
 21
0.3928857065760103
 72
     1
 10
1.869347282437363
 20
0.3928857065760103
 11
1.8671797665443
 21
0.3912294853105327
 72
     1
 10
1.8671797665443
 20
0.3912294853105327
 11
1.864533912437398
 21
0.3893715454285034
 72
     1
 10
1.864533912437398
 20
0.3893715454285034
 11
1.861791187441927
 21
0.3873342800367259
 72
     1
 10
1.861791187441927
 20
0.3873342800367259
 11
1.861791187441927
 21
0.3935349083285478
 72
     1
 10
1.861791187441927
 20
0.3935349083285478
 11
1.861791187441927
 21
0.396312526422435
 72
     1
 10
1.861791187441927
 20
0.396312526422435
 11
1.861791187441927
 21
0.432421561644333
 72
     1
 10
1.861791187441927
 20
0.432421561644333
 11
1.861791187441927
 21
0.4351991797382202
 72
     1
 10
1.861791187441927
 20
0.4351991797382202
 11
1.861791187441927
 21
0.4379767978321075
 72
     1
 10
1.861791187441927
 20
0.4379767978321075
 11
1.859013569348039
 21
0.4379767978321075
 72
     1
 10
1.859013569348039
 20
0.4379767978321075
 11
1.856235951253982
 21
0.4379767978321075
 72
     1
 10
1.856235951253982
 20
0.4379767978321075
 11
1.853458333160094
 21
0.4379767978321075
 72
     1
 10
1.853458333160094
 20
0.4379767978321075
 11
1.850680715066037
 21
0.4379767978321075
 72
     1
 10
1.850680715066037
 20
0.4379767978321075
 11
1.847903096971979
 21
0.4379767978321075
 72
     1
 10
1.847903096971979
 20
0.4379767978321075
 11
1.847903096971979
 21
0.4351991797382202
 72
     1
 10
1.847903096971979
 20
0.4351991797382202
 11
1.847903096971979
 21
0.432421561644333
 72
     1
 10
1.847903096971979
 20
0.432421561644333
 11
1.847903096971979
 21
0.3240944559788095
 72
     1
 10
1.847903096971979
 20
0.3240944559788095
 11
1.847903096971979
 21
0.3213168378847518
 72
     1
 10
1.847903096971979
 20
0.3213168378847518
 11
1.847903096971979
 21
0.3185392197908646
 97
        1
330
575
 75
     0
 76
     1
 98
        1
 10
-6.623918024059631
 20
-0.1308261527660757
  0
HATCH
  5
570
330
557
100
AcDbEntity
  8
CONTINUOUS1
 62
     9
100
AcDbHatch
 10
0.0
 20
0.0
 30
0.0
210
0.0
220
0.0
230
1.0
  2
SOLID
 70
     1
 71
     1
 91
        1
 92
        1
 93
       12
 72
     1
 10
2.047689882598749
 20
0.6638644919422068
 11
2.026127593512317
 21
0.6638644919422068
 72
     1
 10
2.026127593512317
 20
0.6638644919422068
 11
2.026127406012253
 21
0.5568018132491948
 72
     2
 10
2.047689923847382
 20
0.5568015038747939
 40
0.0215625178373483
 50
179.999177932392
 51
269.9998903944058
 73
     1
 72
     1
 10
2.047689882598749
 20
0.5352389860374847
 11
2.16525206565112
 21
0.5352391641624768
 72
     2
 10
2.165252113464067
 20
0.5568015929365722
 40
0.0215624287741484
 50
269.9998729512306
 51
359.9996387857453
 73
     1
 72
     1
 10
2.186814542237787
 20
0.5568014569988696
 11
2.186814898487941
 21
0.6638644919422068
 72
     1
 10
2.186814898487941
 20
0.6638644919422068
 11
2.16525206565112
 21
0.6638644919422068
 72
     1
 10
2.16525206565112
 20
0.6638644919422068
 11
2.16525206565112
 21
0.5675830496674626
 72
     2
 10
2.154470694233568
 20
0.5675829165415133
 40
0.0107813714183743
 50
359.9992925246018
 51
449.9992925333428
 73
     0
 72
     1
 10
2.154470827357872
 20
0.5568015451239608
 11
2.058471120891997
 21
0.5568015451239608
 72
     2
 10
2.058471160267021
 20
0.5675830102922954
 40
0.0107814651684066
 50
90.00020925010334
 51
180.0002092508632
 73
     0
 72
     1
 10
2.047689695098686
 20
0.5675830496674626
 11
2.047689882598749
 21
0.6638644919422068
 97
        1
330
573
 75
     0
 76
     1
 98
        1
 10
-6.623918024059631
 20
-0.1308261527660757
  0
HATCH
  5
571
330
557
100
AcDbEntity
  8
CONTINUOUS1
 62
     9
100
AcDbHatch
 10
0.0
 20
0.0
 30
0.0
210
0.0
220
0.0
230
1.0
  2
SOLID
 70
     1
 71
     1
 91
        2
 92
        1
 93
       11
 72
     2
 10
1.859439987429169
 20
0.6423016656678994
 40
0.021562648149145
 50
90.00000747299615
 51
179.9997683268519
 73
     1
 72
     1
 10
1.837877339280201
 20
0.6423017528555879
 11
1.837877170530109
 21
0.5568018132491948
 72
     2
 10
1.859439857117431
 20
0.5568016726252254
 40
0.0215626865877801
 50
179.9996263378447
 51
269.9998903896797
 73
     1
 72
     1
 10
1.859439815866696
 20
0.5352389860374847
 11
1.986189823671427
 21
0.5352391641624768
 72
     2
 10
1.986190043351474
 20
0.5568016288008568
 40
0.021562464639499
 50
269.9994162661957
 51
311.7040125634689
 73
     1
 72
     1
 10
2.000535176793139
 20
0.5407032739821039
 11
2.007752112757859
 21
0.5352391641624768
 72
     1
 10
2.007752112757859
 20
0.5352391641624768
 11
2.020768165011109
 21
0.5524296310179584
 72
     1
 10
2.020768165011109
 20
0.5524296310179584
 11
2.007752300257923
 21
0.5622850574563363
 72
     1
 10
2.007752300257923
 20
0.5622850574563363
 11
2.007752469008014
 21
0.6423016628555165
 72
     2
 10
1.986189820858957
 20
0.6423016656679872
 40
0.0215626481490576
 50
359.9999925267666
 51
449.9999925267678
 73
     1
 72
     1
 10
1.986189823671427
 20
0.6638643138170442
 11
1.859439984616788
 21
0.6638643138170442
 97
        1
330
574
 92
       16
 93
       10
 72
     2
 10
1.870221492910582
 20
0.6315205108123614
 40
0.0107811520434708
 50
90.00043844291294
 51
179.9999701074038
 73
     1
 72
     1
 10
1.859440340867113
 20
0.6315205164371496
 11
1.859440340867113
 21
0.5675830496674626
 72
     2
 10
1.870221627908248
 20
0.5675828321650959
 40
0.0107812870433294
 50
179.9988441113203
 51
269.9988441346395
 73
     1
 72
     1
 10
1.87022141041027
 20
0.5568015451239608
 11
1.979274912904006
 21
0.5568015451239608
 72
     1
 10
1.979274912904006
 20
0.5568015451239608
 11
1.936536734983437
 21
0.5891612556392834
 72
     1
 10
1.936536734983437
 20
0.5891612556392834
 11
1.949552787236687
 21
0.6063515462445826
 72
     1
 10
1.949552787236687
 20
0.6063515462445826
 11
1.986189823671427
 21
0.5786120318725812
 72
     1
 10
1.986189823671427
 20
0.5786120318725812
 11
1.986189823671427
 21
0.6315204283122289
 72
     2
 10
1.975408587253074
 20
0.631520426437163
 40
0.0107812364183532
 50
0.0000099648460607
 51
90.00000996484372
 73
     1
 72
     1
 10
1.975408585378009
 20
0.6423016628555165
 11
1.87022141041027
 21
0.6423016628555165
 97
        1
330
577
 75
     0
 76
     1
 98
        1
 10
-6.623918024059631
 20
-0.1308261527660757
  0
HATCH
  5
572
330
557
100
AcDbEntity
  8
CONTINUOUS1
 62
     9
100
AcDbHatch
 10
0.0
 20
0.0
 30
0.0
210
0.0
220
0.0
230
1.0
  2
SOLID
 70
     1
 71
     0
 91
        2
 92
        7
 72
     1
 73
     1
 93
       21
 10
2.220103921565996
 20
0.432421561644333
 42
0.0
 10
2.220103921565996
 20
0.4351991797382202
 42
0.0
 10
2.220103921565996
 20
0.4379767978321075
 42
0.0
 10
2.217326303472109
 20
0.4379767978321075
 42
0.0
 10
2.214548685378051
 20
0.4379767978321075
 42
0.0
 10
2.211771067283994
 20
0.4379767978321075
 42
0.0
 10
2.208993449190106
 20
0.4379767978321075
 42
0.0
 10
2.206215831096052
 20
0.4379767978321075
 42
0.0
 10
2.206215831096049
 20
0.4351991797382202
 42
0.0
 10
2.206215831096049
 20
0.432421561644333
 42
0.0
 10
2.206215831096049
 20
0.40186776261038
 42
0.0
 10
2.206215831096049
 20
0.3990901445163222
 42
0.0
 10
2.206215831096049
 20
0.3971180356697919
 42
0.0
 10
2.206215831096049
 20
0.3941013219383648
 42
0.0
 10
2.201629434357208
 20
0.3959268898694769
 42
1.048263601672966
 10
2.180190518556941
 20
0.3185392197908646
 42
0.0
 10
2.214548685378051
 20
0.3185392197908646
 42
0.0
 10
2.217326303472109
 20
0.3185392197908646
 42
0.0
 10
2.220103921565996
 20
0.3185392197908643
 42
0.0
 10
2.220103921565996
 20
0.3213168378847518
 42
0.0
 10
2.220103921565996
 20
0.3240944559788095
 42
0.0
 97
        0
 92
       22
 72
     1
 73
     1
 93
        3
 10
2.206215831096049
 20
0.3829908495624749
 42
0.0
 10
2.206215831096049
 20
0.3296496921667545
 42
0.0
 10
2.184394809861462
 20
0.3296496921667545
 42
-1.076204956628309
 97
        0
 75
     0
 76
     1
 47
0.0005102668735142
 98
        2
 10
2.160923651331266
 20
0.3732541591595107
 10
2.160923651331266
 20
0.3732541591595107
  0
LWPOLYLINE
  5
573
102
{ACAD_REACTORS
330
570
102
}
330
557
100
AcDbEntity
  8
CONTINUOUS1
  6
CONTINUOUS
 62
     9
100
AcDbPolyline
 90
       13
 70
     0
 43
0.0
 10
2.047689882598749
 20
0.6638644919422068
 10
2.026127593512317
 20
0.6638644919422068
 10
2.026127406012253
 20
0.5568018132491948
 42
0.4142172044487012
 10
2.047689882598749
 20
0.5352389860374847
 10
2.16525206565112
 20
0.5352391641624768
 42
0.4142123653311114
 10
2.186814542237787
 20
0.5568014569988696
 10
2.186814898487941
 20
0.6638644919422068
 10
2.16525206565112
 20
0.6638644919422068
 10
2.16525206565112
 20
0.5675830496674626
 42
-0.414213562417775
 10
2.154470827357872
 20
0.5568015451239608
 10
2.058471120891997
 20
0.5568015451239608
 42
-0.4142135623770039
 10
2.047689695098686
 20
0.5675830496674626
 10
2.047689882598749
 20
0.6638644919422068
  0
LWPOLYLINE
  5
574
102
{ACAD_REACTORS
330
571
102
}
330
557
100
AcDbEntity
  8
CONTINUOUS1
  6
CONTINUOUS
 62
     9
100
AcDbPolyline
 90
       12
 70
     0
 43
0.0
 10
1.859439984616788
 20
0.6638643138170442
 42
0.4142123398702456
 10
1.837877339280201
 20
0.6423017528555879
 10
1.837877170530109
 20
0.5568018132491948
 42
0.4142149121937861
 10
1.859439815866696
 20
0.5352389860374847
 10
1.986189823671427
 20
0.5352391641624768
 42
0.1840061449277652
 10
2.000535176793139
 20
0.5407032739821039
 10
2.007752112757859
 20
0.5352391641624768
 10
2.020768165011109
 20
0.5524296310179584
 10
2.007752300257923
 20
0.5622850574563363
 10
2.007752469008014
 20
0.6423016628555165
 42
0.4142135623731064
 10
1.986189823671427
 20
0.6638643138170442
 10
1.859439984616788
 20
0.6638643138170442
  0
LWPOLYLINE
  5
575
102
{ACAD_REACTORS
330
56F
102
}
330
557
100
AcDbEntity
  8
CONTINUOUS1
  6
CONTINUOUS
 62
     9
100
AcDbPolyline
 90
       79
 70
     0
 43
0.0
 10
1.847903096971979
 20
0.3185392197908646
 10
1.850680715066037
 20
0.3185392197908646
 10
1.853458333160094
 20
0.3185392197908646
 10
1.856235951253982
 20
0.3185392197908646
 10
1.859013569348039
 20
0.3185392197908646
 10
1.861791187441927
 20
0.3185392197908646
 10
1.861791187441927
 20
0.3213168378847518
 10
1.861791187441927
 20
0.3240944559788095
 10
1.861791187441927
 20
0.3713139635765974
 10
1.861791187441927
 20
0.3740915816706551
 10
1.861791187441927
 20
0.3764121066624857
 10
1.864568805535984
 20
0.3787302038875286
 10
1.867119835595051
 20
0.3809067470338623
 10
1.869482417015067
 20
0.3826818394989009
 10
1.872408099818333
 20
0.3848664295055646
 10
1.874636172254813
 20
0.3862728726654727
 10
1.876484787159231
 20
0.3871741628932459
 10
1.878456896005932
 20
0.3877239703094806
 10
1.881234514099819
 20
0.3879796721404323
 10
1.884012132193877
 20
0.3879796721404323
 10
1.886789750287764
 20
0.3875908056072608
 10
1.889524702656704
 20
0.3864723471903067
 10
1.891539477228523
 20
0.3848131875133736
 10
1.893464015671927
 20
0.3828455775268371
 10
1.895014348074116
 20
0.3807960064739295
 10
1.896524765708281
 20
0.3785266344276583
 10
1.897552862222401
 20
0.3760636905171855
 10
1.897900222663825
 20
0.3740915816706551
 10
1.897900222663825
 20
0.3713139635765974
 10
1.897900222663825
 20
0.3240944559788095
 10
1.897900222663825
 20
0.3213168378847518
 10
1.897900222663825
 20
0.3185392197908646
 10
1.900677840757712
 20
0.3185392197908646
 10
1.90345545885177
 20
0.3185392197908646
 10
1.906233076945657
 20
0.3185392197908646
 10
1.909010695039714
 20
0.3185392197908646
 10
1.911788313133772
 20
0.3185392197908646
 10
1.911788313133772
 20
0.3213168378847518
 10
1.911788313133772
 20
0.3240944559788095
 10
1.911788313133772
 20
0.3740915816706551
 10
1.911788313133772
 20
0.3768691997645424
 10
1.911510551324315
 20
0.3796468178584296
 10
1.910871699162701
 20
0.3824244359524873
 10
1.909927309010786
 20
0.3852020540465451
 10
1.908482947601815
 20
0.3877019103309753
 10
1.906233076945657
 20
0.3898406762634186
 10
1.903721294193903
 20
0.3920766850267801
 10
1.901013087638123
 20
0.3938452989406192
 10
1.898971795146881
 20
0.3953124560483166
 10
1.896369153755731
 20
0.3964598354054947
 10
1.893614616703903
 20
0.3975734953987744
 10
1.89130795538708
 20
0.3984640481231172
 10
1.889158525210152
 20
0.3990083828482516
 10
1.886761306382741
 20
0.3994741650645897
 10
1.884012132193877
 20
0.3994820966067327
 10
1.88122438981637
 20
0.3992749623910759
 10
1.878623553091504
 20
0.39861794944045
 10
1.876234801530788
 20
0.3974235736599217
 10
1.874082765034561
 20
0.3962323293606009
 10
1.871776024281334
 20
0.3947017891629803
 10
1.869347282437363
 20
0.3928857065760103
 10
1.8671797665443
 20
0.3912294853105327
 10
1.864533912437398
 20
0.3893715454285034
 10
1.861791187441927
 20
0.3873342800367259
 10
1.861791187441927
 20
0.3935349083285478
 10
1.861791187441927
 20
0.396312526422435
 10
1.861791187441927
 20
0.432421561644333
 10
1.861791187441927
 20
0.4351991797382202
 10
1.861791187441927
 20
0.4379767978321075
 10
1.859013569348039
 20
0.4379767978321075
 10
1.856235951253982
 20
0.4379767978321075
 10
1.853458333160094
 20
0.4379767978321075
 10
1.850680715066037
 20
0.4379767978321075
 10
1.847903096971979
 20
0.4379767978321075
 10
1.847903096971979
 20
0.4351991797382202
 10
1.847903096971979
 20
0.432421561644333
 10
1.847903096971979
 20
0.3240944559788095
 10
1.847903096971979
 20
0.3213168378847518
 10
1.847903096971979
 20
0.3185392197908646
  0
LWPOLYLINE
  5
576
102
{ACAD_REACTORS
330
56E
102
}
330
557
100
AcDbEntity
  8
CONTINUOUS1
  6
CONTINUOUS
 62
     9
100
AcDbPolyline
 90
       79
 70
     0
 43
0.0
 10
1.93678687597961
 20
0.3185392197908646
 10
1.939564494073497
 20
0.3185392197908646
 10
1.942342112167555
 20
0.3185392197908646
 10
1.945119730261442
 20
0.3185392197908646
 10
1.9478973483555
 20
0.3185392197908646
 10
1.950674966449557
 20
0.3185392197908646
 10
1.950674966449557
 20
0.3213168378847518
 10
1.950674966449557
 20
0.3240944559788095
 10
1.950674966449557
 20
0.3713139635765974
 10
1.950674966449557
 20
0.3740915816706551
 10
1.950674966449557
 20
0.3764121066624857
 10
1.953452584543445
 20
0.3787302038875286
 10
1.956003614602682
 20
0.3809067470338623
 10
1.958366196022527
 20
0.3826818394989009
 10
1.961291878825964
 20
0.3848664295055646
 10
1.963519951262444
 20
0.3862728726654727
 10
1.965368566166691
 20
0.3871741628932459
 10
1.967340675013392
 20
0.3877239703094806
 10
1.97011829310745
 20
0.3879796721404323
 10
1.972895911201337
 20
0.3879796721404323
 10
1.975673529295395
 20
0.3875908056072608
 10
1.978408481664164
 20
0.3864723471903067
 10
1.980423256236154
 20
0.3848131875133736
 10
1.982347794679387
 20
0.3828455775268371
 10
1.983898127081747
 20
0.3807960064739295
 10
1.985408544715742
 20
0.3785266344276583
 10
1.986436641229861
 20
0.3760636905171855
 10
1.986784001671285
 20
0.3740915816706551
 10
1.986784001671285
 20
0.3713139635765974
 10
1.986784001671285
 20
0.3240944559788095
 10
1.986784001671285
 20
0.3213168378847518
 10
1.986784001671285
 20
0.3185392197908646
 10
1.989561619765343
 20
0.3185392197908646
 10
1.99233923785923
 20
0.3185392197908646
 10
1.995116855953288
 20
0.3185392197908646
 10
1.997894474047175
 20
0.3185392197908646
 10
2.000672092141233
 20
0.3185392197908646
 10
2.000672092141233
 20
0.3213168378847518
 10
2.000672092141233
 20
0.3240944559788095
 10
2.000672092141233
 20
0.3740915816706551
 10
2.000672092141233
 20
0.3768691997645424
 10
2.000394330331776
 20
0.3796468178584296
 10
1.999755478170161
 20
0.3824244359524873
 10
1.998811088018246
 20
0.3852020540465451
 10
1.997366726609445
 20
0.3877019103309753
 10
1.995116855953288
 20
0.3898406762634186
 10
1.992605073201364
 20
0.3920766850267801
 10
1.989896866645583
 20
0.3938452989406192
 10
1.987855574154341
 20
0.3953124560483166
 10
1.985252932763362
 20
0.3964598354054947
 10
1.982498395711534
 20
0.3975734953987744
 10
1.980191734394711
 20
0.3984640481231172
 10
1.978042304217613
 20
0.3990083828482516
 10
1.975645085390201
 20
0.3994741650645897
 10
1.972895911201337
 20
0.3994820966067327
 10
1.970108168823831
 20
0.3992749623910759
 10
1.967507332098964
 20
0.39861794944045
 10
1.965118580538248
 20
0.3974235736599217
 10
1.962966544042192
 20
0.3962323293606009
 10
1.960659803288965
 20
0.3947017891629803
 10
1.958231061444994
 20
0.3928857065760103
 10
1.95606354555176
 20
0.3912294853105327
 10
1.953417691445029
 20
0.3893715454285034
 10
1.950674966449557
 20
0.3873342800367259
 10
1.950674966449557
 20
0.3935349083285478
 10
1.950674966449557
 20
0.396312526422435
 10
1.950674966449557
 20
0.39075729023449
 10
1.950674966449557
 20
0.3935349083285478
 10
1.950674966449557
 20
0.396312526422435
 10
1.9478973483555
 20
0.396312526422435
 10
1.945119730261442
 20
0.396312526422435
 10
1.942342112167555
 20
0.396312526422435
 10
1.939564494073497
 20
0.396312526422435
 10
1.93678687597961
 20
0.396312526422435
 10
1.93678687597961
 20
0.3935349083285478
 10
1.93678687597961
 20
0.39075729023449
 10
1.93678687597961
 20
0.3240944559788095
 10
1.93678687597961
 20
0.3213168378847518
 10
1.93678687597961
 20
0.3185392197908646
  0
LWPOLYLINE
  5
577
102
{ACAD_REACTORS
330
571
102
}
330
557
100
AcDbEntity
  8
CONTINUOUS1
  6
CONTINUOUS
 62
     9
100
AcDbPolyline
 90
       11
 70
     0
 43
0.0
 10
1.87022141041027
 20
0.6423016628555165
 42
0.4142111682669343
 10
1.859440340867113
 20
0.6315205164371496
 10
1.859440340867113
 20
0.5675830496674626
 42
0.4142135624923141
 10
1.87022141041027
 20
0.5568015451239608
 10
1.979274912904006
 20
0.5568015451239608
 10
1.936536734983437
 20
0.5891612556392834
 10
1.949552787236687
 20
0.6063515462445826
 10
1.986189823671427
 20
0.5786120318725812
 10
1.986189823671427
 20
0.6315204283122289
 42
0.414213562373068
 10
1.975408585378009
 20
0.6423016628555165
 10
1.87022141041027
 20
0.6423016628555165
  0
LWPOLYLINE
  5
578
330
557
100
AcDbEntity
  8
CONTINUOUS1
 62
     9
100
AcDbPolyline
 90
        3
 70
     1
 43
0.0
 10
2.206215831096049
 20
0.3296496921667545
 10
2.206215831096049
 20
0.3829908495624754
 42
1.076204956628191
 10
2.184394809861462
 20
0.3296496921667545
  0
LWPOLYLINE
  5
579
330
557
100
AcDbEntity
  8
CONTINUOUS1
  6
CONTINUOUS
 62
     9
100
AcDbPolyline
 90
       22
 70
     0
 43
0.0
 10
2.201629434357208
 20
0.3959268898694763
 42
1.048263601673104
 10
2.180190518556944
 20
0.3185392197908646
 10
2.214548685378051
 20
0.3185392197908646
 10
2.217326303472109
 20
0.3185392197908646
 10
2.220103921565996
 20
0.3185392197908646
 10
2.220103921565996
 20
0.3213168378847518
 10
2.220103921565996
 20
0.3240944559788095
 10
2.220103921565996
 20
0.432421561644333
 10
2.220103921565996
 20
0.4351991797382202
 10
2.220103921565996
 20
0.4379767978321075
 10
2.217326303472109
 20
0.4379767978321075
 10
2.214548685378051
 20
0.4379767978321075
 10
2.211771067283994
 20
0.4379767978321075
 10
2.208993449190106
 20
0.4379767978321075
 10
2.206215831096049
 20
0.4379767978321075
 10
2.206215831096049
 20
0.4351991797382202
 10
2.206215831096049
 20
0.432421561644333
 10
2.206215831096049
 20
0.40186776261038
 10
2.206215831096049
 20
0.3990901445163222
 10
2.206215831096049
 20
0.3971180356697919
 10
2.206215831096049
 20
0.3941013219383653
 10
2.200684753003745
 20
0.3963029105415221
  0
LWPOLYLINE
  5
57A
102
{ACAD_REACTORS
330
56B
102
}
330
557
100
AcDbEntity
  8
CONTINUOUS1
  6
CONTINUOUS
 62
     9
100
AcDbPolyline
 90
       21
 70
     0
 43
0.0
 10
2.114554433994531
 20
0.3185392197908646
 10
2.117332052088588
 20
0.3185392197908646
 10
2.120109670182646
 20
0.3185392197908646
 10
2.122887288276533
 20
0.3185392197908646
 10
2.125664906370591
 20
0.3185392197908646
 10
2.128442524464478
 20
0.3185392197908646
 10
2.128442524464478
 20
0.3213168378847518
 10
2.128442524464478
 20
0.3240944559788095
 10
2.128442524464478
 20
0.39075729023449
 10
2.128442524464478
 20
0.3935349083285478
 10
2.128443163460961
 20
0.396312526422435
 10
2.125664906370591
 20
0.396312526422435
 10
2.122887288276533
 20
0.396312526422435
 10
2.120109670182646
 20
0.396312526422435
 10
2.117332052088588
 20
0.396312526422435
 10
2.114554433994531
 20
0.396312526422435
 10
2.114554433994531
 20
0.3935349083285478
 10
2.114554433994531
 20
0.39075729023449
 10
2.114554433994531
 20
0.3240944559788095
 10
2.114554433994531
 20
0.3213168378847518
 10
2.114554433994531
 20
0.3185392197908646
  0
LWPOLYLINE
  5
57B
102
{ACAD_REACTORS
330
56D
102
}
330
557
100
AcDbEntity
  8
CONTINUOUS1
 62
     9
100
AcDbPolyline
 90
       18
 70
     1
 43
0.0
 10
2.038695210178193
 20
0.3739249696649272
 42
-0.0075148293555971
 10
2.039356013682695
 20
0.3758094905988973
 42
-0.004657993094582
 10
2.04012694049155
 20
0.3774326474991771
 42
-0.0194573042781228
 10
2.04122312161596
 20
0.3793376189554469
 42
-0.025588215895386
 10
2.042869643316212
 20
0.3815052047880845
 42
-0.0513535452749696
 10
2.045993086639416
 20
0.3844411686669678
 42
-0.0711488595792178
 10
2.05029649225165
 20
0.387030374336121
 42
-0.0589617480196389
 10
2.054368528547261
 20
0.388163142544784
 42
-0.055567443413236
 10
2.059090479130848
 20
0.3885472203085105
 42
-0.0505831829207604
 10
2.064047301410798
 20
0.3881580670007456
 42
-0.0805511158347094
 10
2.069747668259342
 20
0.386212311056966
 42
-0.0997279791482863
 10
2.074247886376642
 20
0.3821694970928324
 42
-0.05798586112659
 10
2.07633439185648
 20
0.3782279079159712
 42
-0.0542300556945522
 10
2.077638444514636
 20
0.3736673778522577
 42
-0.0393615860447316
 10
2.078265858667439
 20
0.3672377124287327
 10
2.037441464426283
 20
0.3672377124287327
 42
-0.0115879268951182
 10
2.037725560475539
 20
0.3695945556602855
 42
-0.0015814549261624
 10
2.038127018079851
 20
0.3718162665023788
 42
-0.0028557092809637
  0
LWPOLYLINE
  5
57C
102
{ACAD_REACTORS
330
56D
102
}
330
557
100
AcDbEntity
  8
CONTINUOUS1
 62
     9
100
AcDbPolyline
 90
       47
 70
     1
 43
0.0
 10
2.043762176988739
 20
0.3371934049870338
 42
-0.0441414060654578
 10
2.041222399913497
 20
0.3406137919386656
 42
-0.0277319653937625
 10
2.040074001493767
 20
0.342908764392917
 42
-0.0164279047561354
 10
2.03912434719442
 20
0.3453802682993233
 42
-0.0066863653619568
 10
2.038383944154166
 20
0.3480745345536893
 42
-0.0233064481414024
 10
2.037863384418049
 20
0.3511569156956971
 42
-0.0386937426355895
 10
2.037439214412732
 20
0.3572253591981966
 10
2.09083328806415
 20
0.3572253591981966
 10
2.09083328806415
 20
0.367418047889942
 42
0.1310126142130034
 10
2.086597191819212
 20
0.384827874269718
 42
0.1175696112009137
 10
2.077965163461872
 20
0.3945709905457311
 42
0.1103270754359441
 10
2.066615628186159
 20
0.3987237922934814
 42
0.0651926395407652
 10
2.059102557033643
 20
0.3992029596881825
 42
0.0935138111535395
 10
2.048012240298962
 20
0.3974214224988377
 42
0.0771718076448178
 10
2.040894364920664
 20
0.3939838910158646
 42
0.0650775313207389
 10
2.035397751656748
 20
0.3895585675142574
 42
0.0516650400356126
 10
2.030723836739614
 20
0.3836759482660459
 42
0.0469242136237456
 10
2.028122290424708
 20
0.3788161200391191
 42
0.051223632580995
 10
2.026595295387071
 20
0.3746909211984648
 42
0.037832980863087
 10
2.02519517139601
 20
0.3691379050324035
 42
0.0380040356892352
 10
2.024403782199872
 20
0.3632512380642088
 42
0.0396963751324013
 10
2.024403782199872
 20
0.3535837675287898
 42
0.0477329049617882
 10
2.025940180595942
 20
0.3438434486300826
 42
0.0632736306522388
 10
2.027823357022132
 20
0.3384198641380185
 42
0.0887240198666166
 10
2.03298350835573
 20
0.3301577047572555
 42
0.0593249496237894
 10
2.038147862544949
 20
0.3253225760990977
 42
0.0586814778487906
 10
2.04445082971765
 20
0.321706383342701
 42
0.039275593781097
 10
2.049756446549199
 20
0.3198508322162757
 42
0.0294048595279412
 10
2.054845807362514
 20
0.3187611372579231
 42
0.0245538255625254
 10
2.060277276366523
 20
0.3182910719351076
 42
0.0484050884053723
 10
2.069164787393422
 20
0.318538586832347
 42
0.0313804255658969
 10
2.076093852673157
 20
0.3199276859149341
 42
0.0210229524573495
 10
2.081421799827726
 20
0.3215361459892283
 42
0.0098439804496088
 10
2.089473324692026
 20
0.3247109995190845
 10
2.089473324692026
 20
0.3403736793267176
 42
-0.1158714317854296
 10
2.088714348426808
 20
0.3389070845880729
 42
-0.0273968376187686
 10
2.085939360030554
 20
0.3368770470617056
 42
-0.0245127629396402
 10
2.083474088120656
 20
0.3353916503899091
 42
-0.0174018213192927
 10
2.080637160672413
 20
0.3339310062675627
 42
-0.0303578783463293
 10
2.075349268004035
 20
0.3316766063780965
 42
-0.0163288525489418
 10
2.071577587289514
 20
0.3305939790356552
 42
-0.0174430116847887
 10
2.069355720146038
 20
0.33012803560564
 42
-0.0109219578339942
 10
2.067051578922619
 20
0.329799142463799
 42
-0.0520451680420305
 10
2.059067236066457
 20
0.329799142463799
 42
-0.0139513426612014
 10
2.057268456374604
 20
0.3300115523971959
 42
-0.0578723374760443
 10
2.051826841083116
 20
0.3315192009325761
 42
-0.0508775714496942
 10
2.047803880554656
 20
0.3335955965084172
 42
-0.061605978241212
  0
CIRCLE
  5
57D
102
{ACAD_REACTORS
330
56B
102
}
330
557
100
AcDbEntity
  8
CONTINUOUS1
 62
     9
100
AcDbCircle
 10
2.12149847922959
 20
0.4213110892682726
 30
0.0
 40
0.0083328542819542
  0
LWPOLYLINE
  5
57E
102
{ACAD_REACTORS
330
56C
102
}
330
557
100
AcDbEntity
  8
CONTINUOUS1
 62
     9
100
AcDbPolyline
 90
       18
 70
     1
 43
0.0
 10
2.258394368401841
 20
0.3739249696649272
 42
-0.0075148293555971
 10
2.259055171906343
 20
0.3758094905988973
 42
-0.004657993094582
 10
2.259826098715198
 20
0.3774326474991771
 42
-0.0194573042781228
 10
2.260922279839608
 20
0.3793376189554469
 42
-0.025588215895386
 10
2.26256880153986
 20
0.3815052047880845
 42
-0.0513535452749696
 10
2.265692244863064
 20
0.3844411686669678
 42
-0.0711488595792178
 10
2.269995650475298
 20
0.387030374336121
 42
-0.0589617480196389
 10
2.274067686770738
 20
0.388163142544784
 42
-0.055567443413236
 10
2.278789637354496
 20
0.3885472203085105
 42
-0.0505831829207604
 10
2.283746459634446
 20
0.3881580670007456
 42
-0.0805511158347094
 10
2.289446826482819
 20
0.386212311056966
 42
-0.0997279791482863
 10
2.29394704460012
 20
0.3821694970928324
 42
-0.05798586112659
 10
2.296033550079958
 20
0.3782279079159712
 42
-0.0542300556945522
 10
2.297337602738284
 20
0.3736673778522577
 42
-0.0393615860447316
 10
2.297965016891087
 20
0.3672377124287327
 10
2.257140622649931
 20
0.3672377124287327
 42
-0.0115879268951182
 10
2.257424718699017
 20
0.3695945556602855
 42
-0.0015814549261624
 10
2.257826176303499
 20
0.3718162665023788
 42
-0.0028557092809637
  0
LWPOLYLINE
  5
57F
102
{ACAD_REACTORS
330
56C
102
}
330
557
100
AcDbEntity
  8
CONTINUOUS1
 62
     9
100
AcDbPolyline
 90
       47
 70
     1
 43
0.0
 10
2.263461335212387
 20
0.3371934049870338
 42
-0.0441414060654578
 10
2.260921558137145
 20
0.3406137919386656
 42
-0.0277319653937625
 10
2.259773159717415
 20
0.342908764392917
 42
-0.0164279047561354
 10
2.258823505418067
 20
0.3453802682993233
 42
-0.0066863653619568
 10
2.258083102377813
 20
0.3480745345536893
 42
-0.0233064481414024
 10
2.257562542641696
 20
0.3511569156956971
 42
-0.0386937426355895
 10
2.257138372636379
 20
0.3572253591981966
 10
2.310532446287798
 20
0.3572253591981966
 10
2.310532446287798
 20
0.367418047889942
 42
0.1310126142130034
 10
2.30629635004286
 20
0.384827874269718
 42
0.1175696112009137
 10
2.29766432168552
 20
0.3945709905457311
 42
0.1103270754359441
 10
2.286314786409807
 20
0.3987237922934814
 42
0.0651926395407652
 10
2.278801715257291
 20
0.3992029596881825
 42
0.0935138111535395
 10
2.26771139852261
 20
0.3974214224988377
 42
0.0771718076448178
 10
2.260593523144311
 20
0.3939838910158646
 42
0.0650775313207389
 10
2.255096909880396
 20
0.3895585675142574
 42
0.0516650400356126
 10
2.250422994963262
 20
0.3836759482660459
 42
0.0469242136237456
 10
2.247821448648355
 20
0.3788161200391191
 42
0.051223632580995
 10
2.246294453610719
 20
0.3746909211984648
 42
0.037832980863087
 10
2.244894329619658
 20
0.3691379050324035
 42
0.0380040356892352
 10
2.24410294042352
 20
0.3632512380642088
 42
0.0396963751324013
 10
2.24410294042352
 20
0.3535837675287898
 42
0.0477329049617882
 10
2.245639338819589
 20
0.3438434486300826
 42
0.0632736306522388
 10
2.24752251524578
 20
0.3384198641380185
 42
0.0887240198666166
 10
2.252682666579378
 20
0.3301577047572555
 42
0.0593249496237894
 10
2.257847020768597
 20
0.3253225760990977
 42
0.0586814778487906
 10
2.264149987941298
 20
0.321706383342701
 42
0.039275593781097
 10
2.269455604772847
 20
0.3198508322162757
 42
0.0294048595279412
 10
2.274544965586162
 20
0.3187611372579231
 42
0.0245538255625254
 10
2.279976434590171
 20
0.3182910719351076
 42
0.0484050884053723
 10
2.288863945616899
 20
0.318538586832347
 42
0.0313804255658969
 10
2.295793010896804
 20
0.3199276859149341
 42
0.0210229524573495
 10
2.301120958051374
 20
0.3215361459892283
 42
0.0098439804496088
 10
2.309172482915673
 20
0.3247109995190845
 10
2.309172482915673
 20
0.3403736793267176
 42
-0.1158714317854296
 10
2.308413506650456
 20
0.3389070845880729
 42
-0.0273968376187686
 10
2.305638518254202
 20
0.3368770470617056
 42
-0.0245127629396402
 10
2.303173246344304
 20
0.3353916503899091
 42
-0.0174018213192927
 10
2.300336318896061
 20
0.3339310062675627
 42
-0.0303578783463293
 10
2.295048426227683
 20
0.3316766063780965
 42
-0.0163288525489418
 10
2.291276745513162
 20
0.3305939790356552
 42
-0.0174430116847887
 10
2.289054878369686
 20
0.33012803560564
 42
-0.0109219578339942
 10
2.286750737146267
 20
0.329799142463799
 42
-0.0520451680420305
 10
2.278766394290105
 20
0.329799142463799
 42
-0.0139513426612014
 10
2.276967614598081
 20
0.3300115523971959
 42
-0.0578723374760443
 10
2.271525999306593
 20
0.3315192009325761
 42
-0.0508775714496942
 10
2.267503038778134
 20
0.3335955965084172
 42
-0.061605978241212
  0
LWPOLYLINE
  5
580
102
{ACAD_REACTORS
330
569
102
}
330
557
100
AcDbEntity
  8
CONTINUOUS1
  6
CONTINUOUS
 62
     9
100
AcDbPolyline
 90
        4
 70
     0
 43
0.0
 10
2.278033314329977
 20
0.6359049480514618
 10
2.315470001287028
 20
0.5783643742108216
 10
2.240596983623252
 20
0.578364196085659
 10
2.278033126829914
 20
0.635904589926327
  0
HATCH
  5
581
330
557
100
AcDbEntity
  8
CONTINUOUS1
 62
     9
100
AcDbHatch
 10
0.0
 20
0.0
 30
0.0
210
0.0
220
0.0
230
1.0
  2
SOLID
 70
     1
 71
     1
 91
        1
 92
        1
 93
       79
 72
     1
 10
2.768100195328234
 20
0.3193447290382215
 11
2.770072304174934
 21
0.3185392197908646
 72
     1
 10
2.770072304174934
 20
0.3185392197908646
 11
2.776853223288274
 21
0.3177266059119579
 72
     1
 10
2.776853223288274
 20
0.3177266059119579
 11
2.783960394644882
 21
0.3185392197908646
 72
     1
 10
2.783960394644882
 20
0.3185392197908646
 11
2.78673801273894
 21
0.3190948244196652
 72
     1
 10
2.78673801273894
 20
0.3190948244196652
 11
2.788710121585641
 21
0.3197586133924238
 72
     1
 10
2.788710121585641
 20
0.3197586133924238
 11
2.790321140080184
 21
0.3205113286375654
 72
     1
 10
2.790321140080184
 20
0.3205113286375654
 11
2.792293248926885
 21
0.3213168378847518
 72
     1
 10
2.792293248926885
 20
0.3213168378847518
 11
2.795070867020772
 21
0.3223769226657969
 72
     1
 10
2.795070867020772
 20
0.3223769226657969
 11
2.79784848511483
 21
0.323705589445638
 72
     1
 10
2.79784848511483
 20
0.323705589445638
 11
2.79784848511483
 21
0.3240944559788095
 72
     1
 10
2.79784848511483
 20
0.3240944559788095
 11
2.79784848511483
 21
0.3268720740728673
 72
     1
 10
2.79784848511483
 20
0.3268720740728673
 11
2.79784848511483
 21
0.3296496921667545
 72
     1
 10
2.79784848511483
 20
0.3296496921667545
 11
2.79784848511483
 21
0.3324273102608122
 72
     1
 10
2.79784848511483
 20
0.3324273102608122
 11
2.79784848511483
 21
0.3348160618216985
 72
     1
 10
2.79784848511483
 20
0.3348160618216985
 11
2.795070867020772
 21
0.3340302206436268
 72
     1
 10
2.795070867020772
 20
0.3340302206436268
 11
2.792365821896428
 21
0.3330627471016219
 72
     1
 10
2.792365821896428
 20
0.3330627471016219
 11
2.789656082622375
 21
0.3319722328952826
 72
     1
 10
2.789656082622375
 20
0.3319722328952826
 11
2.787543521986126
 21
0.3310528956835701
 72
     1
 10
2.787543521986126
 20
0.3310528956835701
 11
2.785932503491583
 21
0.3304552014141114
 72
     1
 10
2.785932503491583
 20
0.3304552014141114
 11
2.783960394644882
 21
0.3296496921667545
 72
     1
 10
2.783960394644882
 20
0.3296496921667545
 11
2.781182776550995
 21
0.3294142968159695
 72
     1
 10
2.781182776550995
 20
0.3294142968159695
 11
2.778405158456937
 21
0.3296496921667545
 72
     1
 10
2.778405158456937
 20
0.3296496921667545
 11
2.776433049610236
 21
0.3304552014141114
 72
     1
 10
2.776433049610236
 20
0.3304552014141114
 11
2.774670597445183
 21
0.3314126783258194
 72
     1
 10
2.774670597445183
 20
0.3314126783258194
 11
2.772849922268992
 21
0.3324273102608122
 72
     1
 10
2.772849922268992
 20
0.3324273102608122
 11
2.771309634063275
 21
0.3337080859405437
 72
     1
 10
2.771309634063275
 20
0.3337080859405437
 11
2.770072304174934
 21
0.33520492835487
 72
     1
 10
2.770072304174934
 20
0.33520492835487
 11
2.769017502196309
 21
0.3370752134098898
 72
     1
 10
2.769017502196309
 20
0.3370752134098898
 11
2.768100195328234
 21
0.3387880556961141
 72
     1
 10
2.768100195328234
 20
0.3387880556961141
 11
2.767294686081047
 21
0.3407601645426444
 72
     1
 10
2.767294686081047
 20
0.3407601645426444
 11
2.767294686081047
 21
0.3435377826367021
 72
     1
 10
2.767294686081047
 20
0.3435377826367021
 11
2.767294686081047
 21
0.3796468178584296
 72
     1
 10
2.767294686081047
 20
0.3796468178584296
 11
2.767294686081047
 21
0.3824244359524873
 72
     1
 10
2.767294686081047
 20
0.3824244359524873
 11
2.767294686081047
 21
0.3852020540465451
 72
     1
 10
2.767294686081047
 20
0.3852020540465451
 11
2.770072304174934
 21
0.3852020540465451
 72
     1
 10
2.770072304174934
 20
0.3852020540465451
 11
2.772849922268992
 21
0.3852020540465451
 72
     1
 10
2.772849922268992
 20
0.3852020540465451
 11
2.78673801273894
 21
0.3852020540465451
 72
     1
 10
2.78673801273894
 20
0.3852020540465451
 11
2.789515630832827
 21
0.3852020540465451
 72
     1
 10
2.789515630832827
 20
0.3852020540465451
 11
2.792293248926885
 21
0.3852020540465451
 72
     1
 10
2.792293248926885
 20
0.3852020540465451
 11
2.792293248926885
 21
0.3879796721404323
 72
     1
 10
2.792293248926885
 20
0.3879796721404323
 11
2.792293248926885
 21
0.39075729023449
 72
     1
 10
2.792293248926885
 20
0.39075729023449
 11
2.792293248926885
 21
0.3935349083285478
 72
     1
 10
2.792293248926885
 20
0.3935349083285478
 11
2.792293248926885
 21
0.396312526422435
 72
     1
 10
2.792293248926885
 20
0.396312526422435
 11
2.789515630832827
 21
0.396312526422435
 72
     1
 10
2.789515630832827
 20
0.396312526422435
 11
2.78673801273894
 21
0.396312526422435
 72
     1
 10
2.78673801273894
 20
0.396312526422435
 11
2.772849922268992
 21
0.396312526422435
 72
     1
 10
2.772849922268992
 20
0.396312526422435
 11
2.770072304174934
 21
0.396312526422435
 72
     1
 10
2.770072304174934
 20
0.396312526422435
 11
2.767294686081047
 21
0.396312526422435
 72
     1
 10
2.767294686081047
 20
0.396312526422435
 11
2.767294686081047
 21
0.3990901445163222
 72
     1
 10
2.767294686081047
 20
0.3990901445163222
 11
2.767294686081047
 21
0.40186776261038
 72
     1
 10
2.767294686081047
 20
0.40186776261038
 11
2.767294686081047
 21
0.4046453807044377
 72
     1
 10
2.767294686081047
 20
0.4046453807044377
 11
2.767294686081047
 21
0.4074229987983249
 72
     1
 10
2.767294686081047
 20
0.4074229987983249
 11
2.767294686081047
 21
0.4101951770153965
 72
     1
 10
2.767294686081047
 20
0.4101951770153965
 11
2.765072591605903
 21
0.4082562842266957
 72
     1
 10
2.765072591605903
 20
0.4082562842266957
 11
2.762850497130589
 21
0.4063119515608383
 72
     1
 10
2.762850497130589
 20
0.4063119515608383
 11
2.749517930279555
 21
0.3946459555660344
 72
     1
 10
2.749517930279555
 20
0.3946459555660344
 11
2.747295835804241
 21
0.392701622900177
 72
     1
 10
2.747295835804241
 20
0.392701622900177
 11
2.745037428605176
 21
0.390774564389972
 72
     1
 10
2.745037428605176
 20
0.390774564389972
 11
2.742784501548531
 21
0.3888087685731994
 72
     1
 10
2.742784501548531
 20
0.3888087685731994
 11
2.740784200988546
 21
0.3870634024897304
 72
     1
 10
2.740784200988546
 20
0.3870634024897304
 11
2.73865097726642
 21
0.3852020540465451
 72
     1
 10
2.73865097726642
 20
0.3852020540465451
 11
2.74229612323521
 21
0.3852020540465451
 72
     1
 10
2.74229612323521
 20
0.3852020540465451
 11
2.745073741329097
 21
0.3852020540465451
 72
     1
 10
2.745073741329097
 20
0.3852020540465451
 11
2.747851359423155
 21
0.3852020540465451
 72
     1
 10
2.747851359423155
 20
0.3852020540465451
 11
2.750628977517042
 21
0.3852020540465451
 72
     1
 10
2.750628977517042
 20
0.3852020540465451
 11
2.7534065956111
 21
0.3852020540465451
 72
     1
 10
2.7534065956111
 20
0.3852020540465451
 11
2.7534065956111
 21
0.3824244359524873
 72
     1
 10
2.7534065956111
 20
0.3824244359524873
 11
2.7534065956111
 21
0.3796468178584296
 72
     1
 10
2.7534065956111
 20
0.3796468178584296
 11
2.7534065956111
 21
0.3379825464487572
 72
     1
 10
2.7534065956111
 20
0.3379825464487572
 11
2.7534065956111
 21
0.33520492835487
 72
     1
 10
2.7534065956111
 20
0.33520492835487
 11
2.753795462144271
 21
0.3324273102608122
 72
     1
 10
2.753795462144271
 20
0.3324273102608122
 11
2.754795404658043
 21
0.3296496921667545
 72
     1
 10
2.754795404658043
 20
0.3296496921667545
 11
2.756573080238158
 21
0.3272609406060388
 72
     1
 10
2.756573080238158
 20
0.3272609406060388
 11
2.758810686828073
 21
0.3252801639712293
 72
     1
 10
2.758810686828073
 20
0.3252801639712293
 11
2.760933940645745
 21
0.323705589445638
 72
     1
 10
2.760933940645745
 20
0.323705589445638
 11
2.762735804659516
 21
0.322316540818179
 72
     1
 10
2.762735804659516
 20
0.322316540818179
 11
2.764517067986989
 21
0.3213168378847518
 72
     1
 10
2.764517067986989
 20
0.3213168378847518
 11
2.766384493876135
 21
0.3202550358792001
 72
     1
 10
2.766384493876135
 20
0.3202550358792001
 11
2.768100195328234
 21
0.3193447290382215
 97
        1
330
590
 75
     0
 76
     1
 98
        1
 10
-6.623918024059631
 20
-0.1308261527660757
  0
HATCH
  5
582
330
557
100
AcDbEntity
  8
CONTINUOUS1
 62
     9
100
AcDbHatch
 10
0.0
 20
0.0
 30
0.0
210
0.0
220
0.0
230
1.0
  2
SOLID
 70
     1
 71
     1
 91
        1
 92
        1
 93
        4
 72
     1
 10
2.728340921353581
 20
0.3820863083685713
 11
2.728340921353581
 21
0.3931967807444612
 72
     2
 10
2.706296461134867
 20
0.3584765545696773
 40
0.041127269930821
 50
57.58784372121546
 51
302.4121562787845
 73
     1
 72
     1
 10
2.728340921353581
 20
0.3237563283948935
 11
2.728340921353581
 21
0.3348668007707834
 72
     2
 10
2.710219154518597
 20
0.3584765545696773
 40
0.0297627100188458
 50
52.49180531393238
 51
307.5081946860675
 73
     0
 97
        1
330
591
 75
     0
 76
     1
 98
        1
 10
-6.623918024059631
 20
-0.1308261527660757
  0
HATCH
  5
583
330
557
100
AcDbEntity
  8
CONTINUOUS1
 62
     9
100
AcDbHatch
 10
0.0
 20
0.0
 30
0.0
210
0.0
220
0.0
230
1.0
  2
SOLID
 70
     1
 71
     1
 91
        2
 92
       16
 93
       18
 72
     2
 10
2.660106775440887
 20
0.3528851545616271
 40
0.0664396543383199
 50
198.4619958207183
 51
200.1842354247361
 73
     0
 72
     2
 10
2.685247637907941
 20
0.3352454129199108
 40
0.096445586517071
 50
204.8718608834226
 51
205.9393865440841
 73
     0
 72
     2
 10
2.623533366964867
 20
0.3643060230231959
 40
0.0282500412151287
 50
207.6881291807204
 51
212.1468522298009
 73
     0
 72
     2
 10
2.621601394969284
 20
0.3643452262975984
 40
0.0266120055644413
 50
214.289143935524
 51
220.152251626646
 73
     0
 72
     2
 10
2.617077869529618
 20
0.3678076991082785
 40
0.0209235948276609
 50
220.892661179859
 51
232.6516971443595
 73
     0
 72
     2
 10
2.615587881266414
 20
0.3706911836161677
 40
0.0177364140530899
 50
230.8268348175522
 51
247.1055208447452
 73
     0
 72
     2
 10
2.61551009202811
 20
0.370391197006481
 40
0.0179834923776296
 50
247.7056716281972
 51
261.203082165149
 73
     0
 72
     2
 10
2.616843448344337
 20
0.36717654635147
 40
0.0213802051303731
 50
258.9888491839005
 51
271.7108857747937
 73
     0
 72
     2
 10
2.618041777868569
 20
0.3639169558453035
 40
0.0246366297664502
 50
268.6975355392314
 51
280.2804749251206
 73
     0
 72
     2
 10
2.619289082162454
 20
0.369608213028888
 40
0.0188153276110619
 50
279.6361688894454
 51
298.0573516433577
 73
     0
 72
     2
 10
2.620355269469509
 20
0.3730218708912918
 40
0.0153157982727261
 50
300.5449189786844
 51
323.3255645340623
 73
     0
 72
     2
 10
2.61674582695598
 20
0.3712331984285728
 40
0.0192925244149349
 50
325.4679485472512
 51
338.7424644189146
 73
     0
 72
     2
 10
2.614415550741325
 20
0.3699536532293334
 40
0.0219309169397976
 50
337.8342522704153
 51
350.2507032151334
 73
     0
 72
     2
 10
2.595569537316608
 20
0.3664737796651569
 40
0.0410947224300675
 50
349.9184788839777
 51
358.9348353768806
 73
     0
 72
     1
 10
2.636657158546572
 20
0.3672377124287327
 11
2.595832764305416
 21
0.3672377124287327
 72
     2
 10
2.64681494050507
 20
0.3622878182718704
 40
0.051221906858459
 50
185.5455046984018
 51
188.2011430538267
 73
     0
 72
     2
 10
2.947529825566531
 20
0.3072422364761533
 40
0.3569017845664977
 50
190.0614576287786
 51
190.4239000976597
 73
     0
 72
     2
 10
2.781405060710635
 20
0.3231292571124805
 40
0.1911897814441117
 50
194.7530117273464
 51
195.4074903055051
 73
     0
 97
        1
330
58A
 92
        1
 93
       47
 72
     2
 10
2.62021760346478
 20
0.3532598947256552
 40
0.0241752923918273
 50
138.3496533346511
 51
148.4595555609686
 73
     0
 72
     2
 10
2.619712462684475
 20
0.3521059761880958
 40
0.0231523339774945
 50
150.2396979683238
 51
156.5937677099167
 73
     0
 72
     2
 10
2.635591692141174
 20
0.3585924636724106
 40
0.040303192361997
 50
157.0988242481769
 51
160.8634840437796
 73
     0
 72
     2
 10
2.697878267298236
 20
0.3744094790060188
 40
0.1044765553251907
 50
163.8678439431619
 51
165.4002231692524
 73
     0
 72
     2
 10
2.629560613196424
 20
0.3551965516179019
 40
0.033550015770866
 50
167.7439659185812
 51
173.0844435487628
 73
     0
 72
     2
 10
2.635192067538312
 20
0.356927593697432
 40
0.0393626795107542
 50
171.5698966947791
 51
180.4334275361526
 73
     0
 72
     1
 10
2.595830514291865
 20
0.3572253591981966
 11
2.649224587943283
 21
0.3572253591981966
 72
     1
 10
2.649224587943283
 20
0.3572253591981966
 11
2.649224587943283
 21
0.367418047889942
 72
     2
 10
2.614455106004424
 20
0.36817833181333
 40
0.0347777932873957
 50
358.7473463266968
 51
388.6031824377397
 73
     1
 72
     2
 10
2.620241090430116
 20
0.3715980049238856
 40
0.0280617767156418
 50
28.12879544758857
 51
54.95063515022645
 73
     1
 72
     2
 10
2.621386031958198
 20
0.3712425033481648
 40
0.0277188046407911
 50
57.31076922041544
 51
82.4940245374038
 73
     1
 72
     2
 10
2.619420696306377
 20
0.3702747845720343
 40
0.0289922752746188
 50
78.89077226525315
 51
93.81071159195634
 73
     1
 72
     2
 10
2.61666981386139
 20
0.3689225917587153
 40
0.0302915785144063
 50
88.44115042377268
 51
109.8107905333598
 73
     1
 72
     2
 10
2.613914251529578
 20
0.3727814463646621
 40
0.0257592548203171
 50
106.9521716693699
 51
124.603661569856
 73
     1
 72
     2
 10
2.613465558234084
 20
0.370745022031955
 40
0.027223416564771
 50
121.3907074886569
 51
136.2843774046689
 73
     1
 72
     2
 10
2.619841295496989
 20
0.3640611980123525
 40
0.0364531928221072
 50
135.6167017519909
 51
147.4469381469264
 73
     1
 72
     2
 10
2.61364925277008
 20
0.367416191215975
 40
0.0294330181030494
 50
146.4659438100723
 51
157.2122986253005
 73
     1
 72
     2
 10
2.605830545336452
 20
0.3693204846406612
 40
0.0215246798664316
 50
153.8226534473667
 51
165.5519937306932
 73
     1
 72
     2
 10
2.620928292763789
 20
0.3626756489903522
 40
0.0378968651110208
 50
161.515271747222
 51
170.1818189345484
 73
     1
 72
     2
 10
2.62185880698542
 20
0.3609961355594354
 40
0.0391287629611654
 50
167.9903558377853
 51
176.6960496179407
 73
     1
 72
     2
 10
2.64358297821499
 20
0.3584175027964993
 40
0.0609797779044622
 50
175.4535176021835
 51
184.5464823978164
 73
     1
 72
     2
 10
2.634461745709456
 20
0.3567421254133762
 40
0.0517631080522538
 50
183.4981100536811
 51
194.429389032572
 73
     1
 72
     2
 10
2.606616363011642
 20
0.3485424727520852
 40
0.0227749164074815
 50
191.9070472796621
 51
206.3889894285758
 73
     1
 72
     2
 10
2.611891972958808
 20
0.3487142209845105
 40
0.0276640261495296
 50
201.8464660881787
 51
222.1274079961559
 73
     1
 72
     2
 10
2.614260886541606
 20
0.3494265410796771
 40
0.0299175639630403
 50
220.0955596825676
 51
233.6759197426415
 73
     1
 72
     2
 10
2.615043617984982
 20
0.3502744687142416
 40
0.0310646393940598
 50
233.4391728830817
 51
246.8725717081748
 73
     1
 72
     2
 10
2.617287813857059
 20
0.3544982286952896
 40
0.035832707340859
 50
246.2252262725147
 51
255.2219052108666
 73
     1
 72
     2
 10
2.619948998501218
 20
0.3625382973605903
 40
0.0442887031977101
 50
254.5461626614621
 51
261.28331875032
 73
     1
 72
     2
 10
2.620736026381953
 20
0.3737944212376278
 40
0.0555418412898209
 50
262.2405778669421
 51
267.866769692275
 73
     1
 72
     2
 10
2.621836975360784
 20
0.3642090186578022
 40
0.0460271287848912
 50
266.0527719165295
 51
277.1377488483287
 73
     1
 72
     2
 10
2.619964912664253
 20
0.3743809067507015
 40
0.0563559280448384
 50
277.7413046158855
 51
284.930809102693
 73
     1
 72
     2
 10
2.618030151341718
 20
0.3840626065593292
 40
0.0662121975991039
 50
284.3899023200388
 51
289.2072984924262
 73
     1
 72
     2
 10
2.563217362272785
 20
0.5275821421545017
 40
0.2198223362827568
 50
290.3921624947603
 51
292.6481637583187
 73
     1
 72
     1
 10
2.647864624571159
 20
0.3247109995190845
 11
2.647864624571159
 21
0.3403736793267176
 72
     2
 10
2.644363348913712
 20
0.3412559357119335
 40
0.0036107211964766
 50
14.14304208538034
 51
40.5809188106621
 73
     0
 72
     2
 10
2.627207680057823
 20
0.3631952191068923
 40
0.0313981308170948
 50
50.67407287050084
 51
56.95139529671177
 73
     0
 72
     2
 10
2.627957909630271
 20
0.3612619791193873
 40
0.0293716166250663
 50
56.12144370235181
 51
61.7382303285629
 73
     0
 72
     2
 10
2.619469209093496
 20
0.3754051721516405
 40
0.0458548879987645
 50
60.76359459619522
 51
64.75139576529091
 73
     0
 72
     2
 10
2.617836427563542
 20
0.3763099703744814
 40
0.047382263147091
 50
63.43218982647736
 51
70.38756687457111
 73
     0
 72
     2
 10
2.615283773187174
 20
0.3888655443368394
 40
0.0600934929530564
 50
72.11336347133055
 51
75.85532826122167
 73
     0
 72
     2
 10
2.622181903739372
 20
0.3621959788453819
 40
0.0325472503124577
 50
76.15762347795572
 51
80.1548619188531
 73
     0
 72
     2
 10
2.61906759228913
 20
0.3826983276081179
 40
0.0532819675598692
 50
80.6249603204364
 51
83.12798914716191
 73
     0
 72
     2
 10
2.621450707373671
 20
0.368048205585744
 40
0.0384568363547721
 50
84.04143915734456
 51
95.95856084265543
 73
     0
 72
     2
 10
2.62036466853374
 20
0.3621321664056745
 40
0.0324633646414816
 50
95.13601524590475
 51
98.33322003417473
 73
     0
 72
     2
 10
2.619429956113451
 20
0.35419362593474
 40
0.0244742127055942
 50
98.86157888952332
 51
112.110164074703
 73
     0
 72
     2
 10
2.61838315256972
 20
0.3522740777562495
 40
0.022303190949189
 50
111.4747791436719
 51
123.1250142198119
 73
     0
 72
     2
 10
2.618718995543536
 20
0.3517336784423094
 40
0.0220416868943367
 50
124.6239441549396
 51
138.7251729097469
 73
     0
 97
        1
330
58B
 75
     0
 76
     1
 98
        1
 10
-6.623918024059631
 20
-0.1308261527660757
  0
HATCH
  5
584
330
557
100
AcDbEntity
  8
CONTINUOUS1
 62
     9
100
AcDbHatch
 10
0.0
 20
0.0
 30
0.0
210
0.0
220
0.0
230
1.0
  2
SOLID
 70
     1
 71
     1
 91
        1
 92
        1
 93
       20
 72
     1
 10
2.545085238562226
 20
0.3185392197908646
 11
2.547862856656283
 21
0.3185392197908646
 72
     1
 10
2.547862856656283
 20
0.3185392197908646
 11
2.550640474750171
 21
0.3185392197908646
 72
     1
 10
2.550640474750171
 20
0.3185392197908646
 11
2.553418092844228
 21
0.3185392197908646
 72
     1
 10
2.553418092844228
 20
0.3185392197908646
 11
2.556195710938116
 21
0.3185392197908646
 72
     1
 10
2.556195710938116
 20
0.3185392197908646
 11
2.558973329032173
 21
0.3185392197908646
 72
     1
 10
2.558973329032173
 20
0.3185392197908646
 11
2.558973329032173
 21
0.3213168378847518
 72
     1
 10
2.558973329032173
 20
0.3213168378847518
 11
2.558973329032173
 21
0.3240944559788095
 72
     1
 10
2.558973329032173
 20
0.3240944559788095
 11
2.558973329032173
 21
0.432421561644333
 72
     1
 10
2.558973329032173
 20
0.432421561644333
 11
2.558973329032173
 21
0.4351991797382202
 72
     1
 10
2.558973329032173
 20
0.4351991797382202
 11
2.558973329032173
 21
0.4379767978321075
 72
     1
 10
2.558973329032173
 20
0.4379767978321075
 11
2.556195710938116
 21
0.4379767978321075
 72
     1
 10
2.556195710938116
 20
0.4379767978321075
 11
2.553418092844228
 21
0.4379767978321075
 72
     1
 10
2.553418092844228
 20
0.4379767978321075
 11
2.550640474750171
 21
0.4379767978321075
 72
     1
 10
2.550640474750171
 20
0.4379767978321075
 11
2.547862856656283
 21
0.4379767978321075
 72
     1
 10
2.547862856656283
 20
0.4379767978321075
 11
2.545085238562226
 21
0.4379767978321075
 72
     1
 10
2.545085238562226
 20
0.4379767978321075
 11
2.545085238562226
 21
0.4351991797382202
 72
     1
 10
2.545085238562226
 20
0.4351991797382202
 11
2.545085238562226
 21
0.432421561644333
 72
     1
 10
2.545085238562226
 20
0.432421561644333
 11
2.545085238562226
 21
0.3240944559788095
 72
     1
 10
2.545085238562226
 20
0.3240944559788095
 11
2.545085238562226
 21
0.3213168378847518
 72
     1
 10
2.545085238562226
 20
0.3213168378847518
 11
2.545085238562226
 21
0.3185392197908646
 97
        1
330
58E
 75
     0
 76
     1
 98
        1
 10
-6.623918024059631
 20
-0.1308261527660757
  0
HATCH
  5
585
330
557
100
AcDbEntity
  8
CONTINUOUS1
 62
     9
100
AcDbHatch
 10
0.0
 20
0.0
 30
0.0
210
0.0
220
0.0
230
1.0
  2
SOLID
 70
     1
 71
     1
 91
        1
 92
        1
 93
       60
 72
     1
 10
2.456201459554765
 20
0.3185392197908646
 11
2.458979077648653
 21
0.3185392197908646
 72
     1
 10
2.458979077648653
 20
0.3185392197908646
 11
2.46175669574271
 21
0.3185392197908646
 72
     1
 10
2.46175669574271
 20
0.3185392197908646
 11
2.520086675716388
 21
0.3185392197908646
 72
     1
 10
2.520086675716388
 20
0.3185392197908646
 11
2.522864293810275
 21
0.3185392197908646
 72
     1
 10
2.522864293810275
 20
0.3185392197908646
 11
2.525641911904333
 21
0.3185392197908646
 72
     1
 10
2.525641911904333
 20
0.3185392197908646
 11
2.525641911904333
 21
0.3213168378847518
 72
     1
 10
2.525641911904333
 20
0.3213168378847518
 11
2.525641911904333
 21
0.3240944559788095
 72
     1
 10
2.525641911904333
 20
0.3240944559788095
 11
2.525641911904333
 21
0.3268720740728673
 72
     1
 10
2.525641911904333
 20
0.3268720740728673
 11
2.525641911904333
 21
0.3296496921667545
 72
     1
 10
2.525641911904333
 20
0.3296496921667545
 11
2.525641911904333
 21
0.3324273102608122
 72
     1
 10
2.525641911904333
 20
0.3324273102608122
 11
2.522864293810275
 21
0.3324273102608122
 72
     1
 10
2.522864293810275
 20
0.3324273102608122
 11
2.520086675716388
 21
0.3324273102608122
 72
     1
 10
2.520086675716388
 20
0.3324273102608122
 11
2.478422404306545
 21
0.3324273102608122
 72
     1
 10
2.478422404306545
 20
0.3324273102608122
 11
2.475644786212658
 21
0.3324273102608122
 72
     1
 10
2.475644786212658
 20
0.3324273102608122
 11
2.4728671681186
 21
0.3324273102608122
 72
     1
 10
2.4728671681186
 20
0.3324273102608122
 11
2.4728671681186
 21
0.33520492835487
 72
     1
 10
2.4728671681186
 20
0.33520492835487
 11
2.4728671681186
 21
0.3379825464487572
 72
     1
 10
2.4728671681186
 20
0.3379825464487572
 11
2.4728671681186
 21
0.3657587273886524
 72
     1
 10
2.4728671681186
 20
0.3657587273886524
 11
2.4728671681186
 21
0.3685363454825397
 72
     1
 10
2.4728671681186
 20
0.3685363454825397
 11
2.4728671681186
 21
0.3713139635765974
 72
     1
 10
2.4728671681186
 20
0.3713139635765974
 11
2.475644786212658
 21
0.3713139635765974
 72
     1
 10
2.475644786212658
 20
0.3713139635765974
 11
2.478422404306545
 21
0.3713139635765974
 72
     1
 10
2.478422404306545
 20
0.3713139635765974
 11
2.51730905762233
 21
0.3713139635765974
 72
     1
 10
2.51730905762233
 20
0.3713139635765974
 11
2.520086675716388
 21
0.3713139635765974
 72
     1
 10
2.520086675716388
 20
0.3713139635765974
 11
2.522864293810275
 21
0.3713139635765974
 72
     1
 10
2.522864293810275
 20
0.3713139635765974
 11
2.522864293810275
 21
0.3740915816706551
 72
     1
 10
2.522864293810275
 20
0.3740915816706551
 11
2.522864293810275
 21
0.3768691997645424
 72
     1
 10
2.522864293810275
 20
0.3768691997645424
 11
2.522864293810275
 21
0.3796468178584296
 72
     1
 10
2.522864293810275
 20
0.3796468178584296
 11
2.522864293810275
 21
0.3824244359524873
 72
     1
 10
2.522864293810275
 20
0.3824244359524873
 11
2.522864293810275
 21
0.3852020540465451
 72
     1
 10
2.522864293810275
 20
0.3852020540465451
 11
2.520086675716388
 21
0.3852020540465451
 72
     1
 10
2.520086675716388
 20
0.3852020540465451
 11
2.51730905762233
 21
0.3852020540465451
 72
     1
 10
2.51730905762233
 20
0.3852020540465451
 11
2.478422404306545
 21
0.3852020540465451
 72
     1
 10
2.478422404306545
 20
0.3852020540465451
 11
2.475644786212658
 21
0.3852020540465451
 72
     1
 10
2.475644786212658
 20
0.3852020540465451
 11
2.4728671681186
 21
0.3852020540465451
 72
     1
 10
2.4728671681186
 20
0.3852020540465451
 11
2.4728671681186
 21
0.3879796721404323
 72
     1
 10
2.4728671681186
 20
0.3879796721404323
 11
2.4728671681186
 21
0.39075729023449
 72
     1
 10
2.4728671681186
 20
0.39075729023449
 11
2.4728671681186
 21
0.4185334711742148
 72
     1
 10
2.4728671681186
 20
0.4185334711742148
 11
2.4728671681186
 21
0.4213110892682726
 72
     1
 10
2.4728671681186
 20
0.4213110892682726
 11
2.4728671681186
 21
0.4240887073623303
 72
     1
 10
2.4728671681186
 20
0.4240887073623303
 11
2.475644786212658
 21
0.4240887073623303
 72
     1
 10
2.475644786212658
 20
0.4240887073623303
 11
2.478422404306545
 21
0.4240887073623303
 72
     1
 10
2.478422404306545
 20
0.4240887073623303
 11
2.51730905762233
 21
0.4240887073623303
 72
     1
 10
2.51730905762233
 20
0.4240887073623303
 11
2.520086675716388
 21
0.4240887073623303
 72
     1
 10
2.520086675716388
 20
0.4240887073623303
 11
2.522864293810275
 21
0.4240887073623303
 72
     1
 10
2.522864293810275
 20
0.4240887073623303
 11
2.522864293810275
 21
0.4268663254562175
 72
     1
 10
2.522864293810275
 20
0.4268663254562175
 11
2.522864293810275
 21
0.4296439435502753
 72
     1
 10
2.522864293810275
 20
0.4296439435502753
 11
2.522864293810275
 21
0.432421561644333
 72
     1
 10
2.522864293810275
 20
0.432421561644333
 11
2.522864293810275
 21
0.4351991797382202
 72
     1
 10
2.522864293810275
 20
0.4351991797382202
 11
2.522864293810275
 21
0.4379767978321075
 72
     1
 10
2.522864293810275
 20
0.4379767978321075
 11
2.520086675716388
 21
0.4379767978321075
 72
     1
 10
2.520086675716388
 20
0.4379767978321075
 11
2.51730905762233
 21
0.4379767978321075
 72
     1
 10
2.51730905762233
 20
0.4379767978321075
 11
2.46175669574271
 21
0.4379767978321075
 72
     1
 10
2.46175669574271
 20
0.4379767978321075
 11
2.458979077648653
 21
0.4379767978321075
 72
     1
 10
2.458979077648653
 20
0.4379767978321075
 11
2.456201459554765
 21
0.4379767978321075
 72
     1
 10
2.456201459554765
 20
0.4379767978321075
 11
2.456201459554765
 21
0.4351991797382202
 72
     1
 10
2.456201459554765
 20
0.4351991797382202
 11
2.456201459554765
 21
0.432421561644333
 72
     1
 10
2.456201459554765
 20
0.432421561644333
 11
2.456201459554765
 21
0.3240944559788095
 72
     1
 10
2.456201459554765
 20
0.3240944559788095
 11
2.456201459554765
 21
0.3213168378847518
 72
     1
 10
2.456201459554765
 20
0.3213168378847518
 11
2.456201459554765
 21
0.3185392197908646
 97
        1
330
58C
 75
     0
 76
     1
 98
        1
 10
-6.623918024059631
 20
-0.1308261527660757
  0
HATCH
  5
586
330
557
100
AcDbEntity
  8
CONTINUOUS1
 62
     9
100
AcDbHatch
 10
0.0
 20
0.0
 30
0.0
210
0.0
220
0.0
230
1.0
  2
SOLID
 70
     1
 71
     1
 91
        1
 92
        1
 93
       63
 72
     1
 10
2.333986263419465
 20
0.3185392197908646
 11
2.336763881513352
 21
0.3185392197908646
 72
     1
 10
2.336763881513352
 20
0.3185392197908646
 11
2.33954149960741
 21
0.3185392197908646
 72
     1
 10
2.33954149960741
 20
0.3185392197908646
 11
2.342319117701297
 21
0.3185392197908646
 72
     1
 10
2.342319117701297
 20
0.3185392197908646
 11
2.345096735795355
 21
0.3185392197908646
 72
     1
 10
2.345096735795355
 20
0.3185392197908646
 11
2.347874353889242
 21
0.3185392197908646
 72
     1
 10
2.347874353889242
 20
0.3185392197908646
 11
2.347874353889242
 21
0.3213168378847518
 72
     1
 10
2.347874353889242
 20
0.3213168378847518
 11
2.347874353889242
 21
0.3240944559788095
 72
     1
 10
2.347874353889242
 20
0.3240944559788095
 11
2.347874353889242
 21
0.3629811092945947
 72
     1
 10
2.347874353889242
 20
0.3629811092945947
 11
2.347874353889242
 21
0.3657587273886524
 72
     1
 10
2.347874353889242
 20
0.3657587273886524
 11
2.347874353889242
 21
0.3685363454825397
 72
     1
 10
2.347874353889242
 20
0.3685363454825397
 11
2.348586194660104
 21
0.3713139635765974
 72
     1
 10
2.348586194660104
 20
0.3713139635765974
 11
2.349735358012228
 21
0.3740915816706551
 72
     1
 10
2.349735358012228
 20
0.3740915816706551
 11
2.3511797194212
 21
0.3764803332313709
 72
     1
 10
2.3511797194212
 20
0.3764803332313709
 11
2.353429590077357
 21
0.378258008811486
 72
     1
 10
2.353429590077357
 20
0.378258008811486
 11
2.356207208171245
 21
0.3803481447481549
 72
     1
 10
2.356207208171245
 20
0.3803481447481549
 11
2.358708187386159
 21
0.3821533245041455
 72
     1
 10
2.358708187386159
 20
0.3821533245041455
 11
2.360746259593074
 21
0.3835311386972085
 72
     1
 10
2.360746259593074
 20
0.3835311386972085
 11
2.362567953606546
 21
0.3843965447991882
 72
     1
 10
2.362567953606546
 20
0.3843965447991882
 11
2.364540062453247
 21
0.3852020540465451
 72
     1
 10
2.364540062453247
 20
0.3852020540465451
 11
2.367317680547134
 21
0.3860225445559995
 72
     1
 10
2.367317680547134
 20
0.3860225445559995
 11
2.371041809419384
 21
0.3859647625154712
 72
     1
 10
2.371041809419384
 20
0.3859647625154712
 11
2.373644053628343
 21
0.3851557727118125
 72
     1
 10
2.373644053628343
 20
0.3851557727118125
 11
2.375650534829137
 21
0.3838132449996015
 72
     1
 10
2.375650534829137
 20
0.3838132449996015
 11
2.377749804062805
 21
0.3819776024104162
 72
     1
 10
2.377749804062805
 20
0.3819776024104162
 11
2.379816961970139
 21
0.3796468178584296
 72
     1
 10
2.379816961970139
 20
0.3796468178584296
 11
2.381205771017082
 21
0.3784524420782422
 72
     1
 10
2.381205771017082
 20
0.3784524420782422
 11
2.382248692300752
 21
0.380049012932091
 72
     1
 10
2.382248692300752
 20
0.380049012932091
 11
2.383757731757302
 21
0.3823591474088066
 72
     1
 10
2.383757731757302
 20
0.3823591474088066
 11
2.385542235943237
 21
0.3850909809773389
 72
     1
 10
2.385542235943237
 20
0.3850909809773389
 11
2.386582283838979
 21
0.3866831530647805
 72
     1
 10
2.386582283838979
 20
0.3866831530647805
 11
2.387955382985555
 21
0.3887851813877892
 72
     1
 10
2.387955382985555
 20
0.3887851813877892
 11
2.386761007205027
 21
0.39075729023449
 72
     1
 10
2.386761007205027
 20
0.39075729023449
 11
2.384708963404055
 21
0.3932298076646252
 72
     1
 10
2.384708963404055
 20
0.3932298076646252
 11
2.38166327412026
 21
0.3956385659741959
 72
     1
 10
2.38166327412026
 20
0.3956385659741959
 11
2.379947253551311
 21
0.3970016751998178
 72
     1
 10
2.379947253551311
 20
0.3970016751998178
 11
2.377622643675838
 21
0.3982846352691358
 72
     1
 10
2.377622643675838
 20
0.3982846352691358
 11
2.375650534829137
 21
0.3990901445163222
 72
     1
 10
2.375650534829137
 20
0.3990901445163222
 11
2.37287291673525
 21
0.3990901445163222
 72
     1
 10
2.37287291673525
 20
0.3990901445163222
 11
2.370095298641192
 21
0.3990901445163222
 72
     1
 10
2.370095298641192
 20
0.3990901445163222
 11
2.367317680547134
 21
0.3987012779831507
 72
     1
 10
2.367317680547134
 20
0.3987012779831507
 11
2.364540062453247
 21
0.3977013354693786
 72
     1
 10
2.364540062453247
 20
0.3977013354693786
 11
2.361956877625775
 21
0.3961180931558492
 72
     1
 10
2.361956877625775
 20
0.3961180931558492
 11
2.359679230788774
 21
0.394229312851849
 72
     1
 10
2.359679230788774
 20
0.394229312851849
 11
2.357596017218188
 21
0.3921460992814336
 72
     1
 10
2.357596017218188
 20
0.3921460992814336
 11
2.355512803647773
 21
0.3900628857110182
 72
     1
 10
2.355512803647773
 20
0.3900628857110182
 11
2.35378697604543
 21
0.3878950002004449
 72
     1
 10
2.35378697604543
 20
0.3878950002004449
 11
2.3521136744877
 21
0.3860075632937314
 72
     1
 10
2.3521136744877
 20
0.3860075632937314
 11
2.347874353889242
 21
0.3814779152569376
 72
     1
 10
2.347874353889242
 20
0.3814779152569376
 11
2.347874353889242
 21
0.3860075632937314
 72
     1
 10
2.347874353889242
 20
0.3860075632937314
 11
2.347874353889242
 21
0.3879796721404323
 72
     1
 10
2.347874353889242
 20
0.3879796721404323
 11
2.347874353889242
 21
0.39075729023449
 72
     1
 10
2.347874353889242
 20
0.39075729023449
 11
2.347874353889242
 21
0.3935349083285478
 72
     1
 10
2.347874353889242
 20
0.3935349083285478
 11
2.347874353889242
 21
0.396312526422435
 72
     1
 10
2.347874353889242
 20
0.396312526422435
 11
2.345096735795355
 21
0.396312526422435
 72
     1
 10
2.345096735795355
 20
0.396312526422435
 11
2.342319117701297
 21
0.396312526422435
 72
     1
 10
2.342319117701297
 20
0.396312526422435
 11
2.33954149960741
 21
0.396312526422435
 72
     1
 10
2.33954149960741
 20
0.396312526422435
 11
2.336763881513352
 21
0.396312526422435
 72
     1
 10
2.336763881513352
 20
0.396312526422435
 11
2.333986263419465
 21
0.396312526422435
 72
     1
 10
2.333986263419465
 20
0.396312526422435
 11
2.333986263419465
 21
0.3935349083285478
 72
     1
 10
2.333986263419465
 20
0.3935349083285478
 11
2.333986263419465
 21
0.39075729023449
 72
     1
 10
2.333986263419465
 20
0.39075729023449
 11
2.333986263419465
 21
0.3240944559788095
 72
     1
 10
2.333986263419465
 20
0.3240944559788095
 11
2.333986263419465
 21
0.3213168378847518
 72
     1
 10
2.333986263419465
 20
0.3213168378847518
 11
2.333986263419465
 21
0.3185392197908646
 97
        1
330
58D
 75
     0
 76
     1
 98
        1
 10
-6.623918024059631
 20
-0.1308261527660757
  0
HATCH
  5
587
330
557
100
AcDbEntity
  8
CONTINUOUS1
 62
     9
100
AcDbHatch
 10
0.0
 20
0.0
 30
0.0
210
0.0
220
0.0
230
1.0
  2
SOLID
 70
     1
 71
     1
 91
        2
 92
        1
 93
       13
 72
     2
 10
2.507627067133951
 20
0.5672078009861301
 40
0.0215625675244637
 50
0.0002565813902296
 51
90.00070498518821
 73
     1
 72
     2
 10
2.507627067134452
 20
0.6103329360318659
 40
0.0215625675245372
 50
269.9992950134807
 51
359.9995092535441
 73
     1
 72
     1
 10
2.529189634658198
 20
0.6103327513454251
 11
2.529189634658198
 21
0.6423016562928301
 72
     2
 10
2.50762667305249
 20
0.6423015303381832
 40
0.0215629616060761
 50
0.0003346789653151
 51
89.99920945081219
 73
     1
 72
     1
 10
2.507626970571468
 20
0.6638644919422068
 11
2.376002128332206
 21
0.6638644919422068
 72
     1
 10
2.376002128332206
 20
0.6638644919422068
 11
2.376002128332206
 21
0.5352391641624768
 72
     1
 10
2.376002128332206
 20
0.5352391641624768
 11
2.397564961169027
 21
0.5352391641624768
 72
     1
 10
2.397564961169027
 20
0.5352391641624768
 11
2.397564961169027
 21
0.577989312090836
 72
     1
 10
2.397564961169027
 20
0.577989312090836
 11
2.496845563528129
 21
0.577989312090836
 72
     2
 10
2.496845471653383
 20
0.5672081694230766
 40
0.0107811426681508
 50
270.0004882631974
 51
360.0004882673548
 73
     0
 72
     1
 10
2.507626614321143
 20
0.5672080775475484
 11
2.507626970571468
 21
0.5352391641624768
 72
     1
 10
2.507626970571468
 20
0.5352391641624768
 11
2.529189634658198
 21
0.5352391641624768
 72
     1
 10
2.529189634658198
 20
0.5352391641624768
 11
2.529189634658198
 21
0.5672078975474056
 97
        1
330
589
 92
       16
 93
        6
 72
     2
 10
2.496845471653383
 20
0.6315205201877572
 40
0.0107811426681508
 50
270.0004882631974
 51
360.0004882673548
 73
     0
 72
     1
 10
2.507626614321143
 20
0.6315204283122289
 11
2.507626970571468
 21
0.6103328394705163
 72
     2
 10
2.496845649778499
 20
0.6103329257201973
 40
0.0107813207933138
 50
0.0004583615308307
 51
90.00045836519477
 73
     0
 72
     1
 10
2.496845563528129
 20
0.5995516049272287
 11
2.397564961169027
 21
0.5995518730522922
 72
     1
 10
2.397564961169027
 20
0.5995518730522922
 11
2.397564961169027
 21
0.6423016628555165
 72
     1
 10
2.397564961169027
 20
0.6423016628555165
 11
2.496845563528129
 21
0.6423016628555165
 97
        1
330
58F
 75
     0
 76
     1
 98
        1
 10
-6.623918024059631
 20
-0.1308261527660757
  0
LWPOLYLINE
  5
588
102
{ACAD_REACTORS
330
592
102
}
330
557
100
AcDbEntity
  8
CONTINUOUS1
  6
CONTINUOUS
 62
     9
100
AcDbPolyline
 90
       13
 70
     0
 43
0.0
 10
2.682377122234047
 20
0.6638644919422068
 10
2.545877089309929
 20
0.6638644919422068
 10
2.545877089309929
 20
0.5352391641624768
 10
2.682377122234047
 20
0.5352391641624768
 10
2.682377122234047
 20
0.5568015451239608
 10
2.567439378396361
 20
0.5568015451239608
 10
2.567439378396361
 20
0.5887705485089332
 10
2.682377122234047
 20
0.5887705485089332
 10
2.682377122234047
 20
0.6103328394705163
 10
2.567439378396361
 20
0.6103328394705163
 10
2.567439378396361
 20
0.6423016628555165
 10
2.682377122234047
 20
0.6423016628555165
 10
2.682377122234047
 20
0.6638644919422068
  0
LWPOLYLINE
  5
589
102
{ACAD_REACTORS
330
587
102
}
330
557
100
AcDbEntity
  8
CONTINUOUS1
  6
CONTINUOUS
 62
     9
100
AcDbPolyline
 90
       14
 70
     0
 43
0.0
 10
2.529189634658198
 20
0.5672078975474056
 42
0.4142158545932141
 10
2.507626801821377
 20
0.588770368508961
 42
0.4142146575582358
 10
2.529189634658198
 20
0.6103327513454251
 10
2.529189634658198
 20
0.6423016562928301
 42
0.4142078102735817
 10
2.507626970571468
 20
0.6638644919422068
 10
2.376002128332206
 20
0.6638644919422068
 10
2.376002128332206
 20
0.5352391641624768
 10
2.397564961169027
 20
0.5352391641624768
 10
2.397564961169027
 20
0.577989312090836
 10
2.496845563528129
 20
0.577989312090836
 42
-0.4142135623943674
 10
2.507626614321143
 20
0.5672080775475484
 10
2.507626970571468
 20
0.5352391641624768
 10
2.529189634658198
 20
0.5352391641624768
 10
2.529189634658198
 20
0.5672078975474056
  0
LWPOLYLINE
  5
58A
102
{ACAD_REACTORS
330
583
102
}
330
557
100
AcDbEntity
  8
CONTINUOUS1
 62
     9
100
AcDbPolyline
 90
       18
 70
     1
 43
0.0
 10
2.597086510057327
 20
0.3739249696649272
 42
-0.0075148293555971
 10
2.597747313561828
 20
0.3758094905988973
 42
-0.004657993094582
 10
2.598518240370683
 20
0.3774326474991771
 42
-0.0194573042781228
 10
2.599614421495093
 20
0.3793376189554469
 42
-0.025588215895386
 10
2.601260943195345
 20
0.3815052047880845
 42
-0.0513535452749696
 10
2.60438438651855
 20
0.3844411686669678
 42
-0.0711488595792178
 10
2.608687792130783
 20
0.387030374336121
 42
-0.0589617480196389
 10
2.612759828426224
 20
0.388163142544784
 42
-0.055567443413236
 10
2.617481779009981
 20
0.3885472203085105
 42
-0.0505831829207604
 10
2.622438601289932
 20
0.3881580670007456
 42
-0.0805511158347094
 10
2.628138968138305
 20
0.386212311056966
 42
-0.0997279791482863
 10
2.632639186255605
 20
0.3821694970928324
 42
-0.05798586112659
 10
2.634725691735443
 20
0.3782279079159712
 42
-0.0542300556945522
 10
2.63602974439377
 20
0.3736673778522577
 42
-0.0393615860447316
 10
2.636657158546572
 20
0.3672377124287327
 10
2.595832764305416
 20
0.3672377124287327
 42
-0.0115879268951182
 10
2.596116860354502
 20
0.3695945556602855
 42
-0.0015814549261624
 10
2.596518317958985
 20
0.3718162665023788
 42
-0.0028557092809637
  0
LWPOLYLINE
  5
58B
102
{ACAD_REACTORS
330
583
102
}
330
557
100
AcDbEntity
  8
CONTINUOUS1
 62
     9
100
AcDbPolyline
 90
       47
 70
     1
 43
0.0
 10
2.602153476867872
 20
0.3371934049870338
 42
-0.0441414060654578
 10
2.59961369979263
 20
0.3406137919386656
 42
-0.0277319653937625
 10
2.5984653013729
 20
0.342908764392917
 42
-0.0164279047561354
 10
2.597515647073553
 20
0.3453802682993233
 42
-0.0066863653619568
 10
2.596775244033299
 20
0.3480745345536893
 42
-0.0233064481414024
 10
2.596254684297182
 20
0.3511569156956971
 42
-0.0386937426355895
 10
2.595830514291865
 20
0.3572253591981966
 10
2.649224587943283
 20
0.3572253591981966
 10
2.649224587943283
 20
0.367418047889942
 42
0.1310126142130034
 10
2.644988491698345
 20
0.384827874269718
 42
0.1175696112009137
 10
2.636356463341005
 20
0.3945709905457311
 42
0.1103270754359441
 10
2.625006928065293
 20
0.3987237922934814
 42
0.0651926395407652
 10
2.617493856912776
 20
0.3992029596881825
 42
0.0935138111535395
 10
2.606403540178096
 20
0.3974214224988377
 42
0.0771718076448178
 10
2.599285664799797
 20
0.3939838910158646
 42
0.0650775313207389
 10
2.593789051535882
 20
0.3895585675142574
 42
0.0516650400356126
 10
2.589115136618747
 20
0.3836759482660459
 42
0.0469242136237456
 10
2.586513590303841
 20
0.3788161200391191
 42
0.051223632580995
 10
2.584986595266205
 20
0.3746909211984648
 42
0.037832980863087
 10
2.583586471275143
 20
0.3691379050324035
 42
0.0380040356892352
 10
2.582795082079005
 20
0.3632512380642088
 42
0.0396963751324013
 10
2.582795082079005
 20
0.3535837675287898
 42
0.0477329049617882
 10
2.584331480475075
 20
0.3438434486300826
 42
0.0632736306522388
 10
2.586214656901265
 20
0.3384198641380185
 42
0.0887240198666166
 10
2.591374808234863
 20
0.3301577047572555
 42
0.0593249496237894
 10
2.596539162424083
 20
0.3253225760990977
 42
0.0586814778487906
 10
2.602842129596783
 20
0.321706383342701
 42
0.039275593781097
 10
2.608147746428333
 20
0.3198508322162757
 42
0.0294048595279412
 10
2.613237107241648
 20
0.3187611372579231
 42
0.0245538255625254
 10
2.618668576245656
 20
0.3182910719351076
 42
0.0484050884053723
 10
2.627556087272385
 20
0.318538586832347
 42
0.0313804255658969
 10
2.63448515255229
 20
0.3199276859149341
 42
0.0210229524573495
 10
2.639813099706859
 20
0.3215361459892283
 42
0.0098439804496088
 10
2.647864624571159
 20
0.3247109995190845
 10
2.647864624571159
 20
0.3403736793267176
 42
-0.1158714317854296
 10
2.647105648305942
 20
0.3389070845880729
 42
-0.0273968376187686
 10
2.644330659909687
 20
0.3368770470617056
 42
-0.0245127629396402
 10
2.641865387999789
 20
0.3353916503899091
 42
-0.0174018213192927
 10
2.639028460551546
 20
0.3339310062675627
 42
-0.0303578783463293
 10
2.633740567883169
 20
0.3316766063780965
 42
-0.0163288525489418
 10
2.629968887168647
 20
0.3305939790356552
 42
-0.0174430116847887
 10
2.627747020025172
 20
0.33012803560564
 42
-0.0109219578339942
 10
2.625442878801752
 20
0.329799142463799
 42
-0.0520451680420305
 10
2.617458535945591
 20
0.329799142463799
 42
-0.0139513426612014
 10
2.615659756253567
 20
0.3300115523971959
 42
-0.0578723374760443
 10
2.610218140962249
 20
0.3315192009325761
 42
-0.0508775714496942
 10
2.606195180433619
 20
0.3335955965084172
 42
-0.061605978241212
  0
LWPOLYLINE
  5
58C
102
{ACAD_REACTORS
330
585
102
}
330
557
100
AcDbEntity
  8
CONTINUOUS1
  6
CONTINUOUS
 62
     9
100
AcDbPolyline
 90
       61
 70
     0
 43
0.0
 10
2.456201459554765
 20
0.3185392197908646
 10
2.458979077648653
 20
0.3185392197908646
 10
2.46175669574271
 20
0.3185392197908646
 10
2.520086675716388
 20
0.3185392197908646
 10
2.522864293810275
 20
0.3185392197908646
 10
2.525641911904333
 20
0.3185392197908646
 10
2.525641911904333
 20
0.3213168378847518
 10
2.525641911904333
 20
0.3240944559788095
 10
2.525641911904333
 20
0.3268720740728673
 10
2.525641911904333
 20
0.3296496921667545
 10
2.525641911904333
 20
0.3324273102608122
 10
2.522864293810275
 20
0.3324273102608122
 10
2.520086675716388
 20
0.3324273102608122
 10
2.478422404306545
 20
0.3324273102608122
 10
2.475644786212658
 20
0.3324273102608122
 10
2.4728671681186
 20
0.3324273102608122
 10
2.4728671681186
 20
0.33520492835487
 10
2.4728671681186
 20
0.3379825464487572
 10
2.4728671681186
 20
0.3657587273886524
 10
2.4728671681186
 20
0.3685363454825397
 10
2.4728671681186
 20
0.3713139635765974
 10
2.475644786212658
 20
0.3713139635765974
 10
2.478422404306545
 20
0.3713139635765974
 10
2.51730905762233
 20
0.3713139635765974
 10
2.520086675716388
 20
0.3713139635765974
 10
2.522864293810275
 20
0.3713139635765974
 10
2.522864293810275
 20
0.3740915816706551
 10
2.522864293810275
 20
0.3768691997645424
 10
2.522864293810275
 20
0.3796468178584296
 10
2.522864293810275
 20
0.3824244359524873
 10
2.522864293810275
 20
0.3852020540465451
 10
2.520086675716388
 20
0.3852020540465451
 10
2.51730905762233
 20
0.3852020540465451
 10
2.478422404306545
 20
0.3852020540465451
 10
2.475644786212658
 20
0.3852020540465451
 10
2.4728671681186
 20
0.3852020540465451
 10
2.4728671681186
 20
0.3879796721404323
 10
2.4728671681186
 20
0.39075729023449
 10
2.4728671681186
 20
0.4185334711742148
 10
2.4728671681186
 20
0.4213110892682726
 10
2.4728671681186
 20
0.4240887073623303
 10
2.475644786212658
 20
0.4240887073623303
 10
2.478422404306545
 20
0.4240887073623303
 10
2.51730905762233
 20
0.4240887073623303
 10
2.520086675716388
 20
0.4240887073623303
 10
2.522864293810275
 20
0.4240887073623303
 10
2.522864293810275
 20
0.4268663254562175
 10
2.522864293810275
 20
0.4296439435502753
 10
2.522864293810275
 20
0.432421561644333
 10
2.522864293810275
 20
0.4351991797382202
 10
2.522864293810275
 20
0.4379767978321075
 10
2.520086675716388
 20
0.4379767978321075
 10
2.51730905762233
 20
0.4379767978321075
 10
2.46175669574271
 20
0.4379767978321075
 10
2.458979077648653
 20
0.4379767978321075
 10
2.456201459554765
 20
0.4379767978321075
 10
2.456201459554765
 20
0.4351991797382202
 10
2.456201459554765
 20
0.432421561644333
 10
2.456201459554765
 20
0.3240944559788095
 10
2.456201459554765
 20
0.3213168378847518
 10
2.456201459554765
 20
0.3185392197908646
  0
LWPOLYLINE
  5
58D
102
{ACAD_REACTORS
330
586
102
}
330
557
100
AcDbEntity
  8
CONTINUOUS1
  6
CONTINUOUS
 62
     9
100
AcDbPolyline
 90
       64
 70
     0
 43
0.0
 10
2.333986263419465
 20
0.3185392197908646
 10
2.336763881513352
 20
0.3185392197908646
 10
2.33954149960741
 20
0.3185392197908646
 10
2.342319117701297
 20
0.3185392197908646
 10
2.345096735795355
 20
0.3185392197908646
 10
2.347874353889242
 20
0.3185392197908646
 10
2.347874353889242
 20
0.3213168378847518
 10
2.347874353889242
 20
0.3240944559788095
 10
2.347874353889242
 20
0.3629811092945947
 10
2.347874353889242
 20
0.3657587273886524
 10
2.347874353889242
 20
0.3685363454825397
 10
2.348586194660104
 20
0.3713139635765974
 10
2.349735358012228
 20
0.3740915816706551
 10
2.3511797194212
 20
0.3764803332313709
 10
2.353429590077357
 20
0.378258008811486
 10
2.356207208171245
 20
0.3803481447481549
 10
2.358708187386159
 20
0.3821533245041455
 10
2.360746259593074
 20
0.3835311386972085
 10
2.362567953606546
 20
0.3843965447991882
 10
2.364540062453247
 20
0.3852020540465451
 10
2.367317680547134
 20
0.3860225445559995
 10
2.371041809419384
 20
0.3859647625154712
 10
2.373644053628343
 20
0.3851557727118125
 10
2.375650534829137
 20
0.3838132449996015
 10
2.377749804062805
 20
0.3819776024104162
 10
2.379816961970139
 20
0.3796468178584296
 10
2.381205771017082
 20
0.3784524420782422
 10
2.382248692300752
 20
0.380049012932091
 10
2.383757731757302
 20
0.3823591474088066
 10
2.385542235943237
 20
0.3850909809773389
 10
2.386582283838979
 20
0.3866831530647805
 10
2.387955382985555
 20
0.3887851813877892
 10
2.386761007205027
 20
0.39075729023449
 10
2.384708963404055
 20
0.3932298076646252
 10
2.38166327412026
 20
0.3956385659741959
 10
2.379947253551311
 20
0.3970016751998178
 10
2.377622643675838
 20
0.3982846352691358
 10
2.375650534829137
 20
0.3990901445163222
 10
2.37287291673525
 20
0.3990901445163222
 10
2.370095298641192
 20
0.3990901445163222
 10
2.367317680547134
 20
0.3987012779831507
 10
2.364540062453247
 20
0.3977013354693786
 10
2.361956877625775
 20
0.3961180931558492
 10
2.359679230788774
 20
0.394229312851849
 10
2.357596017218188
 20
0.3921460992814336
 10
2.355512803647773
 20
0.3900628857110182
 10
2.35378697604543
 20
0.3878950002004449
 10
2.3521136744877
 20
0.3860075632937314
 10
2.347874353889242
 20
0.3814779152569376
 10
2.347874353889242
 20
0.3860075632937314
 10
2.347874353889242
 20
0.3879796721404323
 10
2.347874353889242
 20
0.39075729023449
 10
2.347874353889242
 20
0.3935349083285478
 10
2.347874353889242
 20
0.396312526422435
 10
2.345096735795355
 20
0.396312526422435
 10
2.342319117701297
 20
0.396312526422435
 10
2.33954149960741
 20
0.396312526422435
 10
2.336763881513352
 20
0.396312526422435
 10
2.333986263419465
 20
0.396312526422435
 10
2.333986263419465
 20
0.3935349083285478
 10
2.333986263419465
 20
0.39075729023449
 10
2.333986263419465
 20
0.3240944559788095
 10
2.333986263419465
 20
0.3213168378847518
 10
2.333986263419465
 20
0.3185392197908646
  0
LWPOLYLINE
  5
58E
102
{ACAD_REACTORS
330
584
102
}
330
557
100
AcDbEntity
  8
CONTINUOUS1
  6
CONTINUOUS
 62
     9
100
AcDbPolyline
 90
       21
 70
     0
 43
0.0
 10
2.545085238562226
 20
0.3185392197908646
 10
2.547862856656283
 20
0.3185392197908646
 10
2.550640474750171
 20
0.3185392197908646
 10
2.553418092844228
 20
0.3185392197908646
 10
2.556195710938116
 20
0.3185392197908646
 10
2.558973329032173
 20
0.3185392197908646
 10
2.558973329032173
 20
0.3213168378847518
 10
2.558973329032173
 20
0.3240944559788095
 10
2.558973329032173
 20
0.432421561644333
 10
2.558973329032173
 20
0.4351991797382202
 10
2.558973329032173
 20
0.4379767978321075
 10
2.556195710938116
 20
0.4379767978321075
 10
2.553418092844228
 20
0.4379767978321075
 10
2.550640474750171
 20
0.4379767978321075
 10
2.547862856656283
 20
0.4379767978321075
 10
2.545085238562226
 20
0.4379767978321075
 10
2.545085238562226
 20
0.4351991797382202
 10
2.545085238562226
 20
0.432421561644333
 10
2.545085238562226
 20
0.3240944559788095
 10
2.545085238562226
 20
0.3213168378847518
 10
2.545085238562226
 20
0.3185392197908646
  0
LWPOLYLINE
  5
58F
102
{ACAD_REACTORS
330
587
102
}
330
557
100
AcDbEntity
  8
CONTINUOUS1
  6
CONTINUOUS
 62
     9
100
AcDbPolyline
 90
        7
 70
     1
 43
0.0
 10
2.496845563528129
 20
0.6423016628555165
 42
-0.4142135623943683
 10
2.507626614321143
 20
0.6315204283122289
 10
2.507626970571468
 20
0.6103328394705163
 42
-0.4142135623918344
 10
2.496845563528129
 20
0.5995516049272287
 10
2.397564961169027
 20
0.5995518730522922
 10
2.397564961169027
 20
0.6423016628555165
 10
2.496845563528129
 20
0.6423016628555165
  0
LWPOLYLINE
  5
590
102
{ACAD_REACTORS
330
581
102
}
330
557
100
AcDbEntity
  8
CONTINUOUS1
  6
CONTINUOUS
 62
     9
100
AcDbPolyline
 90
       80
 70
     0
 43
0.0
 10
2.768100195328234
 20
0.3193447290382215
 10
2.770072304174934
 20
0.3185392197908646
 10
2.776853223288274
 20
0.3177266059119579
 10
2.783960394644882
 20
0.3185392197908646
 10
2.78673801273894
 20
0.3190948244196652
 10
2.788710121585641
 20
0.3197586133924238
 10
2.790321140080184
 20
0.3205113286375654
 10
2.792293248926885
 20
0.3213168378847518
 10
2.795070867020772
 20
0.3223769226657969
 10
2.79784848511483
 20
0.323705589445638
 10
2.79784848511483
 20
0.3240944559788095
 10
2.79784848511483
 20
0.3268720740728673
 10
2.79784848511483
 20
0.3296496921667545
 10
2.79784848511483
 20
0.3324273102608122
 10
2.79784848511483
 20
0.3348160618216985
 10
2.795070867020772
 20
0.3340302206436268
 10
2.792365821896428
 20
0.3330627471016219
 10
2.789656082622375
 20
0.3319722328952826
 10
2.787543521986126
 20
0.3310528956835701
 10
2.785932503491583
 20
0.3304552014141114
 10
2.783960394644882
 20
0.3296496921667545
 10
2.781182776550995
 20
0.3294142968159695
 10
2.778405158456937
 20
0.3296496921667545
 10
2.776433049610236
 20
0.3304552014141114
 10
2.774670597445183
 20
0.3314126783258194
 10
2.772849922268992
 20
0.3324273102608122
 10
2.771309634063275
 20
0.3337080859405437
 10
2.770072304174934
 20
0.33520492835487
 10
2.769017502196309
 20
0.3370752134098898
 10
2.768100195328234
 20
0.3387880556961141
 10
2.767294686081047
 20
0.3407601645426444
 10
2.767294686081047
 20
0.3435377826367021
 10
2.767294686081047
 20
0.3796468178584296
 10
2.767294686081047
 20
0.3824244359524873
 10
2.767294686081047
 20
0.3852020540465451
 10
2.770072304174934
 20
0.3852020540465451
 10
2.772849922268992
 20
0.3852020540465451
 10
2.78673801273894
 20
0.3852020540465451
 10
2.789515630832827
 20
0.3852020540465451
 10
2.792293248926885
 20
0.3852020540465451
 10
2.792293248926885
 20
0.3879796721404323
 10
2.792293248926885
 20
0.39075729023449
 10
2.792293248926885
 20
0.3935349083285478
 10
2.792293248926885
 20
0.396312526422435
 10
2.789515630832827
 20
0.396312526422435
 10
2.78673801273894
 20
0.396312526422435
 10
2.772849922268992
 20
0.396312526422435
 10
2.770072304174934
 20
0.396312526422435
 10
2.767294686081047
 20
0.396312526422435
 10
2.767294686081047
 20
0.3990901445163222
 10
2.767294686081047
 20
0.40186776261038
 10
2.767294686081047
 20
0.4046453807044377
 10
2.767294686081047
 20
0.4074229987983249
 10
2.767294686081047
 20
0.4101951770153965
 10
2.765072591605903
 20
0.4082562842266957
 10
2.762850497130589
 20
0.4063119515608383
 10
2.749517930279555
 20
0.3946459555660344
 10
2.747295835804241
 20
0.392701622900177
 10
2.745037428605176
 20
0.390774564389972
 10
2.742784501548531
 20
0.3888087685731994
 10
2.740784200988546
 20
0.3870634024897304
 10
2.73865097726642
 20
0.3852020540465451
 10
2.74229612323521
 20
0.3852020540465451
 10
2.745073741329097
 20
0.3852020540465451
 10
2.747851359423155
 20
0.3852020540465451
 10
2.750628977517042
 20
0.3852020540465451
 10
2.7534065956111
 20
0.3852020540465451
 10
2.7534065956111
 20
0.3824244359524873
 10
2.7534065956111
 20
0.3796468178584296
 10
2.7534065956111
 20
0.3379825464487572
 10
2.7534065956111
 20
0.33520492835487
 10
2.753795462144271
 20
0.3324273102608122
 10
2.754795404658043
 20
0.3296496921667545
 10
2.756573080238158
 20
0.3272609406060388
 10
2.758810686828073
 20
0.3252801639712293
 10
2.760933940645745
 20
0.323705589445638
 10
2.762735804659516
 20
0.322316540818179
 10
2.764517067986989
 20
0.3213168378847518
 10
2.766384493876135
 20
0.3202550358792001
 10
2.768100195328234
 20
0.3193447290382215
  0
LWPOLYLINE
  5
591
102
{ACAD_REACTORS
330
582
102
}
330
557
100
AcDbEntity
  8
CONTINUOUS1
  6
CONTINUOUS
 62
     9
100
AcDbPolyline
 90
        4
 70
     1
 43
0.0
 10
2.728340921353581
 20
0.3820863083685713
 10
2.728340921353581
 20
0.3931967807444612
 42
1.819450421535996
 10
2.728340921353581
 20
0.3237563283948935
 10
2.728340921353581
 20
0.3348668007707834
 42
-2.028165022884401
  0
HATCH
  5
592
330
557
100
AcDbEntity
  8
CONTINUOUS1
 62
     9
100
AcDbHatch
 10
0.0
 20
0.0
 30
0.0
210
0.0
220
0.0
230
1.0
  2
SOLID
 70
     1
 71
     1
 91
        1
 92
        1
 93
       12
 72
     1
 10
2.682377122234047
 20
0.6638644919422068
 11
2.545877089309929
 21
0.6638644919422068
 72
     1
 10
2.545877089309929
 20
0.6638644919422068
 11
2.545877089309929
 21
0.5352391641624768
 72
     1
 10
2.545877089309929
 20
0.5352391641624768
 11
2.682377122234047
 21
0.5352391641624768
 72
     1
 10
2.682377122234047
 20
0.5352391641624768
 11
2.682377122234047
 21
0.5568015451239608
 72
     1
 10
2.682377122234047
 20
0.5568015451239608
 11
2.567439378396361
 21
0.5568015451239608
 72
     1
 10
2.567439378396361
 20
0.5568015451239608
 11
2.567439378396361
 21
0.5887705485089332
 72
     1
 10
2.567439378396361
 20
0.5887705485089332
 11
2.682377122234047
 21
0.5887705485089332
 72
     1
 10
2.682377122234047
 20
0.5887705485089332
 11
2.682377122234047
 21
0.6103328394705163
 72
     1
 10
2.682377122234047
 20
0.6103328394705163
 11
2.567439378396361
 21
0.6103328394705163
 72
     1
 10
2.567439378396361
 20
0.6103328394705163
 11
2.567439378396361
 21
0.6423016628555165
 72
     1
 10
2.567439378396361
 20
0.6423016628555165
 11
2.682377122234047
 21
0.6423016628555165
 72
     1
 10
2.682377122234047
 20
0.6423016628555165
 11
2.682377122234047
 21
0.6638644919422068
 97
        1
330
588
 75
     0
 76
     1
 98
        1
 10
-6.623918024059631
 20
-0.1308261527660757
  0
HATCH
  5
593
330
557
100
AcDbEntity
  8
CONTINUOUS1
 62
     9
100
AcDbHatch
 10
0.0
 20
0.0
 30
0.0
210
0.0
220
0.0
230
1.0
  2
SOLID
 70
     1
 71
     1
 91
        1
 92
        1
 93
        4
 72
     1
 10
2.981203152099315
 20
0.3820863083685713
 11
2.981203152099315
 21
0.3931967807444612
 72
     2
 10
2.959158691880601
 20
0.3584765545696773
 40
0.041127269930821
 50
57.58784372121546
 51
302.4121562787845
 73
     1
 72
     1
 10
2.981203152099315
 20
0.3237563283948935
 11
2.981203152099315
 21
0.3348668007707834
 72
     2
 10
2.963081385264331
 20
0.3584765545696773
 40
0.0297627100188458
 50
52.49180531393238
 51
307.5081946860675
 73
     0
 97
        1
330
595
 75
     0
 76
     1
 98
        1
 10
-6.623918024059631
 20
-0.1308261527660757
  0
HATCH
  5
594
330
557
100
AcDbEntity
  8
CONTINUOUS1
 62
     9
100
AcDbHatch
 10
0.0
 20
0.0
 30
0.0
210
0.0
220
0.0
230
1.0
  2
SOLID
 70
     1
 71
     1
 91
        2
 92
        1
 93
       20
 72
     1
 10
2.883954646028403
 20
0.3185392197908646
 11
2.88673226412229
 21
0.3185392197908646
 72
     1
 10
2.88673226412229
 20
0.3185392197908646
 11
2.889509882216348
 21
0.3185392197908646
 72
     1
 10
2.889509882216348
 20
0.3185392197908646
 11
2.892287500310406
 21
0.3185392197908646
 72
     1
 10
2.892287500310406
 20
0.3185392197908646
 11
2.895065118404293
 21
0.3185392197908646
 72
     1
 10
2.895065118404293
 20
0.3185392197908646
 11
2.897842736498351
 21
0.3185392197908646
 72
     1
 10
2.897842736498351
 20
0.3185392197908646
 11
2.897842736498351
 21
0.3213168378847518
 72
     1
 10
2.897842736498351
 20
0.3213168378847518
 11
2.897842736498351
 21
0.3240944559788095
 72
     1
 10
2.897842736498351
 20
0.3240944559788095
 11
2.897842736498351
 21
0.39075729023449
 72
     1
 10
2.897842736498351
 20
0.39075729023449
 11
2.897842736498351
 21
0.3935349083285478
 72
     1
 10
2.897842736498351
 20
0.3935349083285478
 11
2.897843375494833
 21
0.396312526422435
 72
     1
 10
2.897843375494833
 20
0.396312526422435
 11
2.895065118404293
 21
0.396312526422435
 72
     1
 10
2.895065118404293
 20
0.396312526422435
 11
2.892287500310406
 21
0.396312526422435
 72
     1
 10
2.892287500310406
 20
0.396312526422435
 11
2.889509882216348
 21
0.396312526422435
 72
     1
 10
2.889509882216348
 20
0.396312526422435
 11
2.88673226412229
 21
0.396312526422435
 72
     1
 10
2.88673226412229
 20
0.396312526422435
 11
2.883954646028403
 21
0.396312526422435
 72
     1
 10
2.883954646028403
 20
0.396312526422435
 11
2.883954646028403
 21
0.3935349083285478
 72
     1
 10
2.883954646028403
 20
0.3935349083285478
 11
2.883954646028403
 21
0.39075729023449
 72
     1
 10
2.883954646028403
 20
0.39075729023449
 11
2.883954646028403
 21
0.3240944559788095
 72
     1
 10
2.883954646028403
 20
0.3240944559788095
 11
2.883954646028403
 21
0.3213168378847518
 72
     1
 10
2.883954646028403
 20
0.3213168378847518
 11
2.883954646028403
 21
0.3185392197908646
 97
        1
330
596
 92
        1
 93
        1
 72
     2
 10
2.890898691263291
 20
0.4213110892682726
 40
0.0083328542819542
 50
0.0
 51
360.0
 73
     1
 97
        1
330
597
 75
     0
 76
     1
 98
        1
 10
-6.623918024059631
 20
-0.1308261527660757
  0
LWPOLYLINE
  5
595
102
{ACAD_REACTORS
330
593
102
}
330
557
100
AcDbEntity
  8
CONTINUOUS1
  6
CONTINUOUS
 62
     9
100
AcDbPolyline
 90
        4
 70
     1
 43
0.0
 10
2.981203152099315
 20
0.3820863083685713
 10
2.981203152099315
 20
0.3931967807444612
 42
1.819450421535996
 10
2.981203152099315
 20
0.3237563283948935
 10
2.981203152099315
 20
0.3348668007707834
 42
-2.028165022884401
  0
LWPOLYLINE
  5
596
102
{ACAD_REACTORS
330
594
102
}
330
557
100
AcDbEntity
  8
CONTINUOUS1
  6
CONTINUOUS
 62
     9
100
AcDbPolyline
 90
       21
 70
     0
 43
0.0
 10
2.883954646028403
 20
0.3185392197908646
 10
2.88673226412229
 20
0.3185392197908646
 10
2.889509882216348
 20
0.3185392197908646
 10
2.892287500310406
 20
0.3185392197908646
 10
2.895065118404293
 20
0.3185392197908646
 10
2.897842736498351
 20
0.3185392197908646
 10
2.897842736498351
 20
0.3213168378847518
 10
2.897842736498351
 20
0.3240944559788095
 10
2.897842736498351
 20
0.39075729023449
 10
2.897842736498351
 20
0.3935349083285478
 10
2.897843375494833
 20
0.396312526422435
 10
2.895065118404293
 20
0.396312526422435
 10
2.892287500310406
 20
0.396312526422435
 10
2.889509882216348
 20
0.396312526422435
 10
2.88673226412229
 20
0.396312526422435
 10
2.883954646028403
 20
0.396312526422435
 10
2.883954646028403
 20
0.3935349083285478
 10
2.883954646028403
 20
0.39075729023449
 10
2.883954646028403
 20
0.3240944559788095
 10
2.883954646028403
 20
0.3213168378847518
 10
2.883954646028403
 20
0.3185392197908646
  0
CIRCLE
  5
597
102
{ACAD_REACTORS
330
594
102
}
330
557
100
AcDbEntity
  8
CONTINUOUS1
 62
     9
100
AcDbCircle
 10
2.890898691263291
 20
0.4213110892682726
 30
0.0
 40
0.0083328542819542
  0
LWPOLYLINE
  5
598
102
{ACAD_REACTORS
330
567
102
}
330
557
100
AcDbEntity
  8
CONTINUOUS1
  6
CONTINUOUS
 62
     9
100
AcDbPolyline
 90
        7
 70
     0
 43
0.0
 10
2.846064035419235
 20
0.6423016628555165
 10
2.959782634710521
 20
0.6423016628555165
 42
-0.4142135623918432
 10
2.97056404175391
 20
0.6315204283122381
 10
2.97056404175391
 20
0.5675829596674955
 42
-0.4142111173935808
 10
2.959782634710521
 20
0.5568015451240994
 10
2.846064035419235
 20
0.5568015451240994
 10
2.846064035419235
 20
0.6423016628555165
  0
ENDBLK
  5
59A
330
557
100
AcDbEntity
  8
0
100
AcDbBlockEnd
  0
BLOCK
  5
6B5
330
6B3
100
AcDbEntity
  8
0
100
AcDbBlockBegin
  2
M_PFN_101
 70
     0
 10
0.0
 20
0.0
 30
0.0
  3
M_PFN_101
  1

  0
SOLID
  5
6B4
330
6B3
100
AcDbEntity
  8
0
  6
BYBLOCK
 62
     0
100
AcDbTrace
 10
0.0688976377952756
 20
0.0162645260088438
 30
0.0
 11
0.0688976377952756
 21
-0.0162645260088438
 31
0.0
 12
0.0
 22
0.0
 32
0.0
 13
0.0
 23
0.0
 33
0.0
  0
ENDBLK
  5
6B6
330
6B3
100
AcDbEntity
  8
0
100
AcDbBlockEnd
  0
BLOCK
  5
6B9
330
6B7
100
AcDbEntity
  8
0
100
AcDbBlockBegin
  2
M_PFN_2
 70
     0
 10
0.0
 20
0.0
 30
0.0
  3
M_PFN_2
  1

  0
POINT
  5
6B8
330
6B7
100
AcDbEntity
  8
0
  6
BYBLOCK
 62
     0
100
AcDbPoint
 10
0.0
 20
0.0
 30
0.0
  0
ENDBLK
  5
6BA
330
6B7
100
AcDbEntity
  8
0
100
AcDbBlockEnd
  0
BLOCK
  5
AD6
330
ACB
100
AcDbEntity
  8
0
100
AcDbBlockBegin
  2
*D5
 70
     1
 10
0.0
 20
0.0
 30
0.0
  3
*D5
  1

  0
LINE
  5
2EFF
330
ACB
100
AcDbEntity
  8
DIM
100
AcDbLine
 10
28.93029455468637
 20
19.22219611209562
 30
0.0
 11
28.93029455468637
 21
15.39207616805261
 31
0.0
  0
LINE
  5
2F00
330
ACB
100
AcDbEntity
  8
DIM
100
AcDbLine
 10
34.53029455468636
 20
19.22219611209561
 30
0.0
 11
34.53029455468636
 21
15.39207616805261
 31
0.0
  0
LINE
  5
2F01
330
ACB
100
AcDbEntity
  8
DIM
100
AcDbLine
 10
29.49029455468636
 20
15.89207616805261
 30
0.0
 11
29.88648503087684
 21
15.89207616805261
 31
0.0
  0
LINE
  5
2F02
330
ACB
100
AcDbEntity
  8
DIM
100
AcDbLine
 10
33.97029455468636
 20
15.89207616805261
 30
0.0
 11
33.57410407849589
 21
15.89207616805261
 31
0.0
  0
INSERT
  5
2F03
330
ACB
100
AcDbEntity
  8
DIM
100
AcDbBlockReference
  2
SEARROW
 10
28.93029455468637
 20
15.89207616805261
 30
0.0
 41
0.5600000000000001
 42
0.5600000000000001
 43
0.5600000000000001
 50
180.0
  0
INSERT
  5
2F04
330
ACB
100
AcDbEntity
  8
DIM
100
AcDbBlockReference
  2
SEARROW
 10
34.53029455468636
 20
15.89207616805261
 30
0.0
 41
0.5600000000000001
 42
0.5600000000000001
 43
0.5600000000000001
  0
MTEXT
  5
2F05
330
ACB
100
AcDbEntity
  8
DIM
100
AcDbMText
 10
31.73029455468636
 20
15.89207616805261
 30
0.0
 40
0.8
 41
0.0
 71
     5
 72
     1
  1
\A1;5.60\P{\H0.8x; [142]
  7
ROMANS
1001
ACAD
1000
MTEXTBEGIN
1070
    73
1070
     1
1070
    44
1040
1.0
1070
    74
1070
     0
1000
MTEXTEND
  0
POINT
  5
2F06
330
ACB
100
AcDbEntity
  8
DEFPOINTS
 62
     0
100
AcDbPoint
 10
28.93029455468637
 20
19.72219611209562
 30
0.0
  0
POINT
  5
2F07
330
ACB
100
AcDbEntity
  8
DEFPOINTS
 62
     0
100
AcDbPoint
 10
34.53029455468636
 20
19.72219611209561
 30
0.0
  0
POINT
  5
2F08
330
ACB
100
AcDbEntity
  8
DEFPOINTS
 62
     0
100
AcDbPoint
 10
34.53029455468636
 20
15.89207616805261
 30
0.0
  0
ENDBLK
  5
AD7
330
ACB
100
AcDbEntity
  8
0
100
AcDbBlockEnd
  0
BLOCK
  5
AE3
330
AD8
100
AcDbEntity
  8
0
100
AcDbBlockBegin
  2
*D6
 70
     1
 10
0.0
 20
0.0
 30
0.0
  3
*D6
  1

  0
LINE
  5
2F09
330
AD8
100
AcDbEntity
  8
DIM
100
AcDbLine
 10
28.93029455468637
 20
19.58814717645746
 30
0.0
 11
28.93029455468637
 21
15.39207616805261
 31
0.0
  0
LINE
  5
2F0A
330
AD8
100
AcDbEntity
  8
DIM
100
AcDbLine
 10
26.93029455468634
 20
17.65814717645745
 30
0.0
 11
26.93029455468634
 21
15.39207616805261
 31
0.0
  0
LINE
  5
2F0B
330
AD8
100
AcDbEntity
  8
DIM
100
AcDbLine
 10
28.37029455468637
 20
15.89207616805261
 30
0.0
 11
27.49029455468634
 21
15.89207616805261
 31
0.0
  0
LINE
  5
2F0C
330
AD8
100
AcDbEntity
  8
DIM
100
AcDbLine
 10
26.93029455468634
 20
15.89207616805261
 30
0.0
 11
26.37029455468634
 21
15.89207616805261
 31
0.0
  0
INSERT
  5
2F0D
330
AD8
100
AcDbEntity
  8
DIM
100
AcDbBlockReference
  2
SEARROW
 10
28.93029455468637
 20
15.89207616805261
 30
0.0
 41
0.5600000000000001
 42
0.5600000000000001
 43
0.5600000000000001
  0
INSERT
  5
2F0E
330
AD8
100
AcDbEntity
  8
DIM
100
AcDbBlockReference
  2
SEARROW
 10
26.93029455468634
 20
15.89207616805261
 30
0.0
 41
0.5600000000000001
 42
0.5600000000000001
 43
0.5600000000000001
 50
180.0
  0
MTEXT
  5
2F0F
330
AD8
100
AcDbEntity
  8
DIM
100
AcDbMText
 10
24.83124693563872
 20
15.89207616805261
 30
0.0
 40
0.8
 41
0.0
 71
     5
 72
     1
  1
\A1;2.00\P{\H0.8x; [51]
  7
ROMANS
1001
ACAD
1000
MTEXTBEGIN
1070
    73
1070
     1
1070
    44
1040
1.0
1070
    74
1070
     0
1000
MTEXTEND
  0
POINT
  5
2F10
330
AD8
100
AcDbEntity
  8
DEFPOINTS
 62
     0
100
AcDbPoint
 10
28.93029455468637
 20
20.08814717645746
 30
0.0
  0
POINT
  5
2F11
330
AD8
100
AcDbEntity
  8
DEFPOINTS
 62
     0
100
AcDbPoint
 10
26.93029455468634
 20
18.15814717645745
 30
0.0
  0
POINT
  5
2F12
330
AD8
100
AcDbEntity
  8
DEFPOINTS
 62
     0
100
AcDbPoint
 10
26.93029455468634
 20
15.89207616805261
 30
0.0
  0
ENDBLK
  5
AE4
330
AD8
100
AcDbEntity
  8
0
100
AcDbBlockEnd
  0
BLOCK
  5
AF1
330
AE5
100
AcDbEntity
  8
0
100
AcDbBlockBegin
  2
*D7
 70
     1
 10
0.0
 20
0.0
 30
0.0
  3
*D7
  1

  0
LINE
  5
3103
330
AE5
100
AcDbEntity
  8
DIM
100
AcDbLine
 10
26.43029455468634
 20
18.15814717645745
 30
0.0
 11
23.86796120524918
 21
18.15814717645746
 31
0.0
  0
LINE
  5
3104
330
AE5
100
AcDbEntity
  8
DIM
100
AcDbLine
 10
28.06434350349876
 20
20.08814717645746
 30
0.0
 11
23.86796120524918
 21
20.08814717645746
 31
0.0
  0
LINE
  5
3105
330
AE5
100
AcDbEntity
  8
DIM
100
AcDbLine
 10
24.36796120524919
 20
18.71814717645745
 30
0.0
 11
24.36796120524919
 21
19.52814717645746
 31
0.0
  0
LINE
  5
3106
330
AE5
100
AcDbEntity
  8
DIM
100
AcDbLine
 10
23.80796120524919
 20
21.90137801873281
 30
0.0
 11
24.36796120524919
 21
21.9013780187328
 31
0.0
  0
LINE
  5
3107
330
AE5
100
AcDbEntity
  8
DIM
100
AcDbLine
 10
24.36796120524919
 20
21.9013780187328
 30
0.0
 11
24.36796120524919
 21
20.08814717645746
 31
0.0
  0
MTEXT
  5
3108
330
AE5
100
AcDbEntity
  8
DIM
100
AcDbMText
 10
22.26891358620156
 20
21.90137801873281
 30
0.0
 40
0.8
 41
0.0
 71
     5
 72
     1
  1
\A1;1.93\P{\H0.8x; [49]
  7
ROMANS
  0
INSERT
  5
3109
330
AE5
100
AcDbEntity
  8
DIM
100
AcDbBlockReference
  2
SEARROW
 10
24.36796120524919
 20
18.15814717645745
 30
0.0
 41
0.5600000000000001
 42
0.5600000000000001
 43
0.5600000000000001
 50
270.0
  0
INSERT
  5
310A
330
AE5
100
AcDbEntity
  8
DIM
100
AcDbBlockReference
  2
SEARROW
 10
24.36796120524919
 20
20.08814717645746
 30
0.0
 41
0.5600000000000001
 42
0.5600000000000001
 43
0.5600000000000001
 50
90.0
  0
POINT
  5
310B
330
AE5
100
AcDbEntity
  8
DEFPOINTS
 62
     0
100
AcDbPoint
 10
26.93029455468634
 20
18.15814717645745
 30
0.0
  0
POINT
  5
310C
330
AE5
100
AcDbEntity
  8
DEFPOINTS
 62
     0
100
AcDbPoint
 10
28.56434350349876
 20
20.08814717645746
 30
0.0
  0
POINT
  5
310D
330
AE5
100
AcDbEntity
  8
DEFPOINTS
 62
     0
100
AcDbPoint
 10
24.36796120524919
 20
20.08814717645746
 30
0.0
  0
ENDBLK
  5
AF2
330
AE5
100
AcDbEntity
  8
0
100
AcDbBlockEnd
  0
BLOCK
  5
AFE
330
AF3
100
AcDbEntity
  8
0
100
AcDbBlockBegin
  2
*D8
 70
     1
 10
0.0
 20
0.0
 30
0.0
  3
*D8
  1

  0
LINE
  5
2F1E
330
AF3
100
AcDbEntity
  8
DIM
100
AcDbLine
 10
39.01529455468641
 20
19.22219611209561
 30
0.0
 11
39.01529455468641
 21
15.39207616805261
 31
0.0
  0
LINE
  5
2F1F
330
AF3
100
AcDbEntity
  8
DIM
100
AcDbLine
 10
42.95529455468644
 20
19.84814717645744
 30
0.0
 11
42.95529455468644
 21
15.39207616805261
 31
0.0
  0
LINE
  5
2F20
330
AF3
100
AcDbEntity
  8
DIM
100
AcDbLine
 10
38.45529455468641
 20
15.89207616805261
 30
0.0
 11
37.89529455468641
 21
15.89207616805261
 31
0.0
  0
LINE
  5
2F21
330
AF3
100
AcDbEntity
  8
DIM
100
AcDbLine
 10
43.51529455468644
 20
15.89207616805261
 30
0.0
 11
44.07529455468643
 21
15.89207616805261
 31
0.0
  0
INSERT
  5
2F22
330
AF3
100
AcDbEntity
  8
DIM
100
AcDbBlockReference
  2
SEARROW
 10
39.01529455468641
 20
15.89207616805261
 30
0.0
 41
0.5600000000000001
 42
0.5600000000000001
 43
0.5600000000000001
  0
INSERT
  5
2F23
330
AF3
100
AcDbEntity
  8
DIM
100
AcDbBlockReference
  2
SEARROW
 10
42.95529455468644
 20
15.89207616805261
 30
0.0
 41
0.5600000000000001
 42
0.5600000000000001
 43
0.5600000000000001
 50
180.0
  0
MTEXT
  5
2F24
330
AF3
100
AcDbEntity
  8
DIM
100
AcDbMText
 10
40.63044277012155
 20
15.89207616805261
 30
0.0
 40
0.8
 41
0.0
 71
     5
 72
     1
  1
\A1;3.94\P{\H0.8x; [100]
  7
ROMANS
1001
ACAD
1000
MTEXTBEGIN
1070
    73
1070
     1
1070
    44
1040
1.0
1070
    74
1070
     0
1000
MTEXTEND
  0
POINT
  5
2F25
330
AF3
100
AcDbEntity
  8
DEFPOINTS
 62
     0
100
AcDbPoint
 10
39.01529455468641
 20
19.72219611209561
 30
0.0
  0
POINT
  5
2F26
330
AF3
100
AcDbEntity
  8
DEFPOINTS
 62
     0
100
AcDbPoint
 10
42.95529455468644
 20
20.34814717645744
 30
0.0
  0
POINT
  5
2F27
330
AF3
100
AcDbEntity
  8
DEFPOINTS
 62
     0
100
AcDbPoint
 10
42.95529455468644
 20
15.89207616805261
 30
0.0
  0
ENDBLK
  5
AFF
330
AF3
100
AcDbEntity
  8
0
100
AcDbBlockEnd
  0
BLOCK
  5
B0B
330
B00
100
AcDbEntity
  8
0
100
AcDbBlockBegin
  2
*D9
 70
     1
 10
0.0
 20
0.0
 30
0.0
  3
*D9
  1

  0
LINE
  5
2F28
330
B00
100
AcDbEntity
  8
DIM
100
AcDbLine
 10
42.95529455468644
 20
19.48219611209561
 30
0.0
 11
42.95529455468644
 21
12.62705983968818
 31
0.0
  0
LINE
  5
2F29
330
B00
100
AcDbEntity
  8
DIM
100
AcDbLine
 10
45.30529455468636
 20
17.65814717645744
 30
0.0
 11
45.30529455468636
 21
12.62705983968818
 31
0.0
  0
LINE
  5
2F2A
330
B00
100
AcDbEntity
  8
DIM
100
AcDbLine
 10
43.51529455468644
 20
13.12705983968818
 30
0.0
 11
44.74529455468636
 21
13.12705983968818
 31
0.0
  0
LINE
  5
2F2B
330
B00
100
AcDbEntity
  8
DIM
100
AcDbLine
 10
45.30529455468636
 20
13.12705983968818
 30
0.0
 11
46.17005645944826
 21
13.12705983968818
 31
0.0
  0
INSERT
  5
2F2C
330
B00
100
AcDbEntity
  8
DIM
100
AcDbBlockReference
  2
SEARROW
 10
42.95529455468644
 20
13.12705983968818
 30
0.0
 41
0.5600000000000001
 42
0.5600000000000001
 43
0.5600000000000001
 50
180.0
  0
INSERT
  5
2F2D
330
B00
100
AcDbEntity
  8
DIM
100
AcDbBlockReference
  2
SEARROW
 10
45.30529455468636
 20
13.12705983968818
 30
0.0
 41
0.5600000000000001
 42
0.5600000000000001
 43
0.5600000000000001
  0
MTEXT
  5
2F2E
330
B00
100
AcDbEntity
  8
DIM
100
AcDbMText
 10
47.70910407849588
 20
13.12705983968818
 30
0.0
 40
0.8
 41
0.0
 71
     5
 72
     1
  1
\A1;2.35\P{\H0.8x; [60]
  7
ROMANS
1001
ACAD
1000
MTEXTBEGIN
1070
    73
1070
     1
1070
    44
1040
1.0
1070
    74
1070
     0
1000
MTEXTEND
  0
POINT
  5
2F2F
330
B00
100
AcDbEntity
  8
DEFPOINTS
 62
     0
100
AcDbPoint
 10
42.95529455468644
 20
19.98219611209561
 30
0.0
  0
POINT
  5
2F30
330
B00
100
AcDbEntity
  8
DEFPOINTS
 62
     0
100
AcDbPoint
 10
45.30529455468636
 20
18.15814717645744
 30
0.0
  0
POINT
  5
2F31
330
B00
100
AcDbEntity
  8
DEFPOINTS
 62
     0
100
AcDbPoint
 10
45.30529455468636
 20
13.12705983968818
 30
0.0
  0
ENDBLK
  5
B0C
330
B00
100
AcDbEntity
  8
0
100
AcDbBlockEnd
  0
BLOCK
  5
B19
330
B0D
100
AcDbEntity
  8
0
100
AcDbBlockBegin
  2
*D10
 70
     1
 10
0.0
 20
0.0
 30
0.0
  3
*D10
  1

  0
LINE
  5
310E
330
B0D
100
AcDbEntity
  8
DIM
100
AcDbLine
 10
43.82124560587402
 20
20.34814717645744
 30
0.0
 11
47.99196386050128
 21
20.34814717645744
 31
0.0
  0
LINE
  5
310F
330
B0D
100
AcDbEntity
  8
DIM
100
AcDbLine
 10
45.80529455468636
 20
18.15814717645747
 30
0.0
 11
47.99196386050128
 21
18.15814717645747
 31
0.0
  0
LINE
  5
3110
330
B0D
100
AcDbEntity
  8
DIM
100
AcDbLine
 10
47.49196386050128
 20
19.78814717645744
 30
0.0
 11
47.49196386050128
 21
18.71814717645747
 31
0.0
  0
LINE
  5
3111
330
B0D
100
AcDbEntity
  8
DIM
100
AcDbLine
 10
48.05196386050128
 20
16.15014425431701
 30
0.0
 11
47.49196386050128
 21
16.15014425431701
 31
0.0
  0
LINE
  5
3112
330
B0D
100
AcDbEntity
  8
DIM
100
AcDbLine
 10
47.49196386050128
 20
16.15014425431701
 30
0.0
 11
47.49196386050128
 21
18.15814717645747
 31
0.0
  0
MTEXT
  5
3113
330
B0D
100
AcDbEntity
  8
DIM
100
AcDbMText
 10
49.59101147954889
 20
16.15014425431702
 30
0.0
 40
0.8
 41
0.0
 71
     5
 72
     1
  1
\A1;2.19\P{\H0.8x; [56]
  7
ROMANS
  0
INSERT
  5
3114
330
B0D
100
AcDbEntity
  8
DIM
100
AcDbBlockReference
  2
SEARROW
 10
47.49196386050128
 20
20.34814717645744
 30
0.0
 41
0.5600000000000001
 42
0.5600000000000001
 43
0.5600000000000001
 50
90.0
  0
INSERT
  5
3115
330
B0D
100
AcDbEntity
  8
DIM
100
AcDbBlockReference
  2
SEARROW
 10
47.49196386050128
 20
18.15814717645747
 30
0.0
 41
0.5600000000000001
 42
0.5600000000000001
 43
0.5600000000000001
 50
270.0
  0
POINT
  5
3116
330
B0D
100
AcDbEntity
  8
DEFPOINTS
 62
     0
100
AcDbPoint
 10
43.32124560587401
 20
20.34814717645744
 30
0.0
  0
POINT
  5
3117
330
B0D
100
AcDbEntity
  8
DEFPOINTS
 62
     0
100
AcDbPoint
 10
45.30529455468636
 20
18.15814717645747
 30
0.0
  0
POINT
  5
3118
330
B0D
100
AcDbEntity
  8
DEFPOINTS
 62
     0
100
AcDbPoint
 10
47.49196386050128
 20
18.15814717645747
 30
0.0
  0
ENDBLK
  5
B1A
330
B0D
100
AcDbEntity
  8
0
100
AcDbBlockEnd
  0
BLOCK
  5
B27
330
B1B
100
AcDbEntity
  8
0
100
AcDbBlockBegin
  2
*D11
 70
     1
 10
0.0
 20
0.0
 30
0.0
  3
*D11
  1

  0
LINE
  5
3119
330
B1B
100
AcDbEntity
  8
DIM
100
AcDbLine
 10
45.80529455468638
 20
22.52814717645744
 30
0.0
 11
52.09369130355016
 21
22.52814717645744
 31
0.0
  0
LINE
  5
311A
330
B1B
100
AcDbEntity
  8
DIM
100
AcDbLine
 10
45.80529455468636
 20
18.15814717645747
 30
0.0
 11
52.09369130355016
 21
18.15814717645747
 31
0.0
  0
LINE
  5
311B
330
B1B
100
AcDbEntity
  8
DIM
100
AcDbLine
 10
51.59369130355016
 20
21.96814717645744
 30
0.0
 11
51.59369130355016
 21
18.71814717645747
 31
0.0
  0
LINE
  5
311C
330
B1B
100
AcDbEntity
  8
DIM
100
AcDbLine
 10
52.15369130355016
 20
23.96481274885022
 30
0.0
 11
51.59369130355016
 21
23.96481274885022
 31
0.0
  0
LINE
  5
311D
330
B1B
100
AcDbEntity
  8
DIM
100
AcDbLine
 10
51.59369130355016
 20
23.96481274885022
 30
0.0
 11
51.59369130355016
 21
22.52814717645744
 31
0.0
  0
MTEXT
  5
311E
330
B1B
100
AcDbEntity
  8
DIM
100
AcDbMText
 10
53.99750082735967
 20
23.96481274885023
 30
0.0
 40
0.8
 41
0.0
 71
     5
 72
     1
  1
\A1;4.37\P{\H0.8x; [111]
  7
ROMANS
  0
INSERT
  5
311F
330
B1B
100
AcDbEntity
  8
DIM
100
AcDbBlockReference
  2
SEARROW
 10
51.59369130355016
 20
22.52814717645744
 30
0.0
 41
0.5600000000000001
 42
0.5600000000000001
 43
0.5600000000000001
 50
90.0
  0
INSERT
  5
3120
330
B1B
100
AcDbEntity
  8
DIM
100
AcDbBlockReference
  2
SEARROW
 10
51.59369130355016
 20
18.15814717645747
 30
0.0
 41
0.5600000000000001
 42
0.5600000000000001
 43
0.5600000000000001
 50
270.0
  0
POINT
  5
3121
330
B1B
100
AcDbEntity
  8
DEFPOINTS
 62
     0
100
AcDbPoint
 10
45.30529455468637
 20
22.52814717645744
 30
0.0
  0
POINT
  5
3122
330
B1B
100
AcDbEntity
  8
DEFPOINTS
 62
     0
100
AcDbPoint
 10
45.30529455468636
 20
18.15814717645747
 30
0.0
  0
POINT
  5
3123
330
B1B
100
AcDbEntity
  8
DEFPOINTS
 62
     0
100
AcDbPoint
 10
51.59369130355016
 20
18.15814717645747
 30
0.0
  0
ENDBLK
  5
B28
330
B1B
100
AcDbEntity
  8
0
100
AcDbBlockEnd
  0
BLOCK
  5
B34
330
B29
100
AcDbEntity
  8
0
100
AcDbBlockBegin
  2
*D12
 70
     1
 10
0.0
 20
0.0
 30
0.0
  3
*D12
  1

  0
LINE
  5
3124
330
B29
100
AcDbEntity
  8
DIM
100
AcDbLine
 10
10.24843672996075
 20
55.20934950254578
 30
0.0
 11
10.24843672996075
 21
57.84240632525008
 31
0.0
  0
LINE
  5
3125
330
B29
100
AcDbEntity
  8
DIM
100
AcDbLine
 10
14.78843654836074
 20
55.20934950254578
 30
0.0
 11
14.78843654836074
 21
57.84240632525008
 31
0.0
  0
LINE
  5
3126
330
B29
100
AcDbEntity
  8
DIM
100
AcDbLine
 10
9.68843672996075
 20
57.34240632525008
 30
0.0
 11
9.12843672996075
 21
57.34240632525008
 31
0.0
  0
LINE
  5
3127
330
B29
100
AcDbEntity
  8
DIM
100
AcDbLine
 10
15.34843654836074
 20
57.34240632525008
 30
0.0
 11
15.90843654836074
 21
57.34240632525008
 31
0.0
  0
MTEXT
  5
3128
330
B29
100
AcDbEntity
  8
DIM
100
AcDbMText
 10
12.04279976414334
 20
57.34240632525008
 30
0.0
 40
0.8
 41
0.0
 71
     5
 72
     1
  1
\A1;4.54\P{\H0.8x; [115]
  7
ROMANS
  0
INSERT
  5
3129
330
B29
100
AcDbEntity
  8
DIM
100
AcDbBlockReference
  2
SEARROW
 10
10.24843672996075
 20
57.34240632525008
 30
0.0
 41
0.5600000000000001
 42
0.5600000000000001
 43
0.5600000000000001
  0
INSERT
  5
312A
330
B29
100
AcDbEntity
  8
DIM
100
AcDbBlockReference
  2
SEARROW
 10
14.78843654836074
 20
57.34240632525008
 30
0.0
 41
0.5600000000000001
 42
0.5600000000000001
 43
0.5600000000000001
 50
180.0
  0
POINT
  5
312B
330
B29
100
AcDbEntity
  8
DEFPOINTS
 62
     0
100
AcDbPoint
 10
10.24843672996075
 20
54.70934950254578
 30
0.0
  0
POINT
  5
312C
330
B29
100
AcDbEntity
  8
DEFPOINTS
 62
     0
100
AcDbPoint
 10
14.78843654836074
 20
54.70934950254578
 30
0.0
  0
POINT
  5
312D
330
B29
100
AcDbEntity
  8
DEFPOINTS
 62
     0
100
AcDbPoint
 10
14.78843654836074
 20
57.34240632525008
 30
0.0
  0
ENDBLK
  5
B35
330
B29
100
AcDbEntity
  8
0
100
AcDbBlockEnd
  0
BLOCK
  5
B40
330
B36
100
AcDbEntity
  8
0
100
AcDbBlockBegin
  2
*D13
 70
     1
 10
0.0
 20
0.0
 30
0.0
  3
*D13
  1

  0
LINE
  5
312E
330
B36
100
AcDbEntity
  8
DIM
100
AcDbLine
 10
11.31248560157315
 20
38.9393495656258
 30
0.0
 11
6.868261749144944
 21
38.9393495656258
 31
0.0
  0
LINE
  5
312F
330
B36
100
AcDbEntity
  8
DIM
100
AcDbLine
 10
9.74843672996074
 20
36.47934957546578
 30
0.0
 11
6.868261749144943
 21
36.47934957546578
 31
0.0
  0
LINE
  5
3130
330
B36
100
AcDbEntity
  8
DIM
100
AcDbLine
 10
7.368261749144944
 20
38.37934956562579
 30
0.0
 11
7.368261749144943
 21
37.03934957546578
 31
0.0
  0
MTEXT
  5
3131
330
B36
100
AcDbEntity
  8
DIM
100
AcDbMText
 10
4.435218019184441
 20
37.65804012511681
 30
0.0
 40
0.8
 41
0.0
 71
     5
 72
     1
  1
\A1;2.46\P{\H0.8x; [63]
  7
ROMANS
  0
INSERT
  5
3132
330
B36
100
AcDbEntity
  8
DIM
100
AcDbBlockReference
  2
SEARROW
 10
7.368261749144944
 20
38.9393495656258
 30
0.0
 41
0.5600000000000001
 42
0.5600000000000001
 43
0.5600000000000001
 50
90.0
  0
INSERT
  5
3133
330
B36
100
AcDbEntity
  8
DIM
100
AcDbBlockReference
  2
SEARROW
 10
7.368261749144943
 20
36.47934957546578
 30
0.0
 41
0.5600000000000001
 42
0.5600000000000001
 43
0.5600000000000001
 50
270.0
  0
POINT
  5
3134
330
B36
100
AcDbEntity
  8
DEFPOINTS
 62
     0
100
AcDbPoint
 10
11.81248560157315
 20
38.9393495656258
 30
0.0
  0
POINT
  5
3135
330
B36
100
AcDbEntity
  8
DEFPOINTS
 62
     0
100
AcDbPoint
 10
10.24843672996074
 20
36.47934957546578
 30
0.0
  0
POINT
  5
3136
330
B36
100
AcDbEntity
  8
DEFPOINTS
 62
     0
100
AcDbPoint
 10
7.368261749144943
 20
36.47934957546578
 30
0.0
  0
ENDBLK
  5
B41
330
B36
100
AcDbEntity
  8
0
100
AcDbBlockEnd
  0
BLOCK
  5
B4C
330
B42
100
AcDbEntity
  8
0
100
AcDbBlockBegin
  2
*D14
 70
     1
 10
0.0
 20
0.0
 30
0.0
  3
*D14
  1

  0
LINE
  5
3137
330
B42
100
AcDbEntity
  8
DIM
100
AcDbLine
 10
10.24843672996074
 20
35.97934957546577
 30
0.0
 11
10.24843672996074
 21
33.39118581230484
 31
0.0
  0
LINE
  5
3138
330
B42
100
AcDbEntity
  8
DIM
100
AcDbLine
 10
12.17843665276073
 20
38.07339850126396
 30
0.0
 11
12.17843665276073
 21
33.39118581230484
 31
0.0
  0
LINE
  5
3139
330
B42
100
AcDbEntity
  8
DIM
100
AcDbLine
 10
10.80843672996074
 20
33.89118581230484
 30
0.0
 11
11.61843665276073
 21
33.89118581230484
 31
0.0
  0
MTEXT
  5
313A
330
B42
100
AcDbEntity
  8
DIM
100
AcDbMText
 10
11.21788138494417
 20
31.49118581230484
 30
0.0
 40
0.8
 41
0.0
 71
     5
 72
     1
  1
\A1;1.93\P{\H0.8x; [49]
  7
ROMANS
  0
INSERT
  5
313B
330
B42
100
AcDbEntity
  8
DIM
100
AcDbBlockReference
  2
SEARROW
 10
10.24843672996074
 20
33.89118581230484
 30
0.0
 41
0.5600000000000001
 42
0.5600000000000001
 43
0.5600000000000001
 50
180.0
  0
INSERT
  5
313C
330
B42
100
AcDbEntity
  8
DIM
100
AcDbBlockReference
  2
SEARROW
 10
12.17843665276073
 20
33.89118581230484
 30
0.0
 41
0.5600000000000001
 42
0.5600000000000001
 43
0.5600000000000001
  0
POINT
  5
313D
330
B42
100
AcDbEntity
  8
DEFPOINTS
 62
     0
100
AcDbPoint
 10
10.24843672996074
 20
36.47934957546577
 30
0.0
  0
POINT
  5
313E
330
B42
100
AcDbEntity
  8
DEFPOINTS
 62
     0
100
AcDbPoint
 10
12.17843665276073
 20
38.57339850126395
 30
0.0
  0
POINT
  5
313F
330
B42
100
AcDbEntity
  8
DEFPOINTS
 62
     0
100
AcDbPoint
 10
12.17843665276073
 20
33.89118581230484
 30
0.0
  0
ENDBLK
  5
B4D
330
B42
100
AcDbEntity
  8
0
100
AcDbBlockEnd
  0
BLOCK
  5
B59
330
B4E
100
AcDbEntity
  8
0
100
AcDbBlockBegin
  2
*D15
 70
     1
 10
0.0
 20
0.0
 30
0.0
  3
*D15
  1

  0
LINE
  5
3140
330
B4E
100
AcDbEntity
  8
DIM
100
AcDbLine
 10
26.32779494628637
 20
55.20934950254577
 30
0.0
 11
26.32779494628637
 21
57.84240632525008
 31
0.0
  0
LINE
  5
3141
330
B4E
100
AcDbEntity
  8
DIM
100
AcDbLine
 10
45.90779416308635
 20
55.20934950254577
 30
0.0
 11
45.90779416308635
 21
57.84240632525008
 31
0.0
  0
LINE
  5
3142
330
B4E
100
AcDbEntity
  8
DIM
100
AcDbLine
 10
26.88779494628637
 20
57.34240632525008
 30
0.0
 11
34.25493741182922
 21
57.34240632525008
 31
0.0
  0
LINE
  5
3143
330
B4E
100
AcDbEntity
  8
DIM
100
AcDbLine
 10
45.34779416308635
 20
57.34240632525008
 30
0.0
 11
37.9806516975435
 21
57.34240632525008
 31
0.0
  0
INSERT
  5
3144
330
B4E
100
AcDbEntity
  8
DIM
100
AcDbBlockReference
  2
SEARROW
 10
26.32779494628637
 20
57.34240632525008
 30
0.0
 41
0.5600000000000001
 42
0.5600000000000001
 43
0.5600000000000001
 50
180.0
  0
INSERT
  5
3145
330
B4E
100
AcDbEntity
  8
DIM
100
AcDbBlockReference
  2
SEARROW
 10
45.90779416308635
 20
57.34240632525008
 30
0.0
 41
0.5600000000000001
 42
0.5600000000000001
 43
0.5600000000000001
  0
MTEXT
  5
3146
330
B4E
100
AcDbEntity
  8
DIM
100
AcDbMText
 10
36.11779455468636
 20
57.34240632525008
 30
0.0
 40
0.8
 41
0.0
 71
     5
 72
     1
  1
\A1;19.58\P{\H0.8x; [497]
  7
ROMANS
  0
POINT
  5
3147
330
B4E
100
AcDbEntity
  8
DEFPOINTS
 62
     0
100
AcDbPoint
 10
26.32779494628637
 20
54.70934950254576
 30
0.0
  0
POINT
  5
3148
330
B4E
100
AcDbEntity
  8
DEFPOINTS
 62
     0
100
AcDbPoint
 10
45.90779416308635
 20
54.70934950254576
 30
0.0
  0
POINT
  5
3149
330
B4E
100
AcDbEntity
  8
DEFPOINTS
 62
     0
100
AcDbPoint
 10
45.90779416308635
 20
57.34240632525008
 30
0.0
  0
ENDBLK
  5
B5A
330
B4E
100
AcDbEntity
  8
0
100
AcDbBlockEnd
  0
BLOCK
  5
B66
330
B5B
100
AcDbEntity
  8
0
100
AcDbBlockBegin
  2
*D16
 70
     1
 10
0.0
 20
0.0
 30
0.0
  3
*D16
  1

  0
LINE
  5
314A
330
B5B
100
AcDbEntity
  8
DIM
100
AcDbLine
 10
46.40779416308634
 20
54.70934950254576
 30
0.0
 11
50.50181682765799
 21
54.70934950254576
 31
0.0
  0
LINE
  5
314B
330
B5B
100
AcDbEntity
  8
DIM
100
AcDbLine
 10
42.27476527276451
 20
44.00934954534576
 30
0.0
 11
50.50181682765798
 21
44.00934954534576
 31
0.0
  0
LINE
  5
314C
330
B5B
100
AcDbEntity
  8
DIM
100
AcDbLine
 10
50.00181682765798
 20
54.14934950254576
 30
0.0
 11
50.00181682765798
 21
50.85268285727909
 31
0.0
  0
LINE
  5
314D
330
B5B
100
AcDbEntity
  8
DIM
100
AcDbLine
 10
50.00181682765798
 20
44.56934954534576
 30
0.0
 11
50.00181682765798
 21
47.86601619061243
 31
0.0
  0
INSERT
  5
314E
330
B5B
100
AcDbEntity
  8
DIM
100
AcDbBlockReference
  2
SEARROW
 10
50.00181682765798
 20
54.70934950254576
 30
0.0
 41
0.5600000000000001
 42
0.5600000000000001
 43
0.5600000000000001
 50
90.0
  0
INSERT
  5
314F
330
B5B
100
AcDbEntity
  8
DIM
100
AcDbBlockReference
  2
SEARROW
 10
50.00181682765798
 20
44.00934954534576
 30
0.0
 41
0.5600000000000001
 42
0.5600000000000001
 43
0.5600000000000001
 50
270.0
  0
MTEXT
  5
3150
330
B5B
100
AcDbEntity
  8
DIM
100
AcDbMText
 10
50.00181682765798
 20
49.35934952394577
 30
0.0
 40
0.8
 41
0.0
 71
     5
 72
     1
  1
\A1;10.70\P{\H0.8x; [272]
  7
ROMANS
  0
POINT
  5
3151
330
B5B
100
AcDbEntity
  8
DEFPOINTS
 62
     0
100
AcDbPoint
 10
45.90779416308635
 20
54.70934950254576
 30
0.0
  0
POINT
  5
3152
330
B5B
100
AcDbEntity
  8
DEFPOINTS
 62
     0
100
AcDbPoint
 10
41.77476527276451
 20
44.00934954534576
 30
0.0
  0
POINT
  5
3153
330
B5B
100
AcDbEntity
  8
DEFPOINTS
 62
     0
100
AcDbPoint
 10
50.00181682765798
 20
44.00934954534576
 30
0.0
  0
ENDBLK
  5
B67
330
B5B
100
AcDbEntity
  8
0
100
AcDbBlockEnd
  0
BLOCK
  5
B73
330
B68
100
AcDbEntity
  8
0
100
AcDbBlockBegin
  2
*D17
 70
     1
 10
0.0
 20
0.0
 30
0.0
  3
*D17
  1

  0
LINE
  5
3154
330
B68
100
AcDbEntity
  8
DIM
100
AcDbLine
 10
46.40779416308634
 20
54.70934950254576
 30
0.0
 11
54.94721086619676
 21
54.70934950254576
 31
0.0
  0
LINE
  5
3155
330
B68
100
AcDbEntity
  8
DIM
100
AcDbLine
 10
45.80529455468635
 20
36.47934957546576
 30
0.0
 11
54.94721086619676
 21
36.47934957546576
 31
0.0
  0
LINE
  5
3156
330
B68
100
AcDbEntity
  8
DIM
100
AcDbLine
 10
54.44721086619677
 20
54.14934950254576
 30
0.0
 11
54.44721086619676
 21
47.08768287233909
 31
0.0
  0
LINE
  5
3157
330
B68
100
AcDbEntity
  8
DIM
100
AcDbLine
 10
54.44721086619676
 20
37.03934957546576
 30
0.0
 11
54.44721086619676
 21
44.10101620567242
 31
0.0
  0
INSERT
  5
3158
330
B68
100
AcDbEntity
  8
DIM
100
AcDbBlockReference
  2
SEARROW
 10
54.44721086619677
 20
54.70934950254576
 30
0.0
 41
0.5600000000000001
 42
0.5600000000000001
 43
0.5600000000000001
 50
90.0
  0
INSERT
  5
3159
330
B68
100
AcDbEntity
  8
DIM
100
AcDbBlockReference
  2
SEARROW
 10
54.44721086619676
 20
36.47934957546576
 30
0.0
 41
0.5600000000000001
 42
0.5600000000000001
 43
0.5600000000000001
 50
270.0
  0
MTEXT
  5
315A
330
B68
100
AcDbEntity
  8
DIM
100
AcDbMText
 10
54.44721086619676
 20
45.59434953900577
 30
0.0
 40
0.8
 41
0.0
 71
     5
 72
     1
  1
\A1;18.23\P{\H0.8x; [463]
  7
ROMANS
  0
POINT
  5
315B
330
B68
100
AcDbEntity
  8
DEFPOINTS
 62
     0
100
AcDbPoint
 10
45.90779416308635
 20
54.70934950254576
 30
0.0
  0
POINT
  5
315C
330
B68
100
AcDbEntity
  8
DEFPOINTS
 62
     0
100
AcDbPoint
 10
45.30529455468635
 20
36.47934957546576
 30
0.0
  0
POINT
  5
315D
330
B68
100
AcDbEntity
  8
DEFPOINTS
 62
     0
100
AcDbPoint
 10
54.44721086619676
 20
36.47934957546576
 30
0.0
  0
ENDBLK
  5
B74
330
B68
100
AcDbEntity
  8
0
100
AcDbBlockEnd
  0
BLOCK
  5
B80
330
B75
100
AcDbEntity
  8
0
100
AcDbBlockBegin
  2
*D18
 70
     1
 10
0.0
 20
0.0
 30
0.0
  3
*D18
  1

  0
LINE
  5
315E
330
B75
100
AcDbEntity
  8
DIM
100
AcDbLine
 10
26.93029455468634
 20
35.97934957546577
 30
0.0
 11
26.93029455468634
 21
33.39118581230484
 31
0.0
  0
LINE
  5
315F
330
B75
100
AcDbEntity
  8
DIM
100
AcDbLine
 10
29.34029445828635
 20
38.58339851110394
 30
0.0
 11
29.34029445828635
 21
33.39118581230484
 31
0.0
  0
LINE
  5
3160
330
B75
100
AcDbEntity
  8
DIM
100
AcDbLine
 10
27.49029455468633
 20
33.89118581230484
 30
0.0
 11
28.78029445828635
 21
33.89118581230484
 31
0.0
  0
LINE
  5
3161
330
B75
100
AcDbEntity
  8
DIM
100
AcDbLine
 10
30.26173659334567
 20
33.89118581230484
 30
0.0
 11
29.34029445828635
 21
33.89118581230484
 31
0.0
  0
MTEXT
  5
3162
330
B75
100
AcDbEntity
  8
DIM
100
AcDbMText
 10
31.80078421239329
 20
33.89118581230484
 30
0.0
 40
0.8
 41
0.0
 71
     5
 72
     1
  1
\A1;2.41\P{\H0.8x; [61]
  7
ROMANS
  0
INSERT
  5
3163
330
B75
100
AcDbEntity
  8
DIM
100
AcDbBlockReference
  2
SEARROW
 10
26.93029455468634
 20
33.89118581230484
 30
0.0
 41
0.5600000000000001
 42
0.5600000000000001
 43
0.5600000000000001
 50
180.0
  0
INSERT
  5
3164
330
B75
100
AcDbEntity
  8
DIM
100
AcDbBlockReference
  2
SEARROW
 10
29.34029445828635
 20
33.89118581230484
 30
0.0
 41
0.5600000000000001
 42
0.5600000000000001
 43
0.5600000000000001
  0
POINT
  5
3165
330
B75
100
AcDbEntity
  8
DEFPOINTS
 62
     0
100
AcDbPoint
 10
26.93029455468634
 20
36.47934957546576
 30
0.0
  0
POINT
  5
3166
330
B75
100
AcDbEntity
  8
DEFPOINTS
 62
     0
100
AcDbPoint
 10
29.34029445828635
 20
39.08339851110394
 30
0.0
  0
POINT
  5
3167
330
B75
100
AcDbEntity
  8
DEFPOINTS
 62
     0
100
AcDbPoint
 10
29.34029445828635
 20
33.89118581230484
 30
0.0
  0
ENDBLK
  5
B81
330
B75
100
AcDbEntity
  8
0
100
AcDbBlockEnd
  0
BLOCK
  5
B8D
330
B82
100
AcDbEntity
  8
0
100
AcDbBlockBegin
  2
*D19
 70
     1
 10
0.0
 20
0.0
 30
0.0
  3
*D19
  1

  0
LINE
  5
3168
330
B82
100
AcDbEntity
  8
DIM
100
AcDbLine
 10
26.93029455468634
 20
35.97934957546577
 30
0.0
 11
26.93029455468634
 21
30.20180715882379
 31
0.0
  0
LINE
  5
3169
330
B82
100
AcDbEntity
  8
DIM
100
AcDbLine
 10
33.84029427828633
 20
38.17339850086396
 30
0.0
 11
33.84029427828633
 21
30.20180715882379
 31
0.0
  0
LINE
  5
316A
330
B82
100
AcDbEntity
  8
DIM
100
AcDbLine
 10
27.49029455468633
 20
30.70180715882379
 30
0.0
 11
28.5414848926768
 21
30.70180715882379
 31
0.0
  0
LINE
  5
316B
330
B82
100
AcDbEntity
  8
DIM
100
AcDbLine
 10
33.28029427828633
 20
30.70180715882379
 30
0.0
 11
32.22910394029586
 21
30.70180715882379
 31
0.0
  0
INSERT
  5
316C
330
B82
100
AcDbEntity
  8
DIM
100
AcDbBlockReference
  2
SEARROW
 10
26.93029455468634
 20
30.70180715882379
 30
0.0
 41
0.5600000000000001
 42
0.5600000000000001
 43
0.5600000000000001
 50
180.0
  0
INSERT
  5
316D
330
B82
100
AcDbEntity
  8
DIM
100
AcDbBlockReference
  2
SEARROW
 10
33.84029427828633
 20
30.70180715882379
 30
0.0
 41
0.5600000000000001
 42
0.5600000000000001
 43
0.5600000000000001
  0
MTEXT
  5
316E
330
B82
100
AcDbEntity
  8
DIM
100
AcDbMText
 10
30.38529441648633
 20
30.70180715882379
 30
0.0
 40
0.8
 41
0.0
 71
     5
 72
     1
  1
\A1;6.91\P{\H0.8x; [176]
  7
ROMANS
  0
POINT
  5
316F
330
B82
100
AcDbEntity
  8
DEFPOINTS
 62
     0
100
AcDbPoint
 10
26.93029455468634
 20
36.47934957546576
 30
0.0
  0
POINT
  5
3170
330
B82
100
AcDbEntity
  8
DEFPOINTS
 62
     0
100
AcDbPoint
 10
33.84029427828633
 20
38.67339850086396
 30
0.0
  0
POINT
  5
3171
330
B82
100
AcDbEntity
  8
DEFPOINTS
 62
     0
100
AcDbPoint
 10
33.84029427828633
 20
30.70180715882379
 30
0.0
  0
ENDBLK
  5
B8E
330
B82
100
AcDbEntity
  8
0
100
AcDbBlockEnd
  0
BLOCK
  5
B9B
330
B8F
100
AcDbEntity
  8
0
100
AcDbBlockBegin
  2
*D20
 70
     1
 10
0.0
 20
0.0
 30
0.0
  3
*D20
  1

  0
LINE
  5
3172
330
B8F
100
AcDbEntity
  8
DIM
100
AcDbLine
 10
32.97434322709873
 20
39.03934956522577
 30
0.0
 11
24.29027400738374
 21
39.03934956522577
 31
0.0
  0
LINE
  5
3173
330
B8F
100
AcDbEntity
  8
DIM
100
AcDbLine
 10
26.43029455468633
 20
36.47934957546576
 30
0.0
 11
24.29027400738374
 21
36.47934957546576
 31
0.0
  0
LINE
  5
3174
330
B8F
100
AcDbEntity
  8
DIM
100
AcDbLine
 10
24.79027400738374
 20
38.47934956522577
 30
0.0
 11
24.79027400738374
 21
37.03934957546577
 31
0.0
  0
LINE
  5
3175
330
B8F
100
AcDbEntity
  8
DIM
100
AcDbLine
 10
24.23027400738374
 20
33.6179920823281
 30
0.0
 11
24.79027400738374
 21
33.6179920823281
 31
0.0
  0
LINE
  5
3176
330
B8F
100
AcDbEntity
  8
DIM
100
AcDbLine
 10
24.79027400738374
 20
33.6179920823281
 30
0.0
 11
24.79027400738374
 21
36.47934957546576
 31
0.0
  0
MTEXT
  5
3177
330
B8F
100
AcDbEntity
  8
DIM
100
AcDbMText
 10
22.69122638833612
 20
33.61799208232811
 30
0.0
 40
0.8
 41
0.0
 71
     5
 72
     1
  1
\A1;2.56\P{\H0.8x; [65]
  7
ROMANS
  0
INSERT
  5
3178
330
B8F
100
AcDbEntity
  8
DIM
100
AcDbBlockReference
  2
SEARROW
 10
24.79027400738374
 20
39.03934956522577
 30
0.0
 41
0.5600000000000001
 42
0.5600000000000001
 43
0.5600000000000001
 50
90.0
  0
INSERT
  5
3179
330
B8F
100
AcDbEntity
  8
DIM
100
AcDbBlockReference
  2
SEARROW
 10
24.79027400738374
 20
36.47934957546576
 30
0.0
 41
0.5600000000000001
 42
0.5600000000000001
 43
0.5600000000000001
 50
270.0
  0
POINT
  5
317A
330
B8F
100
AcDbEntity
  8
DEFPOINTS
 62
     0
100
AcDbPoint
 10
33.47434322709872
 20
39.03934956522577
 30
0.0
  0
POINT
  5
317B
330
B8F
100
AcDbEntity
  8
DEFPOINTS
 62
     0
100
AcDbPoint
 10
26.93029455468634
 20
36.47934957546576
 30
0.0
  0
POINT
  5
317C
330
B8F
100
AcDbEntity
  8
DEFPOINTS
 62
     0
100
AcDbPoint
 10
24.79027400738374
 20
36.47934957546576
 30
0.0
  0
ENDBLK
  5
B9C
330
B8F
100
AcDbEntity
  8
0
100
AcDbBlockEnd
  0
BLOCK
  5
BA9
330
B9D
100
AcDbEntity
  8
0
100
AcDbBlockBegin
  2
*D21
 70
     1
 10
0.0
 20
0.0
 30
0.0
  3
*D21
  1

  0
LINE
  5
317D
330
B9D
100
AcDbEntity
  8
DIM
100
AcDbLine
 10
26.43029455468633
 20
36.47934957546576
 30
0.0
 11
21.44759066685286
 21
36.47934957546576
 31
0.0
  0
LINE
  5
317E
330
B9D
100
AcDbEntity
  8
DIM
100
AcDbLine
 10
28.47434340709876
 20
39.44934957546577
 30
0.0
 11
21.44759066685286
 21
39.44934957546577
 31
0.0
  0
LINE
  5
317F
330
B9D
100
AcDbEntity
  8
DIM
100
AcDbLine
 10
21.94759066685286
 20
37.03934957546577
 30
0.0
 11
21.94759066685286
 21
38.88934957546576
 31
0.0
  0
LINE
  5
3180
330
B9D
100
AcDbEntity
  8
DIM
100
AcDbLine
 10
21.38759066685287
 20
41.86256176533055
 30
0.0
 11
21.94759066685287
 21
41.86256176533055
 31
0.0
  0
LINE
  5
3181
330
B9D
100
AcDbEntity
  8
DIM
100
AcDbLine
 10
21.94759066685287
 20
41.86256176533055
 30
0.0
 11
21.94759066685286
 21
39.44934957546577
 31
0.0
  0
MTEXT
  5
3182
330
B9D
100
AcDbEntity
  8
DIM
100
AcDbMText
 10
19.84854304780524
 20
41.86256176533056
 30
0.0
 40
0.8
 41
0.0
 71
     5
 72
     1
  1
\A1;2.97\P{\H0.8x; [75]
  7
ROMANS
  0
INSERT
  5
3183
330
B9D
100
AcDbEntity
  8
DIM
100
AcDbBlockReference
  2
SEARROW
 10
21.94759066685286
 20
36.47934957546576
 30
0.0
 41
0.5600000000000001
 42
0.5600000000000001
 43
0.5600000000000001
 50
270.0
  0
INSERT
  5
3184
330
B9D
100
AcDbEntity
  8
DIM
100
AcDbBlockReference
  2
SEARROW
 10
21.94759066685286
 20
39.44934957546577
 30
0.0
 41
0.5600000000000001
 42
0.5600000000000001
 43
0.5600000000000001
 50
90.0
  0
POINT
  5
3185
330
B9D
100
AcDbEntity
  8
DEFPOINTS
 62
     0
100
AcDbPoint
 10
26.93029455468634
 20
36.47934957546576
 30
0.0
  0
POINT
  5
3186
330
B9D
100
AcDbEntity
  8
DEFPOINTS
 62
     0
100
AcDbPoint
 10
28.97434340709876
 20
39.44934957546577
 30
0.0
  0
POINT
  5
3187
330
B9D
100
AcDbEntity
  8
DEFPOINTS
 62
     0
100
AcDbPoint
 10
21.94759066685286
 20
39.44934957546577
 30
0.0
  0
ENDBLK
  5
BAA
330
B9D
100
AcDbEntity
  8
0
100
AcDbBlockEnd
  0
BLOCK
  5
BB8
330
BAB
100
AcDbEntity
  8
0
100
AcDbBlockBegin
  2
*D22
 70
     1
 10
0.0
 20
0.0
 30
0.0
  3
*D22
  1

  0
LINE
  5
3188
330
BAB
100
AcDbEntity
  8
DIM
100
AcDbLine
 10
25.82778694628632
 20
66.97711824319909
 30
0.0
 11
23.9777663873837
 21
66.97711824319909
 31
0.0
  0
LINE
  5
3189
330
BAB
100
AcDbEntity
  8
DIM
100
AcDbLine
 10
30.7181392094342
 20
65.35711824967909
 30
0.0
 11
23.9777663873837
 21
65.35711824967909
 31
0.0
  0
LINE
  5
318A
330
BAB
100
AcDbEntity
  8
DIM
100
AcDbLine
 10
24.4777663873837
 20
67.53711824319909
 30
0.0
 11
24.4777663873837
 21
68.09711824319909
 31
0.0
  0
LINE
  5
318B
330
BAB
100
AcDbEntity
  8
DIM
100
AcDbLine
 10
24.4777663873837
 20
64.79711824967909
 30
0.0
 11
24.4777663873837
 21
64.23711824967909
 31
0.0
  0
LINE
  5
318C
330
BAB
100
AcDbEntity
  8
DIM
100
AcDbLine
 10
23.9177663873837
 20
62.55444622505477
 30
0.0
 11
24.4777663873837
 21
62.55444622505477
 31
0.0
  0
LINE
  5
318D
330
BAB
100
AcDbEntity
  8
DIM
100
AcDbLine
 10
24.4777663873837
 20
62.55444622505477
 30
0.0
 11
24.4777663873837
 21
64.23711824967909
 31
0.0
  0
MTEXT
  5
318E
330
BAB
100
AcDbEntity
  8
DIM
100
AcDbMText
 10
22.37871876833607
 20
62.55444622505478
 30
0.0
 40
0.8
 41
0.0
 71
     5
 72
     1
  1
\A1;1.62\P{\H0.8x; [41]
  7
ROMANS
  0
INSERT
  5
318F
330
BAB
100
AcDbEntity
  8
DIM
100
AcDbBlockReference
  2
SEARROW
 10
24.4777663873837
 20
66.97711824319909
 30
0.0
 41
0.5600000000000001
 42
0.5600000000000001
 43
0.5600000000000001
 50
270.0
  0
INSERT
  5
3190
330
BAB
100
AcDbEntity
  8
DIM
100
AcDbBlockReference
  2
SEARROW
 10
24.4777663873837
 20
65.35711824967909
 30
0.0
 41
0.5600000000000001
 42
0.5600000000000001
 43
0.5600000000000001
 50
90.0
  0
POINT
  5
3191
330
BAB
100
AcDbEntity
  8
DEFPOINTS
 62
     0
100
AcDbPoint
 10
26.32778694628632
 20
66.97711824319909
 30
0.0
  0
POINT
  5
3192
330
BAB
100
AcDbEntity
  8
DEFPOINTS
 62
     0
100
AcDbPoint
 10
31.2181392094342
 20
65.35711824967909
 30
0.0
  0
POINT
  5
3193
330
BAB
100
AcDbEntity
  8
DEFPOINTS
 62
     0
100
AcDbPoint
 10
24.4777663873837
 20
65.35711824967909
 30
0.0
  0
ENDBLK
  5
BB9
330
BAB
100
AcDbEntity
  8
0
100
AcDbBlockEnd
  0
BLOCK
  5
BC5
330
BBA
100
AcDbEntity
  8
0
100
AcDbBlockBegin
  2
*D23
 70
     1
 10
0.0
 20
0.0
 30
0.0
  3
*D23
  1

  0
LINE
  5
3194
330
BBA
100
AcDbEntity
  8
DIM
100
AcDbLine
 10
26.32778694628632
 20
67.47711824319909
 30
0.0
 11
26.32778694628632
 21
70.33714940974157
 31
0.0
  0
LINE
  5
3195
330
BBA
100
AcDbEntity
  8
DIM
100
AcDbLine
 10
31.5877867358863
 20
65.85711824967906
 30
0.0
 11
31.5877867358863
 21
70.33714940974157
 31
0.0
  0
LINE
  5
3196
330
BBA
100
AcDbEntity
  8
DIM
100
AcDbLine
 10
25.76778694628632
 20
69.83714940974157
 30
0.0
 11
25.20778694628631
 21
69.83714940974157
 31
0.0
  0
LINE
  5
3197
330
BBA
100
AcDbEntity
  8
DIM
100
AcDbLine
 10
32.1477867358863
 20
69.83714940974157
 30
0.0
 11
32.7077867358863
 21
69.83714940974157
 31
0.0
  0
INSERT
  5
3198
330
BBA
100
AcDbEntity
  8
DIM
100
AcDbBlockReference
  2
SEARROW
 10
26.32778694628632
 20
69.83714940974157
 30
0.0
 41
0.5600000000000001
 42
0.5600000000000001
 43
0.5600000000000001
  0
INSERT
  5
3199
330
BBA
100
AcDbEntity
  8
DIM
100
AcDbBlockReference
  2
SEARROW
 10
31.5877867358863
 20
69.83714940974157
 30
0.0
 41
0.5600000000000001
 42
0.5600000000000001
 43
0.5600000000000001
 50
180.0
  0
MTEXT
  5
319A
330
BBA
100
AcDbEntity
  8
DIM
100
AcDbMText
 10
28.95778684108631
 20
69.83714940974157
 30
0.0
 40
0.8
 41
0.0
 71
     5
 72
     1
  1
\A1;5.26\P{\H0.8x; [134]
  7
ROMANS
  0
POINT
  5
319B
330
BBA
100
AcDbEntity
  8
DEFPOINTS
 62
     0
100
AcDbPoint
 10
26.32778694628632
 20
66.97711824319909
 30
0.0
  0
POINT
  5
319C
330
BBA
100
AcDbEntity
  8
DEFPOINTS
 62
     0
100
AcDbPoint
 10
31.5877867358863
 20
65.35711824967906
 30
0.0
  0
POINT
  5
319D
330
BBA
100
AcDbEntity
  8
DEFPOINTS
 62
     0
100
AcDbPoint
 10
31.5877867358863
 20
69.83714940974157
 30
0.0
  0
ENDBLK
  5
BC6
330
BBA
100
AcDbEntity
  8
0
100
AcDbBlockEnd
  0
BLOCK
  5
BD2
330
BC7
100
AcDbEntity
  8
0
100
AcDbBlockBegin
  2
*D24
 70
     1
 10
0.0
 20
0.0
 30
0.0
  3
*D24
  1

  0
LINE
  5
319E
330
BC7
100
AcDbEntity
  8
DIM
100
AcDbLine
 10
40.90778636308633
 20
66.22676578943843
 30
0.0
 11
40.90778636308633
 21
70.33714940974157
 31
0.0
  0
LINE
  5
319F
330
BC7
100
AcDbEntity
  8
DIM
100
AcDbLine
 10
45.90778616308634
 20
67.47711824319906
 30
0.0
 11
45.90778616308634
 21
70.33714940974157
 31
0.0
  0
LINE
  5
31A0
330
BC7
100
AcDbEntity
  8
DIM
100
AcDbLine
 10
40.34778636308632
 20
69.83714940974157
 30
0.0
 11
39.78778636308633
 21
69.83714940974157
 31
0.0
  0
LINE
  5
31A1
330
BC7
100
AcDbEntity
  8
DIM
100
AcDbLine
 10
46.46778616308634
 20
69.83714940974157
 30
0.0
 11
47.02778616308633
 21
69.83714940974157
 31
0.0
  0
INSERT
  5
31A2
330
BC7
100
AcDbEntity
  8
DIM
100
AcDbBlockReference
  2
SEARROW
 10
40.90778636308633
 20
69.83714940974157
 30
0.0
 41
0.5600000000000001
 42
0.5600000000000001
 43
0.5600000000000001
  0
INSERT
  5
31A3
330
BC7
100
AcDbEntity
  8
DIM
100
AcDbBlockReference
  2
SEARROW
 10
45.90778616308634
 20
69.83714940974157
 30
0.0
 41
0.5600000000000001
 42
0.5600000000000001
 43
0.5600000000000001
 50
180.0
  0
MTEXT
  5
31A4
330
BC7
100
AcDbEntity
  8
DIM
100
AcDbMText
 10
43.40778626308633
 20
69.83714940974157
 30
0.0
 40
0.8
 41
0.0
 71
     5
 72
     1
  1
\A1;5.00\P{\H0.8x; [127]
  7
ROMANS
  0
POINT
  5
31A5
330
BC7
100
AcDbEntity
  8
DEFPOINTS
 62
     0
100
AcDbPoint
 10
40.90778636308633
 20
65.72676578943843
 30
0.0
  0
POINT
  5
31A6
330
BC7
100
AcDbEntity
  8
DEFPOINTS
 62
     0
100
AcDbPoint
 10
45.90778616308634
 20
66.97711824319906
 30
0.0
  0
POINT
  5
31A7
330
BC7
100
AcDbEntity
  8
DEFPOINTS
 62
     0
100
AcDbPoint
 10
45.90778616308634
 20
69.83714940974157
 30
0.0
  0
ENDBLK
  5
BD3
330
BC7
100
AcDbEntity
  8
0
100
AcDbBlockEnd
  0
BLOCK
  5
CD8
330
CCD
100
AcDbEntity
  8
0
100
AcDbBlockBegin
  2
*D25
 70
     1
 10
0.0
 20
0.0
 30
0.0
  3
*D25
  1

  0
LINE
  5
2FCC
330
CCD
100
AcDbEntity
  8
DIM
100
AcDbLine
 10
27.49029455468636
 20
49.95082550483679
 30
0.0
 11
29.96148503087683
 21
49.95082550483679
 31
0.0
  0
LINE
  5
2FCD
330
CCD
100
AcDbEntity
  8
DIM
100
AcDbLine
 10
36.12029455468635
 20
49.95082550483679
 30
0.0
 11
33.64910407849588
 21
49.95082550483679
 31
0.0
  0
INSERT
  5
2FCE
330
CCD
100
AcDbEntity
  8
DIM
100
AcDbBlockReference
  2
SEARROW
 10
26.93029455468636
 20
49.95082550483679
 30
0.0
 41
0.5600000000000001
 42
0.5600000000000001
 43
0.5600000000000001
 50
180.0
  0
INSERT
  5
2FCF
330
CCD
100
AcDbEntity
  8
DIM
100
AcDbBlockReference
  2
SEARROW
 10
36.68029455468635
 20
49.95082550483679
 30
0.0
 41
0.5600000000000001
 42
0.5600000000000001
 43
0.5600000000000001
  0
MTEXT
  5
2FD0
330
CCD
100
AcDbEntity
  8
DIM
100
AcDbMText
 10
31.80529455468636
 20
49.95082550483679
 30
0.0
 40
0.8
 41
0.0
 71
     5
 72
     1
  1
\A1;9.75\P{\H0.8x; [248]\PINSIDE
  7
ROMANS
1001
ACAD
1000
MTEXTBEGIN
1070
    73
1070
     1
1070
    44
1040
1.0
1070
    74
1070
     0
1000
MTEXTEND
  0
POINT
  5
2FD1
330
CCD
100
AcDbEntity
  8
DEFPOINTS
 62
     0
100
AcDbPoint
 10
26.93029455468636
 20
49.95082550483679
 30
0.0
  0
POINT
  5
2FD2
330
CCD
100
AcDbEntity
  8
DEFPOINTS
 62
     0
100
AcDbPoint
 10
36.68029455468635
 20
49.95082550483679
 30
0.0
  0
POINT
  5
2FD3
330
CCD
100
AcDbEntity
  8
DEFPOINTS
 62
     0
100
AcDbPoint
 10
36.68029455468635
 20
49.95082550483679
 30
0.0
  0
ENDBLK
  5
CD9
330
CCD
100
AcDbEntity
  8
0
100
AcDbBlockEnd
  0
BLOCK
  5
CE6
330
CDB
100
AcDbEntity
  8
0
100
AcDbBlockBegin
  2
*D26
 70
     1
 10
0.0
 20
0.0
 30
0.0
  3
*D26
  1

  0
LINE
  5
2FD4
330
CDB
100
AcDbEntity
  8
DIM
100
AcDbLine
 10
37.24029455468635
 20
49.95082550483679
 30
0.0
 11
39.14898503087682
 21
49.95082550483679
 31
0.0
  0
LINE
  5
2FD5
330
CDB
100
AcDbEntity
  8
DIM
100
AcDbLine
 10
44.74529455468635
 20
49.95082550483679
 30
0.0
 11
42.83660407849588
 21
49.95082550483679
 31
0.0
  0
INSERT
  5
2FD6
330
CDB
100
AcDbEntity
  8
DIM
100
AcDbBlockReference
  2
SEARROW
 10
36.68029455468635
 20
49.95082550483679
 30
0.0
 41
0.5600000000000001
 42
0.5600000000000001
 43
0.5600000000000001
 50
180.0
  0
INSERT
  5
2FD7
330
CDB
100
AcDbEntity
  8
DIM
100
AcDbBlockReference
  2
SEARROW
 10
45.30529455468635
 20
49.95082550483679
 30
0.0
 41
0.5600000000000001
 42
0.5600000000000001
 43
0.5600000000000001
  0
MTEXT
  5
2FD8
330
CDB
100
AcDbEntity
  8
DIM
100
AcDbMText
 10
40.99279455468635
 20
49.95082550483679
 30
0.0
 40
0.8
 41
0.0
 71
     5
 72
     1
  1
\A1;8.63\P{\H0.8x; [219]\PINSIDE
  7
ROMANS
1001
ACAD
1000
MTEXTBEGIN
1070
    73
1070
     1
1070
    44
1040
1.0
1070
    74
1070
     0
1000
MTEXTEND
  0
POINT
  5
2FD9
330
CDB
100
AcDbEntity
  8
DEFPOINTS
 62
     0
100
AcDbPoint
 10
36.68029455468635
 20
49.95082550483679
 30
0.0
  0
POINT
  5
2FDA
330
CDB
100
AcDbEntity
  8
DEFPOINTS
 62
     0
100
AcDbPoint
 10
45.30529455468635
 20
49.95082550483679
 30
0.0
  0
POINT
  5
2FDB
330
CDB
100
AcDbEntity
  8
DEFPOINTS
 62
     0
100
AcDbPoint
 10
45.30529455468635
 20
49.95082550483679
 30
0.0
  0
ENDBLK
  5
CE7
330
CDB
100
AcDbEntity
  8
0
100
AcDbBlockEnd
  0
ENDSEC
  0
SECTION
  2
ENTITIES
  0
LWPOLYLINE
  5
52F
330
1F
100
AcDbEntity
  8
VIEWPORT
100
AcDbPolyline
 90
        6
 70
     1
 43
0.0
 10
0.0
 20
0.0
 10
64.02
 20
0.0
 10
64.02
 20
7.296
 10
131.1999999999999
 20
7.296
 10
131.1999999999999
 20
80.7632
 10
0.0
 20
80.7632
  0
VIEWPORT
  5
530
330
1F
100
AcDbEntity
  8
VIEWPORT
100
AcDbViewport
 10
65.59999999999999
 20
40.3816
 30
0.0
 40
131.1999999999999
 41
80.7632
 69
     0
1001
ACAD
1000
MVIEW
1002
{
1070
    16
1010
0.0
1020
0.0
1030
0.0
1010
0.0
1020
0.0
1030
1.0
1040
0.0
1040
10.0954
1040
8.200000000000002
1040
5.047699999999998
1040
50.0
1040
0.0
1040
0.0
1070
     0
1070
   100
1070
     1
1070
     0
1070
     0
1070
     0
1070
     0
1070
     0
1040
0.0
1040
0.0
1040
0.0
1040
0.0
1040
0.0
1040
0.0
1040
0.0
1070
     0
1002
{
1002
}
1002
}
  0
TEXT
  5
94A
330
1F
100
AcDbEntity
  8
TEXT1
100
AcDbText
 10
1.019326684370623
 20
8.415240543078724
 30
0.0
 40
0.08
  1
 
  7
ROMANS
100
AcDbText
  0
TEXT
  5
94B
330
1F
100
AcDbEntity
  8
TEXT1
 62
     6
100
AcDbText
 10
1.001861523208256
 20
9.314400687785807
 30
0.0
 40
0.08
  1

  7
ROMANS
100
AcDbText
  0
TEXT
  5
94C
330
1F
100
AcDbEntity
  8
TEXT1
 62
     6
100
AcDbText
 10
2.145062185136614
 20
9.318869542780998
 30
0.0
 40
0.08
  1

  7
ROMANS
100
AcDbText
  0
TEXT
  5
94D
330
1F
100
AcDbEntity
  8
TEXT1
 62
     6
100
AcDbText
 10
2.133364593616904
 20
8.438345137757137
 30
0.0
 40
0.08
  1

  7
ROMANS
100
AcDbText
  0
TEXT
  5
94E
330
1F
100
AcDbEntity
  8
TEXT1
 62
     6
100
AcDbText
 10
0.996343394723295
 20
8.437352686241521
 30
0.0
 40
0.08
  1

  7
ROMANS
100
AcDbText
  0
TEXT
  5
94F
330
1F
100
AcDbEntity
  8
TEXT1
 62
     6
100
AcDbText
 10
1.146035696552109
 20
7.717107201516139
 30
0.0
 40
0.08
  1

  7
ROMANS
100
AcDbText
  0
TEXT
  5
950
330
1F
100
AcDbEntity
  8
TEXT1
 62
     6
100
AcDbText
 10
2.085639341440104
 20
9.325813369198884
 30
0.0
 40
0.08
  1

  7
ROMANS
100
AcDbText
  0
TEXT
  5
951
330
1F
100
AcDbEntity
  8
TEXT1
100
AcDbText
 10
13.23562179492369
 20
2.303140316464594
 30
0.0
 40
0.08
  1

  7
ROMANS
100
AcDbText
  0
TEXT
  5
952
330
1F
100
AcDbEntity
  8
TEXT1
100
AcDbText
 10
13.49562179492369
 20
2.143140316464594
 30
0.0
 40
0.08
  1

  7
ROMANS
100
AcDbText
  0
TEXT
  5
953
330
1F
100
AcDbEntity
  8
TEXT1
100
AcDbText
 10
10.07991357895972
 20
2.31367609817051
 30
0.0
 40
0.08
  1

  7
ROMANS
100
AcDbText
  0
TEXT
  5
954
330
1F
100
AcDbEntity
  8
TEXT1
100
AcDbText
 10
10.38269742332072
 20
2.001459669758083
 30
0.0
 40
0.08
  1

  7
ROMANS
100
AcDbText
  0
TEXT
  5
955
330
1F
100
AcDbEntity
  8
TEXT1
100
AcDbText
 10
1.019326684370623
 20
8.415240543078724
 30
0.0
 40
0.12
  1
 
  7
ROMANS
100
AcDbText
  0
TEXT
  5
956
330
1F
100
AcDbEntity
  8
TEXT1
 62
     6
100
AcDbText
 10
1.146035696552109
 20
8.279512207846774
 30
0.0
 40
0.08
  1

  7
ROMANS
100
AcDbText
  0
CIRCLE
  5
959
330
1F
100
AcDbEntity
  8
CONTINUOUS1
100
AcDbCircle
 10
41.22029398308635
 20
44.00934954534577
 30
0.0
 40
3.499999860000002
  0
LINE
  5
95A
330
1F
100
AcDbEntity
  8
CONTINUOUS1
100
AcDbLine
 10
36.68029455468635
 20
53.70934950654575
 30
0.0
 11
36.68029455468635
 21
36.47934957546576
 31
0.0
  0
LWPOLYLINE
  5
95B
330
1F
100
AcDbEntity
  8
CONTINUOUS1
100
AcDbPolyline
 90
        5
 70
   128
 43
0.0
 10
45.30529455468635
 20
53.70934950654575
 10
26.93029455468637
 20
53.70934950654575
 10
26.93029455468634
 20
36.47934957546576
 10
45.30529455468635
 20
36.47934957546576
 10
45.30529455468635
 20
53.70934950654575
  0
LWPOLYLINE
  5
95C
330
1F
100
AcDbEntity
  8
CONTINUOUS1
100
AcDbPolyline
 90
        5
 70
   128
 43
0.0
 10
10.24843672996075
 20
53.70934950654579
 10
10.24843672996074
 20
36.47934957546578
 10
14.61843672996074
 20
36.47934957546578
 10
14.61843672996075
 20
53.70934950654579
 10
10.24843672996075
 20
53.70934950654579
  0
TEXT
  5
95D
330
1F
100
AcDbEntity
  8
TEXT1
100
AcDbText
 10
2.0
 20
1.679999999999999
 30
0.0
 40
0.6399999999999999
  1
SUITABLE FOR OVERHEAD OR UNDERGROUND SERVICE.
  7
ROMANS
 11
2.0
 21
1.999999999999999
 31
0.0
100
AcDbText
 73
     2
  0
TEXT
  5
95E
330
1F
100
AcDbEntity
  8
TEXT1
100
AcDbText
 10
2.000000000000002
 20
2.559999999999999
 30
0.0
 40
0.6399999999999999
  1
SUITABLE ONLY FOR USE AS SERVICE EQUIPMENT.
  7
ROMANS
 11
2.000000000000002
 21
2.879999999999999
 31
0.0
100
AcDbText
 73
     2
  0
TEXT
  5
95F
330
1F
100
AcDbEntity
  8
TEXT1
100
AcDbText
 10
2.000000000000002
 20
4.32
 30
0.0
 40
0.6399999999999999
  1
FINISH - GRAY BAKED ENAMEL POWDER COAT PAINT OVER CLEANED GALVANNEALED STEEL.
  7
ROMANS
 11
2.000000000000002
 21
4.64
 31
0.0
100
AcDbText
 73
     2
  0
TEXT
  5
960
330
1F
100
AcDbEntity
  8
TEXT1
100
AcDbText
 10
2.000000000000003
 20
5.2
 30
0.0
 40
0.6399999999999999
  1
NOTES:
  7
ROMANS
 11
2.000000000000003
 21
5.52
 31
0.0
100
AcDbText
 73
     2
  0
TEXT
  5
961
330
1F
100
AcDbEntity
  8
TEXT1
100
AcDbText
 10
2.000000000000002
 20
3.523821892984699
 30
0.0
 40
0.6399999999999999
  1
UL LISTED - FILE E-6294, VOL. M
  7
ROMANS
 11
2.000000000000002
 21
3.843821892984699
 31
0.0
100
AcDbText
 73
     2
  0
LWPOLYLINE
  5
962
330
1F
100
AcDbEntity
  8
CONTINUOUS1
100
AcDbPolyline
 90
        4
 70
   128
 43
0.0
 10
10.24843672996074
 20
37.69963067990399
 10
10.06093673746071
 20
37.80617408380083
 10
10.06093673746071
 20
38.29190900327503
 10
10.24843672996074
 20
38.38443198533377
  0
CIRCLE
  5
963
330
1F
100
AcDbEntity
  8
CONTINUOUS1
100
AcDbCircle
 10
12.17843665276073
 20
38.9393495656258
 30
0.0
 40
1.249999950000002
  0
INSERT
  5
964
330
1F
100
AcDbEntity
  8
DIM
100
AcDbBlockReference
  2
M_PFN_2
 10
11.81248560157315
 20
38.9393495656258
 30
0.0
 41
8.0
 42
8.0
 43
8.0
 50
180.0000000000118
  0
LINE
  5
965
330
1F
100
AcDbEntity
  8
CENTER1
100
AcDbLine
 10
12.17843665276073
 20
39.3053006299876
 30
0.0
 11
12.17843665276073
 21
38.57339850126395
 31
0.0
  0
LINE
  5
966
330
1F
100
AcDbEntity
  8
CENTER1
100
AcDbLine
 10
11.81248560157315
 20
38.9393495656258
 30
0.0
 11
12.54438770394831
 21
38.9393495656258
 31
0.0
  0
LWPOLYLINE
  5
967
330
1F
100
AcDbEntity
  8
CONTINUOUS1
100
AcDbPolyline
 90
        9
 70
   128
 43
0.0
 10
26.93029455468634
 20
22.52814717645746
 10
26.93029455468634
 20
18.15814717645745
 10
45.30529455468636
 20
18.15814717645747
 10
45.30529455468637
 20
22.52814717645744
 10
37.18029455468637
 20
22.52814717645744
 10
37.18029455468637
 20
21.77814717645744
 10
36.68029455468637
 20
21.77814717645744
 10
36.68029455468637
 20
22.52814717645744
 10
26.93029455468634
 20
22.52814717645747
  0
CIRCLE
  5
968
330
1F
100
AcDbEntity
  8
CONTINUOUS1
100
AcDbCircle
 10
34.53029455468636
 20
20.08814717645745
 30
0.0
 40
1.249999950000002
  0
LEADER
  5
969
330
1F
100
AcDbEntity
  8
TEXT1
100
AcDbLeader
  3
SCHNEIDERELECTRIC
 73
     0
 75
     1
 40
0.9523809523809523
 41
1.714285714285713
 76
     3
 10
31.73029455468632
 20
21.32434711303929
 30
0.0
 10
29.67466671925435
 20
26.30325561169834
 30
0.0
 10
29.11466671925435
 20
26.30325561169834
 30
0.0
340
96A
213
0.0
223
0.1
233
0.0
1001
ACAD
1000
DSTYLE
1002
{
1070
     5
1000
SEARROW
1070
    40
1040
8.0
1070
    77
1070
     0
1070
   147
1040
0.04
1070
   342
1005
195
1002
}
  0
MTEXT
  5
96A
102
{ACAD_REACTORS
330
969
102
}
330
1F
100
AcDbEntity
  8
TEXT1
100
AcDbMText
 10
28.79466671925435
 20
26.20325561169834
 30
0.0
 40
0.8
 41
0.0
 71
     6
 72
     1
  1
A,B
  7
ROMANS
1001
ACAD
1000
MTEXTBEGIN
1070
    73
1070
     1
1070
    44
1040
1.0
1070
    74
1070
     0
1000
MTEXTEND
  0
CIRCLE
  5
96B
330
1F
100
AcDbEntity
  8
CONTINUOUS1
100
AcDbCircle
 10
28.93029455468637
 20
20.08814717645746
 30
0.0
 40
1.249999949999995
  0
INSERT
  5
96C
330
1F
100
AcDbEntity
  8
DIM
100
AcDbBlockReference
  2
M_PFN_2
 10
26.93029455468634
 20
18.15814717645745
 30
0.0
 41
8.0
 42
8.0
 43
8.0
 50
269.9999999999939
  0
INSERT
  5
96D
330
1F
100
AcDbEntity
  8
DIM
100
AcDbBlockReference
  2
M_PFN_2
 10
26.93029455468634
 20
18.15814717645745
 30
0.0
 41
8.0
 42
8.0
 43
8.0
 50
180.0000000000118
  0
LINE
  5
96E
330
1F
100
AcDbEntity
  8
CENTER1
100
AcDbLine
 10
28.93029455468637
 20
20.45409824081927
 30
0.0
 11
28.93029455468637
 21
19.72219611209562
 31
0.0
  0
LINE
  5
96F
330
1F
100
AcDbEntity
  8
CENTER1
100
AcDbLine
 10
28.56434350349876
 20
20.08814717645746
 30
0.0
 11
29.29624560587395
 21
20.08814717645746
 31
0.0
  0
INSERT
  5
970
330
1F
100
AcDbEntity
  8
DIM
100
AcDbBlockReference
  2
M_PFN_2
 10
28.56434350349876
 20
20.08814717645746
 30
0.0
 41
8.0
 42
8.0
 43
8.0
 50
180.0000000000118
  0
CIRCLE
  5
971
330
1F
100
AcDbEntity
  8
CONTINUOUS1
100
AcDbCircle
 10
31.73029455468632
 20
19.22694723987559
 30
0.0
 40
0.375
  0
CIRCLE
  5
972
330
1F
100
AcDbEntity
  8
CONTINUOUS1
100
AcDbCircle
 10
31.73029455468632
 20
19.22694723987559
 30
0.0
 40
0.2500000000000071
  0
CIRCLE
  5
973
330
1F
100
AcDbEntity
  8
CONTINUOUS1
100
AcDbCircle
 10
31.73029455468632
 20
20.94934711303929
 30
0.0
 40
0.2500000000000071
  0
CIRCLE
  5
974
330
1F
100
AcDbEntity
  8
CONTINUOUS1
100
AcDbCircle
 10
31.73029455468632
 20
20.94934711303929
 30
0.0
 40
0.375
  0
LINE
  5
975
330
1F
100
AcDbEntity
  8
CENTER1
100
AcDbLine
 10
34.53029455468636
 20
20.45409824081926
 30
0.0
 11
34.53029455468636
 21
19.72219611209561
 31
0.0
  0
LINE
  5
976
330
1F
100
AcDbEntity
  8
CENTER1
100
AcDbLine
 10
34.16434350349878
 20
20.08814717645745
 30
0.0
 11
34.89624560587394
 21
20.08814717645745
 31
0.0
  0
LINE
  5
977
330
1F
100
AcDbEntity
  8
CONTINUOUS1
100
AcDbLine
 10
36.68029455468637
 20
22.52814717645744
 30
0.0
 11
36.68029455468635
 21
18.15814717645744
 31
0.0
  0
CIRCLE
  5
978
330
1F
100
AcDbEntity
  8
CONTINUOUS1
100
AcDbCircle
 10
42.95529455468644
 20
20.34814717645744
 30
0.0
 40
1.5
  0
CIRCLE
  5
979
330
1F
100
AcDbEntity
  8
CONTINUOUS1
100
AcDbCircle
 10
39.01529455468641
 20
20.08814717645745
 30
0.0
 40
1.249999950000002
  0
LINE
  5
97A
330
1F
100
AcDbEntity
  8
CENTER1
100
AcDbLine
 10
39.01529455468641
 20
20.45409824081926
 30
0.0
 11
39.01529455468641
 21
19.72219611209561
 31
0.0
  0
INSERT
  5
97B
330
1F
100
AcDbEntity
  8
DIM
100
AcDbBlockReference
  2
M_PFN_2
 10
39.01529455468641
 20
19.72219611209561
 30
0.0
 41
8.0
 42
8.0
 43
8.0
 50
269.9999999999939
  0
LINE
  5
97C
330
1F
100
AcDbEntity
  8
CENTER1
100
AcDbLine
 10
38.6493435034988
 20
20.08814717645745
 30
0.0
 11
39.38124560587399
 21
20.08814717645745
 31
0.0
  0
LINE
  5
97D
330
1F
100
AcDbEntity
  8
CENTER1
100
AcDbLine
 10
42.95529455468644
 20
20.71409824081926
 30
0.0
 11
42.95529455468644
 21
19.98219611209561
 31
0.0
  0
INSERT
  5
97E
330
1F
100
AcDbEntity
  8
DIM
100
AcDbBlockReference
  2
M_PFN_2
 10
42.95529455468644
 20
19.98219611209561
 30
0.0
 41
8.0
 42
8.0
 43
8.0
 50
269.9999999999939
  0
INSERT
  5
97F
330
1F
100
AcDbEntity
  8
DIM
100
AcDbBlockReference
  2
M_PFN_2
 10
42.95529455468644
 20
19.98219611209561
 30
0.0
 41
8.0
 42
8.0
 43
8.0
 50
269.9999999999939
  0
INSERT
  5
980
330
1F
100
AcDbEntity
  8
DIM
100
AcDbBlockReference
  2
M_PFN_2
 10
43.32124560587401
 20
20.34814717645744
 30
0.0
 41
8.0
 42
8.0
 43
8.0
  0
LINE
  5
981
330
1F
100
AcDbEntity
  8
CENTER1
100
AcDbLine
 10
42.58934350349883
 20
20.34814717645744
 30
0.0
 11
43.32124560587401
 21
20.34814717645744
 31
0.0
  0
LINE
  5
982
330
1F
100
AcDbEntity
  8
CONTINUOUS1
100
AcDbLine
 10
39.58825537012998
 20
22.27814717645745
 30
0.0
 11
40.33825537012997
 21
22.27814717645745
 31
0.0
  0
LWPOLYLINE
  5
983
330
1F
100
AcDbEntity
  8
CONTINUOUS1
100
AcDbPolyline
 90
        4
 70
   128
 43
0.0
 10
39.58825537012998
 20
22.52814717645744
 10
39.58825537012998
 20
22.02814717645745
 10
40.33825537012997
 20
22.02814717645745
 10
40.33825537012997
 20
22.52814717645744
  0
LINE
  5
984
330
1F
100
AcDbEntity
  8
CONTINUOUS1
100
AcDbLine
 10
39.96325537012998
 20
22.27814717645745
 30
0.0
 11
39.96325537012998
 21
22.52814717645744
 31
0.0
  0
LINE
  5
985
330
1F
100
AcDbEntity
  8
CONTINUOUS1
100
AcDbLine
 10
40.13386502446482
 20
22.27814717645745
 30
0.0
 11
40.13386502446482
 21
22.52814717645744
 31
0.0
  0
LINE
  5
986
330
1F
100
AcDbEntity
  8
CONTINUOUS1
100
AcDbLine
 10
39.79264571579514
 20
22.27814717645745
 30
0.0
 11
39.79264571579514
 21
22.52814717645744
 31
0.0
  0
CIRCLE
  5
987
330
1F
100
AcDbEntity
  8
CONTINUOUS1
100
AcDbCircle
 10
29.34029445828635
 20
39.44934957546577
 30
0.0
 40
1.249999949999999
  0
INSERT
  5
988
330
1F
100
AcDbEntity
  8
DIM
100
AcDbBlockReference
  2
M_PFN_2
 10
26.93029455468634
 20
36.47934957546576
 30
0.0
 41
8.0
 42
8.0
 43
8.0
 50
180.0000000000118
  0
INSERT
  5
989
330
1F
100
AcDbEntity
  8
DIM
100
AcDbBlockReference
  2
M_PFN_2
 10
26.93029455468634
 20
36.47934957546576
 30
0.0
 41
8.0
 42
8.0
 43
8.0
 50
180.0000000000118
  0
INSERT
  5
98A
330
1F
100
AcDbEntity
  8
DIM
100
AcDbBlockReference
  2
M_PFN_2
 10
26.93029455468634
 20
36.47934957546576
 30
0.0
 41
8.0
 42
8.0
 43
8.0
 50
269.9999999999939
  0
INSERT
  5
98B
330
1F
100
AcDbEntity
  8
DIM
100
AcDbBlockReference
  2
M_PFN_2
 10
26.93029455468634
 20
36.47934957546576
 30
0.0
 41
8.0
 42
8.0
 43
8.0
 50
269.9999999999939
  0
LINE
  5
98C
330
1F
100
AcDbEntity
  8
CENTER1
100
AcDbLine
 10
29.34029445828635
 20
39.8153006398276
 30
0.0
 11
29.34029445828635
 21
39.08339851110394
 31
0.0
  0
LINE
  5
98D
330
1F
100
AcDbEntity
  8
CENTER1
100
AcDbLine
 10
28.97434340709876
 20
39.44934957546577
 30
0.0
 11
29.70624550947393
 21
39.44934957546577
 31
0.0
  0
CIRCLE
  5
98E
330
1F
100
AcDbEntity
  8
CONTINUOUS1
100
AcDbCircle
 10
33.84029427828633
 20
39.03934956522577
 30
0.0
 40
1.249999949999995
  0
LINE
  5
98F
330
1F
100
AcDbEntity
  8
CENTER1
100
AcDbLine
 10
33.84029427828633
 20
39.4053006295876
 30
0.0
 11
33.84029427828633
 21
38.67339850086396
 31
0.0
  0
LINE
  5
990
330
1F
100
AcDbEntity
  8
CENTER1
100
AcDbLine
 10
33.47434322709872
 20
39.03934956522577
 30
0.0
 11
34.20624532947391
 21
39.03934956522577
 31
0.0
  0
INSERT
  5
991
330
1F
100
AcDbEntity
  8
DIM
100
AcDbBlockReference
  2
M_PFN_2
 10
33.47434322709872
 20
39.03934956522577
 30
0.0
 41
8.0
 42
8.0
 43
8.0
 50
180.0000000000118
  0
INSERT
  5
992
330
1F
100
AcDbEntity
  8
DIM
100
AcDbBlockReference
  2
M_PFN_2
 10
45.30529455468636
 20
18.15814717645744
 30
0.0
 41
8.0
 42
8.0
 43
8.0
 50
269.9999999999939
  0
INSERT
  5
993
330
1F
100
AcDbEntity
  8
DIM
100
AcDbBlockReference
  2
M_PFN_2
 10
45.30529455468636
 20
18.15814717645744
 30
0.0
 41
8.0
 42
8.0
 43
8.0
  0
INSERT
  5
994
330
1F
100
AcDbEntity
  8
DIM
100
AcDbBlockReference
  2
M_PFN_2
 10
45.30529455468636
 20
18.15814717645747
 30
0.0
 41
8.0
 42
8.0
 43
8.0
  0
INSERT
  5
995
330
1F
100
AcDbEntity
  8
DIM
100
AcDbBlockReference
  2
M_PFN_2
 10
45.30529455468637
 20
22.52814717645744
 30
0.0
 41
8.0
 42
8.0
 43
8.0
  0
INSERT
  5
996
330
1F
100
AcDbEntity
  8
DIM
100
AcDbBlockReference
  2
M_PFN_2
 10
45.30529455468635
 20
36.47934957546576
 30
0.0
 41
8.0
 42
8.0
 43
8.0
  0
LWPOLYLINE
  5
997
330
1F
100
AcDbEntity
  8
CONTINUOUS1
100
AcDbPolyline
 90
        4
 70
   128
 43
0.0
 10
10.24843672996075
 20
53.27361772463684
 10
10.06093673746072
 20
53.38016112853369
 10
10.06093673746072
 20
53.86589604800789
 10
10.24843672996075
 20
53.95841903006662
  0
LWPOLYLINE
  5
998
330
1F
100
AcDbEntity
  8
CONTINUOUS1
100
AcDbPolyline
 90
        5
 70
   128
 43
0.0
 10
10.24843672996075
 20
53.70934950654579
 10
10.24843672996075
 20
54.70934950254578
 10
14.78843654836074
 20
54.70934950254578
 10
14.78843654836074
 20
53.70934950654579
 10
14.61843672996075
 20
53.7093495065458
  0
INSERT
  5
999
330
1F
100
AcDbEntity
  8
DIM
100
AcDbBlockReference
  2
M_PFN_2
 10
10.24843672996075
 20
54.70934950254578
 30
0.0
 41
8.0
 42
8.0
 43
8.0
 50
90.0
  0
INSERT
  5
99A
330
1F
100
AcDbEntity
  8
DIM
100
AcDbBlockReference
  2
M_PFN_2
 10
14.78843654836074
 20
54.70934950254578
 30
0.0
 41
8.0
 42
8.0
 43
8.0
 50
90.0
  0
LINE
  5
99B
330
1F
100
AcDbEntity
  8
CENTER1
100
AcDbLine
 10
31.5877867358863
 20
65.72676578943846
 30
0.0
 11
31.5877867358863
 21
64.98747070991964
 31
0.0
  0
LINE
  5
99C
330
1F
100
AcDbEntity
  8
CENTER1
100
AcDbLine
 10
40.90778636308633
 20
65.72676578943843
 30
0.0
 11
40.90778636308633
 21
64.9874707099196
 31
0.0
  0
CIRCLE
  5
99D
330
1F
100
AcDbEntity
  8
CONTINUOUS1
100
AcDbCircle
 10
31.58778673588632
 20
65.35711824967909
 30
0.0
 40
1.249999949999995
  0
CIRCLE
  5
99E
330
1F
100
AcDbEntity
  8
CONTINUOUS1
100
AcDbCircle
 10
40.90778636308633
 20
65.35711824967906
 30
0.0
 40
1.249999950000002
  0
LWPOLYLINE
  5
99F
330
1F
100
AcDbEntity
  8
CONTINUOUS1
100
AcDbPolyline
 90
        5
 70
   128
 43
0.0
 10
26.32778694628632
 20
66.97711824319909
 10
26.32778694628631
 20
62.43711826135908
 10
45.90778616308634
 20
62.43711826135908
 10
45.90778616308634
 20
66.97711824319906
 10
26.32778694628635
 20
66.97711824319909
  0
LWPOLYLINE
  5
9A0
330
1F
100
AcDbEntity
  8
CONTINUOUS1
100
AcDbPolyline
 90
        5
 70
   128
 43
0.0
 10
26.32779494628637
 20
54.70934950254576
 10
26.32779494628637
 20
53.70934950654575
 10
45.90779416308635
 20
53.70934950654575
 10
45.90779416308635
 20
54.70934950254576
 10
26.32779494628635
 20
54.70934950254576
  0
LINE
  5
9A1
330
1F
100
AcDbEntity
  8
CENTER1
100
AcDbLine
 10
41.22029398308635
 20
44.5638208549849
 30
0.0
 11
41.22029398308635
 21
43.45487823570663
 31
0.0
  0
LINE
  5
9A2
330
1F
100
AcDbEntity
  8
CENTER1
100
AcDbLine
 10
40.66582269340819
 20
44.00934954534576
 30
0.0
 11
41.77476527276451
 21
44.00934954534576
 31
0.0
  0
INSERT
  5
9A3
330
1F
100
AcDbEntity
  8
DIM
100
AcDbBlockReference
  2
M_PFN_2
 10
26.32779494628637
 20
54.70934950254576
 30
0.0
 41
8.0
 42
8.0
 43
8.0
 50
90.0
  0
INSERT
  5
9A4
330
1F
100
AcDbEntity
  8
DIM
100
AcDbBlockReference
  2
M_PFN_2
 10
31.2181392094342
 20
65.35711824967909
 30
0.0
 41
8.0
 42
8.0
 43
8.0
 50
180.0000000000118
  0
LINE
  5
9A5
330
1F
100
AcDbEntity
  8
CENTER1
100
AcDbLine
 10
31.2181392094342
 20
65.35711824967906
 30
0.0
 11
31.95743426233843
 21
65.35711824967906
 31
0.0
  0
LINE
  5
9A6
330
1F
100
AcDbEntity
  8
CENTER1
100
AcDbLine
 10
40.53813883663423
 20
65.35711824967903
 30
0.0
 11
41.27743388953843
 21
65.35711824967903
 31
0.0
  0
INSERT
  5
9A7
330
1F
100
AcDbEntity
  8
DIM
100
AcDbBlockReference
  2
M_PFN_2
 10
45.90779416308635
 20
54.70934950254576
 30
0.0
 41
8.0
 42
8.0
 43
8.0
  0
INSERT
  5
9A8
330
1F
100
AcDbEntity
  8
DIM
100
AcDbBlockReference
  2
M_PFN_2
 10
45.90779416308635
 20
54.70934950254576
 30
0.0
 41
8.0
 42
8.0
 43
8.0
  0
INSERT
  5
9A9
330
1F
100
AcDbEntity
  8
DIM
100
AcDbBlockReference
  2
M_PFN_2
 10
45.90779416308635
 20
54.70934950254576
 30
0.0
 41
8.0
 42
8.0
 43
8.0
 50
90.0
  0
INSERT
  5
9AA
330
1F
100
AcDbEntity
  8
DIM
100
AcDbBlockReference
  2
M_PFN_2
 10
26.32778694628632
 20
66.97711824319909
 30
0.0
 41
8.0
 42
8.0
 43
8.0
 50
180.0000000000118
  0
INSERT
  5
9AB
330
1F
100
AcDbEntity
  8
DIM
100
AcDbBlockReference
  2
M_PFN_2
 10
26.32778694628632
 20
66.97711824319909
 30
0.0
 41
8.0
 42
8.0
 43
8.0
 50
90.0
  0
INSERT
  5
9AC
330
1F
100
AcDbEntity
  8
DIM
100
AcDbBlockReference
  2
M_PFN_2
 10
45.90778616308634
 20
66.97711824319906
 30
0.0
 41
8.0
 42
8.0
 43
8.0
 50
90.0
  0
LWPOLYLINE
  5
9AD
330
1F
100
AcDbEntity
  8
TEXT1
100
AcDbPolyline
 90
        3
 70
   128
 43
0.0
 10
74.95269428647782
 20
44.79758589508004
 10
76.26937370956046
 20
41.85053254942605
 10
76.6981676039203
 20
41.85053254942605
  0
LINE
  5
9AE
330
1F
100
AcDbEntity
  8
HIDDEN1
100
AcDbLine
 10
75.70665012579516
 20
39.30674038120889
 30
0.0
 11
75.70665012579522
 21
57.34833458233714
 31
0.0
  0
LWPOLYLINE
  5
9AF
330
1F
100
AcDbEntity
  8
TEXT1
100
AcDbPolyline
 90
        3
 70
   128
 43
0.0
 10
74.95269428647782
 20
48.02341150891479
 10
76.26937370956046
 20
41.85053254942605
 10
76.6981676039203
 20
41.85053254942605
  0
CIRCLE
  5
9B0
330
1F
100
AcDbEntity
  8
CONTINUOUS1
100
AcDbCircle
 10
81.86206775688004
 20
46.46195682411218
 30
0.0
 40
3.41817165386313
  0
LWPOLYLINE
  5
9B1
330
1F
100
AcDbEntity
  8
CONTINUOUS1
100
AcDbPolyline
 90
        4
 70
   129
 43
0.0
 10
110.5602439189032
 20
42.37905990506638
 10
110.5602439189032
 20
38.81133154017243
 10
112.1589040028575
 20
38.81133154017243
 10
112.1589040028575
 20
42.37905990506638
  0
LINE
  5
9B2
330
1F
100
AcDbEntity
  8
CONTINUOUS1
100
AcDbLine
 10
111.4006084210718
 20
39.39643834656905
 30
0.0
 11
111.4006084210718
 21
41.80416671146899
 31
0.0
  0
LWPOLYLINE
  5
9B3
330
1F
100
AcDbEntity
  8
CONTINUOUS1
100
AcDbPolyline
 90
        3
 70
   128
 43
0.0
 10
121.0350786498685
 20
44.40324637460601
 10
121.0350786498685
 20
39.3913315401731
 10
112.1589040028507
 20
39.3913315401731
  0
TEXT
  5
9B4
330
1F
100
AcDbEntity
  8
TEXT1
100
AcDbText
 10
96.48925924188425
 20
40.24706495234636
 30
0.0
 40
0.6399999999999999
  1
TYPE QO-VH OR QOA-VH
  7
ROMANS
 11
96.48925924188425
 21
40.56706495234636
 31
0.0
100
AcDbText
 73
     2
  0
TEXT
  5
9B5
330
1F
100
AcDbEntity
  8
TEXT1
100
AcDbText
 10
99.98573929260818
 20
18.95094096098342
 30
0.0
 40
0.6399999999999999
  1
CURRENT
  7
ROMANS
 72
     1
 11
102.1800250068938
 21
19.27094096098342
 31
0.0
100
AcDbText
 73
     2
  0
LWPOLYLINE
  5
9B6
330
1F
100
AcDbEntity
  8
CONTINUOUS1
100
AcDbPolyline
 90
        4
 70
     1
 43
0.0
 10
99.24424200760412
 20
22.05575188133472
 10
105.3366012876757
 20
22.05575188133471
 10
105.3366012876757
 20
9.295934244843682
 10
99.24424200760412
 20
9.295934244843685
  0
LINE
  5
9B7
330
1F
100
AcDbEntity
  8
CONTINUOUS1
100
AcDbLine
 10
99.24424200760412
 20
11.97287614027874
 30
0.0
 11
120.0413901173831
 21
11.97287614027874
 31
0.0
  0
LINE
  5
9B8
330
1F
100
AcDbEntity
  8
CONTINUOUS1
100
AcDbLine
 10
99.24424200760412
 20
14.64981803571382
 30
0.0
 11
120.0413901173831
 21
14.64981803571382
 31
0.0
  0
TEXT
  5
9B9
330
1F
100
AcDbEntity
  8
TEXT1
100
AcDbText
 10
96.54991936821225
 20
39.12284370608799
 30
0.0
 40
0.6399999999999999
  1
CIRCUIT BREAKER 35-50A
  7
ROMANS
 11
96.54991936821225
 21
39.44284370608799
 31
0.0
100
AcDbText
 73
     2
  0
LINE
  5
9BA
330
1F
100
AcDbEntity
  8
CONTINUOUS1
100
AcDbLine
 10
84.2022867570378
 20
17.32977994654004
 30
0.0
 11
129.2000079999999
 21
17.32524612448684
 31
0.0
  0
TEXT
  5
9BB
330
1F
100
AcDbEntity
  8
TEXT1
100
AcDbText
 10
86.09316385574912
 20
14.23787087039075
 30
0.0
 40
0.6399999999999999
  1
NONE
  7
ROMANS
 72
     1
 11
87.41887814146341
 21
14.55787087039075
 31
0.0
100
AcDbText
 73
     2
  0
LWPOLYLINE
  5
9BC
330
1F
100
AcDbEntity
  8
CONTINUOUS1
100
AcDbPolyline
 90
        4
 70
     1
 43
0.0
 10
84.20259868768502
 20
22.05976511727831
 10
90.63515759524179
 20
22.05976511727831
 10
90.63515759524179
 20
9.295847947734316
 10
84.20259868768502
 20
9.295847947734319
  0
LWPOLYLINE
  5
9BD
330
1F
100
AcDbEntity
  8
CONTINUOUS1
100
AcDbPolyline
 90
        4
 70
   129
 43
0.0
 10
90.63515759524179
 20
22.05570646180347
 10
99.24424200760412
 20
22.05575188133472
 10
99.24424200760412
 20
9.295893367265556
 10
90.63515759524179
 20
9.295847947734316
  0
TEXT
  5
9BE
330
1F
100
AcDbEntity
  8
TEXT1
100
AcDbText
 10
91.56561298371206
 20
14.92737225173025
 30
0.0
 40
0.6399999999999999
  1
120/240 VAC
  7
ROMANS
 72
     1
 11
94.96370822180731
 21
15.24737225173025
 31
0.0
100
AcDbText
 73
     2
  0
LWPOLYLINE
  5
9BF
330
1F
100
AcDbEntity
  8
CONTINUOUS1
100
AcDbPolyline
 90
        4
 70
   129
 43
0.0
 10
79.73553861161218
 20
22.05976511727832
 10
84.20259868768502
 20
22.05976511727831
 10
84.20259868768502
 20
9.299906603209169
 10
79.73553861161218
 20
9.299906603209169
  0
LINE
  5
9C0
330
1F
100
AcDbEntity
  8
CONTINUOUS1
100
AcDbLine
 10
84.20259868768502
 20
11.97287614027874
 30
0.0
 11
90.63546952588897
 21
11.97287614027874
 31
0.0
  0
TEXT
  5
9C1
330
1F
100
AcDbEntity
  8
TEXT1
100
AcDbText
 10
81.12004202459065
 20
11.43454421798808
 30
0.0
 40
0.6399999999999999
  1
200
  7
ROMANS
 72
     1
 11
82.03432773887636
 21
11.75454421798808
 31
0.0
100
AcDbText
 73
     2
  0
TEXT
  5
9C2
330
1F
100
AcDbEntity
  8
TEXT1
100
AcDbText
 10
86.09316385574912
 20
10.43820438682414
 30
0.0
 40
0.6399999999999999
  1
HORN
  7
ROMANS
 72
     1
 11
87.41887814146341
 21
10.75820438682414
 31
0.0
100
AcDbText
 73
     2
  0
TEXT
  5
9C3
330
1F
100
AcDbEntity
  8
TEXT1
100
AcDbText
 10
92.98275584085493
 20
11.04512525452285
 30
0.0
 40
0.6399999999999999
  1
SYSTEM)
  7
ROMANS
 72
     1
 11
94.96370822180731
 21
11.36512525452285
 31
0.0
100
AcDbText
 73
     2
  0
TEXT
  5
9C4
330
1F
100
AcDbEntity
  8
TEXT1
100
AcDbText
 10
91.24561298371206
 20
12.98624875312655
 30
0.0
 40
0.6399999999999999
  1
OR 208Y/120V
  7
ROMANS
 72
     1
 11
94.96370822180731
 21
13.30624875312655
 31
0.0
100
AcDbText
 73
     2
  0
TEXT
  5
9C5
330
1F
100
AcDbEntity
  8
TEXT1
100
AcDbText
 10
90.89513679323593
 20
11.97824875312655
 30
0.0
 40
0.6399999999999999
  1
(FROM A 3  4W
  7
ROMANS
 72
     1
 11
94.96370822180736
 21
12.29824875312655
 31
0.0
100
AcDbText
 73
     2
  0
TEXT
  5
9C6
330
1F
100
AcDbEntity
  8
TEXT1
100
AcDbText
 10
93.28751774561689
 20
13.91937225173025
 30
0.0
 40
0.6399999999999999
  1
1  3W
  7
ROMANS
 72
     1
 11
94.96370822180736
 21
14.23937225173026
 31
0.0
100
AcDbText
 73
     2
  0
TEXT
  5
9C7
330
1F
100
AcDbEntity
  8
TEXT1
100
AcDbText
 10
93.99048385073617
 20
13.91937225173025
 30
0.0
 40
0.6399999999999999
  1
Ø
  7
ROMANS
 72
     1
 11
94.32572194597426
 21
14.23937225173026
 31
0.0
100
AcDbText
 73
     2
  0
TEXT
  5
9C8
330
1F
100
AcDbEntity
  8
TEXT1
100
AcDbText
 10
96.55836421906197
 20
11.99551382111533
 30
0.0
 40
0.6399999999999999
  1
Ø
  7
ROMANS
 72
     1
 11
96.89360231430008
 21
12.31551382111534
 31
0.0
100
AcDbText
 73
     2
  0
TEXT
  5
9C9
330
1F
100
AcDbEntity
  8
TEXT1
100
AcDbText
 10
77.02769078857611
 20
40.47833976661436
 30
0.0
 40
0.6399999999999999
  1
MOUNTING NUTS
  7
ROMANS
 11
77.02769078857611
 21
40.79833976661436
 31
0.0
100
AcDbText
 73
     2
  0
TEXT
  5
9CA
330
1F
100
AcDbEntity
  8
TEXT1
100
AcDbText
 10
76.96729955440133
 20
41.46634340288722
 30
0.0
 40
0.6399999999999999
  1
CIRCUIT BREAKER
  7
ROMANS
 11
76.96729955440133
 21
41.78634340288722
 31
0.0
100
AcDbText
 73
     2
  0
LINE
  5
9CB
330
1F
100
AcDbEntity
  8
CONTINUOUS1
100
AcDbLine
 10
79.73553861161218
 20
17.32976590405966
 30
0.0
 11
84.20259868768502
 21
17.32976590405965
 31
0.0
  0
TEXT
  5
9CC
330
1F
100
AcDbEntity
  8
TEXT1
100
AcDbText
 10
71.94768427513619
 20
37.60869156237633
 30
0.0
 40
0.8
  1
RC200S
  7
ROMANS
 72
     1
 11
74.29054141799332
 21
38.00869156237633
 31
0.0
100
AcDbText
 73
     2
  0
TEXT
  5
9CD
330
1F
100
AcDbEntity
  8
TEXT1
100
AcDbText
 10
80.19051821506684
 20
19.86457047444578
 30
0.0
 40
0.6399999999999999
  1
AMPERE
  7
ROMANS
 72
     1
 11
82.03432773887636
 21
20.18457047444579
 31
0.0
100
AcDbText
 73
     2
  0
TEXT
  5
9CE
330
1F
100
AcDbEntity
  8
TEXT1
100
AcDbText
 10
80.40385154840016
 20
18.81957047444578
 30
0.0
 40
0.6399999999999999
  1
RATING
  7
ROMANS
 72
     1
 11
82.03432773887636
 21
19.13957047444578
 31
0.0
100
AcDbText
 73
     2
  0
TEXT
  5
9CF
330
1F
100
AcDbEntity
  8
TEXT1
100
AcDbText
 10
85.60776805352466
 20
19.86548266359296
 30
0.0
 40
0.6399999999999999
  1
BYPASS
  7
ROMANS
 72
     1
 11
87.421101386858
 21
20.18548266359295
 31
0.0
100
AcDbText
 73
     2
  0
TEXT
  5
9D0
330
1F
100
AcDbEntity
  8
TEXT1
100
AcDbText
 10
86.25302415898438
 20
18.89010300795878
 30
0.0
 40
0.6399999999999999
  1
TYPE
  7
ROMANS
 72
     1
 11
87.36540511136533
 21
19.21010300795878
 31
0.0
100
AcDbText
 73
     2
  0
TEXT
  5
9D1
330
1F
100
AcDbEntity
  8
TEXT1
100
AcDbText
 10
92.92774165557599
 20
20.44518782213639
 30
0.0
 40
0.6399999999999999
  1
MAXIMUM
  7
ROMANS
 72
     1
 11
95.06107498890932
 21
20.76518782213639
 31
0.0
100
AcDbText
 73
     2
  0
TEXT
  5
9D2
330
1F
100
AcDbEntity
  8
TEXT1
100
AcDbText
 10
93.29345594129028
 20
19.40018782213639
 30
0.0
 40
0.6399999999999999
  1
SYSTEM
  7
ROMANS
 72
     1
 11
95.06107498890932
 21
19.72018782213639
 31
0.0
100
AcDbText
 73
     2
  0
TEXT
  5
9D3
330
1F
100
AcDbEntity
  8
TEXT1
100
AcDbText
 10
93.08012260795695
 20
18.35518782213639
 30
0.0
 40
0.6399999999999999
  1
VOLTAGE
  7
ROMANS
 72
     1
 11
95.06107498890932
 21
18.67518782213639
 31
0.0
100
AcDbText
 73
     2
  0
LINE
  5
9D4
330
1F
100
AcDbEntity
  8
CONTINUOUS1
100
AcDbLine
 10
129.2000079999999
 20
22.05587451406909
 30
0.0
 11
129.2000079999999
 21
9.29601599999993
 31
0.0
  0
LWPOLYLINE
  5
9D5
330
1F
100
AcDbEntity
  8
CONTINUOUS1
100
AcDbPolyline
 90
        4
 70
   129
 43
0.0
 10
120.0413901173831
 20
22.0558745140691
 10
129.2000079999999
 20
22.05587451406909
 10
129.2000079999999
 20
9.29601599999993
 10
120.0413901173831
 20
9.296015999999934
  0
LWPOLYLINE
  5
9D6
330
1F
100
AcDbEntity
  8
CONTINUOUS1
100
AcDbPolyline
 90
        4
 70
   129
 43
0.0
 10
105.3366012876757
 20
22.05579275891284
 10
113.9490308373116
 20
22.05583363649097
 10
113.9490308373116
 20
9.295975122421811
 10
105.3366012876757
 20
9.295934244843682
  0
TEXT
  5
9D7
330
1F
100
AcDbEntity
  8
TEXT1
100
AcDbText
 10
120.7825040215277
 20
12.98628963070466
 30
0.0
 40
0.6399999999999999
  1
#6-350 CU/AL
  7
ROMANS
 72
     1
 11
124.5920278310515
 21
13.30628963070466
 31
0.0
100
AcDbText
 73
     2
  0
TEXT
  5
9D8
330
1F
100
AcDbEntity
  8
TEXT1
100
AcDbText
 10
106.7477103597554
 20
10.31122985403947
 30
0.0
 40
0.6399999999999999
  1
RC2M200SH
  7
ROMANS
 72
     1
 11
109.6124722645173
 21
10.63122985403947
 31
0.0
100
AcDbText
 73
     2
  0
TEXT
  5
9D9
330
1F
100
AcDbEntity
  8
TEXT1
100
AcDbText
 10
107.0677103597554
 20
12.98817174947455
 30
0.0
 40
0.6399999999999999
  1
RC2M200S
  7
ROMANS
 72
     1
 11
109.6124722645173
 21
13.30817174947455
 31
0.0
100
AcDbText
 73
     2
  0
LINE
  5
9DA
330
1F
100
AcDbEntity
  8
CONTINUOUS1
100
AcDbLine
 10
105.3366012876757
 20
9.297223129537645
 30
0.0
 11
113.9490308373116
 21
9.297350304225151
 31
0.0
  0
TEXT
  5
9DB
330
1F
100
AcDbEntity
  8
TEXT1
100
AcDbText
 10
101.3201215417359
 20
10.30930685769148
 30
0.0
 40
0.6399999999999999
  1
22K
  7
ROMANS
 72
     1
 11
102.2496453512597
 21
10.62930685769148
 31
0.0
100
AcDbText
 73
     2
  0
TEXT
  5
9DC
330
1F
100
AcDbEntity
  8
TEXT1
100
AcDbText
 10
101.3201215417359
 20
12.98624875312654
 30
0.0
 40
0.6399999999999999
  1
22K
  7
ROMANS
 72
     1
 11
102.2496453512597
 21
13.30624875312654
 31
0.0
100
AcDbText
 73
     2
  0
TEXT
  5
9DD
330
1F
100
AcDbEntity
  8
TEXT1
100
AcDbText
 10
122.5373277317201
 20
23.07936936389002
 30
0.0
 40
0.6399999999999999
  1
MILLIMETERS
  7
ROMANS
 11
122.5373277317201
 21
23.39936936389003
 31
0.0
100
AcDbText
 73
     2
  0
TEXT
  5
9DE
330
1F
100
AcDbEntity
  8
TEXT1
100
AcDbText
 10
121.8591526779728
 20
19.92471234157936
 30
0.0
 40
0.6399999999999999
  1
PHASE AND
  7
ROMANS
 72
     1
 11
124.6477241065442
 21
20.24471234157937
 31
0.0
100
AcDbText
 73
     2
  0
TEXT
  5
9DF
330
1F
100
AcDbEntity
  8
TEXT1
100
AcDbText
 10
120.980599259623
 20
18.94933268594521
 30
0.0
 40
0.6399999999999999
  1
NEUTRAL LUGS
  7
ROMANS
 72
     1
 11
124.5920278310515
 21
19.26933268594521
 31
0.0
100
AcDbText
 73
     2
  0
TEXT
  5
9E0
330
1F
100
AcDbEntity
  8
TEXT1
100
AcDbText
 10
121.9101230691468
 20
17.91895158933091
 30
0.0
 40
0.6399999999999999
  1
AWG/KCMIL
  7
ROMANS
 72
     1
 11
124.5920278310515
 21
18.23895158933092
 31
0.0
100
AcDbText
 73
     2
  0
TEXT
  5
9E1
330
1F
100
AcDbEntity
  8
TEXT1
100
AcDbText
 10
107.5858055978506
 20
20.01419329879906
 30
0.0
 40
0.6399999999999999
  1
CATALOG
  7
ROMANS
 72
     1
 11
109.6124722645173
 21
20.33419329879906
 31
0.0
100
AcDbText
 73
     2
  0
TEXT
  5
9E2
330
1F
100
AcDbEntity
  8
TEXT1
100
AcDbText
 10
107.7381865502315
 20
15.66406096234552
 30
0.0
 40
0.6399999999999999
  1
RC200S
  7
ROMANS
 72
     1
 11
109.6124722645173
 21
15.98406096234552
 31
0.0
100
AcDbText
 73
     2
  0
TEXT
  5
9E3
330
1F
100
AcDbEntity
  8
TEXT1
100
AcDbText
 10
107.6315198835649
 20
18.96919329879906
 30
0.0
 40
0.6399999999999999
  1
NUMBER
  7
ROMANS
 72
     1
 11
109.6124722645173
 21
19.28919329879906
 31
0.0
100
AcDbText
 73
     2
  0
TEXT
  5
9E4
330
1F
100
AcDbEntity
  8
TEXT1
100
AcDbText
 10
113.167689288727
 20
23.7785358525375
 30
0.0
 40
0.6399999999999999
  1
DUAL DIMENSIONS:
  7
ROMANS
 11
113.167689288727
 21
24.0985358525375
 31
0.0
100
AcDbText
 73
     2
  0
TEXT
  5
9E5
330
1F
100
AcDbEntity
  8
TEXT1
100
AcDbText
 10
100.5495488164176
 20
17.92055986436913
 30
0.0
 40
0.6399999999999999
  1
RATING
  7
ROMANS
 72
     1
 11
102.1800250068938
 21
18.24055986436913
 31
0.0
100
AcDbText
 73
     2
  0
TEXT
  5
9E6
330
1F
100
AcDbEntity
  8
TEXT1
100
AcDbText
 10
101.3201215417359
 20
15.66406096234552
 30
0.0
 40
0.6399999999999999
  1
22K
  7
ROMANS
 72
     1
 11
102.2496453512597
 21
15.98406096234552
 31
0.0
100
AcDbText
 73
     2
  0
TEXT
  5
9E7
330
1F
100
AcDbEntity
  8
TEXT1
100
AcDbText
 10
100.4223879490532
 20
19.92632061661759
 30
0.0
 40
0.6399999999999999
  1
CIRCUIT
  7
ROMANS
 72
     1
 11
102.2357212823866
 21
20.2463206166176
 31
0.0
100
AcDbText
 73
     2
  0
TEXT
  5
9E8
330
1F
100
AcDbEntity
  8
TEXT1
100
AcDbText
 10
100.6661974728627
 20
20.97132061661759
 30
0.0
 40
0.6399999999999999
  1
SHORT
  7
ROMANS
 72
     1
 11
102.2357212823866
 21
21.29132061661759
 31
0.0
100
AcDbText
 73
     2
  0
TEXT
  5
9E9
330
1F
100
AcDbEntity
  8
TEXT1
100
AcDbText
 10
122.2553431541633
 20
20.96971234157938
 30
0.0
 40
0.6399999999999999
  1
LINE SIDE
  7
ROMANS
 72
     1
 11
124.6477241065442
 21
21.28971234157938
 31
0.0
100
AcDbText
 73
     2
  0
TEXT
  5
9EA
330
1F
100
AcDbEntity
  8
TEXT1
100
AcDbText
 10
122.5906077324068
 20
24.19936936389004
 30
0.0
 40
0.8
  1
INCHES
  7
ROMANS
 11
122.5906077324068
 21
24.59936936389004
 31
0.0
100
AcDbText
 73
     2
  0
TEXT
  5
9EB
330
1F
100
AcDbEntity
  8
TEXT1
100
AcDbText
 10
108.4261878864847
 20
34.93871738965552
 30
0.0
 40
0.8
  1
RC2M200SH
  7
ROMANS
 11
108.4261878864847
 21
35.33871738965552
 31
0.0
100
AcDbText
 73
     2
  0
TEXT
  5
9EC
330
1F
100
AcDbEntity
  8
TEXT1
100
AcDbText
 10
108.4261878864847
 20
36.4200780856498
 30
0.0
 40
0.8
  1
RC2M200S
  7
ROMANS
 11
108.4261878864847
 21
36.8200780856498
 31
0.0
100
AcDbText
 73
     2
  0
LINE
  5
9ED
330
1F
100
AcDbEntity
  8
CONTINUOUS1
100
AcDbLine
 10
110.5602439189032
 20
39.3913315401731
 30
0.0
 11
110.3082664136961
 21
39.39133154017309
 31
0.0
  0
CIRCLE
  5
9EE
330
1F
100
AcDbEntity
  8
CONTINUOUS1
100
AcDbCircle
 10
110.0039410515803
 20
39.39133154017309
 30
0.0
 40
0.2785093318794561
  0
CIRCLE
  5
9EF
102
{ACAD_REACTORS
330
AB6
102
}
330
1F
100
AcDbEntity
  8
CONTINUOUS1
100
AcDbCircle
 10
112.3445768907763
 20
39.3913315401731
 30
0.0
 40
0.1856728879196374
  0
CIRCLE
  5
9F0
102
{ACAD_REACTORS
330
AB6
102
}
330
1F
100
AcDbEntity
  8
CONTINUOUS1
100
AcDbCircle
 10
121.0350786498685
 20
39.3913315401731
 30
0.0
 40
0.1856728879196374
  0
TEXT
  5
9F1
330
1F
100
AcDbEntity
  8
TEXT1
100
AcDbText
 10
97.2524392077946
 20
45.08183208749722
 30
0.0
 40
0.6399999999999999
  1
TYPE QOM2-VH CIRCUIT
  7
ROMANS
 11
97.2524392077946
 21
45.40183208749722
 31
0.0
100
AcDbText
 73
     2
  0
TEXT
  5
9F2
330
1F
100
AcDbEntity
  8
TEXT1
100
AcDbText
 10
97.1917790814666
 20
46.20605333375557
 30
0.0
 40
0.6399999999999999
  1
SERVICE DISCONNECT
  7
ROMANS
 11
97.1917790814666
 21
46.52605333375557
 31
0.0
100
AcDbText
 73
     2
  0
TEXT
  5
9F3
330
1F
100
AcDbEntity
  8
TEXT1
100
AcDbText
 10
96.42859911555625
 20
41.37128619860471
 30
0.0
 40
0.6399999999999999
  1
SERVICE DISCONNECT
  7
ROMANS
 11
96.42859911555625
 21
41.69128619860471
 31
0.0
100
AcDbText
 73
     2
  0
TEXT
  5
9F4
330
1F
100
AcDbEntity
  8
TEXT1
100
AcDbText
 10
97.3130993341226
 20
43.95761084123885
 30
0.0
 40
0.6399999999999999
  1
BREAKER 200A MAX
  7
ROMANS
 11
97.3130993341226
 21
44.27761084123885
 31
0.0
100
AcDbText
 73
     2
  0
LINE
  5
9F5
330
1F
100
AcDbEntity
  8
CONTINUOUS1
100
AcDbLine
 10
75.42691600759889
 20
52.94558446618808
 30
0.0
 11
78.66378407119322
 21
52.94558446618808
 31
0.0
  0
LINE
  5
9F6
330
1F
100
AcDbEntity
  8
CONTINUOUS1
100
AcDbLine
 10
78.84422353770251
 20
48.06710906737479
 30
0.0
 11
78.07426189003962
 21
48.06710906737479
 31
0.0
  0
LWPOLYLINE
  5
9F7
330
1F
100
AcDbEntity
  8
CONTINUOUS1
100
AcDbPolyline
 90
        3
 70
   128
 43
0.0
 10
78.84422353770247
 20
44.85680458084955
 10
73.93713636217137
 20
44.85680458084952
 10
73.93429264607584
 20
44.85680458084952
  0
LWPOLYLINE
  5
9F8
330
1F
100
AcDbEntity
  8
CONTINUOUS1
100
AcDbPolyline
 90
        3
 70
   128
 43
0.0
 10
74.59104535313162
 20
48.06710906737479
 10
81.28734740136422
 20
50.50649622485779
 10
81.52792494324996
 20
49.86375723497901
  0
LINE
  5
9F9
330
1F
100
AcDbEntity
  8
CONTINUOUS1
100
AcDbLine
 10
75.05557023175976
 20
56.23460041307752
 30
0.0
 11
75.05557023175976
 21
55.98976780726441
 31
0.0
  0
TEXT
  5
9FA
330
1F
100
AcDbEntity
  8
TEXT1
100
AcDbText
 10
57.85328752367163
 20
45.8858296286983
 30
0.0
 40
0.6399999999999999
  1
TYPE QOM2-VH (200A MAX)
  7
ROMANS
 11
57.85328752367163
 21
46.2058296286983
 31
0.0
100
AcDbText
 73
     2
  0
TEXT
  5
9FB
330
1F
100
AcDbEntity
  8
TEXT1
100
AcDbText
 10
57.79262739734363
 20
46.88327445750127
 30
0.0
 40
0.6399999999999999
  1
SERVICE DISCONNECT
  7
ROMANS
 11
57.79262739734363
 21
47.20327445750127
 31
0.0
100
AcDbText
 73
     2
  0
LINE
  5
9FC
330
1F
100
AcDbEntity
  8
CONTINUOUS1
100
AcDbLine
 10
77.70291611420327
 20
48.43845484321591
 30
0.0
 11
77.70291611420327
 21
50.63263260060336
 31
0.0
  0
LWPOLYLINE
  5
9FD
330
1F
100
AcDbEntity
  8
CONTINUOUS1
100
AcDbPolyline
 90
        3
 70
   128
 43
0.0
 10
73.22283279266338
 20
48.06710906737485
 42
0.4142135623730834
 10
73.57998457741695
 20
47.70995728262034
 42
0.4142135623730601
 10
73.93713636217142
 20
48.06710906737391
  0
LINE
  5
9FE
330
1F
100
AcDbEntity
  8
CONTINUOUS1
100
AcDbLine
 10
73.22283279266338
 20
48.06710906737394
 30
0.0
 11
72.45949857452592
 21
48.06710906737479
 31
0.0
  0
LWPOLYLINE
  5
9FF
330
1F
100
AcDbEntity
  8
CONTINUOUS1
100
AcDbPolyline
 90
        3
 70
   128
 43
0.0
 10
73.22283279266338
 20
44.85680458084963
 42
0.4142135623731067
 10
73.57998457741695
 20
44.49965279609513
 42
0.4142135623730718
 10
73.93713636217142
 20
44.85680458084869
  0
LINE
  5
A00
330
1F
100
AcDbEntity
  8
CONTINUOUS1
100
AcDbLine
 10
73.22283279266338
 20
44.85680458084957
 30
0.0
 11
72.45949857452592
 21
44.85680458084955
 31
0.0
  0
LWPOLYLINE
  5
A01
330
1F
100
AcDbEntity
  8
CONTINUOUS1
100
AcDbPolyline
 90
        4
 70
   129
 43
0.0
 10
72.45949857452592
 20
49.26710906737481
 10
72.45949857452592
 20
43.65680458084953
 10
74.59104535313162
 20
43.65680458084953
 10
74.59104535313162
 20
49.26710906737481
  0
CIRCLE
  5
A02
330
1F
100
AcDbEntity
  8
CONTINUOUS1
100
AcDbCircle
 10
72.05373142503822
 20
44.85680458084955
 30
0.0
 40
0.3713457758392748
  0
CIRCLE
  5
A03
330
1F
100
AcDbEntity
  8
CONTINUOUS1
100
AcDbCircle
 10
72.05373142503822
 20
48.06710906737391
 30
0.0
 40
0.3713457758392748
  0
HATCH
  5
A04
330
1F
100
AcDbEntity
  8
CONTINUOUS1
100
AcDbHatch
 10
0.0
 20
0.0
 30
0.0
210
0.0
220
0.0
230
1.0
  2
SOLID
 70
     1
 71
     1
 91
        2
 92
        1
 93
        1
 72
     2
 10
74.77671824105101
 20
48.08263019468498
 40
0.1856728879196374
 50
0.0
 51
360.0
 73
     1
 97
        1
330
A08
 92
        1
 93
        1
 72
     2
 10
74.77671824105101
 20
44.85680458085023
 40
0.1856728879196374
 50
0.0
 51
360.0
 73
     1
 97
        1
330
A06
 75
     0
 76
     1
 98
        1
 10
-44.33601829779187
 20
21.31149095087945
  0
LINE
  5
A05
330
1F
100
AcDbEntity
  8
CONTINUOUS1
100
AcDbLine
 10
73.57998457741743
 20
44.49965279609717
 30
0.0
 11
73.57998457741743
 21
47.70995728263043
 31
0.0
  0
CIRCLE
  5
A06
102
{ACAD_REACTORS
330
A04
102
}
330
1F
100
AcDbEntity
  8
CONTINUOUS1
100
AcDbCircle
 10
74.77671824105101
 20
44.85680458085023
 30
0.0
 40
0.1856728879196374
  0
INSERT
  5
A07
330
1F
100
AcDbEntity
  8
TEXT1
100
AcDbBlockReference
  2
M_PFN_101
 10
74.95269428647782
 20
44.79758589508004
 30
0.0
 41
7.999999999999997
 42
8.0
 43
8.0
 50
294.0740543679475
  0
CIRCLE
  5
A08
102
{ACAD_REACTORS
330
A04
102
}
330
1F
100
AcDbEntity
  8
CONTINUOUS1
100
AcDbCircle
 10
74.77671824105101
 20
48.08263019468498
 30
0.0
 40
0.1856728879196374
  0
INSERT
  5
A09
330
1F
100
AcDbEntity
  8
TEXT1
100
AcDbBlockReference
  2
M_PFN_101
 10
74.95269428647782
 20
48.02341150891479
 30
0.0
 41
8.000000000000005
 42
8.0
 43
8.0
 50
282.0407869466775
  0
LINE
  5
A0A
330
1F
100
AcDbEntity
  8
CONTINUOUS1
100
AcDbLine
 10
74.59104535313162
 20
48.06710906737479
 30
0.0
 11
73.93713636216833
 21
48.06710906737479
 31
0.0
  0
CIRCLE
  5
A0B
330
1F
100
AcDbEntity
  8
CONTINUOUS1
100
AcDbCircle
 10
77.70291611420327
 20
48.06710906737479
 30
0.0
 40
0.3713457758392748
  0
TEXT
  5
A0C
330
1F
100
AcDbEntity
  8
TEXT1
100
AcDbText
 10
73.82502833251054
 20
52.68055163906851
 30
0.0
 40
0.6399999999999999
  1
N
  7
ROMANS
 72
     1
 11
74.16026642774864
 21
53.00055163906851
 31
0.0
100
AcDbText
 73
     2
  0
CIRCLE
  5
A0D
330
1F
100
AcDbEntity
  8
CONTINUOUS1
100
AcDbCircle
 10
75.05557023175976
 20
52.94558446618811
 30
0.0
 40
0.3713457758392748
  0
TEXT
  5
A0E
330
1F
100
AcDbEntity
  8
TEXT1
100
AcDbText
 10
77.36767801896518
 20
51.28319458785814
 30
0.0
 40
0.6399999999999999
  1
Ø
  7
ROMANS
 72
     1
 11
77.70291611420327
 21
51.60319458785814
 31
0.0
100
AcDbText
 73
     2
  0
LINE
  5
A0F
330
1F
100
AcDbEntity
  8
CONTINUOUS1
100
AcDbLine
 10
75.05557023175976
 20
54.63089787393677
 30
0.0
 11
75.05557023175976
 21
54.38606526812447
 31
0.0
  0
LINE
  5
A10
330
1F
100
AcDbEntity
  8
CONTINUOUS1
100
AcDbLine
 10
75.05557023175976
 20
53.64337371644275
 30
0.0
 11
75.05557023175976
 21
53.31693024202525
 31
0.0
  0
CIRCLE
  5
A11
330
1F
100
AcDbEntity
  8
CONTINUOUS1
100
AcDbCircle
 10
75.05557023175976
 20
54.01471949228255
 30
0.0
 40
0.3713457758392748
  0
LINE
  5
A12
330
1F
100
AcDbEntity
  8
CONTINUOUS1
100
AcDbLine
 10
75.05557023175976
 20
55.4327491435067
 30
0.0
 11
75.05557023175976
 21
55.18791653769358
 31
0.0
  0
CIRCLE
  5
A13
330
1F
100
AcDbEntity
  8
CONTINUOUS1
100
AcDbCircle
 10
75.05557023175976
 20
55.71125847538656
 30
0.0
 40
0.2785093318794561
  0
CIRCLE
  5
A14
330
1F
100
AcDbEntity
  8
CONTINUOUS1
100
AcDbCircle
 10
75.05557023175976
 20
54.90940720581572
 30
0.0
 40
0.2785093318794561
  0
LINE
  5
A15
330
1F
100
AcDbEntity
  8
CONTINUOUS1
100
AcDbLine
 10
75.05557023175976
 20
57.03645168264837
 30
0.0
 11
75.05557023175976
 21
56.79161907683525
 31
0.0
  0
CIRCLE
  5
A16
330
1F
100
AcDbEntity
  8
CONTINUOUS1
100
AcDbCircle
 10
75.05557023175976
 20
57.31496101452822
 30
0.0
 40
0.2785093318794561
  0
CIRCLE
  5
A17
330
1F
100
AcDbEntity
  8
CONTINUOUS1
100
AcDbCircle
 10
75.05557023175976
 20
56.51310974495738
 30
0.0
 40
0.2785093318794561
  0
LINE
  5
A18
330
1F
100
AcDbEntity
  8
CONTINUOUS1
100
AcDbLine
 10
86.02121939955679
 20
48.43845484321591
 30
0.0
 11
86.02121939955679
 21
50.63263260060335
 31
0.0
  0
LINE
  5
A19
330
1F
100
AcDbEntity
  8
HIDDEN1
100
AcDbLine
 10
81.52792494324996
 20
49.86375723497901
 30
0.0
 11
83.23226287942379
 21
45.31036278709309
 31
0.0
  0
LWPOLYLINE
  5
A1A
330
1F
100
AcDbEntity
  8
CONTINUOUS1
100
AcDbPolyline
 90
        4
 70
   129
 43
0.0
 10
83.01366179389914
 20
48.52066727361837
 10
83.92077820638622
 20
48.52066727361837
 10
83.92077820638622
 20
47.61355086113128
 10
83.01366179389914
 20
47.61355086113128
  0
LWPOLYLINE
  5
A1B
330
1F
100
AcDbEntity
  8
CONTINUOUS1
100
AcDbPolyline
 90
        4
 70
   129
 43
0.0
 10
83.01366179389914
 20
45.31036278709309
 10
83.92077820638622
 20
45.31036278709309
 10
83.92077820638622
 20
44.40324637460601
 10
83.01366179389914
 20
44.40324637460601
  0
LWPOLYLINE
  5
A1C
330
1F
100
AcDbEntity
  8
CONTINUOUS1
100
AcDbPolyline
 90
        4
 70
   129
 43
0.0
 10
79.34979910113032
 20
46.91551503035572
 10
80.2569155136174
 20
46.91551503035572
 10
80.2569155136174
 20
46.00839861786864
 10
79.34979910113032
 20
46.00839861786864
  0
LWPOLYLINE
  5
A1D
330
1F
100
AcDbEntity
  8
CONTINUOUS1
100
AcDbPolyline
 90
        4
 70
   129
 43
0.0
 10
79.80335730737386
 20
45.31036278709309
 10
80.71047371986095
 20
45.31036278709309
 10
80.71047371986095
 20
44.40324637460601
 10
79.80335730737386
 20
44.40324637460601
  0
LINE
  5
A1E
330
1F
100
AcDbEntity
  8
HIDDEN1
100
AcDbLine
 10
78.84422353770251
 20
44.85680458084955
 30
0.0
 11
79.80335730737386
 21
44.85680458084955
 31
0.0
  0
LWPOLYLINE
  5
A1F
330
1F
100
AcDbEntity
  8
CONTINUOUS1
100
AcDbPolyline
 90
        4
 70
   129
 43
0.0
 10
79.80335730737386
 20
48.52066727361837
 10
80.71047371986095
 20
48.52066727361837
 10
80.71047371986095
 20
47.61355086113128
 10
79.80335730737386
 20
47.61355086113128
  0
LINE
  5
A20
330
1F
100
AcDbEntity
  8
HIDDEN1
100
AcDbLine
 10
78.84422353770251
 20
48.06710906737479
 30
0.0
 11
79.80335730737386
 21
48.06710906737479
 31
0.0
  0
CIRCLE
  5
A21
330
1F
100
AcDbEntity
  8
CONTINUOUS1
100
AcDbCircle
 10
86.02121939955679
 20
48.06710906737479
 30
0.0
 40
0.3713457758392748
  0
LINE
  5
A22
330
1F
100
AcDbEntity
  8
HIDDEN1
100
AcDbLine
 10
84.87991197605754
 20
48.06710906737479
 30
0.0
 11
83.92077820638622
 21
48.06710906737479
 31
0.0
  0
LINE
  5
A23
330
1F
100
AcDbEntity
  8
CONTINUOUS1
100
AcDbLine
 10
84.87991197605754
 20
48.06710906737479
 30
0.0
 11
85.6498736237205
 21
48.06710906737479
 31
0.0
  0
TEXT
  5
A24
330
1F
100
AcDbEntity
  8
TEXT1
100
AcDbText
 10
79.67593835231359
 20
52.68055163906851
 30
0.0
 40
0.6399999999999999
  1
N
  7
ROMANS
 72
     1
 11
80.01117644755169
 21
53.00055163906851
 31
0.0
100
AcDbText
 73
     2
  0
CIRCLE
  5
A25
330
1F
100
AcDbEntity
  8
CONTINUOUS1
100
AcDbCircle
 10
79.03512984703249
 20
52.94558446618811
 30
0.0
 40
0.3713457758392748
  0
TEXT
  5
A26
330
1F
100
AcDbEntity
  8
TEXT1
100
AcDbText
 10
85.68598130431871
 20
51.28319458785812
 30
0.0
 40
0.6399999999999999
  1
Ø
  7
ROMANS
 72
     1
 11
86.02121939955679
 21
51.60319458785812
 31
0.0
100
AcDbText
 73
     2
  0
LINE
  5
A27
330
1F
100
AcDbEntity
  8
CONTINUOUS1
100
AcDbLine
 10
124.8703555583952
 20
75.00320000000001
 30
0.0
 11
124.8703555583952
 21
57.80319999999999
 31
0.0
  0
LINE
  5
A28
330
1F
100
AcDbEntity
  8
CONTINUOUS1
100
AcDbLine
 10
120.8413748264311
 20
76.36319999999996
 30
0.0
 11
120.8413748264311
 21
57.80319999999999
 31
0.0
  0
LWPOLYLINE
  5
A29
330
1F
100
AcDbEntity
  8
CONTINUOUS1
100
AcDbPolyline
 90
        4
 70
   129
 43
0.0
 10
115.8501346826552
 20
57.80319999999999
 10
129.1999999999998
 20
57.80319999999999
 10
129.1999999999999
 20
78.36319999999999
 10
115.8501346826552
 20
78.36320000000005
  0
LINE
  5
A2A
330
1F
100
AcDbEntity
  8
CONTINUOUS1
100
AcDbLine
 10
115.8501346826552
 20
64.2032
 30
0.0
 11
129.1999999999998
 21
64.20319999999996
 31
0.0
  0
TEXT
  5
A2B
330
1F
100
AcDbEntity
  8
TEXT1
100
AcDbText
 10
126.3955875987097
 20
61.4832
 30
0.0
 40
0.6399999999999999
  1
76
  7
ROMANS
 72
     1
 11
127.0051114082335
 21
61.8032
 31
0.0
100
AcDbText
 73
     2
  0
TEXT
  5
A2C
330
1F
100
AcDbEntity
  8
TEXT1
100
AcDbText
 10
126.4108256939478
 20
59.88319999999998
 30
0.0
 40
0.6399999999999999
  1
89
  7
ROMANS
 72
     1
 11
127.0051114082335
 21
60.20319999999998
 31
0.0
100
AcDbText
 73
     2
  0
TEXT
  5
A2D
330
1F
100
AcDbEntity
  8
TEXT1
100
AcDbText
 10
126.0451114082335
 20
58.28319999999997
 30
0.0
 40
0.6399999999999999
  1
102
  7
ROMANS
 72
     1
 11
127.0051114082335
 21
58.60319999999997
 31
0.0
100
AcDbText
 73
     2
  0
LINE
  5
A2E
330
1F
100
AcDbEntity
  8
CONTINUOUS1
100
AcDbLine
 10
122.4477706257835
 20
48.06710906737481
 30
0.0
 11
123.2177322734463
 21
48.06710906737481
 31
0.0
  0
LINE
  5
A2F
330
1F
100
AcDbEntity
  8
CONTINUOUS1
100
AcDbLine
 10
115.8501346826552
 20
59.40319999999999
 30
0.0
 11
129.1999999999998
 21
59.40319999999999
 31
0.0
  0
LINE
  5
A30
330
1F
100
AcDbEntity
  8
CONTINUOUS1
100
AcDbLine
 10
115.8501346826552
 20
62.6032
 30
0.0
 11
129.1999999999998
 21
62.60319999999997
 31
0.0
  0
LINE
  5
A31
330
1F
100
AcDbEntity
  8
CONTINUOUS1
100
AcDbLine
 10
115.8501346826552
 20
61.00319999999999
 30
0.0
 11
129.1999999999998
 21
61.00320000000001
 31
0.0
  0
TEXT
  5
A32
330
1F
100
AcDbEntity
  8
TEXT1
100
AcDbText
 10
126.3651114082335
 20
63.08319999999994
 30
0.0
 40
0.6399999999999999
  1
64
  7
ROMANS
 72
     1
 11
127.0051114082335
 21
63.40319999999994
 31
0.0
100
AcDbText
 73
     2
  0
CIRCLE
  5
A33
330
1F
100
AcDbEntity
  8
CONTINUOUS1
100
AcDbCircle
 10
110.426284407465
 20
53.65032730665495
 30
0.0
 40
0.2785093318794561
  0
TEXT
  5
A34
330
1F
100
AcDbEntity
  8
TEXT1
100
AcDbText
 10
112.7906194913864
 20
50.59769655699724
 30
0.0
 40
0.6399999999999999
  1
N
  7
ROMANS
 72
     1
 11
113.1258575866245
 21
50.91769655699724
 31
0.0
100
AcDbText
 73
     2
  0
LWPOLYLINE
  5
A35
330
1F
100
AcDbEntity
  8
CONTINUOUS1
100
AcDbPolyline
 90
        3
 70
   128
 43
0.0
 10
112.1589040028575
 20
48.06710906737481
 10
118.8552060510901
 20
50.50649622485779
 10
119.0957835929759
 20
49.86375723497901
  0
LWPOLYLINE
  5
A36
330
1F
100
AcDbEntity
  8
CONTINUOUS1
100
AcDbPolyline
 90
        3
 70
   128
 43
0.0
 10
117.8247741633432
 20
44.40324637460601
 10
117.8253484528419
 20
41.79905990506638
 10
112.1594782923561
 20
41.79905990506638
  0
LWPOLYLINE
  5
A37
330
1F
100
AcDbEntity
  8
CONTINUOUS1
100
AcDbPolyline
 90
        3
 70
   128
 43
0.0
 10
116.4120821874284
 20
44.85680458084955
 10
111.5049950118972
 20
44.85680458084952
 10
111.5021512958017
 20
44.85680458084952
  0
LWPOLYLINE
  5
A38
330
1F
100
AcDbEntity
  8
CONTINUOUS1
100
AcDbPolyline
 90
        4
 70
   129
 43
0.0
 10
110.0273572242518
 20
49.26710906737481
 10
110.0273572242518
 20
43.65680458084953
 10
112.1589040028575
 20
43.65680458084953
 10
112.1589040028575
 20
49.26710906737481
  0
LINE
  5
A39
330
1F
100
AcDbEntity
  8
CONTINUOUS1
100
AcDbLine
 10
111.1478432271433
 20
44.49965279609717
 30
0.0
 11
111.1478432271433
 21
47.70995728263043
 31
0.0
  0
LINE
  5
A3A
330
1F
100
AcDbEntity
  8
CONTINUOUS1
100
AcDbLine
 10
110.5602439189032
 20
41.79905990506638
 30
0.0
 11
110.3082664136961
 21
41.79905990506703
 31
0.0
  0
CIRCLE
  5
A3B
330
1F
100
AcDbEntity
  8
CONTINUOUS1
100
AcDbCircle
 10
110.0039410515803
 20
41.79905990506638
 30
0.0
 40
0.2785093318794561
  0
CIRCLE
  5
A3C
102
{ACAD_REACTORS
330
AB6
102
}
330
1F
100
AcDbEntity
  8
CONTINUOUS1
100
AcDbCircle
 10
112.3445768907763
 20
41.81365203226714
 30
0.0
 40
0.1856728879196374
  0
LINE
  5
A3D
330
1F
100
AcDbEntity
  8
CONTINUOUS1
100
AcDbLine
 10
110.7906914423893
 20
44.85680458084957
 30
0.0
 11
110.0273572242518
 21
44.85680458084955
 31
0.0
  0
CIRCLE
  5
A3E
330
1F
100
AcDbEntity
  8
CONTINUOUS1
100
AcDbCircle
 10
109.6215900747641
 20
44.85680458084955
 30
0.0
 40
0.3713457758392748
  0
LWPOLYLINE
  5
A3F
330
1F
100
AcDbEntity
  8
CONTINUOUS1
100
AcDbPolyline
 90
        3
 70
   128
 43
0.0
 10
110.7906914423893
 20
44.85680458084963
 42
0.4142135623731067
 10
111.1478432271428
 20
44.49965279609513
 42
0.4142135623730718
 10
111.5049950118973
 20
44.85680458084869
  0
CIRCLE
  5
A40
102
{ACAD_REACTORS
330
AB6
102
}
330
1F
100
AcDbEntity
  8
CONTINUOUS1
100
AcDbCircle
 10
112.3445768907769
 20
44.85680458085023
 30
0.0
 40
0.1856728879196374
  0
CIRCLE
  5
A41
330
1F
100
AcDbEntity
  8
CONTINUOUS1
100
AcDbCircle
 10
110.426284407465
 20
50.88465329745652
 30
0.0
 40
0.3713457758392748
  0
CIRCLE
  5
A42
330
1F
100
AcDbEntity
  8
CONTINUOUS1
100
AcDbCircle
 10
112.2425016117715
 20
50.88465329745652
 30
0.0
 40
0.3713457758392748
  0
LINE
  5
A43
330
1F
100
AcDbEntity
  8
CONTINUOUS1
100
AcDbLine
 10
110.7906914423893
 20
48.06710906737396
 30
0.0
 11
110.0273572242518
 21
48.06710906737481
 31
0.0
  0
CIRCLE
  5
A44
330
1F
100
AcDbEntity
  8
CONTINUOUS1
100
AcDbCircle
 10
109.6215900747641
 20
48.06710906737391
 30
0.0
 40
0.3713457758392748
  0
LINE
  5
A45
330
1F
100
AcDbEntity
  8
CONTINUOUS1
100
AcDbLine
 10
112.1589040028575
 20
48.06710906737481
 30
0.0
 11
111.5049950118941
 21
48.06710906737479
 31
0.0
  0
LWPOLYLINE
  5
A46
330
1F
100
AcDbEntity
  8
CONTINUOUS1
100
AcDbPolyline
 90
        3
 70
   128
 43
0.0
 10
110.7906914423893
 20
48.06710906737485
 42
0.4142135623730834
 10
111.1478432271428
 20
47.70995728262034
 42
0.4142135623730718
 10
111.5049950118973
 20
48.06710906737391
  0
CIRCLE
  5
A47
102
{ACAD_REACTORS
330
AB6
102
}
330
1F
100
AcDbEntity
  8
CONTINUOUS1
100
AcDbCircle
 10
112.3445768907769
 20
48.08263019468498
 30
0.0
 40
0.1856728879196374
  0
CIRCLE
  5
A48
330
1F
100
AcDbEntity
  8
CONTINUOUS1
100
AcDbCircle
 10
110.426284407465
 20
51.95378832355094
 30
0.0
 40
0.3713457758392748
  0
CIRCLE
  5
A49
330
1F
100
AcDbEntity
  8
CONTINUOUS1
100
AcDbCircle
 10
110.426284407465
 20
52.84847603708413
 30
0.0
 40
0.2785093318794561
  0
LINE
  5
A4A
330
1F
100
AcDbEntity
  8
CONTINUOUS1
100
AcDbLine
 10
110.7976301833041
 20
50.88465329745648
 30
0.0
 11
111.8711558359323
 21
50.8846532974565
 31
0.0
  0
LINE
  5
A4B
330
1F
100
AcDbEntity
  8
CONTINUOUS1
100
AcDbLine
 10
110.426284407465
 20
51.58244254771113
 30
0.0
 11
110.426284407465
 21
51.25599907329364
 31
0.0
  0
LINE
  5
A4C
330
1F
100
AcDbEntity
  8
CONTINUOUS1
100
AcDbLine
 10
110.426284407465
 20
53.37181797477509
 30
0.0
 11
110.426284407465
 21
53.12698536896197
 31
0.0
  0
LINE
  5
A4D
330
1F
100
AcDbEntity
  8
CONTINUOUS1
100
AcDbLine
 10
110.426284407465
 20
52.56996670520515
 30
0.0
 11
110.426284407465
 21
52.32513409939286
 31
0.0
  0
LINE
  5
A4E
330
1F
100
AcDbEntity
  8
HIDDEN1
100
AcDbLine
 10
119.0957835929759
 20
49.86375723497901
 30
0.0
 11
120.8001215291497
 21
45.31036278709309
 31
0.0
  0
CIRCLE
  5
A4F
330
1F
100
AcDbEntity
  8
CONTINUOUS1
100
AcDbCircle
 10
119.4299264066059
 20
46.46195682411218
 30
0.0
 40
3.41817165386313
  0
LWPOLYLINE
  5
A50
330
1F
100
AcDbEntity
  8
CONTINUOUS1
100
AcDbPolyline
 90
        4
 70
   129
 43
0.0
 10
117.3712159570997
 20
45.31036278709309
 10
118.2783323695868
 20
45.31036278709309
 10
118.2783323695868
 20
44.40324637460601
 10
117.3712159570997
 20
44.40324637460601
  0
CIRCLE
  5
A51
102
{ACAD_REACTORS
330
AB6
102
}
330
1F
100
AcDbEntity
  8
CONTINUOUS1
100
AcDbCircle
 10
117.8253484528419
 20
41.79905990506638
 30
0.0
 40
0.1856728879196374
  0
LINE
  5
A52
330
1F
100
AcDbEntity
  8
HIDDEN1
100
AcDbLine
 10
116.4120821874284
 20
44.85680458084955
 30
0.0
 11
117.3712159570997
 21
44.85680458084955
 31
0.0
  0
LWPOLYLINE
  5
A53
330
1F
100
AcDbEntity
  8
CONTINUOUS1
100
AcDbPolyline
 90
        4
 70
   129
 43
0.0
 10
116.9176577508561
 20
46.91551503035572
 10
117.8247741633432
 20
46.91551503035572
 10
117.8247741633432
 20
46.00839861786864
 10
116.9176577508561
 20
46.00839861786864
  0
LWPOLYLINE
  5
A54
330
1F
100
AcDbEntity
  8
CONTINUOUS1
100
AcDbPolyline
 90
        4
 70
   129
 43
0.0
 10
120.581520443625
 20
45.31036278709309
 10
121.488636856112
 20
45.31036278709309
 10
121.488636856112
 20
44.40324637460601
 10
120.581520443625
 20
44.40324637460601
  0
LWPOLYLINE
  5
A55
330
1F
100
AcDbEntity
  8
CONTINUOUS1
100
AcDbPolyline
 90
        4
 70
   129
 43
0.0
 10
117.3712159570997
 20
48.52066727361837
 10
118.2783323695868
 20
48.52066727361837
 10
118.2783323695868
 20
47.61355086113128
 10
117.3712159570997
 20
47.61355086113128
  0
TEXT
  5
A56
330
1F
100
AcDbEntity
  8
TEXT1
100
AcDbText
 10
114.935536668691
 20
50.24715657214207
 30
0.0
 40
0.6399999999999999
  1
Ø
  7
ROMANS
 72
     1
 11
115.2707747639291
 21
50.56715657214208
 31
0.0
100
AcDbText
 73
     2
  0
CIRCLE
  5
A57
330
1F
100
AcDbEntity
  8
CONTINUOUS1
100
AcDbCircle
 10
115.2707747639291
 20
48.06710906737481
 30
0.0
 40
0.3713457758392748
  0
LINE
  5
A58
330
1F
100
AcDbEntity
  8
CONTINUOUS1
100
AcDbLine
 10
115.2707747639291
 20
48.43845484321591
 30
0.0
 11
115.2707747639291
 21
49.5965945848873
 31
0.0
  0
LINE
  5
A59
330
1F
100
AcDbEntity
  8
HIDDEN1
100
AcDbLine
 10
116.4120821874284
 20
48.06710906737481
 30
0.0
 11
117.3712159570997
 21
48.06710906737481
 31
0.0
  0
LINE
  5
A5A
330
1F
100
AcDbEntity
  8
CONTINUOUS1
100
AcDbLine
 10
116.4120821874284
 20
48.06710906737481
 30
0.0
 11
115.6421205397655
 21
48.06710906737481
 31
0.0
  0
LWPOLYLINE
  5
A5B
330
1F
100
AcDbEntity
  8
CONTINUOUS1
100
AcDbPolyline
 90
        4
 70
   129
 43
0.0
 10
120.581520443625
 20
48.52066727361837
 10
121.488636856112
 20
48.52066727361837
 10
121.488636856112
 20
47.61355086113128
 10
120.581520443625
 20
47.61355086113128
  0
LINE
  5
A5C
330
1F
100
AcDbEntity
  8
HIDDEN1
100
AcDbLine
 10
122.4477706257835
 20
48.06710906737481
 30
0.0
 11
121.488636856112
 21
48.06710906737481
 31
0.0
  0
CIRCLE
  5
A5D
330
1F
100
AcDbEntity
  8
CONTINUOUS1
100
AcDbCircle
 10
110.426284407465
 20
54.45217857622753
 30
0.0
 40
0.2785093318794561
  0
CIRCLE
  5
A5E
330
1F
100
AcDbEntity
  8
CONTINUOUS1
100
AcDbCircle
 10
110.426284407465
 20
55.25402984580011
 30
0.0
 40
0.2785093318794561
  0
LINE
  5
A5F
330
1F
100
AcDbEntity
  8
CONTINUOUS1
100
AcDbLine
 10
110.426284407465
 20
54.97552051392116
 30
0.0
 11
110.426284407465
 21
54.73068790810887
 31
0.0
  0
LINE
  5
A60
330
1F
100
AcDbEntity
  8
CONTINUOUS1
100
AcDbLine
 10
110.426284407465
 20
54.17366924434858
 30
0.0
 11
110.426284407465
 21
53.92883663853629
 31
0.0
  0
TEXT
  5
A61
330
1F
100
AcDbEntity
  8
TEXT1
100
AcDbText
 10
121.8186011870701
 20
61.4832
 30
0.0
 40
0.6399999999999999
  1
3.00
  7
ROMANS
 72
     1
 11
122.8852678537368
 21
61.8032
 31
0.0
100
AcDbText
 73
     2
  0
TEXT
  5
A62
330
1F
100
AcDbEntity
  8
TEXT1
100
AcDbText
 10
121.8186011870701
 20
59.88319999999998
 30
0.0
 40
0.6399999999999999
  1
3.50
  7
ROMANS
 72
     1
 11
122.8852678537368
 21
60.20319999999998
 31
0.0
100
AcDbText
 73
     2
  0
TEXT
  5
A63
330
1F
100
AcDbEntity
  8
TEXT1
100
AcDbText
 10
121.8186011870701
 20
58.28319999999997
 30
0.0
 40
0.6399999999999999
  1
4.00
  7
ROMANS
 72
     1
 11
122.8852678537368
 21
58.60319999999997
 31
0.0
100
AcDbText
 73
     2
  0
TEXT
  5
A64
330
1F
100
AcDbEntity
  8
TEXT1
100
AcDbText
 10
121.8186011870701
 20
63.08319999999994
 30
0.0
 40
0.6399999999999999
  1
2.50
  7
ROMANS
 72
     1
 11
122.8852678537368
 21
63.40319999999994
 31
0.0
100
AcDbText
 73
     2
  0
TEXT
  5
A65
330
1F
100
AcDbEntity
  8
TEXT1
100
AcDbText
 10
118.1128874174753
 20
58.28319999999997
 30
0.0
 40
0.6399999999999999
  1
J
  7
ROMANS
 72
     1
 11
118.3262207508086
 21
58.60319999999997
 31
0.0
100
AcDbText
 73
     2
  0
TEXT
  5
A66
330
1F
100
AcDbEntity
  8
TEXT1
100
AcDbText
 10
118.2043159889039
 20
59.88319999999998
 30
0.0
 40
0.6399999999999999
  1
I
  7
ROMANS
 72
     1
 11
118.3262207508086
 21
60.20319999999998
 31
0.0
100
AcDbText
 73
     2
  0
TEXT
  5
A67
330
1F
100
AcDbEntity
  8
TEXT1
100
AcDbText
 10
117.9909826555705
 20
61.4832
 30
0.0
 40
0.6399999999999999
  1
H
  7
ROMANS
 72
     1
 11
118.3262207508086
 21
61.8032
 31
0.0
100
AcDbText
 73
     2
  0
TEXT
  5
A68
330
1F
100
AcDbEntity
  8
TEXT1
100
AcDbText
 10
118.0062207508086
 20
63.08319999999994
 30
0.0
 40
0.6399999999999999
  1
G
  7
ROMANS
 72
     1
 11
118.3262207508086
 21
63.40319999999994
 31
0.0
100
AcDbText
 73
     2
  0
TEXT
  5
A69
330
1F
100
AcDbEntity
  8
TEXT1
100
AcDbText
 10
123.2538399540446
 20
50.24715657214207
 30
0.0
 40
0.6399999999999999
  1
Ø
  7
ROMANS
 72
     1
 11
123.5890780492827
 21
50.56715657214208
 31
0.0
100
AcDbText
 73
     2
  0
LINE
  5
A6A
330
1F
100
AcDbEntity
  8
CONTINUOUS1
100
AcDbLine
 10
123.5890780492826
 20
48.43845484321591
 30
0.0
 11
123.5890780492826
 21
49.5965945848873
 31
0.0
  0
CIRCLE
  5
A6B
330
1F
100
AcDbEntity
  8
CONTINUOUS1
100
AcDbCircle
 10
123.5890780492826
 20
48.06710906737481
 30
0.0
 40
0.3713457758392748
  0
TEXT
  5
A6C
330
1F
100
AcDbEntity
  8
TEXT1
100
AcDbText
 10
126.2736828368049
 20
74.08319999999998
 30
0.0
 40
0.6399999999999999
  1
MM
  7
ROMANS
 72
     1
 11
127.0051114082335
 21
74.40319999999997
 31
0.0
100
AcDbText
 73
     2
  0
TEXT
  5
A6D
330
1F
100
AcDbEntity
  8
TEXT1
100
AcDbText
 10
126.3498733129954
 20
72.68319999999994
 30
0.0
 40
0.6399999999999999
  1
13
  7
ROMANS
 72
     1
 11
127.0051114082335
 21
73.00319999999993
 31
0.0
100
AcDbText
 73
     2
  0
TEXT
  5
A6E
330
1F
100
AcDbEntity
  8
TEXT1
100
AcDbText
 10
126.3955875987097
 20
69.48319999999998
 30
0.0
 40
0.6399999999999999
  1
25
  7
ROMANS
 72
     1
 11
127.0051114082335
 21
69.80319999999998
 31
0.0
100
AcDbText
 73
     2
  0
TEXT
  5
A6F
330
1F
100
AcDbEntity
  8
TEXT1
100
AcDbText
 10
126.3651114082335
 20
71.08319999999998
 30
0.0
 40
0.6399999999999999
  1
19
  7
ROMANS
 72
     1
 11
127.0051114082335
 21
71.40319999999997
 31
0.0
100
AcDbText
 73
     2
  0
TEXT
  5
A70
330
1F
100
AcDbEntity
  8
TEXT1
100
AcDbText
 10
126.3955875987097
 20
66.28319999999996
 30
0.0
 40
0.6399999999999999
  1
38
  7
ROMANS
 72
     1
 11
127.0051114082335
 21
66.60319999999996
 31
0.0
100
AcDbText
 73
     2
  0
TEXT
  5
A71
330
1F
100
AcDbEntity
  8
TEXT1
100
AcDbText
 10
126.3955875987097
 20
67.88319999999996
 30
0.0
 40
0.6399999999999999
  1
32
  7
ROMANS
 72
     1
 11
127.0051114082335
 21
68.20319999999995
 31
0.0
100
AcDbText
 73
     2
  0
TEXT
  5
A72
330
1F
100
AcDbEntity
  8
TEXT1
100
AcDbText
 10
126.4870161701383
 20
64.68319999999994
 30
0.0
 40
0.6399999999999999
  1
51
  7
ROMANS
 72
     1
 11
127.0051114082335
 21
65.00319999999994
 31
0.0
100
AcDbText
 73
     2
  0
LINE
  5
A73
330
1F
100
AcDbEntity
  8
CONTINUOUS1
100
AcDbLine
 10
120.8413748264311
 20
75.00320000000001
 30
0.0
 11
129.1999999999998
 21
75.00320000000001
 31
0.0
  0
TEXT
  5
A74
330
1F
100
AcDbEntity
  8
TEXT1
100
AcDbText
 10
121.5467796941029
 20
75.38930588073731
 30
0.0
 40
0.6399999999999999
  1
CONDUIT SIZE
  7
ROMANS
 72
     1
 11
124.914398741722
 21
75.7093058807373
 31
0.0
100
AcDbText
 73
     2
  0
LINE
  5
A75
330
1F
100
AcDbEntity
  8
CONTINUOUS1
100
AcDbLine
 10
115.8501346826552
 20
73.80319999999999
 30
0.0
 11
129.1999999999998
 21
73.80319999999996
 31
0.0
  0
LINE
  5
A76
330
1F
100
AcDbEntity
  8
CONTINUOUS1
100
AcDbLine
 10
115.8501346826552
 20
72.20320000000002
 30
0.0
 11
129.1999999999998
 21
72.2032
 31
0.0
  0
LINE
  5
A77
330
1F
100
AcDbEntity
  8
CONTINUOUS1
100
AcDbLine
 10
115.8501346826552
 20
67.40320000000001
 30
0.0
 11
129.1999999999998
 21
67.40319999999998
 31
0.0
  0
LINE
  5
A78
330
1F
100
AcDbEntity
  8
CONTINUOUS1
100
AcDbLine
 10
115.8501346826552
 20
70.60320000000003
 30
0.0
 11
129.1999999999998
 21
70.6032
 31
0.0
  0
LINE
  5
A79
330
1F
100
AcDbEntity
  8
CONTINUOUS1
100
AcDbLine
 10
115.8501346826552
 20
67.40320000000001
 30
0.0
 11
129.1999999999998
 21
67.40319999999998
 31
0.0
  0
LINE
  5
A7A
330
1F
100
AcDbEntity
  8
CONTINUOUS1
100
AcDbLine
 10
115.8501346826552
 20
65.80319999999999
 30
0.0
 11
129.1999999999998
 21
65.80319999999999
 31
0.0
  0
LINE
  5
A7B
330
1F
100
AcDbEntity
  8
CONTINUOUS1
100
AcDbLine
 10
115.8501346826552
 20
69.0032
 30
0.0
 11
129.1999999999998
 21
69.00319999999998
 31
0.0
  0
LINE
  5
A7C
330
1F
100
AcDbEntity
  8
CONTINUOUS1
100
AcDbLine
 10
115.8501346826552
 20
76.36319999999999
 30
0.0
 11
129.1999999999998
 21
76.36319999999996
 31
0.0
  0
TEXT
  5
A7D
330
1F
100
AcDbEntity
  8
TEXT1
100
AcDbText
 10
119.6613727778933
 20
77.04319999999995
 30
0.0
 40
0.6399999999999999
  1
KNOCKOUTS
  7
ROMANS
 72
     1
 11
122.5261346826552
 21
77.36319999999995
 31
0.0
100
AcDbText
 73
     2
  0
TEXT
  5
A7E
330
1F
100
AcDbEntity
  8
TEXT1
100
AcDbText
 10
116.4366969412848
 20
74.6832
 30
0.0
 40
0.6399999999999999
  1
SYMBOL
  7
ROMANS
 72
     1
 11
118.3262207508086
 21
75.00319999999999
 31
0.0
100
AcDbText
 73
     2
  0
TEXT
  5
A7F
330
1F
100
AcDbEntity
  8
TEXT1
100
AcDbText
 10
121.8186011870701
 20
64.68319999999994
 30
0.0
 40
0.6399999999999999
  1
2.00
  7
ROMANS
 72
     1
 11
122.8852678537368
 21
65.00319999999994
 31
0.0
100
AcDbText
 73
     2
  0
TEXT
  5
A80
330
1F
100
AcDbEntity
  8
TEXT1
100
AcDbText
 10
118.0062207508086
 20
64.68319999999994
 30
0.0
 40
0.6399999999999999
  1
F
  7
ROMANS
 72
     1
 11
118.3262207508086
 21
65.00319999999994
 31
0.0
100
AcDbText
 73
     2
  0
TEXT
  5
A81
330
1F
100
AcDbEntity
  8
TEXT1
100
AcDbText
 10
118.0062207508086
 20
66.28319999999996
 30
0.0
 40
0.6399999999999999
  1
E
  7
ROMANS
 72
     1
 11
118.3262207508086
 21
66.60319999999996
 31
0.0
100
AcDbText
 73
     2
  0
TEXT
  5
A82
330
1F
100
AcDbEntity
  8
TEXT1
100
AcDbText
 10
117.9909826555705
 20
67.88319999999996
 30
0.0
 40
0.6399999999999999
  1
D
  7
ROMANS
 72
     1
 11
118.3262207508086
 21
68.20319999999995
 31
0.0
100
AcDbText
 73
     2
  0
TEXT
  5
A83
330
1F
100
AcDbEntity
  8
TEXT1
100
AcDbText
 10
118.0062207508086
 20
69.48319999999998
 30
0.0
 40
0.6399999999999999
  1
C
  7
ROMANS
 72
     1
 11
118.3262207508086
 21
69.80319999999998
 31
0.0
100
AcDbText
 73
     2
  0
TEXT
  5
A84
330
1F
100
AcDbEntity
  8
TEXT1
100
AcDbText
 10
121.7728869013559
 20
66.28319999999996
 30
0.0
 40
0.6399999999999999
  1
1.50
  7
ROMANS
 72
     1
 11
122.8852678537368
 21
66.60319999999996
 31
0.0
100
AcDbText
 73
     2
  0
TEXT
  5
A85
330
1F
100
AcDbEntity
  8
TEXT1
100
AcDbText
 10
121.7728869013559
 20
67.88319999999996
 30
0.0
 40
0.6399999999999999
  1
1.25
  7
ROMANS
 72
     1
 11
122.8852678537368
 21
68.20319999999995
 31
0.0
100
AcDbText
 73
     2
  0
TEXT
  5
A86
330
1F
100
AcDbEntity
  8
TEXT1
100
AcDbText
 10
121.7728869013559
 20
69.48319999999998
 30
0.0
 40
0.6399999999999999
  1
1.00
  7
ROMANS
 72
     1
 11
122.8852678537368
 21
69.80319999999998
 31
0.0
100
AcDbText
 73
     2
  0
TEXT
  5
A87
330
1F
100
AcDbEntity
  8
TEXT1
100
AcDbText
 10
117.9909826555705
 20
71.08319999999998
 30
0.0
 40
0.6399999999999999
  1
B
  7
ROMANS
 72
     1
 11
118.3262207508086
 21
71.40319999999997
 31
0.0
100
AcDbText
 73
     2
  0
TEXT
  5
A88
330
1F
100
AcDbEntity
  8
TEXT1
100
AcDbText
 10
118.0519350365229
 20
72.68319999999994
 30
0.0
 40
0.6399999999999999
  1
A
  7
ROMANS
 72
     1
 11
118.3262207508086
 21
73.00319999999993
 31
0.0
100
AcDbText
 73
     2
  0
TEXT
  5
A89
330
1F
100
AcDbEntity
  8
TEXT1
100
AcDbText
 10
122.4281249965939
 20
74.08319999999998
 30
0.0
 40
0.6399999999999999
  1
IN
  7
ROMANS
 72
     1
 11
122.8852678537368
 21
74.40319999999997
 31
0.0
100
AcDbText
 73
     2
  0
TEXT
  5
A8A
330
1F
100
AcDbEntity
  8
TEXT1
100
AcDbText
 10
122.1081249965939
 20
71.08319999999998
 30
0.0
 40
0.6399999999999999
  1
.75
  7
ROMANS
 72
     1
 11
122.8852678537368
 21
71.40319999999997
 31
0.0
100
AcDbText
 73
     2
  0
TEXT
  5
A8B
330
1F
100
AcDbEntity
  8
TEXT1
100
AcDbText
 10
122.1081249965939
 20
72.68319999999994
 30
0.0
 40
0.6399999999999999
  1
.50
  7
ROMANS
 72
     1
 11
122.8852678537368
 21
73.00319999999993
 31
0.0
100
AcDbText
 73
     2
  0
DIMENSION
  5
A8C
330
1F
100
AcDbEntity
  8
DIM
100
AcDbDimension
  2
*D5
 10
34.53029455468636
 20
15.89207616805261
 30
0.0
 11
31.73029455468636
 21
15.89207616805261
 31
0.0
 70
    32
  3
SCHNEIDERELECTRIC_DUAL_BEL
100
AcDbAlignedDimension
 13
28.93029455468637
 23
19.72219611209562
 33
0.0
 14
34.53029455468636
 24
19.72219611209561
 34
0.0
 50
180.0
100
AcDbRotatedDimension
1001
ACAD
1000
DSTYLE
1002
{
1070
    40
1040
8.0
1002
}
  0
LEADER
  5
A8D
330
1F
100
AcDbEntity
  8
TEXT1
100
AcDbLeader
  3
SCHNEIDERELECTRIC
 40
0.9523809523809523
 41
2.780952380952381
 76
     2
 10
28.12525142259024
 20
21.04439266296438
 30
0.0
 10
25.52937075835014
 20
24.48205991583314
 30
0.0
213
0.0
223
0.1
233
0.0
1001
ACAD
1000
DSTYLE
1002
{
1070
     5
1000
SEARROW
1070
    40
1040
8.0
1070
   342
1005
195
1002
}
  0
MTEXT
  5
A8E
102
{ACAD_REACTORS
330
A8D
102
}
330
1F
100
AcDbEntity
  8
TEXT1
100
AcDbMText
 10
25.20937075835014
 20
24.38205991583314
 30
0.0
 40
0.8
 41
0.0
 71
     6
 72
     1
  1
D,F,G
  7
ROMANS
1001
ACAD
1000
MTEXTBEGIN
1070
    73
1070
     1
1070
    44
1040
1.0
1070
    74
1070
     0
1000
MTEXTEND
  0
LEADER
  5
A8F
330
1F
100
AcDbEntity
  8
TEXT1
100
AcDbLeader
  3
SCHNEIDERELECTRIC
 40
0.9523809523809523
 41
3.885714285714287
 76
     2
 10
44.12767505834128
 20
21.28384154677823
 30
0.0
 10
46.21244629300367
 20
25.84613457505138
 30
0.0
213
0.0
223
-0.1
233
0.0
1001
ACAD
1000
DSTYLE
1002
{
1070
     5
1000
SEARROW
1070
    40
1040
8.0
1070
   342
1005
195
1002
}
  0
MTEXT
  5
A90
102
{ACAD_REACTORS
330
A8F
102
}
330
1F
100
AcDbEntity
  8
TEXT1
100
AcDbMText
 10
46.53244629300367
 20
25.94613457505138
 30
0.0
 40
0.8
 41
0.0
 71
     4
 72
     1
  1
E,F,G,H
  7
ROMANS
1001
ACAD
1000
MTEXTBEGIN
1070
    73
1070
     1
1070
    44
1040
1.0
1070
    74
1070
     0
1000
MTEXTEND
  0
DIMENSION
  5
A91
330
1F
100
AcDbEntity
  8
DIM
100
AcDbDimension
  2
*D6
 10
26.93029455468634
 20
15.89207616805261
 30
0.0
 11
24.83124693563872
 21
15.89207616805261
 31
0.0
 70
    32
  3
SCHNEIDERELECTRIC_DUAL_BEL
100
AcDbAlignedDimension
 13
28.93029455468637
 23
20.08814717645746
 33
0.0
 14
26.93029455468634
 24
18.15814717645745
 34
0.0
100
AcDbRotatedDimension
1001
ACAD
1000
DSTYLE
1002
{
1070
    40
1040
8.0
1002
}
  0
DIMENSION
  5
A92
330
1F
100
AcDbEntity
  8
DIM
100
AcDbDimension
  2
*D7
 10
24.36796120524919
 20
20.08814717645746
 30
0.0
 11
23.10678192860326
 21
21.90137801873281
 31
0.0
 70
   160
  3
SCHNEIDERELECTRIC_DUAL_BEL
100
AcDbAlignedDimension
 13
26.93029455468634
 23
18.15814717645745
 33
0.0
 14
28.56434350349876
 24
20.08814717645746
 34
0.0
 50
90.0
100
AcDbRotatedDimension
1001
ACAD
1000
DSTYLE
1002
{
1070
   287
1070
     4
1070
   287
1070
     4
1070
   287
1070
     4
1070
   287
1070
     4
1070
   287
1070
     4
1070
   287
1070
     4
1070
   287
1070
     4
1070
   287
1070
     4
1070
   287
1070
     4
1070
   287
1070
     4
1070
   287
1070
     4
1070
   287
1070
     4
1070
   287
1070
     4
1070
    40
1040
8.0
1070
   279
1070
     1
1002
}
  0
DIMENSION
  5
A93
330
1F
100
AcDbEntity
  8
DIM
100
AcDbDimension
  2
*D8
 10
42.95529455468644
 20
15.89207616805261
 30
0.0
 11
40.63044277012155
 21
15.89207616805261
 31
0.0
 70
   160
  3
SCHNEIDERELECTRIC_DUAL_BEL
100
AcDbAlignedDimension
 13
39.01529455468641
 23
19.72219611209561
 33
0.0
 14
42.95529455468644
 24
20.34814717645744
 34
0.0
100
AcDbRotatedDimension
1001
ACAD
1000
DSTYLE
1002
{
1070
    40
1040
8.0
1002
}
  0
DIMENSION
  5
A94
330
1F
100
AcDbEntity
  8
DIM
100
AcDbDimension
  2
*D9
 10
45.30529455468636
 20
13.12705983968818
 30
0.0
 11
47.70910407849588
 21
13.12705983968818
 31
0.0
 70
   160
  3
SCHNEIDERELECTRIC_DUAL_BEL
100
AcDbAlignedDimension
 13
42.95529455468644
 23
19.98219611209561
 33
0.0
 14
45.30529455468636
 24
18.15814717645744
 34
0.0
100
AcDbRotatedDimension
1001
ACAD
1000
DSTYLE
1002
{
1070
    40
1040
8.0
1002
}
  0
DIMENSION
  5
A95
330
1F
100
AcDbEntity
  8
DIM
100
AcDbDimension
  2
*D10
 10
47.49196386050128
 20
18.15814717645747
 30
0.0
 11
49.11457274467803
 21
16.15014425431702
 31
0.0
 70
   160
  3
SCHNEIDERELECTRIC_DUAL_BEL
100
AcDbAlignedDimension
 13
43.32124560587401
 23
20.34814717645744
 33
0.0
 14
45.30529455468636
 24
18.15814717645747
 34
0.0
 50
90.0
100
AcDbRotatedDimension
1001
ACAD
1000
DSTYLE
1002
{
1070
   287
1070
     4
1070
   287
1070
     4
1070
   287
1070
     4
1070
   287
1070
     4
1070
   287
1070
     4
1070
   287
1070
     4
1070
   287
1070
     4
1070
   287
1070
     4
1070
   287
1070
     4
1070
   287
1070
     4
1070
   287
1070
     4
1070
   287
1070
     4
1070
   287
1070
     4
1070
    40
1040
8.0
1070
   279
1070
     1
1002
}
  0
DIMENSION
  5
A96
330
1F
100
AcDbEntity
  8
DIM
100
AcDbDimension
  2
*D11
 10
51.59369130355016
 20
18.15814717645747
 30
0.0
 11
52.65577472727064
 21
23.96481274885023
 31
0.0
 70
   160
  3
SCHNEIDERELECTRIC_DUAL_BEL
100
AcDbAlignedDimension
 13
45.30529455468637
 23
22.52814717645744
 33
0.0
 14
45.30529455468636
 24
18.15814717645747
 34
0.0
 50
90.0
100
AcDbRotatedDimension
1001
ACAD
1000
DSTYLE
1002
{
1070
   287
1070
     4
1070
   287
1070
     4
1070
   287
1070
     4
1070
   287
1070
     4
1070
   287
1070
     4
1070
   287
1070
     4
1070
   287
1070
     4
1070
   287
1070
     4
1070
   287
1070
     4
1070
   287
1070
     4
1070
   287
1070
     4
1070
   287
1070
     4
1070
   287
1070
     4
1070
    40
1040
8.0
1070
   279
1070
     1
1002
}
  0
DIMENSION
  5
A97
330
1F
100
AcDbEntity
  8
DIM
100
AcDbDimension
  2
*D12
 10
14.78843654836074
 20
57.34240632525008
 30
0.0
 11
12.04279976414334
 21
57.34240632525008
 31
0.0
 70
   160
  3
SCHNEIDERELECTRIC_DUAL_BEL
100
AcDbAlignedDimension
 13
10.24843672996075
 23
54.70934950254578
 33
0.0
 14
14.78843654836074
 24
54.70934950254578
 34
0.0
100
AcDbRotatedDimension
1001
ACAD
1000
DSTYLE
1002
{
1070
   287
1070
     4
1070
   287
1070
     4
1070
   287
1070
     4
1070
   287
1070
     4
1070
   287
1070
     4
1070
   287
1070
     4
1070
   287
1070
     4
1070
   287
1070
     4
1070
   287
1070
     4
1070
   287
1070
     4
1070
   287
1070
     4
1070
   287
1070
     4
1070
    40
1040
8.0
1070
   279
1070
     1
1002
}
  0
DIMENSION
  5
A98
330
1F
100
AcDbEntity
  8
DIM
100
AcDbDimension
  2
*D13
 10
7.368261749144943
 20
36.47934957546578
 30
0.0
 11
4.435218019184441
 21
37.65804012511681
 31
0.0
 70
   160
  3
SCHNEIDERELECTRIC_DUAL_BEL
100
AcDbAlignedDimension
 13
11.81248560157315
 23
38.9393495656258
 33
0.0
 14
10.24843672996074
 24
36.47934957546578
 34
0.0
 50
90.0
100
AcDbRotatedDimension
1001
ACAD
1000
DSTYLE
1002
{
1070
   287
1070
     5
1070
   287
1070
     5
1070
   287
1070
     5
1070
   287
1070
     5
1070
   287
1070
     5
1070
   287
1070
     5
1070
   287
1070
     5
1070
   287
1070
     5
1070
   287
1070
     5
1070
   287
1070
     5
1070
   287
1070
     5
1070
   287
1070
     5
1070
    40
1040
8.0
1070
   279
1070
     2
1002
}
  0
DIMENSION
  5
A99
330
1F
100
AcDbEntity
  8
DIM
100
AcDbDimension
  2
*D14
 10
12.17843665276073
 20
33.89118581230484
 30
0.0
 11
11.21788138494417
 21
31.49118581230484
 31
0.0
 70
   160
  3
SCHNEIDERELECTRIC_DUAL_BEL
100
AcDbAlignedDimension
 13
10.24843672996074
 23
36.47934957546577
 33
0.0
 14
12.17843665276073
 24
38.57339850126395
 34
0.0
100
AcDbRotatedDimension
1001
ACAD
1000
DSTYLE
1002
{
1070
   287
1070
     5
1070
   287
1070
     5
1070
   287
1070
     5
1070
   287
1070
     5
1070
   287
1070
     5
1070
   287
1070
     5
1070
   287
1070
     5
1070
   287
1070
     5
1070
   287
1070
     5
1070
   287
1070
     5
1070
   287
1070
     5
1070
   287
1070
     5
1070
    40
1040
8.0
1070
   279
1070
     2
1002
}
  0
LEADER
  5
A9A
330
1F
100
AcDbEntity
  8
TEXT1
100
AcDbLeader
  3
SCHNEIDERELECTRIC
 40
0.9523809523809523
 41
2.780952380952381
 76
     2
 10
11.41031433198298
 20
39.9254976150195
 30
0.0
 10
8.83398195116513
 20
42.36477134657651
 30
0.0
213
0.0
223
0.1
233
0.0
1001
ACAD
1000
DSTYLE
1002
{
1070
     5
1000
SEARROW
1070
    40
1040
8.0
1070
   342
1005
195
1002
}
  0
MTEXT
  5
A9B
102
{ACAD_REACTORS
330
A9A
102
}
330
1F
100
AcDbEntity
  8
TEXT1
100
AcDbMText
 10
8.51398195116513
 20
42.26477134657652
 30
0.0
 40
0.8
 41
0.0
 71
     6
 72
     1
  1
D,F,G
  7
ROMANS
1001
ACAD
1000
MTEXTBEGIN
1070
    73
1070
     1
1070
    44
1040
1.0
1070
    74
1070
     0
1000
MTEXTEND
  0
DIMENSION
  5
A9C
330
1F
100
AcDbEntity
  8
DIM
100
AcDbDimension
  2
*D15
 10
45.90779416308635
 20
57.34240632525008
 30
0.0
 11
36.11779455468636
 21
57.34240632525008
 31
0.0
 70
    32
  3
SCHNEIDERELECTRIC_DUAL_BEL
100
AcDbAlignedDimension
 13
26.32779494628637
 23
54.70934950254576
 33
0.0
 14
45.90779416308635
 24
54.70934950254576
 34
0.0
100
AcDbRotatedDimension
1001
ACAD
1000
DSTYLE
1002
{
1070
   287
1070
     4
1070
   287
1070
     4
1070
   287
1070
     4
1070
   287
1070
     4
1070
   287
1070
     4
1070
   287
1070
     4
1070
   287
1070
     4
1070
   287
1070
     4
1070
   287
1070
     4
1070
   287
1070
     4
1070
   287
1070
     4
1070
   287
1070
     4
1070
    40
1040
8.0
1070
   279
1070
     1
1002
}
  0
DIMENSION
  5
A9D
330
1F
100
AcDbEntity
  8
DIM
100
AcDbDimension
  2
*D16
 10
50.00181682765798
 20
44.00934954534576
 30
0.0
 11
50.00181682765798
 21
49.35934952394577
 31
0.0
 70
    32
  3
SCHNEIDERELECTRIC_DUAL_BEL
100
AcDbAlignedDimension
 13
45.90779416308635
 23
54.70934950254576
 33
0.0
 14
41.77476527276451
 24
44.00934954534576
 34
0.0
 50
90.0
100
AcDbRotatedDimension
1001
ACAD
1000
DSTYLE
1002
{
1070
   287
1070
     4
1070
   287
1070
     4
1070
   287
1070
     4
1070
   287
1070
     4
1070
   287
1070
     4
1070
   287
1070
     4
1070
   287
1070
     4
1070
   287
1070
     4
1070
   287
1070
     4
1070
   287
1070
     4
1070
   287
1070
     4
1070
   287
1070
     4
1070
    40
1040
8.0
1070
   279
1070
     1
1002
}
  0
DIMENSION
  5
A9E
330
1F
100
AcDbEntity
  8
DIM
100
AcDbDimension
  2
*D17
 10
54.44721086619676
 20
36.47934957546576
 30
0.0
 11
54.44721086619676
 21
45.59434953900577
 31
0.0
 70
    32
  3
SCHNEIDERELECTRIC_DUAL_BEL
100
AcDbAlignedDimension
 13
45.90779416308635
 23
54.70934950254576
 33
0.0
 14
45.30529455468635
 24
36.47934957546576
 34
0.0
 50
90.0
100
AcDbRotatedDimension
1001
ACAD
1000
DSTYLE
1002
{
1070
   287
1070
     4
1070
   287
1070
     4
1070
   287
1070
     4
1070
   287
1070
     4
1070
   287
1070
     4
1070
   287
1070
     4
1070
   287
1070
     4
1070
   287
1070
     4
1070
   287
1070
     4
1070
   287
1070
     4
1070
   287
1070
     4
1070
   287
1070
     4
1070
    40
1040
8.0
1070
   279
1070
     1
1002
}
  0
DIMENSION
  5
A9F
330
1F
100
AcDbEntity
  8
DIM
100
AcDbDimension
  2
*D18
 10
29.34029445828635
 20
33.89118581230484
 30
0.0
 11
31.80078421239329
 21
33.89118581230484
 31
0.0
 70
   160
  3
SCHNEIDERELECTRIC_DUAL_BEL
100
AcDbAlignedDimension
 13
26.93029455468634
 23
36.47934957546576
 33
0.0
 14
29.34029445828635
 24
39.08339851110394
 34
0.0
100
AcDbRotatedDimension
1001
ACAD
1000
DSTYLE
1002
{
1070
   287
1070
     4
1070
   287
1070
     4
1070
   287
1070
     4
1070
   287
1070
     4
1070
   287
1070
     4
1070
   287
1070
     4
1070
   287
1070
     4
1070
   287
1070
     4
1070
   287
1070
     4
1070
   287
1070
     4
1070
   287
1070
     4
1070
   287
1070
     4
1070
    40
1040
8.0
1070
   279
1070
     1
1002
}
  0
DIMENSION
  5
AA0
330
1F
100
AcDbEntity
  8
DIM
100
AcDbDimension
  2
*D19
 10
33.84029427828633
 20
30.70180715882379
 30
0.0
 11
30.38529441648633
 21
30.70180715882379
 31
0.0
 70
    32
  3
SCHNEIDERELECTRIC_DUAL_BEL
100
AcDbAlignedDimension
 13
26.93029455468634
 23
36.47934957546576
 33
0.0
 14
33.84029427828633
 24
38.67339850086396
 34
0.0
100
AcDbRotatedDimension
1001
ACAD
1000
DSTYLE
1002
{
1070
   287
1070
     4
1070
   287
1070
     4
1070
   287
1070
     4
1070
   287
1070
     4
1070
   287
1070
     4
1070
   287
1070
     4
1070
   287
1070
     4
1070
   287
1070
     4
1070
   287
1070
     4
1070
   287
1070
     4
1070
   287
1070
     4
1070
   287
1070
     4
1070
    40
1040
8.0
1070
   279
1070
     1
1002
}
  0
DIMENSION
  5
AA1
330
1F
100
AcDbEntity
  8
DIM
100
AcDbDimension
  2
*D20
 10
24.79027400738374
 20
36.47934957546576
 30
0.0
 11
23.55159914151419
 21
33.61799208232811
 31
0.0
 70
   160
  3
SCHNEIDERELECTRIC_DUAL_BEL
100
AcDbAlignedDimension
 13
33.47434322709872
 23
39.03934956522577
 33
0.0
 14
26.93029455468634
 24
36.47934957546576
 34
0.0
 50
90.0
100
AcDbRotatedDimension
1001
ACAD
1000
DSTYLE
1002
{
1070
   287
1070
     4
1070
   287
1070
     4
1070
   287
1070
     4
1070
   287
1070
     4
1070
   287
1070
     4
1070
   287
1070
     4
1070
   287
1070
     4
1070
   287
1070
     4
1070
   287
1070
     4
1070
   287
1070
     4
1070
   287
1070
     4
1070
   287
1070
     4
1070
    40
1040
8.0
1070
   279
1070
     1
1002
}
  0
DIMENSION
  5
AA2
330
1F
100
AcDbEntity
  8
DIM
100
AcDbDimension
  2
*D21
 10
21.94759066685286
 20
39.44934957546577
 30
0.0
 11
21.21432981429318
 21
41.86256176533056
 31
0.0
 70
   160
  3
SCHNEIDERELECTRIC_DUAL_BEL
100
AcDbAlignedDimension
 13
26.93029455468634
 23
36.47934957546576
 33
0.0
 14
28.97434340709876
 24
39.44934957546577
 34
0.0
 50
90.0
100
AcDbRotatedDimension
1001
ACAD
1000
DSTYLE
1002
{
1070
   287
1070
     4
1070
   287
1070
     4
1070
   287
1070
     4
1070
   287
1070
     4
1070
   287
1070
     4
1070
   287
1070
     4
1070
   287
1070
     4
1070
   287
1070
     4
1070
   287
1070
     4
1070
   287
1070
     4
1070
   287
1070
     4
1070
   287
1070
     4
1070
    40
1040
8.0
1070
   279
1070
     1
1002
}
  0
DIMENSION
  5
AA3
330
1F
100
AcDbEntity
  8
DIM
100
AcDbDimension
  2
*D22
 10
24.4777663873837
 20
65.35711824967909
 30
0.0
 11
22.69656966248916
 21
62.55444622505478
 31
0.0
 70
   160
  3
SCHNEIDERELECTRIC_DUAL_BEL
100
AcDbAlignedDimension
 13
26.32778694628632
 23
66.97711824319909
 33
0.0
 14
31.2181392094342
 24
65.35711824967909
 34
0.0
 50
90.0
100
AcDbRotatedDimension
1001
ACAD
1000
DSTYLE
1002
{
1070
   287
1070
     4
1070
   287
1070
     4
1070
   287
1070
     4
1070
   287
1070
     4
1070
   287
1070
     4
1070
   287
1070
     4
1070
   287
1070
     4
1070
   287
1070
     4
1070
   287
1070
     4
1070
   287
1070
     4
1070
   287
1070
     4
1070
   287
1070
     4
1070
    40
1040
8.0
1070
   279
1070
     1
1002
}
  0
DIMENSION
  5
AA4
330
1F
100
AcDbEntity
  8
DIM
100
AcDbDimension
  2
*D23
 10
31.5877867358863
 20
69.83714940974157
 30
0.0
 11
28.95778684108631
 21
69.83714940974157
 31
0.0
 70
    32
  3
SCHNEIDERELECTRIC_DUAL_BEL
100
AcDbAlignedDimension
 13
26.32778694628632
 23
66.97711824319909
 33
0.0
 14
31.5877867358863
 24
65.35711824967906
 34
0.0
100
AcDbRotatedDimension
1001
ACAD
1000
DSTYLE
1002
{
1070
   287
1070
     4
1070
   287
1070
     4
1070
   287
1070
     4
1070
   287
1070
     4
1070
   287
1070
     4
1070
   287
1070
     4
1070
   287
1070
     4
1070
   287
1070
     4
1070
   287
1070
     4
1070
   287
1070
     4
1070
   287
1070
     4
1070
   287
1070
     4
1070
    40
1040
8.0
1070
   279
1070
     1
1002
}
  0
DIMENSION
  5
AA5
330
1F
100
AcDbEntity
  8
DIM
100
AcDbDimension
  2
*D24
 10
45.90778616308634
 20
69.83714940974157
 30
0.0
 11
43.40778626308633
 21
69.83714940974157
 31
0.0
 70
    32
  3
SCHNEIDERELECTRIC_DUAL_BEL
100
AcDbAlignedDimension
 13
40.90778636308633
 23
65.72676578943843
 33
0.0
 14
45.90778616308634
 24
66.97711824319906
 34
0.0
100
AcDbRotatedDimension
1001
ACAD
1000
DSTYLE
1002
{
1070
   287
1070
     4
1070
   287
1070
     4
1070
   287
1070
     4
1070
   287
1070
     4
1070
   287
1070
     4
1070
   287
1070
     4
1070
   287
1070
     4
1070
   287
1070
     4
1070
   287
1070
     4
1070
   287
1070
     4
1070
   287
1070
     4
1070
   287
1070
     4
1070
    40
1040
8.0
1070
   279
1070
     1
1002
}
  0
LEADER
  5
AA6
330
1F
100
AcDbEntity
  8
TEXT1
100
AcDbLeader
  3
SCHNEIDERELECTRIC_DUAL_BEL
 73
     0
 75
     1
 40
0.6400000000000001
 41
8.228571428571425
 76
     3
 10
74.77706089988029
 20
54.90940720581572
 30
0.0
 10
73.54859853529595
 20
57.05273776205548
 30
0.0
 10
72.98859853529595
 20
57.05273776205548
 30
0.0
340
AA7
213
0.0
223
0.1
233
0.0
1001
ACAD
1000
DSTYLE
1002
{
1070
     5
1000
SEARROW
1070
    40
1040
8.0
1070
    77
1070
     0
1070
   147
1040
0.04
1070
   342
1005
195
1002
}
  0
MTEXT
  5
AA7
102
{ACAD_REACTORS
330
AA6
102
}
330
1F
100
AcDbEntity
  8
TEXT1
100
AcDbMText
 10
72.66859853529595
 20
56.95273776205548
 30
0.0
 40
0.6400000000000001
 41
0.0
 71
     6
 72
     1
  1
SERVICE GROUND
  7
ROMANS
1001
ACAD
1000
MTEXTBEGIN
1070
    73
1070
     1
1070
    44
1040
1.0
1070
    74
1070
     0
1000
MTEXTEND
  0
MTEXT
  5
AA8
330
1F
100
AcDbEntity
  8
0
100
AcDbMText
 10
81.30513463248366
 20
54.96596124198166
 30
0.0
 40
0.2
 41
0.5600000000000001
 71
     9
 72
     1
  1

  7
ROMANS
1001
ACAD
1000
MTEXTBEGIN
1070
    73
1070
     1
1070
    44
1040
1.0
1070
    74
1070
     0
1000
MTEXTEND
  0
LEADER
  5
AA9
330
1F
100
AcDbEntity
  8
TEXT1
100
AcDbLeader
  3
SCHNEIDERELECTRIC_DUAL_BEL
 40
0.2
 76
     3
 10
74.77706089988029
 20
55.71125847538656
 30
0.0
 10
73.54859853529595
 20
57.05273776205548
 30
0.0
 10
72.98859853529595
 20
57.05273776205548
 30
0.0
213
-3.499472916742973
223
2.086776520073824
233
0.0
1001
ACAD
1000
DSTYLE
1002
{
1070
     5
1000
SEARROW
1070
    40
1040
8.0
1070
   342
1005
195
1002
}
  0
MTEXT
  5
AAA
102
{ACAD_REACTORS
330
AA9
102
}
330
1F
100
AcDbEntity
  8
0
100
AcDbMText
 10
80.74513463248365
 20
54.96596124198166
 30
0.0
 40
0.2
 41
0.5600000000000001
 71
     9
 72
     1
  1

  7
ROMANS
1001
ACAD
1000
MTEXTBEGIN
1070
    73
1070
     1
1070
    44
1040
1.0
1070
    74
1070
     0
1000
MTEXTEND
  0
LEADER
  5
AAB
330
1F
100
AcDbEntity
  8
TEXT1
100
AcDbLeader
  3
SCHNEIDERELECTRIC_DUAL_BEL
 40
0.2
 76
     3
 10
74.77706089988029
 20
56.51310974495738
 30
0.0
 10
73.54859853529595
 20
57.05273776205548
 30
0.0
 10
72.98859853529595
 20
57.05273776205548
 30
0.0
213
-3.53947291674298
223
2.086776520073824
233
0.0
1001
ACAD
1000
DSTYLE
1002
{
1070
     5
1000
SEARROW
1070
    40
1040
8.0
1070
   342
1005
195
1002
}
  0
MTEXT
  5
AAC
102
{ACAD_REACTORS
330
AAB
102
}
330
1F
100
AcDbEntity
  8
0
100
AcDbMText
 10
80.78513463248366
 20
54.96596124198166
 30
0.0
 40
0.2
 41
0.5600000000000001
 71
     9
 72
     1
  1

  7
ROMANS
1001
ACAD
1000
MTEXTBEGIN
1070
    73
1070
     1
1070
    44
1040
1.0
1070
    74
1070
     0
1000
MTEXTEND
  0
LEADER
  5
AAD
330
1F
100
AcDbEntity
  8
TEXT1
100
AcDbLeader
  3
SCHNEIDERELECTRIC_DUAL_BEL
 40
0.2
 76
     3
 10
74.77706089988029
 20
57.31496101452822
 30
0.0
 10
73.54859853529595
 20
57.05273776205548
 30
0.0
 10
72.98859853529595
 20
57.05273776205548
 30
0.0
213
-3.579472916742986
223
2.086776520073824
233
0.0
1001
ACAD
1000
DSTYLE
1002
{
1070
     5
1000
SEARROW
1070
    40
1040
8.0
1070
   342
1005
195
1002
}
  0
MTEXT
  5
AAE
102
{ACAD_REACTORS
330
AAD
102
}
330
1F
100
AcDbEntity
  8
0
100
AcDbMText
 10
80.82513463248366
 20
54.96596124198166
 30
0.0
 40
0.2
 41
0.5600000000000001
 71
     9
 72
     1
  1

  7
ROMANS
1001
ACAD
1000
MTEXTBEGIN
1070
    73
1070
     1
1070
    44
1040
1.0
1070
    74
1070
     0
1000
MTEXTEND
  0
LEADER
  5
AAF
330
1F
100
AcDbEntity
  8
TEXT1
100
AcDbLeader
  3
SCHNEIDERELECTRIC_DUAL_BEL
 40
1.706666666666666
 41
11.1847619047619
 76
     2
 10
74.68422445592048
 20
54.01471949228255
 30
0.0
 10
71.65214377506234
 20
55.09298309994877
 30
0.0
213
11.30373001564692
223
-0.299435116467302
233
0.0
1001
ACAD
1000
DSTYLE
1002
{
1070
     5
1000
SEARROW
1070
    40
1040
8.0
1070
   342
1005
195
1002
}
  0
MTEXT
  5
AB0
102
{ACAD_REACTORS
330
AAF
102
}
330
1F
100
AcDbEntity
  8
TEXT1
100
AcDbMText
 10
60.02841375941542
 20
55.39241821641606
 30
0.0
 40
0.6400000000000001
 41
0.0
 71
     1
 72
     1
  1
EQUIPMENT GROUNDING\PTERMINAL
  7
ROMANS
1001
ACAD
1000
MTEXTBEGIN
1070
    73
1070
     1
1070
    44
1040
1.0
1070
    74
1070
     0
1000
MTEXTEND
  0
LEADER
  5
AB1
330
1F
100
AcDbEntity
  8
TEXT1
100
AcDbLeader
  3
SCHNEIDERELECTRIC_DUAL_BEL
 40
0.6400000000000001
 41
4.022857142857144
 76
     2
 10
79.34979910113032
 20
46.91551503035572
 30
0.0
 10
76.26665012579519
 20
51.33258176236136
 30
0.0
213
10.30659415412114
223
-0.4691152324683401
233
0.0
1001
ACAD
1000
DSTYLE
1002
{
1070
     5
1000
SEARROW
1070
    40
1040
8.0
1070
   342
1005
195
1002
}
  0
MTEXT
  5
AB2
102
{ACAD_REACTORS
330
AB1
102
}
330
1F
100
AcDbEntity
  8
TEXT1
100
AcDbMText
 10
65.64005597167406
 20
51.8016969948297
 30
0.0
 40
0.6400000000000001
 41
0.0
 71
     1
 72
     1
  1
5TH JAW
  7
ROMANS
1001
ACAD
1000
MTEXTBEGIN
1070
    73
1070
     1
1070
    44
1040
1.0
1070
    74
1070
     0
1000
MTEXTEND
  0
LWPOLYLINE
  5
AB3
330
1F
100
AcDbEntity
  8
TEXT1
100
AcDbPolyline
 90
        2
 70
     0
 43
0.0
 10
76.26665012579519
 20
51.33258176236136
 10
70.90481118414411
 20
51.33258176236136
  0
LEADER
  5
AB4
330
1F
100
AcDbEntity
  8
TEXT1
100
AcDbLeader
  3
SCHNEIDERELECTRIC_DUAL_BEL
 40
1.706666666666666
 41
8.289523809523807
 76
     2
 10
112.4075911969444
 20
48.25728304615512
 30
0.0
 10
116.0155631050396
 20
54.43828666782055
 30
0.0
213
0.0
223
-0.3448600247218096
233
0.0
1001
ACAD
1000
DSTYLE
1002
{
1070
     5
1000
SEARROW
1070
    40
1040
8.0
1070
   342
1005
195
1002
}
  0
MTEXT
  5
AB5
102
{ACAD_REACTORS
330
AB4
102
}
330
1F
100
AcDbEntity
  8
TEXT1
100
AcDbMText
 10
116.3355631050396
 20
54.78314669254236
 30
0.0
 40
0.6399999999999999
 41
0.0
 71
     1
 72
     1
  1
CIRCUIT BREAKER\PMOUNTING NUTS
  7
ROMANS
1001
ACAD
1000
MTEXTBEGIN
1070
    73
1070
     1
1070
    44
1040
1.0
1070
    74
1070
     0
1000
MTEXTEND
  0
HATCH
  5
AB6
330
1F
100
AcDbEntity
  8
CONTINUOUS1
100
AcDbHatch
 10
0.0
 20
0.0
 30
0.0
210
0.0
220
0.0
230
1.0
  2
SOLID
 70
     1
 71
     1
 91
        6
 92
        1
 93
        1
 72
     2
 10
112.3445768907769
 20
48.08263019468498
 40
0.1856728879196374
 50
0.0
 51
360.0
 73
     1
 97
        1
330
A47
 92
        1
 93
        1
 72
     2
 10
112.3445768907769
 20
44.85680458085023
 40
0.1856728879196374
 50
0.0
 51
360.0
 73
     1
 97
        1
330
A40
 92
        1
 93
        1
 72
     2
 10
112.3445768907763
 20
41.81365203226714
 40
0.1856728879196374
 50
0.0
 51
360.0
 73
     1
 97
        1
330
A3C
 92
        1
 93
        1
 72
     2
 10
112.3445768907763
 20
39.3913315401731
 40
0.1856728879196374
 50
0.0
 51
360.0
 73
     1
 97
        1
330
9EF
 92
        1
 93
        1
 72
     2
 10
117.8253484528419
 20
41.79905990506638
 40
0.1856728879196374
 50
0.0
 51
360.0
 73
     1
 97
        1
330
A51
 92
        1
 93
        1
 72
     2
 10
121.0350786498685
 20
39.3913315401731
 40
0.1856728879196374
 50
0.0
 51
360.0
 73
     1
 97
        1
330
9F0
 75
     0
 76
     1
 98
        1
 10
-3.910647979398112
 20
0.0594036109370251
  0
LEADER
  5
AB7
330
1F
100
AcDbEntity
  8
TEXT1
100
AcDbLeader
  3
SCHNEIDERELECTRIC_DUAL_BEL
 40
0.6399999999999999
 41
4.022857142857143
 76
     2
 10
116.9176577508561
 20
46.91551503035572
 30
0.0
 10
114.0730348232134
 20
49.87539388903328
 30
0.0
213
13.57520275976105
223
-0.2908362138977622
233
0.0
1001
ACAD
1000
DSTYLE
1002
{
1070
     5
1000
SEARROW
1070
    40
1040
8.0
1070
   342
1005
195
1002
}
  0
MTEXT
  5
AB8
102
{ACAD_REACTORS
330
AB7
102
}
330
1F
100
AcDbEntity
  8
TEXT1
100
AcDbMText
 10
100.1778320634523
 20
50.16623010293104
 30
0.0
 40
0.6399999999999999
 41
0.0
 71
     1
 72
     1
  1
5TH JAW
  7
ROMANS
1001
ACAD
1000
MTEXTBEGIN
1070
    73
1070
     1
1070
    44
1040
1.0
1070
    74
1070
     0
1000
MTEXTEND
  0
LWPOLYLINE
  5
AB9
330
1F
100
AcDbEntity
  8
TEXT1
100
AcDbPolyline
 90
        2
 70
     0
 43
0.0
 10
114.0730348232134
 20
49.87539388903328
 10
105.3794393332444
 20
49.87539388903328
  0
LEADER
  5
ABA
330
1F
100
AcDbEntity
  8
TEXT1
100
AcDbLeader
  3
SCHNEIDERELECTRIC_DUAL_BEL
 40
0.6399999999999999
 41
6.979047619047617
 76
     2
 10
110.0549386316257
 20
50.88465329745652
 30
0.0
 10
107.9620556777026
 20
51.62947465635952
 30
0.0
213
0.1528733881629023
223
-0.0000000000000014
233
0.0
1001
ACAD
1000
DSTYLE
1002
{
1070
     5
1000
SEARROW
1070
    40
1040
8.0
1070
   342
1005
195
1002
}
  0
MTEXT
  5
ABB
102
{ACAD_REACTORS
330
ABA
102
}
330
1F
100
AcDbEntity
  8
TEXT1
100
AcDbMText
 10
107.4891822895397
 20
51.62947465635952
 30
0.0
 40
0.6399999999999999
 41
0.0
 71
     6
 72
     1
  1
NEUTRAL 200A
  7
ROMANS
1001
ACAD
1000
MTEXTBEGIN
1070
    73
1070
     1
1070
    44
1040
1.0
1070
    74
1070
     0
1000
MTEXTEND
  0
LEADER
  5
ABC
330
1F
100
AcDbEntity
  8
TEXT1
100
AcDbLeader
  3
SCHNEIDERELECTRIC_DUAL_BEL
 40
0.7009523809523809
 41
17.76761904761903
 76
     2
 10
110.0549386316257
 20
51.95378832355094
 30
0.0
 10
107.8745579852888
 20
52.77469235152727
 30
0.0
213
0.0
223
0.1
233
0.0
1001
ACAD
1000
DSTYLE
1002
{
1070
     5
1000
SEARROW
1070
    40
1040
8.0
1070
   342
1005
195
1002
}
  0
MTEXT
  5
ABD
102
{ACAD_REACTORS
330
ABC
102
}
330
1F
100
AcDbEntity
  8
TEXT1
100
AcDbMText
 10
107.5545579852888
 20
52.67469235152727
 30
0.0
 40
0.6399999999999999
 41
0.0
 71
     6
 72
     1
  1
EQUIPMENT GROUND TERMINAL 200A
  7
ROMANS
1001
ACAD
1000
MTEXTBEGIN
1070
    73
1070
     1
1070
    44
1040
1.0
1070
    74
1070
     0
1000
MTEXTEND
  0
LEADER
  5
ABE
330
1F
100
AcDbEntity
  8
TEXT1
100
AcDbLeader
  3
SCHNEIDERELECTRIC_DUAL_BEL
 40
0.6399999999999999
 41
6.369523809523808
 76
     2
 10
110.1477750755855
 20
52.84847603708413
 30
0.0
 10
107.8745579852888
 20
53.72897372317867
 30
0.0
213
0.0
223
0.1
233
0.0
1001
ACAD
1000
DSTYLE
1002
{
1070
     5
1000
SEARROW
1070
    40
1040
8.0
1070
   342
1005
195
1002
}
  0
MTEXT
  5
ABF
102
{ACAD_REACTORS
330
ABE
102
}
330
1F
100
AcDbEntity
  8
TEXT1
100
AcDbMText
 10
107.5545579852888
 20
53.62897372317867
 30
0.0
 40
0.6399999999999999
 41
0.0
 71
     6
 72
     1
  1
NEUTRAL 50A
  7
ROMANS
1001
ACAD
1000
MTEXTBEGIN
1070
    73
1070
     1
1070
    44
1040
1.0
1070
    74
1070
     0
1000
MTEXTEND
  0
LEADER
  5
AC0
330
1F
100
AcDbEntity
  8
TEXT1
100
AcDbLeader
  3
SCHNEIDERELECTRIC_DUAL_BEL
 40
0.7009523809523809
 41
17.15809523809522
 76
     2
 10
110.1477750755855
 20
53.65032730665495
 30
0.0
 10
107.8745579852888
 20
54.81960933275129
 30
0.0
213
0.0
223
0.1
233
0.0
1001
ACAD
1000
DSTYLE
1002
{
1070
     5
1000
SEARROW
1070
    40
1040
8.0
1070
   342
1005
195
1002
}
  0
MTEXT
  5
AC1
102
{ACAD_REACTORS
330
AC0
102
}
330
1F
100
AcDbEntity
  8
TEXT1
100
AcDbMText
 10
107.5545579852888
 20
54.71960933275129
 30
0.0
 40
0.6399999999999999
 41
0.0
 71
     6
 72
     1
  1
EQUIPMENT GROUND TERMINAL 50A
  7
ROMANS
1001
ACAD
1000
MTEXTBEGIN
1070
    73
1070
     1
1070
    44
1040
1.0
1070
    74
1070
     0
1000
MTEXTEND
  0
LEADER
  5
AC2
330
1F
100
AcDbEntity
  8
TEXT1
100
AcDbLeader
  3
SCHNEIDERELECTRIC_DUAL_BEL
 40
0.6399999999999999
 41
8.228571428571424
 76
     2
 10
110.152145792768
 20
54.50132598588433
 30
0.0
 10
107.8745579852888
 20
56.59191756266343
 30
0.0
213
0.0
223
0.1
233
0.0
1001
ACAD
1000
DSTYLE
1002
{
1070
     5
1000
SEARROW
1070
    40
1040
8.0
1070
   342
1005
195
1002
}
  0
MTEXT
  5
AC3
102
{ACAD_REACTORS
330
AC2
102
}
330
1F
100
AcDbEntity
  8
TEXT1
100
AcDbMText
 10
107.5545579852888
 20
56.49191756266343
 30
0.0
 40
0.6399999999999999
 41
0.0
 71
     6
 72
     1
  1
SERVICE GROUND
  7
ROMANS
1001
ACAD
1000
MTEXTBEGIN
1070
    73
1070
     1
1070
    44
1040
1.0
1070
    74
1070
     0
1000
MTEXTEND
  0
LEADER
  5
AC4
330
1F
100
AcDbEntity
  8
TEXT1
100
AcDbLeader
  3
SCHNEIDERELECTRIC_DUAL_BEL
 40
0.2
 76
     2
 10
110.159153334236
 20
55.33282348551457
 30
0.0
 10
107.8745579852888
 20
56.59191756266343
 30
0.0
213
-0.8799999999999954
223
0.8108362138977639
233
0.0
1001
ACAD
1000
DSTYLE
1002
{
1070
     5
1000
SEARROW
1070
    40
1040
8.0
1070
   342
1005
195
1002
}
  0
MTEXT
  5
AC5
102
{ACAD_REACTORS
330
AC4
102
}
330
1F
100
AcDbEntity
  8
0
100
AcDbMText
 10
112.3716211657336
 20
55.78108134876567
 30
0.0
 40
0.2
 41
0.5600000000000001
 71
     9
 72
     1
  1

  7
ROMANS
1001
ACAD
1000
MTEXTBEGIN
1070
    73
1070
     1
1070
    44
1040
1.0
1070
    74
1070
     0
1000
MTEXTEND
  0
LEADER
  5
AC6
330
1F
100
AcDbEntity
  8
DIM
100
AcDbLeader
  3
SCHNEIDERELECTRIC_DUAL_BEL
 40
0.1
 76
     3
 10
40.22192659785252
 20
66.40215234358866
 30
0.0
 10
36.74643063506229
 20
74.67830145947631
 30
0.0
 10
35.71329859859647
 20
74.67830145947631
 30
0.0
213
7.919348944653272
223
0.1276228439334261
233
0.0
1001
ACAD
1000
DSTYLE
1002
{
1070
     5
1000
SEARROW
1070
    40
1040
8.0
1070
   279
1070
     1
1070
   342
1005
195
1002
}
  0
MTEXT
  5
AC7
102
{ACAD_REACTORS
330
AC6
102
}
330
1F
100
AcDbEntity
  8
0
100
AcDbMText
 10
27.47395765394326
 20
75.7874786155428
 30
0.0
 40
0.1
 41
0.5600000000000001
 71
     9
 72
     1
  1

  7
ROMANS
1001
ACAD
1000
MTEXTBEGIN
1070
    73
1070
     1
1070
    44
1040
1.0
1070
    74
1070
     0
1000
MTEXTEND
  0
MTEXT
  5
AC8
330
1F
100
AcDbEntity
  8
DIM
100
AcDbMText
 10
24.52103247208392
 20
75.10857723977564
 30
0.0
 40
0.8
 41
11.3932
 71
     1
 72
     5
  1
2.50 MAX A HUB\P[64]
  7
ROMANS
1001
ACAD
1000
MTEXTBEGIN
1070
    73
1070
     1
1070
    44
1040
1.0
1070
    74
1070
     0
1000
MTEXTEND
  0
LEADER
  5
AC9
330
1F
100
AcDbEntity
  8
TEXT1
100
AcDbLeader
  3
SCHNEIDERELECTRIC_DUAL_BEL
 40
0.1
 76
     3
 10
112.3445768907769
 20
44.85680458085023
 30
0.0
 10
115.4555631050396
 20
54.43828666782055
 30
0.0
 10
115.6955631050397
 20
54.43828666782055
 30
0.0
213
0.0
223
-0.05
233
0.0
1001
ACAD
1000
DSTYLE
1002
{
1070
     5
1000
SEARROW
1070
    40
1040
8.0
1070
   342
1005
195
1002
}
  0
MTEXT
  5
ACA
102
{ACAD_REACTORS
330
AC9
102
}
330
1F
100
AcDbEntity
  8
0
100
AcDbMText
 10
119.9526262854844
 20
54.48828666782055
 30
0.0
 40
0.1
 41
0.5600000000000001
 71
     1
 72
     1
  1

  7
ROMANS
1001
ACAD
1000
MTEXTBEGIN
1070
    73
1070
     1
1070
    44
1040
1.0
1070
    74
1070
     0
1000
MTEXTEND
  0
DIMENSION
  5
CCC
330
1F
100
AcDbEntity
  8
DIM
100
AcDbDimension
  2
*D25
 10
36.68029455468635
 20
49.95082550483679
 30
0.0
 11
31.80529455468636
 21
49.95082550483679
 31
0.0
 70
    32
  1
<>\PINSIDE
  3
SCHNEIDERELECTRIC_DUAL_BEL
100
AcDbAlignedDimension
 13
26.93029455468636
 23
49.95082550483679
 33
0.0
 14
36.68029455468635
 24
49.95082550483679
 34
0.0
100
AcDbRotatedDimension
1001
ACAD
1000
DSTYLE
1002
{
1070
    40
1040
8.0
1002
}
  0
DIMENSION
  5
CDA
330
1F
100
AcDbEntity
  8
DIM
100
AcDbDimension
  2
*D26
 10
45.30529455468635
 20
49.95082550483679
 30
0.0
 11
40.99279455468635
 21
49.95082550483679
 31
0.0
 70
    32
  1
<>\PINSIDE
  3
SCHNEIDERELECTRIC_DUAL_BEL
100
AcDbAlignedDimension
 13
36.68029455468635
 23
49.95082550483679
 33
0.0
 14
45.30529455468635
 24
49.95082550483679
 34
0.0
100
AcDbRotatedDimension
1001
ACAD
1000
DSTYLE
1002
{
1070
    40
1040
8.0
1002
}
  0
CIRCLE
  5
11CC
330
1F
100
AcDbEntity
  8
CONTINUOUS1
100
AcDbCircle
 10
78.85861269169703
 20
54.29220666739634
 30
0.0
 40
0.3713457758392748
  0
LWPOLYLINE
  5
11CF
330
1F
100
AcDbEntity
  8
CONTINUOUS1
100
AcDbPolyline
 90
        3
 70
     0
 43
0.0
 10
78.48726691585776
 20
54.29220666739634
 10
77.71730526819488
 20
54.29220666739634
 10
77.71730526819488
 20
52.94558446618808
  0
CIRCLE
  5
11D0
330
1F
100
AcDbEntity
  8
CONTINUOUS1
100
AcDbCircle
 10
112.4757004331204
 20
52.23127549866475
 30
0.0
 40
0.3713457758392748
  0
LWPOLYLINE
  5
11D1
330
1F
100
AcDbEntity
  8
CONTINUOUS1
100
AcDbPolyline
 90
        3
 70
     0
 43
0.0
 10
112.1043546572811
 20
52.23127549866475
 10
111.3343930096182
 20
52.23127549866475
 10
111.3343930096182
 20
50.88465329745649
  0
LWPOLYLINE
  5
11D7
330
1F
100
AcDbEntity
  8
TEXT1
100
AcDbPolyline
 90
        4
 70
     0
 43
0.0
 10
73.54859853529595
 20
57.05273776205548
 10
73.54859853529595
 20
58.38596358084124
 10
76.50498556859497
 20
58.38596358084124
 10
78.67352427685073
 20
54.61413828113341
  0
MTEXT
  5
11DA
330
1F
100
AcDbEntity
  8
0
100
AcDbMText
 10
80.44204874903972
 20
58.33596358084124
 30
0.0
 40
0.1
 41
0.0
 71
     9
 72
     1
  1

  7
ROMANS
1001
ACAD
1000
MTEXTBEGIN
1070
    73
1070
     1
1070
    44
1040
1.0
1070
    74
1070
     0
1000
MTEXTEND
  0
INSERT
  5
11DB
330
1F
100
AcDbEntity
  8
TEXT1
100
AcDbBlockReference
  2
SEARROW
 10
78.67352427685073
 20
54.61413828113341
 30
0.0
 41
0.5600000000000001
 42
0.5600000000000001
 43
0.5600000000000001
 50
299.903614925159
1001
ACAD
1000
DSTYLE
1002
{
1070
    40
1040
8.0
1002
}
  0
LWPOLYLINE
  5
11DD
330
1F
100
AcDbEntity
  8
TEXT1
100
AcDbPolyline
 90
        4
 70
     0
 43
0.0
 10
108.4301396686549
 20
56.59722326879682
 10
108.4301396686549
 20
57.93044908758258
 10
109.5059801680847
 20
57.93044908758258
 10
112.2906120182741
 20
52.55320711240183
  0
LWPOLYLINE
  5
11DF
330
1F
100
AcDbEntity
  8
TEXT1
  6
BYBLOCK
100
AcDbPolyline
 90
        2
 70
     0
 10
112.2906120182741
 20
52.55320711240183
 40
0.0
 41
0.280000000084
 10
112.0379016252996
 20
53.05294450090787
 40
0.280000000084
 41
0.280000000084
  0
TEXT
  5
13C2
330
1F
100
AcDbEntity
  8
TEXT1
100
AcDbText
 10
115.9334818000148
 20
15.66410183992365
 30
0.0
 40
0.6399999999999999
  1
MO2
  7
ROMANS
 72
     1
 11
116.9544341809671
 21
15.98410183992365
 31
0.0
100
AcDbText
 73
     2
  0
TEXT
  5
13C3
330
1F
100
AcDbEntity
  8
TEXT1
100
AcDbText
 10
115.9334818000148
 20
12.98628963070467
 30
0.0
 40
0.6399999999999999
  1
MO2
  7
ROMANS
 72
     1
 11
116.9544341809671
 21
13.30628963070467
 31
0.0
100
AcDbText
 73
     2
  0
TEXT
  5
13C4
330
1F
100
AcDbEntity
  8
TEXT1
100
AcDbText
 10
115.9334818000148
 20
10.30934773526961
 30
0.0
 40
0.6399999999999999
  1
MO2
  7
ROMANS
 72
     1
 11
116.9544341809671
 21
10.62934773526961
 31
0.0
100
AcDbText
 73
     2
  0
TEXT
  5
13C5
330
1F
100
AcDbEntity
  8
TEXT1
100
AcDbText
 10
115.3644960316825
 20
19.37113432328771
 30
0.0
 40
0.6399999999999999
  1
SERIES
  7
ROMANS
 72
     1
 11
116.9949722221587
 21
19.69113432328771
 31
0.0
100
AcDbText
 73
     2
  0
LWPOLYLINE
  5
13C6
330
1F
100
AcDbEntity
  8
CONTINUOUS1
100
AcDbPolyline
 90
        4
 70
     1
 43
0.0
 10
113.9490308373116
 20
22.05579275891285
 10
120.0413901173831
 20
22.05579275891284
 10
120.0413901173831
 20
9.295975122421811
 10
113.9490308373116
 20
9.295975122421815
  0
VIEWPORT
  5
32
330
1B
100
AcDbEntity
 67
     1
  8
0
100
AcDbViewport
 10
8.421824608143044
 20
4.97485433728677
 30
0.0
 40
17.04322209742021
 41
10.33211307663094
 68
     1
 69
     1
1001
ACAD
1000
MVIEW
1002
{
1070
    16
1010
0.0
1020
0.0
1030
0.0
1010
0.0
1020
0.0
1030
1.0
1040
0.0
1040
10.33211307663094
1040
8.421824608143044
1040
4.97485433728677
1040
50.0
1040
0.0
1040
0.0
1070
     0
1070
   100
1070
     1
1070
     0
1070
     0
1070
     0
1070
     0
1070
     0
1040
0.0
1040
0.0
1040
0.0
1040
0.5
1040
0.5
1040
0.5
1040
0.5
1070
     0
1002
{
1002
}
1002
}
  0
LWPOLYLINE
  5
52C
330
1B
100
AcDbEntity
 67
     1
  8
VIEWPORT
100
AcDbPolyline
 90
        6
 70
     1
 43
0.0
 10
0.0
 20
0.0
 10
8.002499999999999
 20
0.0
 10
8.002499999999999
 20
0.912
 10
16.39999999999999
 20
0.912
 10
16.39999999999999
 20
10.0954
 10
0.0
 20
10.0954
  0
VIEWPORT
  5
52D
330
1B
100
AcDbEntity
 67
     1
  8
VIEWPORT
100
AcDbViewport
 10
8.199999999999999
 20
5.047699999999999
 30
0.0
 40
16.39999999999999
 41
10.0954
 68
     2
 69
     2
1001
ACAD
1000
MVIEW
1002
{
1070
    16
1010
0.0
1020
0.0
1030
0.0
1010
0.0
1020
0.0
1030
1.0
1040
0.0
1040
80.7632
1040
65.60000000000001
1040
40.3816
1040
50.0
1040
0.0
1040
0.0
1070
     0
1070
   100
1070
     1
1070
     0
1070
     0
1070
     0
1070
     0
1070
     0
1040
0.0
1040
0.0
1040
0.0
1040
0.0
1040
0.0
1040
0.0
1040
0.0
1070
     0
1002
{
1002
}
1002
}
  0
INSERT
  5
54D
330
1B
100
AcDbEntity
 67
     1
  8
TITLEBLOCK
100
AcDbBlockReference
 66
     1
  2
TB-PAD
 10
0.0
 20
0.0
 30
0.0
  0
ATTRIB
  5
54F
330
54D
100
AcDbEntity
 67
     1
  8
TEXT1
 62
     0
100
AcDbText
 10
8.489933595695831
 20
0.6974460800344914
 30
0.0
 40
0.1
  1
COMBINATION SERVICE ENTRANCE DEVICES
  7
ROMANS
 72
     4
 11
10.10183835760059
 21
0.7474460800344916
 31
0.0
100
AcDbAttribute
  2
DESCRIPTION 1
 70
     0
  0
ATTRIB
  5
550
330
54D
100
AcDbEntity
 67
     1
  8
TEXT1
 62
     0
100
AcDbText
 10
9.016124071886306
 20
0.5517231627161465
 30
0.0
 40
0.1
  1
RINGLESS TYPE METER MAIN
  7
ROMANS
 72
     4
 11
10.10183835760059
 21
0.6017231627161466
 31
0.0
100
AcDbAttribute
  2
DESCRIPTION 2
 70
     0
  0
ATTRIB
  5
551
330
54D
100
AcDbEntity
 67
     1
  8
TEXT1
 62
     0
100
AcDbText
 10
8.882790738552973
 20
0.4160002453978016
 30
0.0
 40
0.08
  1
RAINPROOF NEMA TYPE 3R ENCLOSURE
  7
ROMANS
 72
     4
 11
10.10183835760059
 21
0.4560002453978016
 31
0.0
100
AcDbAttribute
  2
DESCRIPTION 3
 70
     0
  0
ATTRIB
  5
552
330
54D
100
AcDbEntity
 67
     1
  8
TEXT1
 62
     0
100
AcDbText
 10
9.642790738552973
 20
0.2802773280794582
 30
0.0
 40
0.08
  1
SURFACE ONLY
  7
ROMANS
 72
     4
 11
10.10183835760059
 21
0.3202773280794582
 31
0.0
100
AcDbAttribute
  2
DESCRIPTION 4
 70
     0
  0
ATTRIB
  5
553
330
54D
100
AcDbEntity
 67
     1
  8
TEXT1
 62
     0
100
AcDbText
 10
10.10183835760059
 20
0.1845544107611148
 30
0.0
 40
0.08
  1

  7
ROMANS
 72
     4
 11
10.10183835760059
 21
0.1845544107611148
 31
0.0
100
AcDbAttribute
  2
DESCRIPTION 5
 70
     0
  0
ATTRIB
  5
554
330
54D
100
AcDbEntity
 67
     1
  8
TEXT1
 62
     0
100
AcDbText
 10
12.74772367969455
 20
0.09654053761198
 30
0.0
 40
0.12
  1
3214
 41
0.9512024731840066
  7
M_STANDARD
 11
12.74772367969455
 21
0.1565405376119799
 31
0.0
100
AcDbAttribute
  2
DWGNO
 70
     0
 74
     2
  0
ATTRIB
  5
555
330
54D
100
AcDbEntity
 67
     1
  8
TEXT1
 62
     0
100
AcDbText
 10
16.057921701013
 20
-0.1507193164174602
 30
0.0
 40
0.08
  1
3214
  7
ROMANS
 72
     2
 11
16.35506455815586
 21
-0.1107193164174602
 31
0.0
100
AcDbAttribute
  2
REF
 70
     0
 74
     2
  0
ATTRIB
  5
556
330
54D
100
AcDbEntity
 67
     1
  8
TEXT1
 62
     0
100
AcDbText
 10
0.0266402460664743
 20
-0.1507193164174602
 30
0.0
 40
0.08
  1
SEPTEMBER 2003
  7
ROMANS
 11
0.0266402460664743
 21
-0.1107193164174602
 31
0.0
100
AcDbAttribute
  2
DATE
 70
     0
 74
     2
  0
SEQEND
  5
54E
330
54D
100
AcDbEntity
 67
     1
  8
TITLEBLOCK
  0
INSERT
  5
59B
330
1B
100
AcDbEntity
 67
     1
  8
TITLEBLOCK
100
AcDbBlockReference
  2
LOGO-PAD
 10
12.275
 20
0.152
 30
0.0
  0
ENDSEC
  0
SECTION
  2
OBJECTS
  0
DICTIONARY
  5
C
330
0
100
AcDbDictionary
  3
ACAD_GROUP
350
D
  3
ACAD_LAYOUT
350
1A
  3
ACAD_MLINESTYLE
350
17
  3
ACAD_PLOTSETTINGS
350
19
  3
ACAD_PLOTSTYLENAME
350
E
  3
ACADDIM
350
11D8
  3
ACDBHEADERROUNDTRIPXREC
350
30E0
  3
ACDBVARIABLEDICTIONARY
350
39D
  3
ASE_INDEX_DICTIONARY
350
159
  3
DWGPROPS
350
72
  0
DICTIONARY
  5
73
330
1F
100
AcDbDictionary
280
     1
  3
ACAD_LAYOUTSELFREF
360
3102
  0
DICTIONARY
  5
75
330
1B
100
AcDbDictionary
280
     1
  3
ACAD_LAYOUTSELFREF
360
3101
  0
DICTIONARY
  5
D
102
{ACAD_REACTORS
330
C
102
}
330
C
100
AcDbDictionary
  0
DICTIONARY
  5
1A
102
{ACAD_REACTORS
330
C
102
}
330
C
100
AcDbDictionary
  0
DICTIONARY
  5
17
102
{ACAD_REACTORS
330
C
102
}
330
C
100
AcDbDictionary
  3
STANDARD
350
18
  0
DICTIONARY
  5
19
102
{ACAD_REACTORS
330
C
102
}
330
C
100
AcDbDictionary
  3
A_SIZE_PAPER
350
52B
  3
B_SIZE_PAPER
350
52A
  3
D_SIZE_PAPER
350
53B
  0
ACDBDICTIONARYWDFLT
  5
E
102
{ACAD_REACTORS
330
C
102
}
330
C
100
AcDbDictionary
281
     1
  3
Normal
350
F
100
AcDbDictionaryWithDefault
340
F
  0
XRECORD
  5
11D8
102
{ACAD_REACTORS
330
C
102
}
330
C
100
AcDbXrecord
 90
   990106
  3

 60
     0
 61
     0
 62
     1
 63
     3
 64
     0
 65
     0
 66
     0
 67
     3
 68
     1
 69
     0
 70
     0
 71
     0
 72
     0
 40
0.0
170
     0
340
11DA
  0
DICTIONARY
  5
30E0
102
{ACAD_REACTORS
330
C
102
}
330
C
100
AcDbDictionary
  3
CEPSNTYPE
350
30EA
  3
DIMSTYLEDATA
350
30EE
  3
FINGERPRINTGUID
350
30EB
  3
HYPERLINKBASE
350
30E3
  3
INSUNITS
350
30E9
  3
LAYOUTDICT
350
30E5
  3
LWETCUNION
350
30E8
  3
PLOTSETDICT
350
30E6
  3
PLOTSTYLNAMDICT
350
30E7
  3
PSVPSCALE
350
30ED
  3
PUCSBASE
350
30F1
  3
PUCSORGBACK
350
30F7
  3
PUCSORGBOTTOM
350
30F3
  3
PUCSORGFRONT
350
30F6
  3
PUCSORGLEFT
350
30F4
  3
PUCSORGRIGHT
350
30F5
  3
PUCSORGTOP
350
30F2
  3
PUCSORTHOREF
350
30EF
  3
PUCSORTHOVIEW
350
30F0
  3
STYLESHEET
350
30E4
  3
TSTACKALIGN
350
30E1
  3
TSTACKSIZE
350
30E2
  3
UCSBASE
350
30FA
  3
UCSORGBACK
350
3100
  3
UCSORGBOTTOM
350
30FC
  3
UCSORGFRONT
350
30FF
  3
UCSORGLEFT
350
30FD
  3
UCSORGRIGHT
350
30FE
  3
UCSORGTOP
350
30FB
  3
UCSORTHOREF
350
30F8
  3
UCSORTHOVIEW
350
30F9
  3
VERSIONGUID
350
30EC
  0
DICTIONARY
  5
39D
102
{ACAD_REACTORS
330
C
102
}
330
C
100
AcDbDictionary
  3
DIMASSOC
350
39E
  0
DICTIONARY
  5
159
102
{ACAD_REACTORS
330
C
102
}
330
C
100
AcDbDictionary
  3
ASEBLOCKHIERARCHYINDEXRECORD
350
15A
1001
DCO15
1040
1380956594.129
  0
XRECORD
  5
72
102
{ACAD_REACTORS
330
C
102
}
330
C
100
AcDbXrecord
  1
DWGPROPS COOKIE
  2

  3

  4

  6

  7

  8
mgp706
  9

300
=
301
=
302
=
303
=
304
=
305
=
306
=
307
=
308
=
309
=
 40
0.0868964930555556
 41
2451764.576708576
 42
2451774.507474664
  1

 90
        0
  0
XRECORD
  5
3102
102
{ACAD_REACTORS
330
73
102
}
330
73
100
AcDbXrecord
340
1F
  0
XRECORD
  5
3101
102
{ACAD_REACTORS
330
75
102
}
330
75
100
AcDbXrecord
340
1B
  0
MLINESTYLE
  5
18
102
{ACAD_REACTORS
330
17
102
}
330
17
100
AcDbMlineStyle
  2
STANDARD
 70
     0
  3

 62
   256
 51
90.0
 52
90.0
 71
     2
 49
0.5
 62
   256
  6
BYLAYER
 49
-0.5
 62
   256
  6
BYLAYER
  0
PLOTSETTINGS
  5
52B
102
{ACAD_REACTORS
330
19
102
}
330
19
100
AcDbPlotSettings
  1
A Size Paper
  2
none_device
  4
ANSI_A_(8.50_x_11.00_Inches)
  6

 40
6.349999904632568
 41
19.04999923706054
 42
6.350006103515625
 43
19.04998779296875
 44
215.8999938964843
 45
279.3999938964843
 46
0.0
 47
0.0
 48
0.0
 49
0.0
140
0.0
141
0.0
142
1.0
143
1.6
 70
 15012
 72
     0
 73
     1
 74
     1
  7
monochrome.ctb
 75
    16
147
1.0
148
0.0
149
0.0
  0
PLOTSETTINGS
  5
52A
102
{ACAD_REACTORS
330
19
102
}
330
19
100
AcDbPlotSettings
  1
B Size Paper
  2
none_device
  4
ANSI_B_(11.00_x_17.00_Inches)
  6

 40
6.349999904632568
 41
19.04999923706054
 42
6.350006103515625
 43
19.04998779296875
 44
279.3999938964843
 45
431.7999877929687
 46
0.0
 47
0.0
 48
0.0
 49
0.0
140
0.0
141
0.0
142
1.0
143
1.0
 70
 15012
 72
     0
 73
     1
 74
     1
  7
monochrome.ctb
 75
    16
147
1.0
148
0.0
149
0.0
  0
PLOTSETTINGS
  5
53B
102
{ACAD_REACTORS
330
19
102
}
330
19
100
AcDbPlotSettings
  1
D Size Paper
  2
none_device
  4
ANSI_D_(22.00_x_34.00_Inches)
  6

 40
6.349999904632568
 41
19.04999923706054
 42
6.3499755859375
 43
19.04998779296875
 44
558.7999877929687
 45
863.5999755859375
 46
8.889999999999998
 47
-3.809999999999999
 48
0.0
 49
0.0
140
0.0
141
0.0
142
1.0
143
0.5
 70
   740
 72
     0
 73
     1
 74
     1
  7
monochrome.ctb
 75
     0
147
2.0
148
0.0034886547032954
149
0.0199946439100934
  0
ACDBPLACEHOLDER
  5
F
102
{ACAD_REACTORS
330
E
102
}
330
E
100
AcDbPlaceHolder
280
     0
  0
XRECORD
  5
30EA
102
{ACAD_REACTORS
330
30E0
102
}
330
30E0
100
AcDbXrecord
 90
        0
  0
XRECORD
  5
30EE
102
{ACAD_REACTORS
330
30E0
102
}
330
30E0
100
AcDbXrecord
1000
DSTYLE
1002
{
1070
    79
 70
     1
1070
   148
 40
0.1
1070
   341
340
195
1070
   342
340
195
1070
   371
 70
    -1
1070
   372
 70
    -1
1002
}
  0
XRECORD
  5
30EB
102
{ACAD_REACTORS
330
30E0
102
}
330
30E0
100
AcDbXrecord
  1
{4E694E3A-6C64-11D4-81E3-0004AC4461C9}
  0
XRECORD
  5
30E3
102
{ACAD_REACTORS
330
30E0
102
}
330
30E0
100
AcDbXrecord
  1

  0
XRECORD
  5
30E9
102
{ACAD_REACTORS
330
30E0
102
}
330
30E0
100
AcDbXrecord
 90
        1
  0
XRECORD
  5
30E5
102
{ACAD_REACTORS
330
30E0
102
}
330
30E0
100
AcDbXrecord
340
1A
  0
XRECORD
  5
30E8
102
{ACAD_REACTORS
330
30E0
102
}
330
30E0
100
AcDbXrecord
 90
    10269
  0
XRECORD
  5
30E6
102
{ACAD_REACTORS
330
30E0
102
}
330
30E0
100
AcDbXrecord
340
19
  0
XRECORD
  5
30E7
102
{ACAD_REACTORS
330
30E0
102
}
330
30E0
100
AcDbXrecord
340
E
  0
XRECORD
  5
30ED
102
{ACAD_REACTORS
330
30E0
102
}
330
30E0
100
AcDbXrecord
 40
0.0
  0
XRECORD
  5
30F1
102
{ACAD_REACTORS
330
30E0
102
}
330
30E0
100
AcDbXrecord
340
0
  0
XRECORD
  5
30F7
102
{ACAD_REACTORS
330
30E0
102
}
330
30E0
100
AcDbXrecord
 10
0.0
 20
0.0
 30
0.0
  0
XRECORD
  5
30F3
102
{ACAD_REACTORS
330
30E0
102
}
330
30E0
100
AcDbXrecord
 10
0.0
 20
0.0
 30
0.0
  0
XRECORD
  5
30F6
102
{ACAD_REACTORS
330
30E0
102
}
330
30E0
100
AcDbXrecord
 10
0.0
 20
0.0
 30
0.0
  0
XRECORD
  5
30F4
102
{ACAD_REACTORS
330
30E0
102
}
330
30E0
100
AcDbXrecord
 10
0.0
 20
0.0
 30
0.0
  0
XRECORD
  5
30F5
102
{ACAD_REACTORS
330
30E0
102
}
330
30E0
100
AcDbXrecord
 10
0.0
 20
0.0
 30
0.0
  0
XRECORD
  5
30F2
102
{ACAD_REACTORS
330
30E0
102
}
330
30E0
100
AcDbXrecord
 10
0.0
 20
0.0
 30
0.0
  0
XRECORD
  5
30EF
102
{ACAD_REACTORS
330
30E0
102
}
330
30E0
100
AcDbXrecord
340
0
  0
XRECORD
  5
30F0
102
{ACAD_REACTORS
330
30E0
102
}
330
30E0
100
AcDbXrecord
 70
     0
  0
XRECORD
  5
30E4
102
{ACAD_REACTORS
330
30E0
102
}
330
30E0
100
AcDbXrecord
  1

  0
XRECORD
  5
30E1
102
{ACAD_REACTORS
330
30E0
102
}
330
30E0
100
AcDbXrecord
 90
        1
  0
XRECORD
  5
30E2
102
{ACAD_REACTORS
330
30E0
102
}
330
30E0
100
AcDbXrecord
 90
       70
  0
XRECORD
  5
30FA
102
{ACAD_REACTORS
330
30E0
102
}
330
30E0
100
AcDbXrecord
340
0
  0
XRECORD
  5
3100
102
{ACAD_REACTORS
330
30E0
102
}
330
30E0
100
AcDbXrecord
 10
0.0
 20
0.0
 30
0.0
  0
XRECORD
  5
30FC
102
{ACAD_REACTORS
330
30E0
102
}
330
30E0
100
AcDbXrecord
 10
0.0
 20
0.0
 30
0.0
  0
XRECORD
  5
30FF
102
{ACAD_REACTORS
330
30E0
102
}
330
30E0
100
AcDbXrecord
 10
0.0
 20
0.0
 30
0.0
  0
XRECORD
  5
30FD
102
{ACAD_REACTORS
330
30E0
102
}
330
30E0
100
AcDbXrecord
 10
0.0
 20
0.0
 30
0.0
  0
XRECORD
  5
30FE
102
{ACAD_REACTORS
330
30E0
102
}
330
30E0
100
AcDbXrecord
 10
0.0
 20
0.0
 30
0.0
  0
XRECORD
  5
30FB
102
{ACAD_REACTORS
330
30E0
102
}
330
30E0
100
AcDbXrecord
 10
0.0
 20
0.0
 30
0.0
  0
XRECORD
  5
30F8
102
{ACAD_REACTORS
330
30E0
102
}
330
30E0
100
AcDbXrecord
340
0
  0
XRECORD
  5
30F9
102
{ACAD_REACTORS
330
30E0
102
}
330
30E0
100
AcDbXrecord
 70
     0
  0
XRECORD
  5
30EC
102
{ACAD_REACTORS
330
30E0
102
}
330
30E0
100
AcDbXrecord
  1
{C122942B-03CF-4711-ACE3-533C44481982}
  0
DICTIONARYVAR
  5
39E
102
{ACAD_REACTORS
330
39D
102
}
330
39D
100
DictionaryVariables
280
     0
  1
1
  0
XRECORD
  5
15A
102
{ACAD_REACTORS
330
159
102
}
330
159
100
AcDbXrecord
  0
ENDSEC
  0
EOF
