  0
SECTION
  2
HEADER
  9
$ACADVER
  1
AC1012
  9
$DWGCODEPAGE
  3
ANSI_1252
  9
$INSBASE
 10
0.0
 20
0.0
 30
0.0
  9
$EXTMIN
 10
10.463232
 20
13.362767
 30
0.0
  9
$EXTMAX
 10
122.838569
 20
192.361429
 30
0.0
  9
$LIMMIN
 10
17.594103
 20
64.047426
  9
$LIMMAX
 10
172.57758
 20
179.573363
  9
$ORTHOMODE
 70
     0
  9
$REGENMODE
 70
     1
  9
$FILLMODE
 70
     1
  9
$QTEXTMODE
 70
     0
  9
$MIRRTEXT
 70
     1
  9
$DRAGMODE
 70
     2
  9
$LTSCALE
 40
10.0
  9
$OSMODE
 70
    37
  9
$ATTMODE
 70
     1
  9
$TEXTSIZE
 40
0.2
  9
$TRACEWID
 40
0.05
  9
$TEXTSTYLE
  7
STANDARD
  9
$CLAYER
  8
0
  9
$CELTYPE
  6
CONTINUOUS
  9
$CECOLOR
 62
   256
  9
$CELTSCALE
 40
1.0
  9
$DELOBJ
 70
     1
  9
$DISPSILH
 70
     0
  9
$DIMSCALE
 40
1.0
  9
$DIMASZ
 40
0.18
  9
$DIMEXO
 40
0.0625
  9
$DIMDLI
 40
0.38
  9
$DIMRND
 40
0.0
  9
$DIMDLE
 40
0.0
  9
$DIMEXE
 40
0.18
  9
$DIMTP
 40
0.0
  9
$DIMTM
 40
0.0
  9
$DIMTXT
 40
0.18
  9
$DIMCEN
 40
0.09
  9
$DIMTSZ
 40
0.0
  9
$DIMTOL
 70
     0
  9
$DIMLIM
 70
     0
  9
$DIMTIH
 70
     1
  9
$DIMTOH
 70
     1
  9
$DIMSE1
 70
     0
  9
$DIMSE2
 70
     0
  9
$DIMTAD
 70
     0
  9
$DIMZIN
 70
     0
  9
$DIMBLK
  1

  9
$DIMASO
 70
     1
  9
$DIMSHO
 70
     1
  9
$DIMPOST
  1

  9
$DIMAPOST
  1

  9
$DIMALT
 70
     0
  9
$DIMALTD
 70
     2
  9
$DIMALTF
 40
25.4
  9
$DIMLFAC
 40
1.0
  9
$DIMTOFL
 70
     0
  9
$DIMTVP
 40
0.0
  9
$DIMTIX
 70
     0
  9
$DIMSOXD
 70
     0
  9
$DIMSAH
 70
     0
  9
$DIMBLK1
  1

  9
$DIMBLK2
  1

  9
$DIMSTYLE
  2
STANDARD
  9
$DIMCLRD
 70
     0
  9
$DIMCLRE
 70
     0
  9
$DIMCLRT
 70
     0
  9
$DIMTFAC
 40
1.0
  9
$DIMGAP
 40
0.09
  9
$DIMJUST
 70
     0
  9
$DIMSD1
 70
     0
  9
$DIMSD2
 70
     0
  9
$DIMTOLJ
 70
     1
  9
$DIMTZIN
 70
     0
  9
$DIMALTZ
 70
     0
  9
$DIMALTTZ
 70
     0
  9
$DIMFIT
 70
     3
  9
$DIMUPT
 70
     0
  9
$DIMUNIT
 70
     2
  9
$DIMDEC
 70
     4
  9
$DIMTDEC
 70
     4
  9
$DIMALTU
 70
     2
  9
$DIMALTTD
 70
     2
  9
$DIMTXSTY
  7
STANDARD
  9
$DIMAUNIT
 70
     0
  9
$LUNITS
 70
     2
  9
$LUPREC
 70
     4
  9
$SKETCHINC
 40
0.1
  9
$FILLETRAD
 40
0.0
  9
$AUNITS
 70
     0
  9
$AUPREC
 70
     0
  9
$MENU
  1
acad
  9
$ELEVATION
 40
0.0
  9
$PELEVATION
 40
0.0
  9
$THICKNESS
 40
0.0
  9
$LIMCHECK
 70
     0
  9
$BLIPMODE
 70
     0
  9
$CHAMFERA
 40
0.0
  9
$CHAMFERB
 40
0.0
  9
$CHAMFERC
 40
0.0
  9
$CHAMFERD
 40
0.0
  9
$SKPOLY
 70
     0
  9
$TDCREATE
 40
2453607.506704282
  9
$TDUPDATE
 40
2453644.602014872
  9
$TDINDWG
 40
0.1992663657
  9
$TDUSRTIMER
 40
0.1992663657
  9
$USRTIMER
 70
     1
  9
$ANGBASE
 50
0.0
  9
$ANGDIR
 70
     0
  9
$PDMODE
 70
     0
  9
$PDSIZE
 40
0.0
  9
$PLINEWID
 40
0.0
  9
$COORDS
 70
     1
  9
$SPLFRAME
 70
     0
  9
$SPLINETYPE
 70
     6
  9
$SPLINESEGS
 70
     8
  9
$ATTDIA
 70
     0
  9
$ATTREQ
 70
     1
  9
$HANDLING
 70
     1
  9
$HANDSEED
  5
1408
  9
$SURFTAB1
 70
     6
  9
$SURFTAB2
 70
     6
  9
$SURFTYPE
 70
     6
  9
$SURFU
 70
     6
  9
$SURFV
 70
     6
  9
$UCSNAME
  2

  9
$UCSORG
 10
0.0
 20
0.0
 30
0.0
  9
$UCSXDIR
 10
1.0
 20
0.0
 30
0.0
  9
$UCSYDIR
 10
0.0
 20
1.0
 30
0.0
  9
$PUCSNAME
  2

  9
$PUCSORG
 10
0.0
 20
0.0
 30
0.0
  9
$PUCSXDIR
 10
1.0
 20
0.0
 30
0.0
  9
$PUCSYDIR
 10
0.0
 20
1.0
 30
0.0
  9
$USERI1
 70
     0
  9
$USERI2
 70
     0
  9
$USERI3
 70
     0
  9
$USERI4
 70
     0
  9
$USERI5
 70
     0
  9
$USERR1
 40
0.0
  9
$USERR2
 40
0.0
  9
$USERR3
 40
0.0
  9
$USERR4
 40
0.0
  9
$USERR5
 40
0.0
  9
$WORLDVIEW
 70
     1
  9
$SHADEDGE
 70
     3
  9
$SHADEDIF
 70
    70
  9
$TILEMODE
 70
     1
  9
$MAXACTVP
 70
    16
  9
$PINSBASE
 10
0.0
 20
0.0
 30
0.0
  9
$PLIMCHECK
 70
     0
  9
$PEXTMIN
 10
1.000000E+20
 20
1.000000E+20
 30
1.000000E+20
  9
$PEXTMAX
 10
-1.000000E+20
 20
-1.000000E+20
 30
-1.000000E+20
  9
$PLIMMIN
 10
0.0
 20
0.0
  9
$PLIMMAX
 10
12.0
 20
9.0
  9
$UNITMODE
 70
     0
  9
$VISRETAIN
 70
     0
  9
$PLINEGEN
 70
     1
  9
$PSLTSCALE
 70
     0
  9
$TREEDEPTH
 70
  3020
  9
$PICKSTYLE
 70
     0
  9
$CMLSTYLE
  2
STANDARD
  9
$CMLJUST
 70
     0
  9
$CMLSCALE
 40
1.0
  9
$SAVEIMAGES
 70
     0
  0
ENDSEC
  0
SECTION
  2
CLASSES
  0
CLASS
  1
LWPOLYLINE
  2
AcDbPolyline
  3
"AutoCAD"
 90
    32768
280
     0
281
     1
  0
CLASS
  1
IMAGE
  2
AcDbRasterImage
  3
ISM
 90
    32895
280
     0
281
     1
  0
CLASS
  1
OLE2FRAME
  2
AcDbOle2Frame
  3
""
 90
    32768
280
     0
281
     1
  0
CLASS
  1
HATCH
  2
AcDbHatch
  3
"ACAD_SEDONA"
 90
    32768
280
     0
281
     1
  0
CLASS
  1
DICTIONARYVAR
  2
AcDbDictionaryVar
  3
"AutoCAD"
 90
    32768
280
     0
281
     0
  0
CLASS
  1
RASTERVARIABLES
  2
AcDbRasterVariables
  3
ISM
 90
    32768
280
     0
281
     0
  0
CLASS
  1
IMAGEDEF
  2
AcDbRasterImageDef
  3
ISM
 90
    32768
280
     0
281
     0
  0
CLASS
  1
IMAGEDEF_REACTOR
  2
AcDbRasterImageDefReactor
  3
ISM
 90
    32769
280
     0
281
     0
  0
CLASS
  1
SPATIAL_FILTER
  2
AcDbSpatialFilter
  3
"Acad"
 90
    32768
280
     0
281
     0
  0
CLASS
  1
XRECORD
  2
AcDbXrecord
  3
"<Built In>"
 90
    32768
280
     0
281
     0
  0
CLASS
  1
SORTENTSTABLE
  2
AcDbSortentsTable
  3
"AutoCAD"
 90
    32768
280
     0
281
     0
  0
CLASS
  1
LAYER_INDEX
  2
AcDbLayerIndex
  3
"Acad"
 90
    32768
280
     0
281
     0
  0
CLASS
  1
SPATIAL_INDEX
  2
AcDbSpatialIndex
  3
"Acad"
 90
    32768
280
     0
281
     0
  0
CLASS
  1
OBJECT_PTR
  2
CAseDLPNTableRecord
  3
ASE-LPNTableRecord
 90
    32769
280
     0
281
     0
  0
CLASS
  1
LAYOUT
  2
AcDbLayout
  3
AutoCAD 2000
 90
    32768
280
     0
281
     0
  0
CLASS
  1
PLOTSETTINGS
  2
AcDbPlotSettings
  3
AutoCAD 2000
 90
    32768
280
     0
281
     0
  0
CLASS
  1
ACDBDICTIONARYWDFLT
  2
AcDbDictionaryWithDefault
  3
AutoCAD 2000
 90
    32768
280
     0
281
     0
  0
CLASS
  1
ACDBPLACEHOLDER
  2
AcDbPlaceHolder
  3
AutoCAD 2000
 90
    32768
280
     0
281
     0
  0
CLASS
  1
VBA_PROJECT
  2
AcDbVbaProject
  3
acad
 90
    32768
280
     0
281
     0
  0
CLASS
  1
WIPEOUT
  2
AcDbWipeout
  3
WipeOut|AutoCAD Express Tool|expresstools@autodesk.com
 90
    32895
280
     0
281
     1
  0
CLASS
  1
WIPEOUTVARIABLES
  2
AcDbWipeoutVariables
  3
WipeOut|AutoCAD Express Tool|expresstools@autodesk.com
 90
    32768
280
     0
281
     0
  0
CLASS
  1
RTEXT
  2
RText
  3
RText|AutoCAD Express Tool|expresstools@autodesk.com
 90
    32768
280
     0
281
     1
  0
CLASS
  1
ARCALIGNEDTEXT
  2
AcDbArcAlignedText
  3
ATEXT|AutoCAD Express Tool|expresstools@autodesk.com
 90
    32768
280
     0
281
     1
  0
CLASS
  1
TABLESTYLE
  2
AcDbTableStyle
  3
ObjectDBX Classes
 90
    34815
280
     0
281
     0
  0
CLASS
  1
ACAD_PROXY_OBJECT_WRAPPER
  2
AcDbProxyObjectWrapper
  3
AutoCAD 2000
 90
    32768
280
     0
281
     0
  0
CLASS
  1
LONG_TRANSACTION
  2
AcDbLongTransaction
  3
AutoCAD 2000
 90
    32768
280
     0
281
     0
  0
CLASS
  1
LWPOLYLINE
  2
AcDbPolyline
  3
"AutoCAD"
 90
    32768
280
     0
281
     1
  0
CLASS
  1
HATCH
  2
AcDbHatch
  3
"ACAD_SEDONA"
 90
    32768
280
     0
281
     1
  0
CLASS
  1
XRECORD
  2
AcDbXrecord
  3
"<Built In>"
 90
    32768
280
     0
281
     0
  0
CLASS
  1
LONG_TRANSACTION
  2
AcDbLongTransaction
  3
AutoCAD 2000
 90
    32768
280
     0
281
     0
  0
CLASS
  1
LWPOLYLINE
  2
AcDbPolyline
  3
"AutoCAD"
 90
    32768
280
     0
281
     1
  0
CLASS
  1
HATCH
  2
AcDbHatch
  3
"ACAD_SEDONA"
 90
    32768
280
     0
281
     1
  0
CLASS
  1
XRECORD
  2
AcDbXrecord
  3
"<Built In>"
 90
    32768
280
     0
281
     0
  0
ENDSEC
  0
SECTION
  2
TABLES
  0
TABLE
  2
VPORT
  5
7
100
AcDbSymbolTable
 70
     2
  0
VPORT
  5
1407
100
AcDbSymbolTableRecord
100
AcDbViewportTableRecord
  2
*ACTIVE
 70
     0
 10
0.0
 20
0.0
 11
1.0
 21
1.0
 12
66.650901
 22
102.862098
 13
0.0
 23
0.0
 14
1.0
 24
1.0
 15
0.0
 25
0.0
 16
0.0
 26
0.0
 36
1.0
 17
0.0
 27
0.0
 37
0.0
 40
180.86
 41
1.673611
 42
50.0
 43
0.0
 44
0.0
 50
0.0
 51
0.0
 71
     0
 72
   100
 73
     1
 74
     3
 75
     0
 76
     0
 77
     0
 78
     0
  0
ENDTAB
  0
TABLE
  2
LTYPE
  5
4
100
AcDbSymbolTable
 70
     3
  0
LTYPE
  5
11
102
{ACAD_XDICTIONARY
360
13C7
102
}
100
AcDbSymbolTableRecord
100
AcDbLinetypeTableRecord
  2
BYBLOCK
 70
     0
  3

 72
    65
 73
     0
 40
0.0
  0
LTYPE
  5
12
102
{ACAD_XDICTIONARY
360
13C9
102
}
100
AcDbSymbolTableRecord
100
AcDbLinetypeTableRecord
  2
BYLAYER
 70
     0
  3

 72
    65
 73
     0
 40
0.0
  0
LTYPE
  5
13
102
{ACAD_XDICTIONARY
360
13CB
102
}
100
AcDbSymbolTableRecord
100
AcDbLinetypeTableRecord
  2
CONTINUOUS
 70
     0
  3
Solid line
 72
    65
 73
     0
 40
0.0
  0
LTYPE
  5
13B
100
AcDbSymbolTableRecord
100
AcDbLinetypeTableRecord
  2
AXES2
 70
     0
  3
___ _ ___ _ ___ _ ___ _ ___ _ ___ _ ___ _ ___ _
 72
    65
 73
     4
 40
1.125
 49
0.75
 74
     0
 49
-0.125
 74
     0
 49
0.125
 74
     0
 49
-0.125
 74
     0
  0
LTYPE
  5
13C
100
AcDbSymbolTableRecord
100
AcDbLinetypeTableRecord
  2
CACHE2
 70
     0
  3
Caché (x.5) _ _ _ _ _ _ _ _ _ _ _ _ _ _ _ _ _
 72
    65
 73
     2
 40
0.1875
 49
0.125
 74
     0
 49
-0.0625
 74
     0
  0
ENDTAB
  0
TABLE
  2
LAYER
  5
2
100
AcDbSymbolTable
 70
     5
  0
LAYER
  5
14
100
AcDbSymbolTableRecord
100
AcDbLayerTableRecord
  2
0
 70
     0
 62
     7
  6
CONTINUOUS
  0
LAYER
  5
13D
100
AcDbSymbolTableRecord
100
AcDbLayerTableRecord
  2
COTATION1
 70
     0
 62
     2
  6
CONTINUOUS
  0
LAYER
  5
13E
100
AcDbSymbolTableRecord
100
AcDbLayerTableRecord
  2
AXE
 70
     0
 62
    80
  6
AXES2
  0
LAYER
  5
13F
102
{ACAD_XDICTIONARY
360
13FE
102
}
100
AcDbSymbolTableRecord
100
AcDbLayerTableRecord
  2
DEFPOINTS
 70
     0
 62
     7
  6
CONTINUOUS
  0
LAYER
  5
140
100
AcDbSymbolTableRecord
100
AcDbLayerTableRecord
  2
ALPHA
 70
     0
 62
   254
  6
CONTINUOUS
  0
ENDTAB
  0
TABLE
  2
STYLE
  5
3
100
AcDbSymbolTable
 70
     2
  0
STYLE
  5
17
102
{ACAD_XDICTIONARY
360
13CD
102
}
100
AcDbSymbolTableRecord
100
AcDbTextStyleTableRecord
  2
STANDARD
 70
     0
 40
0.0
 41
1.0
 50
0.0
 71
     0
 42
0.0
  3
txt
  4

  0
STYLE
  5
142
100
AcDbSymbolTableRecord
100
AcDbTextStyleTableRecord
  2
ROMANS
 70
     0
 40
0.0
 41
1.0
 50
0.0
 71
     0
 42
6.0
  3
romans
  4

  0
ENDTAB
  0
TABLE
  2
VIEW
  5
5
100
AcDbSymbolTable
 70
     0
  0
ENDTAB
  0
TABLE
  2
UCS
  5
6
100
AcDbSymbolTable
 70
     0
  0
ENDTAB
  0
TABLE
  2
APPID
  5
8
100
AcDbSymbolTable
 70
     2
  0
APPID
  5
16
100
AcDbSymbolTableRecord
100
AcDbRegAppTableRecord
  2
ACAD
 70
     0
  0
APPID
  5
104
100
AcDbSymbolTableRecord
100
AcDbRegAppTableRecord
  2
DCO15
 70
     0
  0
ENDTAB
  0
TABLE
  2
DIMSTYLE
  5
9
100
AcDbSymbolTable
 70
     2
  0
DIMSTYLE
105
18
102
{ACAD_XDICTIONARY
360
13C5
102
}
100
AcDbSymbolTableRecord
100
AcDbDimStyleTableRecord
  2
STANDARD
 70
     0
  3

  4

  5

  6

  7

 40
1.0
 41
0.18
 42
0.0625
 43
0.38
 44
0.18
 45
0.0
 46
0.0
 47
0.0
 48
0.0
140
0.18
141
0.09
142
0.0
143
25.4
144
1.0
145
0.0
146
1.0
147
0.09
 71
     0
 72
     0
 73
     1
 74
     1
 75
     0
 76
     0
 77
     0
 78
     0
170
     0
171
     2
172
     0
173
     0
174
     0
175
     0
176
     0
177
     0
178
     0
270
     2
271
     4
272
     4
273
     2
274
     2
340
17
275
     0
280
     0
281
     0
282
     0
283
     1
284
     0
285
     0
286
     0
287
     3
288
     0
  0
DIMSTYLE
105
143
102
{ACAD_XDICTIONARY
360
1400
102
}
102
{ACAD_REACTORS
330
3D2
330
787
330
7C2
330
7E2
330
7E3
330
7E1
330
83D
330
917
102
}
100
AcDbSymbolTableRecord
100
AcDbDimStyleTableRecord
  2
SC_DEFAUT
 70
     0
  3

  4

  5
OPEN30
  6

  7

 40
1.0
 41
5.0
 42
2.0
 43
0.38
 44
2.5
 45
0.0
 46
0.0
 47
0.0
 48
0.0
140
2.5
141
0.0
142
0.0
143
25.4
144
1.0
145
0.0
146
1.0
147
2.0
 71
     0
 72
     0
 73
     1
 74
     1
 75
     0
 76
     0
 77
     1
 78
    12
170
     0
171
     2
172
     0
173
     0
174
     0
175
     0
176
     0
177
     0
178
     0
270
     2
271
     1
272
     1
273
     2
274
     2
340
142
275
     0
280
     0
281
     0
282
     0
283
     1
284
    12
285
    12
286
    12
287
     5
288
     0
  0
ENDTAB
  0
TABLE
  2
BLOCK_RECORD
  5
1
100
AcDbSymbolTable
 70
     9
  0
BLOCK_RECORD
  5
A
102
{ACAD_XDICTIONARY
360
20B
102
}
100
AcDbSymbolTableRecord
100
AcDbBlockTableRecord
  2
*MODEL_SPACE
  0
BLOCK_RECORD
  5
B
102
{ACAD_XDICTIONARY
360
13AF
102
}
100
AcDbSymbolTableRecord
100
AcDbBlockTableRecord
  2
*PAPER_SPACE
  0
BLOCK_RECORD
  5
110
100
AcDbSymbolTableRecord
100
AcDbBlockTableRecord
  2
_OPEN30
  0
BLOCK_RECORD
  5
3D3
100
AcDbSymbolTableRecord
100
AcDbBlockTableRecord
  2
*D1
  0
BLOCK_RECORD
  5
788
100
AcDbSymbolTableRecord
100
AcDbBlockTableRecord
  2
*D2
  0
BLOCK_RECORD
  5
7C3
100
AcDbSymbolTableRecord
100
AcDbBlockTableRecord
  2
*D3
  0
BLOCK_RECORD
  5
7E4
100
AcDbSymbolTableRecord
100
AcDbBlockTableRecord
  2
*D4
  0
BLOCK_RECORD
  5
7F1
100
AcDbSymbolTableRecord
100
AcDbBlockTableRecord
  2
*D5
  0
BLOCK_RECORD
  5
7FE
100
AcDbSymbolTableRecord
100
AcDbBlockTableRecord
  2
*D6
  0
BLOCK_RECORD
  5
83E
100
AcDbSymbolTableRecord
100
AcDbBlockTableRecord
  2
*D7
  0
BLOCK_RECORD
  5
918
100
AcDbSymbolTableRecord
100
AcDbBlockTableRecord
  2
*D8
  0
ENDTAB
  0
ENDSEC
  0
SECTION
  2
BLOCKS
  0
BLOCK
  5
D
100
AcDbEntity
  8
0
100
AcDbBlockBegin
  2
*MODEL_SPACE
 70
     0
 10
0.0
 20
0.0
 30
0.0
  3
*MODEL_SPACE
  1

  0
ENDBLK
  5
E
100
AcDbEntity
  8
0
100
AcDbBlockEnd
  0
BLOCK
  5
F
100
AcDbEntity
 67
     1
  8
0
100
AcDbBlockBegin
  2
*PAPER_SPACE
 70
     0
 10
0.0
 20
0.0
 30
0.0
  3
*PAPER_SPACE
  1

  0
ENDBLK
  5
10
100
AcDbEntity
 67
     1
  8
0
100
AcDbBlockEnd
  0
BLOCK
  5
111
100
AcDbEntity
  8
0
100
AcDbBlockBegin
  2
_OPEN30
 70
     0
 10
0.0
 20
0.0
 30
0.0
  3
_OPEN30
  1

  0
LINE
  5
112
100
AcDbEntity
  8
COTATION1
 62
     0
100
AcDbLine
 10
-1.0
 20
0.267949
 30
0.0
 11
0.0
 21
0.0
 31
0.0
1001
ACAD
1000
RTLwPs
1070
   158
  0
LINE
  5
113
100
AcDbEntity
  8
COTATION1
 62
     0
100
AcDbLine
 10
0.0
 20
0.0
 30
0.0
 11
-1.0
 21
-0.267949
 31
0.0
1001
ACAD
1000
RTLwPs
1070
   158
  0
LINE
  5
114
100
AcDbEntity
  8
COTATION1
 62
     0
100
AcDbLine
 10
0.0
 20
0.0
 30
0.0
 11
-1.0
 21
0.0
 31
0.0
1001
ACAD
1000
RTLwPs
1070
   158
  0
ENDBLK
  5
115
100
AcDbEntity
  8
0
100
AcDbBlockEnd
  0
BLOCK
  5
3DE
100
AcDbEntity
  8
0
100
AcDbBlockBegin
  2
*D1
 70
     1
 10
0.0
 20
0.0
 30
0.0
  3
*D1
  1

1001
ACAD
1000
RTLwPs
1070
   128
  0
LINE
  5
12EC
100
AcDbEntity
  8
COTATION1
 62
     0
100
AcDbLine
 10
15.998253
 20
56.294192
 30
0.0
 11
15.998253
 21
13.368229
 31
0.0
1001
ACAD
1000
RTLwPs
1070
   158
  0
LINE
  5
12ED
100
AcDbEntity
  8
COTATION1
 62
     0
100
AcDbLine
 10
84.046889
 20
56.294192
 30
0.0
 11
84.046889
 21
13.368229
 31
0.0
1001
ACAD
1000
RTLwPs
1070
   158
  0
LINE
  5
12EE
100
AcDbEntity
  8
COTATION1
 62
     0
100
AcDbLine
 10
20.998253
 20
15.868229
 30
0.0
 11
79.046889
 21
15.868229
 31
0.0
1001
ACAD
1000
RTLwPs
1070
   158
  0
INSERT
  5
12EF
100
AcDbEntity
  8
COTATION1
 62
     0
100
AcDbBlockReference
  2
_OPEN30
 10
15.998253
 20
15.868229
 30
0.0
 41
5.0
 42
5.0
 43
5.0
 50
180.0
1001
ACAD
1000
RTLwPs
1070
   158
  0
INSERT
  5
12F0
100
AcDbEntity
  8
COTATION1
 62
     0
100
AcDbBlockReference
  2
_OPEN30
 10
84.046889
 20
15.868229
 30
0.0
 41
5.0
 42
5.0
 43
5.0
1001
ACAD
1000
RTLwPs
1070
   158
  0
MTEXT
  5
12F1
100
AcDbEntity
  8
COTATION1
 62
     0
100
AcDbMText
 10
50.022571
 20
19.118229
 30
0.0
 40
2.5
 41
0.0
 71
     5
 72
     1
  1
\A1;68
  7
ROMANS
1001
ACAD
1000
MTEXTBEGIN
1070
    73
1070
     1
1070
    44
1040
1.0
1070
    74
1070
     0
1000
MTEXTEND
1000
MTEXTBEGIN
1070
    73
1070
     1
1070
    44
1040
1.0
1070
    74
1070
     0
1000
MTEXTEND
1000
MTEXTBEGIN
1070
    73
1070
     1
1070
    44
1040
1.0
1070
    74
1070
     0
1000
MTEXTEND
  0
POINT
  5
12F2
100
AcDbEntity
  8
DEFPOINTS
 62
     0
100
AcDbPoint
 10
15.998253
 20
58.294192
 30
0.0
1001
ACAD
1000
RTLwPs
1070
   128
  0
POINT
  5
12F3
100
AcDbEntity
  8
DEFPOINTS
 62
     0
100
AcDbPoint
 10
84.046889
 20
58.294192
 30
0.0
1001
ACAD
1000
RTLwPs
1070
   128
  0
POINT
  5
12F4
100
AcDbEntity
  8
DEFPOINTS
 62
     0
100
AcDbPoint
 10
84.046889
 20
15.868229
 30
0.0
1001
ACAD
1000
RTLwPs
1070
   128
  0
ENDBLK
  5
3DF
100
AcDbEntity
  8
0
100
AcDbBlockEnd
1001
ACAD
1000
RTLwPs
1070
   128
  0
BLOCK
  5
793
100
AcDbEntity
  8
0
100
AcDbBlockBegin
  2
*D2
 70
     1
 10
0.0
 20
0.0
 30
0.0
  3
*D2
  1

1001
ACAD
1000
RTLwPs
1070
   128
  0
LINE
  5
12F5
100
AcDbEntity
  8
COTATION1
 62
     0
100
AcDbLine
 10
15.998253
 20
56.294192
 30
0.0
 11
15.998253
 21
23.368229
 31
0.0
1001
ACAD
1000
RTLwPs
1070
   158
  0
LINE
  5
12F6
100
AcDbEntity
  8
COTATION1
 62
     0
100
AcDbLine
 10
50.022808
 20
33.820524
 30
0.0
 11
50.022808
 21
23.368229
 31
0.0
1001
ACAD
1000
RTLwPs
1070
   158
  0
LINE
  5
12F7
100
AcDbEntity
  8
COTATION1
 62
     0
100
AcDbLine
 10
20.998253
 20
25.868229
 30
0.0
 11
45.022808
 21
25.868229
 31
0.0
1001
ACAD
1000
RTLwPs
1070
   158
  0
INSERT
  5
12F8
100
AcDbEntity
  8
COTATION1
 62
     0
100
AcDbBlockReference
  2
_OPEN30
 10
15.998253
 20
25.868229
 30
0.0
 41
5.0
 42
5.0
 43
5.0
 50
180.0
1001
ACAD
1000
RTLwPs
1070
   158
  0
INSERT
  5
12F9
100
AcDbEntity
  8
COTATION1
 62
     0
100
AcDbBlockReference
  2
_OPEN30
 10
50.022808
 20
25.868229
 30
0.0
 41
5.0
 42
5.0
 43
5.0
1001
ACAD
1000
RTLwPs
1070
   158
  0
MTEXT
  5
12FA
100
AcDbEntity
  8
COTATION1
 62
     0
100
AcDbMText
 10
33.010531
 20
29.118229
 30
0.0
 40
2.5
 41
0.0
 71
     5
 72
     1
  1
\A1;=
  7
ROMANS
1001
ACAD
1000
MTEXTBEGIN
1070
    73
1070
     1
1070
    44
1040
1.0
1070
    74
1070
     0
1000
MTEXTEND
1000
MTEXTBEGIN
1070
    73
1070
     1
1070
    44
1040
1.0
1070
    74
1070
     0
1000
MTEXTEND
1000
MTEXTBEGIN
1070
    73
1070
     1
1070
    44
1040
1.0
1070
    74
1070
     0
1000
MTEXTEND
  0
POINT
  5
12FB
100
AcDbEntity
  8
DEFPOINTS
 62
     0
100
AcDbPoint
 10
15.998253
 20
58.294192
 30
0.0
1001
ACAD
1000
RTLwPs
1070
   128
  0
POINT
  5
12FC
100
AcDbEntity
  8
DEFPOINTS
 62
     0
100
AcDbPoint
 10
50.022808
 20
35.820524
 30
0.0
1001
ACAD
1000
RTLwPs
1070
   128
  0
POINT
  5
12FD
100
AcDbEntity
  8
DEFPOINTS
 62
     0
100
AcDbPoint
 10
50.022808
 20
25.868229
 30
0.0
1001
ACAD
1000
RTLwPs
1070
   128
  0
ENDBLK
  5
794
100
AcDbEntity
  8
0
100
AcDbBlockEnd
1001
ACAD
1000
RTLwPs
1070
   128
  0
BLOCK
  5
7CD
100
AcDbEntity
  8
0
100
AcDbBlockBegin
  2
*D3
 70
     1
 10
0.0
 20
0.0
 30
0.0
  3
*D3
  1

1001
ACAD
1000
RTLwPs
1070
   128
  0
LINE
  5
12FE
100
AcDbEntity
  8
COTATION1
 62
     0
100
AcDbLine
 10
84.046889
 20
56.294192
 30
0.0
 11
84.046889
 21
23.368229
 31
0.0
1001
ACAD
1000
RTLwPs
1070
   158
  0
LINE
  5
12FF
100
AcDbEntity
  8
COTATION1
 62
     0
100
AcDbLine
 10
50.022808
 20
33.820524
 30
0.0
 11
50.022808
 21
23.368229
 31
0.0
1001
ACAD
1000
RTLwPs
1070
   158
  0
LINE
  5
1300
100
AcDbEntity
  8
COTATION1
 62
     0
100
AcDbLine
 10
79.046889
 20
25.868229
 30
0.0
 11
55.022808
 21
25.868229
 31
0.0
1001
ACAD
1000
RTLwPs
1070
   158
  0
INSERT
  5
1301
100
AcDbEntity
  8
COTATION1
 62
     0
100
AcDbBlockReference
  2
_OPEN30
 10
84.046889
 20
25.868229
 30
0.0
 41
5.0
 42
5.0
 43
5.0
1001
ACAD
1000
RTLwPs
1070
   158
  0
INSERT
  5
1302
100
AcDbEntity
  8
COTATION1
 62
     0
100
AcDbBlockReference
  2
_OPEN30
 10
50.022808
 20
25.868229
 30
0.0
 41
5.0
 42
5.0
 43
5.0
 50
180.0
1001
ACAD
1000
RTLwPs
1070
   158
  0
MTEXT
  5
1303
100
AcDbEntity
  8
COTATION1
 62
     0
100
AcDbMText
 10
67.034849
 20
29.118229
 30
0.0
 40
2.5
 41
0.0
 71
     5
 72
     1
  1
\A1;=
  7
ROMANS
1001
ACAD
1000
MTEXTBEGIN
1070
    73
1070
     1
1070
    44
1040
1.0
1070
    74
1070
     0
1000
MTEXTEND
1000
MTEXTBEGIN
1070
    73
1070
     1
1070
    44
1040
1.0
1070
    74
1070
     0
1000
MTEXTEND
1000
MTEXTBEGIN
1070
    73
1070
     1
1070
    44
1040
1.0
1070
    74
1070
     0
1000
MTEXTEND
  0
POINT
  5
1304
100
AcDbEntity
  8
DEFPOINTS
 62
     0
100
AcDbPoint
 10
84.046889
 20
58.294192
 30
0.0
1001
ACAD
1000
RTLwPs
1070
   128
  0
POINT
  5
1305
100
AcDbEntity
  8
DEFPOINTS
 62
     0
100
AcDbPoint
 10
50.022808
 20
35.820524
 30
0.0
1001
ACAD
1000
RTLwPs
1070
   128
  0
POINT
  5
1306
100
AcDbEntity
  8
DEFPOINTS
 62
     0
100
AcDbPoint
 10
50.022808
 20
25.868229
 30
0.0
1001
ACAD
1000
RTLwPs
1070
   128
  0
ENDBLK
  5
7CE
100
AcDbEntity
  8
0
100
AcDbBlockEnd
1001
ACAD
1000
RTLwPs
1070
   128
  0
BLOCK
  5
7EF
100
AcDbEntity
  8
0
100
AcDbBlockBegin
  2
*D4
 70
     1
 10
0.0
 20
0.0
 30
0.0
  3
*D4
  1

1001
ACAD
1000
RTLwPs
1070
   128
  0
LINE
  5
1311
100
AcDbEntity
  8
COTATION1
 62
     0
100
AcDbLine
 10
69.671223
 20
187.253672
 30
0.0
 11
112.296889
 21
187.253672
 31
0.0
1001
ACAD
1000
RTLwPs
1070
   158
  0
LINE
  5
1312
100
AcDbEntity
  8
COTATION1
 62
     0
100
AcDbLine
 10
69.520755
 20
149.123142
 30
0.0
 11
112.296889
 21
149.123142
 31
0.0
1001
ACAD
1000
RTLwPs
1070
   158
  0
LINE
  5
1313
100
AcDbEntity
  8
COTATION1
 62
     0
100
AcDbLine
 10
109.796889
 20
182.253672
 30
0.0
 11
109.796889
 21
171.489554
 31
0.0
1001
ACAD
1000
RTLwPs
1070
   158
  0
LINE
  5
1314
100
AcDbEntity
  8
COTATION1
 62
     0
100
AcDbLine
 10
109.796889
 20
154.123142
 30
0.0
 11
109.796889
 21
164.989554
 31
0.0
1001
ACAD
1000
RTLwPs
1070
   158
  0
MTEXT
  5
1315
100
AcDbEntity
  8
COTATION1
 62
     0
100
AcDbMText
 10
109.796889
 20
168.239554
 30
0.0
 40
2.5
 41
0.0
 71
     5
 72
     1
  1
\A1;=
  7
ROMANS
1001
ACAD
1000
MTEXTBEGIN
1070
    73
1070
     1
1070
    44
1040
1.0
1070
    74
1070
     0
1000
MTEXTEND
1000
MTEXTBEGIN
1070
    73
1070
     1
1070
    44
1040
1.0
1070
    74
1070
     0
1000
MTEXTEND
1000
MTEXTBEGIN
1070
    73
1070
     1
1070
    44
1040
1.0
1070
    74
1070
     0
1000
MTEXTEND
  0
INSERT
  5
1316
100
AcDbEntity
  8
COTATION1
 62
     0
100
AcDbBlockReference
  2
_OPEN30
 10
109.796889
 20
187.253672
 30
0.0
 41
5.0
 42
5.0
 43
5.0
 50
90.0
1001
ACAD
1000
RTLwPs
1070
   158
  0
INSERT
  5
1317
100
AcDbEntity
  8
COTATION1
 62
     0
100
AcDbBlockReference
  2
_OPEN30
 10
109.796889
 20
149.123142
 30
0.0
 41
5.0
 42
5.0
 43
5.0
 50
270.0
1001
ACAD
1000
RTLwPs
1070
   158
  0
POINT
  5
1318
100
AcDbEntity
  8
DEFPOINTS
 62
     0
100
AcDbPoint
 10
67.671223
 20
187.253672
 30
0.0
1001
ACAD
1000
RTLwPs
1070
   128
  0
POINT
  5
1319
100
AcDbEntity
  8
DEFPOINTS
 62
     0
100
AcDbPoint
 10
67.520755
 20
149.123142
 30
0.0
1001
ACAD
1000
RTLwPs
1070
   128
  0
POINT
  5
131A
100
AcDbEntity
  8
DEFPOINTS
 62
     0
100
AcDbPoint
 10
109.796889
 20
149.123142
 30
0.0
1001
ACAD
1000
RTLwPs
1070
   128
  0
ENDBLK
  5
7F0
100
AcDbEntity
  8
0
100
AcDbBlockEnd
1001
ACAD
1000
RTLwPs
1070
   128
  0
BLOCK
  5
7FC
100
AcDbEntity
  8
0
100
AcDbBlockBegin
  2
*D5
 70
     1
 10
0.0
 20
0.0
 30
0.0
  3
*D5
  1

1001
ACAD
1000
RTLwPs
1070
   128
  0
LINE
  5
131B
100
AcDbEntity
  8
COTATION1
 62
     0
100
AcDbLine
 10
102.017292
 20
119.088245
 30
0.0
 11
112.296889
 21
119.088245
 31
0.0
1001
ACAD
1000
RTLwPs
1070
   158
  0
LINE
  5
131C
100
AcDbEntity
  8
COTATION1
 62
     0
100
AcDbLine
 10
69.154846
 20
89.052869
 30
0.0
 11
112.296889
 21
89.052869
 31
0.0
1001
ACAD
1000
RTLwPs
1070
   158
  0
LINE
  5
131D
100
AcDbEntity
  8
COTATION1
 62
     0
100
AcDbLine
 10
109.796889
 20
114.088245
 30
0.0
 11
109.796889
 21
107.320557
 31
0.0
1001
ACAD
1000
RTLwPs
1070
   158
  0
LINE
  5
131E
100
AcDbEntity
  8
COTATION1
 62
     0
100
AcDbLine
 10
109.796889
 20
94.052869
 30
0.0
 11
109.796889
 21
100.820557
 31
0.0
1001
ACAD
1000
RTLwPs
1070
   158
  0
MTEXT
  5
131F
100
AcDbEntity
  8
COTATION1
 62
     0
100
AcDbMText
 10
109.796889
 20
104.070557
 30
0.0
 40
2.5
 41
0.0
 71
     5
 72
     1
  1
\A1;30
  7
ROMANS
1001
ACAD
1000
MTEXTBEGIN
1070
    73
1070
     1
1070
    44
1040
1.0
1070
    74
1070
     0
1000
MTEXTEND
1000
MTEXTBEGIN
1070
    73
1070
     1
1070
    44
1040
1.0
1070
    74
1070
     0
1000
MTEXTEND
1000
MTEXTBEGIN
1070
    73
1070
     1
1070
    44
1040
1.0
1070
    74
1070
     0
1000
MTEXTEND
  0
INSERT
  5
1320
100
AcDbEntity
  8
COTATION1
 62
     0
100
AcDbBlockReference
  2
_OPEN30
 10
109.796889
 20
119.088245
 30
0.0
 41
5.0
 42
5.0
 43
5.0
 50
90.0
1001
ACAD
1000
RTLwPs
1070
   158
  0
INSERT
  5
1321
100
AcDbEntity
  8
COTATION1
 62
     0
100
AcDbBlockReference
  2
_OPEN30
 10
109.796889
 20
89.052869
 30
0.0
 41
5.0
 42
5.0
 43
5.0
 50
270.0
1001
ACAD
1000
RTLwPs
1070
   158
  0
POINT
  5
1322
100
AcDbEntity
  8
DEFPOINTS
 62
     0
100
AcDbPoint
 10
100.017292
 20
119.088245
 30
0.0
1001
ACAD
1000
RTLwPs
1070
   128
  0
POINT
  5
1323
100
AcDbEntity
  8
DEFPOINTS
 62
     0
100
AcDbPoint
 10
67.154846
 20
89.052869
 30
0.0
1001
ACAD
1000
RTLwPs
1070
   128
  0
POINT
  5
1324
100
AcDbEntity
  8
DEFPOINTS
 62
     0
100
AcDbPoint
 10
109.796889
 20
89.052869
 30
0.0
1001
ACAD
1000
RTLwPs
1070
   128
  0
ENDBLK
  5
7FD
100
AcDbEntity
  8
0
100
AcDbBlockEnd
1001
ACAD
1000
RTLwPs
1070
   128
  0
BLOCK
  5
809
100
AcDbEntity
  8
0
100
AcDbBlockBegin
  2
*D6
 70
     1
 10
0.0
 20
0.0
 30
0.0
  3
*D6
  1

1001
ACAD
1000
RTLwPs
1070
   128
  0
LINE
  5
1307
100
AcDbEntity
  8
COTATION1
 62
     0
100
AcDbLine
 10
69.154846
 20
89.052869
 30
0.0
 11
112.296889
 21
89.052869
 31
0.0
1001
ACAD
1000
RTLwPs
1070
   158
  0
LINE
  5
1308
100
AcDbEntity
  8
COTATION1
 62
     0
100
AcDbLine
 10
69.671223
 20
51.294926
 30
0.0
 11
112.296889
 21
51.294926
 31
0.0
1001
ACAD
1000
RTLwPs
1070
   158
  0
LINE
  5
1309
100
AcDbEntity
  8
COTATION1
 62
     0
100
AcDbLine
 10
109.796889
 20
84.052869
 30
0.0
 11
109.796889
 21
73.186696
 31
0.0
1001
ACAD
1000
RTLwPs
1070
   158
  0
LINE
  5
130A
100
AcDbEntity
  8
COTATION1
 62
     0
100
AcDbLine
 10
109.796889
 20
56.294926
 30
0.0
 11
109.796889
 21
66.686696
 31
0.0
1001
ACAD
1000
RTLwPs
1070
   158
  0
MTEXT
  5
130B
100
AcDbEntity
  8
COTATION1
 62
     0
100
AcDbMText
 10
109.796889
 20
69.936696
 30
0.0
 40
2.5
 41
0.0
 71
     5
 72
     1
  1
\A1;=
  7
ROMANS
1001
ACAD
1000
MTEXTBEGIN
1070
    73
1070
     1
1070
    44
1040
1.0
1070
    74
1070
     0
1000
MTEXTEND
1000
MTEXTBEGIN
1070
    73
1070
     1
1070
    44
1040
1.0
1070
    74
1070
     0
1000
MTEXTEND
1000
MTEXTBEGIN
1070
    73
1070
     1
1070
    44
1040
1.0
1070
    74
1070
     0
1000
MTEXTEND
  0
INSERT
  5
130C
100
AcDbEntity
  8
COTATION1
 62
     0
100
AcDbBlockReference
  2
_OPEN30
 10
109.796889
 20
89.052869
 30
0.0
 41
5.0
 42
5.0
 43
5.0
 50
90.0
1001
ACAD
1000
RTLwPs
1070
   158
  0
INSERT
  5
130D
100
AcDbEntity
  8
COTATION1
 62
     0
100
AcDbBlockReference
  2
_OPEN30
 10
109.796889
 20
51.294926
 30
0.0
 41
5.0
 42
5.0
 43
5.0
 50
270.0
1001
ACAD
1000
RTLwPs
1070
   158
  0
POINT
  5
130E
100
AcDbEntity
  8
DEFPOINTS
 62
     0
100
AcDbPoint
 10
67.154846
 20
89.052869
 30
0.0
1001
ACAD
1000
RTLwPs
1070
   128
  0
POINT
  5
130F
100
AcDbEntity
  8
DEFPOINTS
 62
     0
100
AcDbPoint
 10
67.671223
 20
51.294926
 30
0.0
1001
ACAD
1000
RTLwPs
1070
   128
  0
POINT
  5
1310
100
AcDbEntity
  8
DEFPOINTS
 62
     0
100
AcDbPoint
 10
109.796889
 20
51.294926
 30
0.0
1001
ACAD
1000
RTLwPs
1070
   128
  0
ENDBLK
  5
80A
100
AcDbEntity
  8
0
100
AcDbBlockEnd
1001
ACAD
1000
RTLwPs
1070
   128
  0
BLOCK
  5
849
100
AcDbEntity
  8
0
100
AcDbBlockBegin
  2
*D7
 70
     1
 10
0.0
 20
0.0
 30
0.0
  3
*D7
  1

1001
ACAD
1000
RTLwPs
1070
   128
  0
LINE
  5
1325
100
AcDbEntity
  8
COTATION1
 62
     0
100
AcDbLine
 10
102.017292
 20
119.088245
 30
0.0
 11
112.296889
 21
119.088245
 31
0.0
1001
ACAD
1000
RTLwPs
1070
   158
  0
LINE
  5
1326
100
AcDbEntity
  8
COTATION1
 62
     0
100
AcDbLine
 10
69.520755
 20
149.123142
 30
0.0
 11
112.296889
 21
149.123142
 31
0.0
1001
ACAD
1000
RTLwPs
1070
   158
  0
LINE
  5
1327
100
AcDbEntity
  8
COTATION1
 62
     0
100
AcDbLine
 10
109.796889
 20
124.088245
 30
0.0
 11
109.796889
 21
130.855693
 31
0.0
1001
ACAD
1000
RTLwPs
1070
   158
  0
LINE
  5
1328
100
AcDbEntity
  8
COTATION1
 62
     0
100
AcDbLine
 10
109.796889
 20
144.123142
 30
0.0
 11
109.796889
 21
137.355693
 31
0.0
1001
ACAD
1000
RTLwPs
1070
   158
  0
MTEXT
  5
1329
100
AcDbEntity
  8
COTATION1
 62
     0
100
AcDbMText
 10
109.796889
 20
134.105693
 30
0.0
 40
2.5
 41
0.0
 71
     5
 72
     1
  1
\A1;30
  7
ROMANS
1001
ACAD
1000
MTEXTBEGIN
1070
    73
1070
     1
1070
    44
1040
1.0
1070
    74
1070
     0
1000
MTEXTEND
1000
MTEXTBEGIN
1070
    73
1070
     1
1070
    44
1040
1.0
1070
    74
1070
     0
1000
MTEXTEND
1000
MTEXTBEGIN
1070
    73
1070
     1
1070
    44
1040
1.0
1070
    74
1070
     0
1000
MTEXTEND
  0
INSERT
  5
132A
100
AcDbEntity
  8
COTATION1
 62
     0
100
AcDbBlockReference
  2
_OPEN30
 10
109.796889
 20
119.088245
 30
0.0
 41
5.0
 42
5.0
 43
5.0
 50
270.0
1001
ACAD
1000
RTLwPs
1070
   158
  0
INSERT
  5
132B
100
AcDbEntity
  8
COTATION1
 62
     0
100
AcDbBlockReference
  2
_OPEN30
 10
109.796889
 20
149.123142
 30
0.0
 41
5.0
 42
5.0
 43
5.0
 50
90.0
1001
ACAD
1000
RTLwPs
1070
   158
  0
POINT
  5
132C
100
AcDbEntity
  8
DEFPOINTS
 62
     0
100
AcDbPoint
 10
100.017292
 20
119.088245
 30
0.0
1001
ACAD
1000
RTLwPs
1070
   128
  0
POINT
  5
132D
100
AcDbEntity
  8
DEFPOINTS
 62
     0
100
AcDbPoint
 10
67.520755
 20
149.123142
 30
0.0
1001
ACAD
1000
RTLwPs
1070
   128
  0
POINT
  5
132E
100
AcDbEntity
  8
DEFPOINTS
 62
     0
100
AcDbPoint
 10
109.796889
 20
149.123142
 30
0.0
1001
ACAD
1000
RTLwPs
1070
   128
  0
ENDBLK
  5
84A
100
AcDbEntity
  8
0
100
AcDbBlockEnd
1001
ACAD
1000
RTLwPs
1070
   128
  0
BLOCK
  5
923
100
AcDbEntity
  8
0
100
AcDbBlockBegin
  2
*D8
 70
     1
 10
0.0
 20
0.0
 30
0.0
  3
*D8
  1

1001
ACAD
1000
RTLwPs
1070
   128
  0
LINE
  5
132F
100
AcDbEntity
  8
COTATION1
 62
     0
100
AcDbLine
 10
69.671223
 20
187.253672
 30
0.0
 11
122.296889
 21
187.253672
 31
0.0
1001
ACAD
1000
RTLwPs
1070
   158
  0
LINE
  5
1330
100
AcDbEntity
  8
COTATION1
 62
     0
100
AcDbLine
 10
69.671223
 20
51.294926
 30
0.0
 11
122.296889
 21
51.294926
 31
0.0
1001
ACAD
1000
RTLwPs
1070
   158
  0
LINE
  5
1331
100
AcDbEntity
  8
COTATION1
 62
     0
100
AcDbLine
 10
119.796889
 20
182.253672
 30
0.0
 11
119.796889
 21
122.524299
 31
0.0
1001
ACAD
1000
RTLwPs
1070
   158
  0
LINE
  5
1332
100
AcDbEntity
  8
COTATION1
 62
     0
100
AcDbLine
 10
119.796889
 20
56.294926
 30
0.0
 11
119.796889
 21
116.024299
 31
0.0
1001
ACAD
1000
RTLwPs
1070
   158
  0
MTEXT
  5
1333
100
AcDbEntity
  8
COTATION1
 62
     0
100
AcDbMText
 10
119.796889
 20
119.274299
 30
0.0
 40
2.5
 41
0.0
 71
     5
 72
     1
  1
\A1;136
  7
ROMANS
1001
ACAD
1000
MTEXTBEGIN
1070
    73
1070
     1
1070
    44
1040
1.0
1070
    74
1070
     0
1000
MTEXTEND
1000
MTEXTBEGIN
1070
    73
1070
     1
1070
    44
1040
1.0
1070
    74
1070
     0
1000
MTEXTEND
1000
MTEXTBEGIN
1070
    73
1070
     1
1070
    44
1040
1.0
1070
    74
1070
     0
1000
MTEXTEND
  0
INSERT
  5
1334
100
AcDbEntity
  8
COTATION1
 62
     0
100
AcDbBlockReference
  2
_OPEN30
 10
119.796889
 20
187.253672
 30
0.0
 41
5.0
 42
5.0
 43
5.0
 50
90.0
1001
ACAD
1000
RTLwPs
1070
   158
  0
INSERT
  5
1335
100
AcDbEntity
  8
COTATION1
 62
     0
100
AcDbBlockReference
  2
_OPEN30
 10
119.796889
 20
51.294926
 30
0.0
 41
5.0
 42
5.0
 43
5.0
 50
270.0
1001
ACAD
1000
RTLwPs
1070
   158
  0
POINT
  5
1336
100
AcDbEntity
  8
DEFPOINTS
 62
     0
100
AcDbPoint
 10
67.671223
 20
187.253672
 30
0.0
1001
ACAD
1000
RTLwPs
1070
   128
  0
POINT
  5
1337
100
AcDbEntity
  8
DEFPOINTS
 62
     0
100
AcDbPoint
 10
67.671223
 20
51.294926
 30
0.0
1001
ACAD
1000
RTLwPs
1070
   128
  0
POINT
  5
1338
100
AcDbEntity
  8
DEFPOINTS
 62
     0
100
AcDbPoint
 10
119.796889
 20
51.294926
 30
0.0
1001
ACAD
1000
RTLwPs
1070
   128
  0
ENDBLK
  5
924
100
AcDbEntity
  8
0
100
AcDbBlockEnd
1001
ACAD
1000
RTLwPs
1070
   128
  0
ENDSEC
  0
SECTION
  2
ENTITIES
  0
CIRCLE
  5
51
100
AcDbEntity
  8
ALPHA
100
AcDbCircle
 10
74.822398
 20
60.830735
 30
0.0
 40
4.326486
  0
CIRCLE
  5
50
100
AcDbEntity
  8
ALPHA
100
AcDbCircle
 10
24.404048
 20
60.830735
 30
0.0
 40
4.326486
  0
CIRCLE
  5
4F
100
AcDbEntity
  8
ALPHA
100
AcDbCircle
 10
74.822398
 20
177.749825
 30
0.0
 40
4.326007
  0
CIRCLE
  5
4E
100
AcDbEntity
  8
ALPHA
100
AcDbCircle
 10
24.404048
 20
177.749825
 30
0.0
 40
4.326007
  0
CIRCLE
  5
4D
100
AcDbEntity
  8
ALPHA
100
AcDbCircle
 10
50.022808
 20
89.052869
 30
0.0
 40
14.132038
  0
CIRCLE
  5
43
100
AcDbEntity
  8
ALPHA
100
AcDbCircle
 10
50.022808
 20
119.088245
 30
0.0
 40
14.131562
  0
CIRCLE
  5
41
100
AcDbEntity
  8
ALPHA
100
AcDbCircle
 10
50.022808
 20
149.123142
 30
0.0
 40
14.497947
  0
SPLINE
  5
2CE
100
AcDbEntity
  8
ALPHA
100
AcDbSpline
210
0.1953211129661419
220
0.9807393449993059
230
0.0
 70
    24
 71
     3
 72
     8
 73
     4
 74
     0
 42
0.0000001
 43
0.0000001
 40
0.0
 40
0.0
 40
0.0
 40
0.0
 40
1.0
 40
1.0
 40
1.0
 40
1.0
 10
67.67122264217746
 20
187.2536717370899
 30
0.0
 10
67.67122264217746
 20
187.2536717370899
 30
0.0
 10
80.34774180841006
 20
184.7290541159962
 30
0.0
 10
80.34774180841006
 20
184.7290541159962
 30
0.0
  0
SPLINE
  5
2CF
100
AcDbEntity
  8
ALPHA
100
AcDbSpline
210
0.0
220
0.0
230
1.0
 70
     8
 71
     3
 72
     8
 73
     4
 74
     0
 42
0.0000001
 43
0.0000001
 40
1.0
 40
1.0
 40
1.0
 40
1.0
 40
2.0
 40
2.0
 40
2.0
 40
2.0
 10
80.34774180841006
 20
184.7290541159962
 30
0.0
 10
82.45540633032849
 20
184.2405415604406
 30
0.0
 10
84.0468886402243
 20
182.3599590467687
 30
0.0
 10
84.0468886402243
 20
180.1044049816646
 30
0.0
  0
SPLINE
  5
2D0
100
AcDbEntity
  8
ALPHA
100
AcDbSpline
210
-1.0
220
0.0
230
0.0
 70
    24
 71
     3
 72
     8
 73
     4
 74
     0
 42
0.0000001
 43
0.0000001
 40
2.0
 40
2.0
 40
2.0
 40
2.0
 40
3.0
 40
3.0
 40
3.0
 40
3.0
 10
84.0468886402243
 20
180.2544049816646
 30
0.0
 10
84.0468886402243
 20
180.2544049816646
 30
0.0
 10
84.0468886402243
 20
58.29419228374804
 30
0.0
 10
84.0468886402243
 20
58.29419228374804
 30
0.0
  0
SPLINE
  5
2D1
100
AcDbEntity
  8
ALPHA
100
AcDbSpline
210
0.0
220
0.0
230
1.0
 70
     8
 71
     3
 72
     8
 73
     4
 74
     0
 42
0.0000001
 43
0.0000001
 40
3.0
 40
3.0
 40
3.0
 40
3.0
 40
4.0
 40
4.0
 40
4.0
 40
4.0
 10
84.0468886402243
 20
58.29419228374804
 30
0.0
 10
84.0468886402243
 20
56.03863821864381
 30
0.0
 10
82.45540633032849
 20
54.30805570497198
 30
0.0
 10
80.34774180841006
 20
53.8204972755015
 30
0.0
  0
SPLINE
  5
2D2
100
AcDbEntity
  8
ALPHA
100
AcDbSpline
210
-0.1953921127708092
220
0.9807252022187253
230
0.0
 70
    24
 71
     3
 72
     8
 73
     4
 74
     0
 42
0.0000001
 43
0.0000001
 40
4.0
 40
4.0
 40
4.0
 40
4.0
 40
5.0
 40
5.0
 40
5.0
 40
5.0
 10
80.34774180841006
 20
53.8204972755015
 30
0.0
 10
80.34774180841006
 20
53.8204972755015
 30
0.0
 10
67.67122264217746
 20
51.29492552832267
 30
0.0
 10
67.67122264217746
 20
51.29492552832267
 30
0.0
  0
SPLINE
  5
2D3
100
AcDbEntity
  8
ALPHA
100
AcDbSpline
210
0.0
220
1.0
230
0.0
 70
    24
 71
     3
 72
     8
 73
     4
 74
     0
 42
0.0000001
 43
0.0000001
 40
5.0
 40
5.0
 40
5.0
 40
5.0
 40
6.0
 40
6.0
 40
6.0
 40
6.0
 10
67.67122264217746
 20
51.29492552832267
 30
0.0
 10
67.67122264217746
 20
51.29492552832267
 30
0.0
 10
31.62344191930421
 20
51.29492552832267
 30
0.0
 10
31.62344191930421
 20
51.29492552832267
 30
0.0
  0
SPLINE
  5
2D4
100
AcDbEntity
  8
ALPHA
100
AcDbSpline
210
0.2071590508302203
220
0.9783072767076419
230
0.0
 70
    24
 71
     3
 72
     8
 73
     4
 74
     0
 42
0.0000001
 43
0.0000001
 40
6.0
 40
6.0
 40
6.0
 40
6.0
 40
7.0
 40
7.0
 40
7.0
 40
7.0
 10
31.62344191930421
 20
51.29492552832267
 30
0.0
 10
31.62344191930421
 20
51.29492552832267
 30
0.0
 10
19.696445690029
 20
53.8204972755015
 30
0.0
 10
19.696445690029
 20
53.8204972755015
 30
0.0
  0
SPLINE
  5
2D5
100
AcDbEntity
  8
ALPHA
100
AcDbSpline
210
0.0
220
0.0
230
-1.0
 70
     8
 71
     3
 72
     8
 73
     4
 74
     0
 42
0.0000001
 43
0.0000001
 40
7.0
 40
7.0
 40
7.0
 40
7.0
 40
8.0
 40
8.0
 40
8.0
 40
8.0
 10
19.696445690029
 20
53.8204972755015
 30
0.0
 10
17.59021235723827
 20
54.30805570497198
 30
0.0
 10
15.99825298429988
 20
56.03863821864381
 30
0.0
 10
15.99825298429988
 20
58.29419228374804
 30
0.0
  0
SPLINE
  5
2D6
100
AcDbEntity
  8
ALPHA
100
AcDbSpline
210
-1.0
220
0.0
230
0.0
 70
    24
 71
     3
 72
     8
 73
     4
 74
     0
 42
0.0000001
 43
0.0000001
 40
8.0
 40
8.0
 40
8.0
 40
8.0
 40
9.0
 40
9.0
 40
9.0
 40
9.0
 10
15.99825298429988
 20
58.29419228374804
 30
0.0
 10
15.99825298429988
 20
58.29419228374804
 30
0.0
 10
15.99825298429988
 20
180.2544049816646
 30
0.0
 10
15.99825298429988
 20
180.2544049816646
 30
0.0
  0
SPLINE
  5
2D7
100
AcDbEntity
  8
ALPHA
100
AcDbSpline
210
0.0
220
0.0
230
-1.0
 70
     8
 71
     3
 72
     8
 73
     4
 74
     0
 42
0.0000001
 43
0.0000001
 40
9.0
 40
9.0
 40
9.0
 40
9.0
 40
10.0
 40
10.0
 40
10.0
 40
10.0
 10
15.99825298429988
 20
180.1044049816646
 30
0.0
 10
15.99825298429988
 20
182.3599590467687
 30
0.0
 10
17.59021235723827
 20
184.2405415604406
 30
0.0
 10
19.696445690029
 20
184.7290541159962
 30
0.0
  0
SPLINE
  5
2D8
100
AcDbEntity
  8
ALPHA
100
AcDbSpline
210
-0.2070841457800398
220
0.9783231350461623
230
0.0
 70
    24
 71
     3
 72
     8
 73
     4
 74
     0
 42
0.0000001
 43
0.0000001
 40
10.0
 40
10.0
 40
10.0
 40
10.0
 40
11.0
 40
11.0
 40
11.0
 40
11.0
 10
19.696445690029
 20
184.7290541159962
 30
0.0
 10
19.696445690029
 20
184.7290541159962
 30
0.0
 10
31.62344191930421
 20
187.2536717370899
 30
0.0
 10
31.62344191930421
 20
187.2536717370899
 30
0.0
  0
SPLINE
  5
2D9
100
AcDbEntity
  8
ALPHA
100
AcDbSpline
210
0.0
220
1.0
230
0.0
 70
    24
 71
     3
 72
     8
 73
     4
 74
     0
 42
0.0000001
 43
0.0000001
 40
11.0
 40
11.0
 40
11.0
 40
11.0
 40
12.0
 40
12.0
 40
12.0
 40
12.0
 10
31.62344191930421
 20
187.2536717370899
 30
0.0
 10
31.62344191930421
 20
187.2536717370899
 30
0.0
 10
67.67122264217746
 20
187.2536717370899
 30
0.0
 10
67.67122264217746
 20
187.2536717370899
 30
0.0
  0
LINE
  5
2DA
100
AcDbEntity
  8
ALPHA
100
AcDbLine
 10
64.949159
 20
73.785422
 30
0.0
 11
78.957579
 21
73.785422
 31
0.0
  0
LINE
  5
2DB
100
AcDbEntity
  8
ALPHA
100
AcDbLine
 10
78.957579
 20
73.785422
 30
0.0
 11
78.957579
 21
164.390112
 31
0.0
  0
LINE
  5
2DC
100
AcDbEntity
  8
ALPHA
100
AcDbLine
 10
78.957579
 20
164.390112
 30
0.0
 11
64.949159
 21
164.390112
 31
0.0
  0
LINE
  5
2DD
100
AcDbEntity
  8
ALPHA
100
AcDbLine
 10
64.949159
 20
164.390112
 30
0.0
 11
64.949159
 21
73.785422
 31
0.0
  0
LINE
  5
2E8
100
AcDbEntity
  8
ALPHA
100
AcDbLine
 10
24.985168
 20
104.320319
 30
0.0
 11
24.985168
 21
73.785422
 31
0.0
  0
LINE
  5
2E9
100
AcDbEntity
  8
ALPHA
100
AcDbLine
 10
24.985168
 20
73.785422
 30
0.0
 11
64.949159
 21
73.785422
 31
0.0
  0
LINE
  5
2EA
100
AcDbEntity
  8
ALPHA
100
AcDbLine
 10
64.949159
 20
164.390112
 30
0.0
 11
24.985168
 21
164.390112
 31
0.0
  0
LINE
  5
2EB
100
AcDbEntity
  8
ALPHA
100
AcDbLine
 10
24.985168
 20
164.390112
 30
0.0
 11
24.985168
 21
133.855215
 31
0.0
  0
LINE
  5
2EC
100
AcDbEntity
  8
ALPHA
100
AcDbLine
 10
24.985168
 20
133.855215
 30
0.0
 11
64.949159
 21
133.855215
 31
0.0
  0
LINE
  5
2F2
100
AcDbEntity
  8
ALPHA
100
AcDbLine
 10
24.985168
 20
134.355215
 30
0.0
 11
24.985168
 21
103.820319
 31
0.0
  0
LINE
  5
2F3
100
AcDbEntity
  8
ALPHA
100
AcDbLine
 10
24.985168
 20
104.320319
 30
0.0
 11
64.949159
 21
104.320319
 31
0.0
  0
DIMENSION
  5
3D2
100
AcDbEntity
  8
COTATION1
100
AcDbDimension
  2
*D1
 10
84.046889
 20
15.868229
 30
0.0
 11
50.022571
 21
19.118229
 31
0.0
 70
    32
  3
SC_DEFAUT
100
AcDbAlignedDimension
 13
15.998253
 23
58.294192
 33
0.0
 14
84.046889
 24
58.294192
 34
0.0
100
AcDbRotatedDimension
  0
LINE
  5
77D
100
AcDbEntity
  8
AXE
100
AcDbLine
 10
50.022808
 20
35.820524
 30
0.0
 11
50.022808
 21
192.355967
 31
0.0
  0
TEXT
  5
77E
100
AcDbEntity
  8
AXE
100
AcDbText
 10
42.546618
 20
35.820524
 30
0.0
 40
8.0
  1
Y
  7
ROMANS
 72
     2
 11
49.022808
 21
35.820524
 31
0.0
100
AcDbText
  0
LINE
  5
77F
100
AcDbEntity
  8
AXE
100
AcDbLine
 10
10.468179
 20
119.088245
 30
0.0
 11
100.017292
 21
119.088245
 31
0.0
  0
TEXT
  5
780
100
AcDbEntity
  8
AXE
100
AcDbText
 10
93.541101
 20
120.088245
 30
0.0
 40
8.0
  1
X
  7
ROMANS
 72
     2
 11
100.017292
 21
120.088245
 31
0.0
100
AcDbText
  0
LINE
  5
782
100
AcDbEntity
  8
AXE
100
AcDbLine
 10
32.89077
 20
89.052869
 30
0.0
 11
67.154846
 21
89.052869
 31
0.0
  0
LINE
  5
783
100
AcDbEntity
  8
AXE
100
AcDbLine
 10
32.524861
 20
149.123142
 30
0.0
 11
67.520755
 21
149.123142
 31
0.0
  0
DIMENSION
  5
787
100
AcDbEntity
  8
COTATION1
100
AcDbDimension
  2
*D2
 10
50.022808
 20
25.868229
 30
0.0
 11
33.010531
 21
29.118229
 31
0.0
 70
    32
  1
=
  3
SC_DEFAUT
100
AcDbAlignedDimension
 13
15.998253
 23
58.294192
 33
0.0
 14
50.022808
 24
35.820524
 34
0.0
100
AcDbRotatedDimension
  0
DIMENSION
  5
7C2
100
AcDbEntity
  8
COTATION1
100
AcDbDimension
  2
*D3
 10
50.022808
 20
25.868229
 30
0.0
 11
67.034849
 21
29.118229
 31
0.0
 70
    32
  1
=
  3
SC_DEFAUT
100
AcDbAlignedDimension
 13
84.046889
 23
58.294192
 33
0.0
 14
50.022808
 24
35.820524
 34
0.0
 50
180.0
100
AcDbRotatedDimension
  0
DIMENSION
  5
7E1
100
AcDbEntity
  8
COTATION1
100
AcDbDimension
  2
*D6
 10
109.796889
 20
51.294926
 30
0.0
 11
109.796889
 21
69.936696
 31
0.0
 70
   160
  1
=
  3
SC_DEFAUT
100
AcDbAlignedDimension
 13
67.154846
 23
89.052869
 33
0.0
 14
67.671223
 24
51.294926
 34
0.0
 50
90.0
100
AcDbRotatedDimension
  0
DIMENSION
  5
7E2
100
AcDbEntity
  8
COTATION1
100
AcDbDimension
  2
*D4
 10
109.796889
 20
149.123142
 30
0.0
 11
109.796889
 21
168.239554
 31
0.0
 70
   160
  1
=
  3
SC_DEFAUT
100
AcDbAlignedDimension
 13
67.671223
 23
187.253672
 33
0.0
 14
67.520755
 24
149.123142
 34
0.0
 50
90.0
100
AcDbRotatedDimension
  0
DIMENSION
  5
7E3
100
AcDbEntity
  8
COTATION1
100
AcDbDimension
  2
*D5
 10
109.796889
 20
89.052869
 30
0.0
 11
109.796889
 21
104.070557
 31
0.0
 70
   160
  3
SC_DEFAUT
100
AcDbAlignedDimension
 13
100.017292
 23
119.088245
 33
0.0
 14
67.154846
 24
89.052869
 34
0.0
 50
90.0
100
AcDbRotatedDimension
  0
DIMENSION
  5
83D
100
AcDbEntity
  8
COTATION1
100
AcDbDimension
  2
*D7
 10
109.796889
 20
149.123142
 30
0.0
 11
109.796889
 21
134.105693
 31
0.0
 70
   160
  3
SC_DEFAUT
100
AcDbAlignedDimension
 13
100.017292
 23
119.088245
 33
0.0
 14
67.520755
 24
149.123142
 34
0.0
 50
270.0
100
AcDbRotatedDimension
1001
ACAD
1000
DSTYLE
1002
{
1070
   271
1070
     0
1002
}
  0
DIMENSION
  5
917
100
AcDbEntity
  8
COTATION1
100
AcDbDimension
  2
*D8
 10
119.796889
 20
51.294926
 30
0.0
 11
119.796889
 21
119.274299
 31
0.0
 70
   160
  3
SC_DEFAUT
100
AcDbAlignedDimension
 13
67.671223
 23
187.253672
 33
0.0
 14
67.671223
 24
51.294926
 34
0.0
 50
90.0
100
AcDbRotatedDimension
  0
ENDSEC
  0
SECTION
  2
OBJECTS
  0
DICTIONARY
  5
19
102
{ACAD_XDICTIONARY
360
13F4
102
}
100
AcDbDictionary
  3
ACAD_COLOR
350
FC
  3
ACAD_GROUP
350
1A
  3
ACAD_LAYOUT
350
1E
  3
ACAD_MATERIAL
350
FB
  3
ACAD_MLINESTYLE
350
1B
  3
ACAD_PLOTSETTINGS
350
22
  3
ACAD_PLOTSTYLENAME
350
1F
  3
ACAD_TABLESTYLE
350
FD
  3
ACAD_WIPEOUT_VARS
350
23
  3
ACDBHEADERROUNDTRIPXREC
350
13D1
  3
ACDBVARIABLEDICTIONARY
350
362
  3
AEC_CLASSIFICATION_SYSTEM_DEFS
350
420
  3
AEC_PROPERTY_SET_DEFS
350
421
  3
ASE_INDEX_DICTIONARY
350
103
  0
DICTIONARY
  5
13C7
100
AcDbDictionary
  3
ACAD_XREC_ROUNDTRIP
360
13C8
  0
DICTIONARY
  5
13C9
100
AcDbDictionary
  3
ACAD_XREC_ROUNDTRIP
360
13CA
  0
DICTIONARY
  5
13CB
100
AcDbDictionary
  3
ACAD_XREC_ROUNDTRIP
360
13CC
  0
DICTIONARY
  5
13FE
100
AcDbDictionary
  3
ACAD_XREC_ROUNDTRIP
360
13FF
  0
DICTIONARY
  5
13CD
100
AcDbDictionary
  3
ACAD_XREC_ROUNDTRIP
360
13CE
  0
DICTIONARY
  5
13C5
100
AcDbDictionary
  3
ACAD_XREC_ROUNDTRIP
360
13C6
  0
DICTIONARY
  5
1400
100
AcDbDictionary
  3
ACAD_XREC_ROUNDTRIP
360
1401
  0
DICTIONARY
  5
20B
100
AcDbDictionary
  3
ACAD_LAYOUTSELFREF
360
13F2
  3
ACAD_SORTENTS
360
20C
  0
DICTIONARY
  5
13AF
100
AcDbDictionary
  3
ACAD_LAYOUTSELFREF
360
13F3
  0
DICTIONARY
  5
13F4
100
AcDbDictionary
  3
ACAD_XREC_ROUNDTRIP
360
13F5
  0
DICTIONARY
  5
FC
102
{ACAD_REACTORS
330
19
102
}
100
AcDbDictionary
  0
DICTIONARY
  5
1A
102
{ACAD_REACTORS
330
19
102
}
100
AcDbDictionary
  0
DICTIONARY
  5
1E
102
{ACAD_XDICTIONARY
360
13F8
102
}
102
{ACAD_REACTORS
330
19
102
}
100
AcDbDictionary
  3
LAYOUT1
350
21
  3
MODEL
350
20
  0
DICTIONARY
  5
FB
102
{ACAD_REACTORS
330
19
102
}
100
AcDbDictionary
  0
DICTIONARY
  5
1B
102
{ACAD_XDICTIONARY
360
13F6
102
}
102
{ACAD_REACTORS
330
19
102
}
100
AcDbDictionary
  3
STANDARD
350
1C
  0
DICTIONARY
  5
22
102
{ACAD_REACTORS
330
19
102
}
100
AcDbDictionary
  0
ACAD_ZOMBIE_OBJECT
  5
1F
102
{ACAD_REACTORS
330
19
102
}
100
AcDbZombieObject
 90
      499
 91
      517
 93
       86
310
405010041939BDC9B585B0
350
1D
340
1D
 94
        0
  0
DICTIONARY
  5
FD
102
{ACAD_XDICTIONARY
360
13FA
102
}
102
{ACAD_REACTORS
330
19
102
}
100
AcDbDictionary
  3
STANDARD
350
FE
  0
ACAD_ZOMBIE_OBJECT
  5
23
100
AcDbZombieObject
 90
      499
 91
      521
 93
       10
310
4048
 94
        0
  0
DICTIONARY
  5
13D1
102
{ACAD_REACTORS
330
19
102
}
100
AcDbDictionary
  3
CEPSNTYPE
350
13DB
  3
DIMSTYLEDATA
350
13DF
  3
FINGERPRINTGUID
350
13DC
  3
HYPERLINKBASE
350
13D4
  3
INSUNITS
350
13DA
  3
LAYOUTDICT
350
13D6
  3
LWETCUNION
350
13D9
  3
PLOTSETDICT
350
13D7
  3
PLOTSTYLNAMDICT
350
13D8
  3
PSVPSCALE
350
13DE
  3
PUCSBASE
350
13E2
  3
PUCSORGBACK
350
13E8
  3
PUCSORGBOTTOM
350
13E4
  3
PUCSORGFRONT
350
13E7
  3
PUCSORGLEFT
350
13E5
  3
PUCSORGRIGHT
350
13E6
  3
PUCSORGTOP
350
13E3
  3
PUCSORTHOREF
350
13E0
  3
PUCSORTHOVIEW
350
13E1
  3
STYLESHEET
350
13D5
  3
TSTACKALIGN
350
13D2
  3
TSTACKSIZE
350
13D3
  3
UCSBASE
350
13EB
  3
UCSORGBACK
350
13F1
  3
UCSORGBOTTOM
350
13ED
  3
UCSORGFRONT
350
13F0
  3
UCSORGLEFT
350
13EE
  3
UCSORGRIGHT
350
13EF
  3
UCSORGTOP
350
13EC
  3
UCSORTHOREF
350
13E9
  3
UCSORTHOVIEW
350
13EA
  3
VERSIONGUID
350
13DD
  0
DICTIONARY
  5
362
102
{ACAD_REACTORS
330
19
102
}
100
AcDbDictionary
  3
CTABLESTYLE
350
363
  3
DIMASSOC
350
AF0
  3
PROJECTNAME
350
AF1
  0
DICTIONARY
  5
420
102
{ACAD_REACTORS
330
19
102
}
100
AcDbDictionary
  0
DICTIONARY
  5
421
102
{ACAD_REACTORS
330
19
102
}
100
AcDbDictionary
  0
DICTIONARY
  5
103
102
{ACAD_XDICTIONARY
360
13FC
102
}
102
{ACAD_REACTORS
330
19
102
}
100
AcDbDictionary
  3
ASEBLOCKHIERARCHYINDEXRECORD
350
105
1001
DCO15
1040
1538305377.921
  0
XRECORD
  5
13C8
102
{ACAD_REACTORS
330
13C7
102
}
100
AcDbXrecord
102
EXTNAMES
  1
BYBLOCK
  2
ByBlock
  0
XRECORD
  5
13CA
102
{ACAD_REACTORS
330
13C9
102
}
100
AcDbXrecord
102
EXTNAMES
  1
BYLAYER
  2
ByLayer
  0
XRECORD
  5
13CC
102
{ACAD_REACTORS
330
13CB
102
}
100
AcDbXrecord
102
EXTNAMES
  1
CONTINUOUS
  2
Continuous
  0
XRECORD
  5
13FF
102
{ACAD_REACTORS
330
13FE
102
}
100
AcDbXrecord
102
PLOTBIT
280
     0
  0
XRECORD
  5
13CE
102
{ACAD_REACTORS
330
13CD
102
}
100
AcDbXrecord
102
EXTNAMES
  1
STANDARD
  2
Standard
  0
XRECORD
  5
13C6
102
{ACAD_REACTORS
330
13C5
102
}
100
AcDbXrecord
102
EXTNAMES
  1
STANDARD
  2
Standard
  0
XRECORD
  5
1401
102
{ACAD_REACTORS
330
1400
102
}
100
AcDbXrecord
102
ACADR14ROUNDTRIP
1000
DSTYLE
1002
{
1070
   279
 70
     2
1070
   341
340
110
1070
   342
340
110
1002
}
  0
XRECORD
  5
13F2
102
{ACAD_REACTORS
330
20B
102
}
100
AcDbXrecord
340
A
  0
SORTENTSTABLE
  5
20C
102
{ACAD_REACTORS
330
20B
102
}
100
AcDbSortentsTable
330
A
331
4D
  5
18F
331
41
  5
180
331
2E9
  5
199
331
780
  5
784
331
2DB
  5
202
331
2D5
  5
20E
331
4E
  5
191
331
3D2
  5
49F
331
2EA
  5
195
331
2DC
  5
203
331
2D6
  5
20F
331
4F
  5
192
331
2D0
  5
207
331
43
  5
183
331
2EB
  5
196
331
782
  5
785
331
2DD
  5
204
331
2D7
  5
210
331
50
  5
193
331
2D1
  5
208
331
2F2
  5
185
331
2EC
  5
197
331
783
  5
786
331
2D8
  5
211
331
77D
  5
780
331
2CE
  5
205
331
51
  5
194
331
2D2
  5
209
331
2F3
  5
186
331
77E
  5
782
331
2D9
  5
212
331
2CF
  5
206
331
2D3
  5
20A
331
2E8
  5
198
331
77F
  5
783
331
2DA
  5
201
331
2D4
  5
20D
  0
XRECORD
  5
13F3
102
{ACAD_REACTORS
330
13AF
102
}
100
AcDbXrecord
340
B
  0
XRECORD
  5
13F5
102
{ACAD_REACTORS
330
13F4
102
}
100
AcDbXrecord
102
EXTNAMES
  1
ACDBVARIABLEDICTIONARY
  2
AcDbVariableDictionary
  0
DICTIONARY
  5
13F8
100
AcDbDictionary
  3
ACAD_XREC_ROUNDTRIP
360
13F9
  0
ACAD_ZOMBIE_OBJECT
  5
21
102
{ACAD_XDICTIONARY
360
1375
102
}
102
{ACAD_REACTORS
330
1E
102
}
100
AcDbZombieObject
 90
      499
 91
      515
 93
      812
310
AAAAAAAAAA5A69074C61796F757431406A800000000000000000000000000000000000000000000A1000000000000008902A6A6A10232D5E076BC5510408CB5781DAF154410232D5E076BC5510408CB5781DAF15C410232D5E076BC5710408CB5781DAF15C48
330
B
330
0
340
0
340
0
 94
        0
  0
ACAD_ZOMBIE_OBJECT
  5
20
102
{ACAD_XDICTIONARY
360
1373
102
}
102
{ACAD_REACTORS
330
1E
102
}
100
AcDbZombieObject
 90
      499
 91
      515
 93
      420
310
A00012AAAAAAAA5A69054D6F64656CAA80000000000000000000000000000000000000000000000000000000000000002AAAAAAAA1
330
A
330
0
340
0
340
0
 94
        0
  0
DICTIONARY
  5
13F6
100
AcDbDictionary
  3
ACAD_XREC_ROUNDTRIP
360
13F7
  0
MLINESTYLE
  5
1C
102
{ACAD_REACTORS
330
1B
102
}
100
AcDbMlineStyle
  2
STANDARD
 70
     0
  3

 62
     0
 51
90.0
 52
90.0
 71
     2
 49
0.5
 62
   256
  6
BYLAYER
 49
-0.5
 62
   256
  6
BYLAYER
  0
ACAD_ZOMBIE_OBJECT
  5
1D
102
{ACAD_REACTORS
330
1F
102
}
100
AcDbZombieObject
 90
      499
 91
      518
 93
        0
 94
        0
  0
DICTIONARY
  5
13FA
100
AcDbDictionary
  3
ACAD_XREC_ROUNDTRIP
360
13FB
  0
ACAD_ZOMBIE_OBJECT
  5
FE
102
{ACAD_REACTORS
330
FD
102
}
100
AcDbZombieObject
 90
      499
 91
      525
 93
     1841
310
4214DD185B99185C9928000000000000F83F0000000000003E0FC00000000000004901028000000C1008070000C3001FDFF8000000C1003FBFF000000182007F7FE00000030400FEFFC00000060801FDFF8000000C1003FBFF000000182000000000000000C2020B0000001820100E000186003FBFF000000182007F7FE000
310
00030400FEFFC00000060801FDFF8000000C1003FBFF000000182007F7FE0000003040000000000000012404160000003040201C00030C007F7FE00000030400FEFFC00000060801FDFF8000000C1003FBFF000000182007F7FE00000030400FEFFC000000608003
340
17
340
17
340
17
 94
        0
1001
ACAD
1000
AcadProxyRoundTripData
1071
      524
1071
   393239
1070
     0
  0
XRECORD
  5
13DB
102
{ACAD_REACTORS
330
13D1
102
}
100
AcDbXrecord
 90
        0
  0
XRECORD
  5
13DF
102
{ACAD_REACTORS
330
13D1
102
}
100
AcDbXrecord
1000
DSTYLE
1002
{
1070
   278
 70
     0
1070
   371
 70
     0
1070
   372
 70
     0
1002
}
  0
XRECORD
  5
13DC
102
{ACAD_REACTORS
330
13D1
102
}
100
AcDbXrecord
  1

  0
XRECORD
  5
13D4
102
{ACAD_REACTORS
330
13D1
102
}
100
AcDbXrecord
  1

  0
XRECORD
  5
13DA
102
{ACAD_REACTORS
330
13D1
102
}
100
AcDbXrecord
 90
        0
  0
XRECORD
  5
13D6
102
{ACAD_REACTORS
330
13D1
102
}
100
AcDbXrecord
340
1E
  0
XRECORD
  5
13D9
102
{ACAD_REACTORS
330
13D1
102
}
100
AcDbXrecord
 90
    10752
  0
XRECORD
  5
13D7
102
{ACAD_REACTORS
330
13D1
102
}
100
AcDbXrecord
340
22
  0
XRECORD
  5
13D8
102
{ACAD_REACTORS
330
13D1
102
}
100
AcDbXrecord
340
1F
  0
XRECORD
  5
13DE
102
{ACAD_REACTORS
330
13D1
102
}
100
AcDbXrecord
 40
0.0
  0
XRECORD
  5
13E2
102
{ACAD_REACTORS
330
13D1
102
}
100
AcDbXrecord
340
0
  0
XRECORD
  5
13E8
102
{ACAD_REACTORS
330
13D1
102
}
100
AcDbXrecord
 10
0.0
 20
0.0
 30
0.0
  0
XRECORD
  5
13E4
102
{ACAD_REACTORS
330
13D1
102
}
100
AcDbXrecord
 10
0.0
 20
0.0
 30
0.0
  0
XRECORD
  5
13E7
102
{ACAD_REACTORS
330
13D1
102
}
100
AcDbXrecord
 10
0.0
 20
0.0
 30
0.0
  0
XRECORD
  5
13E5
102
{ACAD_REACTORS
330
13D1
102
}
100
AcDbXrecord
 10
0.0
 20
0.0
 30
0.0
  0
XRECORD
  5
13E6
102
{ACAD_REACTORS
330
13D1
102
}
100
AcDbXrecord
 10
0.0
 20
0.0
 30
0.0
  0
XRECORD
  5
13E3
102
{ACAD_REACTORS
330
13D1
102
}
100
AcDbXrecord
 10
0.0
 20
0.0
 30
0.0
  0
XRECORD
  5
13E0
102
{ACAD_REACTORS
330
13D1
102
}
100
AcDbXrecord
340
0
  0
XRECORD
  5
13E1
102
{ACAD_REACTORS
330
13D1
102
}
100
AcDbXrecord
 70
     0
  0
XRECORD
  5
13D5
102
{ACAD_REACTORS
330
13D1
102
}
100
AcDbXrecord
  1

  0
XRECORD
  5
13D2
102
{ACAD_REACTORS
330
13D1
102
}
100
AcDbXrecord
 90
        1
  0
XRECORD
  5
13D3
102
{ACAD_REACTORS
330
13D1
102
}
100
AcDbXrecord
 90
       70
  0
XRECORD
  5
13EB
102
{ACAD_REACTORS
330
13D1
102
}
100
AcDbXrecord
340
0
  0
XRECORD
  5
13F1
102
{ACAD_REACTORS
330
13D1
102
}
100
AcDbXrecord
 10
0.0
 20
0.0
 30
0.0
  0
XRECORD
  5
13ED
102
{ACAD_REACTORS
330
13D1
102
}
100
AcDbXrecord
 10
0.0
 20
0.0
 30
0.0
  0
XRECORD
  5
13F0
102
{ACAD_REACTORS
330
13D1
102
}
100
AcDbXrecord
 10
0.0
 20
0.0
 30
0.0
  0
XRECORD
  5
13EE
102
{ACAD_REACTORS
330
13D1
102
}
100
AcDbXrecord
 10
0.0
 20
0.0
 30
0.0
  0
XRECORD
  5
13EF
102
{ACAD_REACTORS
330
13D1
102
}
100
AcDbXrecord
 10
0.0
 20
0.0
 30
0.0
  0
XRECORD
  5
13EC
102
{ACAD_REACTORS
330
13D1
102
}
100
AcDbXrecord
 10
0.0
 20
0.0
 30
0.0
  0
XRECORD
  5
13E9
102
{ACAD_REACTORS
330
13D1
102
}
100
AcDbXrecord
340
0
  0
XRECORD
  5
13EA
102
{ACAD_REACTORS
330
13D1
102
}
100
AcDbXrecord
 70
     0
  0
XRECORD
  5
13DD
102
{ACAD_REACTORS
330
13D1
102
}
100
AcDbXrecord
  1
{833A5DEF-41BA-4DA7-AAC4-C29E569444CD}
  0
DICTIONARYVAR
  5
363
102
{ACAD_REACTORS
330
362
102
}
100
DictionaryVariables
280
     0
  1
STANDARD
  0
DICTIONARYVAR
  5
AF0
102
{ACAD_REACTORS
330
362
102
}
100
DictionaryVariables
280
     0
  1
1
  0
DICTIONARYVAR
  5
AF1
102
{ACAD_REACTORS
330
362
102
}
100
DictionaryVariables
280
     0
  1

  0
DICTIONARY
  5
13FC
100
AcDbDictionary
  3
ACAD_XREC_ROUNDTRIP
360
13FD
  0
XRECORD
  5
105
102
{ACAD_REACTORS
330
103
102
}
100
AcDbXrecord
330
0
330
0
330
0
330
0
330
0
330
0
330
0
330
0
330
0
330
0
330
0
330
0
330
0
330
0
330
0
330
0
330
0
330
0
330
0
330
0
330
0
330
0
330
0
330
0
330
0
330
0
330
0
330
0
330
0
330
0
330
0
330
0
330
0
330
0
330
0
330
0
330
0
330
0
330
0
330
0
330
0
330
0
330
0
330
0
330
0
330
0
330
0
330
0
330
0
330
0
330
0
330
0
330
0
330
0
330
0
330
0
330
0
330
0
330
0
330
0
  0
XRECORD
  5
13F9
102
{ACAD_REACTORS
330
13F8
102
}
100
AcDbXrecord
102
EXTNAMES
  1
LAYOUT1
  2
Layout1
  1
MODEL
  2
Model
  0
DICTIONARY
  5
1375
100
AcDbDictionary
  3
ACAD_XREC_ROUNDTRIP
360
1376
  0
DICTIONARY
  5
1373
100
AcDbDictionary
  3
ACAD_XREC_ROUNDTRIP
360
1374
  0
XRECORD
  5
13F7
102
{ACAD_REACTORS
330
13F6
102
}
100
AcDbXrecord
102
EXTNAMES
  1
STANDARD
  2
Standard
  0
XRECORD
  5
13FB
102
{ACAD_REACTORS
330
13FA
102
}
100
AcDbXrecord
102
EXTNAMES
  1
STANDARD
  2
Standard
  0
XRECORD
  5
13FD
102
{ACAD_REACTORS
330
13FC
102
}
100
AcDbXrecord
102
EXTNAMES
  1
ASEBLOCKHIERARCHYINDEXRECORD
  2
ASEBlockHierarchyIndexRecord
  0
XRECORD
  5
1376
102
{ACAD_REACTORS
330
1375
102
}
100
AcDbXrecord
102
SHADEPLOT
 70
     0
102
SHADEPLOTRESLEVEL
 70
     2
102
SHADEPLOTCUSTOMDPI
 70
   300
  0
XRECORD
  5
1374
102
{ACAD_REACTORS
330
1373
102
}
100
AcDbXrecord
102
SHADEPLOT
 70
     0
102
SHADEPLOTRESLEVEL
 70
     2
102
SHADEPLOTCUSTOMDPI
 70
   300
  0
ENDSEC
  0
EOF
