  0
SECTION
  2
HEADER
  9
$ACADVER
  1
AC1014
  9
$ACADMAINTVER
 70
     9
  9
$DWGCODEPAGE
  3
ANSI_1252
  9
$INSBASE
 10
0.0
 20
0.0
 30
0.0
  9
$EXTMIN
 10
0.0
 20
0.0
 30
0.0
  9
$EXTMAX
 10
65.59999999999999
 20
40.3816
 30
0.0
  9
$LIMMIN
 10
0.0
 20
0.0
  9
$LIMMAX
 10
1632.0
 20
1056.0
  9
$ORTHOMODE
 70
     0
  9
$REGENMODE
 70
     1
  9
$FILLMODE
 70
     1
  9
$QTEXTMODE
 70
     0
  9
$MIRRTEXT
 70
     1
  9
$DRAGMODE
 70
     2
  9
$LTSCALE
 40
1.0
  9
$OSMODE
 70
    37
  9
$ATTMODE
 70
     1
  9
$TEXTSIZE
 40
0.2
  9
$TRACEWID
 40
0.05
  9
$TEXTSTYLE
  7
ROMANS
  9
$CLAYER
  8
0
  9
$CELTYPE
  6
BYLAYER
  9
$CECOLOR
 62
   256
  9
$CELTSCALE
 40
1.0
  9
$DELOBJ
 70
     1
  9
$DISPSILH
 70
     0
  9
$DIMSCALE
 40
0.0
  9
$DIMASZ
 40
0.07
  9
$DIMEXO
 40
0.0625
  9
$DIMDLI
 40
0.38
  9
$DIMRND
 40
0.001
  9
$DIMDLE
 40
0.0
  9
$DIMEXE
 40
0.0625
  9
$DIMTP
 40
0.0
  9
$DIMTM
 40
0.0
  9
$DIMTXT
 40
0.1
  9
$DIMCEN
 40
0.09
  9
$DIMTSZ
 40
0.0
  9
$DIMTOL
 70
     0
  9
$DIMLIM
 70
     0
  9
$DIMTIH
 70
     1
  9
$DIMTOH
 70
     1
  9
$DIMSE1
 70
     0
  9
$DIMSE2
 70
     0
  9
$DIMTAD
 70
     0
  9
$DIMZIN
 70
     4
  9
$DIMBLK
  1
SEARROW
  9
$DIMASO
 70
     1
  9
$DIMSHO
 70
     1
  9
$DIMPOST
  1
\P{\H0.8x;
  9
$DIMAPOST
  1

  9
$DIMALT
 70
     1
  9
$DIMALTD
 70
     0
  9
$DIMALTF
 40
25.4
  9
$DIMLFAC
 40
1.0
  9
$DIMTOFL
 70
     0
  9
$DIMTVP
 40
0.0
  9
$DIMTIX
 70
     0
  9
$DIMSOXD
 70
     0
  9
$DIMSAH
 70
     0
  9
$DIMBLK1
  1

  9
$DIMBLK2
  1

  9
$DIMSTYLE
  2
SCHNEIDERELECTRIC_DUAL_BEL
  9
$DIMCLRD
 70
   256
  9
$DIMCLRE
 70
   256
  9
$DIMCLRT
 70
   256
  9
$DIMTFAC
 40
1.0
  9
$DIMGAP
 40
0.04
  9
$DIMJUST
 70
     0
  9
$DIMSD1
 70
     0
  9
$DIMSD2
 70
     0
  9
$DIMTOLJ
 70
     1
  9
$DIMTZIN
 70
     0
  9
$DIMALTZ
 70
     4
  9
$DIMALTTZ
 70
     0
  9
$DIMFIT
 70
     3
  9
$DIMUPT
 70
     0
  9
$DIMUNIT
 70
     2
  9
$DIMDEC
 70
     2
  9
$DIMTDEC
 70
     2
  9
$DIMALTU
 70
     2
  9
$DIMALTTD
 70
     0
  9
$DIMTXSTY
  7
ROMANS
  9
$DIMAUNIT
 70
     0
  9
$LUNITS
 70
     2
  9
$LUPREC
 70
     4
  9
$SKETCHINC
 40
0.1
  9
$FILLETRAD
 40
0.5
  9
$AUNITS
 70
     0
  9
$AUPREC
 70
     0
  9
$MENU
  1
.
  9
$ELEVATION
 40
0.0
  9
$PELEVATION
 40
0.0
  9
$THICKNESS
 40
0.0
  9
$LIMCHECK
 70
     0
  9
$BLIPMODE
 70
     0
  9
$CHAMFERA
 40
0.5
  9
$CHAMFERB
 40
0.5
  9
$CHAMFERC
 40
1.0
  9
$CHAMFERD
 40
0.0
  9
$SKPOLY
 70
     0
  9
$TDCREATE
 40
2451764.576708576
  9
$TDUPDATE
 40
2453353.518743484
  9
$TDINDWG
 40
0.1245310069
  9
$TDUSRTIMER
 40
0.1245307755
  9
$USRTIMER
 70
     1
  9
$ANGBASE
 50
0.0
  9
$ANGDIR
 70
     0
  9
$PDMODE
 70
     0
  9
$PDSIZE
 40
0.0
  9
$PLINEWID
 40
0.0
  9
$COORDS
 70
     2
  9
$SPLFRAME
 70
     0
  9
$SPLINETYPE
 70
     6
  9
$SPLINESEGS
 70
     8
  9
$ATTDIA
 70
     0
  9
$ATTREQ
 70
     1
  9
$HANDLING
 70
     1
  9
$HANDSEED
  5
1FD9
  9
$SURFTAB1
 70
     6
  9
$SURFTAB2
 70
     6
  9
$SURFTYPE
 70
     6
  9
$SURFU
 70
     6
  9
$SURFV
 70
     6
  9
$UCSNAME
  2

  9
$UCSORG
 10
0.0
 20
0.0
 30
0.0
  9
$UCSXDIR
 10
1.0
 20
0.0
 30
0.0
  9
$UCSYDIR
 10
0.0
 20
1.0
 30
0.0
  9
$PUCSNAME
  2

  9
$PUCSORG
 10
0.0
 20
0.0
 30
0.0
  9
$PUCSXDIR
 10
1.0
 20
0.0
 30
0.0
  9
$PUCSYDIR
 10
0.0
 20
1.0
 30
0.0
  9
$USERI1
 70
     0
  9
$USERI2
 70
     0
  9
$USERI3
 70
     0
  9
$USERI4
 70
     0
  9
$USERI5
 70
     0
  9
$USERR1
 40
0.0
  9
$USERR2
 40
0.0
  9
$USERR3
 40
0.0
  9
$USERR4
 40
0.0
  9
$USERR5
 40
0.0
  9
$WORLDVIEW
 70
     1
  9
$SHADEDGE
 70
     3
  9
$SHADEDIF
 70
    70
  9
$TILEMODE
 70
     0
  9
$MAXACTVP
 70
    48
  9
$PINSBASE
 10
0.0
 20
0.0
 30
0.0
  9
$PLIMCHECK
 70
     0
  9
$PEXTMIN
 10
-0.0000110001960891
 20
-0.1782972436555354
 30
-0.0000000349181948
  9
$PEXTMAX
 10
16.40091185736195
 20
10.10072395030787
 30
0.0000000814935746
  9
$PLIMMIN
 10
-0.4425165352441859
 20
-1.722152508529392
  9
$PLIMMAX
 10
16.86439580877941
 20
11.65137058047272
  9
$UNITMODE
 70
     0
  9
$VISRETAIN
 70
     1
  9
$PLINEGEN
 70
     0
  9
$PSLTSCALE
 70
     1
  9
$TREEDEPTH
 70
  3020
  9
$PICKSTYLE
 70
     1
  9
$CMLSTYLE
  2
STANDARD
  9
$CMLJUST
 70
     0
  9
$CMLSCALE
 40
1.0
  9
$PROXYGRAPHICS
 70
     1
  9
$MEASUREMENT
 70
     0
  0
ENDSEC
  0
SECTION
  2
CLASSES
  0
CLASS
  1
ACDBDICTIONARYWDFLT
  2
AcDbDictionaryWithDefault
  3
AutoCAD 2000
 90
        0
280
     0
281
     0
  0
CLASS
  1
ACDBPLACEHOLDER
  2
AcDbPlaceHolder
  3
AutoCAD 2000
 90
        0
280
     0
281
     0
  0
CLASS
  1
LAYOUT
  2
AcDbLayout
  3
AutoCAD 2000
 90
        0
280
     0
281
     0
  0
CLASS
  1
LONG_TRANSACTION
  2
AcDbLongTransaction
  3
AutoCAD 2000
 90
        0
280
     0
281
     0
  0
CLASS
  1
LWPOLYLINE
  2
AcDbPolyline
  3
AutoCAD 2000
 90
        0
280
     0
281
     1
  0
CLASS
  1
HATCH
  2
AcDbHatch
  3
AutoCAD 2000
 90
        0
280
     0
281
     1
  0
CLASS
  1
XRECORD
  2
AcDbXrecord
  3
AutoCAD 2000
 90
        0
280
     0
281
     0
  0
CLASS
  1
LONG_TRANSACTION
  2
AcDbLongTransaction
  3
AutoCAD 2000
 90
        0
280
     0
281
     0
  0
CLASS
  1
LWPOLYLINE
  2
AcDbPolyline
  3
AutoCAD 2000
 90
        0
280
     0
281
     1
  0
CLASS
  1
HATCH
  2
AcDbHatch
  3
AutoCAD 2000
 90
        0
280
     0
281
     1
  0
CLASS
  1
XRECORD
  2
AcDbXrecord
  3
AutoCAD 2000
 90
        0
280
     0
281
     0
  0
CLASS
  1
PLOTSETTINGS
  2
AcDbPlotSettings
  3
AutoCAD 2000
 90
        0
280
     0
281
     0
  0
CLASS
  1
LONG_TRANSACTION
  2
AcDbLongTransaction
  3
AutoCAD 2000
 90
        0
280
     0
281
     0
  0
CLASS
  1
LWPOLYLINE
  2
AcDbPolyline
  3
AutoCAD 2000
 90
        0
280
     0
281
     1
  0
CLASS
  1
HATCH
  2
AcDbHatch
  3
AutoCAD 2000
 90
        0
280
     0
281
     1
  0
CLASS
  1
XRECORD
  2
AcDbXrecord
  3
AutoCAD 2000
 90
        0
280
     0
281
     0
  0
CLASS
  1
LONG_TRANSACTION
  2
AcDbLongTransaction
  3
AutoCAD 2000
 90
        0
280
     0
281
     0
  0
CLASS
  1
LWPOLYLINE
  2
AcDbPolyline
  3
AutoCAD 2000
 90
        0
280
     0
281
     1
  0
CLASS
  1
HATCH
  2
AcDbHatch
  3
AutoCAD 2000
 90
        0
280
     0
281
     1
  0
CLASS
  1
XRECORD
  2
AcDbXrecord
  3
AutoCAD 2000
 90
        0
280
     0
281
     0
  0
CLASS
  1
DICTIONARYVAR
  2
AcDbDictionaryVar
  3
AutoCAD 2000
 90
        0
280
     0
281
     0
  0
CLASS
  1
LONG_TRANSACTION
  2
AcDbLongTransaction
  3
AutoCAD 2000
 90
        0
280
     0
281
     0
  0
CLASS
  1
LWPOLYLINE
  2
AcDbPolyline
  3
AutoCAD 2000
 90
        0
280
     0
281
     1
  0
CLASS
  1
HATCH
  2
AcDbHatch
  3
AutoCAD 2000
 90
        0
280
     0
281
     1
  0
CLASS
  1
XRECORD
  2
AcDbXrecord
  3
AutoCAD 2000
 90
        0
280
     0
281
     0
  0
CLASS
  1
LONG_TRANSACTION
  2
AcDbLongTransaction
  3
AutoCAD 2000
 90
        0
280
     0
281
     0
  0
CLASS
  1
LWPOLYLINE
  2
AcDbPolyline
  3
AutoCAD 2000
 90
        0
280
     0
281
     1
  0
CLASS
  1
HATCH
  2
AcDbHatch
  3
AutoCAD 2000
 90
        0
280
     0
281
     1
  0
CLASS
  1
XRECORD
  2
AcDbXrecord
  3
AutoCAD 2000
 90
        0
280
     0
281
     0
  0
CLASS
  1
LONG_TRANSACTION
  2
AcDbLongTransaction
  3
AutoCAD 2000
 90
        0
280
     0
281
     0
  0
CLASS
  1
LWPOLYLINE
  2
AcDbPolyline
  3
AutoCAD 2000
 90
        0
280
     0
281
     1
  0
CLASS
  1
HATCH
  2
AcDbHatch
  3
AutoCAD 2000
 90
        0
280
     0
281
     1
  0
CLASS
  1
XRECORD
  2
AcDbXrecord
  3
AutoCAD 2000
 90
        0
280
     0
281
     0
  0
CLASS
  1
LONG_TRANSACTION
  2
AcDbLongTransaction
  3
AutoCAD 2000
 90
        0
280
     0
281
     0
  0
CLASS
  1
LWPOLYLINE
  2
AcDbPolyline
  3
AutoCAD 2000
 90
        0
280
     0
281
     1
  0
CLASS
  1
HATCH
  2
AcDbHatch
  3
AutoCAD 2000
 90
        0
280
     0
281
     1
  0
CLASS
  1
XRECORD
  2
AcDbXrecord
  3
AutoCAD 2000
 90
        0
280
     0
281
     0
  0
CLASS
  1
LONG_TRANSACTION
  2
AcDbLongTransaction
  3
AutoCAD 2000
 90
        0
280
     0
281
     0
  0
CLASS
  1
LWPOLYLINE
  2
AcDbPolyline
  3
AutoCAD 2000
 90
        0
280
     0
281
     1
  0
CLASS
  1
HATCH
  2
AcDbHatch
  3
AutoCAD 2000
 90
        0
280
     0
281
     1
  0
CLASS
  1
XRECORD
  2
AcDbXrecord
  3
AutoCAD 2000
 90
        0
280
     0
281
     0
  0
CLASS
  1
LONG_TRANSACTION
  2
AcDbLongTransaction
  3
AutoCAD 2000
 90
        0
280
     0
281
     0
  0
CLASS
  1
LWPOLYLINE
  2
AcDbPolyline
  3
AutoCAD 2000
 90
        0
280
     0
281
     1
  0
CLASS
  1
HATCH
  2
AcDbHatch
  3
AutoCAD 2000
 90
        0
280
     0
281
     1
  0
CLASS
  1
XRECORD
  2
AcDbXrecord
  3
AutoCAD 2000
 90
        0
280
     0
281
     0
  0
CLASS
  1
LONG_TRANSACTION
  2
AcDbLongTransaction
  3
AutoCAD 2000
 90
        0
280
     0
281
     0
  0
CLASS
  1
LWPOLYLINE
  2
AcDbPolyline
  3
AutoCAD 2000
 90
        0
280
     0
281
     1
  0
CLASS
  1
HATCH
  2
AcDbHatch
  3
AutoCAD 2000
 90
        0
280
     0
281
     1
  0
CLASS
  1
XRECORD
  2
AcDbXrecord
  3
AutoCAD 2000
 90
        0
280
     0
281
     0
  0
CLASS
  1
LONG_TRANSACTION
  2
AcDbLongTransaction
  3
AutoCAD 2000
 90
        0
280
     0
281
     0
  0
CLASS
  1
LWPOLYLINE
  2
AcDbPolyline
  3
AutoCAD 2000
 90
        0
280
     0
281
     1
  0
CLASS
  1
HATCH
  2
AcDbHatch
  3
AutoCAD 2000
 90
        0
280
     0
281
     1
  0
CLASS
  1
XRECORD
  2
AcDbXrecord
  3
AutoCAD 2000
 90
        0
280
     0
281
     0
  0
ENDSEC
  0
SECTION
  2
TABLES
  0
TABLE
  2
VPORT
  5
8
330
0
100
AcDbSymbolTable
 70
     1
  0
VPORT
  5
1D02
330
8
100
AcDbSymbolTableRecord
100
AcDbViewportTableRecord
  2
*ACTIVE
 70
     0
 10
0.0
 20
0.0
 11
1.0
 21
1.0
 12
32.82129195055587
 22
20.18994327377299
 13
0.0
 23
0.0
 14
0.5
 24
0.5
 15
0.5
 25
0.5
 16
0.0
 26
0.0
 36
1.0
 17
0.0
 27
0.0
 37
0.0
 40
40.79450215571561
 41
1.684971098265895
 42
50.0
 43
0.0
 44
0.0
 50
0.0
 51
0.0
 71
     0
 72
   100
 73
     1
 74
     2
 75
     0
 76
     0
 77
     0
 78
     0
  0
ENDTAB
  0
TABLE
  2
LTYPE
  5
5
330
0
100
AcDbSymbolTable
 70
     2
  0
LTYPE
  5
14
330
5
100
AcDbSymbolTableRecord
100
AcDbLinetypeTableRecord
  2
BYBLOCK
 70
     0
  3

 72
    65
 73
     0
 40
0.0
  0
LTYPE
  5
15
330
5
100
AcDbSymbolTableRecord
100
AcDbLinetypeTableRecord
  2
BYLAYER
 70
     0
  3

 72
    65
 73
     0
 40
0.0
  0
LTYPE
  5
16
330
5
100
AcDbSymbolTableRecord
100
AcDbLinetypeTableRecord
  2
CONTINUOUS
 70
     0
  3
Solid line
 72
    65
 73
     0
 40
0.0
  0
LTYPE
  5
428
330
5
100
AcDbSymbolTableRecord
100
AcDbLinetypeTableRecord
  2
HIDDEN2
 70
     0
  3
Hidden (.5x) _ _ _ _ _ _ _ _ _ _ _ _ _ _ _ _ _
 72
    65
 73
     2
 40
0.08
 49
0.035
 74
     0
 49
-0.045
 74
     0
  0
ENDTAB
  0
TABLE
  2
LAYER
  5
2
330
0
100
AcDbSymbolTable
 70
    10
  0
LAYER
  5
10
330
2
100
AcDbSymbolTableRecord
100
AcDbLayerTableRecord
  2
0
 70
     0
 62
     7
  6
CONTINUOUS
  0
LAYER
  5
47
330
2
100
AcDbSymbolTableRecord
100
AcDbLayerTableRecord
  2
CONTINUOUS1
 70
     0
 62
     7
  6
CONTINUOUS
  0
LAYER
  5
48
330
2
100
AcDbSymbolTableRecord
100
AcDbLayerTableRecord
  2
CONTINUOUS2
 70
     0
 62
   254
  6
CONTINUOUS
  0
LAYER
  5
49
330
2
100
AcDbSymbolTableRecord
100
AcDbLayerTableRecord
  2
CONTINUOUS3
 70
     0
 62
   253
  6
CONTINUOUS
  0
LAYER
  5
4D
330
2
100
AcDbSymbolTableRecord
100
AcDbLayerTableRecord
  2
DIM
 70
     0
 62
     2
  6
CONTINUOUS
  0
LAYER
  5
4E
330
2
100
AcDbSymbolTableRecord
100
AcDbLayerTableRecord
  2
HIDDEN1
 70
     0
 62
     5
  6
HIDDEN2
  0
LAYER
  5
55
330
2
100
AcDbSymbolTableRecord
100
AcDbLayerTableRecord
  2
TEXT1
 70
     0
 62
     3
  6
CONTINUOUS
  0
LAYER
  5
58
330
2
100
AcDbSymbolTableRecord
100
AcDbLayerTableRecord
  2
TITLEBLOCK
 70
     0
 62
     9
  6
CONTINUOUS
  0
LAYER
  5
59
330
2
100
AcDbSymbolTableRecord
100
AcDbLayerTableRecord
  2
VIEWPORT
 70
     0
 62
     9
  6
CONTINUOUS
  0
LAYER
  5
19F
330
2
100
AcDbSymbolTableRecord
100
AcDbLayerTableRecord
  2
DEFPOINTS
 70
     0
 62
     7
  6
CONTINUOUS
  0
ENDTAB
  0
TABLE
  2
STYLE
  5
3
330
0
100
AcDbSymbolTable
 70
     3
  0
STYLE
  5
11
330
3
100
AcDbSymbolTableRecord
100
AcDbTextStyleTableRecord
  2
STANDARD
 70
     0
 40
0.0
 41
1.0
 50
0.0
 71
     0
 42
0.2
  3
txt
  4

  0
STYLE
  5
36
330
3
100
AcDbSymbolTableRecord
100
AcDbTextStyleTableRecord
  2
ROMANS
 70
     0
 40
0.0
 41
1.0
 50
0.0
 71
     0
 42
0.2
  3
romans.shx
  4

  0
STYLE
  5
531
330
3
100
AcDbSymbolTableRecord
100
AcDbTextStyleTableRecord
  2
M_STANDARD
 70
     0
 40
0.0
 41
0.8
 50
0.0
 71
     0
 42
0.0
  3
MEDUSA.SHX
  4

  0
ENDTAB
  0
TABLE
  2
VIEW
  5
6
330
0
100
AcDbSymbolTable
 70
     0
  0
ENDTAB
  0
TABLE
  2
UCS
  5
7
330
0
100
AcDbSymbolTable
 70
     0
  0
ENDTAB
  0
TABLE
  2
APPID
  5
9
330
0
100
AcDbSymbolTable
 70
    11
  0
APPID
  5
12
330
9
100
AcDbSymbolTableRecord
100
AcDbRegAppTableRecord
  2
ACAD
 70
     0
  0
APPID
  5
6B
330
9
100
AcDbSymbolTableRecord
100
AcDbRegAppTableRecord
  2
DCO15
 70
     0
  0
APPID
  5
532
330
9
100
AcDbSymbolTableRecord
100
AcDbRegAppTableRecord
  2
MCAD_NO_VIS
 70
     0
  0
APPID
  5
533
330
9
100
AcDbSymbolTableRecord
100
AcDbRegAppTableRecord
  2
ACAD_TEMP_GRAPHIC
 70
     0
  0
APPID
  5
534
330
9
100
AcDbSymbolTableRecord
100
AcDbRegAppTableRecord
  2
GENIUS_GENSCREG_15
 70
     0
  0
APPID
  5
535
330
9
100
AcDbSymbolTableRecord
100
AcDbRegAppTableRecord
  2
GENIUS_GENODEF_13
 70
     0
  0
APPID
  5
536
330
9
100
AcDbSymbolTableRecord
100
AcDbRegAppTableRecord
  2
GENIUS_GENOBJ-N-SDF_13
 70
     0
  0
APPID
  5
537
330
9
100
AcDbSymbolTableRecord
100
AcDbRegAppTableRecord
  2
GENIUS_GENOENT_13
 70
     0
  0
APPID
  5
538
330
9
100
AcDbSymbolTableRecord
100
AcDbRegAppTableRecord
  2
GENIUS_GENOREF_13
 70
     0
  0
APPID
  5
539
330
9
100
AcDbSymbolTableRecord
100
AcDbRegAppTableRecord
  2
GENIUS_GENOLIS_13
 70
     0
  0
APPID
  5
53A
330
9
100
AcDbSymbolTableRecord
100
AcDbRegAppTableRecord
  2
MED_PRIMTYPE
 70
     0
  0
ENDTAB
  0
TABLE
  2
DIMSTYLE
  5
A
330
0
100
AcDbSymbolTable
 70
     1
  0
DIMSTYLE
105
1A1
102
{ACAD_REACTORS
330
FC2
330
FD0
330
FDE
330
FEC
330
FFA
330
1008
102
}
330
A
100
AcDbSymbolTableRecord
100
AcDbDimStyleTableRecord
  2
SCHNEIDERELECTRIC_DUAL_BEL
 70
     0
  3
\P{\H0.8x;
  4

  5
SEARROW
  6

  7

 40
0.0
 41
0.07
 42
0.0625
 43
0.38
 44
0.0625
 45
0.001
 46
0.0
 47
0.0
 48
0.0
140
0.1
141
0.09
142
0.0
143
25.4
144
1.0
145
0.0
146
1.0
147
0.04
 71
     0
 72
     0
 73
     1
 74
     1
 75
     0
 76
     0
 77
     0
 78
     4
170
     1
171
     0
172
     0
173
     0
174
     0
175
     0
176
   256
177
   256
178
   256
270
     2
271
     2
272
     2
273
     2
274
     0
340
36
275
     0
280
     0
281
     0
282
     0
283
     1
284
     0
285
     4
286
     0
287
     3
288
     0
  0
ENDTAB
  0
TABLE
  2
BLOCK_RECORD
  5
1
330
0
100
AcDbSymbolTable
 70
     9
  0
BLOCK_RECORD
  5
1F
102
{ACAD_XDICTIONARY
360
73
102
}
330
1
100
AcDbSymbolTableRecord
100
AcDbBlockTableRecord
  2
*MODEL_SPACE
  0
BLOCK_RECORD
  5
1B
102
{ACAD_XDICTIONARY
360
75
102
}
330
1
100
AcDbSymbolTableRecord
100
AcDbBlockTableRecord
  2
*PAPER_SPACE
  0
BLOCK_RECORD
  5
195
330
1
100
AcDbSymbolTableRecord
100
AcDbBlockTableRecord
  2
SEARROW
1001
ACAD
1000
DesignCenter Data
1002
{
1070
     1
1070
     1
1002
}
  0
BLOCK_RECORD
  5
53C
330
1
100
AcDbSymbolTableRecord
100
AcDbBlockTableRecord
  2
TB-PAD
  0
BLOCK_RECORD
  5
557
330
1
100
AcDbSymbolTableRecord
100
AcDbBlockTableRecord
  2
LOGO-PAD
  0
BLOCK_RECORD
  5
FC3
330
1
100
AcDbSymbolTableRecord
100
AcDbBlockTableRecord
  2
*D3
  0
BLOCK_RECORD
  5
FD1
330
1
100
AcDbSymbolTableRecord
100
AcDbBlockTableRecord
  2
*D4
  0
BLOCK_RECORD
  5
FDF
330
1
100
AcDbSymbolTableRecord
100
AcDbBlockTableRecord
  2
*D5
  0
BLOCK_RECORD
  5
FED
330
1
100
AcDbSymbolTableRecord
100
AcDbBlockTableRecord
  2
*D6
  0
BLOCK_RECORD
  5
FFB
330
1
100
AcDbSymbolTableRecord
100
AcDbBlockTableRecord
  2
*D7
  0
BLOCK_RECORD
  5
1009
330
1
100
AcDbSymbolTableRecord
100
AcDbBlockTableRecord
  2
*D8
  0
ENDTAB
  0
ENDSEC
  0
SECTION
  2
BLOCKS
  0
BLOCK
  5
20
330
1F
100
AcDbEntity
  8
0
100
AcDbBlockBegin
  2
*MODEL_SPACE
 70
     0
 10
0.0
 20
0.0
 30
0.0
  3
*MODEL_SPACE
  1

  0
ENDBLK
  5
21
330
1F
100
AcDbEntity
  8
0
100
AcDbBlockEnd
  0
BLOCK
  5
1C
330
1B
100
AcDbEntity
 67
     1
  8
0
100
AcDbBlockBegin
  2
*PAPER_SPACE
 70
     0
 10
0.0
 20
0.0
 30
0.0
  3
*PAPER_SPACE
  1

  0
ENDBLK
  5
1D
330
1B
100
AcDbEntity
 67
     1
  8
0
100
AcDbBlockEnd
  0
BLOCK
  5
197
330
195
100
AcDbEntity
  8
0
100
AcDbBlockBegin
  2
SEARROW
 70
     0
 10
0.0
 20
0.0
 30
0.0
  3
SEARROW
  1

  0
LWPOLYLINE
  5
196
330
195
100
AcDbEntity
  8
0
  6
BYBLOCK
100
AcDbPolyline
 90
        2
 70
     0
 10
0.0
 20
0.0
 40
0.0
 41
0.5000000001500001
 10
-1.000000000300019
 20
0.0
 40
0.5000000001500001
 41
0.5000000001500001
  0
ENDBLK
  5
198
330
195
100
AcDbEntity
  8
0
100
AcDbBlockEnd
  0
BLOCK
  5
54B
330
53C
100
AcDbEntity
  8
0
100
AcDbBlockBegin
  2
TB-PAD
 70
     2
 10
0.0
 20
0.0
 30
0.0
  3
TB-PAD
  1

  0
LWPOLYLINE
  5
53D
330
53C
100
AcDbEntity
  8
CONTINUOUS2
 62
     0
100
AcDbPolyline
 90
        7
 70
     1
 43
0.0
 10
16.4000010086626
 20
-0.0000000084245251
 10
16.4000010086626
 20
-0.0000000084245251
 10
16.4000010086626
 20
-0.0000000084245251
 10
8.002461008662603
 20
-0.0000000084245251
 10
8.002461008662603
 20
0.9120019915754742
 10
16.4000010086626
 20
0.9120019915754742
 10
16.4000010086626
 20
-0.0000000084245251
  0
LINE
  5
53E
330
53C
100
AcDbEntity
  8
CONTINUOUS2
 62
     0
100
AcDbLine
 10
16.4000010086626
 20
0.3039999915754752
 30
0.0
 11
12.2457010086626
 21
0.3039999915754752
 31
0.0
  0
LINE
  5
53F
330
53C
100
AcDbEntity
  8
CONTINUOUS2
 62
     0
100
AcDbLine
 10
12.2457010086626
 20
0.9120019915754742
 30
0.0
 11
12.2457010086626
 21
-0.0000000084245251
 31
0.0
  0
TEXT
  5
540
330
53C
100
AcDbEntity
  8
TEXT1
  6
CONTINUOUS
 62
     0
100
AcDbText
 10
12.36897712979916
 20
0.0611566646937659
 30
0.0
 40
0.0699999951940822
  1
NO.
  7
ROMANS
 11
12.36897712979916
 21
0.096156662290807
 31
0.0
100
AcDbText
 73
     2
  0
TEXT
  5
541
330
53C
100
AcDbEntity
  8
TEXT1
  6
CONTINUOUS
 62
     0
100
AcDbText
 10
12.36897712979916
 20
0.1661566646937658
 30
0.0
 40
0.0699999951940822
  1
DWG#
  7
ROMANS
 11
12.36897712979916
 21
0.2011566622908068
 31
0.0
100
AcDbText
 73
     2
  0
ATTDEF
  5
542
330
53C
100
AcDbEntity
  8
TEXT1
 62
     0
100
AcDbText
 10
10.10183835760059
 20
0.7474460800344916
 30
0.0
 40
0.1
  1

  7
ROMANS
 72
     4
 11
10.10183835760059
 21
0.7474460800344916
 31
0.0
100
AcDbAttributeDefinition
  3
DESCRIPTION 1
  2
DESCRIPTION 1
 70
     0
  0
ATTDEF
  5
543
330
53C
100
AcDbEntity
  8
TEXT1
 62
     0
100
AcDbText
 10
10.10183835760059
 20
0.6017231627161466
 30
0.0
 40
0.1
  1

  7
ROMANS
 72
     4
 11
10.10183835760059
 21
0.6017231627161466
 31
0.0
100
AcDbAttributeDefinition
  3
DESCRIPTION 2
  2
DESCRIPTION 2
 70
     0
  0
ATTDEF
  5
544
330
53C
100
AcDbEntity
  8
TEXT1
 62
     0
100
AcDbText
 10
10.10183835760059
 20
0.4560002453978016
 30
0.0
 40
0.08
  1

  7
ROMANS
 72
     4
 11
10.10183835760059
 21
0.4560002453978016
 31
0.0
100
AcDbAttributeDefinition
  3
DESCRIPTION 3
  2
DESCRIPTION 3
 70
     0
  0
ATTDEF
  5
545
330
53C
100
AcDbEntity
  8
TEXT1
 62
     0
100
AcDbText
 10
10.10183835760059
 20
0.3202773280794582
 30
0.0
 40
0.08
  1

  7
ROMANS
 72
     4
 11
10.10183835760059
 21
0.3202773280794582
 31
0.0
100
AcDbAttributeDefinition
  3
DESCRIPTION 4
  2
DESCRIPTION 4
 70
     0
  0
ATTDEF
  5
546
330
53C
100
AcDbEntity
  8
TEXT1
 62
     0
100
AcDbText
 10
10.10183835760059
 20
0.1845544107611148
 30
0.0
 40
0.08
  1

  7
ROMANS
 72
     4
 11
10.10183835760059
 21
0.1845544107611148
 31
0.0
100
AcDbAttributeDefinition
  3
DESCRIPTION 5
  2
DESCRIPTION 5
 70
     0
  0
ATTDEF
  5
547
330
53C
100
AcDbEntity
  8
TEXT1
 62
     0
100
AcDbText
 10
12.74772367969455
 20
0.09654053761198
 30
0.0
 40
0.12
  1

 41
0.9512024731840066
  7
M_STANDARD
 11
12.74772367969455
 21
0.1565405376119799
 31
0.0
100
AcDbAttributeDefinition
  3
DRAWING NUMBER
  2
DWGNO
 70
     0
 74
     2
  0
ATTDEF
  5
548
330
53C
100
AcDbEntity
  8
TEXT1
 62
     0
100
AcDbText
 10
16.35506455815586
 20
-0.1507193164174602
 30
0.0
 40
0.08
  1

  7
ROMANS
 72
     2
 11
16.35506455815586
 21
-0.1107193164174602
 31
0.0
100
AcDbAttributeDefinition
  3
REF DWG #
  2
REF
 70
     0
 74
     2
  0
ATTDEF
  5
549
330
53C
100
AcDbEntity
  8
TEXT1
 62
     0
100
AcDbText
 10
0.0266402460664743
 20
-0.1507193164174602
 30
0.0
 40
0.08
  1

  7
ROMANS
 11
0.0266402460664743
 21
-0.1107193164174602
 31
0.0
100
AcDbAttributeDefinition
  3
DATE MODIFIED
  2
DATE
 70
     0
 74
     2
  0
LWPOLYLINE
  5
54A
330
53C
100
AcDbEntity
  8
CONTINUOUS3
 62
     0
100
AcDbPolyline
 90
        4
 70
   129
 43
0.0
 10
0.0000000086626031
 20
-0.0000000084245251
 10
16.4000010086626
 20
-0.0000000084245251
 10
16.4000010086626
 20
10.1
 10
0.0000000086626031
 20
10.1
  0
ENDBLK
  5
54C
330
53C
100
AcDbEntity
  8
0
100
AcDbBlockEnd
  0
BLOCK
  5
599
330
557
100
AcDbEntity
  8
0
100
AcDbBlockBegin
  2
LOGO-PAD
 70
     0
 10
0.0
 20
0.0
 30
0.0
  3
LOGO-PAD
  1

  0
HATCH
  5
558
330
557
100
AcDbEntity
  8
CONTINUOUS1
 62
     9
100
AcDbHatch
 10
0.0
 20
0.0
 30
0.0
210
0.0
220
0.0
230
1.0
  2
SOLID
 70
     1
 71
     1
 91
        1
 92
        1
 93
        4
 72
     1
 10
1.830314246824318
 20
0.3820863083685713
 11
1.830314246824318
 21
0.3931967807444612
 72
     2
 10
1.808269786605604
 20
0.3584765545696773
 40
0.041127269930821
 50
57.58784372121546
 51
302.4121562787845
 73
     1
 72
     1
 10
1.830314246824318
 20
0.3237563283948935
 11
1.830314246824318
 21
0.3348668007707834
 72
     2
 10
1.812192479989334
 20
0.3584765545696773
 40
0.0297627100188458
 50
52.49180531393238
 51
307.5081946860675
 73
     0
 97
        1
330
55D
 75
     0
 76
     1
 98
        1
 10
-6.623918024059631
 20
-0.1308261527660757
  0
HATCH
  5
559
330
557
100
AcDbEntity
  8
CONTINUOUS1
 62
     9
100
AcDbHatch
 10
0.0
 20
0.0
 30
0.0
210
0.0
220
0.0
230
1.0
  2
SOLID
 70
     1
 71
     1
 91
        1
 92
        1
 93
        4
 72
     1
 10
2.998736751853392
 20
0.4763401613594179
 11
1.673816157100507
 21
0.4763642794500816
 72
     1
 10
1.673816157100507
 20
0.4763642794500816
 11
1.673816157100507
 21
0.4979941642056934
 72
     1
 10
1.673816157100507
 20
0.4979941642056934
 11
2.998736751853392
 21
0.4979700461150296
 72
     1
 10
2.998736751853392
 20
0.4979700461150296
 11
2.998736751853392
 21
0.4763401613594179
 97
        1
330
55B
 75
     0
 76
     1
 98
        1
 10
-6.623918024059631
 20
-0.1308261527660757
  0
HATCH
  5
55A
330
557
100
AcDbEntity
  8
CONTINUOUS1
 62
     9
100
AcDbHatch
 10
0.0
 20
0.0
 30
0.0
210
0.0
220
0.0
230
1.0
  2
SOLID
 70
     1
 71
     1
 91
        1
 92
        1
 93
       26
 72
     1
 10
1.706158971979878
 20
0.6423016628555165
 11
1.794659236046104
 21
0.6423016628555165
 72
     2
 10
1.794659059797441
 20
0.6315206045637596
 40
0.0107810582931976
 50
270.0009366709926
 51
360.0009366862294
 73
     0
 72
     1
 10
1.805440118089197
 20
0.6315204283122289
 11
1.827002575925892
 21
0.6315204283122289
 72
     1
 10
1.827002575925892
 20
0.6315204283122289
 11
1.827002575925892
 21
0.6423016628555165
 72
     2
 10
1.805440021527005
 20
0.6423017594181574
 40
0.0215625543991033
 50
359.9997434148255
 51
449.9997434160159
 73
     1
 72
     1
 10
1.805440118089197
 20
0.6638643138170442
 11
1.695377564936368
 21
0.6638643138170442
 72
     2
 10
1.695378186492716
 20
0.6423022844272413
 40
0.0215620293987615
 50
90.00165163282177
 51
180.0014125206716
 73
     1
 72
     1
 10
1.673816157100507
 20
0.6423017528555879
 11
1.673816157100507
 21
0.6107079034654821
 72
     2
 10
1.695378141491445
 20
0.6107073268949657
 40
0.0215619843986475
 50
179.9984679027414
 51
269.9984679437668
 73
     1
 72
     1
 10
1.695377564936368
 20
0.5891453425040259
 11
1.794659236046104
 21
0.5891456106290894
 72
     2
 10
1.794659058859963
 20
0.5783645513998547
 40
0.0107810592306907
 50
270.0009416531222
 51
360.0009416684906
 73
     0
 72
     1
 10
1.805440118089197
 20
0.5783643742108216
 11
1.805440286839289
 21
0.5675829596673912
 72
     2
 10
1.794659009170951
 20
0.5675828227932667
 40
0.0107812776692067
 50
359.9992725992319
 51
449.9997907459082
 73
     0
 72
     1
 10
1.794659048546041
 20
0.5568015451241313
 11
1.706158971979878
 21
0.5568015451239608
 72
     2
 10
1.706158926979732
 20
0.5675830946673887
 40
0.0107815495435218
 50
89.99976085826782
 51
179.9997608594354
 73
     0
 72
     1
 10
1.695377377436305
 20
0.5675830496674626
 11
1.673816157100507
 21
0.5675830496674626
 72
     1
 10
1.673816157100507
 20
0.5675830496674626
 11
1.673816157100507
 21
0.5568018132491948
 72
     2
 10
1.695378051486819
 20
0.5568010585565073
 40
0.0215618943995203
 50
179.9979945776083
 51
269.9987071039827
 73
     1
 72
     1
 10
1.695377564936368
 20
0.5352391641624768
 11
1.805440118089197
 21
0.5352391641624768
 72
     2
 10
1.805440156527087
 20
0.5568015835616184
 40
0.0215624193991759
 50
269.9998978626289
 51
359.9996636967671
 73
     1
 72
     1
 10
1.827002575925892
 20
0.5568014569988696
 11
1.827002575925892
 21
0.5887705485089332
 72
     2
 10
1.805440111526664
 20
0.5887705550714311
 40
0.0215624643992288
 50
359.9999825621309
 51
449.9999825620359
 73
     1
 72
     1
 10
1.805440118089197
 20
0.6103330194706591
 11
1.706158971979878
 21
0.6103327513454251
 72
     2
 10
1.706158881980003
 20
0.6211142558887484
 40
0.0107815045436989
 50
89.99952171675776
 51
179.9999900368059
 73
     0
 72
     1
 10
1.695377377436305
 20
0.6211142540139467
 11
1.695377564936368
 21
0.6315205164371496
 72
     2
 10
1.706158885728571
 20
0.6315203420622487
 40
0.0107813207936133
 50
180.0009266903443
 51
270.0004583701697
 73
     0
 97
        1
330
55C
 75
     0
 76
     1
 98
        1
 10
-6.623918024059631
 20
-0.1308261527660757
  0
LWPOLYLINE
  5
55B
102
{ACAD_REACTORS
330
559
102
}
330
557
100
AcDbEntity
  8
CONTINUOUS1
  6
CONTINUOUS
 62
     9
100
AcDbPolyline
 90
        4
 70
     1
 43
0.0
 10
2.998736751853392
 20
0.4763401613594179
 10
1.673816157100507
 20
0.4763642794500816
 10
1.673816157100507
 20
0.4979941642056934
 10
2.998736751853392
 20
0.4979700461150296
  0
LWPOLYLINE
  5
55C
102
{ACAD_REACTORS
330
55A
102
}
330
557
100
AcDbEntity
  8
CONTINUOUS1
  6
CONTINUOUS
 62
     9
100
AcDbPolyline
 90
       26
 70
     1
 43
0.0
 10
1.706158971979878
 20
0.6423016628555165
 10
1.794659236046104
 20
0.6423016628555165
 42
-0.4142135624509854
 10
1.805440118089197
 20
0.6315204283122289
 10
1.827002575925892
 20
0.6315204283122289
 10
1.827002575925892
 20
0.6423016628555165
 42
0.4142135623791847
 10
1.805440118089197
 20
0.6638643138170442
 10
1.695377564936368
 20
0.6638643138170442
 42
0.4142123400440204
 10
1.673816157100507
 20
0.6423017528555879
 10
1.673816157100507
 20
0.6107079034654821
 42
0.4142135625828059
 10
1.695377564936368
 20
0.5891453425040259
 10
1.794659236046104
 20
0.5891456106290894
 42
-0.4142135624516547
 10
1.805440118089197
 20
0.5783643742108216
 10
1.805440286839289
 20
0.5675829596673912
 42
-0.4142162111159897
 10
1.794659048546041
 20
0.5568015451241313
 10
1.706158971979878
 20
0.5568015451239608
 42
-0.4142135623790486
 10
1.695377377436305
 20
0.5675830496674626
 10
1.673816157100507
 20
0.5675830496674626
 10
1.673816157100507
 20
0.5568018132491948
 42
0.4142172047777202
 10
1.695377564936368
 20
0.5352391641624768
 10
1.805440118089197
 20
0.5352391641624768
 42
0.4142123653291911
 10
1.827002575925892
 20
0.5568014569988696
 10
1.827002575925892
 20
0.5887705485089332
 42
0.4142135623726066
 10
1.805440118089197
 20
0.6103330194706591
 10
1.706158971979878
 20
0.6103327513454251
 42
-0.4142159564042797
 10
1.695377377436305
 20
0.6211142540139467
 10
1.695377564936368
 20
0.6315205164371496
 42
-0.4142111683453352
  0
LWPOLYLINE
  5
55D
102
{ACAD_REACTORS
330
558
102
}
330
557
100
AcDbEntity
  8
CONTINUOUS1
  6
CONTINUOUS
 62
     9
100
AcDbPolyline
 90
        4
 70
     1
 43
0.0
 10
1.830314246824318
 20
0.3820863083685713
 10
1.830314246824318
 20
0.3931967807444612
 42
1.819450421535996
 10
1.830314246824318
 20
0.3237563283948935
 10
1.830314246824318
 20
0.3348668007707834
 42
-2.028165022884401
  0
HATCH
  5
55E
330
557
100
AcDbEntity
  8
CONTINUOUS1
 62
     9
100
AcDbHatch
 10
0.0
 20
0.0
 30
0.0
210
0.0
220
0.0
230
1.0
  2
SOLID
 70
     1
 71
     1
 91
        4
 92
        1
 93
        4
 72
     1
 10
1.486316041326151
 20
0.6638643138170442
 11
1.111315796341873
 21
0.6638643138170442
 72
     1
 10
1.111315796341873
 20
0.6638643138170442
 11
1.111315796341873
 21
0.2888644264609757
 72
     1
 10
1.111315796341873
 20
0.2888644264609757
 11
1.486316041326151
 21
0.2888644264609757
 72
     1
 10
1.486316041326151
 20
0.2888644264609757
 11
1.486316041326151
 21
0.6638643138170442
 97
        1
330
55F
 92
        0
 93
       10
 72
     1
 10
1.392565980080039
 20
0.6001142882630579
 11
1.175065956006481
 21
0.6001142882630579
 72
     1
 10
1.175065956006481
 20
0.6001142882630579
 11
1.175065956006481
 21
0.5569891671065084
 72
     1
 10
1.175065956006481
 20
0.5569891671065084
 11
1.208816124682616
 21
0.5569891671065084
 72
     1
 10
1.208816124682616
 20
0.5569891671065084
 11
1.208816124682616
 21
0.3957395731715114
 72
     1
 10
1.208816124682616
 20
0.3957395731715114
 11
1.175065956006481
 21
0.3957395731715114
 72
     1
 10
1.175065956006481
 20
0.3957395731715114
 11
1.175065956006481
 21
0.3526143179045111
 72
     1
 10
1.175065956006481
 20
0.3526143179045111
 11
1.392565980080039
 21
0.3526143179045111
 72
     1
 10
1.392565980080039
 20
0.3526143179045111
 11
1.422565792254577
 21
0.3826143535964666
 72
     1
 10
1.422565792254577
 20
0.3826143535964666
 11
1.422565792254577
 21
0.5701142078676189
 72
     1
 10
1.422565792254577
 20
0.5701142078676189
 11
1.392565980080039
 21
0.6001142882630579
 97
        1
330
560
 92
       16
 93
        4
 72
     1
 10
1.454440827383312
 20
0.631989144577688
 11
1.143190831470779
 21
0.631989144577688
 72
     1
 10
1.143190831470779
 20
0.631989144577688
 11
1.143190831470779
 21
0.3207393721827434
 72
     1
 10
1.143190831470779
 20
0.3207393721827434
 11
1.454440827383312
 21
0.3207393721827434
 72
     1
 10
1.454440827383312
 20
0.3207393721827434
 11
1.454440827383312
 21
0.631989144577688
 97
        1
330
561
 92
        0
 93
        4
 72
     1
 10
1.251941245839166
 20
0.5569891671065084
 11
1.251941245839166
 21
0.3957395731715114
 72
     1
 10
1.251941245839166
 20
0.3957395731715114
 11
1.379440760504994
 21
0.3957395731715114
 72
     1
 10
1.379440760504994
 20
0.3957395731715114
 11
1.379440760504994
 21
0.5569891671065084
 72
     1
 10
1.379440760504994
 20
0.5569891671065084
 11
1.251941245839166
 21
0.5569891671065084
 97
        1
330
562
 75
     0
 76
     1
 98
        1
 10
-6.623918024059631
 20
-0.1308261527660757
  0
LWPOLYLINE
  5
55F
102
{ACAD_REACTORS
330
55E
102
}
330
557
100
AcDbEntity
  8
CONTINUOUS1
  6
CONTINUOUS
 62
     9
100
AcDbPolyline
 90
        4
 70
     1
 43
0.0
 10
1.486316041326151
 20
0.6638643138170442
 10
1.111315796341873
 20
0.6638643138170442
 10
1.111315796341873
 20
0.2888644264609757
 10
1.486316041326151
 20
0.2888644264609757
  0
LWPOLYLINE
  5
560
102
{ACAD_REACTORS
330
55E
102
}
330
557
100
AcDbEntity
  8
CONTINUOUS1
  6
CONTINUOUS
 62
     9
100
AcDbPolyline
 90
       10
 70
     1
 43
0.0
 10
1.392565980080039
 20
0.6001142882630579
 10
1.175065956006481
 20
0.6001142882630579
 10
1.175065956006481
 20
0.5569891671065084
 10
1.208816124682616
 20
0.5569891671065084
 10
1.208816124682616
 20
0.3957395731715114
 10
1.175065956006481
 20
0.3957395731715114
 10
1.175065956006481
 20
0.3526143179045111
 10
1.392565980080039
 20
0.3526143179045111
 10
1.422565792254577
 20
0.3826143535964666
 10
1.422565792254577
 20
0.5701142078676189
  0
LWPOLYLINE
  5
561
102
{ACAD_REACTORS
330
55E
102
}
330
557
100
AcDbEntity
  8
CONTINUOUS1
  6
CONTINUOUS
 62
     9
100
AcDbPolyline
 90
        4
 70
     1
 43
0.0
 10
1.454440827383312
 20
0.631989144577688
 10
1.143190831470779
 20
0.631989144577688
 10
1.143190831470779
 20
0.3207393721827434
 10
1.454440827383312
 20
0.3207393721827434
  0
LWPOLYLINE
  5
562
102
{ACAD_REACTORS
330
55E
102
}
330
557
100
AcDbEntity
  8
CONTINUOUS1
  6
CONTINUOUS
 62
     9
100
AcDbPolyline
 90
        4
 70
     1
 43
0.0
 10
1.251941245839166
 20
0.5569891671065084
 10
1.251941245839166
 20
0.3957395731715114
 10
1.379440760504994
 20
0.3957395731715114
 10
1.379440760504994
 20
0.5569891671065084
  0
HATCH
  5
563
330
557
100
AcDbEntity
  8
CONTINUOUS1
 62
     9
100
AcDbHatch
 10
0.0
 20
0.0
 30
0.0
210
0.0
220
0.0
230
1.0
  2
SOLID
 70
     1
 71
     1
 91
        1
 92
        1
 93
       89
 72
     2
 10
1.645257337476964
 20
0.0814143414971476
 40
0.3138538690791402
 50
284.6944519958723
 51
285.4191253488389
 73
     0
 72
     2
 10
1.720457213394254
 20
0.3531253338612149
 40
0.0319296518074946
 50
284.9683007167661
 51
291.8740039713855
 73
     0
 72
     2
 10
1.718195577080779
 20
0.3443304300779819
 40
0.0409509237081423
 50
290.2257686458056
 51
296.0035662963079
 73
     0
 72
     2
 10
1.72314595174561
 20
0.3537733468281424
 40
0.0302951436135202
 50
295.4187775578141
 51
306.3988581780349
 73
     0
 72
     2
 10
1.730025090825645
 20
0.361238674598352
 40
0.0202344686019184
 50
303.2624042499299
 51
317.2878846799652
 73
     0
 72
     2
 10
1.730612078202064
 20
0.3607780556607589
 40
0.0201290944001072
 50
315.1907124339085
 51
326.4916231752553
 73
     0
 72
     2
 10
1.731384680029217
 20
0.360485539114584
 40
0.0196578170187561
 50
324.5371901048516
 51
336.7528223782186
 73
     0
 72
     2
 10
1.740306489368903
 20
0.3630067677477766
 40
0.0105343712984082
 50
330.185107206006
 51
345.1051507906131
 73
     0
 72
     2
 10
1.730807356874114
 20
0.3584209650416714
 40
0.0209876439961997
 50
339.6643160257259
 51
350.0934782379626
 73
     0
 72
     2
 10
1.736619499258567
 20
0.3581357520531636
 40
0.0153647146054281
 50
345.3114316897936
 51
354.9413954442734
 73
     0
 72
     2
 10
1.736768036672925
 20
0.3568918841578894
 40
0.0153774953930229
 50
350.2708870332075
 51
359.9231366677853
 73
     0
 72
     2
 10
1.730590676285318
 20
0.3543834528394247
 40
0.0217027039382449
 50
353.3080009674447
 51
359.6430783683235
 73
     0
 72
     2
 10
1.740274031623638
 20
0.3541129784720702
 40
0.0120257717465816
 50
358.0668546616999
 51
370.2286816408818
 73
     0
 72
     2
 10
1.734983328508103
 20
0.3525209240439113
 40
0.0171339680084192
 50
1.817597670723287
 51
10.12122589077211
 73
     0
 72
     2
 10
1.720741037007382
 20
0.3544475624347459
 40
0.0314990269535048
 50
9.018567450089358
 51
13.77874652122445
 73
     0
 72
     2
 10
1.736924488523371
 20
0.3496574086216055
 40
0.0146621286791563
 50
10.65944881196798
 51
20.70103934564268
 73
     0
 72
     2
 10
1.736504343267595
 20
0.3481737388171249
 40
0.0146116828357803
 50
14.66530941358183
 51
25.10867622728001
 73
     0
 72
     2
 10
1.732146476908514
 20
0.3484117679524195
 40
0.0187301362989403
 50
20.10490982839685
 51
28.61210132811573
 73
     0
 72
     2
 10
1.735923851992664
 20
0.3448321994977361
 40
0.013764623253097
 50
23.05247272481818
 51
34.97873691770508
 73
     0
 72
     2
 10
1.736817050777414
 20
0.3420413163283825
 40
0.0115697541019344
 50
26.15519936339432
 51
41.2675437975994
 73
     0
 72
     2
 10
1.718278281875029
 20
0.3540391568686173
 40
0.0335714709763406
 50
35.78123864162446
 51
41.15363322202702
 73
     0
 72
     2
 10
1.727768982569827
 20
0.3459769352513192
 40
0.0211206067808035
 50
41.628953043204
 51
51.13236693201276
 73
     0
 72
     2
 10
1.7049361419961
 20
0.3726572867131739
 40
0.0562315357389323
 50
50.07766185775929
 51
54.48975877743766
 73
     0
 72
     2
 10
1.721996710283804
 20
0.3482674527964862
 40
0.0264697940015853
 50
53.88519289323266
 51
64.03139621868574
 73
     0
 72
     2
 10
1.71549323629139
 20
0.3583918783868048
 40
0.0384457260336791
 50
61.92426471048903
 51
71.20704351412637
 73
     0
 72
     2
 10
1.713056446365431
 20
0.3691361880596826
 40
0.0494157401965211
 50
72.54563927506668
 51
79.16534470614535
 73
     0
 72
     2
 10
1.712368390340278
 20
0.378009241623432
 40
0.0582684049416463
 50
80.14095651381211
 51
90.0416888893921
 73
     0
 72
     2
 10
1.711034894028758
 20
0.4162808932093566
 40
0.096548674122413
 50
89.23378781360057
 51
94.71296871457857
 73
     0
 72
     2
 10
1.715019285167041
 20
0.4355757642229089
 40
0.1161301845769512
 50
95.89003491054352
 51
99.42152931169502
 73
     0
 72
     2
 10
1.707384050587419
 20
0.3824129170476944
 40
0.0624455715380243
 50
100.4954159019732
 51
106.3873755254328
 73
     0
 72
     2
 10
1.716129204411812
 20
0.4114303679072302
 40
0.0927517156651875
 50
106.512896770692
 51
110.5690487960562
 73
     0
 72
     2
 10
1.696198413310064
 20
0.3625905204389435
 40
0.0400511678448031
 50
108.4212700638492
 51
114.2391927251731
 73
     0
 72
     2
 10
1.710118011273555
 20
0.4023608384343336
 40
0.082110467699766
 50
111.7018026255303
 51
116.2385814647555
 73
     0
 72
     1
 10
1.673816157100507
 20
0.3287109620632696
 11
1.673816157100507
 21
0.348755448516386
 72
     2
 10
1.683151915978065
 20
0.3592465940770362
 40
0.0140435226704221
 50
228.3350642341723
 51
234.1997399115519
 73
     1
 72
     2
 10
1.71106741933919
 20
0.3855932213725186
 40
0.0522443504544944
 50
226.2457929287056
 51
246.6255762978013
 73
     1
 72
     2
 10
1.7124653088878
 20
0.3860023780454533
 40
0.0531863360228971
 50
245.4180460169437
 51
259.9919736394325
 73
     1
 72
     2
 10
1.710648990849527
 20
0.3758156686850265
 40
0.042838986613708
 50
260.0165443283761
 51
273.9182757893534
 73
     1
 72
     2
 10
1.704270595794476
 20
0.4586741074147547
 40
0.125941558255588
 50
274.2374069265417
 51
275.5960285914579
 73
     1
 72
     2
 10
1.687010818636519
 20
0.5411427391697574
 40
0.2098991318858489
 50
278.0905665143724
 51
278.7875532853595
 73
     1
 72
     2
 10
1.674916599532425
 20
0.5319581852745105
 40
0.2031096024358981
 50
282.5577335184531
 51
283.2741998696473
 73
     1
 72
     2
 10
1.712960478455043
 20
0.3650274495505624
 40
0.0319300969034177
 50
285.6107769316435
 51
293.9249150269261
 73
     1
 72
     2
 10
1.717091548593948
 20
0.3539696976826635
 40
0.0201595864519346
 50
295.9382025947192
 51
314.8152667683908
 73
     1
 72
     2
 10
1.6400442733431
 20
0.4219905414971168
 40
0.1229006178787137
 50
317.946563084173
 51
318.8734190764908
 73
     1
 72
     2
 10
1.689533775167257
 20
0.3727603930704881
 40
0.0534349306228064
 50
323.7393060910158
 51
325.8371011508592
 73
     1
 72
     2
 10
1.732847152652873
 20
0.3433656347877086
 40
0.0010889614970517
 50
325.8371011415855
 51
338.3720801963383
 73
     1
 72
     2
 10
1.729762363574412
 20
0.345527035075586
 40
0.0048325847931998
 50
327.9736107298026
 51
337.3435922236591
 73
     1
 72
     2
 10
1.728938576684472
 20
0.3470616501634721
 40
0.0062808146373788
 50
327.2675058013616
 51
338.1636262704569
 73
     1
 72
     2
 10
1.718066376903955
 20
0.3518592455185608
 40
0.0181620471788818
 50
336.8720644633642
 51
339.5841382784865
 73
     1
 72
     2
 10
1.728443171512713
 20
0.3485112543123717
 40
0.0072851481640173
 50
335.7900569772922
 51
348.373615422373
 73
     1
 72
     2
 10
1.727754169766592
 20
0.3495237604987842
 40
0.0082084908006828
 50
342.4097077310363
 51
352.3427229945868
 73
     1
 72
     2
 10
1.728619171594273
 20
0.3504840831181579
 40
0.0075548925971309
 50
344.2233826564188
 51
361.8598518928816
 73
     1
 72
     2
 10
1.720733754063239
 20
0.3523571712334882
 40
0.0155219307481708
 50
353.9799134066503
 51
362.7705430541222
 73
     1
 72
     2
 10
1.726132206714243
 20
0.3535683939447038
 40
0.0101158423979231
 50
357.3882870010598
 51
372.3082229322081
 73
     1
 72
     2
 10
1.724756018715517
 20
0.3547830051705612
 40
0.0112988364300847
 50
4.781307968932465
 51
20.9890143012329
 73
     1
 72
     2
 10
1.726660663964363
 20
0.3566320215872782
 40
0.0089195903363647
 50
14.2666708584078
 51
35.42677828019
 73
     1
 72
     2
 10
1.725007785367363
 20
0.3573460494205585
 40
0.0099721744159251
 50
26.54339514703695
 51
53.39459405095841
 73
     1
 72
     2
 10
1.719832069396286
 20
0.353126094907573
 40
0.0165274923585889
 50
47.70505911180914
 51
69.77619662812056
 73
     1
 72
     2
 10
1.710207974215595
 20
0.3313170294772276
 40
0.0403465351747173
 50
67.65746071435081
 51
78.07775985177944
 73
     1
 72
     2
 10
1.601474124602898
 20
-0.0764452376149089
 40
0.4623065683695236
 50
75.33141058767751
 51
77.08564753834979
 73
     1
 72
     2
 10
1.727562810239215
 20
0.4665872614049196
 40
0.0951825269178676
 50
103.8381813161471
 51
111.0296444355485
 73
     0
 72
     2
 10
1.70471971545613
 20
0.4062361413736136
 40
0.030655669555327
 50
111.65657497264
 51
141.0002630637684
 73
     0
 72
     2
 10
1.700542583280421
 20
0.4033450635238994
 40
0.0255928623197818
 50
140.1451628894058
 51
170.4005157591877
 73
     0
 72
     2
 10
1.707946390985723
 20
0.4059675729609214
 40
0.0333577023314167
 50
168.0791562340355
 51
196.714918276154
 73
     0
 72
     2
 10
1.706228373491397
 20
0.4054484368029155
 40
0.0318770017390912
 50
198.4970064170468
 51
236.9071959398739
 73
     0
 72
     2
 10
1.712467544153362
 20
0.3958721183130906
 40
0.043306486619005
 50
236.9092344715733
 51
272.9993782410681
 73
     0
 72
     2
 10
1.713943818059902
 20
0.3576895869998347
 40
0.0814335220491864
 50
270.5556637982262
 51
294.5824803086023
 73
     0
 72
     1
 10
1.747820387170609
 20
0.4317422478475242
 11
1.747820387170609
 21
0.4116977613945783
 72
     2
 10
1.740625727683456
 20
0.4079966488085459
 40
0.0080908194585325
 50
27.22242166817361
 51
41.56665402458706
 73
     1
 72
     2
 10
1.706598002528515
 20
0.3661008206880739
 40
0.0619708439541246
 50
49.70116220293705
 51
59.84734228048411
 73
     1
 72
     2
 10
1.71458845708311
 20
0.3777828381052394
 40
0.0478671962964794
 50
61.09387816236751
 51
68.21315356019836
 73
     1
 72
     2
 10
1.721754113738912
 20
0.4005694677942343
 40
0.0241161586298676
 50
63.92424707162
 51
76.50768984029872
 73
     1
 72
     2
 10
1.720387329033739
 20
0.4052584665162603
 40
0.0200226190349931
 50
69.55689277879226
 51
79.95640428982631
 73
     1
 72
     2
 10
1.714854713299164
 20
0.3864537173573991
 40
0.0395635296700699
 50
76.81466162170224
 51
103.1853383782977
 73
     1
 72
     2
 10
1.711556222792086
 20
0.401176318347385
 40
0.0244771044560784
 50
103.5287750504826
 51
118.7111022038487
 73
     1
 72
     2
 10
1.709210382761595
 20
0.405247847997013
 40
0.0197794909640232
 50
118.4171119187522
 51
136.9427492139033
 73
     1
 72
     2
 10
1.705219023490787
 20
0.4088531486190613
 40
0.0144019602014125
 50
136.5818159972848
 51
158.311705465411
 73
     1
 72
     2
 10
1.705906344939513
 20
0.4084853055890463
 40
0.0151768177531213
 50
157.9802459264048
 51
175.7279862744334
 73
     1
 72
     2
 10
1.708158378716641
 20
0.4073882615894271
 40
0.0175288039263104
 50
172.6990132420623
 51
188.9919500615153
 73
     1
 72
     2
 10
1.709434724792039
 20
0.4071277136839012
 40
0.018754306378342
 50
187.5961529692752
 51
202.8514728843145
 73
     1
 72
     2
 10
1.713415982510703
 20
0.4098029626068265
 40
0.0234800083169512
 50
205.095036290115
 51
208.7062773863674
 73
     1
 72
     2
 10
1.716530427614822
 20
0.4130319444988484
 40
0.0277947475210845
 50
211.4617467723877
 51
214.4776167681863
 73
     1
 72
     2
 10
1.798805844752166
 20
0.4794678086208626
 40
0.1334781556174936
 50
217.9960096590552
 51
218.6051445060782
 73
     1
 72
     2
 10
1.71411393594937
 20
0.4147818027158588
 40
0.0270311104968983
 50
223.4727412172602
 51
231.5765454796655
 73
     1
 72
     2
 10
1.714970516181898
 20
0.4199578584883053
 40
0.0317208861058423
 50
236.179619535216
 51
243.9627139296284
 73
     1
 72
     2
 10
1.714189405924324
 20
0.4219347204146949
 40
0.0331913735031554
 50
246.6731896134593
 51
253.5722006974093
 73
     1
 72
     2
 10
1.744025458148191
 20
0.5256870746424274
 40
0.141147928729737
 50
253.8660232573638
 51
256.4915086256218
 73
     1
 72
     2
 10
1.777665220868062
 20
0.6375281662311756
 40
0.2578369482397982
 50
255.0282214889518
 51
257.0441428996435
 73
     1
 72
     2
 10
1.816666655740251
 20
0.7631436335592352
 40
0.3891233421787054
 50
255.5942969765304
 51
256.3550761129648
 73
     1
 97
        1
330
564
 75
     0
 76
     1
 98
        1
 10
-6.623918024059631
 20
-0.1308261527660757
  0
LWPOLYLINE
  5
564
102
{ACAD_REACTORS
330
563
102
}
330
557
100
AcDbEntity
  8
CONTINUOUS1
  6
CONTINUOUS
 62
     9
100
AcDbPolyline
 90
       89
 70
     1
 43
0.0
 10
1.724870853814341
 20
0.3850027786161268
 42
-0.0031619945407147
 10
1.728704150753092
 20
0.3839715765618625
 42
-0.030140937208008
 10
1.732353140628195
 20
0.3827562228082688
 42
-0.0252157404289211
 10
1.736149571400208
 20
0.3811357590471407
 42
-0.0479463296275325
 10
1.741123176189407
 20
0.3781580782775795
 42
-0.0612742161665951
 10
1.744892795204041
 20
0.3749640192613701
 42
-0.0493495283417487
 10
1.747395820137942
 20
0.3718905012960936
 42
-0.0533512835500878
 10
1.749446491741114
 20
0.3682444519009782
 42
-0.0651930963851117
 10
1.750486897271546
 20
0.3657145848738996
 42
-0.0455372415571768
 10
1.751482069845824
 20
0.3620317051387478
 42
-0.0420433899694379
 10
1.751924368767706
 20
0.3594905303429532
 42
-0.0421408027509401
 10
1.752145518228733
 20
0.3569125133419679
 42
-0.0276490321326908
 10
1.752292959125814
 20
0.3545186480399711
 42
-0.0531158483705343
 10
1.752108675831355
 20
0.351977473244347
 42
-0.0362472752477507
 10
1.751850660203931
 20
0.3495099472627889
 42
-0.0207731867223286
 10
1.751333606869341
 20
0.3469453382139709
 42
-0.0438427632265486
 10
1.750639995259209
 20
0.344474466177076
 42
-0.0455993495213645
 10
1.749735288597239
 20
0.3419734677764841
 42
-0.0371366834740924
 10
1.748589323656208
 20
0.3394423311468704
 42
-0.0520851678945367
 10
1.747202100436116
 20
0.3369413208807833
 42
-0.0660357795919543
 10
1.745513316251706
 20
0.3344101842511696
 42
-0.023445788208571
 10
1.743555844029206
 20
0.3319464314809016
 42
-0.0414902487431464
 10
1.741022655867912
 20
0.3295324779815592
 42
-0.0192537831905492
 10
1.737598143154318
 20
0.3268841582216742
 42
-0.0443001092257388
 10
1.733587265860453
 20
0.3244702047221613
 42
-0.0405259275577274
 10
1.727878500744825
 20
0.321995737455723
 42
-0.0288919489310161
 10
1.722345390671794
 20
0.320601346009426
 42
-0.0432269886872848
 10
1.712325993764213
 20
0.3197408521058383
 42
-0.0239119926891615
 10
1.703102059868147
 20
0.320058668037746
 42
-0.0154102708889789
 10
1.696009161539993
 20
0.3210120921031608
 42
-0.0257141890330953
 10
1.689766276740588
 20
0.3225041242924367
 42
-0.0177001500616332
 10
1.68354219344852
 20
0.3245916238161617
 42
-0.0253909309126544
 10
1.679755531853889
 20
0.3260702836495857
 42
-0.0197980181237655
 10
1.673816157100507
 20
0.3287109620632696
 10
1.673816157100507
 20
0.348755448516386
 42
0.0255950620068941
 10
1.674936997903589
 20
0.3478564382385803
 42
0.0891587087538363
 10
1.690340091136224
 20
0.3376364698146977
 42
0.0636766101274314
 10
1.703222261160565
 20
0.3336253562873144
 42
0.0607322500225615
 10
1.713576329651434
 20
0.333076816786218
 42
0.0059281747790857
 10
1.716551650349604
 20
0.3333327662903689
 42
0.0030411878748934
 10
1.719077351184896
 20
0.3337074888945045
 42
0.0031261843860593
 10
1.721552898821219
 20
0.33427519108858
 42
0.0362931935570043
 10
1.725909381570975
 20
0.3358408602267678
 42
0.0825535038755105
 10
1.731300493913952
 20
0.3396688306178253
 42
0.004044194237512
 10
1.732620188585404
 20
0.3411557606659703
 42
0.0091536133499963
 10
1.733748207713492
 20
0.3427541309694111
 42
0.054748767696608
 10
1.733859447984034
 20
0.342964267992159
 42
0.0409070518720577
 10
1.734222024712014
 20
0.3436655038990471
 42
0.0475791486181886
 10
1.734768742118806
 20
0.3447254559255275
 42
0.0118342068154451
 10
1.735087583355696
 20
0.3455237511688556
 42
0.0549613731019633
 10
1.735578847012138
 20
0.3470430857462366
 42
0.0433681134276899
 10
1.73588946407526
 20
0.3484300019622428
 42
0.0771058776446834
 10
1.736170084296336
 20
0.3507292759402394
 42
0.0383751788318603
 10
1.736237541537239
 20
0.3531074432588643
 42
0.0651926246618979
 10
1.736015536381987
 20
0.355724794208641
 42
0.0708375912954788
 10
1.735305167423494
 20
0.3588301234306077
 42
0.092591635874942
 10
1.733928854306643
 20
0.3618023698267057
 42
0.1176994875674221
 10
1.730954199148673
 20
0.3653513242892363
 42
0.0966023314025739
 10
1.725545426224218
 20
0.3686346589100826
 42
0.045498488973316
 10
1.718542922500464
 20
0.370793244312154
 42
0.0076544521501666
 10
1.704797000298331
 20
0.3741673970455399
 42
-0.0313889801307479
 10
1.693406471978821
 20
0.3777443776881459
 42
-0.1287402518965054
 10
1.68089569708869
 20
0.3869440128048614
 42
-0.1327861629458718
 10
1.675308084036803
 20
0.399077201103069
 42
-0.1256013842756795
 10
1.675998130253706
 20
0.4155615784346769
 42
-0.1691830721684855
 10
1.688823634294099
 20
0.4321545839108017
 42
-0.1587876586997674
 10
1.714733561235252
 20
0.4391192794900581
 42
-0.1052225384089748
 10
1.747820387170609
 20
0.4317422478475242
 10
1.747820387170609
 20
0.4116977613945783
 42
0.0626703755683868
 10
1.746679152318026
 20
0.4133648337628988
 42
0.0443000075885412
 10
1.737726307158229
 20
0.4196863985170585
 42
0.0310736945441558
 10
1.732354590554709
 20
0.4222309312336852
 42
0.0549608668437835
 10
1.727380771841954
 20
0.4240200504235081
 42
0.0454075984514084
 10
1.723879222863931
 20
0.4249742457425332
 42
0.1155742899323605
 10
1.705830203734397
 20
0.4249742457425332
 42
0.0663424745816582
 10
1.699797582061794
 20
0.4226440385507435
 42
0.0810098588725135
 10
1.694758065035475
 20
0.418751876104921
 42
0.0950996757952028
 10
1.691836605545322
 20
0.4141754927995867
 42
0.0775942943034753
 10
1.69077169387825
 20
0.4096158516364317
 42
0.0712113554365052
 10
1.690844998364273
 20
0.4046485849914921
 42
0.0666623741392031
 10
1.692152356774816
 20
0.3998445987287487
 42
0.0157583160010225
 10
1.692821818787681
 20
0.3985250545067633
 42
0.0131599749339241
 10
1.693617899800845
 20
0.3972977759814289
 42
0.0026578584258268
 10
1.694497411016957
 20
0.3961841446839576
 42
0.0353742605666019
 10
1.697314951177393
 20
0.3936045733095743
 42
0.0339732171468453
 10
1.70104644425314
 20
0.391456370171682
 42
0.0301117106030551
 10
1.704802657389084
 20
0.3900983225819918
 42
0.0114563422017746
 10
1.711054788441661
 20
0.3884439592457061
 42
0.0087963433832554
 10
1.719858101006852
 20
0.3862549508440911
 42
0.0033195373957588
  0
HATCH
  5
565
330
557
100
AcDbEntity
  8
CONTINUOUS1
 62
     9
100
AcDbHatch
 10
0.0
 20
0.0
 30
0.0
210
0.0
220
0.0
230
1.0
  2
SOLID
 70
     1
 71
     1
 91
        1
 92
        1
 93
       63
 72
     1
 10
2.811736575584777
 20
0.3185392197908646
 11
2.814514193678665
 21
0.3185392197908646
 72
     1
 10
2.814514193678665
 20
0.3185392197908646
 11
2.817291811772722
 21
0.3185392197908646
 72
     1
 10
2.817291811772722
 20
0.3185392197908646
 11
2.82006942986678
 21
0.3185392197908646
 72
     1
 10
2.82006942986678
 20
0.3185392197908646
 11
2.822847047960667
 21
0.3185392197908646
 72
     1
 10
2.822847047960667
 20
0.3185392197908646
 11
2.825624666054725
 21
0.3185392197908646
 72
     1
 10
2.825624666054725
 20
0.3185392197908646
 11
2.825624666054725
 21
0.3213168378847518
 72
     1
 10
2.825624666054725
 20
0.3213168378847518
 11
2.825624666054725
 21
0.3240944559788095
 72
     1
 10
2.825624666054725
 20
0.3240944559788095
 11
2.825624666054725
 21
0.3629811092945947
 72
     1
 10
2.825624666054725
 20
0.3629811092945947
 11
2.825624666054725
 21
0.3657587273886524
 72
     1
 10
2.825624666054725
 20
0.3657587273886524
 11
2.825624666054725
 21
0.3685363454825397
 72
     1
 10
2.825624666054725
 20
0.3685363454825397
 11
2.826336506825416
 21
0.3713139635765974
 72
     1
 10
2.826336506825416
 20
0.3713139635765974
 11
2.827485670177711
 21
0.3740915816706551
 72
     1
 10
2.827485670177711
 20
0.3740915816706551
 11
2.828930031586512
 21
0.3764803332313709
 72
     1
 10
2.828930031586512
 20
0.3764803332313709
 11
2.83117990224267
 21
0.378258008811486
 72
     1
 10
2.83117990224267
 20
0.378258008811486
 11
2.833957520336728
 21
0.3803481447481549
 72
     1
 10
2.833957520336728
 20
0.3803481447481549
 11
2.836458499551472
 21
0.3821533245041455
 72
     1
 10
2.836458499551472
 20
0.3821533245041455
 11
2.838496571758387
 21
0.3835311386972085
 72
     1
 10
2.838496571758387
 20
0.3835311386972085
 11
2.840318265771859
 21
0.3843965447991882
 72
     1
 10
2.840318265771859
 20
0.3843965447991882
 11
2.84229037461856
 21
0.3852020540465451
 72
     1
 10
2.84229037461856
 20
0.3852020540465451
 11
2.845067992712618
 21
0.3860225445559995
 72
     1
 10
2.845067992712618
 20
0.3860225445559995
 11
2.848792121584697
 21
0.3859647625154712
 72
     1
 10
2.848792121584697
 20
0.3859647625154712
 11
2.851394365793826
 21
0.3851557727118125
 72
     1
 10
2.851394365793826
 20
0.3851557727118125
 11
2.85340084699462
 21
0.3838132449996015
 72
     1
 10
2.85340084699462
 20
0.3838132449996015
 11
2.855500116228117
 21
0.3819776024104162
 72
     1
 10
2.855500116228117
 20
0.3819776024104162
 11
2.857567274135451
 21
0.3796468178584296
 72
     1
 10
2.857567274135451
 20
0.3796468178584296
 11
2.858956083182565
 21
0.3784524420782422
 72
     1
 10
2.858956083182565
 20
0.3784524420782422
 11
2.859999004466235
 21
0.380049012932091
 72
     1
 10
2.859999004466235
 20
0.380049012932091
 11
2.861508043922615
 21
0.3823591474088066
 72
     1
 10
2.861508043922615
 20
0.3823591474088066
 11
2.86329254810855
 21
0.3850909809773389
 72
     1
 10
2.86329254810855
 20
0.3850909809773389
 11
2.864332596004462
 21
0.3866831530647805
 72
     1
 10
2.864332596004462
 20
0.3866831530647805
 11
2.865705695150868
 21
0.3887851813877892
 72
     1
 10
2.865705695150868
 20
0.3887851813877892
 11
2.86451131937051
 21
0.39075729023449
 72
     1
 10
2.86451131937051
 20
0.39075729023449
 11
2.862459275569538
 21
0.3932298076646252
 72
     1
 10
2.862459275569538
 20
0.3932298076646252
 11
2.859413586285572
 21
0.3956385659741959
 72
     1
 10
2.859413586285572
 20
0.3956385659741959
 11
2.857697565716623
 21
0.3970016751998178
 72
     1
 10
2.857697565716623
 20
0.3970016751998178
 11
2.855372955841321
 21
0.3982846352691358
 72
     1
 10
2.855372955841321
 20
0.3982846352691358
 11
2.85340084699462
 21
0.3990901445163222
 72
     1
 10
2.85340084699462
 20
0.3990901445163222
 11
2.850623228900563
 21
0.3990901445163222
 72
     1
 10
2.850623228900563
 20
0.3990901445163222
 11
2.847845610806505
 21
0.3990901445163222
 72
     1
 10
2.847845610806505
 20
0.3990901445163222
 11
2.845067992712618
 21
0.3987012779831507
 72
     1
 10
2.845067992712618
 20
0.3987012779831507
 11
2.84229037461856
 21
0.3977013354693786
 72
     1
 10
2.84229037461856
 20
0.3977013354693786
 11
2.839707189791258
 21
0.3961180931558492
 72
     1
 10
2.839707189791258
 20
0.3961180931558492
 11
2.837429542954087
 21
0.394229312851849
 72
     1
 10
2.837429542954087
 20
0.394229312851849
 11
2.835346329383671
 21
0.3921460992814336
 72
     1
 10
2.835346329383671
 20
0.3921460992814336
 11
2.833263115813085
 21
0.3900628857110182
 72
     1
 10
2.833263115813085
 20
0.3900628857110182
 11
2.831537288210913
 21
0.3878950002004449
 72
     1
 10
2.831537288210913
 20
0.3878950002004449
 11
2.829863986653013
 21
0.3860075632937314
 72
     1
 10
2.829863986653013
 20
0.3860075632937314
 11
2.825624666054725
 21
0.3814779152569376
 72
     1
 10
2.825624666054725
 20
0.3814779152569376
 11
2.825624666054725
 21
0.3860075632937314
 72
     1
 10
2.825624666054725
 20
0.3860075632937314
 11
2.825624666054725
 21
0.3879796721404323
 72
     1
 10
2.825624666054725
 20
0.3879796721404323
 11
2.825624666054725
 21
0.39075729023449
 72
     1
 10
2.825624666054725
 20
0.39075729023449
 11
2.825624666054725
 21
0.3935349083285478
 72
     1
 10
2.825624666054725
 20
0.3935349083285478
 11
2.825624666054725
 21
0.396312526422435
 72
     1
 10
2.825624666054725
 20
0.396312526422435
 11
2.822847047960667
 21
0.396312526422435
 72
     1
 10
2.822847047960667
 20
0.396312526422435
 11
2.82006942986678
 21
0.396312526422435
 72
     1
 10
2.82006942986678
 20
0.396312526422435
 11
2.817291811772722
 21
0.396312526422435
 72
     1
 10
2.817291811772722
 20
0.396312526422435
 11
2.814514193678665
 21
0.396312526422435
 72
     1
 10
2.814514193678665
 20
0.396312526422435
 11
2.811736575584777
 21
0.396312526422435
 72
     1
 10
2.811736575584777
 20
0.396312526422435
 11
2.811736575584777
 21
0.3935349083285478
 72
     1
 10
2.811736575584777
 20
0.3935349083285478
 11
2.811736575584777
 21
0.39075729023449
 72
     1
 10
2.811736575584777
 20
0.39075729023449
 11
2.811736575584777
 21
0.3240944559788095
 72
     1
 10
2.811736575584777
 20
0.3240944559788095
 11
2.811736575584777
 21
0.3213168378847518
 72
     1
 10
2.811736575584777
 20
0.3213168378847518
 11
2.811736575584777
 21
0.3185392197908646
 97
        1
330
566
 75
     0
 76
     1
 98
        1
 10
-6.623918024059631
 20
-0.1308261527660757
  0
LWPOLYLINE
  5
566
102
{ACAD_REACTORS
330
565
102
}
330
557
100
AcDbEntity
  8
CONTINUOUS1
  6
CONTINUOUS
 62
     9
100
AcDbPolyline
 90
       64
 70
     0
 43
0.0
 10
2.811736575584777
 20
0.3185392197908646
 10
2.814514193678665
 20
0.3185392197908646
 10
2.817291811772722
 20
0.3185392197908646
 10
2.82006942986678
 20
0.3185392197908646
 10
2.822847047960667
 20
0.3185392197908646
 10
2.825624666054725
 20
0.3185392197908646
 10
2.825624666054725
 20
0.3213168378847518
 10
2.825624666054725
 20
0.3240944559788095
 10
2.825624666054725
 20
0.3629811092945947
 10
2.825624666054725
 20
0.3657587273886524
 10
2.825624666054725
 20
0.3685363454825397
 10
2.826336506825416
 20
0.3713139635765974
 10
2.827485670177711
 20
0.3740915816706551
 10
2.828930031586512
 20
0.3764803332313709
 10
2.83117990224267
 20
0.378258008811486
 10
2.833957520336728
 20
0.3803481447481549
 10
2.836458499551472
 20
0.3821533245041455
 10
2.838496571758387
 20
0.3835311386972085
 10
2.840318265771859
 20
0.3843965447991882
 10
2.84229037461856
 20
0.3852020540465451
 10
2.845067992712618
 20
0.3860225445559995
 10
2.848792121584697
 20
0.3859647625154712
 10
2.851394365793826
 20
0.3851557727118125
 10
2.85340084699462
 20
0.3838132449996015
 10
2.855500116228117
 20
0.3819776024104162
 10
2.857567274135451
 20
0.3796468178584296
 10
2.858956083182565
 20
0.3784524420782422
 10
2.859999004466235
 20
0.380049012932091
 10
2.861508043922615
 20
0.3823591474088066
 10
2.86329254810855
 20
0.3850909809773389
 10
2.864332596004462
 20
0.3866831530647805
 10
2.865705695150868
 20
0.3887851813877892
 10
2.86451131937051
 20
0.39075729023449
 10
2.862459275569538
 20
0.3932298076646252
 10
2.859413586285572
 20
0.3956385659741959
 10
2.857697565716623
 20
0.3970016751998178
 10
2.855372955841321
 20
0.3982846352691358
 10
2.85340084699462
 20
0.3990901445163222
 10
2.850623228900563
 20
0.3990901445163222
 10
2.847845610806505
 20
0.3990901445163222
 10
2.845067992712618
 20
0.3987012779831507
 10
2.84229037461856
 20
0.3977013354693786
 10
2.839707189791258
 20
0.3961180931558492
 10
2.837429542954087
 20
0.394229312851849
 10
2.835346329383671
 20
0.3921460992814336
 10
2.833263115813085
 20
0.3900628857110182
 10
2.831537288210913
 20
0.3878950002004449
 10
2.829863986653013
 20
0.3860075632937314
 10
2.825624666054725
 20
0.3814779152569376
 10
2.825624666054725
 20
0.3860075632937314
 10
2.825624666054725
 20
0.3879796721404323
 10
2.825624666054725
 20
0.39075729023449
 10
2.825624666054725
 20
0.3935349083285478
 10
2.825624666054725
 20
0.396312526422435
 10
2.822847047960667
 20
0.396312526422435
 10
2.82006942986678
 20
0.396312526422435
 10
2.817291811772722
 20
0.396312526422435
 10
2.814514193678665
 20
0.396312526422435
 10
2.811736575584777
 20
0.396312526422435
 10
2.811736575584777
 20
0.3935349083285478
 10
2.811736575584777
 20
0.39075729023449
 10
2.811736575584777
 20
0.3240944559788095
 10
2.811736575584777
 20
0.3213168378847518
 10
2.811736575584777
 20
0.3185392197908646
  0
HATCH
  5
567
330
557
100
AcDbEntity
  8
CONTINUOUS1
 62
     9
100
AcDbHatch
 10
0.0
 20
0.0
 30
0.0
210
0.0
220
0.0
230
1.0
  2
SOLID
 70
     1
 71
     1
 91
        2
 92
        1
 93
       10
 72
     1
 10
2.824501390082563
 20
0.6423016628555165
 11
2.824501390082563
 21
0.5568015451240994
 72
     1
 10
2.824501390082563
 20
0.5568015451240994
 11
2.803688857735931
 21
0.5568015451240994
 72
     1
 10
2.803688857735931
 20
0.5568015451240994
 11
2.803688857735931
 21
0.5352391641626002
 72
     1
 10
2.803688857735931
 20
0.5352391641626002
 11
2.97056404175391
 21
0.5352391641626002
 72
     2
 10
2.970564089566778
 20
0.5568015929366667
 40
0.0215624287741196
 50
269.9998729514383
 51
359.9996387859521
 73
     1
 72
     1
 10
2.992126518340469
 20
0.5568014569990419
 11
2.992126518340469
 21
0.6423016628555165
 72
     2
 10
2.970563865504514
 20
0.6423018391063527
 40
0.0215626528366757
 50
359.9995316703782
 51
449.9995316742062
 73
     1
 72
     1
 10
2.97056404175391
 20
0.6638644919423083
 11
2.803688857735931
 21
0.6638644919423083
 72
     1
 10
2.803688857735931
 20
0.6638644919423083
 11
2.803688857735931
 21
0.6423016628555165
 72
     1
 10
2.803688857735931
 20
0.6423016628555165
 11
2.824501390082563
 21
0.6423016628555165
 97
        1
330
568
 92
       16
 93
        6
 72
     1
 10
2.846064035419235
 20
0.6423016628555165
 11
2.959782634710521
 21
0.6423016628555165
 72
     2
 10
2.959782720960921
 20
0.6315203420625278
 40
0.0107813207933337
 50
269.9995416346447
 51
359.9995416383139
 73
     0
 72
     1
 10
2.97056404175391
 20
0.6315204283122381
 11
2.97056404175391
 21
0.5675829596674955
 72
     2
 10
2.959782585960379
 20
0.5675830009175986
 40
0.0107814557936096
 50
0.0002192149982456
 51
89.99974092762393
 73
     0
 72
     1
 10
2.959782634710521
 20
0.5568015451240994
 11
2.846064035419235
 21
0.5568015451240994
 72
     1
 10
2.846064035419235
 20
0.5568015451240994
 11
2.846064035419235
 21
0.6423016628555165
 97
        1
330
598
 75
     0
 76
     1
 98
        1
 10
-6.623918024059631
 20
-0.1308261527660757
  0
LWPOLYLINE
  5
568
102
{ACAD_REACTORS
330
567
102
}
330
557
100
AcDbEntity
  8
CONTINUOUS1
  6
CONTINUOUS
 62
     9
100
AcDbPolyline
 90
       11
 70
     0
 43
0.0
 10
2.824501390082563
 20
0.6423016628555165
 10
2.824501390082563
 20
0.5568015451240994
 10
2.803688857735931
 20
0.5568015451240994
 10
2.803688857735931
 20
0.5352391641626002
 10
2.97056404175391
 20
0.5352391641626002
 42
0.4142123653311114
 10
2.992126518340469
 20
0.5568014569990419
 10
2.992126518340469
 20
0.6423016628555165
 42
0.4142135623926597
 10
2.97056404175391
 20
0.6638644919423083
 10
2.803688857735931
 20
0.6638644919423083
 10
2.803688857735931
 20
0.6423016628555165
 10
2.824501390082563
 20
0.6423016628555165
  0
HATCH
  5
569
330
557
100
AcDbEntity
  8
CONTINUOUS1
 62
     9
100
AcDbHatch
 10
0.0
 20
0.0
 30
0.0
210
0.0
220
0.0
230
1.0
  2
SOLID
 70
     1
 71
     1
 91
        2
 92
        1
 93
        8
 72
     1
 10
2.270499521908366
 20
0.6638644919422068
 11
2.186814373487525
 21
0.5352389860374847
 72
     1
 10
2.186814373487525
 20
0.5352389860374847
 11
2.212539634043626
 21
0.5352391641624768
 72
     1
 10
2.212539634043626
 20
0.5352391641624768
 11
2.226567774458121
 21
0.5568015451239608
 72
     1
 10
2.226567774458121
 20
0.5568015451239608
 11
2.329499210452329
 21
0.5568015451239608
 72
     1
 10
2.329499210452329
 20
0.5568015451239608
 11
2.343527538366888
 21
0.5352394322875403
 72
     1
 10
2.343527538366888
 20
0.5352394322875403
 11
2.369251898922275
 21
0.5352394322875403
 72
     1
 10
2.369251898922275
 20
0.5352394322875403
 11
2.285566919251696
 21
0.6638644919422068
 72
     1
 10
2.285566919251696
 20
0.6638644919422068
 11
2.270499521908366
 21
0.6638644919422068
 97
        1
330
56A
 92
       16
 93
        3
 72
     1
 10
2.278033314329977
 20
0.6359049480514618
 11
2.315470001287028
 21
0.5783643742108216
 72
     1
 10
2.315470001287028
 20
0.5783643742108216
 11
2.240596983623252
 21
0.578364196085659
 72
     1
 10
2.240596983623252
 20
0.578364196085659
 11
2.278033126829914
 21
0.635904589926327
 97
        1
330
580
 75
     0
 76
     1
 98
        1
 10
-6.623918024059631
 20
-0.1308261527660757
  0
LWPOLYLINE
  5
56A
102
{ACAD_REACTORS
330
569
102
}
330
557
100
AcDbEntity
  8
CONTINUOUS1
  6
CONTINUOUS
 62
     9
100
AcDbPolyline
 90
        9
 70
     0
 43
0.0
 10
2.270499521908366
 20
0.6638644919422068
 10
2.186814373487525
 20
0.5352389860374847
 10
2.212539634043626
 20
0.5352391641624768
 10
2.226567774458121
 20
0.5568015451239608
 10
2.329499210452329
 20
0.5568015451239608
 10
2.343527538366888
 20
0.5352394322875403
 10
2.369251898922275
 20
0.5352394322875403
 10
2.285566919251696
 20
0.6638644919422068
 10
2.270499521908366
 20
0.6638644919422068
  0
HATCH
  5
56B
330
557
100
AcDbEntity
  8
CONTINUOUS1
 62
     9
100
AcDbHatch
 10
0.0
 20
0.0
 30
0.0
210
0.0
220
0.0
230
1.0
  2
SOLID
 70
     1
 71
     1
 91
        2
 92
        7
 72
     0
 73
     1
 93
       20
 10
2.128442524464478
 20
0.39075729023449
 10
2.128442524464478
 20
0.3935349083285478
 10
2.128443163460961
 20
0.396312526422435
 10
2.125664906370591
 20
0.396312526422435
 10
2.122887288276533
 20
0.396312526422435
 10
2.120109670182646
 20
0.396312526422435
 10
2.117332052088588
 20
0.396312526422435
 10
2.114554433994529
 20
0.3963125264224349
 10
2.114554433994531
 20
0.3935349083285478
 10
2.114554433994531
 20
0.39075729023449
 10
2.114554433994531
 20
0.3240944559788095
 10
2.114554433994531
 20
0.3213168378847518
 10
2.114554433994529
 20
0.3185392197908645
 10
2.117332052088588
 20
0.3185392197908646
 10
2.120109670182646
 20
0.3185392197908646
 10
2.122887288276533
 20
0.3185392197908646
 10
2.125664906370591
 20
0.3185392197908646
 10
2.128442524464478
 20
0.3185392197908646
 10
2.128442524464478
 20
0.3213168378847518
 10
2.128442524464478
 20
0.3240944559788095
 97
        1
330
57A
 92
        7
 72
     1
 73
     1
 93
        2
 10
2.129831333511544
 20
0.4213110892682726
 42
1.0
 10
2.113165624947635
 20
0.4213110892682726
 42
1.0
 97
        1
330
57D
 75
     0
 76
     1
 47
0.0005102668735142
 98
        2
 10
2.122640693305477
 20
0.3456997447544359
 10
2.123406352313963
 20
0.4207089780563021
  0
HATCH
  5
56C
330
557
100
AcDbEntity
  8
CONTINUOUS1
 62
     9
100
AcDbHatch
 10
0.0
 20
0.0
 30
0.0
210
0.0
220
0.0
230
1.0
  2
SOLID
 70
     1
 71
     1
 91
        2
 92
       16
 93
       18
 72
     2
 10
2.321414633785401
 20
0.3528851545616271
 40
0.0664396543383199
 50
198.4619958207183
 51
200.1842354247361
 73
     0
 72
     2
 10
2.346555496252456
 20
0.3352454129199108
 40
0.096445586517071
 50
204.8718608834226
 51
205.9393865440841
 73
     0
 72
     2
 10
2.284841225309381
 20
0.3643060230231959
 40
0.0282500412151287
 50
207.6881291807204
 51
212.1468522298009
 73
     0
 72
     2
 10
2.282909253313798
 20
0.3643452262975984
 40
0.0266120055644413
 50
214.289143935524
 51
220.152251626646
 73
     0
 72
     2
 10
2.278385727874132
 20
0.3678076991082785
 40
0.0209235948276609
 50
220.892661179859
 51
232.6516971443595
 73
     0
 72
     2
 10
2.276895739610928
 20
0.3706911836161677
 40
0.0177364140530899
 50
230.8268348175522
 51
247.1055208447452
 73
     0
 72
     2
 10
2.276817950372624
 20
0.370391197006481
 40
0.0179834923776296
 50
247.7056716281972
 51
261.203082165149
 73
     0
 72
     2
 10
2.278151306688851
 20
0.36717654635147
 40
0.0213802051303731
 50
258.9888491839005
 51
271.7108857747937
 73
     0
 72
     2
 10
2.279349636213083
 20
0.3639169558453035
 40
0.0246366297664502
 50
268.6975355392314
 51
280.2804749251206
 73
     0
 72
     2
 10
2.280596940506969
 20
0.369608213028888
 40
0.0188153276110619
 50
279.6361688894454
 51
298.0573516433577
 73
     0
 72
     2
 10
2.281663127814024
 20
0.3730218708912918
 40
0.0153157982727261
 50
300.5449189786844
 51
323.3255645340623
 73
     0
 72
     2
 10
2.278053685300495
 20
0.3712331984285728
 40
0.0192925244149349
 50
325.4679485472512
 51
338.7424644189146
 73
     0
 72
     2
 10
2.27572340908584
 20
0.3699536532293334
 40
0.0219309169397976
 50
337.8342522704153
 51
350.2507032151334
 73
     0
 72
     2
 10
2.256877395661122
 20
0.3664737796651569
 40
0.0410947224300675
 50
349.9184788839777
 51
358.9348353768806
 73
     0
 72
     1
 10
2.297965016891087
 20
0.3672377124287327
 11
2.257140622649931
 21
0.3672377124287327
 72
     2
 10
2.308122798849584
 20
0.3622878182718704
 40
0.051221906858459
 50
185.5455046984018
 51
188.2011430538267
 73
     0
 72
     2
 10
2.608837683911046
 20
0.3072422364761533
 40
0.3569017845664977
 50
190.0614576287786
 51
190.4239000976597
 73
     0
 72
     2
 10
2.44271291905515
 20
0.3231292571124805
 40
0.1911897814441117
 50
194.7530117273464
 51
195.4074903055051
 73
     0
 97
        1
330
57E
 92
        1
 93
       47
 72
     2
 10
2.281525461809295
 20
0.3532598947256552
 40
0.0241752923918273
 50
138.3496533346511
 51
148.4595555609686
 73
     0
 72
     2
 10
2.281020321028989
 20
0.3521059761880958
 40
0.0231523339774945
 50
150.2396979683238
 51
156.5937677099167
 73
     0
 72
     2
 10
2.296899550485688
 20
0.3585924636724106
 40
0.040303192361997
 50
157.0988242481769
 51
160.8634840437796
 73
     0
 72
     2
 10
2.35918612564275
 20
0.3744094790060188
 40
0.1044765553251907
 50
163.8678439431619
 51
165.4002231692524
 73
     0
 72
     2
 10
2.290868471540939
 20
0.3551965516179019
 40
0.033550015770866
 50
167.7439659185812
 51
173.0844435487628
 73
     0
 72
     2
 10
2.296499925882827
 20
0.356927593697432
 40
0.0393626795107542
 50
171.5698966947791
 51
180.4334275361526
 73
     0
 72
     1
 10
2.257138372636379
 20
0.3572253591981966
 11
2.310532446287798
 21
0.3572253591981966
 72
     1
 10
2.310532446287798
 20
0.3572253591981966
 11
2.310532446287798
 21
0.367418047889942
 72
     2
 10
2.275762964348938
 20
0.36817833181333
 40
0.0347777932873957
 50
358.7473463266968
 51
388.6031824377397
 73
     1
 72
     2
 10
2.281548948774631
 20
0.3715980049238856
 40
0.0280617767156418
 50
28.12879544758857
 51
54.95063515022645
 73
     1
 72
     2
 10
2.282693890302713
 20
0.3712425033481648
 40
0.0277188046407911
 50
57.31076922041544
 51
82.4940245374038
 73
     1
 72
     2
 10
2.280728554650892
 20
0.3702747845720343
 40
0.0289922752746188
 50
78.89077226525315
 51
93.81071159195634
 73
     1
 72
     2
 10
2.277977672205905
 20
0.3689225917587153
 40
0.0302915785144063
 50
88.44115042377268
 51
109.8107905333598
 73
     1
 72
     2
 10
2.275222109874093
 20
0.3727814463646621
 40
0.0257592548203171
 50
106.9521716693699
 51
124.603661569856
 73
     1
 72
     2
 10
2.274773416578598
 20
0.370745022031955
 40
0.027223416564771
 50
121.3907074886569
 51
136.2843774046689
 73
     1
 72
     2
 10
2.281149153841504
 20
0.3640611980123525
 40
0.0364531928221072
 50
135.6167017519909
 51
147.4469381469264
 73
     1
 72
     2
 10
2.274957111114595
 20
0.367416191215975
 40
0.0294330181030494
 50
146.4659438100723
 51
157.2122986253005
 73
     1
 72
     2
 10
2.267138403680966
 20
0.3693204846406612
 40
0.0215246798664316
 50
153.8226534473667
 51
165.5519937306932
 73
     1
 72
     2
 10
2.282236151108303
 20
0.3626756489903522
 40
0.0378968651110208
 50
161.515271747222
 51
170.1818189345484
 73
     1
 72
     2
 10
2.283166665329934
 20
0.3609961355594354
 40
0.0391287629611654
 50
167.9903558377853
 51
176.6960496179407
 73
     1
 72
     2
 10
2.304890836559504
 20
0.3584175027964993
 40
0.0609797779044622
 50
175.4535176021835
 51
184.5464823978164
 73
     1
 72
     2
 10
2.295769604053971
 20
0.3567421254133762
 40
0.0517631080522538
 50
183.4981100536811
 51
194.429389032572
 73
     1
 72
     2
 10
2.267924221356157
 20
0.3485424727520852
 40
0.0227749164074815
 50
191.9070472796621
 51
206.3889894285758
 73
     1
 72
     2
 10
2.273199831303323
 20
0.3487142209845105
 40
0.0276640261495296
 50
201.8464660881787
 51
222.1274079961559
 73
     1
 72
     2
 10
2.27556874488612
 20
0.3494265410796771
 40
0.0299175639630403
 50
220.0955596825676
 51
233.6759197426415
 73
     1
 72
     2
 10
2.276351476329496
 20
0.3502744687142416
 40
0.0310646393940598
 50
233.4391728830817
 51
246.8725717081748
 73
     1
 72
     2
 10
2.278595672201573
 20
0.3544982286952896
 40
0.035832707340859
 50
246.2252262725147
 51
255.2219052108666
 73
     1
 72
     2
 10
2.281256856845732
 20
0.3625382973605903
 40
0.0442887031977101
 50
254.5461626614621
 51
261.28331875032
 73
     1
 72
     2
 10
2.282043884726467
 20
0.3737944212376278
 40
0.0555418412898209
 50
262.2405778669421
 51
267.866769692275
 73
     1
 72
     2
 10
2.283144833705298
 20
0.3642090186578022
 40
0.0460271287848912
 50
266.0527719165295
 51
277.1377488483287
 73
     1
 72
     2
 10
2.281272771008767
 20
0.3743809067507015
 40
0.0563559280448384
 50
277.7413046158855
 51
284.930809102693
 73
     1
 72
     2
 10
2.279338009686233
 20
0.3840626065593292
 40
0.0662121975991039
 50
284.3899023200388
 51
289.2072984924262
 73
     1
 72
     2
 10
2.2245252206173
 20
0.5275821421545017
 40
0.2198223362827568
 50
290.3921624947603
 51
292.6481637583187
 73
     1
 72
     1
 10
2.309172482915673
 20
0.3247109995190845
 11
2.309172482915673
 21
0.3403736793267176
 72
     2
 10
2.305671207258226
 20
0.3412559357119335
 40
0.0036107211964766
 50
14.14304208538034
 51
40.5809188106621
 73
     0
 72
     2
 10
2.288515538402338
 20
0.3631952191068923
 40
0.0313981308170948
 50
50.67407287050084
 51
56.95139529671177
 73
     0
 72
     2
 10
2.289265767974786
 20
0.3612619791193873
 40
0.0293716166250663
 50
56.12144370235181
 51
61.7382303285629
 73
     0
 72
     2
 10
2.280777067438011
 20
0.3754051721516405
 40
0.0458548879987645
 50
60.76359459619522
 51
64.75139576529091
 73
     0
 72
     2
 10
2.279144285908056
 20
0.3763099703744814
 40
0.047382263147091
 50
63.43218982647736
 51
70.38756687457111
 73
     0
 72
     2
 10
2.276591631531688
 20
0.3888655443368394
 40
0.0600934929530564
 50
72.11336347133055
 51
75.85532826122167
 73
     0
 72
     2
 10
2.283489762083886
 20
0.3621959788453819
 40
0.0325472503124577
 50
76.15762347795572
 51
80.1548619188531
 73
     0
 72
     2
 10
2.280375450633645
 20
0.3826983276081179
 40
0.0532819675598692
 50
80.6249603204364
 51
83.12798914716191
 73
     0
 72
     2
 10
2.282758565718186
 20
0.368048205585744
 40
0.0384568363547721
 50
84.04143915734456
 51
95.95856084265543
 73
     0
 72
     2
 10
2.281672526878255
 20
0.3621321664056745
 40
0.0324633646414816
 50
95.13601524590475
 51
98.33322003417473
 73
     0
 72
     2
 10
2.28073781445788
 20
0.3541936259354742
 40
0.0244742127063064
 50
98.86157888906135
 51
112.110164074241
 73
     0
 72
     2
 10
2.279691010914149
 20
0.3522740777554137
 40
0.0223031909484424
 50
111.4747791446618
 51
123.1250142208017
 73
     0
 72
     2
 10
2.280026853888051
 20
0.3517336784423094
 40
0.0220416868943367
 50
124.6239441549396
 51
138.7251729097469
 73
     0
 97
        1
330
57F
 75
     0
 76
     1
 98
        1
 10
-6.623918024059631
 20
-0.1308261527660757
  0
HATCH
  5
56D
330
557
100
AcDbEntity
  8
CONTINUOUS1
 62
     9
100
AcDbHatch
 10
0.0
 20
0.0
 30
0.0
210
0.0
220
0.0
230
1.0
  2
SOLID
 70
     1
 71
     1
 91
        2
 92
       16
 93
       18
 72
     2
 10
2.101715475561753
 20
0.3528851545616271
 40
0.0664396543383199
 50
198.4619958207183
 51
200.1842354247361
 73
     0
 72
     2
 10
2.126856338028808
 20
0.3352454129199108
 40
0.096445586517071
 50
204.8718608834226
 51
205.9393865440841
 73
     0
 72
     2
 10
2.065142067085734
 20
0.3643060230231959
 40
0.0282500412151287
 50
207.6881291807204
 51
212.1468522298009
 73
     0
 72
     2
 10
2.06321009509015
 20
0.3643452262975984
 40
0.0266120055644413
 50
214.289143935524
 51
220.152251626646
 73
     0
 72
     2
 10
2.058686569650484
 20
0.3678076991082785
 40
0.0209235948276609
 50
220.892661179859
 51
232.6516971443595
 73
     0
 72
     2
 10
2.05719658138728
 20
0.3706911836161677
 40
0.0177364140530899
 50
230.8268348175522
 51
247.1055208447452
 73
     0
 72
     2
 10
2.057118792149061
 20
0.3703911970057605
 40
0.0179834923783286
 50
247.7056716288168
 51
261.2030821657686
 73
     0
 72
     2
 10
2.058452148465288
 20
0.3671765463522348
 40
0.021380205129606
 50
258.9888491837334
 51
271.7108857746265
 73
     0
 72
     2
 10
2.059650477989436
 20
0.3639169558453035
 40
0.0246366297664502
 50
268.6975355392314
 51
280.2804749251206
 73
     0
 72
     2
 10
2.060897782283406
 20
0.3696082130283622
 40
0.018815327611566
 50
279.6361688889214
 51
298.0573516428338
 73
     0
 72
     2
 10
2.061963969590546
 20
0.3730218708912918
 40
0.0153157982727261
 50
300.5449189786844
 51
323.3255645340623
 73
     0
 72
     2
 10
2.058354527077018
 20
0.3712331984285728
 40
0.0192925244149349
 50
325.4679485472512
 51
338.7424644189146
 73
     0
 72
     2
 10
2.056024250862277
 20
0.3699536532301173
 40
0.0219309169395808
 50
337.834252272396
 51
350.2507032171141
 73
     0
 72
     2
 10
2.037178237437474
 20
0.3664737796651569
 40
0.0410947224300675
 50
349.9184788839777
 51
358.9348353768806
 73
     0
 72
     1
 10
2.078265858667439
 20
0.3672377124287327
 11
2.037441464426283
 21
0.3672377124287327
 72
     2
 10
2.088423640626022
 20
0.3622878182681919
 40
0.0512219068588993
 50
185.545504702488
 51
188.201143057913
 73
     0
 72
     2
 10
2.389138525687483
 20
0.3072422365031111
 40
0.3569017845617042
 50
190.0614576245198
 51
190.4239000934009
 73
     0
 72
     2
 10
2.223013760831502
 20
0.3231292571124805
 40
0.1911897814441117
 50
194.7530117273464
 51
195.4074903055051
 73
     0
 97
        1
330
57B
 92
        1
 93
       47
 72
     2
 10
2.061826303585647
 20
0.3532598947256552
 40
0.0241752923918273
 50
138.3496533346511
 51
148.4595555609686
 73
     0
 72
     2
 10
2.061321162805342
 20
0.3521059761880958
 40
0.0231523339774945
 50
150.2396979683238
 51
156.5937677099167
 73
     0
 72
     2
 10
2.077200392262041
 20
0.3585924636724106
 40
0.040303192361997
 50
157.0988242481769
 51
160.8634840437796
 73
     0
 72
     2
 10
2.139486967419102
 20
0.3744094790060188
 40
0.1044765553251907
 50
163.8678439431619
 51
165.4002231692524
 73
     0
 72
     2
 10
2.071169313317291
 20
0.3551965516179019
 40
0.033550015770866
 50
167.7439659185812
 51
173.0844435487628
 73
     0
 72
     2
 10
2.076800767659179
 20
0.356927593697432
 40
0.0393626795107542
 50
171.5698966947791
 51
180.4334275361526
 73
     0
 72
     1
 10
2.037439214412732
 20
0.3572253591981966
 11
2.09083328806415
 21
0.3572253591981966
 72
     1
 10
2.09083328806415
 20
0.3572253591981966
 11
2.09083328806415
 21
0.367418047889942
 72
     2
 10
2.05606380612529
 20
0.36817833181333
 40
0.0347777932873957
 50
358.7473463266968
 51
388.6031824377397
 73
     1
 72
     2
 10
2.061849790550983
 20
0.3715980049238856
 40
0.0280617767156418
 50
28.12879544758857
 51
54.95063515022645
 73
     1
 72
     2
 10
2.062994732079065
 20
0.3712425033481648
 40
0.0277188046407911
 50
57.31076922041544
 51
82.4940245374038
 73
     1
 72
     2
 10
2.061029396427244
 20
0.3702747845720343
 40
0.0289922752746188
 50
78.89077226525315
 51
93.81071159195634
 73
     1
 72
     2
 10
2.058278513982257
 20
0.3689225917587153
 40
0.0302915785144063
 50
88.44115042377268
 51
109.8107905333598
 73
     1
 72
     2
 10
2.055522951650445
 20
0.3727814463646621
 40
0.0257592548203171
 50
106.9521716693699
 51
124.603661569856
 73
     1
 72
     2
 10
2.055074258354951
 20
0.370745022031955
 40
0.027223416564771
 50
121.3907074886569
 51
136.2843774046689
 73
     1
 72
     2
 10
2.061449995617856
 20
0.3640611980123525
 40
0.0364531928221072
 50
135.6167017519909
 51
147.4469381469264
 73
     1
 72
     2
 10
2.055257952890947
 20
0.367416191215975
 40
0.0294330181030494
 50
146.4659438100723
 51
157.2122986253005
 73
     1
 72
     2
 10
2.047439245457319
 20
0.3693204846406612
 40
0.0215246798664316
 50
153.8226534473667
 51
165.5519937306932
 73
     1
 72
     2
 10
2.062536992884655
 20
0.3626756489903522
 40
0.0378968651110208
 50
161.515271747222
 51
170.1818189345484
 73
     1
 72
     2
 10
2.063467507106286
 20
0.3609961355594354
 40
0.0391287629611654
 50
167.9903558377853
 51
176.6960496179407
 73
     1
 72
     2
 10
2.085191678335856
 20
0.3584175027964993
 40
0.0609797779044622
 50
175.4535176021835
 51
184.5464823978164
 73
     1
 72
     2
 10
2.076070445830323
 20
0.3567421254133762
 40
0.0517631080522538
 50
183.4981100536811
 51
194.429389032572
 73
     1
 72
     2
 10
2.048225063132509
 20
0.3485424727520852
 40
0.0227749164074815
 50
191.9070472796621
 51
206.3889894285758
 73
     1
 72
     2
 10
2.053500673079675
 20
0.3487142209845105
 40
0.0276640261495296
 50
201.8464660881787
 51
222.1274079961559
 73
     1
 72
     2
 10
2.055869586662472
 20
0.3494265410796771
 40
0.0299175639630403
 50
220.0955596825676
 51
233.6759197426415
 73
     1
 72
     2
 10
2.056652318105848
 20
0.3502744687142416
 40
0.0310646393940598
 50
233.4391728830817
 51
246.8725717081748
 73
     1
 72
     2
 10
2.058896513977925
 20
0.3544982286952896
 40
0.035832707340859
 50
246.2252262725147
 51
255.2219052108666
 73
     1
 72
     2
 10
2.061557698622085
 20
0.3625382973605903
 40
0.0442887031977101
 50
254.5461626614621
 51
261.28331875032
 73
     1
 72
     2
 10
2.06234472650282
 20
0.3737944212376278
 40
0.0555418412898209
 50
262.2405778669421
 51
267.866769692275
 73
     1
 72
     2
 10
2.063445675481736
 20
0.3642090186586808
 40
0.0460271287857736
 50
266.052771916499
 51
277.1377488482981
 73
     1
 72
     2
 10
2.061573612785204
 20
0.3743809067493442
 40
0.056355928043505
 50
277.7413046161573
 51
284.9308091029648
 73
     1
 72
     2
 10
2.059638851462585
 20
0.3840626065593292
 40
0.0662121975991039
 50
284.3899023200388
 51
289.2072984924262
 73
     1
 72
     2
 10
2.004826062393652
 20
0.5275821421545017
 40
0.2198223362827568
 50
290.3921624947603
 51
292.6481637583187
 73
     1
 72
     1
 10
2.089473324692026
 20
0.3247109995190845
 11
2.089473324692026
 21
0.3403736793267176
 72
     2
 10
2.085972049034579
 20
0.3412559357119335
 40
0.0036107211964766
 50
14.14304208538034
 51
40.5809188106621
 73
     0
 72
     2
 10
2.06881638017869
 20
0.3631952191068923
 40
0.0313981308170948
 50
50.67407287050084
 51
56.95139529671177
 73
     0
 72
     2
 10
2.069566609751138
 20
0.3612619791193873
 40
0.0293716166250663
 50
56.12144370235181
 51
61.7382303285629
 73
     0
 72
     2
 10
2.061077909214363
 20
0.3754051721516405
 40
0.0458548879987645
 50
60.76359459619522
 51
64.75139576529091
 73
     0
 72
     2
 10
2.059445127684409
 20
0.3763099703744814
 40
0.047382263147091
 50
63.43218982647736
 51
70.38756687457111
 73
     0
 72
     2
 10
2.056892473308041
 20
0.3888655443368394
 40
0.0600934929530564
 50
72.11336347133055
 51
75.85532826122167
 73
     0
 72
     2
 10
2.063790603860239
 20
0.3621959788453819
 40
0.0325472503124577
 50
76.15762347795572
 51
80.1548619188531
 73
     0
 72
     2
 10
2.060676292409997
 20
0.3826983276081179
 40
0.0532819675598692
 50
80.6249603204364
 51
83.12798914716191
 73
     0
 72
     2
 10
2.063059407494538
 20
0.368048205585744
 40
0.0384568363547721
 50
84.04143915734456
 51
95.95856084265543
 73
     0
 72
     2
 10
2.061973368654692
 20
0.3621321664026192
 40
0.0324633646384463
 50
95.13601524653735
 51
98.33322003480732
 73
     0
 72
     2
 10
2.061038656234403
 20
0.3541936259354742
 40
0.0244742127063064
 50
98.86157888906135
 51
112.110164074241
 73
     0
 72
     2
 10
2.059991852690671
 20
0.3522740777554137
 40
0.0223031909484424
 50
111.4747791446618
 51
123.1250142208017
 73
     0
 72
     2
 10
2.060327695664488
 20
0.3517336784429987
 40
0.0220416868948555
 50
124.6239441537391
 51
138.7251729085464
 73
     0
 97
        1
330
57C
 75
     0
 76
     1
 98
        1
 10
-6.623918024059631
 20
-0.1308261527660757
  0
HATCH
  5
56E
330
557
100
AcDbEntity
  8
CONTINUOUS1
 62
     9
100
AcDbHatch
 10
0.0
 20
0.0
 30
0.0
210
0.0
220
0.0
230
1.0
  2
SOLID
 70
     1
 71
     1
 91
        1
 92
        1
 93
       78
 72
     1
 10
1.93678687597961
 20
0.3185392197908646
 11
1.939564494073497
 21
0.3185392197908646
 72
     1
 10
1.939564494073497
 20
0.3185392197908646
 11
1.942342112167555
 21
0.3185392197908646
 72
     1
 10
1.942342112167555
 20
0.3185392197908646
 11
1.945119730261442
 21
0.3185392197908646
 72
     1
 10
1.945119730261442
 20
0.3185392197908646
 11
1.9478973483555
 21
0.3185392197908646
 72
     1
 10
1.9478973483555
 20
0.3185392197908646
 11
1.950674966449557
 21
0.3185392197908646
 72
     1
 10
1.950674966449557
 20
0.3185392197908646
 11
1.950674966449557
 21
0.3213168378847518
 72
     1
 10
1.950674966449557
 20
0.3213168378847518
 11
1.950674966449557
 21
0.3240944559788095
 72
     1
 10
1.950674966449557
 20
0.3240944559788095
 11
1.950674966449557
 21
0.3713139635765974
 72
     1
 10
1.950674966449557
 20
0.3713139635765974
 11
1.950674966449557
 21
0.3740915816706551
 72
     1
 10
1.950674966449557
 20
0.3740915816706551
 11
1.950674966449557
 21
0.3764121066624857
 72
     1
 10
1.950674966449557
 20
0.3764121066624857
 11
1.953452584543445
 21
0.3787302038875286
 72
     1
 10
1.953452584543445
 20
0.3787302038875286
 11
1.956003614602682
 21
0.3809067470338623
 72
     1
 10
1.956003614602682
 20
0.3809067470338623
 11
1.958366196022527
 21
0.3826818394989009
 72
     1
 10
1.958366196022527
 20
0.3826818394989009
 11
1.961291878825964
 21
0.3848664295055646
 72
     1
 10
1.961291878825964
 20
0.3848664295055646
 11
1.963519951262444
 21
0.3862728726654727
 72
     1
 10
1.963519951262444
 20
0.3862728726654727
 11
1.965368566166691
 21
0.3871741628932459
 72
     1
 10
1.965368566166691
 20
0.3871741628932459
 11
1.967340675013392
 21
0.3877239703094806
 72
     1
 10
1.967340675013392
 20
0.3877239703094806
 11
1.97011829310745
 21
0.3879796721404323
 72
     1
 10
1.97011829310745
 20
0.3879796721404323
 11
1.972895911201337
 21
0.3879796721404323
 72
     1
 10
1.972895911201337
 20
0.3879796721404323
 11
1.975673529295395
 21
0.3875908056072608
 72
     1
 10
1.975673529295395
 20
0.3875908056072608
 11
1.978408481664164
 21
0.3864723471903067
 72
     1
 10
1.978408481664164
 20
0.3864723471903067
 11
1.980423256236154
 21
0.3848131875133736
 72
     1
 10
1.980423256236154
 20
0.3848131875133736
 11
1.982347794679387
 21
0.3828455775268371
 72
     1
 10
1.982347794679387
 20
0.3828455775268371
 11
1.983898127081747
 21
0.3807960064739295
 72
     1
 10
1.983898127081747
 20
0.3807960064739295
 11
1.985408544715742
 21
0.3785266344276583
 72
     1
 10
1.985408544715742
 20
0.3785266344276583
 11
1.986436641229861
 21
0.3760636905171855
 72
     1
 10
1.986436641229861
 20
0.3760636905171855
 11
1.986784001671285
 21
0.3740915816706551
 72
     1
 10
1.986784001671285
 20
0.3740915816706551
 11
1.986784001671285
 21
0.3713139635765974
 72
     1
 10
1.986784001671285
 20
0.3713139635765974
 11
1.986784001671285
 21
0.3240944559788095
 72
     1
 10
1.986784001671285
 20
0.3240944559788095
 11
1.986784001671285
 21
0.3213168378847518
 72
     1
 10
1.986784001671285
 20
0.3213168378847518
 11
1.986784001671285
 21
0.3185392197908646
 72
     1
 10
1.986784001671285
 20
0.3185392197908646
 11
1.989561619765343
 21
0.3185392197908646
 72
     1
 10
1.989561619765343
 20
0.3185392197908646
 11
1.99233923785923
 21
0.3185392197908646
 72
     1
 10
1.99233923785923
 20
0.3185392197908646
 11
1.995116855953288
 21
0.3185392197908646
 72
     1
 10
1.995116855953288
 20
0.3185392197908646
 11
1.997894474047175
 21
0.3185392197908646
 72
     1
 10
1.997894474047175
 20
0.3185392197908646
 11
2.000672092141233
 21
0.3185392197908646
 72
     1
 10
2.000672092141233
 20
0.3185392197908646
 11
2.000672092141233
 21
0.3213168378847518
 72
     1
 10
2.000672092141233
 20
0.3213168378847518
 11
2.000672092141233
 21
0.3240944559788095
 72
     1
 10
2.000672092141233
 20
0.3240944559788095
 11
2.000672092141233
 21
0.3740915816706551
 72
     1
 10
2.000672092141233
 20
0.3740915816706551
 11
2.000672092141233
 21
0.3768691997645424
 72
     1
 10
2.000672092141233
 20
0.3768691997645424
 11
2.000394330331776
 21
0.3796468178584296
 72
     1
 10
2.000394330331776
 20
0.3796468178584296
 11
1.999755478170161
 21
0.3824244359524873
 72
     1
 10
1.999755478170161
 20
0.3824244359524873
 11
1.998811088018246
 21
0.3852020540465451
 72
     1
 10
1.998811088018246
 20
0.3852020540465451
 11
1.997366726609445
 21
0.3877019103309753
 72
     1
 10
1.997366726609445
 20
0.3877019103309753
 11
1.995116855953288
 21
0.3898406762634186
 72
     1
 10
1.995116855953288
 20
0.3898406762634186
 11
1.992605073201364
 21
0.3920766850267801
 72
     1
 10
1.992605073201364
 20
0.3920766850267801
 11
1.989896866645583
 21
0.3938452989406192
 72
     1
 10
1.989896866645583
 20
0.3938452989406192
 11
1.987855574154341
 21
0.3953124560483166
 72
     1
 10
1.987855574154341
 20
0.3953124560483166
 11
1.985252932763362
 21
0.3964598354054947
 72
     1
 10
1.985252932763362
 20
0.3964598354054947
 11
1.982498395711534
 21
0.3975734953987744
 72
     1
 10
1.982498395711534
 20
0.3975734953987744
 11
1.980191734394711
 21
0.3984640481231172
 72
     1
 10
1.980191734394711
 20
0.3984640481231172
 11
1.978042304217613
 21
0.3990083828482516
 72
     1
 10
1.978042304217613
 20
0.3990083828482516
 11
1.975645085390201
 21
0.3994741650645897
 72
     1
 10
1.975645085390201
 20
0.3994741650645897
 11
1.972895911201337
 21
0.3994820966067327
 72
     1
 10
1.972895911201337
 20
0.3994820966067327
 11
1.970108168823831
 21
0.3992749623910759
 72
     1
 10
1.970108168823831
 20
0.3992749623910759
 11
1.967507332098964
 21
0.39861794944045
 72
     1
 10
1.967507332098964
 20
0.39861794944045
 11
1.965118580538248
 21
0.3974235736599217
 72
     1
 10
1.965118580538248
 20
0.3974235736599217
 11
1.962966544042192
 21
0.3962323293606009
 72
     1
 10
1.962966544042192
 20
0.3962323293606009
 11
1.960659803288965
 21
0.3947017891629803
 72
     1
 10
1.960659803288965
 20
0.3947017891629803
 11
1.958231061444994
 21
0.3928857065760103
 72
     1
 10
1.958231061444994
 20
0.3928857065760103
 11
1.95606354555176
 21
0.3912294853105327
 72
     1
 10
1.95606354555176
 20
0.3912294853105327
 11
1.953417691445029
 21
0.3893715454285034
 72
     1
 10
1.953417691445029
 20
0.3893715454285034
 11
1.950674966449557
 21
0.3873342800367259
 72
     1
 10
1.950674966449557
 20
0.3873342800367259
 11
1.950674966449557
 21
0.3935349083285478
 72
     1
 10
1.950674966449557
 20
0.3935349083285478
 11
1.950674966449557
 21
0.396312526422435
 72
     1
 10
1.950674966449557
 20
0.396312526422435
 11
1.950674966449557
 21
0.39075729023449
 72
     1
 10
1.950674966449557
 20
0.39075729023449
 11
1.950674966449557
 21
0.3935349083285478
 72
     1
 10
1.950674966449557
 20
0.3935349083285478
 11
1.950674966449557
 21
0.396312526422435
 72
     1
 10
1.950674966449557
 20
0.396312526422435
 11
1.9478973483555
 21
0.396312526422435
 72
     1
 10
1.9478973483555
 20
0.396312526422435
 11
1.945119730261442
 21
0.396312526422435
 72
     1
 10
1.945119730261442
 20
0.396312526422435
 11
1.942342112167555
 21
0.396312526422435
 72
     1
 10
1.942342112167555
 20
0.396312526422435
 11
1.939564494073497
 21
0.396312526422435
 72
     1
 10
1.939564494073497
 20
0.396312526422435
 11
1.93678687597961
 21
0.396312526422435
 72
     1
 10
1.93678687597961
 20
0.396312526422435
 11
1.93678687597961
 21
0.3935349083285478
 72
     1
 10
1.93678687597961
 20
0.3935349083285478
 11
1.93678687597961
 21
0.39075729023449
 72
     1
 10
1.93678687597961
 20
0.39075729023449
 11
1.93678687597961
 21
0.3240944559788095
 72
     1
 10
1.93678687597961
 20
0.3240944559788095
 11
1.93678687597961
 21
0.3213168378847518
 72
     1
 10
1.93678687597961
 20
0.3213168378847518
 11
1.93678687597961
 21
0.3185392197908646
 97
        1
330
576
 75
     0
 76
     1
 98
        1
 10
-6.623918024059631
 20
-0.1308261527660757
  0
HATCH
  5
56F
330
557
100
AcDbEntity
  8
CONTINUOUS1
 62
     9
100
AcDbHatch
 10
0.0
 20
0.0
 30
0.0
210
0.0
220
0.0
230
1.0
  2
SOLID
 70
     1
 71
     1
 91
        1
 92
        1
 93
       78
 72
     1
 10
1.847903096971979
 20
0.3185392197908646
 11
1.850680715066037
 21
0.3185392197908646
 72
     1
 10
1.850680715066037
 20
0.3185392197908646
 11
1.853458333160094
 21
0.3185392197908646
 72
     1
 10
1.853458333160094
 20
0.3185392197908646
 11
1.856235951253982
 21
0.3185392197908646
 72
     1
 10
1.856235951253982
 20
0.3185392197908646
 11
1.859013569348039
 21
0.3185392197908646
 72
     1
 10
1.859013569348039
 20
0.3185392197908646
 11
1.861791187441927
 21
0.3185392197908646
 72
     1
 10
1.861791187441927
 20
0.3185392197908646
 11
1.861791187441927
 21
0.3213168378847518
 72
     1
 10
1.861791187441927
 20
0.3213168378847518
 11
1.861791187441927
 21
0.3240944559788095
 72
     1
 10
1.861791187441927
 20
0.3240944559788095
 11
1.861791187441927
 21
0.3713139635765974
 72
     1
 10
1.861791187441927
 20
0.3713139635765974
 11
1.861791187441927
 21
0.3740915816706551
 72
     1
 10
1.861791187441927
 20
0.3740915816706551
 11
1.861791187441927
 21
0.3764121066624857
 72
     1
 10
1.861791187441927
 20
0.3764121066624857
 11
1.864568805535984
 21
0.3787302038875286
 72
     1
 10
1.864568805535984
 20
0.3787302038875286
 11
1.867119835595051
 21
0.3809067470338623
 72
     1
 10
1.867119835595051
 20
0.3809067470338623
 11
1.869482417015067
 21
0.3826818394989009
 72
     1
 10
1.869482417015067
 20
0.3826818394989009
 11
1.872408099818333
 21
0.3848664295055646
 72
     1
 10
1.872408099818333
 20
0.3848664295055646
 11
1.874636172254813
 21
0.3862728726654727
 72
     1
 10
1.874636172254813
 20
0.3862728726654727
 11
1.876484787159231
 21
0.3871741628932459
 72
     1
 10
1.876484787159231
 20
0.3871741628932459
 11
1.878456896005932
 21
0.3877239703094806
 72
     1
 10
1.878456896005932
 20
0.3877239703094806
 11
1.881234514099819
 21
0.3879796721404323
 72
     1
 10
1.881234514099819
 20
0.3879796721404323
 11
1.884012132193877
 21
0.3879796721404323
 72
     1
 10
1.884012132193877
 20
0.3879796721404323
 11
1.886789750287764
 21
0.3875908056072608
 72
     1
 10
1.886789750287764
 20
0.3875908056072608
 11
1.889524702656704
 21
0.3864723471903067
 72
     1
 10
1.889524702656704
 20
0.3864723471903067
 11
1.891539477228523
 21
0.3848131875133736
 72
     1
 10
1.891539477228523
 20
0.3848131875133736
 11
1.893464015671927
 21
0.3828455775268371
 72
     1
 10
1.893464015671927
 20
0.3828455775268371
 11
1.895014348074116
 21
0.3807960064739295
 72
     1
 10
1.895014348074116
 20
0.3807960064739295
 11
1.896524765708281
 21
0.3785266344276583
 72
     1
 10
1.896524765708281
 20
0.3785266344276583
 11
1.897552862222401
 21
0.3760636905171855
 72
     1
 10
1.897552862222401
 20
0.3760636905171855
 11
1.897900222663825
 21
0.3740915816706551
 72
     1
 10
1.897900222663825
 20
0.3740915816706551
 11
1.897900222663825
 21
0.3713139635765974
 72
     1
 10
1.897900222663825
 20
0.3713139635765974
 11
1.897900222663825
 21
0.3240944559788095
 72
     1
 10
1.897900222663825
 20
0.3240944559788095
 11
1.897900222663825
 21
0.3213168378847518
 72
     1
 10
1.897900222663825
 20
0.3213168378847518
 11
1.897900222663825
 21
0.3185392197908646
 72
     1
 10
1.897900222663825
 20
0.3185392197908646
 11
1.900677840757712
 21
0.3185392197908646
 72
     1
 10
1.900677840757712
 20
0.3185392197908646
 11
1.90345545885177
 21
0.3185392197908646
 72
     1
 10
1.90345545885177
 20
0.3185392197908646
 11
1.906233076945657
 21
0.3185392197908646
 72
     1
 10
1.906233076945657
 20
0.3185392197908646
 11
1.909010695039714
 21
0.3185392197908646
 72
     1
 10
1.909010695039714
 20
0.3185392197908646
 11
1.911788313133772
 21
0.3185392197908646
 72
     1
 10
1.911788313133772
 20
0.3185392197908646
 11
1.911788313133772
 21
0.3213168378847518
 72
     1
 10
1.911788313133772
 20
0.3213168378847518
 11
1.911788313133772
 21
0.3240944559788095
 72
     1
 10
1.911788313133772
 20
0.3240944559788095
 11
1.911788313133772
 21
0.3740915816706551
 72
     1
 10
1.911788313133772
 20
0.3740915816706551
 11
1.911788313133772
 21
0.3768691997645424
 72
     1
 10
1.911788313133772
 20
0.3768691997645424
 11
1.911510551324315
 21
0.3796468178584296
 72
     1
 10
1.911510551324315
 20
0.3796468178584296
 11
1.910871699162701
 21
0.3824244359524873
 72
     1
 10
1.910871699162701
 20
0.3824244359524873
 11
1.909927309010786
 21
0.3852020540465451
 72
     1
 10
1.909927309010786
 20
0.3852020540465451
 11
1.908482947601815
 21
0.3877019103309753
 72
     1
 10
1.908482947601815
 20
0.3877019103309753
 11
1.906233076945657
 21
0.3898406762634186
 72
     1
 10
1.906233076945657
 20
0.3898406762634186
 11
1.903721294193903
 21
0.3920766850267801
 72
     1
 10
1.903721294193903
 20
0.3920766850267801
 11
1.901013087638123
 21
0.3938452989406192
 72
     1
 10
1.901013087638123
 20
0.3938452989406192
 11
1.898971795146881
 21
0.3953124560483166
 72
     1
 10
1.898971795146881
 20
0.3953124560483166
 11
1.896369153755731
 21
0.3964598354054947
 72
     1
 10
1.896369153755731
 20
0.3964598354054947
 11
1.893614616703903
 21
0.3975734953987744
 72
     1
 10
1.893614616703903
 20
0.3975734953987744
 11
1.89130795538708
 21
0.3984640481231172
 72
     1
 10
1.89130795538708
 20
0.3984640481231172
 11
1.889158525210152
 21
0.3990083828482516
 72
     1
 10
1.889158525210152
 20
0.3990083828482516
 11
1.886761306382741
 21
0.3994741650645897
 72
     1
 10
1.886761306382741
 20
0.3994741650645897
 11
1.884012132193877
 21
0.3994820966067327
 72
     1
 10
1.884012132193877
 20
0.3994820966067327
 11
1.88122438981637
 21
0.3992749623910759
 72
     1
 10
1.88122438981637
 20
0.3992749623910759
 11
1.878623553091504
 21
0.39861794944045
 72
     1
 10
1.878623553091504
 20
0.39861794944045
 11
1.876234801530788
 21
0.3974235736599217
 72
     1
 10
1.876234801530788
 20
0.3974235736599217
 11
1.874082765034561
 21
0.3962323293606009
 72
     1
 10
1.874082765034561
 20
0.3962323293606009
 11
1.871776024281334
 21
0.3947017891629803
 72
     1
 10
1.871776024281334
 20
0.3947017891629803
 11
1.869347282437363
 21
0.3928857065760103
 72
     1
 10
1.869347282437363
 20
0.3928857065760103
 11
1.8671797665443
 21
0.3912294853105327
 72
     1
 10
1.8671797665443
 20
0.3912294853105327
 11
1.864533912437398
 21
0.3893715454285034
 72
     1
 10
1.864533912437398
 20
0.3893715454285034
 11
1.861791187441927
 21
0.3873342800367259
 72
     1
 10
1.861791187441927
 20
0.3873342800367259
 11
1.861791187441927
 21
0.3935349083285478
 72
     1
 10
1.861791187441927
 20
0.3935349083285478
 11
1.861791187441927
 21
0.396312526422435
 72
     1
 10
1.861791187441927
 20
0.396312526422435
 11
1.861791187441927
 21
0.432421561644333
 72
     1
 10
1.861791187441927
 20
0.432421561644333
 11
1.861791187441927
 21
0.4351991797382202
 72
     1
 10
1.861791187441927
 20
0.4351991797382202
 11
1.861791187441927
 21
0.4379767978321075
 72
     1
 10
1.861791187441927
 20
0.4379767978321075
 11
1.859013569348039
 21
0.4379767978321075
 72
     1
 10
1.859013569348039
 20
0.4379767978321075
 11
1.856235951253982
 21
0.4379767978321075
 72
     1
 10
1.856235951253982
 20
0.4379767978321075
 11
1.853458333160094
 21
0.4379767978321075
 72
     1
 10
1.853458333160094
 20
0.4379767978321075
 11
1.850680715066037
 21
0.4379767978321075
 72
     1
 10
1.850680715066037
 20
0.4379767978321075
 11
1.847903096971979
 21
0.4379767978321075
 72
     1
 10
1.847903096971979
 20
0.4379767978321075
 11
1.847903096971979
 21
0.4351991797382202
 72
     1
 10
1.847903096971979
 20
0.4351991797382202
 11
1.847903096971979
 21
0.432421561644333
 72
     1
 10
1.847903096971979
 20
0.432421561644333
 11
1.847903096971979
 21
0.3240944559788095
 72
     1
 10
1.847903096971979
 20
0.3240944559788095
 11
1.847903096971979
 21
0.3213168378847518
 72
     1
 10
1.847903096971979
 20
0.3213168378847518
 11
1.847903096971979
 21
0.3185392197908646
 97
        1
330
575
 75
     0
 76
     1
 98
        1
 10
-6.623918024059631
 20
-0.1308261527660757
  0
HATCH
  5
570
330
557
100
AcDbEntity
  8
CONTINUOUS1
 62
     9
100
AcDbHatch
 10
0.0
 20
0.0
 30
0.0
210
0.0
220
0.0
230
1.0
  2
SOLID
 70
     1
 71
     1
 91
        1
 92
        1
 93
       12
 72
     1
 10
2.047689882598749
 20
0.6638644919422068
 11
2.026127593512317
 21
0.6638644919422068
 72
     1
 10
2.026127593512317
 20
0.6638644919422068
 11
2.026127406012253
 21
0.5568018132491948
 72
     2
 10
2.047689923847382
 20
0.5568015038747939
 40
0.0215625178373483
 50
179.999177932392
 51
269.9998903944058
 73
     1
 72
     1
 10
2.047689882598749
 20
0.5352389860374847
 11
2.16525206565112
 21
0.5352391641624768
 72
     2
 10
2.165252113464067
 20
0.5568015929365722
 40
0.0215624287741484
 50
269.9998729512306
 51
359.9996387857453
 73
     1
 72
     1
 10
2.186814542237787
 20
0.5568014569988696
 11
2.186814898487941
 21
0.6638644919422068
 72
     1
 10
2.186814898487941
 20
0.6638644919422068
 11
2.16525206565112
 21
0.6638644919422068
 72
     1
 10
2.16525206565112
 20
0.6638644919422068
 11
2.16525206565112
 21
0.5675830496674626
 72
     2
 10
2.154470694233568
 20
0.5675829165415133
 40
0.0107813714183743
 50
359.9992925246018
 51
449.9992925333428
 73
     0
 72
     1
 10
2.154470827357872
 20
0.5568015451239608
 11
2.058471120891997
 21
0.5568015451239608
 72
     2
 10
2.058471160267021
 20
0.5675830102922954
 40
0.0107814651684066
 50
90.00020925010334
 51
180.0002092508632
 73
     0
 72
     1
 10
2.047689695098686
 20
0.5675830496674626
 11
2.047689882598749
 21
0.6638644919422068
 97
        1
330
573
 75
     0
 76
     1
 98
        1
 10
-6.623918024059631
 20
-0.1308261527660757
  0
HATCH
  5
571
330
557
100
AcDbEntity
  8
CONTINUOUS1
 62
     9
100
AcDbHatch
 10
0.0
 20
0.0
 30
0.0
210
0.0
220
0.0
230
1.0
  2
SOLID
 70
     1
 71
     1
 91
        2
 92
        1
 93
       11
 72
     2
 10
1.859439987429169
 20
0.6423016656678994
 40
0.021562648149145
 50
90.00000747299615
 51
179.9997683268519
 73
     1
 72
     1
 10
1.837877339280201
 20
0.6423017528555879
 11
1.837877170530109
 21
0.5568018132491948
 72
     2
 10
1.859439857117431
 20
0.5568016726252254
 40
0.0215626865877801
 50
179.9996263378447
 51
269.9998903896797
 73
     1
 72
     1
 10
1.859439815866696
 20
0.5352389860374847
 11
1.986189823671427
 21
0.5352391641624768
 72
     2
 10
1.986190043351474
 20
0.5568016288008568
 40
0.021562464639499
 50
269.9994162661957
 51
311.7040125634689
 73
     1
 72
     1
 10
2.000535176793139
 20
0.5407032739821039
 11
2.007752112757859
 21
0.5352391641624768
 72
     1
 10
2.007752112757859
 20
0.5352391641624768
 11
2.020768165011109
 21
0.5524296310179584
 72
     1
 10
2.020768165011109
 20
0.5524296310179584
 11
2.007752300257923
 21
0.5622850574563363
 72
     1
 10
2.007752300257923
 20
0.5622850574563363
 11
2.007752469008014
 21
0.6423016628555165
 72
     2
 10
1.986189820858957
 20
0.6423016656679872
 40
0.0215626481490576
 50
359.9999925267666
 51
449.9999925267678
 73
     1
 72
     1
 10
1.986189823671427
 20
0.6638643138170442
 11
1.859439984616788
 21
0.6638643138170442
 97
        1
330
574
 92
       16
 93
       10
 72
     2
 10
1.870221492910582
 20
0.6315205108123614
 40
0.0107811520434708
 50
90.00043844291294
 51
179.9999701074038
 73
     1
 72
     1
 10
1.859440340867113
 20
0.6315205164371496
 11
1.859440340867113
 21
0.5675830496674626
 72
     2
 10
1.870221627908248
 20
0.5675828321650959
 40
0.0107812870433294
 50
179.9988441113203
 51
269.9988441346395
 73
     1
 72
     1
 10
1.87022141041027
 20
0.5568015451239608
 11
1.979274912904006
 21
0.5568015451239608
 72
     1
 10
1.979274912904006
 20
0.5568015451239608
 11
1.936536734983437
 21
0.5891612556392834
 72
     1
 10
1.936536734983437
 20
0.5891612556392834
 11
1.949552787236687
 21
0.6063515462445826
 72
     1
 10
1.949552787236687
 20
0.6063515462445826
 11
1.986189823671427
 21
0.5786120318725812
 72
     1
 10
1.986189823671427
 20
0.5786120318725812
 11
1.986189823671427
 21
0.6315204283122289
 72
     2
 10
1.975408587253074
 20
0.631520426437163
 40
0.0107812364183532
 50
0.0000099648460607
 51
90.00000996484372
 73
     1
 72
     1
 10
1.975408585378009
 20
0.6423016628555165
 11
1.87022141041027
 21
0.6423016628555165
 97
        1
330
577
 75
     0
 76
     1
 98
        1
 10
-6.623918024059631
 20
-0.1308261527660757
  0
HATCH
  5
572
330
557
100
AcDbEntity
  8
CONTINUOUS1
 62
     9
100
AcDbHatch
 10
0.0
 20
0.0
 30
0.0
210
0.0
220
0.0
230
1.0
  2
SOLID
 70
     1
 71
     0
 91
        2
 92
        7
 72
     1
 73
     1
 93
       21
 10
2.220103921565996
 20
0.432421561644333
 42
0.0
 10
2.220103921565996
 20
0.4351991797382202
 42
0.0
 10
2.220103921565996
 20
0.4379767978321075
 42
0.0
 10
2.217326303472109
 20
0.4379767978321075
 42
0.0
 10
2.214548685378051
 20
0.4379767978321075
 42
0.0
 10
2.211771067283994
 20
0.4379767978321075
 42
0.0
 10
2.208993449190106
 20
0.4379767978321075
 42
0.0
 10
2.206215831096052
 20
0.4379767978321075
 42
0.0
 10
2.206215831096049
 20
0.4351991797382202
 42
0.0
 10
2.206215831096049
 20
0.432421561644333
 42
0.0
 10
2.206215831096049
 20
0.40186776261038
 42
0.0
 10
2.206215831096049
 20
0.3990901445163222
 42
0.0
 10
2.206215831096049
 20
0.3971180356697919
 42
0.0
 10
2.206215831096049
 20
0.3941013219383648
 42
0.0
 10
2.201629434357208
 20
0.3959268898694769
 42
1.048263601672966
 10
2.180190518556941
 20
0.3185392197908646
 42
0.0
 10
2.214548685378051
 20
0.3185392197908646
 42
0.0
 10
2.217326303472109
 20
0.3185392197908646
 42
0.0
 10
2.220103921565996
 20
0.3185392197908643
 42
0.0
 10
2.220103921565996
 20
0.3213168378847518
 42
0.0
 10
2.220103921565996
 20
0.3240944559788095
 42
0.0
 97
        0
 92
       22
 72
     1
 73
     1
 93
        3
 10
2.206215831096049
 20
0.3829908495624749
 42
0.0
 10
2.206215831096049
 20
0.3296496921667545
 42
0.0
 10
2.184394809861462
 20
0.3296496921667545
 42
-1.076204956628309
 97
        0
 75
     0
 76
     1
 47
0.0005102668735142
 98
        2
 10
2.160923651331266
 20
0.3732541591595107
 10
2.160923651331266
 20
0.3732541591595107
  0
LWPOLYLINE
  5
573
102
{ACAD_REACTORS
330
570
102
}
330
557
100
AcDbEntity
  8
CONTINUOUS1
  6
CONTINUOUS
 62
     9
100
AcDbPolyline
 90
       13
 70
     0
 43
0.0
 10
2.047689882598749
 20
0.6638644919422068
 10
2.026127593512317
 20
0.6638644919422068
 10
2.026127406012253
 20
0.5568018132491948
 42
0.4142172044487012
 10
2.047689882598749
 20
0.5352389860374847
 10
2.16525206565112
 20
0.5352391641624768
 42
0.4142123653311114
 10
2.186814542237787
 20
0.5568014569988696
 10
2.186814898487941
 20
0.6638644919422068
 10
2.16525206565112
 20
0.6638644919422068
 10
2.16525206565112
 20
0.5675830496674626
 42
-0.414213562417775
 10
2.154470827357872
 20
0.5568015451239608
 10
2.058471120891997
 20
0.5568015451239608
 42
-0.4142135623770039
 10
2.047689695098686
 20
0.5675830496674626
 10
2.047689882598749
 20
0.6638644919422068
  0
LWPOLYLINE
  5
574
102
{ACAD_REACTORS
330
571
102
}
330
557
100
AcDbEntity
  8
CONTINUOUS1
  6
CONTINUOUS
 62
     9
100
AcDbPolyline
 90
       12
 70
     0
 43
0.0
 10
1.859439984616788
 20
0.6638643138170442
 42
0.4142123398702456
 10
1.837877339280201
 20
0.6423017528555879
 10
1.837877170530109
 20
0.5568018132491948
 42
0.4142149121937861
 10
1.859439815866696
 20
0.5352389860374847
 10
1.986189823671427
 20
0.5352391641624768
 42
0.1840061449277652
 10
2.000535176793139
 20
0.5407032739821039
 10
2.007752112757859
 20
0.5352391641624768
 10
2.020768165011109
 20
0.5524296310179584
 10
2.007752300257923
 20
0.5622850574563363
 10
2.007752469008014
 20
0.6423016628555165
 42
0.4142135623731064
 10
1.986189823671427
 20
0.6638643138170442
 10
1.859439984616788
 20
0.6638643138170442
  0
LWPOLYLINE
  5
575
102
{ACAD_REACTORS
330
56F
102
}
330
557
100
AcDbEntity
  8
CONTINUOUS1
  6
CONTINUOUS
 62
     9
100
AcDbPolyline
 90
       79
 70
     0
 43
0.0
 10
1.847903096971979
 20
0.3185392197908646
 10
1.850680715066037
 20
0.3185392197908646
 10
1.853458333160094
 20
0.3185392197908646
 10
1.856235951253982
 20
0.3185392197908646
 10
1.859013569348039
 20
0.3185392197908646
 10
1.861791187441927
 20
0.3185392197908646
 10
1.861791187441927
 20
0.3213168378847518
 10
1.861791187441927
 20
0.3240944559788095
 10
1.861791187441927
 20
0.3713139635765974
 10
1.861791187441927
 20
0.3740915816706551
 10
1.861791187441927
 20
0.3764121066624857
 10
1.864568805535984
 20
0.3787302038875286
 10
1.867119835595051
 20
0.3809067470338623
 10
1.869482417015067
 20
0.3826818394989009
 10
1.872408099818333
 20
0.3848664295055646
 10
1.874636172254813
 20
0.3862728726654727
 10
1.876484787159231
 20
0.3871741628932459
 10
1.878456896005932
 20
0.3877239703094806
 10
1.881234514099819
 20
0.3879796721404323
 10
1.884012132193877
 20
0.3879796721404323
 10
1.886789750287764
 20
0.3875908056072608
 10
1.889524702656704
 20
0.3864723471903067
 10
1.891539477228523
 20
0.3848131875133736
 10
1.893464015671927
 20
0.3828455775268371
 10
1.895014348074116
 20
0.3807960064739295
 10
1.896524765708281
 20
0.3785266344276583
 10
1.897552862222401
 20
0.3760636905171855
 10
1.897900222663825
 20
0.3740915816706551
 10
1.897900222663825
 20
0.3713139635765974
 10
1.897900222663825
 20
0.3240944559788095
 10
1.897900222663825
 20
0.3213168378847518
 10
1.897900222663825
 20
0.3185392197908646
 10
1.900677840757712
 20
0.3185392197908646
 10
1.90345545885177
 20
0.3185392197908646
 10
1.906233076945657
 20
0.3185392197908646
 10
1.909010695039714
 20
0.3185392197908646
 10
1.911788313133772
 20
0.3185392197908646
 10
1.911788313133772
 20
0.3213168378847518
 10
1.911788313133772
 20
0.3240944559788095
 10
1.911788313133772
 20
0.3740915816706551
 10
1.911788313133772
 20
0.3768691997645424
 10
1.911510551324315
 20
0.3796468178584296
 10
1.910871699162701
 20
0.3824244359524873
 10
1.909927309010786
 20
0.3852020540465451
 10
1.908482947601815
 20
0.3877019103309753
 10
1.906233076945657
 20
0.3898406762634186
 10
1.903721294193903
 20
0.3920766850267801
 10
1.901013087638123
 20
0.3938452989406192
 10
1.898971795146881
 20
0.3953124560483166
 10
1.896369153755731
 20
0.3964598354054947
 10
1.893614616703903
 20
0.3975734953987744
 10
1.89130795538708
 20
0.3984640481231172
 10
1.889158525210152
 20
0.3990083828482516
 10
1.886761306382741
 20
0.3994741650645897
 10
1.884012132193877
 20
0.3994820966067327
 10
1.88122438981637
 20
0.3992749623910759
 10
1.878623553091504
 20
0.39861794944045
 10
1.876234801530788
 20
0.3974235736599217
 10
1.874082765034561
 20
0.3962323293606009
 10
1.871776024281334
 20
0.3947017891629803
 10
1.869347282437363
 20
0.3928857065760103
 10
1.8671797665443
 20
0.3912294853105327
 10
1.864533912437398
 20
0.3893715454285034
 10
1.861791187441927
 20
0.3873342800367259
 10
1.861791187441927
 20
0.3935349083285478
 10
1.861791187441927
 20
0.396312526422435
 10
1.861791187441927
 20
0.432421561644333
 10
1.861791187441927
 20
0.4351991797382202
 10
1.861791187441927
 20
0.4379767978321075
 10
1.859013569348039
 20
0.4379767978321075
 10
1.856235951253982
 20
0.4379767978321075
 10
1.853458333160094
 20
0.4379767978321075
 10
1.850680715066037
 20
0.4379767978321075
 10
1.847903096971979
 20
0.4379767978321075
 10
1.847903096971979
 20
0.4351991797382202
 10
1.847903096971979
 20
0.432421561644333
 10
1.847903096971979
 20
0.3240944559788095
 10
1.847903096971979
 20
0.3213168378847518
 10
1.847903096971979
 20
0.3185392197908646
  0
LWPOLYLINE
  5
576
102
{ACAD_REACTORS
330
56E
102
}
330
557
100
AcDbEntity
  8
CONTINUOUS1
  6
CONTINUOUS
 62
     9
100
AcDbPolyline
 90
       79
 70
     0
 43
0.0
 10
1.93678687597961
 20
0.3185392197908646
 10
1.939564494073497
 20
0.3185392197908646
 10
1.942342112167555
 20
0.3185392197908646
 10
1.945119730261442
 20
0.3185392197908646
 10
1.9478973483555
 20
0.3185392197908646
 10
1.950674966449557
 20
0.3185392197908646
 10
1.950674966449557
 20
0.3213168378847518
 10
1.950674966449557
 20
0.3240944559788095
 10
1.950674966449557
 20
0.3713139635765974
 10
1.950674966449557
 20
0.3740915816706551
 10
1.950674966449557
 20
0.3764121066624857
 10
1.953452584543445
 20
0.3787302038875286
 10
1.956003614602682
 20
0.3809067470338623
 10
1.958366196022527
 20
0.3826818394989009
 10
1.961291878825964
 20
0.3848664295055646
 10
1.963519951262444
 20
0.3862728726654727
 10
1.965368566166691
 20
0.3871741628932459
 10
1.967340675013392
 20
0.3877239703094806
 10
1.97011829310745
 20
0.3879796721404323
 10
1.972895911201337
 20
0.3879796721404323
 10
1.975673529295395
 20
0.3875908056072608
 10
1.978408481664164
 20
0.3864723471903067
 10
1.980423256236154
 20
0.3848131875133736
 10
1.982347794679387
 20
0.3828455775268371
 10
1.983898127081747
 20
0.3807960064739295
 10
1.985408544715742
 20
0.3785266344276583
 10
1.986436641229861
 20
0.3760636905171855
 10
1.986784001671285
 20
0.3740915816706551
 10
1.986784001671285
 20
0.3713139635765974
 10
1.986784001671285
 20
0.3240944559788095
 10
1.986784001671285
 20
0.3213168378847518
 10
1.986784001671285
 20
0.3185392197908646
 10
1.989561619765343
 20
0.3185392197908646
 10
1.99233923785923
 20
0.3185392197908646
 10
1.995116855953288
 20
0.3185392197908646
 10
1.997894474047175
 20
0.3185392197908646
 10
2.000672092141233
 20
0.3185392197908646
 10
2.000672092141233
 20
0.3213168378847518
 10
2.000672092141233
 20
0.3240944559788095
 10
2.000672092141233
 20
0.3740915816706551
 10
2.000672092141233
 20
0.3768691997645424
 10
2.000394330331776
 20
0.3796468178584296
 10
1.999755478170161
 20
0.3824244359524873
 10
1.998811088018246
 20
0.3852020540465451
 10
1.997366726609445
 20
0.3877019103309753
 10
1.995116855953288
 20
0.3898406762634186
 10
1.992605073201364
 20
0.3920766850267801
 10
1.989896866645583
 20
0.3938452989406192
 10
1.987855574154341
 20
0.3953124560483166
 10
1.985252932763362
 20
0.3964598354054947
 10
1.982498395711534
 20
0.3975734953987744
 10
1.980191734394711
 20
0.3984640481231172
 10
1.978042304217613
 20
0.3990083828482516
 10
1.975645085390201
 20
0.3994741650645897
 10
1.972895911201337
 20
0.3994820966067327
 10
1.970108168823831
 20
0.3992749623910759
 10
1.967507332098964
 20
0.39861794944045
 10
1.965118580538248
 20
0.3974235736599217
 10
1.962966544042192
 20
0.3962323293606009
 10
1.960659803288965
 20
0.3947017891629803
 10
1.958231061444994
 20
0.3928857065760103
 10
1.95606354555176
 20
0.3912294853105327
 10
1.953417691445029
 20
0.3893715454285034
 10
1.950674966449557
 20
0.3873342800367259
 10
1.950674966449557
 20
0.3935349083285478
 10
1.950674966449557
 20
0.396312526422435
 10
1.950674966449557
 20
0.39075729023449
 10
1.950674966449557
 20
0.3935349083285478
 10
1.950674966449557
 20
0.396312526422435
 10
1.9478973483555
 20
0.396312526422435
 10
1.945119730261442
 20
0.396312526422435
 10
1.942342112167555
 20
0.396312526422435
 10
1.939564494073497
 20
0.396312526422435
 10
1.93678687597961
 20
0.396312526422435
 10
1.93678687597961
 20
0.3935349083285478
 10
1.93678687597961
 20
0.39075729023449
 10
1.93678687597961
 20
0.3240944559788095
 10
1.93678687597961
 20
0.3213168378847518
 10
1.93678687597961
 20
0.3185392197908646
  0
LWPOLYLINE
  5
577
102
{ACAD_REACTORS
330
571
102
}
330
557
100
AcDbEntity
  8
CONTINUOUS1
  6
CONTINUOUS
 62
     9
100
AcDbPolyline
 90
       11
 70
     0
 43
0.0
 10
1.87022141041027
 20
0.6423016628555165
 42
0.4142111682669343
 10
1.859440340867113
 20
0.6315205164371496
 10
1.859440340867113
 20
0.5675830496674626
 42
0.4142135624923141
 10
1.87022141041027
 20
0.5568015451239608
 10
1.979274912904006
 20
0.5568015451239608
 10
1.936536734983437
 20
0.5891612556392834
 10
1.949552787236687
 20
0.6063515462445826
 10
1.986189823671427
 20
0.5786120318725812
 10
1.986189823671427
 20
0.6315204283122289
 42
0.414213562373068
 10
1.975408585378009
 20
0.6423016628555165
 10
1.87022141041027
 20
0.6423016628555165
  0
LWPOLYLINE
  5
578
330
557
100
AcDbEntity
  8
CONTINUOUS1
 62
     9
100
AcDbPolyline
 90
        3
 70
     1
 43
0.0
 10
2.206215831096049
 20
0.3296496921667545
 10
2.206215831096049
 20
0.3829908495624754
 42
1.076204956628191
 10
2.184394809861462
 20
0.3296496921667545
  0
LWPOLYLINE
  5
579
330
557
100
AcDbEntity
  8
CONTINUOUS1
  6
CONTINUOUS
 62
     9
100
AcDbPolyline
 90
       22
 70
     0
 43
0.0
 10
2.201629434357208
 20
0.3959268898694763
 42
1.048263601673104
 10
2.180190518556944
 20
0.3185392197908646
 10
2.214548685378051
 20
0.3185392197908646
 10
2.217326303472109
 20
0.3185392197908646
 10
2.220103921565996
 20
0.3185392197908646
 10
2.220103921565996
 20
0.3213168378847518
 10
2.220103921565996
 20
0.3240944559788095
 10
2.220103921565996
 20
0.432421561644333
 10
2.220103921565996
 20
0.4351991797382202
 10
2.220103921565996
 20
0.4379767978321075
 10
2.217326303472109
 20
0.4379767978321075
 10
2.214548685378051
 20
0.4379767978321075
 10
2.211771067283994
 20
0.4379767978321075
 10
2.208993449190106
 20
0.4379767978321075
 10
2.206215831096049
 20
0.4379767978321075
 10
2.206215831096049
 20
0.4351991797382202
 10
2.206215831096049
 20
0.432421561644333
 10
2.206215831096049
 20
0.40186776261038
 10
2.206215831096049
 20
0.3990901445163222
 10
2.206215831096049
 20
0.3971180356697919
 10
2.206215831096049
 20
0.3941013219383653
 10
2.200684753003745
 20
0.3963029105415221
  0
LWPOLYLINE
  5
57A
102
{ACAD_REACTORS
330
56B
102
}
330
557
100
AcDbEntity
  8
CONTINUOUS1
  6
CONTINUOUS
 62
     9
100
AcDbPolyline
 90
       21
 70
     0
 43
0.0
 10
2.114554433994531
 20
0.3185392197908646
 10
2.117332052088588
 20
0.3185392197908646
 10
2.120109670182646
 20
0.3185392197908646
 10
2.122887288276533
 20
0.3185392197908646
 10
2.125664906370591
 20
0.3185392197908646
 10
2.128442524464478
 20
0.3185392197908646
 10
2.128442524464478
 20
0.3213168378847518
 10
2.128442524464478
 20
0.3240944559788095
 10
2.128442524464478
 20
0.39075729023449
 10
2.128442524464478
 20
0.3935349083285478
 10
2.128443163460961
 20
0.396312526422435
 10
2.125664906370591
 20
0.396312526422435
 10
2.122887288276533
 20
0.396312526422435
 10
2.120109670182646
 20
0.396312526422435
 10
2.117332052088588
 20
0.396312526422435
 10
2.114554433994531
 20
0.396312526422435
 10
2.114554433994531
 20
0.3935349083285478
 10
2.114554433994531
 20
0.39075729023449
 10
2.114554433994531
 20
0.3240944559788095
 10
2.114554433994531
 20
0.3213168378847518
 10
2.114554433994531
 20
0.3185392197908646
  0
LWPOLYLINE
  5
57B
102
{ACAD_REACTORS
330
56D
102
}
330
557
100
AcDbEntity
  8
CONTINUOUS1
 62
     9
100
AcDbPolyline
 90
       18
 70
     1
 43
0.0
 10
2.038695210178193
 20
0.3739249696649272
 42
-0.0075148293555971
 10
2.039356013682695
 20
0.3758094905988973
 42
-0.004657993094582
 10
2.04012694049155
 20
0.3774326474991771
 42
-0.0194573042781228
 10
2.04122312161596
 20
0.3793376189554469
 42
-0.025588215895386
 10
2.042869643316212
 20
0.3815052047880845
 42
-0.0513535452749696
 10
2.045993086639416
 20
0.3844411686669678
 42
-0.0711488595792178
 10
2.05029649225165
 20
0.387030374336121
 42
-0.0589617480196389
 10
2.054368528547261
 20
0.388163142544784
 42
-0.055567443413236
 10
2.059090479130848
 20
0.3885472203085105
 42
-0.0505831829207604
 10
2.064047301410798
 20
0.3881580670007456
 42
-0.0805511158347094
 10
2.069747668259342
 20
0.386212311056966
 42
-0.0997279791482863
 10
2.074247886376642
 20
0.3821694970928324
 42
-0.05798586112659
 10
2.07633439185648
 20
0.3782279079159712
 42
-0.0542300556945522
 10
2.077638444514636
 20
0.3736673778522577
 42
-0.0393615860447316
 10
2.078265858667439
 20
0.3672377124287327
 10
2.037441464426283
 20
0.3672377124287327
 42
-0.0115879268951182
 10
2.037725560475539
 20
0.3695945556602855
 42
-0.0015814549261624
 10
2.038127018079851
 20
0.3718162665023788
 42
-0.0028557092809637
  0
LWPOLYLINE
  5
57C
102
{ACAD_REACTORS
330
56D
102
}
330
557
100
AcDbEntity
  8
CONTINUOUS1
 62
     9
100
AcDbPolyline
 90
       47
 70
     1
 43
0.0
 10
2.043762176988739
 20
0.3371934049870338
 42
-0.0441414060654578
 10
2.041222399913497
 20
0.3406137919386656
 42
-0.0277319653937625
 10
2.040074001493767
 20
0.342908764392917
 42
-0.0164279047561354
 10
2.03912434719442
 20
0.3453802682993233
 42
-0.0066863653619568
 10
2.038383944154166
 20
0.3480745345536893
 42
-0.0233064481414024
 10
2.037863384418049
 20
0.3511569156956971
 42
-0.0386937426355895
 10
2.037439214412732
 20
0.3572253591981966
 10
2.09083328806415
 20
0.3572253591981966
 10
2.09083328806415
 20
0.367418047889942
 42
0.1310126142130034
 10
2.086597191819212
 20
0.384827874269718
 42
0.1175696112009137
 10
2.077965163461872
 20
0.3945709905457311
 42
0.1103270754359441
 10
2.066615628186159
 20
0.3987237922934814
 42
0.0651926395407652
 10
2.059102557033643
 20
0.3992029596881825
 42
0.0935138111535395
 10
2.048012240298962
 20
0.3974214224988377
 42
0.0771718076448178
 10
2.040894364920664
 20
0.3939838910158646
 42
0.0650775313207389
 10
2.035397751656748
 20
0.3895585675142574
 42
0.0516650400356126
 10
2.030723836739614
 20
0.3836759482660459
 42
0.0469242136237456
 10
2.028122290424708
 20
0.3788161200391191
 42
0.051223632580995
 10
2.026595295387071
 20
0.3746909211984648
 42
0.037832980863087
 10
2.02519517139601
 20
0.3691379050324035
 42
0.0380040356892352
 10
2.024403782199872
 20
0.3632512380642088
 42
0.0396963751324013
 10
2.024403782199872
 20
0.3535837675287898
 42
0.0477329049617882
 10
2.025940180595942
 20
0.3438434486300826
 42
0.0632736306522388
 10
2.027823357022132
 20
0.3384198641380185
 42
0.0887240198666166
 10
2.03298350835573
 20
0.3301577047572555
 42
0.0593249496237894
 10
2.038147862544949
 20
0.3253225760990977
 42
0.0586814778487906
 10
2.04445082971765
 20
0.321706383342701
 42
0.039275593781097
 10
2.049756446549199
 20
0.3198508322162757
 42
0.0294048595279412
 10
2.054845807362514
 20
0.3187611372579231
 42
0.0245538255625254
 10
2.060277276366523
 20
0.3182910719351076
 42
0.0484050884053723
 10
2.069164787393422
 20
0.318538586832347
 42
0.0313804255658969
 10
2.076093852673157
 20
0.3199276859149341
 42
0.0210229524573495
 10
2.081421799827726
 20
0.3215361459892283
 42
0.0098439804496088
 10
2.089473324692026
 20
0.3247109995190845
 10
2.089473324692026
 20
0.3403736793267176
 42
-0.1158714317854296
 10
2.088714348426808
 20
0.3389070845880729
 42
-0.0273968376187686
 10
2.085939360030554
 20
0.3368770470617056
 42
-0.0245127629396402
 10
2.083474088120656
 20
0.3353916503899091
 42
-0.0174018213192927
 10
2.080637160672413
 20
0.3339310062675627
 42
-0.0303578783463293
 10
2.075349268004035
 20
0.3316766063780965
 42
-0.0163288525489418
 10
2.071577587289514
 20
0.3305939790356552
 42
-0.0174430116847887
 10
2.069355720146038
 20
0.33012803560564
 42
-0.0109219578339942
 10
2.067051578922619
 20
0.329799142463799
 42
-0.0520451680420305
 10
2.059067236066457
 20
0.329799142463799
 42
-0.0139513426612014
 10
2.057268456374604
 20
0.3300115523971959
 42
-0.0578723374760443
 10
2.051826841083116
 20
0.3315192009325761
 42
-0.0508775714496942
 10
2.047803880554656
 20
0.3335955965084172
 42
-0.061605978241212
  0
CIRCLE
  5
57D
102
{ACAD_REACTORS
330
56B
102
}
330
557
100
AcDbEntity
  8
CONTINUOUS1
 62
     9
100
AcDbCircle
 10
2.12149847922959
 20
0.4213110892682726
 30
0.0
 40
0.0083328542819542
  0
LWPOLYLINE
  5
57E
102
{ACAD_REACTORS
330
56C
102
}
330
557
100
AcDbEntity
  8
CONTINUOUS1
 62
     9
100
AcDbPolyline
 90
       18
 70
     1
 43
0.0
 10
2.258394368401841
 20
0.3739249696649272
 42
-0.0075148293555971
 10
2.259055171906343
 20
0.3758094905988973
 42
-0.004657993094582
 10
2.259826098715198
 20
0.3774326474991771
 42
-0.0194573042781228
 10
2.260922279839608
 20
0.3793376189554469
 42
-0.025588215895386
 10
2.26256880153986
 20
0.3815052047880845
 42
-0.0513535452749696
 10
2.265692244863064
 20
0.3844411686669678
 42
-0.0711488595792178
 10
2.269995650475298
 20
0.387030374336121
 42
-0.0589617480196389
 10
2.274067686770738
 20
0.388163142544784
 42
-0.055567443413236
 10
2.278789637354496
 20
0.3885472203085105
 42
-0.0505831829207604
 10
2.283746459634446
 20
0.3881580670007456
 42
-0.0805511158347094
 10
2.289446826482819
 20
0.386212311056966
 42
-0.0997279791482863
 10
2.29394704460012
 20
0.3821694970928324
 42
-0.05798586112659
 10
2.296033550079958
 20
0.3782279079159712
 42
-0.0542300556945522
 10
2.297337602738284
 20
0.3736673778522577
 42
-0.0393615860447316
 10
2.297965016891087
 20
0.3672377124287327
 10
2.257140622649931
 20
0.3672377124287327
 42
-0.0115879268951182
 10
2.257424718699017
 20
0.3695945556602855
 42
-0.0015814549261624
 10
2.257826176303499
 20
0.3718162665023788
 42
-0.0028557092809637
  0
LWPOLYLINE
  5
57F
102
{ACAD_REACTORS
330
56C
102
}
330
557
100
AcDbEntity
  8
CONTINUOUS1
 62
     9
100
AcDbPolyline
 90
       47
 70
     1
 43
0.0
 10
2.263461335212387
 20
0.3371934049870338
 42
-0.0441414060654578
 10
2.260921558137145
 20
0.3406137919386656
 42
-0.0277319653937625
 10
2.259773159717415
 20
0.342908764392917
 42
-0.0164279047561354
 10
2.258823505418067
 20
0.3453802682993233
 42
-0.0066863653619568
 10
2.258083102377813
 20
0.3480745345536893
 42
-0.0233064481414024
 10
2.257562542641696
 20
0.3511569156956971
 42
-0.0386937426355895
 10
2.257138372636379
 20
0.3572253591981966
 10
2.310532446287798
 20
0.3572253591981966
 10
2.310532446287798
 20
0.367418047889942
 42
0.1310126142130034
 10
2.30629635004286
 20
0.384827874269718
 42
0.1175696112009137
 10
2.29766432168552
 20
0.3945709905457311
 42
0.1103270754359441
 10
2.286314786409807
 20
0.3987237922934814
 42
0.0651926395407652
 10
2.278801715257291
 20
0.3992029596881825
 42
0.0935138111535395
 10
2.26771139852261
 20
0.3974214224988377
 42
0.0771718076448178
 10
2.260593523144311
 20
0.3939838910158646
 42
0.0650775313207389
 10
2.255096909880396
 20
0.3895585675142574
 42
0.0516650400356126
 10
2.250422994963262
 20
0.3836759482660459
 42
0.0469242136237456
 10
2.247821448648355
 20
0.3788161200391191
 42
0.051223632580995
 10
2.246294453610719
 20
0.3746909211984648
 42
0.037832980863087
 10
2.244894329619658
 20
0.3691379050324035
 42
0.0380040356892352
 10
2.24410294042352
 20
0.3632512380642088
 42
0.0396963751324013
 10
2.24410294042352
 20
0.3535837675287898
 42
0.0477329049617882
 10
2.245639338819589
 20
0.3438434486300826
 42
0.0632736306522388
 10
2.24752251524578
 20
0.3384198641380185
 42
0.0887240198666166
 10
2.252682666579378
 20
0.3301577047572555
 42
0.0593249496237894
 10
2.257847020768597
 20
0.3253225760990977
 42
0.0586814778487906
 10
2.264149987941298
 20
0.321706383342701
 42
0.039275593781097
 10
2.269455604772847
 20
0.3198508322162757
 42
0.0294048595279412
 10
2.274544965586162
 20
0.3187611372579231
 42
0.0245538255625254
 10
2.279976434590171
 20
0.3182910719351076
 42
0.0484050884053723
 10
2.288863945616899
 20
0.318538586832347
 42
0.0313804255658969
 10
2.295793010896804
 20
0.3199276859149341
 42
0.0210229524573495
 10
2.301120958051374
 20
0.3215361459892283
 42
0.0098439804496088
 10
2.309172482915673
 20
0.3247109995190845
 10
2.309172482915673
 20
0.3403736793267176
 42
-0.1158714317854296
 10
2.308413506650456
 20
0.3389070845880729
 42
-0.0273968376187686
 10
2.305638518254202
 20
0.3368770470617056
 42
-0.0245127629396402
 10
2.303173246344304
 20
0.3353916503899091
 42
-0.0174018213192927
 10
2.300336318896061
 20
0.3339310062675627
 42
-0.0303578783463293
 10
2.295048426227683
 20
0.3316766063780965
 42
-0.0163288525489418
 10
2.291276745513162
 20
0.3305939790356552
 42
-0.0174430116847887
 10
2.289054878369686
 20
0.33012803560564
 42
-0.0109219578339942
 10
2.286750737146267
 20
0.329799142463799
 42
-0.0520451680420305
 10
2.278766394290105
 20
0.329799142463799
 42
-0.0139513426612014
 10
2.276967614598081
 20
0.3300115523971959
 42
-0.0578723374760443
 10
2.271525999306593
 20
0.3315192009325761
 42
-0.0508775714496942
 10
2.267503038778134
 20
0.3335955965084172
 42
-0.061605978241212
  0
LWPOLYLINE
  5
580
102
{ACAD_REACTORS
330
569
102
}
330
557
100
AcDbEntity
  8
CONTINUOUS1
  6
CONTINUOUS
 62
     9
100
AcDbPolyline
 90
        4
 70
     0
 43
0.0
 10
2.278033314329977
 20
0.6359049480514618
 10
2.315470001287028
 20
0.5783643742108216
 10
2.240596983623252
 20
0.578364196085659
 10
2.278033126829914
 20
0.635904589926327
  0
HATCH
  5
581
330
557
100
AcDbEntity
  8
CONTINUOUS1
 62
     9
100
AcDbHatch
 10
0.0
 20
0.0
 30
0.0
210
0.0
220
0.0
230
1.0
  2
SOLID
 70
     1
 71
     1
 91
        1
 92
        1
 93
       79
 72
     1
 10
2.768100195328234
 20
0.3193447290382215
 11
2.770072304174934
 21
0.3185392197908646
 72
     1
 10
2.770072304174934
 20
0.3185392197908646
 11
2.776853223288274
 21
0.3177266059119579
 72
     1
 10
2.776853223288274
 20
0.3177266059119579
 11
2.783960394644882
 21
0.3185392197908646
 72
     1
 10
2.783960394644882
 20
0.3185392197908646
 11
2.78673801273894
 21
0.3190948244196652
 72
     1
 10
2.78673801273894
 20
0.3190948244196652
 11
2.788710121585641
 21
0.3197586133924238
 72
     1
 10
2.788710121585641
 20
0.3197586133924238
 11
2.790321140080184
 21
0.3205113286375654
 72
     1
 10
2.790321140080184
 20
0.3205113286375654
 11
2.792293248926885
 21
0.3213168378847518
 72
     1
 10
2.792293248926885
 20
0.3213168378847518
 11
2.795070867020772
 21
0.3223769226657969
 72
     1
 10
2.795070867020772
 20
0.3223769226657969
 11
2.79784848511483
 21
0.323705589445638
 72
     1
 10
2.79784848511483
 20
0.323705589445638
 11
2.79784848511483
 21
0.3240944559788095
 72
     1
 10
2.79784848511483
 20
0.3240944559788095
 11
2.79784848511483
 21
0.3268720740728673
 72
     1
 10
2.79784848511483
 20
0.3268720740728673
 11
2.79784848511483
 21
0.3296496921667545
 72
     1
 10
2.79784848511483
 20
0.3296496921667545
 11
2.79784848511483
 21
0.3324273102608122
 72
     1
 10
2.79784848511483
 20
0.3324273102608122
 11
2.79784848511483
 21
0.3348160618216985
 72
     1
 10
2.79784848511483
 20
0.3348160618216985
 11
2.795070867020772
 21
0.3340302206436268
 72
     1
 10
2.795070867020772
 20
0.3340302206436268
 11
2.792365821896428
 21
0.3330627471016219
 72
     1
 10
2.792365821896428
 20
0.3330627471016219
 11
2.789656082622375
 21
0.3319722328952826
 72
     1
 10
2.789656082622375
 20
0.3319722328952826
 11
2.787543521986126
 21
0.3310528956835701
 72
     1
 10
2.787543521986126
 20
0.3310528956835701
 11
2.785932503491583
 21
0.3304552014141114
 72
     1
 10
2.785932503491583
 20
0.3304552014141114
 11
2.783960394644882
 21
0.3296496921667545
 72
     1
 10
2.783960394644882
 20
0.3296496921667545
 11
2.781182776550995
 21
0.3294142968159695
 72
     1
 10
2.781182776550995
 20
0.3294142968159695
 11
2.778405158456937
 21
0.3296496921667545
 72
     1
 10
2.778405158456937
 20
0.3296496921667545
 11
2.776433049610236
 21
0.3304552014141114
 72
     1
 10
2.776433049610236
 20
0.3304552014141114
 11
2.774670597445183
 21
0.3314126783258194
 72
     1
 10
2.774670597445183
 20
0.3314126783258194
 11
2.772849922268992
 21
0.3324273102608122
 72
     1
 10
2.772849922268992
 20
0.3324273102608122
 11
2.771309634063275
 21
0.3337080859405437
 72
     1
 10
2.771309634063275
 20
0.3337080859405437
 11
2.770072304174934
 21
0.33520492835487
 72
     1
 10
2.770072304174934
 20
0.33520492835487
 11
2.769017502196309
 21
0.3370752134098898
 72
     1
 10
2.769017502196309
 20
0.3370752134098898
 11
2.768100195328234
 21
0.3387880556961141
 72
     1
 10
2.768100195328234
 20
0.3387880556961141
 11
2.767294686081047
 21
0.3407601645426444
 72
     1
 10
2.767294686081047
 20
0.3407601645426444
 11
2.767294686081047
 21
0.3435377826367021
 72
     1
 10
2.767294686081047
 20
0.3435377826367021
 11
2.767294686081047
 21
0.3796468178584296
 72
     1
 10
2.767294686081047
 20
0.3796468178584296
 11
2.767294686081047
 21
0.3824244359524873
 72
     1
 10
2.767294686081047
 20
0.3824244359524873
 11
2.767294686081047
 21
0.3852020540465451
 72
     1
 10
2.767294686081047
 20
0.3852020540465451
 11
2.770072304174934
 21
0.3852020540465451
 72
     1
 10
2.770072304174934
 20
0.3852020540465451
 11
2.772849922268992
 21
0.3852020540465451
 72
     1
 10
2.772849922268992
 20
0.3852020540465451
 11
2.78673801273894
 21
0.3852020540465451
 72
     1
 10
2.78673801273894
 20
0.3852020540465451
 11
2.789515630832827
 21
0.3852020540465451
 72
     1
 10
2.789515630832827
 20
0.3852020540465451
 11
2.792293248926885
 21
0.3852020540465451
 72
     1
 10
2.792293248926885
 20
0.3852020540465451
 11
2.792293248926885
 21
0.3879796721404323
 72
     1
 10
2.792293248926885
 20
0.3879796721404323
 11
2.792293248926885
 21
0.39075729023449
 72
     1
 10
2.792293248926885
 20
0.39075729023449
 11
2.792293248926885
 21
0.3935349083285478
 72
     1
 10
2.792293248926885
 20
0.3935349083285478
 11
2.792293248926885
 21
0.396312526422435
 72
     1
 10
2.792293248926885
 20
0.396312526422435
 11
2.789515630832827
 21
0.396312526422435
 72
     1
 10
2.789515630832827
 20
0.396312526422435
 11
2.78673801273894
 21
0.396312526422435
 72
     1
 10
2.78673801273894
 20
0.396312526422435
 11
2.772849922268992
 21
0.396312526422435
 72
     1
 10
2.772849922268992
 20
0.396312526422435
 11
2.770072304174934
 21
0.396312526422435
 72
     1
 10
2.770072304174934
 20
0.396312526422435
 11
2.767294686081047
 21
0.396312526422435
 72
     1
 10
2.767294686081047
 20
0.396312526422435
 11
2.767294686081047
 21
0.3990901445163222
 72
     1
 10
2.767294686081047
 20
0.3990901445163222
 11
2.767294686081047
 21
0.40186776261038
 72
     1
 10
2.767294686081047
 20
0.40186776261038
 11
2.767294686081047
 21
0.4046453807044377
 72
     1
 10
2.767294686081047
 20
0.4046453807044377
 11
2.767294686081047
 21
0.4074229987983249
 72
     1
 10
2.767294686081047
 20
0.4074229987983249
 11
2.767294686081047
 21
0.4101951770153965
 72
     1
 10
2.767294686081047
 20
0.4101951770153965
 11
2.765072591605903
 21
0.4082562842266957
 72
     1
 10
2.765072591605903
 20
0.4082562842266957
 11
2.762850497130589
 21
0.4063119515608383
 72
     1
 10
2.762850497130589
 20
0.4063119515608383
 11
2.749517930279555
 21
0.3946459555660344
 72
     1
 10
2.749517930279555
 20
0.3946459555660344
 11
2.747295835804241
 21
0.392701622900177
 72
     1
 10
2.747295835804241
 20
0.392701622900177
 11
2.745037428605176
 21
0.390774564389972
 72
     1
 10
2.745037428605176
 20
0.390774564389972
 11
2.742784501548531
 21
0.3888087685731994
 72
     1
 10
2.742784501548531
 20
0.3888087685731994
 11
2.740784200988546
 21
0.3870634024897304
 72
     1
 10
2.740784200988546
 20
0.3870634024897304
 11
2.73865097726642
 21
0.3852020540465451
 72
     1
 10
2.73865097726642
 20
0.3852020540465451
 11
2.74229612323521
 21
0.3852020540465451
 72
     1
 10
2.74229612323521
 20
0.3852020540465451
 11
2.745073741329097
 21
0.3852020540465451
 72
     1
 10
2.745073741329097
 20
0.3852020540465451
 11
2.747851359423155
 21
0.3852020540465451
 72
     1
 10
2.747851359423155
 20
0.3852020540465451
 11
2.750628977517042
 21
0.3852020540465451
 72
     1
 10
2.750628977517042
 20
0.3852020540465451
 11
2.7534065956111
 21
0.3852020540465451
 72
     1
 10
2.7534065956111
 20
0.3852020540465451
 11
2.7534065956111
 21
0.3824244359524873
 72
     1
 10
2.7534065956111
 20
0.3824244359524873
 11
2.7534065956111
 21
0.3796468178584296
 72
     1
 10
2.7534065956111
 20
0.3796468178584296
 11
2.7534065956111
 21
0.3379825464487572
 72
     1
 10
2.7534065956111
 20
0.3379825464487572
 11
2.7534065956111
 21
0.33520492835487
 72
     1
 10
2.7534065956111
 20
0.33520492835487
 11
2.753795462144271
 21
0.3324273102608122
 72
     1
 10
2.753795462144271
 20
0.3324273102608122
 11
2.754795404658043
 21
0.3296496921667545
 72
     1
 10
2.754795404658043
 20
0.3296496921667545
 11
2.756573080238158
 21
0.3272609406060388
 72
     1
 10
2.756573080238158
 20
0.3272609406060388
 11
2.758810686828073
 21
0.3252801639712293
 72
     1
 10
2.758810686828073
 20
0.3252801639712293
 11
2.760933940645745
 21
0.323705589445638
 72
     1
 10
2.760933940645745
 20
0.323705589445638
 11
2.762735804659516
 21
0.322316540818179
 72
     1
 10
2.762735804659516
 20
0.322316540818179
 11
2.764517067986989
 21
0.3213168378847518
 72
     1
 10
2.764517067986989
 20
0.3213168378847518
 11
2.766384493876135
 21
0.3202550358792001
 72
     1
 10
2.766384493876135
 20
0.3202550358792001
 11
2.768100195328234
 21
0.3193447290382215
 97
        1
330
590
 75
     0
 76
     1
 98
        1
 10
-6.623918024059631
 20
-0.1308261527660757
  0
HATCH
  5
582
330
557
100
AcDbEntity
  8
CONTINUOUS1
 62
     9
100
AcDbHatch
 10
0.0
 20
0.0
 30
0.0
210
0.0
220
0.0
230
1.0
  2
SOLID
 70
     1
 71
     1
 91
        1
 92
        1
 93
        4
 72
     1
 10
2.728340921353581
 20
0.3820863083685713
 11
2.728340921353581
 21
0.3931967807444612
 72
     2
 10
2.706296461134867
 20
0.3584765545696773
 40
0.041127269930821
 50
57.58784372121546
 51
302.4121562787845
 73
     1
 72
     1
 10
2.728340921353581
 20
0.3237563283948935
 11
2.728340921353581
 21
0.3348668007707834
 72
     2
 10
2.710219154518597
 20
0.3584765545696773
 40
0.0297627100188458
 50
52.49180531393238
 51
307.5081946860675
 73
     0
 97
        1
330
591
 75
     0
 76
     1
 98
        1
 10
-6.623918024059631
 20
-0.1308261527660757
  0
HATCH
  5
583
330
557
100
AcDbEntity
  8
CONTINUOUS1
 62
     9
100
AcDbHatch
 10
0.0
 20
0.0
 30
0.0
210
0.0
220
0.0
230
1.0
  2
SOLID
 70
     1
 71
     1
 91
        2
 92
       16
 93
       18
 72
     2
 10
2.660106775440887
 20
0.3528851545616271
 40
0.0664396543383199
 50
198.4619958207183
 51
200.1842354247361
 73
     0
 72
     2
 10
2.685247637907941
 20
0.3352454129199108
 40
0.096445586517071
 50
204.8718608834226
 51
205.9393865440841
 73
     0
 72
     2
 10
2.623533366964867
 20
0.3643060230231959
 40
0.0282500412151287
 50
207.6881291807204
 51
212.1468522298009
 73
     0
 72
     2
 10
2.621601394969284
 20
0.3643452262975984
 40
0.0266120055644413
 50
214.289143935524
 51
220.152251626646
 73
     0
 72
     2
 10
2.617077869529618
 20
0.3678076991082785
 40
0.0209235948276609
 50
220.892661179859
 51
232.6516971443595
 73
     0
 72
     2
 10
2.615587881266414
 20
0.3706911836161677
 40
0.0177364140530899
 50
230.8268348175522
 51
247.1055208447452
 73
     0
 72
     2
 10
2.61551009202811
 20
0.370391197006481
 40
0.0179834923776296
 50
247.7056716281972
 51
261.203082165149
 73
     0
 72
     2
 10
2.616843448344337
 20
0.36717654635147
 40
0.0213802051303731
 50
258.9888491839005
 51
271.7108857747937
 73
     0
 72
     2
 10
2.618041777868569
 20
0.3639169558453035
 40
0.0246366297664502
 50
268.6975355392314
 51
280.2804749251206
 73
     0
 72
     2
 10
2.619289082162454
 20
0.369608213028888
 40
0.0188153276110619
 50
279.6361688894454
 51
298.0573516433577
 73
     0
 72
     2
 10
2.620355269469509
 20
0.3730218708912918
 40
0.0153157982727261
 50
300.5449189786844
 51
323.3255645340623
 73
     0
 72
     2
 10
2.61674582695598
 20
0.3712331984285728
 40
0.0192925244149349
 50
325.4679485472512
 51
338.7424644189146
 73
     0
 72
     2
 10
2.614415550741325
 20
0.3699536532293334
 40
0.0219309169397976
 50
337.8342522704153
 51
350.2507032151334
 73
     0
 72
     2
 10
2.595569537316608
 20
0.3664737796651569
 40
0.0410947224300675
 50
349.9184788839777
 51
358.9348353768806
 73
     0
 72
     1
 10
2.636657158546572
 20
0.3672377124287327
 11
2.595832764305416
 21
0.3672377124287327
 72
     2
 10
2.64681494050507
 20
0.3622878182718704
 40
0.051221906858459
 50
185.5455046984018
 51
188.2011430538267
 73
     0
 72
     2
 10
2.947529825566531
 20
0.3072422364761533
 40
0.3569017845664977
 50
190.0614576287786
 51
190.4239000976597
 73
     0
 72
     2
 10
2.781405060710635
 20
0.3231292571124805
 40
0.1911897814441117
 50
194.7530117273464
 51
195.4074903055051
 73
     0
 97
        1
330
58A
 92
        1
 93
       47
 72
     2
 10
2.62021760346478
 20
0.3532598947256552
 40
0.0241752923918273
 50
138.3496533346511
 51
148.4595555609686
 73
     0
 72
     2
 10
2.619712462684475
 20
0.3521059761880958
 40
0.0231523339774945
 50
150.2396979683238
 51
156.5937677099167
 73
     0
 72
     2
 10
2.635591692141174
 20
0.3585924636724106
 40
0.040303192361997
 50
157.0988242481769
 51
160.8634840437796
 73
     0
 72
     2
 10
2.697878267298236
 20
0.3744094790060188
 40
0.1044765553251907
 50
163.8678439431619
 51
165.4002231692524
 73
     0
 72
     2
 10
2.629560613196424
 20
0.3551965516179019
 40
0.033550015770866
 50
167.7439659185812
 51
173.0844435487628
 73
     0
 72
     2
 10
2.635192067538312
 20
0.356927593697432
 40
0.0393626795107542
 50
171.5698966947791
 51
180.4334275361526
 73
     0
 72
     1
 10
2.595830514291865
 20
0.3572253591981966
 11
2.649224587943283
 21
0.3572253591981966
 72
     1
 10
2.649224587943283
 20
0.3572253591981966
 11
2.649224587943283
 21
0.367418047889942
 72
     2
 10
2.614455106004424
 20
0.36817833181333
 40
0.0347777932873957
 50
358.7473463266968
 51
388.6031824377397
 73
     1
 72
     2
 10
2.620241090430116
 20
0.3715980049238856
 40
0.0280617767156418
 50
28.12879544758857
 51
54.95063515022645
 73
     1
 72
     2
 10
2.621386031958198
 20
0.3712425033481648
 40
0.0277188046407911
 50
57.31076922041544
 51
82.4940245374038
 73
     1
 72
     2
 10
2.619420696306377
 20
0.3702747845720343
 40
0.0289922752746188
 50
78.89077226525315
 51
93.81071159195634
 73
     1
 72
     2
 10
2.61666981386139
 20
0.3689225917587153
 40
0.0302915785144063
 50
88.44115042377268
 51
109.8107905333598
 73
     1
 72
     2
 10
2.613914251529578
 20
0.3727814463646621
 40
0.0257592548203171
 50
106.9521716693699
 51
124.603661569856
 73
     1
 72
     2
 10
2.613465558234084
 20
0.370745022031955
 40
0.027223416564771
 50
121.3907074886569
 51
136.2843774046689
 73
     1
 72
     2
 10
2.619841295496989
 20
0.3640611980123525
 40
0.0364531928221072
 50
135.6167017519909
 51
147.4469381469264
 73
     1
 72
     2
 10
2.61364925277008
 20
0.367416191215975
 40
0.0294330181030494
 50
146.4659438100723
 51
157.2122986253005
 73
     1
 72
     2
 10
2.605830545336452
 20
0.3693204846406612
 40
0.0215246798664316
 50
153.8226534473667
 51
165.5519937306932
 73
     1
 72
     2
 10
2.620928292763789
 20
0.3626756489903522
 40
0.0378968651110208
 50
161.515271747222
 51
170.1818189345484
 73
     1
 72
     2
 10
2.62185880698542
 20
0.3609961355594354
 40
0.0391287629611654
 50
167.9903558377853
 51
176.6960496179407
 73
     1
 72
     2
 10
2.64358297821499
 20
0.3584175027964993
 40
0.0609797779044622
 50
175.4535176021835
 51
184.5464823978164
 73
     1
 72
     2
 10
2.634461745709456
 20
0.3567421254133762
 40
0.0517631080522538
 50
183.4981100536811
 51
194.429389032572
 73
     1
 72
     2
 10
2.606616363011642
 20
0.3485424727520852
 40
0.0227749164074815
 50
191.9070472796621
 51
206.3889894285758
 73
     1
 72
     2
 10
2.611891972958808
 20
0.3487142209845105
 40
0.0276640261495296
 50
201.8464660881787
 51
222.1274079961559
 73
     1
 72
     2
 10
2.614260886541606
 20
0.3494265410796771
 40
0.0299175639630403
 50
220.0955596825676
 51
233.6759197426415
 73
     1
 72
     2
 10
2.615043617984982
 20
0.3502744687142416
 40
0.0310646393940598
 50
233.4391728830817
 51
246.8725717081748
 73
     1
 72
     2
 10
2.617287813857059
 20
0.3544982286952896
 40
0.035832707340859
 50
246.2252262725147
 51
255.2219052108666
 73
     1
 72
     2
 10
2.619948998501218
 20
0.3625382973605903
 40
0.0442887031977101
 50
254.5461626614621
 51
261.28331875032
 73
     1
 72
     2
 10
2.620736026381953
 20
0.3737944212376278
 40
0.0555418412898209
 50
262.2405778669421
 51
267.866769692275
 73
     1
 72
     2
 10
2.621836975360784
 20
0.3642090186578022
 40
0.0460271287848912
 50
266.0527719165295
 51
277.1377488483287
 73
     1
 72
     2
 10
2.619964912664253
 20
0.3743809067507015
 40
0.0563559280448384
 50
277.7413046158855
 51
284.930809102693
 73
     1
 72
     2
 10
2.618030151341718
 20
0.3840626065593292
 40
0.0662121975991039
 50
284.3899023200388
 51
289.2072984924262
 73
     1
 72
     2
 10
2.563217362272785
 20
0.5275821421545017
 40
0.2198223362827568
 50
290.3921624947603
 51
292.6481637583187
 73
     1
 72
     1
 10
2.647864624571159
 20
0.3247109995190845
 11
2.647864624571159
 21
0.3403736793267176
 72
     2
 10
2.644363348913712
 20
0.3412559357119335
 40
0.0036107211964766
 50
14.14304208538034
 51
40.5809188106621
 73
     0
 72
     2
 10
2.627207680057823
 20
0.3631952191068923
 40
0.0313981308170948
 50
50.67407287050084
 51
56.95139529671177
 73
     0
 72
     2
 10
2.627957909630271
 20
0.3612619791193873
 40
0.0293716166250663
 50
56.12144370235181
 51
61.7382303285629
 73
     0
 72
     2
 10
2.619469209093496
 20
0.3754051721516405
 40
0.0458548879987645
 50
60.76359459619522
 51
64.75139576529091
 73
     0
 72
     2
 10
2.617836427563542
 20
0.3763099703744814
 40
0.047382263147091
 50
63.43218982647736
 51
70.38756687457111
 73
     0
 72
     2
 10
2.615283773187174
 20
0.3888655443368394
 40
0.0600934929530564
 50
72.11336347133055
 51
75.85532826122167
 73
     0
 72
     2
 10
2.622181903739372
 20
0.3621959788453819
 40
0.0325472503124577
 50
76.15762347795572
 51
80.1548619188531
 73
     0
 72
     2
 10
2.61906759228913
 20
0.3826983276081179
 40
0.0532819675598692
 50
80.6249603204364
 51
83.12798914716191
 73
     0
 72
     2
 10
2.621450707373671
 20
0.368048205585744
 40
0.0384568363547721
 50
84.04143915734456
 51
95.95856084265543
 73
     0
 72
     2
 10
2.62036466853374
 20
0.3621321664056745
 40
0.0324633646414816
 50
95.13601524590475
 51
98.33322003417473
 73
     0
 72
     2
 10
2.619429956113451
 20
0.35419362593474
 40
0.0244742127055942
 50
98.86157888952332
 51
112.110164074703
 73
     0
 72
     2
 10
2.61838315256972
 20
0.3522740777562495
 40
0.022303190949189
 50
111.4747791436719
 51
123.1250142198119
 73
     0
 72
     2
 10
2.618718995543536
 20
0.3517336784423094
 40
0.0220416868943367
 50
124.6239441549396
 51
138.7251729097469
 73
     0
 97
        1
330
58B
 75
     0
 76
     1
 98
        1
 10
-6.623918024059631
 20
-0.1308261527660757
  0
HATCH
  5
584
330
557
100
AcDbEntity
  8
CONTINUOUS1
 62
     9
100
AcDbHatch
 10
0.0
 20
0.0
 30
0.0
210
0.0
220
0.0
230
1.0
  2
SOLID
 70
     1
 71
     1
 91
        1
 92
        1
 93
       20
 72
     1
 10
2.545085238562226
 20
0.3185392197908646
 11
2.547862856656283
 21
0.3185392197908646
 72
     1
 10
2.547862856656283
 20
0.3185392197908646
 11
2.550640474750171
 21
0.3185392197908646
 72
     1
 10
2.550640474750171
 20
0.3185392197908646
 11
2.553418092844228
 21
0.3185392197908646
 72
     1
 10
2.553418092844228
 20
0.3185392197908646
 11
2.556195710938116
 21
0.3185392197908646
 72
     1
 10
2.556195710938116
 20
0.3185392197908646
 11
2.558973329032173
 21
0.3185392197908646
 72
     1
 10
2.558973329032173
 20
0.3185392197908646
 11
2.558973329032173
 21
0.3213168378847518
 72
     1
 10
2.558973329032173
 20
0.3213168378847518
 11
2.558973329032173
 21
0.3240944559788095
 72
     1
 10
2.558973329032173
 20
0.3240944559788095
 11
2.558973329032173
 21
0.432421561644333
 72
     1
 10
2.558973329032173
 20
0.432421561644333
 11
2.558973329032173
 21
0.4351991797382202
 72
     1
 10
2.558973329032173
 20
0.4351991797382202
 11
2.558973329032173
 21
0.4379767978321075
 72
     1
 10
2.558973329032173
 20
0.4379767978321075
 11
2.556195710938116
 21
0.4379767978321075
 72
     1
 10
2.556195710938116
 20
0.4379767978321075
 11
2.553418092844228
 21
0.4379767978321075
 72
     1
 10
2.553418092844228
 20
0.4379767978321075
 11
2.550640474750171
 21
0.4379767978321075
 72
     1
 10
2.550640474750171
 20
0.4379767978321075
 11
2.547862856656283
 21
0.4379767978321075
 72
     1
 10
2.547862856656283
 20
0.4379767978321075
 11
2.545085238562226
 21
0.4379767978321075
 72
     1
 10
2.545085238562226
 20
0.4379767978321075
 11
2.545085238562226
 21
0.4351991797382202
 72
     1
 10
2.545085238562226
 20
0.4351991797382202
 11
2.545085238562226
 21
0.432421561644333
 72
     1
 10
2.545085238562226
 20
0.432421561644333
 11
2.545085238562226
 21
0.3240944559788095
 72
     1
 10
2.545085238562226
 20
0.3240944559788095
 11
2.545085238562226
 21
0.3213168378847518
 72
     1
 10
2.545085238562226
 20
0.3213168378847518
 11
2.545085238562226
 21
0.3185392197908646
 97
        1
330
58E
 75
     0
 76
     1
 98
        1
 10
-6.623918024059631
 20
-0.1308261527660757
  0
HATCH
  5
585
330
557
100
AcDbEntity
  8
CONTINUOUS1
 62
     9
100
AcDbHatch
 10
0.0
 20
0.0
 30
0.0
210
0.0
220
0.0
230
1.0
  2
SOLID
 70
     1
 71
     1
 91
        1
 92
        1
 93
       60
 72
     1
 10
2.456201459554765
 20
0.3185392197908646
 11
2.458979077648653
 21
0.3185392197908646
 72
     1
 10
2.458979077648653
 20
0.3185392197908646
 11
2.46175669574271
 21
0.3185392197908646
 72
     1
 10
2.46175669574271
 20
0.3185392197908646
 11
2.520086675716388
 21
0.3185392197908646
 72
     1
 10
2.520086675716388
 20
0.3185392197908646
 11
2.522864293810275
 21
0.3185392197908646
 72
     1
 10
2.522864293810275
 20
0.3185392197908646
 11
2.525641911904333
 21
0.3185392197908646
 72
     1
 10
2.525641911904333
 20
0.3185392197908646
 11
2.525641911904333
 21
0.3213168378847518
 72
     1
 10
2.525641911904333
 20
0.3213168378847518
 11
2.525641911904333
 21
0.3240944559788095
 72
     1
 10
2.525641911904333
 20
0.3240944559788095
 11
2.525641911904333
 21
0.3268720740728673
 72
     1
 10
2.525641911904333
 20
0.3268720740728673
 11
2.525641911904333
 21
0.3296496921667545
 72
     1
 10
2.525641911904333
 20
0.3296496921667545
 11
2.525641911904333
 21
0.3324273102608122
 72
     1
 10
2.525641911904333
 20
0.3324273102608122
 11
2.522864293810275
 21
0.3324273102608122
 72
     1
 10
2.522864293810275
 20
0.3324273102608122
 11
2.520086675716388
 21
0.3324273102608122
 72
     1
 10
2.520086675716388
 20
0.3324273102608122
 11
2.478422404306545
 21
0.3324273102608122
 72
     1
 10
2.478422404306545
 20
0.3324273102608122
 11
2.475644786212658
 21
0.3324273102608122
 72
     1
 10
2.475644786212658
 20
0.3324273102608122
 11
2.4728671681186
 21
0.3324273102608122
 72
     1
 10
2.4728671681186
 20
0.3324273102608122
 11
2.4728671681186
 21
0.33520492835487
 72
     1
 10
2.4728671681186
 20
0.33520492835487
 11
2.4728671681186
 21
0.3379825464487572
 72
     1
 10
2.4728671681186
 20
0.3379825464487572
 11
2.4728671681186
 21
0.3657587273886524
 72
     1
 10
2.4728671681186
 20
0.3657587273886524
 11
2.4728671681186
 21
0.3685363454825397
 72
     1
 10
2.4728671681186
 20
0.3685363454825397
 11
2.4728671681186
 21
0.3713139635765974
 72
     1
 10
2.4728671681186
 20
0.3713139635765974
 11
2.475644786212658
 21
0.3713139635765974
 72
     1
 10
2.475644786212658
 20
0.3713139635765974
 11
2.478422404306545
 21
0.3713139635765974
 72
     1
 10
2.478422404306545
 20
0.3713139635765974
 11
2.51730905762233
 21
0.3713139635765974
 72
     1
 10
2.51730905762233
 20
0.3713139635765974
 11
2.520086675716388
 21
0.3713139635765974
 72
     1
 10
2.520086675716388
 20
0.3713139635765974
 11
2.522864293810275
 21
0.3713139635765974
 72
     1
 10
2.522864293810275
 20
0.3713139635765974
 11
2.522864293810275
 21
0.3740915816706551
 72
     1
 10
2.522864293810275
 20
0.3740915816706551
 11
2.522864293810275
 21
0.3768691997645424
 72
     1
 10
2.522864293810275
 20
0.3768691997645424
 11
2.522864293810275
 21
0.3796468178584296
 72
     1
 10
2.522864293810275
 20
0.3796468178584296
 11
2.522864293810275
 21
0.3824244359524873
 72
     1
 10
2.522864293810275
 20
0.3824244359524873
 11
2.522864293810275
 21
0.3852020540465451
 72
     1
 10
2.522864293810275
 20
0.3852020540465451
 11
2.520086675716388
 21
0.3852020540465451
 72
     1
 10
2.520086675716388
 20
0.3852020540465451
 11
2.51730905762233
 21
0.3852020540465451
 72
     1
 10
2.51730905762233
 20
0.3852020540465451
 11
2.478422404306545
 21
0.3852020540465451
 72
     1
 10
2.478422404306545
 20
0.3852020540465451
 11
2.475644786212658
 21
0.3852020540465451
 72
     1
 10
2.475644786212658
 20
0.3852020540465451
 11
2.4728671681186
 21
0.3852020540465451
 72
     1
 10
2.4728671681186
 20
0.3852020540465451
 11
2.4728671681186
 21
0.3879796721404323
 72
     1
 10
2.4728671681186
 20
0.3879796721404323
 11
2.4728671681186
 21
0.39075729023449
 72
     1
 10
2.4728671681186
 20
0.39075729023449
 11
2.4728671681186
 21
0.4185334711742148
 72
     1
 10
2.4728671681186
 20
0.4185334711742148
 11
2.4728671681186
 21
0.4213110892682726
 72
     1
 10
2.4728671681186
 20
0.4213110892682726
 11
2.4728671681186
 21
0.4240887073623303
 72
     1
 10
2.4728671681186
 20
0.4240887073623303
 11
2.475644786212658
 21
0.4240887073623303
 72
     1
 10
2.475644786212658
 20
0.4240887073623303
 11
2.478422404306545
 21
0.4240887073623303
 72
     1
 10
2.478422404306545
 20
0.4240887073623303
 11
2.51730905762233
 21
0.4240887073623303
 72
     1
 10
2.51730905762233
 20
0.4240887073623303
 11
2.520086675716388
 21
0.4240887073623303
 72
     1
 10
2.520086675716388
 20
0.4240887073623303
 11
2.522864293810275
 21
0.4240887073623303
 72
     1
 10
2.522864293810275
 20
0.4240887073623303
 11
2.522864293810275
 21
0.4268663254562175
 72
     1
 10
2.522864293810275
 20
0.4268663254562175
 11
2.522864293810275
 21
0.4296439435502753
 72
     1
 10
2.522864293810275
 20
0.4296439435502753
 11
2.522864293810275
 21
0.432421561644333
 72
     1
 10
2.522864293810275
 20
0.432421561644333
 11
2.522864293810275
 21
0.4351991797382202
 72
     1
 10
2.522864293810275
 20
0.4351991797382202
 11
2.522864293810275
 21
0.4379767978321075
 72
     1
 10
2.522864293810275
 20
0.4379767978321075
 11
2.520086675716388
 21
0.4379767978321075
 72
     1
 10
2.520086675716388
 20
0.4379767978321075
 11
2.51730905762233
 21
0.4379767978321075
 72
     1
 10
2.51730905762233
 20
0.4379767978321075
 11
2.46175669574271
 21
0.4379767978321075
 72
     1
 10
2.46175669574271
 20
0.4379767978321075
 11
2.458979077648653
 21
0.4379767978321075
 72
     1
 10
2.458979077648653
 20
0.4379767978321075
 11
2.456201459554765
 21
0.4379767978321075
 72
     1
 10
2.456201459554765
 20
0.4379767978321075
 11
2.456201459554765
 21
0.4351991797382202
 72
     1
 10
2.456201459554765
 20
0.4351991797382202
 11
2.456201459554765
 21
0.432421561644333
 72
     1
 10
2.456201459554765
 20
0.432421561644333
 11
2.456201459554765
 21
0.3240944559788095
 72
     1
 10
2.456201459554765
 20
0.3240944559788095
 11
2.456201459554765
 21
0.3213168378847518
 72
     1
 10
2.456201459554765
 20
0.3213168378847518
 11
2.456201459554765
 21
0.3185392197908646
 97
        1
330
58C
 75
     0
 76
     1
 98
        1
 10
-6.623918024059631
 20
-0.1308261527660757
  0
HATCH
  5
586
330
557
100
AcDbEntity
  8
CONTINUOUS1
 62
     9
100
AcDbHatch
 10
0.0
 20
0.0
 30
0.0
210
0.0
220
0.0
230
1.0
  2
SOLID
 70
     1
 71
     1
 91
        1
 92
        1
 93
       63
 72
     1
 10
2.333986263419465
 20
0.3185392197908646
 11
2.336763881513352
 21
0.3185392197908646
 72
     1
 10
2.336763881513352
 20
0.3185392197908646
 11
2.33954149960741
 21
0.3185392197908646
 72
     1
 10
2.33954149960741
 20
0.3185392197908646
 11
2.342319117701297
 21
0.3185392197908646
 72
     1
 10
2.342319117701297
 20
0.3185392197908646
 11
2.345096735795355
 21
0.3185392197908646
 72
     1
 10
2.345096735795355
 20
0.3185392197908646
 11
2.347874353889242
 21
0.3185392197908646
 72
     1
 10
2.347874353889242
 20
0.3185392197908646
 11
2.347874353889242
 21
0.3213168378847518
 72
     1
 10
2.347874353889242
 20
0.3213168378847518
 11
2.347874353889242
 21
0.3240944559788095
 72
     1
 10
2.347874353889242
 20
0.3240944559788095
 11
2.347874353889242
 21
0.3629811092945947
 72
     1
 10
2.347874353889242
 20
0.3629811092945947
 11
2.347874353889242
 21
0.3657587273886524
 72
     1
 10
2.347874353889242
 20
0.3657587273886524
 11
2.347874353889242
 21
0.3685363454825397
 72
     1
 10
2.347874353889242
 20
0.3685363454825397
 11
2.348586194660104
 21
0.3713139635765974
 72
     1
 10
2.348586194660104
 20
0.3713139635765974
 11
2.349735358012228
 21
0.3740915816706551
 72
     1
 10
2.349735358012228
 20
0.3740915816706551
 11
2.3511797194212
 21
0.3764803332313709
 72
     1
 10
2.3511797194212
 20
0.3764803332313709
 11
2.353429590077357
 21
0.378258008811486
 72
     1
 10
2.353429590077357
 20
0.378258008811486
 11
2.356207208171245
 21
0.3803481447481549
 72
     1
 10
2.356207208171245
 20
0.3803481447481549
 11
2.358708187386159
 21
0.3821533245041455
 72
     1
 10
2.358708187386159
 20
0.3821533245041455
 11
2.360746259593074
 21
0.3835311386972085
 72
     1
 10
2.360746259593074
 20
0.3835311386972085
 11
2.362567953606546
 21
0.3843965447991882
 72
     1
 10
2.362567953606546
 20
0.3843965447991882
 11
2.364540062453247
 21
0.3852020540465451
 72
     1
 10
2.364540062453247
 20
0.3852020540465451
 11
2.367317680547134
 21
0.3860225445559995
 72
     1
 10
2.367317680547134
 20
0.3860225445559995
 11
2.371041809419384
 21
0.3859647625154712
 72
     1
 10
2.371041809419384
 20
0.3859647625154712
 11
2.373644053628343
 21
0.3851557727118125
 72
     1
 10
2.373644053628343
 20
0.3851557727118125
 11
2.375650534829137
 21
0.3838132449996015
 72
     1
 10
2.375650534829137
 20
0.3838132449996015
 11
2.377749804062805
 21
0.3819776024104162
 72
     1
 10
2.377749804062805
 20
0.3819776024104162
 11
2.379816961970139
 21
0.3796468178584296
 72
     1
 10
2.379816961970139
 20
0.3796468178584296
 11
2.381205771017082
 21
0.3784524420782422
 72
     1
 10
2.381205771017082
 20
0.3784524420782422
 11
2.382248692300752
 21
0.380049012932091
 72
     1
 10
2.382248692300752
 20
0.380049012932091
 11
2.383757731757302
 21
0.3823591474088066
 72
     1
 10
2.383757731757302
 20
0.3823591474088066
 11
2.385542235943237
 21
0.3850909809773389
 72
     1
 10
2.385542235943237
 20
0.3850909809773389
 11
2.386582283838979
 21
0.3866831530647805
 72
     1
 10
2.386582283838979
 20
0.3866831530647805
 11
2.387955382985555
 21
0.3887851813877892
 72
     1
 10
2.387955382985555
 20
0.3887851813877892
 11
2.386761007205027
 21
0.39075729023449
 72
     1
 10
2.386761007205027
 20
0.39075729023449
 11
2.384708963404055
 21
0.3932298076646252
 72
     1
 10
2.384708963404055
 20
0.3932298076646252
 11
2.38166327412026
 21
0.3956385659741959
 72
     1
 10
2.38166327412026
 20
0.3956385659741959
 11
2.379947253551311
 21
0.3970016751998178
 72
     1
 10
2.379947253551311
 20
0.3970016751998178
 11
2.377622643675838
 21
0.3982846352691358
 72
     1
 10
2.377622643675838
 20
0.3982846352691358
 11
2.375650534829137
 21
0.3990901445163222
 72
     1
 10
2.375650534829137
 20
0.3990901445163222
 11
2.37287291673525
 21
0.3990901445163222
 72
     1
 10
2.37287291673525
 20
0.3990901445163222
 11
2.370095298641192
 21
0.3990901445163222
 72
     1
 10
2.370095298641192
 20
0.3990901445163222
 11
2.367317680547134
 21
0.3987012779831507
 72
     1
 10
2.367317680547134
 20
0.3987012779831507
 11
2.364540062453247
 21
0.3977013354693786
 72
     1
 10
2.364540062453247
 20
0.3977013354693786
 11
2.361956877625775
 21
0.3961180931558492
 72
     1
 10
2.361956877625775
 20
0.3961180931558492
 11
2.359679230788774
 21
0.394229312851849
 72
     1
 10
2.359679230788774
 20
0.394229312851849
 11
2.357596017218188
 21
0.3921460992814336
 72
     1
 10
2.357596017218188
 20
0.3921460992814336
 11
2.355512803647773
 21
0.3900628857110182
 72
     1
 10
2.355512803647773
 20
0.3900628857110182
 11
2.35378697604543
 21
0.3878950002004449
 72
     1
 10
2.35378697604543
 20
0.3878950002004449
 11
2.3521136744877
 21
0.3860075632937314
 72
     1
 10
2.3521136744877
 20
0.3860075632937314
 11
2.347874353889242
 21
0.3814779152569376
 72
     1
 10
2.347874353889242
 20
0.3814779152569376
 11
2.347874353889242
 21
0.3860075632937314
 72
     1
 10
2.347874353889242
 20
0.3860075632937314
 11
2.347874353889242
 21
0.3879796721404323
 72
     1
 10
2.347874353889242
 20
0.3879796721404323
 11
2.347874353889242
 21
0.39075729023449
 72
     1
 10
2.347874353889242
 20
0.39075729023449
 11
2.347874353889242
 21
0.3935349083285478
 72
     1
 10
2.347874353889242
 20
0.3935349083285478
 11
2.347874353889242
 21
0.396312526422435
 72
     1
 10
2.347874353889242
 20
0.396312526422435
 11
2.345096735795355
 21
0.396312526422435
 72
     1
 10
2.345096735795355
 20
0.396312526422435
 11
2.342319117701297
 21
0.396312526422435
 72
     1
 10
2.342319117701297
 20
0.396312526422435
 11
2.33954149960741
 21
0.396312526422435
 72
     1
 10
2.33954149960741
 20
0.396312526422435
 11
2.336763881513352
 21
0.396312526422435
 72
     1
 10
2.336763881513352
 20
0.396312526422435
 11
2.333986263419465
 21
0.396312526422435
 72
     1
 10
2.333986263419465
 20
0.396312526422435
 11
2.333986263419465
 21
0.3935349083285478
 72
     1
 10
2.333986263419465
 20
0.3935349083285478
 11
2.333986263419465
 21
0.39075729023449
 72
     1
 10
2.333986263419465
 20
0.39075729023449
 11
2.333986263419465
 21
0.3240944559788095
 72
     1
 10
2.333986263419465
 20
0.3240944559788095
 11
2.333986263419465
 21
0.3213168378847518
 72
     1
 10
2.333986263419465
 20
0.3213168378847518
 11
2.333986263419465
 21
0.3185392197908646
 97
        1
330
58D
 75
     0
 76
     1
 98
        1
 10
-6.623918024059631
 20
-0.1308261527660757
  0
HATCH
  5
587
330
557
100
AcDbEntity
  8
CONTINUOUS1
 62
     9
100
AcDbHatch
 10
0.0
 20
0.0
 30
0.0
210
0.0
220
0.0
230
1.0
  2
SOLID
 70
     1
 71
     1
 91
        2
 92
        1
 93
       13
 72
     2
 10
2.507627067133951
 20
0.5672078009861301
 40
0.0215625675244637
 50
0.0002565813902296
 51
90.00070498518821
 73
     1
 72
     2
 10
2.507627067134452
 20
0.6103329360318659
 40
0.0215625675245372
 50
269.9992950134807
 51
359.9995092535441
 73
     1
 72
     1
 10
2.529189634658198
 20
0.6103327513454251
 11
2.529189634658198
 21
0.6423016562928301
 72
     2
 10
2.50762667305249
 20
0.6423015303381832
 40
0.0215629616060761
 50
0.0003346789653151
 51
89.99920945081219
 73
     1
 72
     1
 10
2.507626970571468
 20
0.6638644919422068
 11
2.376002128332206
 21
0.6638644919422068
 72
     1
 10
2.376002128332206
 20
0.6638644919422068
 11
2.376002128332206
 21
0.5352391641624768
 72
     1
 10
2.376002128332206
 20
0.5352391641624768
 11
2.397564961169027
 21
0.5352391641624768
 72
     1
 10
2.397564961169027
 20
0.5352391641624768
 11
2.397564961169027
 21
0.577989312090836
 72
     1
 10
2.397564961169027
 20
0.577989312090836
 11
2.496845563528129
 21
0.577989312090836
 72
     2
 10
2.496845471653383
 20
0.5672081694230766
 40
0.0107811426681508
 50
270.0004882631974
 51
360.0004882673548
 73
     0
 72
     1
 10
2.507626614321143
 20
0.5672080775475484
 11
2.507626970571468
 21
0.5352391641624768
 72
     1
 10
2.507626970571468
 20
0.5352391641624768
 11
2.529189634658198
 21
0.5352391641624768
 72
     1
 10
2.529189634658198
 20
0.5352391641624768
 11
2.529189634658198
 21
0.5672078975474056
 97
        1
330
589
 92
       16
 93
        6
 72
     2
 10
2.496845471653383
 20
0.6315205201877572
 40
0.0107811426681508
 50
270.0004882631974
 51
360.0004882673548
 73
     0
 72
     1
 10
2.507626614321143
 20
0.6315204283122289
 11
2.507626970571468
 21
0.6103328394705163
 72
     2
 10
2.496845649778499
 20
0.6103329257201973
 40
0.0107813207933138
 50
0.0004583615308307
 51
90.00045836519477
 73
     0
 72
     1
 10
2.496845563528129
 20
0.5995516049272287
 11
2.397564961169027
 21
0.5995518730522922
 72
     1
 10
2.397564961169027
 20
0.5995518730522922
 11
2.397564961169027
 21
0.6423016628555165
 72
     1
 10
2.397564961169027
 20
0.6423016628555165
 11
2.496845563528129
 21
0.6423016628555165
 97
        1
330
58F
 75
     0
 76
     1
 98
        1
 10
-6.623918024059631
 20
-0.1308261527660757
  0
LWPOLYLINE
  5
588
102
{ACAD_REACTORS
330
592
102
}
330
557
100
AcDbEntity
  8
CONTINUOUS1
  6
CONTINUOUS
 62
     9
100
AcDbPolyline
 90
       13
 70
     0
 43
0.0
 10
2.682377122234047
 20
0.6638644919422068
 10
2.545877089309929
 20
0.6638644919422068
 10
2.545877089309929
 20
0.5352391641624768
 10
2.682377122234047
 20
0.5352391641624768
 10
2.682377122234047
 20
0.5568015451239608
 10
2.567439378396361
 20
0.5568015451239608
 10
2.567439378396361
 20
0.5887705485089332
 10
2.682377122234047
 20
0.5887705485089332
 10
2.682377122234047
 20
0.6103328394705163
 10
2.567439378396361
 20
0.6103328394705163
 10
2.567439378396361
 20
0.6423016628555165
 10
2.682377122234047
 20
0.6423016628555165
 10
2.682377122234047
 20
0.6638644919422068
  0
LWPOLYLINE
  5
589
102
{ACAD_REACTORS
330
587
102
}
330
557
100
AcDbEntity
  8
CONTINUOUS1
  6
CONTINUOUS
 62
     9
100
AcDbPolyline
 90
       14
 70
     0
 43
0.0
 10
2.529189634658198
 20
0.5672078975474056
 42
0.4142158545932141
 10
2.507626801821377
 20
0.588770368508961
 42
0.4142146575582358
 10
2.529189634658198
 20
0.6103327513454251
 10
2.529189634658198
 20
0.6423016562928301
 42
0.4142078102735817
 10
2.507626970571468
 20
0.6638644919422068
 10
2.376002128332206
 20
0.6638644919422068
 10
2.376002128332206
 20
0.5352391641624768
 10
2.397564961169027
 20
0.5352391641624768
 10
2.397564961169027
 20
0.577989312090836
 10
2.496845563528129
 20
0.577989312090836
 42
-0.4142135623943674
 10
2.507626614321143
 20
0.5672080775475484
 10
2.507626970571468
 20
0.5352391641624768
 10
2.529189634658198
 20
0.5352391641624768
 10
2.529189634658198
 20
0.5672078975474056
  0
LWPOLYLINE
  5
58A
102
{ACAD_REACTORS
330
583
102
}
330
557
100
AcDbEntity
  8
CONTINUOUS1
 62
     9
100
AcDbPolyline
 90
       18
 70
     1
 43
0.0
 10
2.597086510057327
 20
0.3739249696649272
 42
-0.0075148293555971
 10
2.597747313561828
 20
0.3758094905988973
 42
-0.004657993094582
 10
2.598518240370683
 20
0.3774326474991771
 42
-0.0194573042781228
 10
2.599614421495093
 20
0.3793376189554469
 42
-0.025588215895386
 10
2.601260943195345
 20
0.3815052047880845
 42
-0.0513535452749696
 10
2.60438438651855
 20
0.3844411686669678
 42
-0.0711488595792178
 10
2.608687792130783
 20
0.387030374336121
 42
-0.0589617480196389
 10
2.612759828426224
 20
0.388163142544784
 42
-0.055567443413236
 10
2.617481779009981
 20
0.3885472203085105
 42
-0.0505831829207604
 10
2.622438601289932
 20
0.3881580670007456
 42
-0.0805511158347094
 10
2.628138968138305
 20
0.386212311056966
 42
-0.0997279791482863
 10
2.632639186255605
 20
0.3821694970928324
 42
-0.05798586112659
 10
2.634725691735443
 20
0.3782279079159712
 42
-0.0542300556945522
 10
2.63602974439377
 20
0.3736673778522577
 42
-0.0393615860447316
 10
2.636657158546572
 20
0.3672377124287327
 10
2.595832764305416
 20
0.3672377124287327
 42
-0.0115879268951182
 10
2.596116860354502
 20
0.3695945556602855
 42
-0.0015814549261624
 10
2.596518317958985
 20
0.3718162665023788
 42
-0.0028557092809637
  0
LWPOLYLINE
  5
58B
102
{ACAD_REACTORS
330
583
102
}
330
557
100
AcDbEntity
  8
CONTINUOUS1
 62
     9
100
AcDbPolyline
 90
       47
 70
     1
 43
0.0
 10
2.602153476867872
 20
0.3371934049870338
 42
-0.0441414060654578
 10
2.59961369979263
 20
0.3406137919386656
 42
-0.0277319653937625
 10
2.5984653013729
 20
0.342908764392917
 42
-0.0164279047561354
 10
2.597515647073553
 20
0.3453802682993233
 42
-0.0066863653619568
 10
2.596775244033299
 20
0.3480745345536893
 42
-0.0233064481414024
 10
2.596254684297182
 20
0.3511569156956971
 42
-0.0386937426355895
 10
2.595830514291865
 20
0.3572253591981966
 10
2.649224587943283
 20
0.3572253591981966
 10
2.649224587943283
 20
0.367418047889942
 42
0.1310126142130034
 10
2.644988491698345
 20
0.384827874269718
 42
0.1175696112009137
 10
2.636356463341005
 20
0.3945709905457311
 42
0.1103270754359441
 10
2.625006928065293
 20
0.3987237922934814
 42
0.0651926395407652
 10
2.617493856912776
 20
0.3992029596881825
 42
0.0935138111535395
 10
2.606403540178096
 20
0.3974214224988377
 42
0.0771718076448178
 10
2.599285664799797
 20
0.3939838910158646
 42
0.0650775313207389
 10
2.593789051535882
 20
0.3895585675142574
 42
0.0516650400356126
 10
2.589115136618747
 20
0.3836759482660459
 42
0.0469242136237456
 10
2.586513590303841
 20
0.3788161200391191
 42
0.051223632580995
 10
2.584986595266205
 20
0.3746909211984648
 42
0.037832980863087
 10
2.583586471275143
 20
0.3691379050324035
 42
0.0380040356892352
 10
2.582795082079005
 20
0.3632512380642088
 42
0.0396963751324013
 10
2.582795082079005
 20
0.3535837675287898
 42
0.0477329049617882
 10
2.584331480475075
 20
0.3438434486300826
 42
0.0632736306522388
 10
2.586214656901265
 20
0.3384198641380185
 42
0.0887240198666166
 10
2.591374808234863
 20
0.3301577047572555
 42
0.0593249496237894
 10
2.596539162424083
 20
0.3253225760990977
 42
0.0586814778487906
 10
2.602842129596783
 20
0.321706383342701
 42
0.039275593781097
 10
2.608147746428333
 20
0.3198508322162757
 42
0.0294048595279412
 10
2.613237107241648
 20
0.3187611372579231
 42
0.0245538255625254
 10
2.618668576245656
 20
0.3182910719351076
 42
0.0484050884053723
 10
2.627556087272385
 20
0.318538586832347
 42
0.0313804255658969
 10
2.63448515255229
 20
0.3199276859149341
 42
0.0210229524573495
 10
2.639813099706859
 20
0.3215361459892283
 42
0.0098439804496088
 10
2.647864624571159
 20
0.3247109995190845
 10
2.647864624571159
 20
0.3403736793267176
 42
-0.1158714317854296
 10
2.647105648305942
 20
0.3389070845880729
 42
-0.0273968376187686
 10
2.644330659909687
 20
0.3368770470617056
 42
-0.0245127629396402
 10
2.641865387999789
 20
0.3353916503899091
 42
-0.0174018213192927
 10
2.639028460551546
 20
0.3339310062675627
 42
-0.0303578783463293
 10
2.633740567883169
 20
0.3316766063780965
 42
-0.0163288525489418
 10
2.629968887168647
 20
0.3305939790356552
 42
-0.0174430116847887
 10
2.627747020025172
 20
0.33012803560564
 42
-0.0109219578339942
 10
2.625442878801752
 20
0.329799142463799
 42
-0.0520451680420305
 10
2.617458535945591
 20
0.329799142463799
 42
-0.0139513426612014
 10
2.615659756253567
 20
0.3300115523971959
 42
-0.0578723374760443
 10
2.610218140962249
 20
0.3315192009325761
 42
-0.0508775714496942
 10
2.606195180433619
 20
0.3335955965084172
 42
-0.061605978241212
  0
LWPOLYLINE
  5
58C
102
{ACAD_REACTORS
330
585
102
}
330
557
100
AcDbEntity
  8
CONTINUOUS1
  6
CONTINUOUS
 62
     9
100
AcDbPolyline
 90
       61
 70
     0
 43
0.0
 10
2.456201459554765
 20
0.3185392197908646
 10
2.458979077648653
 20
0.3185392197908646
 10
2.46175669574271
 20
0.3185392197908646
 10
2.520086675716388
 20
0.3185392197908646
 10
2.522864293810275
 20
0.3185392197908646
 10
2.525641911904333
 20
0.3185392197908646
 10
2.525641911904333
 20
0.3213168378847518
 10
2.525641911904333
 20
0.3240944559788095
 10
2.525641911904333
 20
0.3268720740728673
 10
2.525641911904333
 20
0.3296496921667545
 10
2.525641911904333
 20
0.3324273102608122
 10
2.522864293810275
 20
0.3324273102608122
 10
2.520086675716388
 20
0.3324273102608122
 10
2.478422404306545
 20
0.3324273102608122
 10
2.475644786212658
 20
0.3324273102608122
 10
2.4728671681186
 20
0.3324273102608122
 10
2.4728671681186
 20
0.33520492835487
 10
2.4728671681186
 20
0.3379825464487572
 10
2.4728671681186
 20
0.3657587273886524
 10
2.4728671681186
 20
0.3685363454825397
 10
2.4728671681186
 20
0.3713139635765974
 10
2.475644786212658
 20
0.3713139635765974
 10
2.478422404306545
 20
0.3713139635765974
 10
2.51730905762233
 20
0.3713139635765974
 10
2.520086675716388
 20
0.3713139635765974
 10
2.522864293810275
 20
0.3713139635765974
 10
2.522864293810275
 20
0.3740915816706551
 10
2.522864293810275
 20
0.3768691997645424
 10
2.522864293810275
 20
0.3796468178584296
 10
2.522864293810275
 20
0.3824244359524873
 10
2.522864293810275
 20
0.3852020540465451
 10
2.520086675716388
 20
0.3852020540465451
 10
2.51730905762233
 20
0.3852020540465451
 10
2.478422404306545
 20
0.3852020540465451
 10
2.475644786212658
 20
0.3852020540465451
 10
2.4728671681186
 20
0.3852020540465451
 10
2.4728671681186
 20
0.3879796721404323
 10
2.4728671681186
 20
0.39075729023449
 10
2.4728671681186
 20
0.4185334711742148
 10
2.4728671681186
 20
0.4213110892682726
 10
2.4728671681186
 20
0.4240887073623303
 10
2.475644786212658
 20
0.4240887073623303
 10
2.478422404306545
 20
0.4240887073623303
 10
2.51730905762233
 20
0.4240887073623303
 10
2.520086675716388
 20
0.4240887073623303
 10
2.522864293810275
 20
0.4240887073623303
 10
2.522864293810275
 20
0.4268663254562175
 10
2.522864293810275
 20
0.4296439435502753
 10
2.522864293810275
 20
0.432421561644333
 10
2.522864293810275
 20
0.4351991797382202
 10
2.522864293810275
 20
0.4379767978321075
 10
2.520086675716388
 20
0.4379767978321075
 10
2.51730905762233
 20
0.4379767978321075
 10
2.46175669574271
 20
0.4379767978321075
 10
2.458979077648653
 20
0.4379767978321075
 10
2.456201459554765
 20
0.4379767978321075
 10
2.456201459554765
 20
0.4351991797382202
 10
2.456201459554765
 20
0.432421561644333
 10
2.456201459554765
 20
0.3240944559788095
 10
2.456201459554765
 20
0.3213168378847518
 10
2.456201459554765
 20
0.3185392197908646
  0
LWPOLYLINE
  5
58D
102
{ACAD_REACTORS
330
586
102
}
330
557
100
AcDbEntity
  8
CONTINUOUS1
  6
CONTINUOUS
 62
     9
100
AcDbPolyline
 90
       64
 70
     0
 43
0.0
 10
2.333986263419465
 20
0.3185392197908646
 10
2.336763881513352
 20
0.3185392197908646
 10
2.33954149960741
 20
0.3185392197908646
 10
2.342319117701297
 20
0.3185392197908646
 10
2.345096735795355
 20
0.3185392197908646
 10
2.347874353889242
 20
0.3185392197908646
 10
2.347874353889242
 20
0.3213168378847518
 10
2.347874353889242
 20
0.3240944559788095
 10
2.347874353889242
 20
0.3629811092945947
 10
2.347874353889242
 20
0.3657587273886524
 10
2.347874353889242
 20
0.3685363454825397
 10
2.348586194660104
 20
0.3713139635765974
 10
2.349735358012228
 20
0.3740915816706551
 10
2.3511797194212
 20
0.3764803332313709
 10
2.353429590077357
 20
0.378258008811486
 10
2.356207208171245
 20
0.3803481447481549
 10
2.358708187386159
 20
0.3821533245041455
 10
2.360746259593074
 20
0.3835311386972085
 10
2.362567953606546
 20
0.3843965447991882
 10
2.364540062453247
 20
0.3852020540465451
 10
2.367317680547134
 20
0.3860225445559995
 10
2.371041809419384
 20
0.3859647625154712
 10
2.373644053628343
 20
0.3851557727118125
 10
2.375650534829137
 20
0.3838132449996015
 10
2.377749804062805
 20
0.3819776024104162
 10
2.379816961970139
 20
0.3796468178584296
 10
2.381205771017082
 20
0.3784524420782422
 10
2.382248692300752
 20
0.380049012932091
 10
2.383757731757302
 20
0.3823591474088066
 10
2.385542235943237
 20
0.3850909809773389
 10
2.386582283838979
 20
0.3866831530647805
 10
2.387955382985555
 20
0.3887851813877892
 10
2.386761007205027
 20
0.39075729023449
 10
2.384708963404055
 20
0.3932298076646252
 10
2.38166327412026
 20
0.3956385659741959
 10
2.379947253551311
 20
0.3970016751998178
 10
2.377622643675838
 20
0.3982846352691358
 10
2.375650534829137
 20
0.3990901445163222
 10
2.37287291673525
 20
0.3990901445163222
 10
2.370095298641192
 20
0.3990901445163222
 10
2.367317680547134
 20
0.3987012779831507
 10
2.364540062453247
 20
0.3977013354693786
 10
2.361956877625775
 20
0.3961180931558492
 10
2.359679230788774
 20
0.394229312851849
 10
2.357596017218188
 20
0.3921460992814336
 10
2.355512803647773
 20
0.3900628857110182
 10
2.35378697604543
 20
0.3878950002004449
 10
2.3521136744877
 20
0.3860075632937314
 10
2.347874353889242
 20
0.3814779152569376
 10
2.347874353889242
 20
0.3860075632937314
 10
2.347874353889242
 20
0.3879796721404323
 10
2.347874353889242
 20
0.39075729023449
 10
2.347874353889242
 20
0.3935349083285478
 10
2.347874353889242
 20
0.396312526422435
 10
2.345096735795355
 20
0.396312526422435
 10
2.342319117701297
 20
0.396312526422435
 10
2.33954149960741
 20
0.396312526422435
 10
2.336763881513352
 20
0.396312526422435
 10
2.333986263419465
 20
0.396312526422435
 10
2.333986263419465
 20
0.3935349083285478
 10
2.333986263419465
 20
0.39075729023449
 10
2.333986263419465
 20
0.3240944559788095
 10
2.333986263419465
 20
0.3213168378847518
 10
2.333986263419465
 20
0.3185392197908646
  0
LWPOLYLINE
  5
58E
102
{ACAD_REACTORS
330
584
102
}
330
557
100
AcDbEntity
  8
CONTINUOUS1
  6
CONTINUOUS
 62
     9
100
AcDbPolyline
 90
       21
 70
     0
 43
0.0
 10
2.545085238562226
 20
0.3185392197908646
 10
2.547862856656283
 20
0.3185392197908646
 10
2.550640474750171
 20
0.3185392197908646
 10
2.553418092844228
 20
0.3185392197908646
 10
2.556195710938116
 20
0.3185392197908646
 10
2.558973329032173
 20
0.3185392197908646
 10
2.558973329032173
 20
0.3213168378847518
 10
2.558973329032173
 20
0.3240944559788095
 10
2.558973329032173
 20
0.432421561644333
 10
2.558973329032173
 20
0.4351991797382202
 10
2.558973329032173
 20
0.4379767978321075
 10
2.556195710938116
 20
0.4379767978321075
 10
2.553418092844228
 20
0.4379767978321075
 10
2.550640474750171
 20
0.4379767978321075
 10
2.547862856656283
 20
0.4379767978321075
 10
2.545085238562226
 20
0.4379767978321075
 10
2.545085238562226
 20
0.4351991797382202
 10
2.545085238562226
 20
0.432421561644333
 10
2.545085238562226
 20
0.3240944559788095
 10
2.545085238562226
 20
0.3213168378847518
 10
2.545085238562226
 20
0.3185392197908646
  0
LWPOLYLINE
  5
58F
102
{ACAD_REACTORS
330
587
102
}
330
557
100
AcDbEntity
  8
CONTINUOUS1
  6
CONTINUOUS
 62
     9
100
AcDbPolyline
 90
        7
 70
     1
 43
0.0
 10
2.496845563528129
 20
0.6423016628555165
 42
-0.4142135623943683
 10
2.507626614321143
 20
0.6315204283122289
 10
2.507626970571468
 20
0.6103328394705163
 42
-0.4142135623918344
 10
2.496845563528129
 20
0.5995516049272287
 10
2.397564961169027
 20
0.5995518730522922
 10
2.397564961169027
 20
0.6423016628555165
 10
2.496845563528129
 20
0.6423016628555165
  0
LWPOLYLINE
  5
590
102
{ACAD_REACTORS
330
581
102
}
330
557
100
AcDbEntity
  8
CONTINUOUS1
  6
CONTINUOUS
 62
     9
100
AcDbPolyline
 90
       80
 70
     0
 43
0.0
 10
2.768100195328234
 20
0.3193447290382215
 10
2.770072304174934
 20
0.3185392197908646
 10
2.776853223288274
 20
0.3177266059119579
 10
2.783960394644882
 20
0.3185392197908646
 10
2.78673801273894
 20
0.3190948244196652
 10
2.788710121585641
 20
0.3197586133924238
 10
2.790321140080184
 20
0.3205113286375654
 10
2.792293248926885
 20
0.3213168378847518
 10
2.795070867020772
 20
0.3223769226657969
 10
2.79784848511483
 20
0.323705589445638
 10
2.79784848511483
 20
0.3240944559788095
 10
2.79784848511483
 20
0.3268720740728673
 10
2.79784848511483
 20
0.3296496921667545
 10
2.79784848511483
 20
0.3324273102608122
 10
2.79784848511483
 20
0.3348160618216985
 10
2.795070867020772
 20
0.3340302206436268
 10
2.792365821896428
 20
0.3330627471016219
 10
2.789656082622375
 20
0.3319722328952826
 10
2.787543521986126
 20
0.3310528956835701
 10
2.785932503491583
 20
0.3304552014141114
 10
2.783960394644882
 20
0.3296496921667545
 10
2.781182776550995
 20
0.3294142968159695
 10
2.778405158456937
 20
0.3296496921667545
 10
2.776433049610236
 20
0.3304552014141114
 10
2.774670597445183
 20
0.3314126783258194
 10
2.772849922268992
 20
0.3324273102608122
 10
2.771309634063275
 20
0.3337080859405437
 10
2.770072304174934
 20
0.33520492835487
 10
2.769017502196309
 20
0.3370752134098898
 10
2.768100195328234
 20
0.3387880556961141
 10
2.767294686081047
 20
0.3407601645426444
 10
2.767294686081047
 20
0.3435377826367021
 10
2.767294686081047
 20
0.3796468178584296
 10
2.767294686081047
 20
0.3824244359524873
 10
2.767294686081047
 20
0.3852020540465451
 10
2.770072304174934
 20
0.3852020540465451
 10
2.772849922268992
 20
0.3852020540465451
 10
2.78673801273894
 20
0.3852020540465451
 10
2.789515630832827
 20
0.3852020540465451
 10
2.792293248926885
 20
0.3852020540465451
 10
2.792293248926885
 20
0.3879796721404323
 10
2.792293248926885
 20
0.39075729023449
 10
2.792293248926885
 20
0.3935349083285478
 10
2.792293248926885
 20
0.396312526422435
 10
2.789515630832827
 20
0.396312526422435
 10
2.78673801273894
 20
0.396312526422435
 10
2.772849922268992
 20
0.396312526422435
 10
2.770072304174934
 20
0.396312526422435
 10
2.767294686081047
 20
0.396312526422435
 10
2.767294686081047
 20
0.3990901445163222
 10
2.767294686081047
 20
0.40186776261038
 10
2.767294686081047
 20
0.4046453807044377
 10
2.767294686081047
 20
0.4074229987983249
 10
2.767294686081047
 20
0.4101951770153965
 10
2.765072591605903
 20
0.4082562842266957
 10
2.762850497130589
 20
0.4063119515608383
 10
2.749517930279555
 20
0.3946459555660344
 10
2.747295835804241
 20
0.392701622900177
 10
2.745037428605176
 20
0.390774564389972
 10
2.742784501548531
 20
0.3888087685731994
 10
2.740784200988546
 20
0.3870634024897304
 10
2.73865097726642
 20
0.3852020540465451
 10
2.74229612323521
 20
0.3852020540465451
 10
2.745073741329097
 20
0.3852020540465451
 10
2.747851359423155
 20
0.3852020540465451
 10
2.750628977517042
 20
0.3852020540465451
 10
2.7534065956111
 20
0.3852020540465451
 10
2.7534065956111
 20
0.3824244359524873
 10
2.7534065956111
 20
0.3796468178584296
 10
2.7534065956111
 20
0.3379825464487572
 10
2.7534065956111
 20
0.33520492835487
 10
2.753795462144271
 20
0.3324273102608122
 10
2.754795404658043
 20
0.3296496921667545
 10
2.756573080238158
 20
0.3272609406060388
 10
2.758810686828073
 20
0.3252801639712293
 10
2.760933940645745
 20
0.323705589445638
 10
2.762735804659516
 20
0.322316540818179
 10
2.764517067986989
 20
0.3213168378847518
 10
2.766384493876135
 20
0.3202550358792001
 10
2.768100195328234
 20
0.3193447290382215
  0
LWPOLYLINE
  5
591
102
{ACAD_REACTORS
330
582
102
}
330
557
100
AcDbEntity
  8
CONTINUOUS1
  6
CONTINUOUS
 62
     9
100
AcDbPolyline
 90
        4
 70
     1
 43
0.0
 10
2.728340921353581
 20
0.3820863083685713
 10
2.728340921353581
 20
0.3931967807444612
 42
1.819450421535996
 10
2.728340921353581
 20
0.3237563283948935
 10
2.728340921353581
 20
0.3348668007707834
 42
-2.028165022884401
  0
HATCH
  5
592
330
557
100
AcDbEntity
  8
CONTINUOUS1
 62
     9
100
AcDbHatch
 10
0.0
 20
0.0
 30
0.0
210
0.0
220
0.0
230
1.0
  2
SOLID
 70
     1
 71
     1
 91
        1
 92
        1
 93
       12
 72
     1
 10
2.682377122234047
 20
0.6638644919422068
 11
2.545877089309929
 21
0.6638644919422068
 72
     1
 10
2.545877089309929
 20
0.6638644919422068
 11
2.545877089309929
 21
0.5352391641624768
 72
     1
 10
2.545877089309929
 20
0.5352391641624768
 11
2.682377122234047
 21
0.5352391641624768
 72
     1
 10
2.682377122234047
 20
0.5352391641624768
 11
2.682377122234047
 21
0.5568015451239608
 72
     1
 10
2.682377122234047
 20
0.5568015451239608
 11
2.567439378396361
 21
0.5568015451239608
 72
     1
 10
2.567439378396361
 20
0.5568015451239608
 11
2.567439378396361
 21
0.5887705485089332
 72
     1
 10
2.567439378396361
 20
0.5887705485089332
 11
2.682377122234047
 21
0.5887705485089332
 72
     1
 10
2.682377122234047
 20
0.5887705485089332
 11
2.682377122234047
 21
0.6103328394705163
 72
     1
 10
2.682377122234047
 20
0.6103328394705163
 11
2.567439378396361
 21
0.6103328394705163
 72
     1
 10
2.567439378396361
 20
0.6103328394705163
 11
2.567439378396361
 21
0.6423016628555165
 72
     1
 10
2.567439378396361
 20
0.6423016628555165
 11
2.682377122234047
 21
0.6423016628555165
 72
     1
 10
2.682377122234047
 20
0.6423016628555165
 11
2.682377122234047
 21
0.6638644919422068
 97
        1
330
588
 75
     0
 76
     1
 98
        1
 10
-6.623918024059631
 20
-0.1308261527660757
  0
HATCH
  5
593
330
557
100
AcDbEntity
  8
CONTINUOUS1
 62
     9
100
AcDbHatch
 10
0.0
 20
0.0
 30
0.0
210
0.0
220
0.0
230
1.0
  2
SOLID
 70
     1
 71
     1
 91
        1
 92
        1
 93
        4
 72
     1
 10
2.981203152099315
 20
0.3820863083685713
 11
2.981203152099315
 21
0.3931967807444612
 72
     2
 10
2.959158691880601
 20
0.3584765545696773
 40
0.041127269930821
 50
57.58784372121546
 51
302.4121562787845
 73
     1
 72
     1
 10
2.981203152099315
 20
0.3237563283948935
 11
2.981203152099315
 21
0.3348668007707834
 72
     2
 10
2.963081385264331
 20
0.3584765545696773
 40
0.0297627100188458
 50
52.49180531393238
 51
307.5081946860675
 73
     0
 97
        1
330
595
 75
     0
 76
     1
 98
        1
 10
-6.623918024059631
 20
-0.1308261527660757
  0
HATCH
  5
594
330
557
100
AcDbEntity
  8
CONTINUOUS1
 62
     9
100
AcDbHatch
 10
0.0
 20
0.0
 30
0.0
210
0.0
220
0.0
230
1.0
  2
SOLID
 70
     1
 71
     1
 91
        2
 92
        1
 93
       20
 72
     1
 10
2.883954646028403
 20
0.3185392197908646
 11
2.88673226412229
 21
0.3185392197908646
 72
     1
 10
2.88673226412229
 20
0.3185392197908646
 11
2.889509882216348
 21
0.3185392197908646
 72
     1
 10
2.889509882216348
 20
0.3185392197908646
 11
2.892287500310406
 21
0.3185392197908646
 72
     1
 10
2.892287500310406
 20
0.3185392197908646
 11
2.895065118404293
 21
0.3185392197908646
 72
     1
 10
2.895065118404293
 20
0.3185392197908646
 11
2.897842736498351
 21
0.3185392197908646
 72
     1
 10
2.897842736498351
 20
0.3185392197908646
 11
2.897842736498351
 21
0.3213168378847518
 72
     1
 10
2.897842736498351
 20
0.3213168378847518
 11
2.897842736498351
 21
0.3240944559788095
 72
     1
 10
2.897842736498351
 20
0.3240944559788095
 11
2.897842736498351
 21
0.39075729023449
 72
     1
 10
2.897842736498351
 20
0.39075729023449
 11
2.897842736498351
 21
0.3935349083285478
 72
     1
 10
2.897842736498351
 20
0.3935349083285478
 11
2.897843375494833
 21
0.396312526422435
 72
     1
 10
2.897843375494833
 20
0.396312526422435
 11
2.895065118404293
 21
0.396312526422435
 72
     1
 10
2.895065118404293
 20
0.396312526422435
 11
2.892287500310406
 21
0.396312526422435
 72
     1
 10
2.892287500310406
 20
0.396312526422435
 11
2.889509882216348
 21
0.396312526422435
 72
     1
 10
2.889509882216348
 20
0.396312526422435
 11
2.88673226412229
 21
0.396312526422435
 72
     1
 10
2.88673226412229
 20
0.396312526422435
 11
2.883954646028403
 21
0.396312526422435
 72
     1
 10
2.883954646028403
 20
0.396312526422435
 11
2.883954646028403
 21
0.3935349083285478
 72
     1
 10
2.883954646028403
 20
0.3935349083285478
 11
2.883954646028403
 21
0.39075729023449
 72
     1
 10
2.883954646028403
 20
0.39075729023449
 11
2.883954646028403
 21
0.3240944559788095
 72
     1
 10
2.883954646028403
 20
0.3240944559788095
 11
2.883954646028403
 21
0.3213168378847518
 72
     1
 10
2.883954646028403
 20
0.3213168378847518
 11
2.883954646028403
 21
0.3185392197908646
 97
        1
330
596
 92
        1
 93
        1
 72
     2
 10
2.890898691263291
 20
0.4213110892682726
 40
0.0083328542819542
 50
0.0
 51
360.0
 73
     1
 97
        1
330
597
 75
     0
 76
     1
 98
        1
 10
-6.623918024059631
 20
-0.1308261527660757
  0
LWPOLYLINE
  5
595
102
{ACAD_REACTORS
330
593
102
}
330
557
100
AcDbEntity
  8
CONTINUOUS1
  6
CONTINUOUS
 62
     9
100
AcDbPolyline
 90
        4
 70
     1
 43
0.0
 10
2.981203152099315
 20
0.3820863083685713
 10
2.981203152099315
 20
0.3931967807444612
 42
1.819450421535996
 10
2.981203152099315
 20
0.3237563283948935
 10
2.981203152099315
 20
0.3348668007707834
 42
-2.028165022884401
  0
LWPOLYLINE
  5
596
102
{ACAD_REACTORS
330
594
102
}
330
557
100
AcDbEntity
  8
CONTINUOUS1
  6
CONTINUOUS
 62
     9
100
AcDbPolyline
 90
       21
 70
     0
 43
0.0
 10
2.883954646028403
 20
0.3185392197908646
 10
2.88673226412229
 20
0.3185392197908646
 10
2.889509882216348
 20
0.3185392197908646
 10
2.892287500310406
 20
0.3185392197908646
 10
2.895065118404293
 20
0.3185392197908646
 10
2.897842736498351
 20
0.3185392197908646
 10
2.897842736498351
 20
0.3213168378847518
 10
2.897842736498351
 20
0.3240944559788095
 10
2.897842736498351
 20
0.39075729023449
 10
2.897842736498351
 20
0.3935349083285478
 10
2.897843375494833
 20
0.396312526422435
 10
2.895065118404293
 20
0.396312526422435
 10
2.892287500310406
 20
0.396312526422435
 10
2.889509882216348
 20
0.396312526422435
 10
2.88673226412229
 20
0.396312526422435
 10
2.883954646028403
 20
0.396312526422435
 10
2.883954646028403
 20
0.3935349083285478
 10
2.883954646028403
 20
0.39075729023449
 10
2.883954646028403
 20
0.3240944559788095
 10
2.883954646028403
 20
0.3213168378847518
 10
2.883954646028403
 20
0.3185392197908646
  0
CIRCLE
  5
597
102
{ACAD_REACTORS
330
594
102
}
330
557
100
AcDbEntity
  8
CONTINUOUS1
 62
     9
100
AcDbCircle
 10
2.890898691263291
 20
0.4213110892682726
 30
0.0
 40
0.0083328542819542
  0
LWPOLYLINE
  5
598
102
{ACAD_REACTORS
330
567
102
}
330
557
100
AcDbEntity
  8
CONTINUOUS1
  6
CONTINUOUS
 62
     9
100
AcDbPolyline
 90
        7
 70
     0
 43
0.0
 10
2.846064035419235
 20
0.6423016628555165
 10
2.959782634710521
 20
0.6423016628555165
 42
-0.4142135623918432
 10
2.97056404175391
 20
0.6315204283122381
 10
2.97056404175391
 20
0.5675829596674955
 42
-0.4142111173935808
 10
2.959782634710521
 20
0.5568015451240994
 10
2.846064035419235
 20
0.5568015451240994
 10
2.846064035419235
 20
0.6423016628555165
  0
ENDBLK
  5
59A
330
557
100
AcDbEntity
  8
0
100
AcDbBlockEnd
  0
BLOCK
  5
FCE
330
FC3
100
AcDbEntity
  8
0
100
AcDbBlockBegin
  2
*D3
 70
     1
 10
0.0
 20
0.0
 30
0.0
  3
*D3
  1

  0
LINE
  5
1F7A
330
FC3
100
AcDbEntity
  8
DIM
100
AcDbLine
 10
21.01197145845873
 20
34.72899436170716
 30
0.0
 11
21.01197145845873
 21
36.34571256361272
 31
0.0
  0
LINE
  5
1F7B
330
FC3
100
AcDbEntity
  8
DIM
100
AcDbLine
 10
13.76197145845874
 20
34.72899436170716
 30
0.0
 11
13.76197145845874
 21
36.34571256361272
 31
0.0
  0
LINE
  5
1F7C
330
FC3
100
AcDbEntity
  8
DIM
100
AcDbLine
 10
20.73197145845873
 20
36.09571256361272
 30
0.0
 11
18.3088762203635
 21
36.09571256361272
 31
0.0
  0
LINE
  5
1F7D
330
FC3
100
AcDbEntity
  8
DIM
100
AcDbLine
 10
14.04197145845874
 20
36.09571256361272
 30
0.0
 11
16.46506669655397
 21
36.09571256361272
 31
0.0
  0
INSERT
  5
1F7E
330
FC3
100
AcDbEntity
  8
DIM
100
AcDbBlockReference
  2
SEARROW
 10
21.01197145845873
 20
36.09571256361272
 30
0.0
 41
0.28
 42
0.28
 43
0.28
  0
INSERT
  5
1F7F
330
FC3
100
AcDbEntity
  8
DIM
100
AcDbBlockReference
  2
SEARROW
 10
13.76197145845874
 20
36.09571256361272
 30
0.0
 41
0.28
 42
0.28
 43
0.28
 50
180.0
  0
MTEXT
  5
1F80
330
FC3
100
AcDbEntity
  8
DIM
100
AcDbMText
 10
17.38697145845874
 20
36.09571256361272
 30
0.0
 40
0.4
 41
0.0
 71
     5
 72
     1
  1
\A1;7.25\P{\H0.8x; [184]
  7
ROMANS
1001
ACAD
1000
MTEXTBEGIN
1070
    73
1070
     1
1070
    44
1040
1.0
1070
    74
1070
     0
1000
MTEXTEND
  0
POINT
  5
1F81
330
FC3
100
AcDbEntity
  8
DEFPOINTS
 62
     0
100
AcDbPoint
 10
21.01197145845873
 20
34.47899436170716
 30
0.0
  0
POINT
  5
1F82
330
FC3
100
AcDbEntity
  8
DEFPOINTS
 62
     0
100
AcDbPoint
 10
13.76197145845874
 20
34.47899436170716
 30
0.0
  0
POINT
  5
1F83
330
FC3
100
AcDbEntity
  8
DEFPOINTS
 62
     0
100
AcDbPoint
 10
13.76197145845874
 20
36.09571256361272
 30
0.0
  0
ENDBLK
  5
FCF
330
FC3
100
AcDbEntity
  8
0
100
AcDbBlockEnd
  0
BLOCK
  5
FDC
330
FD1
100
AcDbEntity
  8
0
100
AcDbBlockBegin
  2
*D4
 70
     1
 10
0.0
 20
0.0
 30
0.0
  3
*D4
  1

  0
LINE
  5
1F84
330
FD1
100
AcDbEntity
  8
DIM
100
AcDbLine
 10
14.49687205351476
 20
26.18925288977431
 30
0.0
 11
11.13139886920764
 21
26.18925288977431
 31
0.0
  0
LINE
  5
1F85
330
FD1
100
AcDbEntity
  8
DIM
100
AcDbLine
 10
16.74669392763354
 20
32.18925288977429
 30
0.0
 11
11.13139886920764
 21
32.1892528897743
 31
0.0
  0
LINE
  5
1F86
330
FD1
100
AcDbEntity
  8
DIM
100
AcDbLine
 10
11.38139886920764
 20
26.46925288977431
 30
0.0
 11
11.38139886920764
 21
28.44258622310764
 31
0.0
  0
LINE
  5
1F87
330
FD1
100
AcDbEntity
  8
DIM
100
AcDbLine
 10
11.38139886920764
 20
31.90925288977429
 30
0.0
 11
11.38139886920764
 21
29.93591955644097
 31
0.0
  0
INSERT
  5
1F88
330
FD1
100
AcDbEntity
  8
DIM
100
AcDbBlockReference
  2
SEARROW
 10
11.38139886920764
 20
26.18925288977431
 30
0.0
 41
0.28
 42
0.28
 43
0.28
 50
270.0
  0
INSERT
  5
1F89
330
FD1
100
AcDbEntity
  8
DIM
100
AcDbBlockReference
  2
SEARROW
 10
11.38139886920764
 20
32.1892528897743
 30
0.0
 41
0.28
 42
0.28
 43
0.28
 50
90.0
  0
MTEXT
  5
1F8A
330
FD1
100
AcDbEntity
  8
DIM
100
AcDbMText
 10
11.38139886920763
 20
29.18925288977431
 30
0.0
 40
0.4
 41
0.0
 71
     5
 72
     1
  1
\A1;6.00\P{\H0.8x; [152]
  7
ROMANS
1001
ACAD
1000
MTEXTBEGIN
1070
    73
1070
     1
1070
    44
1040
1.0
1070
    74
1070
     0
1000
MTEXTEND
  0
POINT
  5
1F8B
330
FD1
100
AcDbEntity
  8
DEFPOINTS
 62
     0
100
AcDbPoint
 10
14.74687205351476
 20
26.18925288977431
 30
0.0
  0
POINT
  5
1F8C
330
FD1
100
AcDbEntity
  8
DEFPOINTS
 62
     0
100
AcDbPoint
 10
16.99669392763354
 20
32.18925288977429
 30
0.0
  0
POINT
  5
1F8D
330
FD1
100
AcDbEntity
  8
DEFPOINTS
 62
     0
100
AcDbPoint
 10
11.38139886920764
 20
32.1892528897743
 30
0.0
  0
ENDBLK
  5
FDD
330
FD1
100
AcDbEntity
  8
0
100
AcDbBlockEnd
  0
BLOCK
  5
FEA
330
FDF
100
AcDbEntity
  8
0
100
AcDbBlockBegin
  2
*D5
 70
     1
 10
0.0
 20
0.0
 30
0.0
  3
*D5
  1

  0
LINE
  5
1F8E
330
FDF
100
AcDbEntity
  8
DIM
100
AcDbLine
 10
15.13714958433965
 20
25.54897535894882
 30
0.0
 11
15.13714958433965
 21
22.75708689014613
 31
0.0
  0
LINE
  5
1F8F
330
FDF
100
AcDbEntity
  8
DIM
100
AcDbLine
 10
19.63679433328944
 20
25.54897535894915
 30
0.0
 11
19.63679433328944
 21
22.75708689014613
 31
0.0
  0
LINE
  5
1F90
330
FDF
100
AcDbEntity
  8
DIM
100
AcDbLine
 10
15.41714958433965
 20
23.00708689014614
 30
0.0
 11
16.46506719690978
 21
23.00708689014614
 31
0.0
  0
LINE
  5
1F91
330
FDF
100
AcDbEntity
  8
DIM
100
AcDbLine
 10
19.35679433328944
 20
23.00708689014614
 30
0.0
 11
18.30887672071931
 21
23.00708689014614
 31
0.0
  0
INSERT
  5
1F92
330
FDF
100
AcDbEntity
  8
DIM
100
AcDbBlockReference
  2
SEARROW
 10
15.13714958433965
 20
23.00708689014614
 30
0.0
 41
0.28
 42
0.28
 43
0.28
 50
180.0
  0
INSERT
  5
1F93
330
FDF
100
AcDbEntity
  8
DIM
100
AcDbBlockReference
  2
SEARROW
 10
19.63679433328944
 20
23.00708689014614
 30
0.0
 41
0.28
 42
0.28
 43
0.28
  0
MTEXT
  5
1F94
330
FDF
100
AcDbEntity
  8
DIM
100
AcDbMText
 10
17.38697195881455
 20
23.00708689014614
 30
0.0
 40
0.4
 41
0.0
 71
     5
 72
     1
  1
\A1;4.50\P{\H0.8x; [114]
  7
ROMANS
1001
ACAD
1000
MTEXTBEGIN
1070
    73
1070
     1
1070
    44
1040
1.0
1070
    74
1070
     0
1000
MTEXTEND
  0
POINT
  5
1F95
330
FDF
100
AcDbEntity
  8
DEFPOINTS
 62
     0
100
AcDbPoint
 10
15.13714958433965
 20
25.79897535894882
 30
0.0
  0
POINT
  5
1F96
330
FDF
100
AcDbEntity
  8
DEFPOINTS
 62
     0
100
AcDbPoint
 10
19.63679433328944
 20
25.79897535894914
 30
0.0
  0
POINT
  5
1F97
330
FDF
100
AcDbEntity
  8
DEFPOINTS
 62
     0
100
AcDbPoint
 10
19.63679433328944
 20
23.00708689014614
 30
0.0
  0
ENDBLK
  5
FEB
330
FDF
100
AcDbEntity
  8
0
100
AcDbBlockEnd
  0
BLOCK
  5
FF8
330
FED
100
AcDbEntity
  8
0
100
AcDbBlockBegin
  2
*D6
 70
     1
 10
0.0
 20
0.0
 30
0.0
  3
*D6
  1

  0
LINE
  5
1F98
330
FED
100
AcDbEntity
  8
DIM
100
AcDbLine
 10
21.51089302634844
 20
16.77726688513386
 30
0.0
 11
21.51089302634844
 21
17.92240548774902
 31
0.0
  0
LINE
  5
1F99
330
FED
100
AcDbEntity
  8
DIM
100
AcDbLine
 10
13.76197145845874
 20
14.68548539534332
 30
0.0
 11
13.76197145845874
 21
17.92240548774902
 31
0.0
  0
LINE
  5
1F9A
330
FED
100
AcDbEntity
  8
DIM
100
AcDbLine
 10
21.23089302634844
 20
17.67240548774902
 30
0.0
 11
18.55833700430835
 21
17.67240548774902
 31
0.0
  0
LINE
  5
1F9B
330
FED
100
AcDbEntity
  8
DIM
100
AcDbLine
 10
14.04197145845874
 20
17.67240548774902
 30
0.0
 11
16.71452748049883
 21
17.67240548774902
 31
0.0
  0
INSERT
  5
1F9C
330
FED
100
AcDbEntity
  8
DIM
100
AcDbBlockReference
  2
SEARROW
 10
21.51089302634844
 20
17.67240548774902
 30
0.0
 41
0.28
 42
0.28
 43
0.28
  0
INSERT
  5
1F9D
330
FED
100
AcDbEntity
  8
DIM
100
AcDbBlockReference
  2
SEARROW
 10
13.76197145845874
 20
17.67240548774902
 30
0.0
 41
0.28
 42
0.28
 43
0.28
 50
180.0
  0
MTEXT
  5
1F9E
330
FED
100
AcDbEntity
  8
DIM
100
AcDbMText
 10
17.63643224240359
 20
17.67240548774902
 30
0.0
 40
0.4
 41
0.0
 71
     5
 72
     1
  1
\A1;7.75\P{\H0.8x; [197]
  7
ROMANS
1001
ACAD
1000
MTEXTBEGIN
1070
    73
1070
     1
1070
    44
1040
1.0
1070
    74
1070
     0
1000
MTEXTEND
  0
POINT
  5
1F9F
330
FED
100
AcDbEntity
  8
DEFPOINTS
 62
     0
100
AcDbPoint
 10
21.51089302634844
 20
16.52726688513386
 30
0.0
  0
POINT
  5
1FA0
330
FED
100
AcDbEntity
  8
DEFPOINTS
 62
     0
100
AcDbPoint
 10
13.76197145845874
 20
14.43548539534332
 30
0.0
  0
POINT
  5
1FA1
330
FED
100
AcDbEntity
  8
DEFPOINTS
 62
     0
100
AcDbPoint
 10
13.76197145845874
 20
17.67240548774902
 30
0.0
  0
ENDBLK
  5
FF9
330
FED
100
AcDbEntity
  8
0
100
AcDbBlockEnd
  0
BLOCK
  5
1006
330
FFB
100
AcDbEntity
  8
0
100
AcDbBlockBegin
  2
*D7
 70
     1
 10
0.0
 20
0.0
 30
0.0
  3
*D7
  1

  0
LINE
  5
1FA2
330
FFB
100
AcDbEntity
  8
DIM
100
AcDbLine
 10
28.91327822106967
 20
24.60824493989933
 30
0.0
 11
28.91327822106967
 21
22.75708689014613
 31
0.0
  0
LINE
  5
1FA3
330
FFB
100
AcDbEntity
  8
DIM
100
AcDbLine
 10
32.66594678669467
 20
25.00406841450852
 30
0.0
 11
32.66594678669467
 21
22.75708689014613
 31
0.0
  0
LINE
  5
1FA4
330
FFB
100
AcDbEntity
  8
DIM
100
AcDbLine
 10
29.19327822106967
 20
23.00708689014614
 30
0.0
 11
30.02008869435836
 21
23.00708689014614
 31
0.0
  0
LINE
  5
1FA5
330
FFB
100
AcDbEntity
  8
DIM
100
AcDbLine
 10
32.38594678669467
 20
23.00708689014614
 30
0.0
 11
31.55913631340598
 21
23.00708689014614
 31
0.0
  0
INSERT
  5
1FA6
330
FFB
100
AcDbEntity
  8
DIM
100
AcDbBlockReference
  2
SEARROW
 10
28.91327822106967
 20
23.00708689014614
 30
0.0
 41
0.28
 42
0.28
 43
0.28
 50
180.0
  0
INSERT
  5
1FA7
330
FFB
100
AcDbEntity
  8
DIM
100
AcDbBlockReference
  2
SEARROW
 10
32.66594678669467
 20
23.00708689014614
 30
0.0
 41
0.28
 42
0.28
 43
0.28
  0
MTEXT
  5
1FA8
330
FFB
100
AcDbEntity
  8
DIM
100
AcDbMText
 10
30.78961250388217
 20
23.00708689014614
 30
0.0
 40
0.4
 41
0.0
 71
     5
 72
     1
  1
\A1;3.75\P{\H0.8x; [95]
  7
ROMANS
1001
ACAD
1000
MTEXTBEGIN
1070
    73
1070
     1
1070
    44
1040
1.0
1070
    74
1070
     0
1000
MTEXTEND
  0
POINT
  5
1FA9
330
FFB
100
AcDbEntity
  8
DEFPOINTS
 62
     0
100
AcDbPoint
 10
28.91327822106967
 20
24.85824493989932
 30
0.0
  0
POINT
  5
1FAA
330
FFB
100
AcDbEntity
  8
DEFPOINTS
 62
     0
100
AcDbPoint
 10
32.66594678669467
 20
25.25406841450851
 30
0.0
  0
POINT
  5
1FAB
330
FFB
100
AcDbEntity
  8
DEFPOINTS
 62
     0
100
AcDbPoint
 10
32.66594678669467
 20
23.00708689014614
 30
0.0
  0
ENDBLK
  5
1007
330
FFB
100
AcDbEntity
  8
0
100
AcDbBlockEnd
  0
BLOCK
  5
1014
330
1009
100
AcDbEntity
  8
0
100
AcDbBlockBegin
  2
*D8
 70
     1
 10
0.0
 20
0.0
 30
0.0
  3
*D8
  1

  0
LINE
  5
1FAC
330
1009
100
AcDbEntity
  8
DIM
100
AcDbLine
 10
32.71580446319467
 20
24.84899436170716
 30
0.0
 11
34.53347791899526
 21
24.84899436170716
 31
0.0
  0
LINE
  5
1FAD
330
1009
100
AcDbEntity
  8
DIM
100
AcDbLine
 10
32.71580446319467
 20
34.47899436170716
 30
0.0
 11
34.53347791899526
 21
34.47899436170716
 31
0.0
  0
LINE
  5
1FAE
330
1009
100
AcDbEntity
  8
DIM
100
AcDbLine
 10
34.28347791899525
 20
25.12899436170716
 30
0.0
 11
34.28347791899525
 21
28.9173276950405
 31
0.0
  0
LINE
  5
1FAF
330
1009
100
AcDbEntity
  8
DIM
100
AcDbLine
 10
34.28347791899525
 20
34.19899436170716
 30
0.0
 11
34.28347791899525
 21
30.41066102837383
 31
0.0
  0
INSERT
  5
1FB0
330
1009
100
AcDbEntity
  8
DIM
100
AcDbBlockReference
  2
SEARROW
 10
34.28347791899525
 20
24.84899436170716
 30
0.0
 41
0.28
 42
0.28
 43
0.28
 50
270.0
  0
INSERT
  5
1FB1
330
1009
100
AcDbEntity
  8
DIM
100
AcDbBlockReference
  2
SEARROW
 10
34.28347791899525
 20
34.47899436170716
 30
0.0
 41
0.28
 42
0.28
 43
0.28
 50
90.0
  0
MTEXT
  5
1FB2
330
1009
100
AcDbEntity
  8
DIM
100
AcDbMText
 10
34.28347791899525
 20
29.66399436170716
 30
0.0
 40
0.4
 41
0.0
 71
     5
 72
     1
  1
\A1;9.63\P{\H0.8x; [245]
  7
ROMANS
1001
ACAD
1000
MTEXTBEGIN
1070
    73
1070
     1
1070
    44
1040
1.0
1070
    74
1070
     0
1000
MTEXTEND
  0
POINT
  5
1FB3
330
1009
100
AcDbEntity
  8
DEFPOINTS
 62
     0
100
AcDbPoint
 10
32.46580446319467
 20
24.84899436170716
 30
0.0
  0
POINT
  5
1FB4
330
1009
100
AcDbEntity
  8
DEFPOINTS
 62
     0
100
AcDbPoint
 10
32.46580446319467
 20
34.47899436170716
 30
0.0
  0
POINT
  5
1FB5
330
1009
100
AcDbEntity
  8
DEFPOINTS
 62
     0
100
AcDbPoint
 10
34.28347791899525
 20
34.47899436170716
 30
0.0
  0
ENDBLK
  5
1015
330
1009
100
AcDbEntity
  8
0
100
AcDbBlockEnd
  0
ENDSEC
  0
SECTION
  2
ENTITIES
  0
LWPOLYLINE
  5
52F
330
1F
100
AcDbEntity
  8
VIEWPORT
100
AcDbPolyline
 90
        6
 70
     1
 43
0.0
 10
0.0
 20
0.0
 10
32.01
 20
0.0
 10
32.01
 20
3.648
 10
65.59999999999999
 20
3.648
 10
65.59999999999999
 20
40.3816
 10
0.0
 20
40.3816
  0
VIEWPORT
  5
530
330
1F
100
AcDbEntity
  8
VIEWPORT
100
AcDbViewport
 10
32.79999999999999
 20
20.1908
 30
0.0
 40
65.59999999999999
 41
40.3816
 69
     0
1001
ACAD
1000
MVIEW
1002
{
1070
    16
1010
0.0
1020
0.0
1030
0.0
1010
0.0
1020
0.0
1030
1.0
1040
0.0
1040
10.0954
1040
8.199999999999999
1040
5.047699999999998
1040
50.0
1040
0.0
1040
0.0
1070
     0
1070
   100
1070
     1
1070
     0
1070
     0
1070
     0
1070
     0
1070
     0
1040
0.0
1040
0.0
1040
0.0
1040
0.0
1040
0.0
1040
0.0
1040
0.0
1070
     0
1002
{
1002
}
1002
}
  0
TEXT
  5
AC1
330
1F
100
AcDbEntity
  8
TEXT1
100
AcDbText
 10
57.13968717560885
 20
24.09956783447267
 30
0.0
 40
0.32
  1
KNOCKOUTS
  7
ROMANS
 72
     1
 11
58.57206812798981
 21
24.25956783447267
 31
0.0
100
AcDbText
 73
     2
  0
LWPOLYLINE
  5
AC2
330
1F
100
AcDbEntity
  8
CONTINUOUS1
100
AcDbPolyline
 90
        4
 70
     1
 43
0.0
 10
52.29899773597715
 20
38.98159999999998
 10
64.59999999999999
 20
38.9816
 10
64.59999999999999
 20
30.42206783447266
 10
52.29899773597715
 20
30.42206783447265
  0
TEXT
  5
AC3
330
1F
100
AcDbEntity
  8
TEXT1
100
AcDbText
 10
55.84034816866828
 20
28.69956783447266
 30
0.0
 40
0.32
  1
TERMINAL LUGS
  7
ROMANS
 72
     1
 11
57.6993957877159
 21
28.85956783447266
 31
0.0
100
AcDbText
 73
     2
  0
LWPOLYLINE
  5
AC4
330
1F
100
AcDbEntity
  8
CONTINUOUS1
100
AcDbPolyline
 90
        4
 70
     1
 43
0.0
 10
52.28324310928586
 20
20.99706783447265
 10
64.59999999999999
 20
20.99706783447264
 10
64.59999999999999
 20
24.82206783447265
 10
52.28324310928586
 20
24.82206783447266
  0
LINE
  5
AC5
330
1F
100
AcDbEntity
  8
CONTINUOUS1
100
AcDbLine
 10
52.28324310928586
 20
23.69706783447266
 30
0.0
 11
64.59999999999999
 21
23.69706783447266
 31
0.0
  0
LINE
  5
AC6
330
1F
100
AcDbEntity
  8
CONTINUOUS1
100
AcDbLine
 10
50.85957143753764
 20
28.29706783447266
 30
0.0
 11
64.59999999999999
 21
28.29706783447266
 31
0.0
  0
LINE
  5
AC7
330
1F
100
AcDbEntity
  8
CONTINUOUS1
100
AcDbLine
 10
52.28324310928586
 20
22.34706783447266
 30
0.0
 11
64.59999999999999
 21
22.34706783447266
 31
0.0
  0
TEXT
  5
AC8
330
1F
100
AcDbEntity
  8
TEXT1
100
AcDbText
 10
58.91881332590465
 20
22.86206783447266
 30
0.0
 40
0.32
  1
B
  7
ROMANS
 72
     1
 11
59.08643237352371
 21
23.02206783447266
 31
0.0
100
AcDbText
 73
     2
  0
TEXT
  5
AC9
330
1F
100
AcDbEntity
  8
TEXT1
100
AcDbText
 10
61.12508470058441
 20
22.86206783447266
 30
0.0
 40
0.32
  1
C
  7
ROMANS
 72
     1
 11
61.28508470058441
 21
23.02206783447266
 31
0.0
100
AcDbText
 73
     2
  0
TEXT
  5
ACA
330
1F
100
AcDbEntity
  8
TEXT1
100
AcDbText
 10
57.08829766588554
 20
22.86206783447266
 30
0.0
 40
0.32
  1
A
  7
ROMANS
 72
     1
 11
57.2254405230284
 21
23.02206783447266
 31
0.0
100
AcDbText
 73
     2
  0
TEXT
  5
ACB
330
1F
100
AcDbEntity
  8
TEXT1
100
AcDbText
 10
63.35585345818881
 20
22.86206783447266
 30
0.0
 40
0.32
  1
D
  7
ROMANS
 72
     1
 11
63.52347250580786
 21
23.02206783447266
 31
0.0
100
AcDbText
 73
     2
  0
TEXT
  5
ACC
330
1F
100
AcDbEntity
  8
TEXT1
100
AcDbText
 10
56.83686909445697
 20
21.51206783447265
 30
0.0
 40
0.32
  1
.50
  7
ROMANS
 72
     1
 11
57.2254405230284
 21
21.67206783447265
 31
0.0
100
AcDbText
 73
     2
  0
TEXT
  5
ACD
330
1F
100
AcDbEntity
  8
TEXT1
100
AcDbText
 10
62.96728202961738
 20
21.51206783447265
 30
0.0
 40
0.32
  1
1.25
  7
ROMANS
 72
     1
 11
63.52347250580786
 21
21.67206783447265
 31
0.0
100
AcDbText
 73
     2
  0
TEXT
  5
ACE
330
1F
100
AcDbEntity
  8
TEXT1
100
AcDbText
 10
58.69786094495228
 20
21.51206783447265
 30
0.0
 40
0.32
  1
.75
  7
ROMANS
 72
     1
 11
59.08643237352371
 21
21.67206783447265
 31
0.0
100
AcDbText
 73
     2
  0
TEXT
  5
ACF
330
1F
100
AcDbEntity
  8
TEXT1
100
AcDbText
 10
61.1555608910606
 20
21.51206783447265
 30
0.0
 40
0.32
  1
1
  7
ROMANS
 72
     1
 11
61.28508470058441
 21
21.67206783447265
 31
0.0
100
AcDbText
 73
     2
  0
TEXT
  5
AD0
330
1F
100
AcDbEntity
  8
TEXT1
100
AcDbText
 10
58.92007738991862
 20
26.78706783447266
 30
0.0
 40
0.32
  1
10 AWG
  7
ROMANS
 72
     1
 11
59.88769643753767
 21
26.94706783447266
 31
0.0
100
AcDbText
 73
     2
  0
TEXT
  5
AD1
330
1F
100
AcDbEntity
  8
TEXT1
100
AcDbText
 10
58.58712365120649
 20
26.78706783447266
 30
0.0
 40
0.32
  1
#
  7
ROMANS
 72
     1
 11
58.74712365120649
 21
26.94706783447266
 31
0.0
100
AcDbText
 73
     2
  0
TEXT
  5
AD2
330
1F
100
AcDbEntity
  8
TEXT1
100
AcDbText
 10
58.92007738991862
 20
26.11206783447265
 30
0.0
 40
0.32
  1
14 AWG
  7
ROMANS
 72
     1
 11
59.88769643753767
 21
26.27206783447265
 31
0.0
100
AcDbText
 73
     2
  0
TEXT
  5
AD3
330
1F
100
AcDbEntity
  8
TEXT1
100
AcDbText
 10
58.58712365120649
 20
26.11206783447266
 30
0.0
 40
0.32
  1
#
  7
ROMANS
 72
     1
 11
58.74712365120649
 21
26.27206783447266
 31
0.0
100
AcDbText
 73
     2
  0
TEXT
  5
AD4
330
1F
100
AcDbEntity
  8
TEXT1
100
AcDbText
 10
62.82727977087102
 20
26.78706783447266
 30
0.0
 40
0.32
  1
AL
  7
ROMANS
 72
     1
 11
63.09394643753768
 21
26.94706783447266
 31
0.0
100
AcDbText
 73
     2
  0
TEXT
  5
AD5
330
1F
100
AcDbEntity
  8
TEXT1
100
AcDbText
 10
62.77394643753768
 20
26.11206783447266
 30
0.0
 40
0.32
  1
CU
  7
ROMANS
 72
     1
 11
63.09394643753768
 21
26.27206783447266
 31
0.0
100
AcDbText
 73
     2
  0
TEXT
  5
AD6
330
1F
100
AcDbEntity
  8
TEXT1
100
AcDbText
 10
62.5377559613472
 20
27.68706783447266
 30
0.0
 40
0.32
  1
TYPE
  7
ROMANS
 72
     1
 11
63.09394643753768
 21
27.84706783447266
 31
0.0
100
AcDbText
 73
     2
  0
TEXT
  5
AD7
330
1F
100
AcDbEntity
  8
TEXT1
100
AcDbText
 10
58.6762678661091
 20
27.68706783447266
 30
0.0
 40
0.32
  1
MIN. WIRE
  7
ROMANS
 72
     1
 11
59.88769643753767
 21
27.84706783447266
 31
0.0
100
AcDbText
 73
     2
  0
TEXT
  5
AD8
330
1F
100
AcDbEntity
  8
TEXT1
100
AcDbText
 10
54.73406548515672
 20
27.68706783447266
 30
0.0
 40
0.32
  1
MAX. WIRE
  7
ROMANS
 72
     1
 11
56.00644643753767
 21
27.84706783447266
 31
0.0
100
AcDbText
 73
     2
  0
TEXT
  5
AD9
330
1F
100
AcDbEntity
  8
TEXT1
100
AcDbText
 10
55.2140654851567
 20
26.78706783447266
 30
0.0
 40
0.32
  1
2 AWG
  7
ROMANS
 72
     1
 11
56.00644643753764
 21
26.94706783447266
 31
0.0
100
AcDbText
 73
     2
  0
TEXT
  5
ADA
330
1F
100
AcDbEntity
  8
TEXT1
100
AcDbText
 10
54.70587365120647
 20
26.78706783447266
 30
0.0
 40
0.32
  1
#
  7
ROMANS
 72
     1
 11
54.86587365120647
 21
26.94706783447266
 31
0.0
100
AcDbText
 73
     2
  0
TEXT
  5
ADB
330
1F
100
AcDbEntity
  8
TEXT1
100
AcDbText
 10
55.2140654851567
 20
26.11206783447265
 30
0.0
 40
0.32
  1
2 AWG
  7
ROMANS
 72
     1
 11
56.00644643753764
 21
26.27206783447265
 31
0.0
100
AcDbText
 73
     2
  0
TEXT
  5
ADC
330
1F
100
AcDbEntity
  8
TEXT1
100
AcDbText
 10
54.70587365120647
 20
26.11206783447266
 30
0.0
 40
0.32
  1
#
  7
ROMANS
 72
     1
 11
54.86587365120647
 21
26.27206783447266
 31
0.0
100
AcDbText
 73
     2
  0
TEXT
  5
ADD
330
1F
100
AcDbEntity
  8
TEXT1
100
AcDbText
 10
52.03781548515669
 20
26.44956783447265
 30
0.0
 40
0.32
  1
60
  7
ROMANS
 72
     1
 11
52.35019643753765
 21
26.60956783447265
 31
0.0
100
AcDbText
 73
     2
  0
TEXT
  5
ADE
330
1F
100
AcDbEntity
  8
TEXT1
100
AcDbText
 10
51.28352977087097
 20
27.68706783447266
 30
0.0
 40
0.32
  1
AMPERES
  7
ROMANS
 72
     1
 11
52.35019643753765
 21
27.84706783447266
 31
0.0
100
AcDbText
 73
     2
  0
TEXT
  5
ADF
330
1F
100
AcDbEntity
  8
TEXT1
100
AcDbText
 10
52.66723199881263
 20
21.51206783447265
 30
0.0
 40
0.32
  1
CONDUIT SIZE
  7
ROMANS
 72
     1
 11
54.35104152262216
 21
21.67206783447265
 31
0.0
100
AcDbText
 73
     2
  0
TEXT
  5
AE0
330
1F
100
AcDbEntity
  8
TEXT1
100
AcDbText
 10
53.40627961786025
 20
22.86206783447267
 30
0.0
 40
0.32
  1
SYMBOL
  7
ROMANS
 72
     1
 11
54.35104152262216
 21
23.02206783447267
 31
0.0
100
AcDbText
 73
     2
  0
LINE
  5
AE1
330
1F
100
AcDbEntity
  8
CONTINUOUS1
100
AcDbLine
 10
56.44081569015984
 20
23.69706783447267
 30
0.0
 11
56.44081569015984
 21
20.99706783447265
 31
0.0
  0
LINE
  5
AE2
330
1F
100
AcDbEntity
  8
CONTINUOUS1
100
AcDbLine
 10
62.4013476729393
 20
23.69706783447267
 30
0.0
 11
62.4013476729393
 21
20.99706783447265
 31
0.0
  0
LINE
  5
AE3
330
1F
100
AcDbEntity
  8
CONTINUOUS1
100
AcDbLine
 10
60.2026953458786
 20
23.69706783447267
 30
0.0
 11
60.2026953458786
 21
20.99706783447265
 31
0.0
  0
LINE
  5
AE4
330
1F
100
AcDbEntity
  8
CONTINUOUS1
100
AcDbLine
 10
58.0040430188179
 20
23.69706783447267
 30
0.0
 11
58.0040430188179
 21
20.99706783447265
 31
0.0
  0
LINE
  5
AE5
330
1F
100
AcDbEntity
  8
CONTINUOUS1
100
AcDbLine
 10
58.0040430188179
 20
23.02206783447266
 30
0.0
 11
58.0040430188179
 21
20.99706783447265
 31
0.0
  0
LWPOLYLINE
  5
AE6
330
1F
100
AcDbEntity
  8
CONTINUOUS1
100
AcDbPolyline
 90
        4
 70
     1
 43
0.0
 10
50.85957143753764
 20
29.42206783447266
 10
50.85957143753764
 20
25.82206783447265
 10
64.59999999999999
 20
25.82206783447265
 10
64.59999999999999
 20
29.42206783447266
  0
LINE
  5
AE7
330
1F
100
AcDbEntity
  8
CONTINUOUS1
100
AcDbLine
 10
50.85957143753764
 20
27.39706783447266
 30
0.0
 11
64.59999999999999
 21
27.39706783447266
 31
0.0
  0
LINE
  5
AE8
330
1F
100
AcDbEntity
  8
CONTINUOUS1
100
AcDbLine
 10
53.84082143753764
 20
28.29706783447266
 30
0.0
 11
53.84082143753764
 21
25.82206783447265
 31
0.0
  0
LINE
  5
AE9
330
1F
100
AcDbEntity
  8
CONTINUOUS1
100
AcDbLine
 10
61.60332143753766
 20
28.29706783447266
 30
0.0
 11
61.60332143753766
 21
25.82206783447265
 31
0.0
  0
LINE
  5
AEA
330
1F
100
AcDbEntity
  8
CONTINUOUS1
100
AcDbLine
 10
58.17207143753766
 20
28.29706783447266
 30
0.0
 11
58.17207143753766
 21
25.82206783447265
 31
0.0
  0
LINE
  5
AEB
330
1F
100
AcDbEntity
  8
CONTINUOUS1
100
AcDbLine
 10
52.29899773597715
 20
37.12339935455321
 30
0.0
 11
64.59999999999999
 21
37.12339935455321
 31
0.0
  0
LINE
  5
AEC
330
1F
100
AcDbEntity
  8
CONTINUOUS1
100
AcDbLine
 10
52.29899773597715
 20
35.5997348800659
 30
0.0
 11
64.59999999999999
 21
35.5997348800659
 31
0.0
  0
LINE
  5
AED
330
1F
100
AcDbEntity
  8
CONTINUOUS1
100
AcDbLine
 10
58.92439301467897
 20
8.947999999999986
 30
0.0
 11
64.59999999999999
 21
8.947999999999987
 31
0.0
  0
LINE
  5
AEE
330
1F
100
AcDbEntity
  8
CONTINUOUS1
100
AcDbLine
 10
58.92439301467897
 20
8.11466687499999
 30
0.0
 11
64.59999999999999
 21
8.11466687499999
 31
0.0
  0
LINE
  5
AEF
330
1F
100
AcDbEntity
  8
CONTINUOUS1
100
AcDbLine
 10
58.92439301467897
 20
7.281333124999985
 30
0.0
 11
64.60000000000002
 21
7.281333124999985
 31
0.0
  0
LINE
  5
AF0
330
1F
100
AcDbEntity
  8
CONTINUOUS1
100
AcDbLine
 10
47.88272613967895
 20
6.447999999999982
 30
0.0
 11
64.59999999999999
 21
6.447999999999982
 31
0.0
  0
LINE
  5
AF1
330
1F
100
AcDbEntity
  8
CONTINUOUS1
100
AcDbLine
 10
61.76219650733947
 20
7.281333124999985
 30
0.0
 11
61.76219650733947
 21
4.647999999999996
 31
0.0
  0
LINE
  5
AF2
330
1F
100
AcDbEntity
  8
CONTINUOUS1
100
AcDbLine
 10
58.92439301467897
 20
9.781333124999989
 30
0.0
 11
58.92439301467897
 21
4.647999999999996
 31
0.0
  0
LINE
  5
AF3
330
1F
100
AcDbEntity
  8
CONTINUOUS1
100
AcDbLine
 10
56.84105926467896
 20
9.781333124999989
 30
0.0
 11
56.84105926467896
 21
4.647999999999996
 31
0.0
  0
LINE
  5
AF4
330
1F
100
AcDbEntity
  8
CONTINUOUS1
100
AcDbLine
 10
51.63272613967895
 20
9.781333124999989
 30
0.0
 11
51.63272613967895
 21
4.647999999999996
 31
0.0
  0
TEXT
  5
AF5
330
1F
100
AcDbEntity
  8
TEXT1
100
AcDbText
 10
48.31791801467895
 20
5.687999999999984
 30
0.0
 40
0.32
  1
DU222RB
  7
ROMANS
 11
48.31791801467895
 21
5.847999999999984
 31
0.0
100
AcDbText
 73
     2
  0
TEXT
  5
AF6
330
1F
100
AcDbEntity
  8
TEXT1
100
AcDbText
 10
53.24129756825038
 20
5.687999999999984
 30
0.0
 40
0.32
  1
240VAC
  7
ROMANS
 72
     1
 11
54.13272613967895
 21
5.847999999999984
 31
0.0
100
AcDbText
 73
     2
  0
TEXT
  5
AF7
330
1F
100
AcDbEntity
  8
TEXT1
100
AcDbText
 10
57.74558328253608
 20
5.687999999999984
 30
0.0
 40
0.32
  1
A
  7
ROMANS
 72
     1
 11
57.88272613967894
 21
5.847999999999984
 31
0.0
100
AcDbText
 73
     2
  0
TEXT
  5
AF8
330
1F
100
AcDbEntity
  8
TEXT1
100
AcDbText
 10
48.31791801467895
 20
5.08799999999999
 30
0.0
 40
0.32
  1
DU322RB
  7
ROMANS
 11
48.31791801467895
 21
5.24799999999999
 31
0.0
100
AcDbText
 73
     2
  0
TEXT
  5
AF9
330
1F
100
AcDbEntity
  8
TEXT1
100
AcDbText
 10
53.24129756825038
 20
5.071224374999992
 30
0.0
 40
0.32
  1
240VAC
  7
ROMANS
 72
     1
 11
54.13272613967895
 21
5.231224374999992
 31
0.0
100
AcDbText
 73
     2
  0
TEXT
  5
AFA
330
1F
100
AcDbEntity
  8
TEXT1
100
AcDbText
 10
57.71510709205989
 20
5.08799999999999
 30
0.0
 40
0.32
  1
B
  7
ROMANS
 72
     1
 11
57.88272613967894
 21
5.24799999999999
 31
0.0
100
AcDbText
 73
     2
  0
TEXT
  5
AFB
330
1F
100
AcDbEntity
  8
TEXT1
100
AcDbText
 10
59.97417410759336
 20
5.08799999999999
 30
0.0
 40
0.32
  1
10
  7
ROMANS
 72
     1
 11
60.30179315521241
 21
5.24799999999999
 31
0.0
100
AcDbText
 73
     2
  0
TEXT
  5
AFC
330
1F
100
AcDbEntity
  8
TEXT1
100
AcDbText
 10
62.81197760025388
 20
5.08799999999999
 30
0.0
 40
0.32
  1
15
  7
ROMANS
 72
     1
 11
63.13959664787294
 21
5.24799999999999
 31
0.0
100
AcDbText
 73
     2
  0
TEXT
  5
AFD
330
1F
100
AcDbEntity
  8
TEXT1
100
AcDbText
 10
59.97417410759336
 20
5.687999999999984
 30
0.0
 40
0.32
  1
10
  7
ROMANS
 72
     1
 11
60.30179315521241
 21
5.847999999999984
 31
0.0
100
AcDbText
 73
     2
  0
TEXT
  5
AFE
330
1F
100
AcDbEntity
  8
TEXT1
100
AcDbText
 10
62.9415014097777
 20
5.687999999999984
 30
0.0
 40
0.32
  1
-
  7
ROMANS
 72
     1
 11
63.13959664787294
 21
5.847999999999984
 31
0.0
100
AcDbText
 73
     2
  0
TEXT
  5
AFF
330
1F
100
AcDbEntity
  8
TEXT1
100
AcDbText
 10
48.74439280634561
 20
8.371333124999988
 30
0.0
 40
0.32
  1
CATALOG
  7
ROMANS
 72
     1
 11
49.75772613967895
 21
8.531333124999989
 31
0.0
100
AcDbText
 73
     2
  0
TEXT
  5
B00
330
1F
100
AcDbEntity
  8
TEXT1
100
AcDbText
 10
48.76724994920277
 20
7.850499999999986
 30
0.0
 40
0.32
  1
NUMBER
  7
ROMANS
 72
     1
 11
49.75772613967895
 21
8.010499999999986
 31
0.0
100
AcDbText
 73
     2
  0
TEXT
  5
B01
330
1F
100
AcDbEntity
  8
TEXT1
100
AcDbText
 10
52.02986899682181
 20
7.871333124999985
 30
0.0
 40
0.32
  1
VOLTAGE RATINGS
  7
ROMANS
 72
     1
 11
54.13272613967895
 21
8.031333124999985
 31
0.0
100
AcDbText
 73
     2
  0
TEXT
  5
B02
330
1F
100
AcDbEntity
  8
TEXT1
100
AcDbText
 10
57.28844042539321
 20
7.871333124999985
 30
0.0
 40
0.32
  1
DIAG.
  7
ROMANS
 72
     1
 11
57.88272613967894
 21
8.031333124999985
 31
0.0
100
AcDbText
 73
     2
  0
TEXT
  5
B03
330
1F
100
AcDbEntity
  8
TEXT1
100
AcDbText
 10
57.09796423491702
 20
8.392166249999988
 30
0.0
 40
0.32
  1
WIRING
  7
ROMANS
 72
     1
 11
57.88272613967894
 21
8.552166249999988
 31
0.0
100
AcDbText
 73
     2
  0
TEXT
  5
B04
330
1F
100
AcDbEntity
  8
TEXT1
100
AcDbText
 10
61.28230200801305
 20
7.537999999999986
 30
0.0
 40
0.32
  1
MAX.
  7
ROMANS
 72
     1
 11
61.83087343658448
 21
7.697999999999986
 31
0.0
100
AcDbText
 73
     2
  0
TEXT
  5
B05
330
1F
100
AcDbEntity
  8
TEXT1
100
AcDbText
 10
59.98195052282788
 20
6.704666874999986
 30
0.0
 40
0.32
  1
1
  7
ROMANS
 72
     1
 11
60.11147433235169
 21
6.864666874999986
 31
0.0
100
AcDbText
 73
     2
  0
TEXT
  5
B06
330
1F
100
AcDbEntity
  8
TEXT1
100
AcDbText
 10
62.79689687263126
 20
6.704666874999986
 30
0.0
 40
0.32
  1
3
  7
ROMANS
 72
     1
 11
62.94927782501222
 21
6.864666874999986
 31
0.0
100
AcDbText
 73
     2
  0
TEXT
  5
B07
330
1F
100
AcDbEntity
  8
TEXT1
100
AcDbText
 10
60.34569167999631
 20
6.704666874999986
 30
0.0
 40
0.32
  1
Ø
  7
ROMANS
 72
     1
 11
60.51331072761536
 21
6.864666874999986
 31
0.0
100
AcDbText
 73
     2
  0
TEXT
  5
B08
330
1F
100
AcDbEntity
  8
TEXT1
100
AcDbText
 10
63.18349517265684
 20
6.704666874999986
 30
0.0
 40
0.32
  1
Ø
  7
ROMANS
 72
     1
 11
63.35111422027589
 21
6.864666874999986
 31
0.0
100
AcDbText
 73
     2
  0
TEXT
  5
B09
330
1F
100
AcDbEntity
  8
TEXT1
100
AcDbText
 10
60.87805936245511
 20
8.371333124999988
 30
0.0
 40
0.32
  1
240VAC
  7
ROMANS
 72
     1
 11
61.76948793388368
 21
8.531333124999989
 31
0.0
100
AcDbText
 73
     2
  0
TEXT
  5
B0A
330
1F
100
AcDbEntity
  8
TEXT1
100
AcDbText
 10
59.0128682027508
 20
9.20466687499999
 30
0.0
 40
0.32
  1
HORSEPOWER RATINGS
  7
ROMANS
 72
     1
 11
61.7481062979889
 21
9.36466687499999
 31
0.0
100
AcDbText
 73
     2
  0
LWPOLYLINE
  5
B0B
330
1F
100
AcDbEntity
  8
CONTINUOUS1
100
AcDbPolyline
 90
        4
 70
     1
 43
0.0
 10
47.88272613967895
 20
9.781333124999989
 10
64.59999999999999
 20
9.781333125000001
 10
64.59999999999999
 20
4.647999999999996
 10
47.88272613967895
 20
4.647999999999985
  0
CIRCLE
  5
B0C
330
1F
100
AcDbEntity
  8
HIDDEN1
100
AcDbCircle
 10
17.38697145845873
 20
26.30758403640883
 30
0.0
 40
0.500355808749994
  0
CIRCLE
  5
B0D
330
1F
100
AcDbEntity
  8
HIDDEN1
100
AcDbCircle
 10
17.38697145845873
 20
26.30758403640883
 30
0.0
 40
0.3752668565624972
  0
CIRCLE
  5
B0E
330
1F
100
AcDbEntity
  8
HIDDEN1
100
AcDbCircle
 10
17.38697145845873
 20
26.30758403640883
 30
0.0
 40
0.250177904374997
  0
CIRCLE
  5
B0F
330
1F
100
AcDbEntity
  8
HIDDEN1
100
AcDbCircle
 10
17.38697145845874
 20
32.1892528897743
 30
0.0
 40
0.1400996264500023
  0
CIRCLE
  5
B10
330
1F
100
AcDbEntity
  8
HIDDEN1
100
AcDbCircle
 10
17.38697145845874
 20
32.1892528897743
 30
0.0
 40
0.3902775308249957
  0
CIRCLE
  5
B11
330
1F
100
AcDbEntity
  8
HIDDEN1
100
AcDbCircle
 10
19.63679433328944
 20
26.18925288977431
 30
0.0
 40
0.1400996264499952
  0
CIRCLE
  5
B12
330
1F
100
AcDbEntity
  8
HIDDEN1
100
AcDbCircle
 10
19.63679433328944
 20
26.18925288977431
 30
0.0
 40
0.3902775308249957
  0
CIRCLE
  5
B13
330
1F
100
AcDbEntity
  8
HIDDEN1
100
AcDbCircle
 10
15.13714958433965
 20
26.18925288977431
 30
0.0
 40
0.3902775308249993
  0
CIRCLE
  5
B14
330
1F
100
AcDbEntity
  8
HIDDEN1
100
AcDbCircle
 10
15.13714958433965
 20
26.18925288977431
 30
0.0
 40
0.1400996264499987
  0
LWPOLYLINE
  5
B15
330
1F
100
AcDbEntity
  8
CONTINUOUS1
100
AcDbPolyline
 90
        5
 70
     1
 43
0.0
 10
15.16381654752279
 20
34.60306959302613
 10
15.16381654752279
 20
34.76012927996952
 10
15.49119034678335
 20
34.76012927996952
 10
15.49119034678335
 20
34.60306959302613
 10
15.16381654752279
 20
34.60306959302613
  0
LWPOLYLINE
  5
B16
330
1F
100
AcDbEntity
  8
CONTINUOUS1
100
AcDbPolyline
 90
        5
 70
     1
 43
0.0
 10
19.28871981350926
 20
34.60306959302613
 10
19.28871981350926
 20
34.76012927996952
 10
19.61609361276984
 20
34.76012927996952
 10
19.61609361276984
 20
34.60306959302613
 10
19.28871981350926
 20
34.60306959302613
  0
LWPOLYLINE
  5
B17
330
1F
100
AcDbEntity
  8
CONTINUOUS1
100
AcDbPolyline
 90
        5
 70
     1
 43
0.0
 10
21.10698280115824
 20
32.58896625416015
 10
21.10698280115824
 20
31.64502000316284
 10
21.51089302634844
 20
31.64502000316284
 10
21.51089302634844
 20
32.58896625416015
 10
21.10698280115824
 20
32.58896625416015
  0
LWPOLYLINE
  5
B18
330
1F
100
AcDbEntity
  8
CONTINUOUS1
100
AcDbPolyline
 90
        5
 70
     1
 43
0.0
 10
21.07450070276581
 20
28.04124631839405
 10
21.07450070276581
 20
28.45650861617317
 10
21.38951971639671
 20
28.45650861617317
 10
21.38951971639671
 20
28.04124631839405
 10
21.07450070276581
 20
28.04124631839405
  0
LWPOLYLINE
  5
B19
330
1F
100
AcDbEntity
  8
CONTINUOUS1
100
AcDbPolyline
 90
        5
 70
     1
 43
0.0
 10
21.38951971639671
 20
28.45650861617317
 10
21.38951971639671
 20
31.64502000316284
 10
21.24147243828053
 20
31.64502000316284
 10
21.24147243828053
 20
28.45650861617317
 10
21.38951971639671
 20
28.45650861617317
  0
LWPOLYLINE
  5
B1A
330
1F
100
AcDbEntity
  8
CONTINUOUS1
100
AcDbPolyline
 90
        5
 70
     1
 43
0.0
 10
18.28473686973166
 20
24.84299309413701
 10
18.25843216415404
 20
24.94508269121951
 10
18.92787821491302
 20
24.94508269121951
 10
18.95418292049063
 20
24.84299309413701
 10
18.28473686973166
 20
24.84299309413701
  0
LWPOLYLINE
  5
B1B
330
1F
100
AcDbEntity
  8
CONTINUOUS1
100
AcDbPolyline
 90
        3
 70
     0
 43
0.0
 10
21.07450070276581
 20
28.45650861617317
 10
21.07450070276581
 20
31.12333102415097
 10
21.24147243828053
 20
31.12333102415097
  0
LINE
  5
B1C
330
1F
100
AcDbEntity
  8
CONTINUOUS1
100
AcDbLine
 10
21.24500695171354
 20
28.45650861617317
 30
0.0
 11
21.07450070276581
 21
28.45650861617317
 31
0.0
  0
LINE
  5
B1D
330
1F
100
AcDbEntity
  8
CONTINUOUS1
100
AcDbLine
 10
20.91509734921423
 20
33.69759961604944
 30
0.0
 11
20.91509734921423
 21
31.33191334943297
 31
0.0
  0
LINE
  5
B1E
330
1F
100
AcDbEntity
  8
CONTINUOUS1
100
AcDbLine
 10
20.91509734921423
 20
33.69759961604944
 30
0.0
 11
20.91509734921423
 21
32.77638753157849
 31
0.0
  0
LINE
  5
B1F
330
1F
100
AcDbEntity
  8
CONTINUOUS1
100
AcDbLine
 10
21.10698280115824
 20
32.23462828036605
 30
0.0
 11
21.51089302634844
 21
32.23462828036605
 31
0.0
  0
LINE
  5
B20
330
1F
100
AcDbEntity
  8
CONTINUOUS1
100
AcDbLine
 10
21.31945689392068
 20
31.64502000316284
 30
0.0
 11
21.31945689392068
 21
32.58896625416015
 31
0.0
  0
LWPOLYLINE
  5
B21
330
1F
100
AcDbEntity
  8
CONTINUOUS1
100
AcDbPolyline
 90
        4
 70
     0
 43
0.0
 10
13.85884556770324
 20
33.49909946031376
 10
13.64176620007705
 20
33.33342764919015
 10
13.64176620007705
 20
33.01641721944042
 10
13.85884556770324
 20
32.84678859458122
  0
LWPOLYLINE
  5
B22
330
1F
100
AcDbEntity
  8
CONTINUOUS1
100
AcDbPolyline
 90
        5
 70
     1
 43
0.0
 10
13.64176620007705
 20
33.33342764919015
 10
13.64176620007705
 20
33.01641721944042
 10
13.43438472873606
 20
33.01641721944042
 10
13.43438472873606
 20
33.33342764919015
 10
13.64176620007705
 20
33.33342764919015
  0
LWPOLYLINE
  5
B23
330
1F
100
AcDbEntity
  8
CONTINUOUS1
100
AcDbPolyline
 90
        5
 70
     1
 43
0.0
 10
21.13217771755203
 20
33.33342764919015
 10
21.13217771755203
 20
33.01641721944042
 10
21.33955818818142
 20
33.01641721944042
 10
21.33955818818142
 20
33.33342764919015
 10
21.13217771755203
 20
33.33342764919015
  0
LWPOLYLINE
  5
B24
330
1F
100
AcDbEntity
  8
CONTINUOUS1
100
AcDbPolyline
 90
        4
 70
     0
 43
0.0
 10
20.91509834992584
 20
33.49909946031376
 10
21.13217771755203
 20
33.33342764919015
 10
21.13217771755203
 20
33.01641721944042
 10
20.91509834992584
 20
32.84678859458122
  0
LWPOLYLINE
  5
B25
330
1F
100
AcDbEntity
  8
CONTINUOUS1
100
AcDbPolyline
 90
        5
 70
     1
 43
0.0
 10
15.0590570518448
 20
34.47899436170716
 10
15.0590570518448
 20
34.60306959302613
 10
19.77323235593101
 20
34.60306959302613
 10
19.77323235593101
 20
34.47899436170716
 10
15.0590570518448
 20
34.47899436170716
  0
ARC
  5
B26
330
1F
100
AcDbEntity
  8
CONTINUOUS1
100
AcDbCircle
 10
19.79095095583045
 20
12.67241065268777
 30
0.0
 40
0.7505337131250021
100
AcDbArc
 50
155.033413390301
 51
24.96611078212929
  0
ARC
  5
B27
330
1F
100
AcDbEntity
  8
CONTINUOUS1
100
AcDbCircle
 10
15.20876451053442
 20
12.67241065268779
 30
0.0
 40
0.7505337131250039
100
AcDbArc
 50
41.94893803615039
 51
138.0509033546592
  0
ARC
  5
B28
330
1F
100
AcDbEntity
  8
CONTINUOUS1
100
AcDbCircle
 10
15.20876451053442
 20
12.67241065268779
 30
0.0
 40
0.7505337131250021
100
AcDbArc
 50
155.033413390301
 51
24.96611078212929
  0
ARC
  5
B29
330
1F
100
AcDbEntity
  8
CONTINUOUS1
100
AcDbCircle
 10
15.20876451053442
 20
12.49061487562722
 30
0.0
 40
0.562900284843755
100
AcDbArc
 50
101.7903623061046
 51
258.2093204755392
  0
ARC
  5
B2A
330
1F
100
AcDbEntity
  8
CONTINUOUS1
100
AcDbCircle
 10
15.20876451053442
 20
12.49061487562722
 30
0.0
 40
0.3752668565625001
100
AcDbArc
 50
107.8482989680755
 51
252.1513838135677
  0
LINE
  5
B2B
330
1F
100
AcDbEntity
  8
CONTINUOUS1
100
AcDbLine
 10
15.093745218998
 20
11.92895447247755
 30
0.0
 11
15.093745218998
 21
12.11837567206347
 31
0.0
  0
LINE
  5
B2C
330
1F
100
AcDbEntity
  8
CONTINUOUS1
100
AcDbLine
 10
15.093745218998
 20
12.13340886233736
 30
0.0
 11
15.093745218998
 21
11.93959103625996
 31
0.0
  0
LINE
  5
B2D
330
1F
100
AcDbEntity
  8
CONTINUOUS1
100
AcDbLine
 10
15.093745218998
 20
12.84782088891708
 30
0.0
 11
15.093745218998
 21
13.04163871499448
 31
0.0
  0
ARC
  5
B2E
330
1F
100
AcDbEntity
  8
CONTINUOUS1
100
AcDbCircle
 10
15.20876451053442
 20
12.49061487562722
 30
0.0
 40
0.5629002848437475
100
AcDbArc
 50
281.7905209153182
 51
78.2094790847054
  0
ARC
  5
B2F
330
1F
100
AcDbEntity
  8
CONTINUOUS1
100
AcDbCircle
 10
15.20876451053442
 20
12.49061487562722
 30
0.0
 40
0.3752668565625038
100
AcDbArc
 50
287.8484575772891
 51
72.15154242273455
  0
LINE
  5
B30
330
1F
100
AcDbEntity
  8
CONTINUOUS1
100
AcDbLine
 10
15.32378380207082
 20
11.92895447247755
 30
0.0
 11
15.32378380207082
 21
12.11837567206347
 31
0.0
  0
LINE
  5
B31
330
1F
100
AcDbEntity
  8
CONTINUOUS1
100
AcDbLine
 10
15.32378380207082
 20
12.13340886233736
 30
0.0
 11
15.32378380207082
 21
11.93959103625996
 31
0.0
  0
LINE
  5
B32
330
1F
100
AcDbEntity
  8
CONTINUOUS1
100
AcDbLine
 10
15.32378380207082
 20
12.84782088891708
 30
0.0
 11
15.32378380207082
 21
13.04163871499448
 31
0.0
  0
ARC
  5
B33
330
1F
100
AcDbEntity
  8
CONTINUOUS1
100
AcDbCircle
 10
17.46104513309769
 20
12.64073212572434
 30
0.0
 40
0.7505337131249997
100
AcDbArc
 50
155.0334133903009
 51
24.9661107821292
  0
ARC
  5
B34
330
1F
100
AcDbEntity
  8
CONTINUOUS1
100
AcDbCircle
 10
17.46104513309769
 20
12.82836555400559
 30
0.0
 40
0.9381671414062505
100
AcDbArc
 50
165.2890413534218
 51
14.71048281900809
  0
ARC
  5
B35
330
1F
100
AcDbEntity
  8
CONTINUOUS1
100
AcDbCircle
 10
17.46104513309769
 20
12.82836555400559
 30
0.0
 40
0.9381671414062473
100
AcDbArc
 50
29.10977134954821
 51
150.8900700412619
  0
ARC
  5
B36
330
1F
100
AcDbEntity
  8
CONTINUOUS1
100
AcDbCircle
 10
17.46104513309769
 20
12.64073212572434
 30
0.0
 40
0.7505337131249941
100
AcDbArc
 50
41.94893803615003
 51
138.0509033546592
  0
ARC
  5
B37
330
1F
100
AcDbEntity
  8
CONTINUOUS1
100
AcDbCircle
 10
17.46104513309769
 20
12.4589378497312
 30
0.0
 40
0.562900284843755
100
AcDbArc
 50
101.7903623061046
 51
258.209320475539
  0
ARC
  5
B38
330
1F
100
AcDbEntity
  8
CONTINUOUS1
100
AcDbCircle
 10
17.46104513309769
 20
12.4589378497312
 30
0.0
 40
0.3752668565625001
100
AcDbArc
 50
107.8482989680755
 51
252.1513838135681
  0
LINE
  5
B39
330
1F
100
AcDbEntity
  8
CONTINUOUS1
100
AcDbLine
 10
16.55363186112046
 20
13.06660446842801
 30
0.0
 11
16.78064579332937
 21
12.95752339962984
 31
0.0
  0
LINE
  5
B3A
330
1F
100
AcDbEntity
  8
CONTINUOUS1
100
AcDbLine
 10
16.64137975965675
 20
13.28476960815917
 30
0.0
 11
16.90284318929811
 21
13.14243989586959
 31
0.0
  0
ARC
  5
B3B
330
1F
100
AcDbEntity
  8
CONTINUOUS1
100
AcDbCircle
 10
17.46104513309769
 20
12.4589378497312
 30
0.0
 40
0.5629002848437475
100
AcDbArc
 50
281.7905209153182
 51
78.2094790847054
  0
ARC
  5
B3C
330
1F
100
AcDbEntity
  8
CONTINUOUS1
100
AcDbCircle
 10
17.46104513309769
 20
12.4589378497312
 30
0.0
 40
0.3752668565625004
100
AcDbArc
 50
287.8484575772893
 51
72.15154242273455
  0
LINE
  5
B3D
330
1F
100
AcDbEntity
  8
CONTINUOUS1
100
AcDbLine
 10
17.34602734262873
 20
11.89727594551411
 30
0.0
 11
17.34602734262873
 21
12.08669714510002
 31
0.0
  0
LINE
  5
B3E
330
1F
100
AcDbEntity
  8
CONTINUOUS1
100
AcDbLine
 10
17.34602734262873
 20
12.10173183644134
 30
0.0
 11
17.34602734262873
 21
11.90791401036394
 31
0.0
  0
LINE
  5
B3F
330
1F
100
AcDbEntity
  8
CONTINUOUS1
100
AcDbLine
 10
17.57606442463409
 20
11.89727594551411
 30
0.0
 11
17.57606442463409
 21
12.08669714510002
 31
0.0
  0
LINE
  5
B40
330
1F
100
AcDbEntity
  8
CONTINUOUS1
100
AcDbLine
 10
17.57606442463409
 20
12.10173183644134
 30
0.0
 11
17.57606442463409
 21
11.90791401036394
 31
0.0
  0
LINE
  5
B41
330
1F
100
AcDbEntity
  8
CONTINUOUS1
100
AcDbLine
 10
17.34602734262873
 20
12.81614236195363
 30
0.0
 11
17.34602734262873
 21
13.00996168909847
 31
0.0
  0
LINE
  5
B42
330
1F
100
AcDbEntity
  8
CONTINUOUS1
100
AcDbLine
 10
17.57606442463409
 20
12.81614236195363
 30
0.0
 11
17.57606442463409
 21
13.00996168909847
 31
0.0
  0
LINE
  5
B43
330
1F
100
AcDbEntity
  8
CONTINUOUS1
100
AcDbLine
 10
18.36845990614236
 20
13.06660446842801
 30
0.0
 11
18.14144597393344
 21
12.95752339962984
 31
0.0
  0
LINE
  5
B44
330
1F
100
AcDbEntity
  8
CONTINUOUS1
100
AcDbLine
 10
18.28071200760606
 20
13.28476960815917
 30
0.0
 11
18.01924857796471
 21
13.14243989586959
 31
0.0
  0
ARC
  5
B45
330
1F
100
AcDbEntity
  8
CONTINUOUS1
100
AcDbCircle
 10
19.79095095583045
 20
12.67241065268777
 30
0.0
 40
0.7505337131249962
100
AcDbArc
 50
41.94893803615062
 51
138.0509033546595
  0
ARC
  5
B46
330
1F
100
AcDbEntity
  8
CONTINUOUS1
100
AcDbCircle
 10
19.79095095583045
 20
12.4906148756272
 30
0.0
 40
0.5629002848437557
100
AcDbArc
 50
101.790362306105
 51
258.2093204755388
  0
ARC
  5
B47
330
1F
100
AcDbEntity
  8
CONTINUOUS1
100
AcDbCircle
 10
19.79095095583045
 20
12.4906148756272
 30
0.0
 40
0.3752668565625012
100
AcDbArc
 50
107.8482989680759
 51
252.1513838135681
  0
LINE
  5
B48
330
1F
100
AcDbEntity
  8
CONTINUOUS1
100
AcDbLine
 10
19.67593166429405
 20
12.13340886233734
 30
0.0
 11
19.67593166429405
 21
11.93959103625994
 31
0.0
  0
LINE
  5
B49
330
1F
100
AcDbEntity
  8
CONTINUOUS1
100
AcDbLine
 10
19.67593166429405
 20
11.92895447247754
 30
0.0
 11
19.67593166429405
 21
12.11837567206345
 31
0.0
  0
LINE
  5
B4A
330
1F
100
AcDbEntity
  8
CONTINUOUS1
100
AcDbLine
 10
19.67593166429405
 20
12.84782088891706
 30
0.0
 11
19.67593166429405
 21
13.04163871499446
 31
0.0
  0
ARC
  5
B4B
330
1F
100
AcDbEntity
  8
CONTINUOUS1
100
AcDbCircle
 10
19.79095095583045
 20
12.4906148756272
 30
0.0
 40
0.5629002848437467
100
AcDbArc
 50
281.7905209153181
 51
78.20947908470582
  0
ARC
  5
B4C
330
1F
100
AcDbEntity
  8
CONTINUOUS1
100
AcDbCircle
 10
19.79095095583045
 20
12.4906148756272
 30
0.0
 40
0.3752668565624994
100
AcDbArc
 50
287.8484575772887
 51
72.15154242273519
  0
LINE
  5
B4D
330
1F
100
AcDbEntity
  8
CONTINUOUS1
100
AcDbLine
 10
19.90597024736686
 20
12.13340886233734
 30
0.0
 11
19.90597024736686
 21
11.93959103625994
 31
0.0
  0
LINE
  5
B4E
330
1F
100
AcDbEntity
  8
CONTINUOUS1
100
AcDbLine
 10
19.90597024736686
 20
11.92895447247754
 30
0.0
 11
19.90597024736686
 21
12.11837567206345
 31
0.0
  0
LINE
  5
B4F
330
1F
100
AcDbEntity
  8
CONTINUOUS1
100
AcDbLine
 10
19.90597024736686
 20
12.84782088891706
 30
0.0
 11
19.90597024736686
 21
13.04163871499446
 31
0.0
  0
CIRCLE
  5
B50
330
1F
100
AcDbEntity
  8
CONTINUOUS1
100
AcDbCircle
 10
18.58685270776652
 20
14.86692519713095
 30
0.0
 40
0.2042812667499803
  0
LINE
  5
B51
330
1F
100
AcDbEntity
  8
CONTINUOUS1
100
AcDbLine
 10
21.31945689392068
 20
16.19774956158861
 30
0.0
 11
21.31945689392068
 21
15.61827649164744
 31
0.0
  0
LINE
  5
B52
330
1F
100
AcDbEntity
  8
CONTINUOUS1
100
AcDbLine
 10
21.10698280115824
 20
16.52726688513386
 30
0.0
 11
21.31945689392068
 21
16.19774956158861
 31
0.0
  0
LINE
  5
B53
330
1F
100
AcDbEntity
  8
CONTINUOUS1
100
AcDbLine
 10
21.31945689392068
 20
16.19774956158861
 30
0.0
 11
21.51089302634844
 21
16.52726688513386
 31
0.0
  0
LWPOLYLINE
  5
B54
330
1F
100
AcDbEntity
  8
CONTINUOUS1
100
AcDbPolyline
 90
        5
 70
     1
 43
0.0
 10
13.76197145845874
 20
13.98868867307353
 10
13.76197145845874
 20
14.43548539534332
 10
21.01455107189623
 20
14.43548539534332
 10
21.01455107189623
 20
13.98868867307353
 10
13.76197145845874
 20
13.98868867307353
  0
LWPOLYLINE
  5
B55
330
1F
100
AcDbEntity
  8
CONTINUOUS1
100
AcDbPolyline
 90
        5
 70
     1
 43
0.0
 10
15.79166301634228
 20
11.63250416326522
 10
15.59152069284229
 20
11.43236183976523
 10
14.99109372234228
 20
11.43236183976523
 10
14.79095139884229
 20
11.63250416326522
 10
15.79166301634228
 20
11.63250416326522
  0
LWPOLYLINE
  5
B56
330
1F
100
AcDbEntity
  8
CONTINUOUS1
100
AcDbPolyline
 90
        5
 70
     1
 43
0.0
 10
19.20805345073421
 20
11.63250416326522
 10
19.4081957742342
 20
11.43236183976523
 10
20.00862274473421
 20
11.43236183976523
 10
20.20876506823421
 20
11.63250416326522
 10
19.20805345073421
 20
11.63250416326522
  0
LWPOLYLINE
  5
B57
330
1F
100
AcDbEntity
  8
CONTINUOUS1
100
AcDbPolyline
 90
        5
 70
     1
 43
0.0
 10
18.25843216415404
 20
14.43548539534332
 10
18.25843216415404
 20
15.18503040539022
 10
18.92787821491302
 20
15.18503040539022
 10
18.92787821491302
 20
14.43548539534332
 10
18.25843216415404
 20
14.43548539534332
  0
LWPOLYLINE
  5
B58
330
1F
100
AcDbEntity
  8
CONTINUOUS1
100
AcDbPolyline
 90
        5
 70
     1
 43
0.0
 10
21.09849576593022
 20
13.52344383213514
 10
21.09849576593022
 20
12.40598519449112
 10
21.33450159237818
 20
12.40598519449112
 10
21.33450159237818
 20
13.52344383213514
 10
21.09849576593022
 20
13.52344383213514
  0
LWPOLYLINE
  5
B59
330
1F
100
AcDbEntity
  8
CONTINUOUS1
100
AcDbPolyline
 90
        5
 70
     1
 43
0.0
 10
21.2699426837984
 20
13.71054488183588
 10
21.2699426837984
 20
15.61827649164744
 10
21.37157995922979
 20
15.61827649164744
 10
21.37157995922979
 20
13.71054488183588
 10
21.2699426837984
 20
13.71054488183588
  0
LWPOLYLINE
  5
B5A
330
1F
100
AcDbEntity
  8
CONTINUOUS1
100
AcDbPolyline
 90
        5
 70
     1
 43
0.0
 10
20.91509734921423
 20
13.71054488183588
 10
20.91509734921423
 20
13.52344383213514
 10
21.45484116722903
 20
13.52344383213514
 10
21.45484116722903
 20
13.71054488183588
 10
20.91509734921423
 20
13.71054488183588
  0
LWPOLYLINE
  5
B5B
330
1F
100
AcDbEntity
  8
CONTINUOUS1
100
AcDbPolyline
 90
        4
 70
     1
 43
0.0
 10
20.91509734921423
 20
13.52344383213514
 10
21.33450159237818
 20
13.52344383213514
 10
21.33450159237818
 20
12.40598519449112
 10
20.91509734921423
 20
12.13869812359172
  0
LWPOLYLINE
  5
B5C
330
1F
100
AcDbEntity
  8
CONTINUOUS1
100
AcDbPolyline
 90
        6
 70
     1
 43
0.0
 10
21.2699426837984
 20
15.61827649164744
 10
21.36583787596858
 20
15.61827649164744
 10
21.51089302634844
 20
15.74658973666652
 10
21.51089302634844
 20
16.52726688513386
 10
21.10698280115824
 20
16.52726688513386
 10
21.10698280115824
 20
15.75214068400879
  0
TEXT
  5
B5D
330
1F
100
AcDbEntity
  8
TEXT1
100
AcDbText
 10
28.35144194943575
 20
17.9006191271143
 30
0.0
 40
0.3999999999999986
  1
NEMA TYPE 3R
  7
ROMANS
 72
     1
 11
30.64668004467384
 21
18.1006191271143
 31
0.0
100
AcDbText
 73
     2
  0
LWPOLYLINE
  5
B5E
330
1F
100
AcDbEntity
  8
CONTINUOUS1
100
AcDbPolyline
 90
        4
 70
     1
 43
0.0
 10
30.10961995338637
 20
24.95121405129993
 10
32.46580446319467
 20
24.95121405129993
 10
32.46580446319467
 20
24.84899436170716
 10
30.10961995338637
 20
24.84899436170716
  0
LWPOLYLINE
  5
B5F
330
1F
100
AcDbEntity
  8
CONTINUOUS1
100
AcDbPolyline
 90
        4
 70
     1
 43
0.0
 10
28.91327822106967
 20
24.95645677946402
 10
29.6504033992318
 20
24.95645677946402
 10
29.6504033992318
 20
24.85824493989932
 10
28.91327822106967
 20
24.85824493989932
  0
LWPOLYLINE
  5
B6C
330
1F
100
AcDbEntity
  8
CONTINUOUS1
100
AcDbPolyline
 90
        4
 70
     1
 43
0.0
 10
29.54835483132561
 20
32.33924467428273
 10
32.46580446319467
 20
32.33924467428273
 10
32.46580446319467
 20
34.37677467211439
 10
29.54835483132561
 20
34.37677467211439
  0
TEXT
  5
B6F
330
1F
100
AcDbEntity
  8
TEXT1
100
AcDbText
 10
59.75274344097998
 20
28.60961136016848
 30
0.0
 40
0.32
  1
+
  7
ROMANS
 72
     1
 11
59.95083867907522
 21
28.76961136016848
 31
0.0
100
AcDbText
 73
     2
  0
TEXT
  5
B70
330
1F
100
AcDbEntity
  8
TEXT1
100
AcDbText
 10
59.75274344097998
 20
28.81290527973177
 30
0.0
 40
0.32
  1
+
  7
ROMANS
 72
     1
 11
59.95083867907522
 21
28.97290527973177
 31
0.0
100
AcDbText
 73
     2
  0
LWPOLYLINE
  5
B72
330
1F
100
AcDbEntity
  8
CONTINUOUS1
100
AcDbPolyline
 90
        8
 70
     1
 43
0.0
 10
13.85884556770324
 20
33.69759961604944
 10
20.91509734921423
 20
33.69759961604944
 10
20.91509734921423
 20
31.33191334943297
 10
21.07450070276581
 20
31.12333102415097
 10
21.07450070276581
 20
28.04124631839405
 10
20.91509734921423
 20
27.86069692765307
 10
20.91509734921423
 20
24.6898381839251
 10
13.85884556770324
 20
24.6898381839251
  0
LWPOLYLINE
  5
B73
330
1F
100
AcDbEntity
  8
CONTINUOUS1
100
AcDbPolyline
 90
        6
 70
     0
 43
0.0
 10
16.01498782517329
 20
34.60306959302613
 10
16.01498782517329
 20
34.86224589626569
 42
-0.4142139677743656
 10
16.14587107878482
 20
34.99312896871839
 10
18.6995148230879
 20
34.99312896871852
 42
-0.4142135623730951
 10
18.83039789554074
 20
34.86224589626569
 10
18.83039789554074
 20
34.60306959302613
  0
LWPOLYLINE
  5
B74
330
1F
100
AcDbEntity
  8
CONTINUOUS1
100
AcDbPolyline
 90
        4
 70
     1
 43
0.0
 10
13.85884556770324
 20
13.98868867307353
 10
20.91509734921423
 20
13.98868867307353
 10
20.91509734921423
 20
11.63250416326522
 10
13.85884556770324
 20
11.63250416326523
  0
LWPOLYLINE
  5
B75
330
1F
100
AcDbEntity
  8
CONTINUOUS1
100
AcDbPolyline
 90
        4
 70
     1
 43
0.0
 10
29.87585872309646
 20
34.37677467211439
 10
32.46580446319467
 20
34.37677467211439
 10
32.46580446319467
 20
34.47899436170716
 10
29.87585872309646
 20
34.47899436170716
  0
ARC
  5
B76
330
1F
100
AcDbEntity
  8
CONTINUOUS1
100
AcDbCircle
 10
29.56326143157989
 20
27.80689266682658
 30
0.0
 40
0.2258646149162164
100
AcDbArc
 50
357.6254640923758
 51
90.00000000000587
  0
LINE
  5
B77
330
1F
100
AcDbEntity
  8
CONTINUOUS1
100
AcDbLine
 10
29.10027019320411
 20
30.34020113150916
 30
0.0
 11
29.75044754176812
 21
30.04384038598653
 31
0.0
  0
ARC
  5
B78
330
1F
100
AcDbEntity
  8
CONTINUOUS1
100
AcDbCircle
 10
29.71539461523033
 20
29.97919541620765
 30
0.0
 40
0.0735372932119844
100
AcDbArc
 50
0.0
 51
61.53202878025567
  0
LINE
  5
B79
330
1F
100
AcDbEntity
  8
CONTINUOUS1
100
AcDbLine
 10
29.78893190844232
 20
29.97919541620765
 30
0.0
 11
29.78893190844232
 21
29.03437054041017
 31
0.0
  0
LINE
  5
B7A
330
1F
100
AcDbEntity
  8
CONTINUOUS1
100
AcDbLine
 10
29.74803982961642
 20
28.96847668253265
 30
0.0
 11
29.11279409909713
 21
28.70509338765311
 31
0.0
  0
ARC
  5
B7B
330
1F
100
AcDbEntity
  8
CONTINUOUS1
100
AcDbCircle
 10
29.71539461523033
 20
29.03437054041017
 30
0.0
 40
0.0735372932119858
100
AcDbArc
 50
296.3551510814992
 51
0.0
  0
LINE
  5
B7C
330
1F
100
AcDbEntity
  8
CONTINUOUS1
100
AcDbLine
 10
29.19687889275755
 20
28.0327572817428
 30
0.0
 11
29.56326143157989
 21
28.0327572817428
 31
0.0
  0
ARC
  5
B7D
330
1F
100
AcDbEntity
  8
CONTINUOUS1
100
AcDbCircle
 10
29.27207736725459
 20
28.38358776131757
 30
0.0
 40
0.3587991461849208
100
AcDbArc
 50
116.3549924722912
 51
257.9018427464769
  0
ARC
  5
B7E
330
1F
100
AcDbEntity
  8
CONTINUOUS1
100
AcDbCircle
 10
28.96609477952971
 20
31.57360521929156
 30
0.0
 40
0.333755337245361
100
AcDbArc
 50
211.8787803002928
 51
253.7473534072584
  0
LINE
  5
B7F
330
1F
100
AcDbEntity
  8
CONTINUOUS1
100
AcDbLine
 10
28.41392112251394
 20
30.80967197760825
 30
0.0
 11
27.93418797877738
 21
31.58102749735858
 31
0.0
  0
ARC
  5
B80
330
1F
100
AcDbEntity
  8
CONTINUOUS1
100
AcDbCircle
 10
28.69733466112936
 20
30.98593732191471
 30
0.0
 40
0.3337553372453685
100
AcDbArc
 50
211.8787803002949
 51
253.7473534072589
  0
LINE
  5
B81
330
1F
100
AcDbEntity
  8
CONTINUOUS1
100
AcDbLine
 10
28.92365159769667
 20
30.49215518778006
 30
0.0
 11
28.60392623732866
 21
30.66551946910737
 31
0.0
  0
LINE
  5
B82
330
1F
100
AcDbEntity
  8
CONTINUOUS1
100
AcDbLine
 10
29.34897605078976
 20
30.99546709864815
 30
0.0
 11
28.87268635572903
 21
31.25318736648425
 31
0.0
  0
LINE
  5
B83
330
1F
100
AcDbEntity
  8
CONTINUOUS1
100
AcDbLine
 10
28.68268124091429
 20
31.39733987498512
 30
0.0
 11
28.46625233583948
 21
31.91193781147538
 31
0.0
  0
ARC
  5
B84
330
1F
100
AcDbEntity
  8
CONTINUOUS1
100
AcDbCircle
 10
29.22752468533188
 20
30.6667333322994
 30
0.0
 40
0.3504522105833504
100
AcDbArc
 50
69.72310056258824
 51
248.7082358475412
  0
ARC
  5
B85
330
1F
100
AcDbEntity
  8
CONTINUOUS1
100
AcDbCircle
 10
29.45889821770242
 20
31.33814978423323
 30
0.0
 40
0.3598809154434326
100
AcDbArc
 50
252.2150177574959
 51
336.5000414886582
  0
ARC
  5
B86
330
1F
100
AcDbEntity
  8
CONTINUOUS1
100
AcDbCircle
 10
27.60432140687763
 20
32.11640120773975
 30
0.0
 40
0.049889476978836
100
AcDbArc
 50
121.8788596048705
 51
211.8787803003022
  0
LINE
  5
B87
330
1F
100
AcDbEntity
  8
CONTINUOUS1
100
AcDbLine
 10
28.10556384612073
 20
32.48689266846354
 30
0.0
 11
27.57797367070045
 21
32.15876633406661
 31
0.0
  0
ARC
  5
B88
330
1F
100
AcDbEntity
  8
CONTINUOUS1
100
AcDbCircle
 10
28.13191158229789
 20
32.44452854284828
 30
0.0
 40
0.0498894769788481
100
AcDbArc
 50
31.87893890946245
 51
121.8788596048619
  0
LINE
  5
B89
330
1F
100
AcDbEntity
  8
CONTINUOUS1
100
AcDbLine
 10
28.48003113410084
 20
31.97925768340784
 30
0.0
 11
28.17427570791312
 21
32.47087627902544
 31
0.0
  0
ARC
  5
B8A
330
1F
100
AcDbEntity
  8
CONTINUOUS1
100
AcDbCircle
 10
28.4376670084856
 20
31.95290994723069
 30
0.0
 40
0.0498894769788473
100
AcDbArc
 50
301.8790182140786
 51
31.87893890945552
  0
LINE
  5
B8B
330
1F
100
AcDbEntity
  8
CONTINUOUS1
100
AcDbLine
 10
27.93642456924249
 20
31.5824184865069
 30
0.0
 11
28.46401474466276
 21
31.91054582161544
 31
0.0
  0
ARC
  5
B8C
330
1F
100
AcDbEntity
  8
CONTINUOUS1
100
AcDbCircle
 10
27.91007683306534
 20
31.62478261212214
 30
0.0
 40
0.0498894769788427
100
AcDbArc
 50
211.8787803002996
 51
301.8787009956943
  0
LINE
  5
B8D
330
1F
100
AcDbEntity
  8
CONTINUOUS1
100
AcDbLine
 10
27.56195728126238
 20
32.0900534715626
 30
0.0
 11
27.86771270745009
 21
31.59843487594499
 31
0.0
  0
LWPOLYLINE
  5
B8E
330
1F
100
AcDbEntity
  8
CONTINUOUS1
100
AcDbPolyline
 90
        6
 70
     0
 43
0.0
 10
30.13792408077573
 20
34.47899436170716
 10
30.13792408077573
 20
34.73817066494672
 42
-0.4142139677743577
 10
30.26880733438727
 20
34.86905373739942
 10
31.90122598496837
 20
34.86905373739955
 42
-0.4142135623730951
 10
32.03210905742121
 20
34.73817066494672
 10
32.03210905742121
 20
34.47899436170716
  0
LWPOLYLINE
  5
B8F
330
1F
100
AcDbEntity
  8
CONTINUOUS1
100
AcDbPolyline
 90
        5
 70
     1
 43
0.0
 10
30.87470101129497
 20
34.47899436170716
 10
30.87470101129497
 20
34.63605404865055
 10
31.20207481055553
 20
34.63605404865055
 10
31.20207481055553
 20
34.47899436170716
 10
30.87470101129497
 20
34.47899436170716
  0
LWPOLYLINE
  5
B90
330
1F
100
AcDbEntity
  8
CONTINUOUS1
100
AcDbPolyline
 90
        5
 70
     1
 43
0.0
 10
32.46580446319467
 20
32.18866759719752
 10
32.66594678669467
 20
32.38880992069751
 10
32.66594678669467
 20
32.9892368911975
 10
32.46580446319467
 20
33.18937921469751
 10
32.46580446319467
 20
32.18866759719752
  0
LWPOLYLINE
  5
B91
330
1F
100
AcDbEntity
  8
CONTINUOUS1
100
AcDbPolyline
 90
        5
 70
     1
 43
0.0
 10
32.46580446319467
 20
25.05392609100851
 10
32.66594678669467
 20
25.25406841450851
 10
32.66594678669467
 20
25.85449538500851
 10
32.46580446319467
 20
26.05463770850851
 10
32.46580446319467
 20
25.05392609100851
  0
LINE
  5
B92
330
1F
100
AcDbEntity
  8
CONTINUOUS1
100
AcDbLine
 10
31.79358544054361
 20
25.7663176808325
 30
0.0
 11
31.92279832530683
 21
25.7663176808325
 31
0.0
  0
LINE
  5
B93
330
1F
100
AcDbEntity
  8
CONTINUOUS1
100
AcDbLine
 10
31.92988936782842
 20
25.7663176808325
 30
0.0
 11
31.80360856810449
 21
25.7663176808325
 31
0.0
  0
LINE
  5
B94
330
1F
100
AcDbEntity
  8
CONTINUOUS1
100
AcDbLine
 10
31.79358544054361
 20
25.91967673621438
 30
0.0
 11
31.92279832530683
 21
25.91967673621438
 31
0.0
  0
LINE
  5
B95
330
1F
100
AcDbEntity
  8
CONTINUOUS1
100
AcDbLine
 10
31.92988936782842
 20
25.91967673621438
 30
0.0
 11
31.80360856810449
 21
25.91967673621438
 31
0.0
  0
LINE
  5
B96
330
1F
100
AcDbEntity
  8
CONTINUOUS1
100
AcDbLine
 10
31.31731175686875
 20
25.7663176808325
 30
0.0
 11
31.18809887210554
 21
25.7663176808325
 31
0.0
  0
LINE
  5
B97
330
1F
100
AcDbEntity
  8
CONTINUOUS1
100
AcDbLine
 10
31.31731175686875
 20
25.91967673621438
 30
0.0
 11
31.18809887210554
 21
25.91967673621438
 31
0.0
  0
ARC
  5
B98
330
1F
100
AcDbEntity
  8
CONTINUOUS1
100
AcDbCircle
 10
31.55544909906199
 20
25.84299720852344
 30
0.0
 40
0.3752668565625032
100
AcDbArc
 50
11.79044161069944
 51
168.2093997801103
  0
ARC
  5
B99
330
1F
100
AcDbEntity
  8
CONTINUOUS1
100
AcDbCircle
 10
31.55544909906199
 20
25.84299720852344
 30
0.0
 40
0.2501779043750025
100
AcDbArc
 50
17.84837827266922
 51
162.1514631181397
  0
ARC
  5
B9A
330
1F
100
AcDbEntity
  8
CONTINUOUS1
100
AcDbCircle
 10
31.55544909906199
 20
25.84299720852344
 30
0.0
 40
0.3752668565625039
100
AcDbArc
 50
191.7902830015338
 51
348.2092411709438
  0
ARC
  5
B9B
330
1F
100
AcDbEntity
  8
CONTINUOUS1
100
AcDbCircle
 10
31.55544909906199
 20
25.84299720852344
 30
0.0
 40
0.250177904375004
100
AcDbArc
 50
197.8482196635036
 51
342.1513045089726
  0
ARC
  5
B9C
330
1F
100
AcDbEntity
  8
CONTINUOUS1
100
AcDbCircle
 10
31.43425191435494
 20
25.84299720852344
 30
0.0
 40
0.5003558087500069
100
AcDbArc
 50
245.0336513041085
 51
114.9663486959151
  0
ARC
  5
B9D
330
1F
100
AcDbEntity
  8
CONTINUOUS1
100
AcDbCircle
 10
31.43425191435494
 20
25.84299720852344
 30
0.0
 40
0.5003558087500073
100
AcDbArc
 50
131.9488587315562
 51
228.0508240500879
  0
CIRCLE
  5
B9E
330
1F
100
AcDbEntity
  8
CONTINUOUS1
100
AcDbCircle
 10
31.50771715633047
 20
29.47197772789644
 30
0.0
 40
0.1470735857123486
  0
ARC
  5
B9F
330
1F
100
AcDbEntity
  8
CONTINUOUS1
100
AcDbCircle
 10
31.50771715633047
 20
29.47197772789644
 30
0.0
 40
0.3868530956699171
100
AcDbArc
 50
211.5001338526018
 51
82.28179349633363
  0
LINE
  5
BA0
330
1F
100
AcDbEntity
  8
CONTINUOUS1
100
AcDbLine
 10
30.23593777944016
 20
30.86917729251965
 30
0.0
 11
30.23593777944016
 21
31.19464873899536
 31
0.0
  0
CIRCLE
  5
BA1
330
1F
100
AcDbEntity
  8
CONTINUOUS1
100
AcDbCircle
 10
30.57063478631758
 20
31.01457668769593
 30
0.0
 40
0.1481793720496967
  0
LINE
  5
BA2
330
1F
100
AcDbEntity
  8
CONTINUOUS1
100
AcDbLine
 10
30.23593777944016
 20
28.08528363383375
 30
0.0
 11
30.23593777944016
 21
27.79753501249134
 31
0.0
  0
CIRCLE
  5
BA3
330
1F
100
AcDbEntity
  8
CONTINUOUS1
100
AcDbCircle
 10
30.57063478631758
 20
27.93932984442138
 30
0.0
 40
0.1481793720496967
  0
LINE
  5
BA4
330
1F
100
AcDbEntity
  8
CONTINUOUS1
100
AcDbLine
 10
31.17787059866306
 20
29.26984699041248
 30
0.0
 11
30.15185298577972
 21
29.82618560918027
 31
0.0
  0
LINE
  5
BA5
330
1F
100
AcDbEntity
  8
CONTINUOUS1
100
AcDbLine
 10
31.55967110137621
 20
29.85532633148188
 30
0.0
 11
30.15185298577972
 21
30.61709703535978
 31
0.0
  0
CIRCLE
  5
BA6
330
1F
100
AcDbEntity
  8
CONTINUOUS1
100
AcDbCircle
 10
30.89810365318182
 20
28.76812521030459
 30
0.0
 40
0.4924391791439576
  0
LWPOLYLINE
  5
BA7
330
1F
100
AcDbEntity
  8
CONTINUOUS1
100
AcDbPolyline
 90
        4
 70
     0
 43
0.0
 10
29.78893190844232
 20
31.19464873899536
 10
31.97048723743879
 20
31.19464873899536
 10
31.97048723743879
 20
27.79753501249134
 10
29.78893190844232
 20
27.79753501249134
  0
LWPOLYLINE
  5
BA8
330
1F
100
AcDbEntity
  8
CONTINUOUS1
100
AcDbPolyline
 90
        3
 70
     0
 43
0.0
 10
30.3200225731006
 20
30.52610032655727
 10
30.3200225731006
 20
30.86917729251965
 10
30.15185298577972
 20
30.86917729251965
  0
LWPOLYLINE
  5
BA9
330
1F
100
AcDbEntity
  8
CONTINUOUS1
100
AcDbPolyline
 90
        4
 70
     0
 43
0.0
 10
30.15185298577972
 20
30.86917729251965
 10
30.15185298577972
 20
28.08528363383375
 10
30.3200225731006
 20
28.08528363383375
 10
30.3200225731006
 20
29.73499876517045
  0
LINE
  5
BAA
330
1F
100
AcDbEntity
  8
CONTINUOUS1
100
AcDbLine
 10
31.97048723743879
 20
28.97304092822006
 30
0.0
 11
31.97048723743879
 21
29.85232419662938
 31
0.0
  0
ARC
  5
BAB
330
1F
100
AcDbEntity
  8
CONTINUOUS1
100
AcDbCircle
 10
31.32654132011694
 20
28.97304092822006
 30
0.0
 40
0.6439459173218351
100
AcDbArc
 50
314.8330347994794
 51
0.0
  0
LINE
  5
BAC
330
1F
100
AcDbEntity
  8
CONTINUOUS1
100
AcDbLine
 10
31.41347013619432
 20
28.15142967103888
 30
0.0
 11
31.78055017101405
 21
28.51637718940173
 31
0.0
  0
ARC
  5
BAD
330
1F
100
AcDbEntity
  8
CONTINUOUS1
100
AcDbCircle
 10
30.9594602845856
 20
28.60809441056884
 30
0.0
 40
0.6439459173218425
100
AcDbArc
 50
269.9997620862391
 51
314.8327175810994
  0
LINE
  5
BAE
330
1F
100
AcDbEntity
  8
CONTINUOUS1
100
AcDbLine
 10
30.71672066966348
 20
27.96414749253538
 30
0.0
 11
30.9594602845856
 21
27.96414749253538
 31
0.0
  0
LINE
  5
BAF
330
1F
100
AcDbEntity
  8
CONTINUOUS1
100
AcDbLine
 10
31.97048723743879
 20
29.98086560389724
 30
0.0
 11
31.97048723743879
 21
29.34900928362642
 31
0.0
  0
ARC
  5
BB0
330
1F
100
AcDbEntity
  8
CONTINUOUS1
100
AcDbCircle
 10
31.32654132011694
 20
29.98086560389724
 30
0.0
 40
0.6439459173218367
100
AcDbArc
 50
0.0
 51
45.16696720054292
  0
LINE
  5
BB1
330
1F
100
AcDbEntity
  8
CONTINUOUS1
100
AcDbLine
 10
31.41347013619432
 20
30.8024758603668
 30
0.0
 11
31.78055017101405
 21
30.43752934271558
 31
0.0
  0
ARC
  5
BB2
330
1F
100
AcDbEntity
  8
CONTINUOUS1
100
AcDbCircle
 10
30.9594602845856
 20
30.34581212154848
 30
0.0
 40
0.643945917321834
100
AcDbArc
 50
45.16696720054242
 51
89.99992069540491
  0
LINE
  5
BB3
330
1F
100
AcDbEntity
  8
CONTINUOUS1
100
AcDbLine
 10
30.71672066966348
 20
30.98975903958193
 30
0.0
 11
30.9594602845856
 21
30.98975903958193
 31
0.0
  0
LWPOLYLINE
  5
BB4
330
1F
100
AcDbEntity
  8
CONTINUOUS1
100
AcDbPolyline
 90
        4
 70
     1
 43
0.0
 10
13.76197145845874
 20
34.47899436170716
 10
21.01197145845873
 20
34.47899436170716
 10
21.01197145845873
 20
33.69759961604944
 10
13.76197145845874
 20
33.69759961604943
  0
TEXT
  5
C67
330
1F
100
AcDbEntity
  8
TEXT1
100
AcDbText
 10
55.87461628323507
 20
37.71991096649168
 30
0.0
 40
0.4
  1
WIRING DIAGRAMS
  7
ROMANS
 72
     1
 11
58.49366390228269
 21
37.91991096649168
 31
0.0
100
AcDbText
 73
     2
  0
TEXT
  5
C68
330
1F
100
AcDbEntity
  8
TEXT1
100
AcDbText
 10
56.51347982996983
 20
36.16439293060301
 30
0.0
 40
0.4
  1
NOT FUSIBLE
  7
ROMANS
 72
     1
 11
58.49443221092221
 21
36.36439293060302
 31
0.0
100
AcDbText
 73
     2
  0
LINE
  5
C73
330
1F
100
AcDbEntity
  8
CONTINUOUS1
100
AcDbLine
 10
18.83039789554074
 20
34.60306959302613
 30
0.0
 11
16.01498782517329
 21
34.60306959302613
 31
0.0
  0
TEXT
  5
C75
330
1F
100
AcDbEntity
  8
TEXT1
100
AcDbText
 10
53.76647550037928
 20
32.71224376831054
 30
0.0
 40
0.4
  1
A
  7
ROMANS
 72
     1
 11
53.93790407180785
 21
32.91224376831054
 31
0.0
100
AcDbText
 73
     2
  0
LINE
  5
C76
330
1F
100
AcDbEntity
  8
HIDDEN1
100
AcDbLine
 10
54.88223216777445
 20
33.02175991943359
 30
0.0
 11
55.61183216777443
 21
33.02175991943359
 31
0.0
  0
LWPOLYLINE
  5
C77
330
1F
100
AcDbEntity
  8
CONTINUOUS1
100
AcDbPolyline
 90
        3
 70
     0
 43
0.0
 10
54.74028329849241
 20
32.15359871063363
 10
54.74028329849241
 20
32.57572405014037
 10
54.99082956314085
 20
33.36357195053099
  0
LINE
  5
C78
330
1F
100
AcDbEntity
  8
CONTINUOUS1
100
AcDbLine
 10
54.74028177261351
 20
33.34690324935912
 30
0.0
 11
54.74028177261351
 21
33.76902858886587
 31
0.0
  0
LINE
  5
C79
330
1F
100
AcDbEntity
  8
CONTINUOUS1
100
AcDbLine
 10
55.47006082534787
 20
33.34690324935912
 30
0.0
 11
55.47006082534787
 21
33.76902858886587
 31
0.0
  0
LWPOLYLINE
  5
C7A
330
1F
100
AcDbEntity
  8
CONTINUOUS1
100
AcDbPolyline
 90
        3
 70
     0
 43
0.0
 10
55.47006235122679
 20
32.15359871063363
 10
55.47006235122679
 20
32.57572405014037
 10
55.72060861587522
 20
33.36357195053099
  0
CIRCLE
  5
C7B
330
1F
100
AcDbEntity
  8
CONTINUOUS1
100
AcDbCircle
 10
54.74980554580686
 20
33.92145073089469
 30
0.0
 40
0.1527193885415006
  0
CIRCLE
  5
C7C
330
1F
100
AcDbEntity
  8
CONTINUOUS1
100
AcDbCircle
 10
55.47958459854124
 20
33.92145073089469
 30
0.0
 40
0.1527193885414935
  0
CIRCLE
  5
C7D
330
1F
100
AcDbEntity
  8
CONTINUOUS1
100
AcDbCircle
 10
55.47006235122677
 20
32.00087932209445
 30
0.0
 40
0.1527193885415006
  0
CIRCLE
  5
C7E
330
1F
100
AcDbEntity
  8
CONTINUOUS1
100
AcDbCircle
 10
54.74028329849241
 20
32.00087932209445
 30
0.0
 40
0.1527193885415006
  0
TEXT
  5
C7F
330
1F
100
AcDbEntity
  8
TEXT1
100
AcDbText
 10
59.92482413473581
 20
32.67451348457337
 30
0.0
 40
0.4
  1
B
  7
ROMANS
 72
     1
 11
60.13434794425961
 21
32.87451348457337
 31
0.0
100
AcDbText
 73
     2
  0
LINE
  5
C80
330
1F
100
AcDbEntity
  8
HIDDEN1
100
AcDbLine
 10
61.07863216777443
 20
32.98403991943359
 30
0.0
 11
62.53823216777445
 21
32.98403991943359
 31
0.0
  0
LWPOLYLINE
  5
C81
330
1F
100
AcDbEntity
  8
CONTINUOUS1
100
AcDbPolyline
 90
        3
 70
     0
 43
0.0
 10
60.93672717094418
 20
32.11586842689645
 10
60.93672717094418
 20
32.5379937664032
 10
61.18727343559263
 20
33.32584166679382
  0
LWPOLYLINE
  5
C82
330
1F
100
AcDbEntity
  8
CONTINUOUS1
100
AcDbPolyline
 90
        3
 70
     0
 43
0.0
 10
62.39626543998716
 20
32.11586613807809
 10
62.39626543998716
 20
32.53799147758484
 10
62.6468117046356
 20
33.32583937797547
  0
LINE
  5
C83
330
1F
100
AcDbEntity
  8
CONTINUOUS1
100
AcDbLine
 10
60.93672564506528
 20
33.30917296562195
 30
0.0
 11
60.93672564506528
 21
33.7312983051287
 31
0.0
  0
LINE
  5
C84
330
1F
100
AcDbEntity
  8
CONTINUOUS1
100
AcDbLine
 10
62.39626391410826
 20
33.30917067680359
 30
0.0
 11
62.39626391410826
 21
33.73129601631033
 31
0.0
  0
LINE
  5
C85
330
1F
100
AcDbEntity
  8
CONTINUOUS1
100
AcDbLine
 10
61.66650469779966
 20
33.30917296562195
 30
0.0
 11
61.66650469779966
 21
33.7312983051287
 31
0.0
  0
LWPOLYLINE
  5
C86
330
1F
100
AcDbEntity
  8
CONTINUOUS1
100
AcDbPolyline
 90
        3
 70
     0
 43
0.0
 10
61.66650622367857
 20
32.11586842689645
 10
61.66650622367857
 20
32.5379937664032
 10
61.91705248832701
 20
33.32584166679382
  0
CIRCLE
  5
C87
330
1F
100
AcDbEntity
  8
CONTINUOUS1
100
AcDbCircle
 10
60.94624941825864
 20
33.88372044715751
 30
0.0
 40
0.1527193885415006
  0
CIRCLE
  5
C88
330
1F
100
AcDbEntity
  8
CONTINUOUS1
100
AcDbCircle
 10
61.67602847099303
 20
33.88372044715751
 30
0.0
 40
0.1527193885414935
  0
CIRCLE
  5
C89
330
1F
100
AcDbEntity
  8
CONTINUOUS1
100
AcDbCircle
 10
62.40578768730163
 20
33.88371815833915
 30
0.0
 40
0.152719388541493
  0
CIRCLE
  5
C8A
330
1F
100
AcDbEntity
  8
CONTINUOUS1
100
AcDbCircle
 10
62.39626543998716
 20
31.96314674953891
 30
0.0
 40
0.1527193885415002
  0
CIRCLE
  5
C8B
330
1F
100
AcDbEntity
  8
CONTINUOUS1
100
AcDbCircle
 10
61.66650622367857
 20
31.96314903835727
 30
0.0
 40
0.1527193885415006
  0
CIRCLE
  5
C8C
330
1F
100
AcDbEntity
  8
CONTINUOUS1
100
AcDbCircle
 10
60.93672717094418
 20
31.96314903835727
 30
0.0
 40
0.1527193885415006
  0
LWPOLYLINE
  5
C8E
330
1F
100
AcDbEntity
  8
CONTINUOUS1
100
AcDbPolyline
 90
        4
 70
     0
 43
0.0
 10
32.46580446319467
 20
34.37677467211439
 10
32.46580446319467
 20
24.84899436170716
 10
30.10961995338637
 20
24.84899436170716
 10
30.10961995338637
 20
27.79753501249134
  0
LWPOLYLINE
  5
C8F
330
1F
100
AcDbEntity
  8
CONTINUOUS1
100
AcDbPolyline
 90
        4
 70
     0
 43
0.0
 10
30.10961995338637
 20
31.19464873899536
 10
30.10961995338637
 20
32.33924467428273
 10
29.6504033992318
 20
32.33924467428273
 10
29.6504033992318
 20
31.03345315027113
  0
LINE
  5
C90
330
1F
100
AcDbEntity
  8
CONTINUOUS1
100
AcDbLine
 10
29.6504033992318
 20
30.08944203103418
 30
0.0
 11
29.6504033992318
 21
28.92799501772246
 31
0.0
  0
LWPOLYLINE
  5
C91
330
1F
100
AcDbEntity
  8
CONTINUOUS1
100
AcDbPolyline
 90
        4
 70
     0
 43
0.0
 10
29.6504033992318
 20
28.01526984622698
 10
29.6504033992318
 20
24.6898381839251
 10
30.10961995338637
 20
24.6898381839251
 10
30.10961995338637
 20
24.84899436170716
  0
DIMENSION
  5
FC2
330
1F
100
AcDbEntity
  8
DIM
100
AcDbDimension
  2
*D3
 10
13.76197145845874
 20
36.09571256361272
 30
0.0
 11
17.38697145845874
 21
36.09571256361272
 31
0.0
 70
    32
  3
SCHNEIDERELECTRIC_DUAL_BEL
100
AcDbAlignedDimension
 13
21.01197145845873
 23
34.47899436170716
 33
0.0
 14
13.76197145845874
 24
34.47899436170716
 34
0.0
100
AcDbRotatedDimension
1001
ACAD
1000
DSTYLE
1002
{
1070
    40
1040
4.0
1002
}
  0
DIMENSION
  5
FD0
330
1F
100
AcDbEntity
  8
DIM
100
AcDbDimension
  2
*D4
 10
11.38139886920764
 20
32.1892528897743
 30
0.0
 11
11.38139886920763
 21
29.18925288977431
 31
0.0
 70
    32
  3
SCHNEIDERELECTRIC_DUAL_BEL
100
AcDbAlignedDimension
 13
14.74687205351476
 23
26.18925288977431
 33
0.0
 14
16.99669392763354
 24
32.18925288977429
 34
0.0
 50
90.0
100
AcDbRotatedDimension
1001
ACAD
1000
DSTYLE
1002
{
1070
    40
1040
4.0
1002
}
  0
DIMENSION
  5
FDE
330
1F
100
AcDbEntity
  8
DIM
100
AcDbDimension
  2
*D5
 10
19.63679433328944
 20
23.00708689014614
 30
0.0
 11
17.38697195881455
 21
23.00708689014614
 31
0.0
 70
    32
  3
SCHNEIDERELECTRIC_DUAL_BEL
100
AcDbAlignedDimension
 13
15.13714958433965
 23
25.79897535894882
 33
0.0
 14
19.63679433328944
 24
25.79897535894914
 34
0.0
100
AcDbRotatedDimension
1001
ACAD
1000
DSTYLE
1002
{
1070
    40
1040
4.0
1002
}
  0
DIMENSION
  5
FEC
330
1F
100
AcDbEntity
  8
DIM
100
AcDbDimension
  2
*D6
 10
13.76197145845874
 20
17.67240548774902
 30
0.0
 11
17.63643224240359
 21
17.67240548774902
 31
0.0
 70
    32
  3
SCHNEIDERELECTRIC_DUAL_BEL
100
AcDbAlignedDimension
 13
21.51089302634844
 23
16.52726688513386
 33
0.0
 14
13.76197145845874
 24
14.43548539534332
 34
0.0
100
AcDbRotatedDimension
1001
ACAD
1000
DSTYLE
1002
{
1070
    40
1040
4.0
1002
}
  0
DIMENSION
  5
FFA
330
1F
100
AcDbEntity
  8
DIM
100
AcDbDimension
  2
*D7
 10
32.66594678669467
 20
23.00708689014614
 30
0.0
 11
30.78961250388217
 21
23.00708689014614
 31
0.0
 70
    32
  3
SCHNEIDERELECTRIC_DUAL_BEL
100
AcDbAlignedDimension
 13
28.91327822106967
 23
24.85824493989932
 33
0.0
 14
32.66594678669467
 24
25.25406841450851
 34
0.0
100
AcDbRotatedDimension
1001
ACAD
1000
DSTYLE
1002
{
1070
    40
1040
4.0
1002
}
  0
DIMENSION
  5
1008
330
1F
100
AcDbEntity
  8
DIM
100
AcDbDimension
  2
*D8
 10
34.28347791899525
 20
34.47899436170716
 30
0.0
 11
34.28347791899525
 21
29.66399436170716
 31
0.0
 70
    32
  3
SCHNEIDERELECTRIC_DUAL_BEL
100
AcDbAlignedDimension
 13
32.46580446319467
 23
24.84899436170716
 33
0.0
 14
32.46580446319467
 24
34.47899436170716
 34
0.0
 50
90.0
100
AcDbRotatedDimension
1001
ACAD
1000
DSTYLE
1002
{
1070
    40
1040
4.0
1002
}
  0
MTEXT
  5
1457
330
1F
100
AcDbEntity
  8
0
100
AcDbMText
 10
93.97435274809827
 20
39.31347378735186
 30
0.0
 40
0.1
 41
0.0
 71
     1
 72
     1
  1

  7
ROMANS
1001
ACAD
1000
MTEXTBEGIN
1070
    73
1070
     1
1070
    44
1040
1.0
1070
    74
1070
     0
1000
MTEXTEND
  0
MTEXT
  5
1459
330
1F
100
AcDbEntity
  8
0
100
AcDbMText
 10
100.2677140477136
 20
40.99709126273625
 30
0.0
 40
0.1
 41
0.0
 71
     1
 72
     1
  1

  7
ROMANS
1001
ACAD
1000
MTEXTBEGIN
1070
    73
1070
     1
1070
    44
1040
1.0
1070
    74
1070
     0
1000
MTEXTEND
  0
MTEXT
  5
145B
330
1F
100
AcDbEntity
  8
0
100
AcDbMText
 10
98.70073609563052
 20
42.76587698137551
 30
0.0
 40
0.1
 41
0.0
 71
     1
 72
     1
  1

  7
ROMANS
1001
ACAD
1000
MTEXTBEGIN
1070
    73
1070
     1
1070
    44
1040
1.0
1070
    74
1070
     0
1000
MTEXTEND
  0
MTEXT
  5
145D
330
1F
100
AcDbEntity
  8
0
100
AcDbMText
 10
89.57034395921906
 20
13.50129995388813
 30
0.0
 40
0.1
 41
0.0
 71
     9
 72
     1
  1

  7
ROMANS
1001
ACAD
1000
MTEXTBEGIN
1070
    73
1070
     1
1070
    44
1040
1.0
1070
    74
1070
     0
1000
MTEXTEND
  0
MTEXT
  5
145F
330
1F
100
AcDbEntity
  8
0
100
AcDbMText
 10
81.82633076399252
 20
22.42991117434393
 30
0.0
 40
0.1
 41
0.0
 71
     9
 72
     1
  1

  7
ROMANS
1001
ACAD
1000
MTEXTBEGIN
1070
    73
1070
     1
1070
    44
1040
1.0
1070
    74
1070
     0
1000
MTEXTEND
  0
MTEXT
  5
1464
330
1F
100
AcDbEntity
  8
0
100
AcDbMText
 10
157.5959225212874
 20
38.4608914532783
 30
0.0
 40
0.1
 41
0.0
 71
     1
 72
     1
  1

  7
ROMANS
1001
ACAD
1000
MTEXTBEGIN
1070
    73
1070
     1
1070
    44
1040
1.0
1070
    74
1070
     0
1000
MTEXTEND
  0
MTEXT
  5
1465
330
1F
100
AcDbEntity
  8
0
100
AcDbMText
 10
157.3907694553675
 20
26.30577520769903
 30
0.0
 40
0.1
 41
0.0
 71
     1
 72
     1
  1

  7
ROMANS
1001
ACAD
1000
MTEXTBEGIN
1070
    73
1070
     1
1070
    44
1040
1.0
1070
    74
1070
     0
1000
MTEXTEND
  0
MTEXT
  5
1466
330
1F
100
AcDbEntity
  8
0
100
AcDbMText
 10
170.9079113395443
 20
30.36578322025499
 30
0.0
 40
0.1
 41
0.0
 71
     1
 72
     1
  1

  7
ROMANS
1001
ACAD
1000
MTEXTBEGIN
1070
    73
1070
     1
1070
    44
1040
1.0
1070
    74
1070
     0
1000
MTEXTEND
  0
MTEXT
  5
1467
330
1F
100
AcDbEntity
  8
0
100
AcDbMText
 10
154.0711025812399
 20
15.95916962303764
 30
0.0
 40
0.1
 41
0.0
 71
     1
 72
     1
  1

  7
ROMANS
1001
ACAD
1000
MTEXTBEGIN
1070
    73
1070
     1
1070
    44
1040
1.0
1070
    74
1070
     0
1000
MTEXTEND
  0
MTEXT
  5
1468
330
1F
100
AcDbEntity
  8
0
100
AcDbMText
 10
145.8272433555854
 20
19.20607730654193
 30
0.0
 40
0.1
 41
0.0
 71
     9
 72
     1
  1

  7
ROMANS
1001
ACAD
1000
MTEXTBEGIN
1070
    73
1070
     1
1070
    44
1040
1.0
1070
    74
1070
     0
1000
MTEXTEND
  0
TEXT
  5
1469
330
1F
100
AcDbEntity
  8
TEXT1
100
AcDbText
 10
0.8171190396940026
 20
0.8133680048199877
 30
0.0
 40
0.3999999999999999
  1
+
 41
0.8000000000000003
  7
ROMANS
 72
     1
 11
1.01521427778924
 21
1.013368004819987
 31
0.0
100
AcDbText
 73
     2
  0
TEXT
  5
146A
330
1F
100
AcDbEntity
  8
TEXT1
100
AcDbText
 10
0.8171190396940026
 20
0.6633680048199892
 30
0.0
 40
0.4000000000000002
  1
+
 41
0.8
  7
ROMANS
 72
     1
 11
1.01521427778924
 21
0.8633680048199892
 31
0.0
100
AcDbText
 73
     2
  0
TEXT
  5
146D
330
1F
100
AcDbEntity
  8
TEXT1
100
AcDbText
 10
61.26837526321409
 20
10.36537284302353
 30
0.0
 40
0.3200000000000003
  1
MILLIMETERS
  7
ROMANS
 11
61.26837526321409
 21
10.52537284302353
 31
0.0
100
AcDbText
 73
     2
  0
TEXT
  5
146E
330
1F
100
AcDbEntity
  8
TEXT1
100
AcDbText
 10
61.29501526355742
 20
10.92537284302353
 30
0.0
 40
0.4000000000000004
  1
INCHES
  7
ROMANS
 11
61.29501526355742
 21
11.12537284302353
 31
0.0
100
AcDbText
 73
     2
  0
TEXT
  5
146F
330
1F
100
AcDbEntity
  8
TEXT1
100
AcDbText
 10
56.58355604171752
 20
10.71495608734726
 30
0.0
 40
0.3200000000000003
  1
DUAL DIMENSIONS:
  7
ROMANS
 11
56.58355604171752
 21
10.87495608734726
 31
0.0
100
AcDbText
 73
     2
  0
MTEXT
  5
1470
330
1F
100
AcDbEntity
  8
0
100
AcDbMText
 10
227.3008707627425
 20
37.34307663187973
 30
0.0
 40
0.1
 41
0.0
 71
     1
 72
     1
  1

  7
ROMANS
1001
ACAD
1000
MTEXTBEGIN
1070
    73
1070
     1
1070
    44
1040
1.0
1070
    74
1070
     0
1000
MTEXTEND
  0
MTEXT
  5
1471
330
1F
100
AcDbEntity
  8
0
100
AcDbMText
 10
226.8217480167518
 20
41.85613898978226
 30
0.0
 40
0.1
 41
0.0
 71
     1
 72
     1
  1

  7
ROMANS
1001
ACAD
1000
MTEXTBEGIN
1070
    73
1070
     1
1070
    44
1040
1.0
1070
    74
1070
     0
1000
MTEXTEND
  0
MTEXT
  5
1472
330
1F
100
AcDbEntity
  8
0
100
AcDbMText
 10
220.5141215071071
 20
28.13734476744187
 30
0.0
 40
0.1
 41
0.0
 71
     1
 72
     1
  1

  7
ROMANS
1001
ACAD
1000
MTEXTBEGIN
1070
    73
1070
     1
1070
    44
1040
1.0
1070
    74
1070
     0
1000
MTEXTEND
  0
MTEXT
  5
1473
330
1F
100
AcDbEntity
  8
0
100
AcDbMText
 10
222.2626433238158
 20
39.65978841528885
 30
0.0
 40
0.1
 41
0.0
 71
     1
 72
     1
  1

  7
ROMANS
1001
ACAD
1000
MTEXTBEGIN
1070
    73
1070
     1
1070
    44
1040
1.0
1070
    74
1070
     0
1000
MTEXTEND
  0
MTEXT
  5
1474
330
1F
100
AcDbEntity
  8
0
100
AcDbMText
 10
236.8284427651732
 20
40.34623453645717
 30
0.0
 40
0.1
 41
0.0
 71
     1
 72
     1
  1

  7
ROMANS
1001
ACAD
1000
MTEXTBEGIN
1070
    73
1070
     1
1070
    44
1040
1.0
1070
    74
1070
     0
1000
MTEXTEND
  0
MTEXT
  5
1475
330
1F
100
AcDbEntity
  8
0
100
AcDbMText
 10
213.2891959211613
 20
41.33149426918482
 30
0.0
 40
0.1
 41
0.0
 71
     9
 72
     1
  1

  7
ROMANS
1001
ACAD
1000
MTEXTBEGIN
1070
    73
1070
     1
1070
    44
1040
1.0
1070
    74
1070
     0
1000
MTEXTEND
  0
MTEXT
  5
1476
330
1F
100
AcDbEntity
  8
0
100
AcDbMText
 10
220.7268443340308
 20
16.57822550875062
 30
0.0
 40
0.1
 41
0.0
 71
     1
 72
     1
  1

  7
ROMANS
1001
ACAD
1000
MTEXTBEGIN
1070
    73
1070
     1
1070
    44
1040
1.0
1070
    74
1070
     0
1000
MTEXTEND
  0
MTEXT
  5
1477
330
1F
100
AcDbEntity
  8
0
100
AcDbMText
 10
213.3772783281038
 20
16.47822550875061
 30
0.0
 40
0.1
 41
0.0
 71
     9
 72
     1
  1

  7
ROMANS
1001
ACAD
1000
MTEXTBEGIN
1070
    73
1070
     1
1070
    44
1040
1.0
1070
    74
1070
     0
1000
MTEXTEND
  0
MTEXT
  5
1478
330
1F
100
AcDbEntity
  8
TEXT1
100
AcDbMText
 10
1.455147082460953
 20
5.386852713029888
 30
0.0
 40
0.3200000000000001
 41
0.0
 71
     1
 72
     1
  3
NOTES:\PFINISH - GRAY BAKED ENAMEL\PUL LISTED - FILE E-2875\PSUITABLE FOR USE AS SERVICE EQUIPMENT\PTOP OF NEMA TYPE 3R SWITCHES HAVE PROVISIONS FOR MAXIMUM 2 1/2" BOLT-ON HUB.\PSHORT CIRCUIT CURRENT RATINGS:\P   10,000 AMPERES WHEN USED WITH OR PROT
  1
ECTED BY CLASS H OR K FUSES\P   100,000 AMPERES WHEN USED WITH OR PROTECTED BY CLASS R FUSES.\PLUGS SUITABLE FOR 60°C OR 75°C COPPER OR ALUMINUM CONDUCTORS.
  7
ROMANS
1001
ACAD
1000
MTEXTBEGIN
1070
    73
1070
     1
1070
    44
1040
1.0
1070
    74
1070
     0
1000
MTEXTEND
  0
MTEXT
  5
147F
330
1F
100
AcDbEntity
  8
0
100
AcDbMText
 10
94.85010364450277
 20
28.74468178964558
 30
0.0
 40
0.1
 41
0.0
 71
     1
 72
     1
  1

  7
ROMANS
1001
ACAD
1000
MTEXTBEGIN
1070
    73
1070
     1
1070
    44
1040
1.0
1070
    74
1070
     0
1000
MTEXTEND
  0
MTEXT
  5
1481
330
1F
100
AcDbEntity
  8
0
100
AcDbMText
 10
94.88909324402493
 20
16.24282450064047
 30
0.0
 40
0.1
 41
0.0
 71
     1
 72
     1
  1

  7
ROMANS
1001
ACAD
1000
MTEXTBEGIN
1070
    73
1070
     1
1070
    44
1040
1.0
1070
    74
1070
     0
1000
MTEXTEND
  0
MTEXT
  5
1483
330
1F
100
AcDbEntity
  8
0
100
AcDbMText
 10
93.84384272293729
 20
13.62839367642997
 30
0.0
 40
0.1
 41
0.0
 71
     1
 72
     1
  1

  7
ROMANS
1001
ACAD
1000
MTEXTBEGIN
1070
    73
1070
     1
1070
    44
1040
1.0
1070
    74
1070
     0
1000
MTEXTEND
  0
MTEXT
  5
1485
330
1F
100
AcDbEntity
  8
0
100
AcDbMText
 10
85.57141390985961
 20
17.06607504538271
 30
0.0
 40
0.1
 41
0.0
 71
     9
 72
     1
  1

  7
ROMANS
1001
ACAD
1000
MTEXTBEGIN
1070
    73
1070
     1
1070
    44
1040
1.0
1070
    74
1070
     0
1000
MTEXTEND
  0
MTEXT
  5
148A
330
1F
100
AcDbEntity
  8
0
100
AcDbMText
 10
111.6824767061512
 20
39.71962700591015
 30
0.0
 40
0.1
 41
0.0
 71
     1
 72
     1
  1

  7
ROMANS
1001
ACAD
1000
MTEXTBEGIN
1070
    73
1070
     1
1070
    44
1040
1.0
1070
    74
1070
     0
1000
MTEXTEND
  0
MTEXT
  5
148C
330
1F
100
AcDbEntity
  8
0
100
AcDbMText
 10
111.6824767061512
 20
36.88363427480378
 30
0.0
 40
0.1
 41
0.0
 71
     1
 72
     1
  1

  7
ROMANS
1001
ACAD
1000
MTEXTBEGIN
1070
    73
1070
     1
1070
    44
1040
1.0
1070
    74
1070
     0
1000
MTEXTEND
  0
MTEXT
  5
148E
330
1F
100
AcDbEntity
  8
0
100
AcDbMText
 10
111.6824767061512
 20
28.14279078196319
 30
0.0
 40
0.1
 41
0.0
 71
     1
 72
     1
  1

  7
ROMANS
1001
ACAD
1000
MTEXTBEGIN
1070
    73
1070
     1
1070
    44
1040
1.0
1070
    74
1070
     0
1000
MTEXTEND
  0
MTEXT
  5
1565
330
1F
100
AcDbEntity
  8
DIM
100
AcDbMText
 10
22.81282215970875
 20
36.65325165799726
 30
0.0
 40
0.4
 41
0.0
 71
     1
 72
     1
  1
.28 DIA\P{\H0.8x; [7]\P(3 HOLES)}
  7
ROMANS
1001
ACAD
1000
MTEXTBEGIN
1070
    73
1070
     1
1070
    44
1040
1.0
1070
    74
1070
     0
1000
MTEXTEND
  0
MTEXT
  5
1566
330
1F
100
AcDbEntity
  8
TEXT1
100
AcDbMText
 10
35.86282874269065
 20
27.46785498321526
 30
0.0
 40
0.3200000000000001
 41
0.0
 71
     1
 72
     1
  1
A,B,C\PKNOCKOUTS
  7
ROMANS
1001
ACAD
1000
MTEXTBEGIN
1070
    73
1070
     1
1070
    44
1040
1.0
1070
    74
1070
     0
1000
MTEXTEND
  0
MTEXT
  5
1567
330
1F
100
AcDbEntity
  8
TEXT1
100
AcDbMText
 10
22.50146308982416
 20
25.25902999190542
 30
0.0
 40
0.3200000000000001
 41
0.0
 71
     1
 72
     1
  1
A,B,C\PKNOCKOUTS
  7
ROMANS
1001
ACAD
1000
MTEXTBEGIN
1070
    73
1070
     1
1070
    44
1040
1.0
1070
    74
1070
     0
1000
MTEXTEND
  0
MTEXT
  5
1568
330
1F
100
AcDbEntity
  8
TEXT1
100
AcDbMText
 10
8.939155095518998
 20
14.63147938314817
 30
0.0
 40
0.3200000000000001
 41
0.0
 71
     1
 72
     1
  1
A,B,C\PKNOCKOUTS
  7
ROMANS
1001
ACAD
1000
MTEXTBEGIN
1070
    73
1070
     1
1070
    44
1040
1.0
1070
    74
1070
     0
1000
MTEXTEND
  0
MTEXT
  5
1569
330
1F
100
AcDbEntity
  8
TEXT1
100
AcDbMText
 10
21.37169692538837
 20
10.193048553265
 30
0.0
 40
0.3200000000000001
 41
0.0
 71
     1
 72
     1
  1
A,B,C,D\PKNOCKOUTS
  7
ROMANS
1001
ACAD
1000
MTEXTBEGIN
1070
    73
1070
     1
1070
    44
1040
1.0
1070
    74
1070
     0
1000
MTEXTEND
  0
LEADER
  5
156A
330
1F
100
AcDbEntity
  8
TEXT1
100
AcDbLeader
  3
SCHNEIDERELECTRIC_DUAL_BEL
 73
     0
 74
     0
 75
     1
 40
0.1
 76
     3
 10
31.92988936782842
 20
25.91967673621438
 30
0.0
 10
35.27474250420461
 20
27.27503825137578
 30
0.0
 10
35.55474250420461
 20
27.27503825137578
 30
0.0
340
156B
213
0.0
223
-0.05
233
0.0
1001
ACAD
1000
DSTYLE
1002
{
1070
     5
1000
SEARROW
1070
    40
1040
4.0
1070
   342
1005
195
1002
}
  0
MTEXT
  5
156B
102
{ACAD_REACTORS
330
156A
102
}
330
1F
100
AcDbEntity
  8
0
100
AcDbMText
 10
35.59474250420461
 20
27.32503825137578
 30
0.0
 40
0.1
 41
0.0
 71
     1
 72
     1
  1

  7
ROMANS
1001
ACAD
1000
MTEXTBEGIN
1070
    73
1070
     1
1070
    44
1040
1.0
1070
    74
1070
     0
1000
MTEXTEND
  0
LEADER
  5
156C
330
1F
100
AcDbEntity
  8
TEXT1
100
AcDbLeader
  3
SCHNEIDERELECTRIC_DUAL_BEL
 73
     0
 74
     0
 75
     1
 40
0.1
 76
     3
 10
19.99311984137465
 20
26.03004019130249
 30
0.0
 10
22.03527494904235
 20
25.07623057292844
 30
0.0
 10
22.31527494904235
 20
25.07623057292844
 30
0.0
340
156D
213
0.0
223
-0.05
233
0.0
1001
ACAD
1000
DSTYLE
1002
{
1070
     5
1000
SEARROW
1070
    40
1040
4.0
1070
   342
1005
195
1002
}
  0
MTEXT
  5
156D
102
{ACAD_REACTORS
330
156C
102
}
330
1F
100
AcDbEntity
  8
0
100
AcDbMText
 10
22.35527494904235
 20
25.12623057292844
 30
0.0
 40
0.1
 41
0.0
 71
     1
 72
     1
  1

  7
ROMANS
1001
ACAD
1000
MTEXTBEGIN
1070
    73
1070
     1
1070
    44
1040
1.0
1070
    74
1070
     0
1000
MTEXTEND
  0
MTEXT
  5
156F
330
1F
100
AcDbEntity
  8
0
100
AcDbMText
 10
21.21140602827071
 20
10.09747760105133
 30
0.0
 40
0.1
 41
0.0
 71
     1
 72
     1
  1

  7
ROMANS
1001
ACAD
1000
MTEXTBEGIN
1070
    73
1070
     1
1070
    44
1040
1.0
1070
    74
1070
     0
1000
MTEXTEND
  0
MTEXT
  5
1571
330
1F
100
AcDbEntity
  8
0
100
AcDbMText
 10
11.75134558081626
 20
13.85368547844886
 30
0.0
 40
0.1
 41
0.0
 71
     9
 72
     1
  1

  7
ROMANS
1001
ACAD
1000
MTEXTBEGIN
1070
    73
1070
     1
1070
    44
1040
1.0
1070
    74
1070
     0
1000
MTEXTEND
  0
LEADER
  5
15EA
330
1F
100
AcDbEntity
  8
DIM
100
AcDbLeader
  3
SCHNEIDERELECTRIC_DUAL_BEL
 73
     0
 74
     0
 75
     1
 40
0.1
 76
     3
 10
17.73966556666803
 20
32.35635590321601
 30
0.0
 10
22.19042580467182
 20
36.3801265928913
 30
0.0
 10
22.47042580467182
 20
36.3801265928913
 30
0.0
340
15EB
213
0.0
223
-0.05
233
0.0
1001
ACAD
1000
DSTYLE
1002
{
1070
     5
1000
SEARROW
1070
    40
1040
4.0
1070
   342
1005
195
1002
}
  0
MTEXT
  5
15EB
102
{ACAD_REACTORS
330
15EA
102
}
330
1F
100
AcDbEntity
  8
DIM
100
AcDbMText
 10
22.51042580467182
 20
36.4301265928913
 30
0.0
 40
0.1
 41
0.0
 71
     1
 72
     1
  1

  7
ROMANS
1001
ACAD
1000
MTEXTBEGIN
1070
    73
1070
     1
1070
    44
1040
1.0
1070
    74
1070
     0
1000
MTEXTEND
  0
MTEXT
  5
1A1F
330
1F
100
AcDbEntity
  8
0
100
AcDbMText
 10
11.48821013671556
 20
14.54599484035416
 30
0.0
 40
0.1
 41
0.0
 71
     9
 72
     1
  1

  7
ROMANS
1001
ACAD
1000
MTEXTBEGIN
1070
    73
1070
     1
1070
    44
1040
1.0
1070
    74
1070
     0
1000
MTEXTEND
  0
MTEXT
  5
1A21
330
1F
100
AcDbEntity
  8
0
100
AcDbMText
 10
20.8444456250472
 20
10.10642062430304
 30
0.0
 40
0.1
 41
0.0
 71
     1
 72
     1
  1

  7
ROMANS
1001
ACAD
1000
MTEXTBEGIN
1070
    73
1070
     1
1070
    44
1040
1.0
1070
    74
1070
     0
1000
MTEXTEND
  0
INSERT
  5
1A22
330
1F
100
AcDbEntity
  8
TEXT1
100
AcDbBlockReference
  2
SEARROW
 10
18.16385036231459
 20
12.20689761838883
 30
0.0
 41
0.28
 42
0.28
 43
0.28
 50
141.8683021839498
1001
ACAD
1000
DSTYLE
1002
{
1070
    40
1040
4.0
1002
}
  0
LWPOLYLINE
  5
1A23
330
1F
100
AcDbEntity
  8
TEXT1
100
AcDbPolyline
 90
        3
 70
     0
 43
0.0
 10
18.16385036231459
 20
12.20689761838883
 10
20.95595115134128
 20
10.01511550022985
 10
21.23595115134128
 20
10.01511550022985
1001
ACAD
1000
DSTYLE
1002
{
1070
    40
1040
4.0
1002
}
  0
INSERT
  5
1A24
330
1F
100
AcDbEntity
  8
TEXT1
100
AcDbBlockReference
  2
SEARROW
 10
14.52836510115131
 20
12.98920316877414
 30
0.0
 41
0.28
 42
0.28
 43
0.28
 50
333.5954484394034
1001
ACAD
1000
DSTYLE
1002
{
1070
    40
1040
4.0
1002
}
  0
LWPOLYLINE
  5
1A25
330
1F
100
AcDbEntity
  8
TEXT1
100
AcDbPolyline
 90
        3
 70
     0
 43
0.0
 10
14.52836510115131
 20
12.98920316877414
 10
11.39759967917839
 20
14.47310333147426
 10
10.37841768346561
 20
14.47310333147426
1001
ACAD
1000
DSTYLE
1002
{
1070
    40
1040
4.0
1002
}
  0
VIEWPORT
  5
32
330
1B
100
AcDbEntity
 67
     1
  8
0
100
AcDbViewport
 10
8.200450428582932
 20
4.96121335332617
 30
0.0
 40
17.13969772633427
 41
10.36191652617279
 68
     1
 69
     1
1001
ACAD
1000
MVIEW
1002
{
1070
    16
1010
0.0
1020
0.0
1030
0.0
1010
0.0
1020
0.0
1030
1.0
1040
0.0
1040
10.36191652617279
1040
8.200450428582932
1040
4.96121335332617
1040
50.0
1040
0.0
1040
0.0
1070
     0
1070
   100
1070
     1
1070
     0
1070
     0
1070
     0
1070
     0
1070
     0
1040
0.0
1040
0.0
1040
0.0
1040
0.5
1040
0.5
1040
0.5
1040
0.5
1070
     0
1002
{
1002
}
1002
}
  0
LWPOLYLINE
  5
52C
330
1B
100
AcDbEntity
 67
     1
  8
VIEWPORT
100
AcDbPolyline
 90
        6
 70
     1
 43
0.0
 10
0.0
 20
0.0
 10
8.002499999999999
 20
0.0
 10
8.002499999999999
 20
0.912
 10
16.39999999999999
 20
0.912
 10
16.39999999999999
 20
10.0954
 10
0.0
 20
10.0954
  0
VIEWPORT
  5
52D
330
1B
100
AcDbEntity
 67
     1
  8
VIEWPORT
100
AcDbViewport
 10
8.199999999999999
 20
5.047699999999999
 30
0.0
 40
16.39999999999999
 41
10.0954
 68
     2
 69
     2
1001
ACAD
1000
MVIEW
1002
{
1070
    16
1010
0.0
1020
0.0
1030
0.0
1010
0.0
1020
0.0
1030
1.0
1040
0.0
1040
40.3816
1040
32.77249261271821
1040
20.19861970351439
1040
50.0
1040
0.0
1040
0.0
1070
     0
1070
   100
1070
     1
1070
     0
1070
     0
1070
     0
1070
     0
1070
     0
1040
0.0
1040
0.0
1040
0.0
1040
0.0
1040
0.0
1040
0.0
1040
0.0
1070
     0
1002
{
1002
}
1002
}
  0
INSERT
  5
54D
330
1B
100
AcDbEntity
 67
     1
  8
TITLEBLOCK
100
AcDbBlockReference
 66
     1
  2
TB-PAD
 10
0.0
 20
0.0
 30
0.0
  0
ATTRIB
  5
54F
330
54D
100
AcDbEntity
 67
     1
  8
TEXT1
 62
     0
100
AcDbText
 10
8.825647881410114
 20
0.6974460800344914
 30
0.0
 40
0.1
  1
GENERAL DUTY SAFETY SWITCHES
  7
ROMANS
 72
     4
 11
10.10183835760059
 21
0.7474460800344916
 31
0.0
100
AcDbAttribute
  2
DESCRIPTION 1
 70
     0
  0
ATTRIB
  5
550
330
54D
100
AcDbEntity
 67
     1
  8
TEXT1
 62
     0
100
AcDbText
 10
9.335171690933924
 20
0.5517231627161465
 30
0.0
 40
0.1
  1
VISIBLE BLADE TYPE
  7
ROMANS
 72
     4
 11
10.10183835760059
 21
0.6017231627161466
 31
0.0
100
AcDbAttribute
  2
DESCRIPTION 2
 70
     0
  0
ATTRIB
  5
551
330
54D
100
AcDbEntity
 67
     1
  8
TEXT1
 62
     0
100
AcDbText
 10
9.749457405219638
 20
0.4160002453978016
 30
0.0
 40
0.08
  1
60 AMPERE
  7
ROMANS
 72
     4
 11
10.10183835760059
 21
0.4560002453978016
 31
0.0
100
AcDbAttribute
  2
DESCRIPTION 3
 70
     0
  0
ATTRIB
  5
552
330
54D
100
AcDbEntity
 67
     1
  8
TEXT1
 62
     0
100
AcDbText
 10
8.7913621671244
 20
0.2802773280794582
 30
0.0
 40
0.08
  1
ENCLOSURE - NEMA TYPE 3R RAINPROOF
  7
ROMANS
 72
     4
 11
10.10183835760059
 21
0.3202773280794582
 31
0.0
100
AcDbAttribute
  2
DESCRIPTION 4
 70
     0
  0
ATTRIB
  5
553
330
54D
100
AcDbEntity
 67
     1
  8
TEXT1
 62
     0
100
AcDbText
 10
10.10183835760059
 20
0.1845544107611148
 30
0.0
 40
0.08
  1

  7
ROMANS
 72
     4
 11
10.10183835760059
 21
0.1845544107611148
 31
0.0
100
AcDbAttribute
  2
DESCRIPTION 5
 70
     0
  0
ATTRIB
  5
554
330
54D
100
AcDbEntity
 67
     1
  8
TEXT1
 62
     0
100
AcDbText
 10
12.74772367969455
 20
0.09654053761198
 30
0.0
 40
0.12
  1
1861
 41
0.9512024731840066
  7
M_STANDARD
 11
12.74772367969455
 21
0.1565405376119799
 31
0.0
100
AcDbAttribute
  2
DWGNO
 70
     0
 74
     2
  0
ATTRIB
  5
555
330
54D
100
AcDbEntity
 67
     1
  8
TEXT1
 62
     0
100
AcDbText
 10
15.37220741529871
 20
-0.1507193164174602
 30
0.0
 40
0.08
  1
REF DWG #1861
  7
ROMANS
 72
     2
 11
16.35506455815586
 21
-0.1107193164174602
 31
0.0
100
AcDbAttribute
  2
REF
 70
     0
 74
     2
  0
ATTRIB
  5
556
330
54D
100
AcDbEntity
 67
     1
  8
TEXT1
 62
     0
100
AcDbText
 10
0.0266402460664743
 20
-0.1507193164174602
 30
0.0
 40
0.08
  1
DECEMBER 2004
  7
ROMANS
 11
0.0266402460664743
 21
-0.1107193164174602
 31
0.0
100
AcDbAttribute
  2
DATE
 70
     0
 74
     2
  0
SEQEND
  5
54E
330
54D
100
AcDbEntity
 67
     1
  8
TITLEBLOCK
  0
INSERT
  5
59B
330
1B
100
AcDbEntity
 67
     1
  8
TITLEBLOCK
100
AcDbBlockReference
  2
LOGO-PAD
 10
12.275
 20
0.152
 30
0.0
  0
ENDSEC
  0
SECTION
  2
OBJECTS
  0
DICTIONARY
  5
C
330
0
100
AcDbDictionary
  3
ACAD_GROUP
350
D
  3
ACAD_LAYOUT
350
1A
  3
ACAD_MLINESTYLE
350
17
  3
ACAD_PLOTSETTINGS
350
19
  3
ACAD_PLOTSTYLENAME
350
E
  3
ACDBHEADERROUNDTRIPXREC
350
1FB6
  3
ACDBVARIABLEDICTIONARY
350
39D
  3
ASE_INDEX_DICTIONARY
350
159
  3
DWGPROPS
350
72
  0
DICTIONARY
  5
73
330
1F
100
AcDbDictionary
280
     1
  3
ACAD_LAYOUTSELFREF
360
1FD8
  0
DICTIONARY
  5
75
330
1B
100
AcDbDictionary
280
     1
  3
ACAD_LAYOUTSELFREF
360
1FD7
  0
DICTIONARY
  5
D
102
{ACAD_REACTORS
330
C
102
}
330
C
100
AcDbDictionary
  0
DICTIONARY
  5
1A
102
{ACAD_REACTORS
330
C
102
}
330
C
100
AcDbDictionary
  0
DICTIONARY
  5
17
102
{ACAD_REACTORS
330
C
102
}
330
C
100
AcDbDictionary
  3
STANDARD
350
18
  0
DICTIONARY
  5
19
102
{ACAD_REACTORS
330
C
102
}
330
C
100
AcDbDictionary
  3
A_SIZE_PAPER
350
52B
  3
B_SIZE_PAPER
350
52A
  3
D_SIZE_PAPER
350
53B
  0
ACDBDICTIONARYWDFLT
  5
E
102
{ACAD_REACTORS
330
C
102
}
330
C
100
AcDbDictionary
281
     1
  3
Normal
350
F
100
AcDbDictionaryWithDefault
340
F
  0
DICTIONARY
  5
1FB6
102
{ACAD_REACTORS
330
C
102
}
330
C
100
AcDbDictionary
  3
CEPSNTYPE
350
1FC0
  3
DIMSTYLEDATA
350
1FC4
  3
FINGERPRINTGUID
350
1FC1
  3
HYPERLINKBASE
350
1FB9
  3
INSUNITS
350
1FBF
  3
LAYOUTDICT
350
1FBB
  3
LWETCUNION
350
1FBE
  3
PLOTSETDICT
350
1FBC
  3
PLOTSTYLNAMDICT
350
1FBD
  3
PSVPSCALE
350
1FC3
  3
PUCSBASE
350
1FC7
  3
PUCSORGBACK
350
1FCD
  3
PUCSORGBOTTOM
350
1FC9
  3
PUCSORGFRONT
350
1FCC
  3
PUCSORGLEFT
350
1FCA
  3
PUCSORGRIGHT
350
1FCB
  3
PUCSORGTOP
350
1FC8
  3
PUCSORTHOREF
350
1FC5
  3
PUCSORTHOVIEW
350
1FC6
  3
STYLESHEET
350
1FBA
  3
TSTACKALIGN
350
1FB7
  3
TSTACKSIZE
350
1FB8
  3
UCSBASE
350
1FD0
  3
UCSORGBACK
350
1FD6
  3
UCSORGBOTTOM
350
1FD2
  3
UCSORGFRONT
350
1FD5
  3
UCSORGLEFT
350
1FD3
  3
UCSORGRIGHT
350
1FD4
  3
UCSORGTOP
350
1FD1
  3
UCSORTHOREF
350
1FCE
  3
UCSORTHOVIEW
350
1FCF
  3
VERSIONGUID
350
1FC2
  0
DICTIONARY
  5
39D
102
{ACAD_REACTORS
330
C
102
}
330
C
100
AcDbDictionary
  3
DIMASSOC
350
39E
  0
DICTIONARY
  5
159
102
{ACAD_REACTORS
330
C
102
}
330
C
100
AcDbDictionary
  3
ASEBLOCKHIERARCHYINDEXRECORD
350
15A
1001
DCO15
1040
1380956594.129
  0
XRECORD
  5
72
102
{ACAD_REACTORS
330
C
102
}
330
C
100
AcDbXrecord
  1
DWGPROPS COOKIE
  2

  3

  4

  6

  7

  8
mgp706
  9

300
=
301
=
302
=
303
=
304
=
305
=
306
=
307
=
308
=
309
=
 40
0.0868964930555556
 41
2451764.576708576
 42
2451774.507474664
  1

 90
        0
  0
XRECORD
  5
1FD8
102
{ACAD_REACTORS
330
73
102
}
330
73
100
AcDbXrecord
340
1F
  0
XRECORD
  5
1FD7
102
{ACAD_REACTORS
330
75
102
}
330
75
100
AcDbXrecord
340
1B
  0
MLINESTYLE
  5
18
102
{ACAD_REACTORS
330
17
102
}
330
17
100
AcDbMlineStyle
  2
STANDARD
 70
     0
  3

 62
   256
 51
90.0
 52
90.0
 71
     2
 49
0.5
 62
   256
  6
BYLAYER
 49
-0.5
 62
   256
  6
BYLAYER
  0
PLOTSETTINGS
  5
52B
102
{ACAD_REACTORS
330
19
102
}
330
19
100
AcDbPlotSettings
  1
A Size Paper
  2
none_device
  4
ANSI_A_(8.50_x_11.00_Inches)
  6

 40
6.349999904632568
 41
19.04999923706054
 42
6.350006103515625
 43
19.04998779296875
 44
215.8999938964843
 45
279.3999938964843
 46
0.0
 47
0.0
 48
0.0
 49
0.0
140
0.0
141
0.0
142
1.0
143
1.6
 70
 15012
 72
     0
 73
     1
 74
     1
  7
monochrome.ctb
 75
    16
147
1.0
148
0.0
149
0.0
  0
PLOTSETTINGS
  5
52A
102
{ACAD_REACTORS
330
19
102
}
330
19
100
AcDbPlotSettings
  1
B Size Paper
  2
none_device
  4
ANSI_B_(11.00_x_17.00_Inches)
  6

 40
6.349999904632568
 41
19.04999923706054
 42
6.350006103515625
 43
19.04998779296875
 44
279.3999938964843
 45
431.7999877929687
 46
0.0
 47
0.0
 48
0.0
 49
0.0
140
0.0
141
0.0
142
1.0
143
1.0
 70
 15012
 72
     0
 73
     1
 74
     1
  7
monochrome.ctb
 75
    16
147
1.0
148
0.0
149
0.0
  0
PLOTSETTINGS
  5
53B
102
{ACAD_REACTORS
330
19
102
}
330
19
100
AcDbPlotSettings
  1
D Size Paper
  2
none_device
  4
ANSI_D_(22.00_x_34.00_Inches)
  6

 40
6.349999904632568
 41
19.04999923706054
 42
6.3499755859375
 43
19.04998779296875
 44
558.7999877929687
 45
863.5999755859375
 46
8.889999999999998
 47
-3.809999999999999
 48
0.0
 49
0.0
140
0.0
141
0.0
142
1.0
143
0.5
 70
   740
 72
     0
 73
     1
 74
     1
  7
monochrome.ctb
 75
     0
147
2.0
148
0.0034886547032954
149
0.0199946439100934
  0
ACDBPLACEHOLDER
  5
F
102
{ACAD_REACTORS
330
E
102
}
330
E
100
AcDbPlaceHolder
280
     0
  0
XRECORD
  5
1FC0
102
{ACAD_REACTORS
330
1FB6
102
}
330
1FB6
100
AcDbXrecord
 90
        0
  0
XRECORD
  5
1FC4
102
{ACAD_REACTORS
330
1FB6
102
}
330
1FB6
100
AcDbXrecord
1000
DSTYLE
1002
{
1070
    79
 70
     1
1070
   148
 40
0.1
1070
   341
340
195
1070
   342
340
195
1070
   371
 70
    -1
1070
   372
 70
    -1
1002
}
  0
XRECORD
  5
1FC1
102
{ACAD_REACTORS
330
1FB6
102
}
330
1FB6
100
AcDbXrecord
  1
{4E694E3A-6C64-11D4-81E3-0004AC4461C9}
  0
XRECORD
  5
1FB9
102
{ACAD_REACTORS
330
1FB6
102
}
330
1FB6
100
AcDbXrecord
  1

  0
XRECORD
  5
1FBF
102
{ACAD_REACTORS
330
1FB6
102
}
330
1FB6
100
AcDbXrecord
 90
        1
  0
XRECORD
  5
1FBB
102
{ACAD_REACTORS
330
1FB6
102
}
330
1FB6
100
AcDbXrecord
340
1A
  0
XRECORD
  5
1FBE
102
{ACAD_REACTORS
330
1FB6
102
}
330
1FB6
100
AcDbXrecord
 90
    10269
  0
XRECORD
  5
1FBC
102
{ACAD_REACTORS
330
1FB6
102
}
330
1FB6
100
AcDbXrecord
340
19
  0
XRECORD
  5
1FBD
102
{ACAD_REACTORS
330
1FB6
102
}
330
1FB6
100
AcDbXrecord
340
E
  0
XRECORD
  5
1FC3
102
{ACAD_REACTORS
330
1FB6
102
}
330
1FB6
100
AcDbXrecord
 40
0.0
  0
XRECORD
  5
1FC7
102
{ACAD_REACTORS
330
1FB6
102
}
330
1FB6
100
AcDbXrecord
340
0
  0
XRECORD
  5
1FCD
102
{ACAD_REACTORS
330
1FB6
102
}
330
1FB6
100
AcDbXrecord
 10
0.0
 20
0.0
 30
0.0
  0
XRECORD
  5
1FC9
102
{ACAD_REACTORS
330
1FB6
102
}
330
1FB6
100
AcDbXrecord
 10
0.0
 20
0.0
 30
0.0
  0
XRECORD
  5
1FCC
102
{ACAD_REACTORS
330
1FB6
102
}
330
1FB6
100
AcDbXrecord
 10
0.0
 20
0.0
 30
0.0
  0
XRECORD
  5
1FCA
102
{ACAD_REACTORS
330
1FB6
102
}
330
1FB6
100
AcDbXrecord
 10
0.0
 20
0.0
 30
0.0
  0
XRECORD
  5
1FCB
102
{ACAD_REACTORS
330
1FB6
102
}
330
1FB6
100
AcDbXrecord
 10
0.0
 20
0.0
 30
0.0
  0
XRECORD
  5
1FC8
102
{ACAD_REACTORS
330
1FB6
102
}
330
1FB6
100
AcDbXrecord
 10
0.0
 20
0.0
 30
0.0
  0
XRECORD
  5
1FC5
102
{ACAD_REACTORS
330
1FB6
102
}
330
1FB6
100
AcDbXrecord
340
0
  0
XRECORD
  5
1FC6
102
{ACAD_REACTORS
330
1FB6
102
}
330
1FB6
100
AcDbXrecord
 70
     0
  0
XRECORD
  5
1FBA
102
{ACAD_REACTORS
330
1FB6
102
}
330
1FB6
100
AcDbXrecord
  1

  0
XRECORD
  5
1FB7
102
{ACAD_REACTORS
330
1FB6
102
}
330
1FB6
100
AcDbXrecord
 90
        1
  0
XRECORD
  5
1FB8
102
{ACAD_REACTORS
330
1FB6
102
}
330
1FB6
100
AcDbXrecord
 90
       70
  0
XRECORD
  5
1FD0
102
{ACAD_REACTORS
330
1FB6
102
}
330
1FB6
100
AcDbXrecord
340
0
  0
XRECORD
  5
1FD6
102
{ACAD_REACTORS
330
1FB6
102
}
330
1FB6
100
AcDbXrecord
 10
0.0
 20
0.0
 30
0.0
  0
XRECORD
  5
1FD2
102
{ACAD_REACTORS
330
1FB6
102
}
330
1FB6
100
AcDbXrecord
 10
0.0
 20
0.0
 30
0.0
  0
XRECORD
  5
1FD5
102
{ACAD_REACTORS
330
1FB6
102
}
330
1FB6
100
AcDbXrecord
 10
0.0
 20
0.0
 30
0.0
  0
XRECORD
  5
1FD3
102
{ACAD_REACTORS
330
1FB6
102
}
330
1FB6
100
AcDbXrecord
 10
0.0
 20
0.0
 30
0.0
  0
XRECORD
  5
1FD4
102
{ACAD_REACTORS
330
1FB6
102
}
330
1FB6
100
AcDbXrecord
 10
0.0
 20
0.0
 30
0.0
  0
XRECORD
  5
1FD1
102
{ACAD_REACTORS
330
1FB6
102
}
330
1FB6
100
AcDbXrecord
 10
0.0
 20
0.0
 30
0.0
  0
XRECORD
  5
1FCE
102
{ACAD_REACTORS
330
1FB6
102
}
330
1FB6
100
AcDbXrecord
340
0
  0
XRECORD
  5
1FCF
102
{ACAD_REACTORS
330
1FB6
102
}
330
1FB6
100
AcDbXrecord
 70
     0
  0
XRECORD
  5
1FC2
102
{ACAD_REACTORS
330
1FB6
102
}
330
1FB6
100
AcDbXrecord
  1
{1BF1A09A-5C2C-4328-B4F1-D10648159849}
  0
DICTIONARYVAR
  5
39E
102
{ACAD_REACTORS
330
39D
102
}
330
39D
100
DictionaryVariables
280
     0
  1
1
  0
XRECORD
  5
15A
102
{ACAD_REACTORS
330
159
102
}
330
159
100
AcDbXrecord
  0
ENDSEC
  0
EOF
