  0
SECTION
  2
HEADER
  9
$ACADVER
  1
AC1009
  9
$INSBASE
 10
402.590624
 20
-1.041018
 30
0.0
  9
$EXTMIN
 10
72.510671
 20
13.541207
 30
0.0
  9
$EXTMAX
 10
171.213942
 20
162.365546
 30
0.0
  9
$LIMMIN
 10
-407.970438
 20
-367.832444
  9
$LIMMAX
 10
429.804077
 20
234.370848
  9
$ORTHOMODE
 70
     1
  9
$REGENMODE
 70
     1
  9
$FILLMODE
 70
     1
  9
$QTEXTMODE
 70
     0
  9
$MIRRTEXT
 70
     1
  9
$DRAGMODE
 70
     2
  9
$LTSCALE
 40
10.0
  9
$OSMODE
 70
     0
  9
$ATTMODE
 70
     1
  9
$TEXTSIZE
 40
6.0
  9
$TRACEWID
 40
1.0
  9
$TEXTSTYLE
  7
ROMANS
  9
$CLAYER
  8
ALPHA
  9
$CELTYPE
  6
BYLAYER
  9
$CECOLOR
 62
   256
  9
$DIMSCALE
 40
1.0
  9
$DIMASZ
 40
5.0
  9
$DIMEXO
 40
2.0
  9
$DIMDLI
 40
0.38
  9
$DIMRND
 40
0.0
  9
$DIMDLE
 40
0.0
  9
$DIMEXE
 40
2.5
  9
$DIMTP
 40
0.0
  9
$DIMTM
 40
0.0
  9
$DIMTXT
 40
2.5
  9
$DIMCEN
 40
0.0
  9
$DIMTSZ
 40
0.0
  9
$DIMTOL
 70
     0
  9
$DIMLIM
 70
     0
  9
$DIMTIH
 70
     1
  9
$DIMTOH
 70
     1
  9
$DIMSE1
 70
     0
  9
$DIMSE2
 70
     0
  9
$DIMTAD
 70
     1
  9
$DIMZIN
 70
    12
  9
$DIMBLK
  1
OPEN30
  9
$DIMASO
 70
     1
  9
$DIMSHO
 70
     1
  9
$DIMPOST
  1

  9
$DIMAPOST
  1

  9
$DIMALT
 70
     0
  9
$DIMALTD
 70
     2
  9
$DIMALTF
 40
25.4
  9
$DIMLFAC
 40
1.0
  9
$DIMTOFL
 70
     0
  9
$DIMTVP
 40
0.0
  9
$DIMTIX
 70
     0
  9
$DIMSOXD
 70
     0
  9
$DIMSAH
 70
     0
  9
$DIMBLK1
  1

  9
$DIMBLK2
  1

  9
$DIMSTYLE
  2
SC_DEFAUT
  9
$DIMCLRD
 70
     0
  9
$DIMCLRE
 70
     0
  9
$DIMCLRT
 70
     0
  9
$DIMTFAC
 40
1.0
  9
$DIMGAP
 40
2.0
  9
$LUNITS
 70
     2
  9
$LUPREC
 70
     1
  9
$SKETCHINC
 40
0.1
  9
$FILLETRAD
 40
0.0
  9
$AUNITS
 70
     0
  9
$AUPREC
 70
     0
  9
$MENU
  1
acad
  9
$ELEVATION
 40
0.0
  9
$PELEVATION
 40
0.0
  9
$THICKNESS
 40
0.0
  9
$LIMCHECK
 70
     0
  9
$BLIPMODE
 70
     0
  9
$CHAMFERA
 40
0.0
  9
$CHAMFERB
 40
0.0
  9
$SKPOLY
 70
     0
  9
$TDCREATE
 40
2450373.687919
  9
$TDUPDATE
 40
2452898.670715
  9
$TDINDWG
 40
1.589332
  9
$TDUSRTIMER
 40
1.589332
  9
$USRTIMER
 70
     1
  9
$ANGBASE
 50
0.0
  9
$ANGDIR
 70
     0
  9
$PDMODE
 70
    32
  9
$PDSIZE
 40
0.0
  9
$PLINEWID
 40
0.0
  9
$COORDS
 70
     1
  9
$SPLFRAME
 70
     0
  9
$SPLINETYPE
 70
     6
  9
$SPLINESEGS
 70
     8
  9
$ATTDIA
 70
     0
  9
$ATTREQ
 70
     1
  9
$HANDLING
 70
     1
  9
$HANDSEED
  5
10FD6
  9
$SURFTAB1
 70
     6
  9
$SURFTAB2
 70
     6
  9
$SURFTYPE
 70
     6
  9
$SURFU
 70
     6
  9
$SURFV
 70
     6
  9
$UCSNAME
  2

  9
$UCSORG
 10
0.0
 20
0.0
 30
0.0
  9
$UCSXDIR
 10
1.0
 20
0.0
 30
0.0
  9
$UCSYDIR
 10
0.0
 20
1.0
 30
0.0
  9
$PUCSNAME
  2

  9
$PUCSORG
 10
0.0
 20
0.0
 30
0.0
  9
$PUCSXDIR
 10
1.0
 20
0.0
 30
0.0
  9
$PUCSYDIR
 10
0.0
 20
1.0
 30
0.0
  9
$USERI1
 70
     0
  9
$USERI2
 70
     0
  9
$USERI3
 70
     0
  9
$USERI4
 70
     0
  9
$USERI5
 70
     0
  9
$USERR1
 40
0.0
  9
$USERR2
 40
0.0
  9
$USERR3
 40
0.0
  9
$USERR4
 40
0.0
  9
$USERR5
 40
0.0
  9
$WORLDVIEW
 70
     1
  9
$SHADEDGE
 70
     3
  9
$SHADEDIF
 70
    70
  9
$TILEMODE
 70
     1
  9
$MAXACTVP
 70
    16
  9
$PLIMCHECK
 70
     0
  9
$PEXTMIN
 10
-1.452248
 20
-0.437698
 30
0.0
  9
$PEXTMAX
 10
12.749749
 20
8.310198
 30
0.0
  9
$PLIMMIN
 10
0.0
 20
0.0
  9
$PLIMMAX
 10
12.0
 20
9.0
  9
$UNITMODE
 70
     0
  9
$VISRETAIN
 70
     0
  9
$PLINEGEN
 70
     0
  9
$PSLTSCALE
 70
     0
  0
ENDSEC
  0
SECTION
  2
TABLES
  0
TABLE
  2
VPORT
 70
     2
  0
VPORT
  2
*ACTIVE
 70
     0
 10
0.0
 20
0.0
 11
1.0
 21
1.0
 12
121.844989
 22
88.260932
 13
0.0
 23
0.0
 14
1.0
 24
1.0
 15
10.0
 25
10.0
 16
0.0
 26
0.0
 36
1.0
 17
0.0
 27
0.0
 37
0.0
 40
150.800645
 41
1.625
 42
50.0
 43
0.0
 44
0.0
 50
0.0
 51
0.0
 71
     0
 72
   100
 73
     1
 74
     0
 75
     0
 76
     0
 77
     0
 78
     0
  0
ENDTAB
  0
TABLE
  2
LTYPE
 70
     2
  0
LTYPE
  2
CONTINUOUS
 70
     0
  3
Solid line
 72
    65
 73
     0
 40
0.0
  0
LTYPE
  2
AXES2
 70
     0
  3
___ _ ___ _ ___ _ ___ _ ___ _ ___ _ ___ _ ___ _
 72
    65
 73
     4
 40
1.125
 49
0.75
 49
-0.125
 49
0.125
 49
-0.125
  0
ENDTAB
  0
TABLE
  2
LAYER
 70
     5
  0
LAYER
  2
0
 70
     0
 62
   255
  6
CONTINUOUS
  0
LAYER
  2
COTATION1
 70
     0
 62
     2
  6
CONTINUOUS
  0
LAYER
  2
AXE
 70
     0
 62
    80
  6
AXES2
  0
LAYER
  2
DEFPOINTS
 70
     0
 62
     7
  6
CONTINUOUS
  0
LAYER
  2
ALPHA
 70
     0
 62
   254
  6
CONTINUOUS
  0
ENDTAB
  0
TABLE
  2
STYLE
 70
     2
  0
STYLE
  2
ROMANS
 70
     0
 40
0.0
 41
1.0
 50
0.0
 71
     0
 42
6.0
  3
romans
  4

  0
STYLE
  2
STANDARD
 70
     0
 40
0.2
 41
1.0
 50
0.0
 71
     0
 42
0.2
  3
txt
  4

  0
ENDTAB
  0
TABLE
  2
VIEW
 70
     0
  0
ENDTAB
  0
TABLE
  2
UCS
 70
     0
  0
ENDTAB
  0
TABLE
  2
APPID
 70
     1
  0
APPID
  2
ACAD
 70
     0
  0
ENDTAB
  0
TABLE
  2
DIMSTYLE
 70
     1
  0
DIMSTYLE
  2
SC_DEFAUT
 70
     0
  3

  4

  5
OPEN30
  6

  7

 40
1.0
 41
5.0
 42
2.0
 43
0.38
 44
2.5
 45
0.0
 46
0.0
 47
0.0
 48
0.0
140
2.5
141
0.0
142
0.0
143
25.4
144
1.0
145
0.0
146
1.0
147
2.0
 71
     0
 72
     0
 73
     1
 74
     1
 75
     0
 76
     0
 77
     1
 78
    12
170
     0
171
     2
172
     0
173
     0
174
     0
175
     0
176
     0
177
     0
178
     0
  0
ENDTAB
  0
ENDSEC
  0
SECTION
  2
BLOCKS
  0
BLOCK
  8
0
  2
$MODEL_SPACE
 70
     0
 10
0.0
 20
0.0
 30
0.0
  3
$MODEL_SPACE
  1

  0
ENDBLK
  5
10FCF
  8
0
  0
BLOCK
 67
     1
  8
0
  2
$PAPER_SPACE
 70
     0
 10
0.0
 20
0.0
 30
0.0
  3
$PAPER_SPACE
  1

  0
ENDBLK
  5
10FCD
 67
     1
  8
0
  0
BLOCK
  8
0
  2
COTE
 70
     0
 10
0.0
 20
0.0
 30
0.0
  3
COTE
  1

  0
ENDBLK
  5
F
  8
0
  0
BLOCK
  8
0
  2
FOND
 70
     0
 10
0.0
 20
0.0
 30
0.0
  3
FOND
  1

  0
ENDBLK
  5
75
  8
0
  0
BLOCK
  8
0
  2
_OPEN30
 70
     0
 10
0.0
 20
0.0
 30
0.0
  3
_OPEN30
  1

  0
LINE
  5
4B05
  8
COTATION1
 62
     0
 10
-1.0
 20
0.267949
 30
0.0
 11
0.0
 21
0.0
 31
0.0
1001
ACAD
1000
RTLwPs
1070
   158
  0
LINE
  5
4B06
  8
COTATION1
 62
     0
 10
0.0
 20
0.0
 30
0.0
 11
-1.0
 21
-0.267949
 31
0.0
1001
ACAD
1000
RTLwPs
1070
   158
  0
LINE
  5
4B07
  8
COTATION1
 62
     0
 10
0.0
 20
0.0
 30
0.0
 11
-1.0
 21
0.0
 31
0.0
1001
ACAD
1000
RTLwPs
1070
   158
  0
ENDBLK
  5
4B09
  8
0
  0
BLOCK
  8
0
  2
*D3
 70
     1
 10
0.0
 20
0.0
 30
0.0
  3
*D3
  1

  0
LINE
  5
10F2E
  8
COTATION1
 62
     0
 10
133.510671
 20
141.029459
 30
0.0
 11
170.678228
 21
141.029459
 31
0.0
1001
ACAD
1000
RTLwPs
1070
   158
  0
LINE
  5
10F2F
  8
COTATION1
 62
     0
 10
133.510671
 20
34.029459
 30
0.0
 11
170.678228
 21
34.029459
 31
0.0
1001
ACAD
1000
RTLwPs
1070
   158
  0
LINE
  5
10F30
  8
COTATION1
 62
     0
 10
168.178228
 20
136.029459
 30
0.0
 11
168.178228
 21
90.779459
 31
0.0
1001
ACAD
1000
RTLwPs
1070
   158
  0
LINE
  5
10F31
  8
COTATION1
 62
     0
 10
168.178228
 20
39.029459
 30
0.0
 11
168.178228
 21
84.279459
 31
0.0
1001
ACAD
1000
RTLwPs
1070
   158
  0
INSERT
  5
10F32
  8
COTATION1
 62
     0
  2
_OPEN30
 10
168.178228
 20
141.029459
 30
0.0
 41
5.0
 42
5.0
 43
5.0
 50
90.0
1001
ACAD
1000
RTLwPs
1070
   158
  0
INSERT
  5
10F33
  8
COTATION1
 62
     0
  2
_OPEN30
 10
168.178228
 20
34.029459
 30
0.0
 41
5.0
 42
5.0
 43
5.0
 50
270.0
1001
ACAD
1000
RTLwPs
1070
   158
  0
TEXT
  5
10F34
  8
COTATION1
 62
     0
 10
164.428228
 20
86.279459
 30
0.0
 40
2.5
  1
107
1001
ACAD
1000
MTEXTBEGIN
1070
    73
1070
     1
1070
    44
1040
1.0
1070
    74
1070
     0
1000
MTEXTEND
  0
POINT
  5
10F35
  8
DEFPOINTS
 62
     0
 10
131.510671
 20
141.029459
 30
0.0
  0
POINT
  5
10F36
  8
DEFPOINTS
 62
     0
 10
131.510671
 20
34.029459
 30
0.0
  0
POINT
  5
10F37
  8
DEFPOINTS
 62
     0
 10
168.178228
 20
34.029459
 30
0.0
  0
ENDBLK
  5
10DFF
  8
0
  0
BLOCK
  8
0
  2
*D4
 70
     1
 10
0.0
 20
0.0
 30
0.0
  3
*D4
  1

  0
LINE
  5
10F5C
  8
COTATION1
 62
     0
 10
77.510671
 20
143.029459
 30
0.0
 11
77.510671
 21
160.365546
 31
0.0
1001
ACAD
1000
RTLwPs
1070
   158
  0
LINE
  5
10F5D
  8
COTATION1
 62
     0
 10
131.510671
 20
143.029459
 30
0.0
 11
131.510671
 21
160.365546
 31
0.0
1001
ACAD
1000
RTLwPs
1070
   158
  0
LINE
  5
10F5E
  8
COTATION1
 62
     0
 10
82.510671
 20
157.865546
 30
0.0
 11
126.510671
 21
157.865546
 31
0.0
1001
ACAD
1000
RTLwPs
1070
   158
  0
INSERT
  5
10F5F
  8
COTATION1
 62
     0
  2
_OPEN30
 10
77.510671
 20
157.865546
 30
0.0
 41
5.0
 42
5.0
 43
5.0
 50
180.0
1001
ACAD
1000
RTLwPs
1070
   158
  0
INSERT
  5
10F60
  8
COTATION1
 62
     0
  2
_OPEN30
 10
131.510671
 20
157.865546
 30
0.0
 41
5.0
 42
5.0
 43
5.0
1001
ACAD
1000
RTLwPs
1070
   158
  0
TEXT
  5
10F61
  8
COTATION1
 62
     0
 10
102.070195
 20
159.865546
 30
0.0
 40
2.5
  1
54
1001
ACAD
1000
MTEXTBEGIN
1070
    73
1070
     1
1070
    44
1040
1.0
1070
    74
1070
     0
1000
MTEXTEND
  0
POINT
  5
10F62
  8
DEFPOINTS
 62
     0
 10
77.510671
 20
141.029459
 30
0.0
  0
POINT
  5
10F63
  8
DEFPOINTS
 62
     0
 10
131.510671
 20
141.029459
 30
0.0
  0
POINT
  5
10F64
  8
DEFPOINTS
 62
     0
 10
131.510671
 20
157.865546
 30
0.0
  0
ENDBLK
  5
10E2B
  8
0
  0
ENDSEC
  0
SECTION
  2
ENTITIES
  0
INSERT
  5
A
  8
0
  2
COTE
 10
0.0
 20
0.0
 30
0.0
  0
INSERT
  5
17
  8
0
  2
COTE
 10
284.010391
 20
6.373258
 30
0.0
  0
INSERT
  5
72
  8
0
  2
FOND
 10
0.0
 20
0.0
 30
0.0
  0
LINE
  5
10D00
  8
AXE
 10
72.510671
 20
87.529459
 30
0.0
 11
151.510671
 21
87.529459
 31
0.0
  0
TEXT
  5
10D01
  8
AXE
 10
143.415433
 20
89.529459
 30
0.0
 40
10.0
  1
X
 72
     2
 11
151.510671
 21
89.529459
 31
0.0
  0
LINE
  5
10DD4
  8
AXE
 10
86.510671
 20
13.541207
 30
0.0
 11
86.510671
 21
142.637175
 31
0.0
  0
DIMENSION
  5
10DD7
  8
COTATION1
  2
*D3
 10
168.178228
 20
34.029459
 30
0.0
 11
168.178228
 21
87.529459
 31
0.0
 13
131.510671
 23
141.029459
 33
0.0
 14
131.510671
 24
34.029459
 34
0.0
 50
90.0
  0
LINE
  5
10DD8
  8
ALPHA
 10
77.510671
 20
34.029459
 30
0.0
 11
77.510671
 21
141.029459
 31
0.0
  0
ARC
  5
10DD9
  8
ALPHA
 10
86.510671
 20
118.029459
 30
0.0
 40
4.267527
 50
134.320038
 51
45.679962
  0
LINE
  5
10DDA
  8
ALPHA
 10
95.510671
 20
34.029459
 30
0.0
 11
95.510671
 21
65.029459
 31
0.0
  0
LINE
  5
10DDB
  8
ALPHA
 10
81.281955
 20
66.723219
 30
0.0
 11
81.281955
 21
75.43255
 31
0.0
  0
LINE
  5
10DDC
  8
ALPHA
 10
91.739388
 20
66.723219
 30
0.0
 11
91.739388
 21
75.43255
 31
0.0
  0
LINE
  5
10DDD
  8
ALPHA
 10
83.529097
 20
47.029459
 30
0.0
 11
83.529097
 21
53.976264
 31
0.0
  0
LINE
  5
10DDE
  8
ALPHA
 10
89.492245
 20
47.029459
 30
0.0
 11
89.492245
 21
53.976264
 31
0.0
  0
LINE
  5
10DDF
  8
ALPHA
 10
78.960671
 20
43.029459
 30
0.0
 11
94.060671
 21
43.029459
 31
0.0
  0
LINE
  5
10DE0
  8
ALPHA
 10
77.510671
 20
47.029459
 30
0.0
 11
95.510671
 21
47.029459
 31
0.0
  0
LINE
  5
10DE1
  8
ALPHA
 10
78.960671
 20
43.029459
 30
0.0
 11
78.960671
 21
34.029459
 31
0.0
  0
LINE
  5
10DE2
  8
ALPHA
 10
77.510671
 20
34.029459
 30
0.0
 11
78.960671
 21
34.029459
 31
0.0
  0
LINE
  5
10DE3
  8
ALPHA
 10
94.060671
 20
43.029459
 30
0.0
 11
94.060671
 21
34.029459
 31
0.0
  0
LINE
  5
10DE4
  8
ALPHA
 10
94.060671
 20
34.029459
 30
0.0
 11
95.510671
 21
34.029459
 31
0.0
  0
LINE
  5
10DE5
  8
ALPHA
 10
95.510671
 20
65.029459
 30
0.0
 11
77.510671
 21
65.029459
 31
0.0
  0
LINE
  5
10DE6
  8
ALPHA
 10
95.510671
 20
66.723219
 30
0.0
 11
77.510671
 21
66.723219
 31
0.0
  0
ARC
  5
10DE7
  8
ALPHA
 10
86.510671
 20
57.029459
 30
0.0
 40
4.267527
 50
314.320038
 51
225.679962
  0
LINE
  5
10DE9
  8
ALPHA
 10
91.739388
 20
75.43255
 30
0.0
 11
81.281955
 21
75.43255
 31
0.0
  0
LINE
  5
10DEA
  8
ALPHA
 10
95.510671
 20
110.029459
 30
0.0
 11
77.510671
 21
110.029459
 31
0.0
  0
LINE
  5
10DEC
  8
ALPHA
 10
78.960671
 20
132.029459
 30
0.0
 11
94.060671
 21
132.029459
 31
0.0
  0
LINE
  5
10DED
  8
ALPHA
 10
77.510671
 20
128.029459
 30
0.0
 11
95.510671
 21
128.029459
 31
0.0
  0
LINE
  5
10DEE
  8
ALPHA
 10
83.529097
 20
128.029459
 30
0.0
 11
83.529097
 21
121.082655
 31
0.0
  0
LINE
  5
10DEF
  8
ALPHA
 10
89.492245
 20
128.029459
 30
0.0
 11
89.492245
 21
121.082655
 31
0.0
  0
LINE
  5
10DF0
  8
ALPHA
 10
77.510671
 20
141.029459
 30
0.0
 11
78.960671
 21
141.029459
 31
0.0
  0
LINE
  5
10DF1
  8
ALPHA
 10
78.960671
 20
132.029459
 30
0.0
 11
78.960671
 21
141.029459
 31
0.0
  0
LINE
  5
10DF2
  8
ALPHA
 10
94.060671
 20
141.029459
 30
0.0
 11
95.510671
 21
141.029459
 31
0.0
  0
LINE
  5
10DF3
  8
ALPHA
 10
94.060671
 20
132.029459
 30
0.0
 11
94.060671
 21
141.029459
 31
0.0
  0
TEXT
  5
10E1E
  8
AXE
 10
76.415433
 20
13.541207
 30
0.0
 40
10.0
  1
Y
 72
     2
 11
84.510671
 21
13.541207
 31
0.0
  0
DIMENSION
  5
10E1F
  8
COTATION1
  2
*D4
 10
131.510671
 20
157.865546
 30
0.0
 11
104.510671
 21
157.865546
 31
0.0
 70
   128
 13
77.510671
 23
141.029459
 33
0.0
 14
131.510671
 24
141.029459
 34
0.0
  0
LINE
  5
10E83
  8
ALPHA
 10
107.492245
 20
128.029459
 30
0.0
 11
107.492245
 21
121.082655
 31
0.0
  0
LINE
  5
10E84
  8
ALPHA
 10
101.529097
 20
128.029459
 30
0.0
 11
101.529097
 21
121.082655
 31
0.0
  0
ARC
  5
10E86
  8
ALPHA
 10
104.510671
 20
118.029459
 30
0.0
 40
4.267527
 50
134.320038
 51
45.679962
  0
LINE
  5
10E87
  8
ALPHA
 10
109.739388
 20
66.723219
 30
0.0
 11
109.739388
 21
75.43255
 31
0.0
  0
LINE
  5
10E88
  8
ALPHA
 10
99.281955
 20
66.723219
 30
0.0
 11
99.281955
 21
75.43255
 31
0.0
  0
LINE
  5
10E89
  8
ALPHA
 10
107.492245
 20
47.029459
 30
0.0
 11
107.492245
 21
53.976264
 31
0.0
  0
LINE
  5
10E8A
  8
ALPHA
 10
101.529097
 20
47.029459
 30
0.0
 11
101.529097
 21
53.976264
 31
0.0
  0
LINE
  5
10E8B
  8
ALPHA
 10
95.510671
 20
47.029459
 30
0.0
 11
113.510671
 21
47.029459
 31
0.0
  0
LINE
  5
10E8C
  8
ALPHA
 10
96.960671
 20
43.029459
 30
0.0
 11
112.060671
 21
43.029459
 31
0.0
  0
LINE
  5
10E8D
  8
ALPHA
 10
96.960671
 20
43.029459
 30
0.0
 11
96.960671
 21
34.029459
 31
0.0
  0
LINE
  5
10E8E
  8
ALPHA
 10
95.510671
 20
34.029459
 30
0.0
 11
96.960671
 21
34.029459
 31
0.0
  0
LINE
  5
10E8F
  8
ALPHA
 10
112.060671
 20
43.029459
 30
0.0
 11
112.060671
 21
34.029459
 31
0.0
  0
LINE
  5
10E90
  8
ALPHA
 10
112.060671
 20
34.029459
 30
0.0
 11
113.510671
 21
34.029459
 31
0.0
  0
LINE
  5
10E91
  8
ALPHA
 10
113.510671
 20
66.723219
 30
0.0
 11
95.510671
 21
66.723219
 31
0.0
  0
LINE
  5
10E92
  8
ALPHA
 10
113.510671
 20
65.029459
 30
0.0
 11
95.510671
 21
65.029459
 31
0.0
  0
ARC
  5
10E93
  8
ALPHA
 10
104.510671
 20
57.029459
 30
0.0
 40
4.267527
 50
314.320038
 51
225.679962
  0
LINE
  5
10E94
  8
ALPHA
 10
109.739388
 20
75.43255
 30
0.0
 11
99.281955
 21
75.43255
 31
0.0
  0
LINE
  5
10E95
  8
ALPHA
 10
113.510671
 20
110.029459
 30
0.0
 11
95.510671
 21
110.029459
 31
0.0
  0
LINE
  5
10E96
  8
ALPHA
 10
95.510671
 20
128.029459
 30
0.0
 11
113.510671
 21
128.029459
 31
0.0
  0
LINE
  5
10E97
  8
ALPHA
 10
96.960671
 20
132.029459
 30
0.0
 11
112.060671
 21
132.029459
 31
0.0
  0
LINE
  5
10E98
  8
ALPHA
 10
96.960671
 20
132.029459
 30
0.0
 11
96.960671
 21
141.029459
 31
0.0
  0
LINE
  5
10E99
  8
ALPHA
 10
95.510671
 20
141.029459
 30
0.0
 11
96.960671
 21
141.029459
 31
0.0
  0
LINE
  5
10E9A
  8
ALPHA
 10
112.060671
 20
132.029459
 30
0.0
 11
112.060671
 21
141.029459
 31
0.0
  0
LINE
  5
10E9B
  8
ALPHA
 10
112.060671
 20
141.029459
 30
0.0
 11
113.510671
 21
141.029459
 31
0.0
  0
LINE
  5
10EB9
  8
ALPHA
 10
95.510671
 20
66.723219
 30
0.0
 11
95.510671
 21
141.029459
 31
0.0
  0
LINE
  5
10F38
  8
ALPHA
 10
113.510671
 20
66.723219
 30
0.0
 11
113.510671
 21
141.029459
 31
0.0
  0
ARC
  5
10F39
  8
ALPHA
 10
122.510671
 20
118.029459
 30
0.0
 40
4.267527
 50
134.320038
 51
45.679962
  0
LINE
  5
10F3A
  8
ALPHA
 10
131.510671
 20
34.029459
 30
0.0
 11
131.510671
 21
141.029459
 31
0.0
  0
LINE
  5
10F3B
  8
ALPHA
 10
119.529097
 20
128.029459
 30
0.0
 11
119.529097
 21
121.082655
 31
0.0
  0
LINE
  5
10F3C
  8
ALPHA
 10
125.492245
 20
128.029459
 30
0.0
 11
125.492245
 21
121.082655
 31
0.0
  0
LINE
  5
10F3D
  8
ALPHA
 10
117.281955
 20
66.723219
 30
0.0
 11
117.281955
 21
75.43255
 31
0.0
  0
LINE
  5
10F3E
  8
ALPHA
 10
127.739388
 20
66.723219
 30
0.0
 11
127.739388
 21
75.43255
 31
0.0
  0
LINE
  5
10F3F
  8
ALPHA
 10
131.510671
 20
65.029459
 30
0.0
 11
113.510671
 21
65.029459
 31
0.0
  0
LINE
  5
10F40
  8
ALPHA
 10
131.510671
 20
66.723219
 30
0.0
 11
113.510671
 21
66.723219
 31
0.0
  0
LINE
  5
10F41
  8
ALPHA
 10
114.960671
 20
43.029459
 30
0.0
 11
130.060671
 21
43.029459
 31
0.0
  0
LINE
  5
10F42
  8
ALPHA
 10
113.510671
 20
47.029459
 30
0.0
 11
131.510671
 21
47.029459
 31
0.0
  0
LINE
  5
10F43
  8
ALPHA
 10
113.510671
 20
34.029459
 30
0.0
 11
113.510671
 21
65.029459
 31
0.0
  0
LINE
  5
10F44
  8
ALPHA
 10
119.529097
 20
47.029459
 30
0.0
 11
119.529097
 21
53.976264
 31
0.0
  0
LINE
  5
10F45
  8
ALPHA
 10
125.492245
 20
47.029459
 30
0.0
 11
125.492245
 21
53.976264
 31
0.0
  0
LINE
  5
10F46
  8
ALPHA
 10
114.960671
 20
43.029459
 30
0.0
 11
114.960671
 21
34.029459
 31
0.0
  0
LINE
  5
10F47
  8
ALPHA
 10
113.510671
 20
34.029459
 30
0.0
 11
114.960671
 21
34.029459
 31
0.0
  0
ARC
  5
10F48
  8
ALPHA
 10
122.510671
 20
57.029459
 30
0.0
 40
4.267527
 50
314.320038
 51
225.679962
  0
LINE
  5
10F49
  8
ALPHA
 10
130.060671
 20
43.029459
 30
0.0
 11
130.060671
 21
34.029459
 31
0.0
  0
LINE
  5
10F4A
  8
ALPHA
 10
130.060671
 20
34.029459
 30
0.0
 11
131.510671
 21
34.029459
 31
0.0
  0
LINE
  5
10F4B
  8
ALPHA
 10
131.510671
 20
110.029459
 30
0.0
 11
113.510671
 21
110.029459
 31
0.0
  0
LINE
  5
10F4C
  8
ALPHA
 10
127.739388
 20
75.43255
 30
0.0
 11
117.281955
 21
75.43255
 31
0.0
  0
LINE
  5
10F4D
  8
ALPHA
 10
114.960671
 20
132.029459
 30
0.0
 11
130.060671
 21
132.029459
 31
0.0
  0
LINE
  5
10F4E
  8
ALPHA
 10
113.510671
 20
128.029459
 30
0.0
 11
131.510671
 21
128.029459
 31
0.0
  0
LINE
  5
10F4F
  8
ALPHA
 10
114.960671
 20
132.029459
 30
0.0
 11
114.960671
 21
141.029459
 31
0.0
  0
LINE
  5
10F50
  8
ALPHA
 10
113.510671
 20
141.029459
 30
0.0
 11
114.960671
 21
141.029459
 31
0.0
  0
LINE
  5
10F51
  8
ALPHA
 10
130.060671
 20
132.029459
 30
0.0
 11
130.060671
 21
141.029459
 31
0.0
  0
LINE
  5
10F52
  8
ALPHA
 10
130.060671
 20
141.029459
 30
0.0
 11
131.510671
 21
141.029459
 31
0.0
  0
VIEWPORT
  5
494D
 67
     1
  8
0
 10
4.995325
 20
6.556512
 30
0.0
 40
22.70986
 41
13.988421
 68
    -1
 69
     1
1001
ACAD
1000
MVIEW
1002
{
1070
    16
1010
0.0
1020
0.0
1030
0.0
1010
0.0
1020
0.0
1030
1.0
1040
0.0
1040
13.988421
1040
4.995325
1040
6.556512
1040
50.0
1040
0.0
1040
0.0
1070
     0
1070
   100
1070
     1
1070
     1
1070
     0
1070
     0
1070
     0
1070
     0
1040
0.0
1040
0.0
1040
0.0
1040
10.0
1040
10.0
1040
10.0
1040
10.0
1070
     0
1002
{
1002
}
1002
}
  0
ENDSEC
  0
EOF
