  0
SECTION
  2
HEADER
  9
$ACADVER
  1
AC1015
  9
$ACADMAINTVER
 70
    13
  9
$DWGCODEPAGE
  3
ANSI_1252
  9
$INSBASE
 10
26.06318458339218
 20
14.9584284444745
 30
0.0
  9
$EXTMIN
 10
17.21144738863155
 20
-0.1046130886240348
 30
-0.0000000000000053
  9
$EXTMAX
 10
59.17241941143941
 20
54.56459395548778
 30
0.0000000000000099
  9
$LIMMIN
 10
0.0
 20
0.0
  9
$LIMMAX
 10
12.0
 20
9.0
  9
$ORTHOMODE
 70
     0
  9
$REGENMODE
 70
     1
  9
$FILLMODE
 70
     1
  9
$QTEXTMODE
 70
     0
  9
$MIRRTEXT
 70
     1
  9
$LTSCALE
 40
1.0
  9
$ATTMODE
 70
     1
  9
$TEXTSIZE
 40
0.1
  9
$TRACEWID
 40
0.05
  9
$TEXTSTYLE
  7
ROMAND
  9
$CLAYER
  8
0
  9
$CELTYPE
  6
BYLAYER
  9
$CECOLOR
 62
   256
  9
$CELTSCALE
 40
1.0
  9
$DISPSILH
 70
     0
  9
$DIMSCALE
 40
1.0
  9
$DIMASZ
 40
0.12
  9
$DIMEXO
 40
0.1
  9
$DIMDLI
 40
0.38
  9
$DIMRND
 40
0.0
  9
$DIMDLE
 40
0.0
  9
$DIMEXE
 40
0.1
  9
$DIMTP
 40
0.0
  9
$DIMTM
 40
0.0
  9
$DIMTXT
 40
0.1
  9
$DIMCEN
 40
0.09
  9
$DIMTSZ
 40
0.0
  9
$DIMTOL
 70
     0
  9
$DIMLIM
 70
     0
  9
$DIMTIH
 70
     1
  9
$DIMTOH
 70
     1
  9
$DIMSE1
 70
     0
  9
$DIMSE2
 70
     0
  9
$DIMTAD
 70
     0
  9
$DIMZIN
 70
     0
  9
$DIMBLK
  1

  9
$DIMASO
 70
     1
  9
$DIMSHO
 70
     1
  9
$DIMPOST
  1

  9
$DIMAPOST
  1

  9
$DIMALT
 70
     0
  9
$DIMALTD
 70
     2
  9
$DIMALTF
 40
25.4
  9
$DIMLFAC
 40
1.0
  9
$DIMTOFL
 70
     1
  9
$DIMTVP
 40
0.0
  9
$DIMTIX
 70
     0
  9
$DIMSOXD
 70
     0
  9
$DIMSAH
 70
     0
  9
$DIMBLK1
  1

  9
$DIMBLK2
  1

  9
$DIMSTYLE
  2
STANDARD
  9
$DIMCLRD
 70
     0
  9
$DIMCLRE
 70
     0
  9
$DIMCLRT
 70
     0
  9
$DIMTFAC
 40
1.0
  9
$DIMGAP
 40
0.09
  9
$DIMJUST
 70
     0
  9
$DIMSD1
 70
     0
  9
$DIMSD2
 70
     0
  9
$DIMTOLJ
 70
     1
  9
$DIMTZIN
 70
     0
  9
$DIMALTZ
 70
     0
  9
$DIMALTTZ
 70
     0
  9
$DIMUPT
 70
     1
  9
$DIMDEC
 70
     3
  9
$DIMTDEC
 70
     4
  9
$DIMALTU
 70
     2
  9
$DIMALTTD
 70
     2
  9
$DIMTXSTY
  7
ROMAND
  9
$DIMAUNIT
 70
     0
  9
$DIMADEC
 70
     0
  9
$DIMALTRND
 40
0.0
  9
$DIMAZIN
 70
     0
  9
$DIMDSEP
 70
    46
  9
$DIMATFIT
 70
     3
  9
$DIMFRAC
 70
     0
  9
$DIMLDRBLK
  1

  9
$DIMLUNIT
 70
     2
  9
$DIMLWD
 70
    -2
  9
$DIMLWE
 70
    -2
  9
$DIMTMOVE
 70
     0
  9
$LUNITS
 70
     2
  9
$LUPREC
 70
     4
  9
$SKETCHINC
 40
0.1
  9
$FILLETRAD
 40
0.0
  9
$AUNITS
 70
     0
  9
$AUPREC
 70
     0
  9
$MENU
  1
.
  9
$ELEVATION
 40
0.0
  9
$PELEVATION
 40
0.0
  9
$THICKNESS
 40
0.0
  9
$LIMCHECK
 70
     0
  9
$CHAMFERA
 40
0.0
  9
$CHAMFERB
 40
0.0
  9
$CHAMFERC
 40
1.0
  9
$CHAMFERD
 40
0.0
  9
$SKPOLY
 70
     0
  9
$TDCREATE
 40
2453039.489783322
  9
$TDUCREATE
 40
2453039.448116654
  9
$TDUPDATE
 40
2453795.587019131
  9
$TDUUPDATE
 40
2453795.545352465
  9
$TDINDWG
 40
1.4465484259
  9
$TDUSRTIMER
 40
1.4465484259
  9
$USRTIMER
 70
     1
  9
$ANGBASE
 50
0.0
  9
$ANGDIR
 70
     0
  9
$PDMODE
 70
     0
  9
$PDSIZE
 40
0.0
  9
$PLINEWID
 40
0.036
  9
$SPLFRAME
 70
     0
  9
$SPLINETYPE
 70
     6
  9
$SPLINESEGS
 70
     8
  9
$HANDSEED
  5
78C9
  9
$SURFTAB1
 70
     6
  9
$SURFTAB2
 70
     6
  9
$SURFTYPE
 70
     6
  9
$SURFU
 70
     6
  9
$SURFV
 70
     6
  9
$UCSBASE
  2

  9
$UCSNAME
  2

  9
$UCSORG
 10
29.05791660056337
 20
0.7947524383557436
 30
0.0
  9
$UCSXDIR
 10
1.0
 20
0.0
 30
0.0
  9
$UCSYDIR
 10
0.0
 20
1.0
 30
0.0
  9
$UCSORTHOREF
  2

  9
$UCSORTHOVIEW
 70
     0
  9
$UCSORGTOP
 10
0.0
 20
0.0
 30
0.0
  9
$UCSORGBOTTOM
 10
0.0
 20
0.0
 30
0.0
  9
$UCSORGLEFT
 10
0.0
 20
0.0
 30
0.0
  9
$UCSORGRIGHT
 10
0.0
 20
0.0
 30
0.0
  9
$UCSORGFRONT
 10
0.0
 20
0.0
 30
0.0
  9
$UCSORGBACK
 10
0.0
 20
0.0
 30
0.0
  9
$PUCSBASE
  2

  9
$PUCSNAME
  2

  9
$PUCSORG
 10
0.0
 20
0.0
 30
0.0
  9
$PUCSXDIR
 10
1.0
 20
0.0
 30
0.0
  9
$PUCSYDIR
 10
0.0
 20
1.0
 30
0.0
  9
$PUCSORTHOREF
  2

  9
$PUCSORTHOVIEW
 70
     0
  9
$PUCSORGTOP
 10
0.0
 20
0.0
 30
0.0
  9
$PUCSORGBOTTOM
 10
0.0
 20
0.0
 30
0.0
  9
$PUCSORGLEFT
 10
0.0
 20
0.0
 30
0.0
  9
$PUCSORGRIGHT
 10
0.0
 20
0.0
 30
0.0
  9
$PUCSORGFRONT
 10
0.0
 20
0.0
 30
0.0
  9
$PUCSORGBACK
 10
0.0
 20
0.0
 30
0.0
  9
$USERI1
 70
     0
  9
$USERI2
 70
     0
  9
$USERI3
 70
     0
  9
$USERI4
 70
     0
  9
$USERI5
 70
     0
  9
$USERR1
 40
0.0
  9
$USERR2
 40
0.0
  9
$USERR3
 40
0.0
  9
$USERR4
 40
0.0
  9
$USERR5
 40
0.0
  9
$WORLDVIEW
 70
     1
  9
$SHADEDGE
 70
     3
  9
$SHADEDIF
 70
    70
  9
$TILEMODE
 70
     1
  9
$MAXACTVP
 70
    48
  9
$PINSBASE
 10
0.0
 20
0.0
 30
0.0
  9
$PLIMCHECK
 70
     0
  9
$PEXTMIN
 10
1.000000000000000E+20
 20
1.000000000000000E+20
 30
1.000000000000000E+20
  9
$PEXTMAX
 10
-1.000000000000000E+20
 20
-1.000000000000000E+20
 30
-1.000000000000000E+20
  9
$PLIMMIN
 10
0.0
 20
0.0
  9
$PLIMMAX
 10
12.0
 20
9.0
  9
$UNITMODE
 70
     0
  9
$VISRETAIN
 70
     1
  9
$PLINEGEN
 70
     0
  9
$PSLTSCALE
 70
     1
  9
$TREEDEPTH
 70
  3020
  9
$CMLSTYLE
  2
STANDARD
  9
$CMLJUST
 70
     0
  9
$CMLSCALE
 40
1.0
  9
$PROXYGRAPHICS
 70
     1
  9
$MEASUREMENT
 70
     0
  9
$CELWEIGHT
370
    -1
  9
$ENDCAPS
280
     0
  9
$JOINSTYLE
280
     0
  9
$LWDISPLAY
290
     0
  9
$INSUNITS
 70
     0
  9
$HYPERLINKBASE
  1

  9
$STYLESHEET
  1

  9
$XEDIT
290
     1
  9
$CEPSNTYPE
380
     0
  9
$PSTYLEMODE
290
     0
  9
$FINGERPRINTGUID
  2
{656243E1-E71D-45D7-BF78-84A4B19D0187}
  9
$VERSIONGUID
  2
{0A5324F2-5277-48EA-8705-2E776433CF05}
  9
$EXTNAMES
290
     1
  9
$PSVPSCALE
 40
0.0
  9
$OLESTARTUP
290
     0
  0
ENDSEC
  0
SECTION
  2
CLASSES
  0
CLASS
  1
LWPOLYLINE
  2
AcDbPolyline
  3
AutoCAD 2000
 90
    32768
280
     0
281
     1
  0
CLASS
  1
DICTIONARYVAR
  2
AcDbDictionaryVar
  3
AutoCAD 2000
 90
        0
280
     0
281
     0
  0
CLASS
  1
HATCH
  2
AcDbHatch
  3
AutoCAD 2000
 90
    32768
280
     0
281
     1
  0
CLASS
  1
OLE2FRAME
  2
AcDbOle2Frame
  3
AutoCAD 2000
 90
    32768
280
     0
281
     1
  0
CLASS
  1
ACDBDICTIONARYWDFLT
  2
AcDbDictionaryWithDefault
  3
AutoCAD 2000
 90
        0
280
     0
281
     0
  0
CLASS
  1
ACDBPLACEHOLDER
  2
AcDbPlaceHolder
  3
AutoCAD 2000
 90
        0
280
     0
281
     0
  0
CLASS
  1
LAYOUT
  2
AcDbLayout
  3
AutoCAD 2000
 90
        0
280
     0
281
     0
  0
ENDSEC
  0
SECTION
  2
TABLES
  0
TABLE
  2
VPORT
  5
8
330
0
100
AcDbSymbolTable
 70
     2
  0
VPORT
  5
78C8
330
8
100
AcDbSymbolTableRecord
100
AcDbViewportTableRecord
  2
*Active
 70
     0
 10
0.0
 20
0.0
 11
1.0
 21
1.0
 12
38.19193340003548
 22
27.22999043343187
 13
0.0
 23
0.0
 14
0.5
 24
0.5
 15
0.5
 25
0.5
 16
0.0
 26
0.0
 36
1.0
 17
0.0
 27
0.0
 37
0.0
 40
55.06971405542398
 41
1.84841075794621
 42
50.0
 43
0.0
 44
0.0
 50
0.0
 51
0.0
 71
     0
 72
   500
 73
     1
 74
     0
 75
     0
 76
     0
 77
     0
 78
     0
281
     0
 65
     1
110
29.05791660056337
120
0.7947524383557436
130
0.0
111
1.0
121
0.0
131
0.0
112
0.0
122
1.0
132
0.0
 79
     0
146
0.0
  0
ENDTAB
  0
TABLE
  2
LTYPE
  5
5
330
0
100
AcDbSymbolTable
 70
     5
  0
LTYPE
  5
12
330
5
100
AcDbSymbolTableRecord
100
AcDbLinetypeTableRecord
  2
BYBLOCK
 70
     0
  3

 72
    65
 73
     0
 40
0.0
  0
LTYPE
  5
13
330
5
100
AcDbSymbolTableRecord
100
AcDbLinetypeTableRecord
  2
BYLAYER
 70
     0
  3

 72
    65
 73
     0
 40
0.0
  0
LTYPE
  5
14
330
5
100
AcDbSymbolTableRecord
100
AcDbLinetypeTableRecord
  2
CONTINUOUS
 70
     0
  3
Solid line
 72
    65
 73
     0
 40
0.0
  0
LTYPE
  5
770E
330
5
100
AcDbSymbolTableRecord
100
AcDbLinetypeTableRecord
  2
AXES2
 70
     0
  3
___ _ ___ _ ___ _ ___ _ ___ _ ___ _ ___ _ ___ _
 72
    65
 73
     4
 40
1.125
 49
0.75
 74
     0
 49
-0.125
 74
     0
 49
0.125
 74
     0
 49
-0.125
 74
     0
  0
LTYPE
  5
7715
330
5
100
AcDbSymbolTableRecord
100
AcDbLinetypeTableRecord
  2
CACHE
 70
     0
  3
__ __ __ __ __ __ __ __ __ __ __ __ __ __ __ __
 72
    65
 73
     2
 40
0.375
 49
0.25
 74
     0
 49
-0.125
 74
     0
  0
LTYPE
  5
7716
330
5
100
AcDbSymbolTableRecord
100
AcDbLinetypeTableRecord
  2
CACHE2
 70
     0
  3
_ _ _ _ _ _ _ _ _ _ _ _ _ _ _ _ _ _ _ _ _ _ _ _
 72
    65
 73
     2
 40
0.1875
 49
0.125
 74
     0
 49
-0.0625
 74
     0
  0
LTYPE
  5
7717
330
5
100
AcDbSymbolTableRecord
100
AcDbLinetypeTableRecord
  2
CACHEX2
 70
     0
  3
____ ____ ____ ____ ____ ____ ____ ____ ____ __
 72
    65
 73
     2
 40
0.75
 49
0.5
 74
     0
 49
-0.25
 74
     0
  0
ENDTAB
  0
TABLE
  2
LAYER
  5
2
330
0
100
AcDbSymbolTable
 70
     5
  0
LAYER
  5
E
330
2
100
AcDbSymbolTableRecord
100
AcDbLayerTableRecord
  2
0
 70
     0
 62
   255
  6
CONTINUOUS
370
    -3
390
76C9
  0
LAYER
  5
20
330
2
100
AcDbSymbolTableRecord
100
AcDbLayerTableRecord
  2
DEFPOINTS
 70
     0
 62
     7
  6
CONTINUOUS
290
     0
370
    -3
390
76C9
  0
LAYER
  5
76E0
330
2
100
AcDbSymbolTableRecord
100
AcDbLayerTableRecord
  2
COTATION1
 70
     0
 62
    50
  6
CONTINUOUS
370
    -3
390
76C9
  0
LAYER
  5
770F
330
2
100
AcDbSymbolTableRecord
100
AcDbLayerTableRecord
  2
AXE
 70
     0
 62
    80
  6
AXES2
370
    -3
390
76C9
  0
LAYER
  5
7710
330
2
100
AcDbSymbolTableRecord
100
AcDbLayerTableRecord
  2
LIGHT
 70
     1
 62
     1
  6
CONTINUOUS
370
    -3
390
76C9
  0
ENDTAB
  0
TABLE
  2
STYLE
  5
3
330
0
100
AcDbSymbolTable
 70
     3
  0
STYLE
  5
F
330
3
100
AcDbSymbolTableRecord
100
AcDbTextStyleTableRecord
  2
STANDARD
 70
     0
 40
0.0
 41
1.0
 50
0.0
 71
     0
 42
0.2
  3
txt
  4

  0
STYLE
  5
21
330
3
100
AcDbSymbolTableRecord
100
AcDbTextStyleTableRecord
  2
ROMAND
 70
     0
 40
0.1
 41
1.0
 50
0.0
 71
     0
 42
0.1
  3
ROMAND.shx
  4

  0
STYLE
  5
7706
330
3
100
AcDbSymbolTableRecord
100
AcDbTextStyleTableRecord
  2
ROMANS
 70
     0
 40
0.0
 41
1.0
 50
0.0
 71
     0
 42
2.9
  3
romans.shx
  4

  0
ENDTAB
  0
TABLE
  2
VIEW
  5
6
330
0
100
AcDbSymbolTable
 70
     0
  0
ENDTAB
  0
TABLE
  2
UCS
  5
7
330
0
100
AcDbSymbolTable
 70
     0
  0
ENDTAB
  0
TABLE
  2
APPID
  5
9
330
0
100
AcDbSymbolTable
 70
     2
  0
APPID
  5
10
330
9
100
AcDbSymbolTableRecord
100
AcDbRegAppTableRecord
  2
ACAD
 70
     0
  0
APPID
  5
7891
330
9
100
AcDbSymbolTableRecord
100
AcDbRegAppTableRecord
  2
DCO15
 70
     0
  0
ENDTAB
  0
TABLE
  2
DIMSTYLE
  5
A
330
0
100
AcDbSymbolTable
 70
     3
100
AcDbDimStyleTable
 71
     2
340
7707
340
1D
  0
DIMSTYLE
105
1D
330
A
100
AcDbSymbolTableRecord
100
AcDbDimStyleTableRecord
  2
STANDARD
 70
     0
 41
0.12
 42
0.1
 44
0.1
140
0.1
172
     1
271
     3
288
     1
340
21
  0
DIMSTYLE
105
7707
330
A
100
AcDbSymbolTableRecord
100
AcDbDimStyleTableRecord
  2
SC_DEFAUT
 70
     0
 40
0.0
 41
5.0
 42
2.0
 44
2.5
 73
     0
 74
     0
 77
     1
 78
    12
140
2.5
141
-1.0
147
1.0
173
     1
284
    12
340
7706
341
7700
343
7700
344
7700
  0
DIMSTYLE
105
7708
102
{ACAD_REACTORS
330
7680
330
7666
102
}
330
A
100
AcDbSymbolTableRecord
100
AcDbDimStyleTableRecord
  2
SC_DEFAUT$0
 70
     0
 40
0.0
 41
5.0
 42
2.0
 44
2.5
 73
     0
 74
     0
 77
     1
 78
    12
140
2.5
141
-0.09
147
1.0
173
     1
284
    12
340
7706
341
7700
343
7700
344
7700
  0
ENDTAB
  0
TABLE
  2
BLOCK_RECORD
  5
1
330
0
100
AcDbSymbolTable
 70
     4
  0
BLOCK_RECORD
  5
18
330
1
100
AcDbSymbolTableRecord
100
AcDbBlockTableRecord
  2
*MODEL_SPACE
340
76CC
  0
BLOCK_RECORD
  5
15
330
1
100
AcDbSymbolTableRecord
100
AcDbBlockTableRecord
  2
*PAPER_SPACE
340
76CD
  0
BLOCK_RECORD
  5
7659
330
1
100
AcDbSymbolTableRecord
100
AcDbBlockTableRecord
  2
*D0
340
0
  0
BLOCK_RECORD
  5
7673
330
1
100
AcDbSymbolTableRecord
100
AcDbBlockTableRecord
  2
*D1
340
0
  0
BLOCK_RECORD
  5
7700
330
1
100
AcDbSymbolTableRecord
100
AcDbBlockTableRecord
  2
_OPEN
340
0
310
2800000020000000200000000100080000000000000400000000000000000000000000000000000000000000000080000080000000808000800000008000800080800000C0C0C000C0DCC000F0CAA6000020400000206000002080000020A0000020C0000020E00000400000004020000040400000406000004080000040A0
310
000040C0000040E00000600000006020000060400000606000006080000060A0000060C0000060E00000800000008020000080400000806000008080000080A0000080C0000080E00000A0000000A0200000A0400000A0600000A0800000A0A00000A0C00000A0E00000C0000000C0200000C0400000C0600000C0800000C0
310
A00000C0C00000C0E00000E0000000E0200000E0400000E0600000E0800000E0A00000E0C00000E0E00040000000400020004000400040006000400080004000A0004000C0004000E00040200000402020004020400040206000402080004020A0004020C0004020E000404000004040200040404000404060004040800040
310
40A0004040C0004040E00040600000406020004060400040606000406080004060A0004060C0004060E00040800000408020004080400040806000408080004080A0004080C0004080E00040A0000040A0200040A0400040A0600040A0800040A0A00040A0C00040A0E00040C0000040C0200040C0400040C0600040C08000
310
40C0A00040C0C00040C0E00040E0000040E0200040E0400040E0600040E0800040E0A00040E0C00040E0E00080000000800020008000400080006000800080008000A0008000C0008000E00080200000802020008020400080206000802080008020A0008020C0008020E00080400000804020008040400080406000804080
310
008040A0008040C0008040E00080600000806020008060400080606000806080008060A0008060C0008060E00080800000808020008080400080806000808080008080A0008080C0008080E00080A0000080A0200080A0400080A0600080A0800080A0A00080A0C00080A0E00080C0000080C0200080C0400080C0600080C0
310
800080C0A00080C0C00080C0E00080E0000080E0200080E0400080E0600080E0800080E0A00080E0C00080E0E000C0000000C0002000C0004000C0006000C0008000C000A000C000C000C000E000C0200000C0202000C0204000C0206000C0208000C020A000C020C000C020E000C0400000C0402000C0404000C0406000C0
310
408000C040A000C040C000C040E000C0600000C0602000C0604000C0606000C0608000C060A000C060C000C060E000C0800000C0802000C0804000C0806000C0808000C080A000C080C000C080E000C0A00000C0A02000C0A04000C0A06000C0A08000C0A0A000C0A0C000C0A0E000C0C00000C0C02000C0C04000C0C06000
310
C0C08000C0C0A000F0FBFF00A4A0A000808080000000FF0000FF000000FFFF00FF000000FF00FF00FFFF0000FFFFFF0000000000000000000000000000000000000000000000000000000000000000000000000000000000000000000000000000000000000000000000000000000000000000000000000000000000000000
310
00000000000000000000000000000000000000000000000000000000000000000000000000000000000000000000000000000000000000000000000000000000000000000000000000000000000000000000000000000000000000000000000000000000000000000000000000000000000000000000000000000000000000
310
00000000000000000000000000000000000000000000000000000000000000000000000000000000000000000000000000000000000000000000000000000000000000000000000000000000000000000000000000000000000000000000000000000000000000000000000000000000000000000000000000000000000000
310
0000000000000000000000000000000000000000FFFFFF0000000000000000000000000000000000000000000000000000000000000000FFFFFFFFFFFF0000000000000000000000000000000000000000000000000000000000000000FFFFFFFFFFFF00000000000000000000000000000000000000000000000000000000
310
00000000FFFFFFFFFFFF0000000000000000000000000000000000000000000000000000000000000000FFFFFFFFFFFF0000000000FFFFFFFFFFFFFFFFFFFFFFFFFFFFFFFFFFFFFFFFFFFFFFFFFFFFFFFFFFFF000000000000000000000000000000000000000000FFFFFFFFFFFFFF00000000000000000000000000000000
310
00FFFFFFFFFFFFFFFF0000000000000000000000000000000000FFFFFFFFFFFFFF000000000000000000000000000000000000000000FFFFFFFF000000000000000000000000000000000000000000000000000000000000000000000000000000000000000000000000000000000000000000000000000000000000000000
310
00000000000000000000000000000000000000000000000000000000000000000000000000000000000000000000000000000000000000000000000000000000000000000000000000000000000000000000000000000000000000000000000000000000000000000000000000000000000000000000000000000000000000
310
00000000000000000000000000000000000000000000000000000000000000000000000000000000000000000000000000000000000000000000000000000000000000000000000000000000000000000000000000000000000000000000000000000000000000000000000000000000000000000000000000000000000000
310
0000000000000000000000000000000000000000000000000000000000000000000000000000000000000000000000000000000000000000
102
{BLKREFS
331
787F
331
7880
331
789E
331
789F
331
78B2
331
78B3
102
}
  0
ENDTAB
  0
ENDSEC
  0
SECTION
  2
BLOCKS
  0
BLOCK
  5
19
330
18
100
AcDbEntity
  8
0
100
AcDbBlockBegin
  2
*MODEL_SPACE
 70
     0
 10
0.0
 20
0.0
 30
0.0
  3
*MODEL_SPACE
  1

  0
ENDBLK
  5
1A
330
18
100
AcDbEntity
  8
0
100
AcDbBlockEnd
  0
BLOCK
  5
16
330
15
100
AcDbEntity
 67
     1
  8
0
100
AcDbBlockBegin
  2
*PAPER_SPACE
 70
     0
 10
0.0
 20
0.0
 30
0.0
  3
*PAPER_SPACE
  1

  0
ENDBLK
  5
17
330
15
100
AcDbEntity
 67
     1
  8
0
100
AcDbBlockEnd
  0
BLOCK
  5
768D
330
7659
100
AcDbEntity
  8
0
100
AcDbBlockBegin
  2
*D0
 70
     1
 10
0.0
 20
0.0
 30
0.0
  3
*D0
  1

  0
LINE
  5
789A
330
7659
100
AcDbEntity
  8
COTATION1
 62
     0
370
    -2
100
AcDbLine
 10
38.58540682739217
 20
39.95842848447454
 30
0.0
 11
38.58540682739217
 21
46.94688781729015
 31
0.0
  0
LINE
  5
789B
330
7659
100
AcDbEntity
  8
COTATION1
 62
     0
370
    -2
100
AcDbLine
 10
26.0631845833922
 20
39.95842848447454
 30
0.0
 11
26.0631845833922
 21
46.94688781729015
 31
0.0
  0
LINE
  5
789C
330
7659
100
AcDbEntity
  8
COTATION1
 62
     0
370
    -2
100
AcDbLine
 10
31.0631845833922
 20
44.44688781729015
 30
0.0
 11
33.58540682739217
 21
44.44688781729015
 31
0.0
  0
LINE
  5
789D
330
7659
100
AcDbEntity
  8
COTATION1
 62
     0
370
    -2
100
AcDbLine
 10
38.58540682739217
 20
44.44688781729015
 30
0.0
 11
52.96635920834456
 21
44.44688781729015
 31
0.0
  0
INSERT
  5
789E
330
7659
100
AcDbEntity
  8
COTATION1
 62
     0
370
    -2
100
AcDbBlockReference
  2
_OPEN
 10
26.0631845833922
 20
44.44688781729015
 30
0.0
 41
5.0
 42
5.0
 43
5.0
 50
180.0
  0
INSERT
  5
789F
330
7659
100
AcDbEntity
  8
COTATION1
 62
     0
370
    -2
100
AcDbBlockReference
  2
_OPEN
 10
38.58540682739217
 20
44.44688781729015
 30
0.0
 41
5.0
 42
5.0
 43
5.0
  0
MTEXT
  5
78A0
330
7659
100
AcDbEntity
  8
COTATION1
 62
     0
100
AcDbMText
 10
48.27588301786836
 20
46.69688781729016
 30
0.0
 40
2.5
 41
0.0
 71
     5
 72
     1
  1
\A1;12.4
  7
ROMANS
 73
     1
 44
1.0
  0
POINT
  5
78A1
330
7659
100
AcDbEntity
  8
DEFPOINTS
 62
     0
100
AcDbPoint
 10
38.58540682739217
 20
37.95842848447454
 30
0.0
  0
POINT
  5
78A2
330
7659
100
AcDbEntity
  8
DEFPOINTS
 62
     0
100
AcDbPoint
 10
26.0631845833922
 20
37.95842848447454
 30
0.0
  0
POINT
  5
78A3
330
7659
100
AcDbEntity
  8
DEFPOINTS
 62
     0
100
AcDbPoint
 10
26.0631845833922
 20
44.44688781729015
 30
0.0
  0
ENDBLK
  5
7698
330
7659
100
AcDbEntity
  8
0
100
AcDbBlockEnd
  0
BLOCK
  5
7681
330
7673
100
AcDbEntity
  8
0
100
AcDbBlockBegin
  2
*D1
 70
     1
 10
0.0
 20
0.0
 30
0.0
  3
*D1
  1

  0
LINE
  5
787C
330
7673
100
AcDbEntity
  8
COTATION1
 62
     0
370
    -2
100
AcDbLine
 10
40.58540682739217
 20
37.95842848447454
 30
0.0
 11
53.00260926178536
 21
37.95842848447454
 31
0.0
  0
LINE
  5
787D
330
7673
100
AcDbEntity
  8
COTATION1
 62
     0
370
    -2
100
AcDbLine
 10
40.58540682739217
 20
14.95842844447451
 30
0.0
 11
53.00260926178535
 21
14.95842844447451
 31
0.0
  0
LINE
  5
787E
330
7673
100
AcDbEntity
  8
COTATION1
 62
     0
370
    -2
100
AcDbLine
 10
50.50260926178536
 20
32.95842848447454
 30
0.0
 11
50.50260926178536
 21
19.95842844447451
 31
0.0
  0
INSERT
  5
787F
330
7673
100
AcDbEntity
  8
COTATION1
 62
     0
370
    -2
100
AcDbBlockReference
  2
_OPEN
 10
50.50260926178536
 20
37.95842848447454
 30
0.0
 41
5.0
 42
5.0
 43
5.0
 50
90.0
  0
INSERT
  5
7880
330
7673
100
AcDbEntity
  8
COTATION1
 62
     0
370
    -2
100
AcDbBlockReference
  2
_OPEN
 10
50.50260926178535
 20
14.95842844447451
 30
0.0
 41
5.0
 42
5.0
 43
5.0
 50
270.0
  0
MTEXT
  5
7881
330
7673
100
AcDbEntity
  8
COTATION1
 62
     0
100
AcDbMText
 10
48.25260926178535
 20
26.35768502789914
 30
0.0
 40
2.5
 41
0.0
 71
     5
 72
     1
  1
\A1;23
  7
ROMANS
 11
0.0000000000000001
 21
1.0
 31
0.0
 73
     1
 44
1.0
  0
POINT
  5
7882
330
7673
100
AcDbEntity
  8
DEFPOINTS
 62
     0
100
AcDbPoint
 10
38.58540682739217
 20
37.95842848447454
 30
0.0
  0
POINT
  5
7883
330
7673
100
AcDbEntity
  8
DEFPOINTS
 62
     0
100
AcDbPoint
 10
38.58540682739217
 20
14.95842844447451
 30
0.0
  0
POINT
  5
7884
330
7673
100
AcDbEntity
  8
DEFPOINTS
 62
     0
100
AcDbPoint
 10
50.50260926178535
 20
14.95842844447451
 30
0.0
  0
ENDBLK
  5
768C
330
7673
100
AcDbEntity
  8
0
100
AcDbBlockEnd
  0
BLOCK
  5
7704
330
7700
100
AcDbEntity
  8
0
100
AcDbBlockBegin
  2
_OPEN
 70
     0
 10
0.0
 20
0.0
 30
0.0
  3
_OPEN
  1

  0
LINE
  5
7701
330
7700
100
AcDbEntity
  8
0
  6
ByBlock
 62
     0
100
AcDbLine
 10
-1.0
 20
0.1666666666666666
 30
0.0
 11
0.0
 21
0.0
 31
0.0
  0
LINE
  5
7702
330
7700
100
AcDbEntity
  8
0
  6
ByBlock
 62
     0
100
AcDbLine
 10
0.0
 20
0.0
 30
0.0
 11
-1.0
 21
-0.1666666666666666
 31
0.0
  0
LINE
  5
7703
330
7700
100
AcDbEntity
  8
0
  6
ByBlock
 62
     0
100
AcDbLine
 10
0.0
 20
0.0
 30
0.0
 11
-1.0
 21
0.0
 31
0.0
  0
ENDBLK
  5
7705
330
7700
100
AcDbEntity
  8
0
100
AcDbBlockEnd
  0
ENDSEC
  0
SECTION
  2
ENTITIES
  0
LINE
  5
7637
330
18
100
AcDbEntity
  8
0
100
AcDbLine
 10
26.06318458339218
 20
37.95842848447454
 30
0.0
 11
26.06318458339218
 21
14.9584284444745
 31
0.0
  0
LINE
  5
7638
330
18
100
AcDbEntity
  8
0
100
AcDbLine
 10
26.06318458339218
 20
37.95842848447454
 30
0.0
 11
38.58540682739223
 21
37.95842848447454
 31
0.0
  0
LINE
  5
7639
330
18
100
AcDbEntity
  8
0
100
AcDbLine
 10
38.58540682739223
 20
37.95842848447454
 30
0.0
 11
38.58540682739223
 21
14.9584284444745
 31
0.0
  0
LINE
  5
763A
330
18
100
AcDbEntity
  8
0
100
AcDbLine
 10
26.06318458339218
 20
14.95842844447452
 30
0.0
 11
38.58540682739223
 21
14.9584284444745
 31
0.0
  0
LINE
  5
7646
330
18
100
AcDbEntity
  8
0
100
AcDbLine
 10
27.1109623629921
 20
14.9584284444745
 30
0.0
 11
27.1109623629921
 21
9.241122560239077
 31
0.0
  0
LINE
  5
7648
330
18
100
AcDbEntity
  8
0
100
AcDbLine
 10
37.53762904779232
 20
14.95842844447452
 30
0.0
 11
37.53762904779232
 21
6.95378813051516
 31
0.0
  0
LINE
  5
7649
330
18
100
AcDbEntity
  8
0
100
AcDbLine
 10
37.53762904779232
 20
14.95842844447452
 30
0.0
 11
37.53762904779213
 21
7.010650652874485
 31
0.0
  0
LINE
  5
764A
330
18
100
AcDbEntity
  8
0
100
AcDbLine
 10
33.98540681939224
 20
14.95842844447452
 30
0.0
 11
33.98540681939224
 21
7.010650652874485
 31
0.0
  0
LINE
  5
764B
330
18
100
AcDbEntity
  8
0
100
AcDbLine
 10
33.98540681939224
 20
7.010650652874485
 30
0.0
 11
37.53762904779232
 21
7.010650652874508
 31
0.0
  0
LINE
  5
764C
330
18
100
AcDbEntity
  8
0
100
AcDbLine
 10
27.1109623629921
 20
14.9584284444745
 30
0.0
 11
27.1109623629921
 21
7.010650652874462
 31
0.0
  0
LINE
  5
764D
330
18
100
AcDbEntity
  8
0
100
AcDbLine
 10
30.66318459139218
 20
14.9584284444745
 30
0.0
 11
30.66318459139199
 21
7.010650652874462
 31
0.0
  0
LINE
  5
764E
330
18
100
AcDbEntity
  8
0
100
AcDbLine
 10
30.66318459139218
 20
14.9584284444745
 30
0.0
 11
30.66318459139218
 21
6.953788130515137
 31
0.0
  0
LINE
  5
764F
330
18
100
AcDbEntity
  8
0
100
AcDbLine
 10
27.1109623629921
 20
7.010650652874462
 30
0.0
 11
30.66318459139218
 21
7.010650652874485
 31
0.0
  0
LINE
  5
7650
330
18
100
AcDbEntity
  8
0
100
AcDbLine
 10
31.27651792579257
 20
13.27176177487451
 30
0.0
 11
33.37207348499204
 21
13.27176177487453
 31
0.0
  0
LINE
  5
7652
330
18
100
AcDbEntity
  8
0
100
AcDbLine
 10
33.37207348499222
 20
13.27176177487451
 30
0.0
 11
33.37207348499204
 21
14.95842844447452
 31
0.0
  0
LINE
  5
7653
330
18
100
AcDbEntity
  8
0
100
AcDbLine
 10
33.37207348499222
 20
13.27176177487451
 30
0.0
 11
33.37207348499204
 21
14.95842844447452
 31
0.0
  0
LINE
  5
7654
330
18
100
AcDbEntity
  8
0
100
AcDbLine
 10
33.37207348499222
 20
13.27176177487451
 30
0.0
 11
33.37207348499204
 21
14.95842844447452
 31
0.0
  0
LINE
  5
7655
330
18
100
AcDbEntity
  8
0
100
AcDbLine
 10
31.27651792579238
 20
13.27176177487451
 30
0.0
 11
31.27651792579257
 21
14.95842844447452
 31
0.0
  0
DIMENSION
  5
7666
330
18
100
AcDbEntity
  8
COTATION1
100
AcDbDimension
  2
*D0
 10
26.0631845833922
 20
44.44688781729015
 30
0.0
 11
48.27588301786836
 21
44.44688781729015
 31
0.0
 70
   160
  1
12.4
 71
     5
 42
12.52222224399997
  3
SC_DEFAUT$0
100
AcDbAlignedDimension
 13
38.58540682739217
 23
37.95842848447454
 33
0.0
 14
26.0631845833922
 24
37.95842848447454
 34
0.0
100
AcDbRotatedDimension
1001
ACAD
1000
DSTYLE
1002
{
1070
    40
1040
1.0
1002
}
  0
DIMENSION
  5
7680
330
18
100
AcDbEntity
  8
COTATION1
100
AcDbDimension
  2
*D1
 10
50.50260926178535
 20
14.95842844447451
 30
0.0
 11
50.50260926178535
 21
26.35768502789914
 31
0.0
 70
   160
  1
23
 71
     5
 42
23.00000004000003
  3
SC_DEFAUT$0
100
AcDbAlignedDimension
 13
38.58540682739217
 23
37.95842848447454
 33
0.0
 14
38.58540682739217
 24
14.95842844447451
 34
0.0
 50
90.0
100
AcDbRotatedDimension
1001
ACAD
1000
DSTYLE
1002
{
1070
    40
1040
1.0
1002
}
  0
MTEXT
  5
76B5
330
18
100
AcDbEntity
  8
0
100
AcDbMText
 10
34.03129783806562
 20
18.07023072310985
 30
0.0
 40
2.55555556
 41
6.30200001096
 71
     1
 72
     5
  1
A1
 73
     1
 44
1.0
  0
MTEXT
  5
76B6
330
18
100
AcDbEntity
  8
0
100
AcDbMText
 10
26.88782197244759
 20
18.07023006859693
 30
0.0
 40
2.55555556
 41
6.30200001096
 71
     1
 72
     5
  1
A2
 73
     1
 44
1.0
  0
LINE
  5
777B
330
18
100
AcDbEntity
  8
AXE
100
AcDbLine
 10
26.06318458339218
 20
0.5311065100909218
 30
0.0
 11
26.06318458339218
 21
54.56114207721044
 31
0.0
  0
MTEXT
  5
777F
330
18
100
AcDbEntity
  8
AXE
100
AcDbMText
 10
26.98969369867093
 20
4.435333747745332
 30
0.0
 40
3.5
 41
3.066117866697086
 71
     1
 72
     5
  1
{\fArial|b0|i0|c0|p34;Y}
 73
     1
 44
1.0
  0
LINE
  5
7782
330
18
100
AcDbEntity
  8
AXE
100
AcDbLine
 10
17.21382129130985
 20
14.9584284444745
 30
0.0
 11
59.1701579805208
 21
14.9584284444745
 31
0.0
  0
MTEXT
  5
7784
330
18
100
AcDbEntity
  8
AXE
100
AcDbMText
 10
17.29526203349401
 20
18.79003502309275
 30
0.0
 40
3.5
 41
3.0661
 71
     1
 72
     5
  1
{\fArial|b0|i0|c0|p34;X}
 73
     1
 44
1.0
  0
ENDSEC
  0
SECTION
  2
OBJECTS
  0
DICTIONARY
  5
C
330
0
100
AcDbDictionary
281
     1
  3
ACAD_GROUP
350
D
  3
ACAD_LAYOUT
350
76CA
  3
ACAD_MLINESTYLE
350
1B
  3
ACAD_PLOTSETTINGS
350
76CB
  3
ACAD_PLOTSTYLENAME
350
76C8
  3
ACDBVARIABLEDICTIONARY
350
2786
  3
ASE_INDEX_DICTIONARY
350
78BF
  0
DICTIONARY
  5
D
102
{ACAD_REACTORS
330
C
102
}
330
C
100
AcDbDictionary
281
     1
  0
DICTIONARY
  5
76CA
102
{ACAD_REACTORS
330
C
102
}
330
C
100
AcDbDictionary
281
     1
  3
Layout1
350
76CD
  3
Model
350
76CC
  0
DICTIONARY
  5
1B
102
{ACAD_REACTORS
330
C
102
}
330
C
100
AcDbDictionary
281
     1
  3
STANDARD
350
1C
  0
DICTIONARY
  5
76CB
102
{ACAD_REACTORS
330
C
102
}
330
C
100
AcDbDictionary
281
     1
  0
ACDBDICTIONARYWDFLT
  5
76C8
102
{ACAD_REACTORS
330
C
102
}
330
C
100
AcDbDictionary
281
     1
  3
Normal
350
76C9
100
AcDbDictionaryWithDefault
340
76C9
  0
DICTIONARY
  5
2786
102
{ACAD_REACTORS
330
C
102
}
330
C
100
AcDbDictionary
281
     1
  3
DIMASSOC
350
76D6
  3
SORTENTS
350
2787
  0
DICTIONARY
  5
78BF
102
{ACAD_REACTORS
330
C
102
}
330
C
100
AcDbDictionary
281
     1
  3
ASEBlockHierarchyIndexRecord
350
78C0
1001
DCO15
1040
1554541214.453
  0
LAYOUT
  5
76CD
102
{ACAD_REACTORS
330
76CA
102
}
330
76CA
100
AcDbPlotSettings
  1

  2
\\SKYNET\Canon
  4

  6

 40
0.0
 41
0.0
 42
0.0
 43
0.0
 44
0.0
 45
0.0
 46
0.0
 47
0.0
 48
0.0
 49
0.0
140
0.0
141
0.0
142
1.0
143
1.0
 70
   688
 72
     0
 73
     0
 74
     5
  7
ALSTOM-APH.stb
 75
    16
147
1.0
148
0.0
149
0.0
100
AcDbLayout
  1
Layout1
 70
     1
 71
     1
 10
0.0
 20
0.0
 11
12.0
 21
9.0
 12
0.0
 22
0.0
 32
0.0
 14
1.000000000000000E+20
 24
1.000000000000000E+20
 34
1.000000000000000E+20
 15
-1.000000000000000E+20
 25
-1.000000000000000E+20
 35
-1.000000000000000E+20
146
0.0
 13
0.0
 23
0.0
 33
0.0
 16
1.0
 26
0.0
 36
0.0
 17
0.0
 27
1.0
 37
0.0
 76
     0
330
15
  0
LAYOUT
  5
76CC
102
{ACAD_REACTORS
330
76CA
102
}
330
76CA
100
AcDbPlotSettings
  1

  2
\\SKYNET\Canon
  4

  6

 40
0.0
 41
0.0
 42
0.0
 43
0.0
 44
0.0
 45
0.0
 46
0.0
 47
0.0
 48
0.0
 49
0.0
140
0.0
141
0.0
142
1.0
143
1.0
 70
  1712
 72
     0
 73
     0
 74
     0
  7
ALSTOM-APH.stb
 75
     0
147
1.0
148
0.0
149
0.0
100
AcDbLayout
  1
Model
 70
     1
 71
     0
 10
0.0
 20
0.0
 11
12.0
 21
9.0
 12
0.0
 22
0.0
 32
0.0
 14
0.0
 24
0.0
 34
0.0
 15
0.0
 25
0.0
 35
0.0
146
0.0
 13
0.0
 23
0.0
 33
0.0
 16
1.0
 26
0.0
 36
0.0
 17
0.0
 27
1.0
 37
0.0
 76
     0
330
18
  0
MLINESTYLE
  5
1C
102
{ACAD_REACTORS
330
1B
102
}
330
1B
100
AcDbMlineStyle
  2
STANDARD
 70
     0
  3

 62
   256
 51
90.0
 52
90.0
 71
     2
 49
0.5
 62
   256
  6
BYLAYER
 49
-0.5
 62
   256
  6
BYLAYER
  0
ACDBPLACEHOLDER
  5
76C9
102
{ACAD_REACTORS
330
76C8
102
}
330
76C8
  0
DICTIONARYVAR
  5
76D6
102
{ACAD_REACTORS
330
2786
102
}
330
2786
100
DictionaryVariables
280
     0
  1
1
  0
DICTIONARYVAR
  5
2787
102
{ACAD_REACTORS
330
2786
102
}
330
2786
100
DictionaryVariables
280
     0
  1
96
  0
XRECORD
  5
78C0
102
{ACAD_REACTORS
330
78BF
102
}
330
78BF
100
AcDbXrecord
280
     1
330
789E
330
789F
330
787F
330
7880
330
78B2
330
78B3
  0
ENDSEC
  0
EOF
