  0
SECTION
  2
HEADER
  9
$ACADVER
  1
AC1009
  9
$INSBASE
 10
402.590624
 20
-1.041018
 30
0.0
  9
$EXTMIN
 10
-29.201996
 20
7.475129
 30
0.0
  9
$EXTMAX
 10
34.710583
 20
172.543252
 30
0.0
  9
$LIMMIN
 10
-407.970438
 20
-367.832444
  9
$LIMMAX
 10
429.804077
 20
234.370848
  9
$ORTHOMODE
 70
     1
  9
$REGENMODE
 70
     1
  9
$FILLMODE
 70
     1
  9
$QTEXTMODE
 70
     0
  9
$MIRRTEXT
 70
     1
  9
$DRAGMODE
 70
     2
  9
$LTSCALE
 40
10.0
  9
$OSMODE
 70
     0
  9
$ATTMODE
 70
     1
  9
$TEXTSIZE
 40
6.0
  9
$TRACEWID
 40
1.0
  9
$TEXTSTYLE
  7
ROMANS
  9
$CLAYER
  8
ALPHA
  9
$CELTYPE
  6
BYLAYER
  9
$CECOLOR
 62
   256
  9
$DIMSCALE
 40
1.0
  9
$DIMASZ
 40
5.0
  9
$DIMEXO
 40
2.0
  9
$DIMDLI
 40
0.38
  9
$DIMRND
 40
0.0
  9
$DIMDLE
 40
0.0
  9
$DIMEXE
 40
2.5
  9
$DIMTP
 40
0.0
  9
$DIMTM
 40
0.0
  9
$DIMTXT
 40
2.5
  9
$DIMCEN
 40
0.0
  9
$DIMTSZ
 40
0.0
  9
$DIMTOL
 70
     0
  9
$DIMLIM
 70
     0
  9
$DIMTIH
 70
     1
  9
$DIMTOH
 70
     1
  9
$DIMSE1
 70
     0
  9
$DIMSE2
 70
     0
  9
$DIMTAD
 70
     1
  9
$DIMZIN
 70
    12
  9
$DIMBLK
  1
OPEN30
  9
$DIMASO
 70
     1
  9
$DIMSHO
 70
     1
  9
$DIMPOST
  1

  9
$DIMAPOST
  1

  9
$DIMALT
 70
     0
  9
$DIMALTD
 70
     2
  9
$DIMALTF
 40
25.4
  9
$DIMLFAC
 40
1.0
  9
$DIMTOFL
 70
     0
  9
$DIMTVP
 40
0.0
  9
$DIMTIX
 70
     0
  9
$DIMSOXD
 70
     0
  9
$DIMSAH
 70
     0
  9
$DIMBLK1
  1

  9
$DIMBLK2
  1

  9
$DIMSTYLE
  2
SC_DEFAUT
  9
$DIMCLRD
 70
     0
  9
$DIMCLRE
 70
     0
  9
$DIMCLRT
 70
     0
  9
$DIMTFAC
 40
1.0
  9
$DIMGAP
 40
2.0
  9
$LUNITS
 70
     2
  9
$LUPREC
 70
     1
  9
$SKETCHINC
 40
0.1
  9
$FILLETRAD
 40
0.0
  9
$AUNITS
 70
     0
  9
$AUPREC
 70
     0
  9
$MENU
  1
acad
  9
$ELEVATION
 40
0.0
  9
$PELEVATION
 40
0.0
  9
$THICKNESS
 40
0.0
  9
$LIMCHECK
 70
     0
  9
$BLIPMODE
 70
     0
  9
$CHAMFERA
 40
0.0
  9
$CHAMFERB
 40
0.0
  9
$SKPOLY
 70
     0
  9
$TDCREATE
 40
2450373.687919
  9
$TDUPDATE
 40
2452898.645835
  9
$TDINDWG
 40
1.582503
  9
$TDUSRTIMER
 40
1.582503
  9
$USRTIMER
 70
     1
  9
$ANGBASE
 50
0.0
  9
$ANGDIR
 70
     0
  9
$PDMODE
 70
    32
  9
$PDSIZE
 40
0.0
  9
$PLINEWID
 40
0.0
  9
$COORDS
 70
     1
  9
$SPLFRAME
 70
     0
  9
$SPLINETYPE
 70
     6
  9
$SPLINESEGS
 70
     8
  9
$ATTDIA
 70
     0
  9
$ATTREQ
 70
     1
  9
$HANDLING
 70
     1
  9
$HANDSEED
  5
10DC6
  9
$SURFTAB1
 70
     6
  9
$SURFTAB2
 70
     6
  9
$SURFTYPE
 70
     6
  9
$SURFU
 70
     6
  9
$SURFV
 70
     6
  9
$UCSNAME
  2

  9
$UCSORG
 10
0.0
 20
0.0
 30
0.0
  9
$UCSXDIR
 10
1.0
 20
0.0
 30
0.0
  9
$UCSYDIR
 10
0.0
 20
1.0
 30
0.0
  9
$PUCSNAME
  2

  9
$PUCSORG
 10
0.0
 20
0.0
 30
0.0
  9
$PUCSXDIR
 10
1.0
 20
0.0
 30
0.0
  9
$PUCSYDIR
 10
0.0
 20
1.0
 30
0.0
  9
$USERI1
 70
     0
  9
$USERI2
 70
     0
  9
$USERI3
 70
     0
  9
$USERI4
 70
     0
  9
$USERI5
 70
     0
  9
$USERR1
 40
0.0
  9
$USERR2
 40
0.0
  9
$USERR3
 40
0.0
  9
$USERR4
 40
0.0
  9
$USERR5
 40
0.0
  9
$WORLDVIEW
 70
     1
  9
$SHADEDGE
 70
     3
  9
$SHADEDIF
 70
    70
  9
$TILEMODE
 70
     1
  9
$MAXACTVP
 70
    16
  9
$PLIMCHECK
 70
     0
  9
$PEXTMIN
 10
-1.452248
 20
-0.437698
 30
0.0
  9
$PEXTMAX
 10
12.749749
 20
8.310198
 30
0.0
  9
$PLIMMIN
 10
0.0
 20
0.0
  9
$PLIMMAX
 10
12.0
 20
9.0
  9
$UNITMODE
 70
     0
  9
$VISRETAIN
 70
     0
  9
$PLINEGEN
 70
     0
  9
$PSLTSCALE
 70
     0
  0
ENDSEC
  0
SECTION
  2
TABLES
  0
TABLE
  2
VPORT
 70
     2
  0
VPORT
  2
*ACTIVE
 70
     0
 10
0.0
 20
0.0
 11
1.0
 21
1.0
 12
2.767388
 22
90.337787
 13
0.0
 23
0.0
 14
1.0
 24
1.0
 15
10.0
 25
10.0
 16
0.0
 26
0.0
 36
1.0
 17
0.0
 27
0.0
 37
0.0
 40
167.230468
 41
1.625
 42
50.0
 43
0.0
 44
0.0
 50
0.0
 51
0.0
 71
     0
 72
   100
 73
     1
 74
     0
 75
     0
 76
     0
 77
     0
 78
     0
  0
ENDTAB
  0
TABLE
  2
LTYPE
 70
     2
  0
LTYPE
  2
CONTINUOUS
 70
     0
  3
Solid line
 72
    65
 73
     0
 40
0.0
  0
LTYPE
  2
AXES2
 70
     0
  3
___ _ ___ _ ___ _ ___ _ ___ _ ___ _ ___ _ ___ _
 72
    65
 73
     4
 40
1.125
 49
0.75
 49
-0.125
 49
0.125
 49
-0.125
  0
ENDTAB
  0
TABLE
  2
LAYER
 70
     5
  0
LAYER
  2
0
 70
     0
 62
   255
  6
CONTINUOUS
  0
LAYER
  2
COTATION1
 70
     0
 62
     2
  6
CONTINUOUS
  0
LAYER
  2
AXE
 70
     0
 62
    80
  6
AXES2
  0
LAYER
  2
DEFPOINTS
 70
     0
 62
     7
  6
CONTINUOUS
  0
LAYER
  2
ALPHA
 70
     0
 62
   254
  6
CONTINUOUS
  0
ENDTAB
  0
TABLE
  2
STYLE
 70
     2
  0
STYLE
  2
ROMANS
 70
     0
 40
0.0
 41
1.0
 50
0.0
 71
     0
 42
6.0
  3
romans
  4

  0
STYLE
  2
STANDARD
 70
     0
 40
0.2
 41
1.0
 50
0.0
 71
     0
 42
0.2
  3
txt
  4

  0
ENDTAB
  0
TABLE
  2
VIEW
 70
     0
  0
ENDTAB
  0
TABLE
  2
UCS
 70
     0
  0
ENDTAB
  0
TABLE
  2
APPID
 70
     1
  0
APPID
  2
ACAD
 70
     0
  0
ENDTAB
  0
TABLE
  2
DIMSTYLE
 70
     1
  0
DIMSTYLE
  2
SC_DEFAUT
 70
     0
  3

  4

  5
OPEN30
  6

  7

 40
1.0
 41
5.0
 42
2.0
 43
0.38
 44
2.5
 45
0.0
 46
0.0
 47
0.0
 48
0.0
140
2.5
141
0.0
142
0.0
143
25.4
144
1.0
145
0.0
146
1.0
147
2.0
 71
     0
 72
     0
 73
     1
 74
     1
 75
     0
 76
     0
 77
     1
 78
    12
170
     0
171
     2
172
     0
173
     0
174
     0
175
     0
176
     0
177
     0
178
     0
  0
ENDTAB
  0
ENDSEC
  0
SECTION
  2
BLOCKS
  0
BLOCK
  8
0
  2
$MODEL_SPACE
 70
     0
 10
0.0
 20
0.0
 30
0.0
  3
$MODEL_SPACE
  1

  0
ENDBLK
  5
10DBF
  8
0
  0
BLOCK
 67
     1
  8
0
  2
$PAPER_SPACE
 70
     0
 10
0.0
 20
0.0
 30
0.0
  3
$PAPER_SPACE
  1

  0
ENDBLK
  5
10DBD
 67
     1
  8
0
  0
BLOCK
  8
0
  2
COTE
 70
     0
 10
0.0
 20
0.0
 30
0.0
  3
COTE
  1

  0
ENDBLK
  5
F
  8
0
  0
BLOCK
  8
0
  2
FOND
 70
     0
 10
0.0
 20
0.0
 30
0.0
  3
FOND
  1

  0
ENDBLK
  5
75
  8
0
  0
BLOCK
  8
0
  2
_OPEN30
 70
     0
 10
0.0
 20
0.0
 30
0.0
  3
_OPEN30
  1

  0
LINE
  5
4B05
  8
COTATION1
 62
     0
 10
-1.0
 20
0.267949
 30
0.0
 11
0.0
 21
0.0
 31
0.0
1001
ACAD
1000
RTLwPs
1070
   158
  0
LINE
  5
4B06
  8
COTATION1
 62
     0
 10
0.0
 20
0.0
 30
0.0
 11
-1.0
 21
-0.267949
 31
0.0
1001
ACAD
1000
RTLwPs
1070
   158
  0
LINE
  5
4B07
  8
COTATION1
 62
     0
 10
0.0
 20
0.0
 30
0.0
 11
-1.0
 21
0.0
 31
0.0
1001
ACAD
1000
RTLwPs
1070
   158
  0
ENDBLK
  5
4B09
  8
0
  0
BLOCK
  8
0
  2
*D3
 70
     1
 10
0.0
 20
0.0
 30
0.0
  3
*D3
  1

  0
LINE
  5
10D15
  8
COTATION1
 62
     0
 10
-24.201996
 20
153.207165
 30
0.0
 11
-24.201996
 21
170.543252
 31
0.0
1001
ACAD
1000
RTLwPs
1070
   158
  0
LINE
  5
10D16
  8
COTATION1
 62
     0
 10
-6.201996
 20
153.207165
 30
0.0
 11
-6.201996
 21
170.543252
 31
0.0
1001
ACAD
1000
RTLwPs
1070
   158
  0
LINE
  5
10D17
  8
COTATION1
 62
     0
 10
-19.201996
 20
168.043252
 30
0.0
 11
-11.201996
 21
168.043252
 31
0.0
1001
ACAD
1000
RTLwPs
1070
   158
  0
INSERT
  5
10D18
  8
COTATION1
 62
     0
  2
_OPEN30
 10
-24.201996
 20
168.043252
 30
0.0
 41
5.0
 42
5.0
 43
5.0
 50
180.0
1001
ACAD
1000
RTLwPs
1070
   158
  0
INSERT
  5
10D19
  8
COTATION1
 62
     0
  2
_OPEN30
 10
-6.201996
 20
168.043252
 30
0.0
 41
5.0
 42
5.0
 43
5.0
1001
ACAD
1000
RTLwPs
1070
   158
  0
TEXT
  5
10D1A
  8
COTATION1
 62
     0
 10
-17.76152
 20
170.043252
 30
0.0
 40
2.5
  1
18
1001
ACAD
1000
MTEXTBEGIN
1070
    73
1070
     1
1070
    44
1040
1.0
1070
    74
1070
     0
1000
MTEXTEND
  0
POINT
  5
10D1B
  8
DEFPOINTS
 62
     0
 10
-24.201996
 20
151.207165
 30
0.0
  0
POINT
  5
10D1C
  8
DEFPOINTS
 62
     0
 10
-6.201996
 20
151.207165
 30
0.0
  0
POINT
  5
10D1D
  8
DEFPOINTS
 62
     0
 10
-6.201996
 20
168.043252
 30
0.0
  0
ENDBLK
  5
10B4F
  8
0
  0
BLOCK
  8
0
  2
*D4
 70
     1
 10
0.0
 20
0.0
 30
0.0
  3
*D4
  1

  0
LINE
  5
10D4B
  8
COTATION1
 62
     0
 10
-4.201996
 20
151.207165
 30
0.0
 11
32.32963
 21
151.207165
 31
0.0
1001
ACAD
1000
RTLwPs
1070
   158
  0
LINE
  5
10D4C
  8
COTATION1
 62
     0
 10
-4.201996
 20
27.807165
 30
0.0
 11
32.32963
 21
27.807165
 31
0.0
1001
ACAD
1000
RTLwPs
1070
   158
  0
LINE
  5
10D4D
  8
COTATION1
 62
     0
 10
29.82963
 20
146.207165
 30
0.0
 11
29.82963
 21
92.895978
 31
0.0
1001
ACAD
1000
RTLwPs
1070
   158
  0
LINE
  5
10D4E
  8
COTATION1
 62
     0
 10
29.82963
 20
32.807165
 30
0.0
 11
29.82963
 21
86.395978
 31
0.0
1001
ACAD
1000
RTLwPs
1070
   158
  0
INSERT
  5
10D4F
  8
COTATION1
 62
     0
  2
_OPEN30
 10
29.82963
 20
151.207165
 30
0.0
 41
5.0
 42
5.0
 43
5.0
 50
90.0
1001
ACAD
1000
RTLwPs
1070
   158
  0
INSERT
  5
10D50
  8
COTATION1
 62
     0
  2
_OPEN30
 10
29.82963
 20
27.807165
 30
0.0
 41
5.0
 42
5.0
 43
5.0
 50
270.0
1001
ACAD
1000
RTLwPs
1070
   158
  0
TEXT
  5
10D51
  8
COTATION1
 62
     0
 10
24.234392
 20
88.395978
 30
0.0
 40
2.5
  1
123.4
1001
ACAD
1000
MTEXTBEGIN
1070
    73
1070
     1
1070
    44
1040
1.0
1070
    74
1070
     0
1000
MTEXTEND
  0
POINT
  5
10D52
  8
DEFPOINTS
 62
     0
 10
-6.201996
 20
151.207165
 30
0.0
  0
POINT
  5
10D53
  8
DEFPOINTS
 62
     0
 10
-6.201996
 20
27.807165
 30
0.0
  0
POINT
  5
10D54
  8
DEFPOINTS
 62
     0
 10
29.82963
 20
27.807165
 30
0.0
  0
ENDBLK
  5
10CC0
  8
0
  0
ENDSEC
  0
SECTION
  2
ENTITIES
  0
INSERT
  5
A
  8
0
  2
COTE
 10
0.0
 20
0.0
 30
0.0
  0
INSERT
  5
17
  8
0
  2
COTE
 10
284.010391
 20
6.373258
 30
0.0
  0
INSERT
  5
72
  8
0
  2
FOND
 10
0.0
 20
0.0
 30
0.0
  0
DIMENSION
  5
10B35
  8
COTATION1
  2
*D3
 10
-6.201996
 20
168.043252
 30
0.0
 11
-15.201996
 21
168.043252
 31
0.0
 70
   128
 13
-24.201996
 23
151.207165
 33
0.0
 14
-6.201996
 24
151.207165
 34
0.0
  0
LINE
  5
10C5D
  8
AXE
 10
-15.201996
 20
7.475129
 30
0.0
 11
-15.201996
 21
157.181843
 31
0.0
  0
DIMENSION
  5
10C5F
  8
COTATION1
  2
*D4
 10
29.82963
 20
27.807165
 30
0.0
 11
29.82963
 21
89.645978
 31
0.0
 70
   128
 13
-6.201996
 23
151.207165
 33
0.0
 14
-6.201996
 24
27.807165
 34
0.0
 50
90.0
  0
ARC
  5
10C60
  8
ALPHA
 10
-15.201996
 20
120.007165
 30
0.0
 40
4.267527
 50
134.320038
 51
45.679962
  0
LINE
  5
10C61
  8
ALPHA
 10
-24.201996
 20
49.007165
 30
0.0
 11
-24.201996
 21
130.007165
 31
0.0
  0
LINE
  5
10C62
  8
ALPHA
 10
-6.201996
 20
130.007165
 30
0.0
 11
-6.201996
 21
49.007165
 31
0.0
  0
LINE
  5
10C63
  8
ALPHA
 10
-9.97328
 20
68.700925
 30
0.0
 11
-9.97328
 21
77.410256
 31
0.0
  0
LINE
  5
10C64
  8
ALPHA
 10
-20.430713
 20
68.700925
 30
0.0
 11
-20.430713
 21
77.410256
 31
0.0
  0
LINE
  5
10C65
  8
ALPHA
 10
-12.220422
 20
49.007165
 30
0.0
 11
-6.201996
 21
49.007165
 31
0.0
  0
LINE
  5
10C66
  8
ALPHA
 10
-22.701996
 20
45.107165
 30
0.0
 11
-7.701996
 21
45.107165
 31
0.0
  0
CIRCLE
  5
10C67
  8
ALPHA
 10
-15.201996
 20
40.898216
 30
0.0
 40
4.049876
  0
LINE
  5
10C68
  8
ALPHA
 10
-18.771996
 20
32.964105
 30
0.0
 11
-11.631996
 21
32.964105
 31
0.0
  0
ARC
  5
10C69
  8
ALPHA
 10
-15.201996
 20
40.898216
 30
0.0
 40
3.46045
 50
252.416001
 51
49.685212
  0
ARC
  5
10C6A
  8
ALPHA
 10
-15.201996
 20
59.007165
 30
0.0
 40
4.267527
 50
314.320038
 51
225.679962
  0
LINE
  5
10C6B
  8
ALPHA
 10
-6.201996
 20
68.700925
 30
0.0
 11
-24.201996
 21
68.700925
 31
0.0
  0
LINE
  5
10C6C
  8
ALPHA
 10
-6.201996
 20
67.007165
 30
0.0
 11
-24.201996
 21
67.007165
 31
0.0
  0
LINE
  5
10C6D
  8
ALPHA
 10
-6.201996
 20
49.007165
 30
0.0
 11
-12.220422
 21
49.007165
 31
0.0
  0
LINE
  5
10C6E
  8
ALPHA
 10
-12.220422
 20
45.107165
 30
0.0
 11
-12.220422
 21
55.953969
 31
0.0
  0
LINE
  5
10C6F
  8
ALPHA
 10
-18.18357
 20
45.107165
 30
0.0
 11
-18.18357
 21
55.953969
 31
0.0
  0
LINE
  5
10C70
  8
ALPHA
 10
-19.914006
 20
45.107165
 30
0.0
 11
-19.914006
 21
36.748124
 31
0.0
  0
ARC
  5
10C71
  8
ALPHA
 10
-15.201996
 20
40.898216
 30
0.0
 40
3.46045
 50
66.324364
 51
235.776849
  0
LINE
  5
10C72
  8
ALPHA
 10
-17.148214
 20
38.036931
 30
0.0
 11
-15.914289
 21
40.267635
 31
0.0
  0
LINE
  5
10C73
  8
ALPHA
 10
-16.247411
 20
37.599455
 30
0.0
 11
-15.039241
 21
39.783598
 31
0.0
  0
LINE
  5
10C74
  8
ALPHA
 10
-24.201996
 20
49.007165
 30
0.0
 11
-24.201996
 21
27.807165
 31
0.0
  0
LINE
  5
10C75
  8
ALPHA
 10
-22.701996
 20
45.107165
 30
0.0
 11
-22.701996
 21
27.807165
 31
0.0
  0
LINE
  5
10C77
  8
ALPHA
 10
-18.771996
 20
34.464105
 30
0.0
 11
-18.771996
 21
32.964105
 31
0.0
  0
LINE
  5
10C78
  8
ALPHA
 10
-19.914006
 20
36.748124
 30
0.0
 11
-18.771996
 21
34.464105
 31
0.0
  0
LINE
  5
10C79
  8
ALPHA
 10
-18.18357
 20
49.007165
 30
0.0
 11
-24.201996
 21
49.007165
 31
0.0
  0
LINE
  5
10C7A
  8
ALPHA
 10
-24.201996
 20
49.007165
 30
0.0
 11
-18.18357
 21
49.007165
 31
0.0
  0
LINE
  5
10C7B
  8
ALPHA
 10
-16.379428
 20
41.096326
 30
0.0
 11
-15.992198
 21
41.796364
 31
0.0
  0
LINE
  5
10C7C
  8
ALPHA
 10
-14.097185
 20
39.833892
 30
0.0
 11
-13.709955
 21
40.53393
 31
0.0
  0
LINE
  5
10C7D
  8
ALPHA
 10
-16.109794
 20
40.947177
 30
0.0
 11
-16.379428
 21
41.096326
 31
0.0
  0
ARC
  5
10C7E
  8
ALPHA
 10
-16.351813
 20
40.509654
 30
0.0
 40
0.5
 50
331.050606
 51
61.050606
  0
LINE
  5
10C7F
  8
ALPHA
 10
-14.097185
 20
39.833892
 30
0.0
 11
-14.359699
 21
39.979103
 31
0.0
  0
ARC
  5
10C80
  8
ALPHA
 10
-14.601718
 20
39.54158
 30
0.0
 40
0.5
 50
61.050606
 51
151.050606
  0
LINE
  5
10C81
  8
ALPHA
 10
-13.709955
 20
40.53393
 30
0.0
 11
-13.97247
 21
40.679141
 31
0.0
  0
LINE
  5
10C82
  8
ALPHA
 10
-14.167975
 20
41.358684
 30
0.0
 11
-12.963131
 21
43.536814
 31
0.0
  0
ARC
  5
10C83
  8
ALPHA
 10
-13.730451
 20
41.116665
 30
0.0
 40
0.5
 50
151.050606
 51
241.050606
  0
LINE
  5
10C84
  8
ALPHA
 10
-15.043023
 20
41.842721
 30
0.0
 11
-13.812424
 21
44.067412
 31
0.0
  0
LINE
  5
10C85
  8
ALPHA
 10
-15.722565
 20
41.647215
 30
0.0
 11
-15.992198
 21
41.796364
 31
0.0
  0
ARC
  5
10C86
  8
ALPHA
 10
-15.480546
 20
42.084739
 30
0.0
 40
0.5
 50
241.050606
 51
331.050606
  0
LINE
  5
10C87
  8
ALPHA
 10
-10.489987
 20
45.107165
 30
0.0
 11
-10.489987
 21
36.748124
 31
0.0
  0
LINE
  5
10C88
  8
ALPHA
 10
-6.201996
 20
49.007165
 30
0.0
 11
-6.201996
 21
27.807165
 31
0.0
  0
LINE
  5
10C89
  8
ALPHA
 10
-7.701996
 20
45.107165
 30
0.0
 11
-7.701996
 21
27.807165
 31
0.0
  0
LINE
  5
10C8B
  8
ALPHA
 10
-11.631996
 20
34.464105
 30
0.0
 11
-11.631996
 21
32.964105
 31
0.0
  0
LINE
  5
10C8C
  8
ALPHA
 10
-11.631996
 20
34.464105
 30
0.0
 11
-10.489987
 21
36.748124
 31
0.0
  0
LINE
  5
10C8E
  8
ALPHA
 10
-9.97328
 20
77.410256
 30
0.0
 11
-20.430713
 21
77.410256
 31
0.0
  0
LINE
  5
10C8F
  8
ALPHA
 10
-6.201996
 20
112.007165
 30
0.0
 11
-24.201996
 21
112.007165
 31
0.0
  0
LINE
  5
10C92
  8
ALPHA
 10
-12.220422
 20
130.007165
 30
0.0
 11
-6.201996
 21
130.007165
 31
0.0
  0
ARC
  5
10C93
  8
ALPHA
 10
-15.201996
 20
138.116114
 30
0.0
 40
3.46045
 50
310.314788
 51
107.583999
  0
CIRCLE
  5
10C94
  8
ALPHA
 10
-15.201996
 20
138.116114
 30
0.0
 40
4.049876
  0
LINE
  5
10C95
  8
ALPHA
 10
-18.771996
 20
146.050226
 30
0.0
 11
-11.631996
 21
146.050226
 31
0.0
  0
LINE
  5
10C96
  8
ALPHA
 10
-22.701996
 20
133.907165
 30
0.0
 11
-7.701996
 21
133.907165
 31
0.0
  0
LINE
  5
10C97
  8
ALPHA
 10
-19.914006
 20
142.266206
 30
0.0
 11
-18.771996
 21
144.550226
 31
0.0
  0
LINE
  5
10C98
  8
ALPHA
 10
-22.701996
 20
133.907165
 30
0.0
 11
-22.701996
 21
151.207165
 31
0.0
  0
LINE
  5
10C99
  8
ALPHA
 10
-24.201996
 20
130.007165
 30
0.0
 11
-24.201996
 21
151.207165
 31
0.0
  0
LINE
  5
10C9A
  8
ALPHA
 10
-12.220422
 20
133.907165
 30
0.0
 11
-12.220422
 21
123.060361
 31
0.0
  0
LINE
  5
10C9B
  8
ALPHA
 10
-18.18357
 20
133.907165
 30
0.0
 11
-18.18357
 21
123.060361
 31
0.0
  0
LINE
  5
10C9C
  8
ALPHA
 10
-24.201996
 20
130.007165
 30
0.0
 11
-18.18357
 21
130.007165
 31
0.0
  0
ARC
  5
10C9D
  8
ALPHA
 10
-15.480546
 20
136.929591
 30
0.0
 40
0.5
 50
28.949394
 51
118.949394
  0
ARC
  5
10C9E
  8
ALPHA
 10
-13.730451
 20
137.897665
 30
0.0
 40
0.5
 50
118.949394
 51
208.949394
  0
ARC
  5
10C9F
  8
ALPHA
 10
-14.601718
 20
139.47275
 30
0.0
 40
0.5
 50
208.949394
 51
298.949394
  0
ARC
  5
10CA0
  8
ALPHA
 10
-16.351813
 20
138.504677
 30
0.0
 40
0.5
 50
298.949394
 51
28.949394
  0
LINE
  5
10CA1
  8
ALPHA
 10
-14.167975
 20
137.655646
 30
0.0
 11
-12.963131
 21
135.477516
 31
0.0
  0
LINE
  5
10CA2
  8
ALPHA
 10
-15.043023
 20
137.171609
 30
0.0
 11
-13.812424
 21
134.946918
 31
0.0
  0
LINE
  5
10CA3
  8
ALPHA
 10
-15.722565
 20
137.367115
 30
0.0
 11
-15.992198
 21
137.217966
 31
0.0
  0
LINE
  5
10CA4
  8
ALPHA
 10
-16.109794
 20
138.067153
 30
0.0
 11
-16.379428
 21
137.918004
 31
0.0
  0
LINE
  5
10CA5
  8
ALPHA
 10
-13.709955
 20
138.4804
 30
0.0
 11
-13.97247
 21
138.335189
 31
0.0
  0
LINE
  5
10CA6
  8
ALPHA
 10
-14.097185
 20
139.180438
 30
0.0
 11
-14.359699
 21
139.035227
 31
0.0
  0
LINE
  5
10CA7
  8
ALPHA
 10
-14.097185
 20
139.180438
 30
0.0
 11
-13.709955
 21
138.4804
 31
0.0
  0
LINE
  5
10CA8
  8
ALPHA
 10
-16.379428
 20
137.918004
 30
0.0
 11
-15.992198
 21
137.217966
 31
0.0
  0
LINE
  5
10CA9
  8
ALPHA
 10
-16.247411
 20
141.414875
 30
0.0
 11
-15.039241
 21
139.230732
 31
0.0
  0
LINE
  5
10CAA
  8
ALPHA
 10
-17.148214
 20
140.977399
 30
0.0
 11
-15.914289
 21
138.746695
 31
0.0
  0
ARC
  5
10CAB
  8
ALPHA
 10
-15.201996
 20
138.116114
 30
0.0
 40
3.46045
 50
124.223151
 51
293.675636
  0
LINE
  5
10CAC
  8
ALPHA
 10
-19.914006
 20
133.907165
 30
0.0
 11
-19.914006
 21
142.266206
 31
0.0
  0
LINE
  5
10CAE
  8
ALPHA
 10
-18.771996
 20
144.550226
 30
0.0
 11
-18.771996
 21
146.050226
 31
0.0
  0
LINE
  5
10CAF
  8
ALPHA
 10
-11.631996
 20
144.550226
 30
0.0
 11
-10.489987
 21
142.266206
 31
0.0
  0
LINE
  5
10CB0
  8
ALPHA
 10
-7.701996
 20
133.907165
 30
0.0
 11
-7.701996
 21
151.207165
 31
0.0
  0
LINE
  5
10CB1
  8
ALPHA
 10
-6.201996
 20
130.007165
 30
0.0
 11
-6.201996
 21
151.207165
 31
0.0
  0
LINE
  5
10CB2
  8
ALPHA
 10
-10.489987
 20
133.907165
 30
0.0
 11
-10.489987
 21
142.266206
 31
0.0
  0
LINE
  5
10CB3
  8
ALPHA
 10
-11.631996
 20
144.550226
 30
0.0
 11
-11.631996
 21
146.050226
 31
0.0
  0
TEXT
  5
10CFF
  8
AXE
 10
-25.297234
 20
7.475129
 30
0.0
 40
10.0
  1
Y
 72
     2
 11
-17.201996
 21
7.475129
 31
0.0
  0
LINE
  5
10D00
  8
AXE
 10
-29.201996
 20
89.507165
 30
0.0
 11
13.798004
 21
89.507165
 31
0.0
  0
TEXT
  5
10D01
  8
AXE
 10
5.702766
 20
91.507165
 30
0.0
 40
10.0
  1
X
 72
     2
 11
13.798004
 21
91.507165
 31
0.0
  0
LINE
  5
10D1E
  8
ALPHA
 10
-24.201996
 20
151.207165
 30
0.0
 11
-22.701996
 21
151.207165
 31
0.0
  0
LINE
  5
10D20
  8
ALPHA
 10
-7.701996
 20
151.207165
 30
0.0
 11
-6.201996
 21
151.207165
 31
0.0
  0
LINE
  5
10D35
  8
ALPHA
 10
-24.201996
 20
27.807165
 30
0.0
 11
-22.701996
 21
27.807165
 31
0.0
  0
LINE
  5
10D36
  8
ALPHA
 10
-7.701996
 20
27.807165
 30
0.0
 11
-6.201996
 21
27.807165
 31
0.0
  0
VIEWPORT
  5
494D
 67
     1
  8
0
 10
4.995325
 20
6.556512
 30
0.0
 40
22.70986
 41
13.988421
 68
    -1
 69
     1
1001
ACAD
1000
MVIEW
1002
{
1070
    16
1010
0.0
1020
0.0
1030
0.0
1010
0.0
1020
0.0
1030
1.0
1040
0.0
1040
13.988421
1040
4.995325
1040
6.556512
1040
50.0
1040
0.0
1040
0.0
1070
     0
1070
   100
1070
     1
1070
     1
1070
     0
1070
     0
1070
     0
1070
     0
1040
0.0
1040
0.0
1040
0.0
1040
10.0
1040
10.0
1040
10.0
1040
10.0
1070
     0
1002
{
1002
}
1002
}
  0
ENDSEC
  0
EOF
