  0
SECTION
  2
HEADER
  9
$ACADVER
  1
AC1015
  9
$ACADMAINTVER
 70
     6
  9
$DWGCODEPAGE
  3
ANSI_1252
  9
$INSBASE
 10
0.0
 20
0.0
 30
0.0
  9
$EXTMIN
 10
0.0
 20
0.0
 30
0.0
  9
$EXTMAX
 10
8.5
 20
11.0
 30
0.0
  9
$LIMMIN
 10
0.0
 20
0.0
  9
$LIMMAX
 10
8.5
 20
11.0
  9
$ORTHOMODE
 70
     0
  9
$REGENMODE
 70
     1
  9
$FILLMODE
 70
     1
  9
$QTEXTMODE
 70
     0
  9
$MIRRTEXT
 70
     1
  9
$LTSCALE
 40
1.0
  9
$ATTMODE
 70
     1
  9
$TEXTSIZE
 40
0.1388888889
  9
$TRACEWID
 40
0.05
  9
$TEXTSTYLE
  7
Standard
  9
$CLAYER
  8
0
  9
$CELTYPE
  6
ByLayer
  9
$CECOLOR
 62
   256
  9
$CELTSCALE
 40
1.0
  9
$DISPSILH
 70
     0
  9
$DIMSCALE
 40
1.0
  9
$DIMASZ
 40
0.13
  9
$DIMEXO
 40
0.05
  9
$DIMDLI
 40
0.38
  9
$DIMRND
 40
0.0
  9
$DIMDLE
 40
0.0
  9
$DIMEXE
 40
0.125
  9
$DIMTP
 40
0.0
  9
$DIMTM
 40
0.0
  9
$DIMTXT
 40
0.1388888889
  9
$DIMCEN
 40
0.09
  9
$DIMTSZ
 40
0.0
  9
$DIMTOL
 70
     0
  9
$DIMLIM
 70
     0
  9
$DIMTIH
 70
     1
  9
$DIMTOH
 70
     1
  9
$DIMSE1
 70
     0
  9
$DIMSE2
 70
     0
  9
$DIMTAD
 70
     0
  9
$DIMZIN
 70
     0
  9
$DIMBLK
  1

  9
$DIMASO
 70
     1
  9
$DIMSHO
 70
     1
  9
$DIMPOST
  1

  9
$DIMAPOST
  1

  9
$DIMALT
 70
     0
  9
$DIMALTD
 70
     2
  9
$DIMALTF
 40
25.4
  9
$DIMLFAC
 40
1.0
  9
$DIMTOFL
 70
     0
  9
$DIMTVP
 40
0.0
  9
$DIMTIX
 70
     0
  9
$DIMSOXD
 70
     0
  9
$DIMSAH
 70
     0
  9
$DIMBLK1
  1

  9
$DIMBLK2
  1

  9
$DIMSTYLE
  2
Standard
  9
$DIMCLRD
 70
     0
  9
$DIMCLRE
 70
     0
  9
$DIMCLRT
 70
     0
  9
$DIMTFAC
 40
1.0
  9
$DIMGAP
 40
0.06
  9
$DIMJUST
 70
     0
  9
$DIMSD1
 70
     0
  9
$DIMSD2
 70
     0
  9
$DIMTOLJ
 70
     1
  9
$DIMTZIN
 70
     0
  9
$DIMALTZ
 70
     0
  9
$DIMALTTZ
 70
     0
  9
$DIMUPT
 70
     0
  9
$DIMDEC
 70
     0
  9
$DIMTDEC
 70
     0
  9
$DIMALTU
 70
     2
  9
$DIMALTTD
 70
     2
  9
$DIMTXSTY
  7
Standard
  9
$DIMAUNIT
 70
     0
  9
$DIMADEC
 70
     0
  9
$DIMALTRND
 40
0.0
  9
$DIMAZIN
 70
     0
  9
$DIMDSEP
 70
    46
  9
$DIMATFIT
 70
     3
  9
$DIMFRAC
 70
     0
  9
$DIMLDRBLK
  1

  9
$DIMLUNIT
 70
     2
  9
$DIMLWD
 70
    -2
  9
$DIMLWE
 70
    -2
  9
$DIMTMOVE
 70
     0
  9
$LUNITS
 70
     2
  9
$LUPREC
 70
     0
  9
$SKETCHINC
 40
0.1
  9
$FILLETRAD
 40
0.5
  9
$AUNITS
 70
     0
  9
$AUPREC
 70
     0
  9
$MENU
  1
.
  9
$ELEVATION
 40
0.0
  9
$PELEVATION
 40
0.0
  9
$THICKNESS
 40
0.0
  9
$LIMCHECK
 70
     0
  9
$CHAMFERA
 40
0.0
  9
$CHAMFERB
 40
0.0
  9
$CHAMFERC
 40
0.0
  9
$CHAMFERD
 40
0.0
  9
$SKPOLY
 70
     0
  9
$TDCREATE
 40
2459019.889366759
  9
$TDUCREATE
 40
2459020.056033426
  9
$TDUPDATE
 40
2459019.889367674
  9
$TDUUPDATE
 40
2459020.05603434
  9
$TDINDWG
 40
0.0000000116
  9
$TDUSRTIMER
 40
0.0000000116
  9
$USRTIMER
 70
     1
  9
$ANGBASE
 50
0.0
  9
$ANGDIR
 70
     0
  9
$PDMODE
 70
     0
  9
$PDSIZE
 40
-1.0
  9
$PLINEWID
 40
0.0
  9
$SPLFRAME
 70
     0
  9
$SPLINETYPE
 70
     6
  9
$SPLINESEGS
 70
     8
  9
$HANDSEED
  5
18A
  9
$SURFTAB1
 70
     6
  9
$SURFTAB2
 70
     6
  9
$SURFTYPE
 70
     6
  9
$SURFU
 70
     6
  9
$SURFV
 70
     6
  9
$UCSBASE
  2

  9
$UCSNAME
  2

  9
$UCSORG
 10
0.0
 20
0.0
 30
0.0
  9
$UCSXDIR
 10
1.0
 20
0.0
 30
0.0
  9
$UCSYDIR
 10
0.0
 20
1.0
 30
0.0
  9
$UCSORTHOREF
  2

  9
$UCSORTHOVIEW
 70
     0
  9
$UCSORGTOP
 10
0.0
 20
0.0
 30
0.0
  9
$UCSORGBOTTOM
 10
0.0
 20
0.0
 30
0.0
  9
$UCSORGLEFT
 10
0.0
 20
0.0
 30
0.0
  9
$UCSORGRIGHT
 10
0.0
 20
0.0
 30
0.0
  9
$UCSORGFRONT
 10
0.0
 20
0.0
 30
0.0
  9
$UCSORGBACK
 10
0.0
 20
0.0
 30
0.0
  9
$PUCSBASE
  2

  9
$PUCSNAME
  2

  9
$PUCSORG
 10
0.0
 20
0.0
 30
0.0
  9
$PUCSXDIR
 10
1.0
 20
0.0
 30
0.0
  9
$PUCSYDIR
 10
0.0
 20
1.0
 30
0.0
  9
$PUCSORTHOREF
  2

  9
$PUCSORTHOVIEW
 70
     0
  9
$PUCSORGTOP
 10
0.0
 20
0.0
 30
0.0
  9
$PUCSORGBOTTOM
 10
0.0
 20
0.0
 30
0.0
  9
$PUCSORGLEFT
 10
0.0
 20
0.0
 30
0.0
  9
$PUCSORGRIGHT
 10
0.0
 20
0.0
 30
0.0
  9
$PUCSORGFRONT
 10
0.0
 20
0.0
 30
0.0
  9
$PUCSORGBACK
 10
0.0
 20
0.0
 30
0.0
  9
$USERI1
 70
     0
  9
$USERI2
 70
     0
  9
$USERI3
 70
     0
  9
$USERI4
 70
     0
  9
$USERI5
 70
     0
  9
$USERR1
 40
0.0
  9
$USERR2
 40
0.0
  9
$USERR3
 40
0.0
  9
$USERR4
 40
0.0
  9
$USERR5
 40
0.0
  9
$WORLDVIEW
 70
     1
  9
$SHADEDGE
 70
     3
  9
$SHADEDIF
 70
    70
  9
$TILEMODE
 70
     1
  9
$MAXACTVP
 70
    64
  9
$PINSBASE
 10
0.0
 20
0.0
 30
0.0
  9
$PLIMCHECK
 70
     0
  9
$PEXTMIN
 10
1.0000000000E+20
 20
1.0000000000E+20
 30
1.0000000000E+20
  9
$PEXTMAX
 10
-1.0000000000E+20
 20
-1.0000000000E+20
 30
-1.0000000000E+20
  9
$PLIMMIN
 10
0.0
 20
0.0
  9
$PLIMMAX
 10
12.0
 20
9.0
  9
$UNITMODE
 70
     0
  9
$VISRETAIN
 70
     1
  9
$PLINEGEN
 70
     0
  9
$PSLTSCALE
 70
     1
  9
$TREEDEPTH
 70
  3020
  9
$CMLSTYLE
  2
Standard
  9
$CMLJUST
 70
     0
  9
$CMLSCALE
 40
1.0
  9
$PROXYGRAPHICS
 70
     1
  9
$MEASUREMENT
 70
     0
  9
$CELWEIGHT
370
    -1
  9
$ENDCAPS
280
     0
  9
$JOINSTYLE
280
     0
  9
$LWDISPLAY
290
     1
  9
$INSUNITS
 70
     1
  9
$HYPERLINKBASE
  1

  9
$STYLESHEET
  1

  9
$XEDIT
290
     1
  9
$CEPSNTYPE
380
     0
  9
$PSTYLEMODE
290
     1
  9
$FINGERPRINTGUID
  2
{63934c1d-71c3-41cb-8313-931c4dacf46c}
  9
$VERSIONGUID
  2
{FAEB1C32-E019-11D5-929B-00C0DF256EC4}
  9
$EXTNAMES
290
     1
  9
$PSVPSCALE
 40
0.0
  9
$OLESTARTUP
290
     0
  0
ENDSEC
  0
SECTION
  2
CLASSES
  0
CLASS
  1
ACDBDICTIONARYWDFLT
  2
AcDbDictionaryWithDefault
  3
ObjectDBX Classes
 90
        0
280
     0
281
     0
  0
CLASS
  1
VISUALSTYLE
  2
AcDbVisualStyle
  3
ObjectDBX Classes
 90
     4095
280
     0
281
     0
  0
CLASS
  1
MATERIAL
  2
AcDbMaterial
  3
ObjectDBX Classes
 90
     1153
280
     0
281
     0
  0
CLASS
  1
SCALE
  2
AcDbScale
  3
ObjectDBX Classes
 90
     1153
280
     0
281
     0
  0
CLASS
  1
TABLESTYLE
  2
AcDbTableStyle
  3
ObjectDBX Classes
 90
     4095
280
     0
281
     0
  0
CLASS
  1
MLEADERSTYLE
  2
AcDbMLeaderStyle
  3
ACDB_MLEADERSTYLE_CLASS
 90
     4095
280
     0
281
     0
  0
CLASS
  1
SUN
  2
AcDbSun
  3
SCENEOE
 90
     1153
280
     0
281
     0
  0
CLASS
  1
ACDBPLACEHOLDER
  2
AcDbPlaceHolder
  3
ObjectDBX Classes
 90
        0
280
     0
281
     0
  0
CLASS
  1
LAYOUT
  2
AcDbLayout
  3
ObjectDBX Classes
 90
        0
280
     0
281
     0
  0
ENDSEC
  0
SECTION
  2
TABLES
  0
TABLE
  2
VPORT
  5
8
330
0
100
AcDbSymbolTable
 70
     1
  0
VPORT
  5
29
330
8
100
AcDbSymbolTableRecord
100
AcDbViewportTableRecord
  2
*Active
 70
     0
 10
0.0
 20
0.0
 11
1.0
 21
1.0
 12
4.25
 22
5.5
 13
0.0
 23
0.0
 14
0.5
 24
0.5
 15
0.5
 25
0.5
 16
0.0
 26
0.0
 36
1.0
 17
0.0
 27
0.0
 37
0.0
 40
11.0
 41
0.7727272727
 42
50.0
 43
0.0
 44
0.0
 50
0.0
 51
0.0
 71
     0
 72
  2000
 73
     1
 74
     3
 75
     0
 76
     0
 77
     0
 78
     0
281
     0
 65
     1
110
0.0
120
0.0
130
0.0
111
1.0
121
0.0
131
0.0
112
0.0
122
1.0
132
0.0
 79
     0
146
0.0
  0
ENDTAB
  0
TABLE
  2
LTYPE
  5
5
330
0
100
AcDbSymbolTable
 70
     6
  0
LTYPE
  5
14
330
5
100
AcDbSymbolTableRecord
100
AcDbLinetypeTableRecord
  2
ByBlock
 70
     0
  3

 72
    65
 73
     0
 40
0.0
  0
LTYPE
  5
15
330
5
100
AcDbSymbolTableRecord
100
AcDbLinetypeTableRecord
  2
ByLayer
 70
     0
  3

 72
    65
 73
     0
 40
0.0
  0
LTYPE
  5
16
330
5
100
AcDbSymbolTableRecord
100
AcDbLinetypeTableRecord
  2
Continuous
 70
     0
  3
Solid line
 72
    65
 73
     0
 40
0.0
  0
LTYPE
  5
6E
330
5
100
AcDbSymbolTableRecord
100
AcDbLinetypeTableRecord
  2
HIDDEN
 70
     0
  3
Hidden __ __ __ __ __ __ __ __ __ __ __ __ __ __
 72
    65
 73
     2
 40
0.075
 49
0.05
 74
     0
 49
-0.025
 74
     0
  0
LTYPE
  5
6F
330
5
100
AcDbSymbolTableRecord
100
AcDbLinetypeTableRecord
  2
PHANTOM
 70
     0
  3
Phantom ______  __  __  ______  __  __  ______
 72
    65
 73
     6
 40
0.5
 49
0.25
 74
     0
 49
-0.05
 74
     0
 49
0.05
 74
     0
 49
-0.05
 74
     0
 49
0.05
 74
     0
 49
-0.05
 74
     0
  0
LTYPE
  5
70
330
5
100
AcDbSymbolTableRecord
100
AcDbLinetypeTableRecord
  2
CENTER
 70
     0
  3
Center ____ _ ____ _ ____ _ ____ _ ____ _ ____
 72
    65
 73
     4
 40
0.4
 49
0.25
 74
     0
 49
-0.05
 74
     0
 49
0.05
 74
     0
 49
-0.05
 74
     0
  0
LTYPE
  5
71
330
5
100
AcDbSymbolTableRecord
100
AcDbLinetypeTableRecord
  2
CENTERX2
 70
     0
  3
Center (2x) ________  __  ________  __  _____
 72
    65
 73
     4
 40
0.8
 49
0.5
 74
     0
 49
-0.1
 74
     0
 49
0.1
 74
     0
 49
-0.1
 74
     0
  0
LTYPE
  5
72
330
5
100
AcDbSymbolTableRecord
100
AcDbLinetypeTableRecord
  2
DOT2
 70
     0
  3
Dot (.5x) ........................................
 72
    65
 73
     2
 40
0.025
 49
0.0
 74
     0
 49
-0.025
 74
     0
  0
ENDTAB
  0
TABLE
  2
LAYER
  5
2
330
0
100
AcDbSymbolTable
 70
     7
  0
LAYER
  5
10
330
2
100
AcDbSymbolTableRecord
100
AcDbLayerTableRecord
  2
0
 70
     0
 62
     7
  6
Continuous
370
    -3
390
F
  0
LAYER
  5
73
330
2
100
AcDbSymbolTableRecord
100
AcDbLayerTableRecord
  2
FORMAT
 70
     0
 62
     7
  6
Continuous
370
    -3
390
F
  0
LAYER
  5
74
330
2
100
AcDbSymbolTableRecord
100
AcDbLayerTableRecord
  2
DEFAULT
 70
     0
 62
   179
  6
Continuous
370
    -3
390
F
  0
LAYER
  5
75
330
2
100
AcDbSymbolTableRecord
100
AcDbLayerTableRecord
  2
INSPECTION_TAGS
 70
     0
 62
     7
  6
Continuous
370
    -3
390
F
  0
LAYER
  5
76
330
2
100
AcDbSymbolTableRecord
100
AcDbLayerTableRecord
  2
REVISIONS
 70
     0
 62
     7
  6
Continuous
370
    -3
390
F
  0
LAYER
  5
77
330
2
100
AcDbSymbolTableRecord
100
AcDbLayerTableRecord
  2
DIMENSIONS_&_ANNOTATIONS
 70
     0
 62
     7
  6
Continuous
370
    -3
390
F
  0
LAYER
  5
78
330
2
100
AcDbSymbolTableRecord
100
AcDbLayerTableRecord
  2
DIMENSION_&_ANNOTATIONS
 70
     0
 62
     7
  6
Continuous
370
    -3
390
F
  0
ENDTAB
  0
TABLE
  2
STYLE
  5
3
330
0
100
AcDbSymbolTable
 70
     2
  0
STYLE
  5
11
330
3
100
AcDbSymbolTableRecord
100
AcDbTextStyleTableRecord
  2
Standard
 70
     0
 40
0.0
 41
1.0
 50
0.0
 71
     0
 42
0.1388888889
  3
txt
  4

  0
STYLE
  5
7C
330
3
100
AcDbSymbolTableRecord
100
AcDbTextStyleTableRecord
  2
SLDTEXTSTYLE0
 70
     0
 40
0.0
 41
0.605
 50
0.0
 71
     0
 42
0.1388888889
  3
TXT
  4

  0
ENDTAB
  0
TABLE
  2
VIEW
  5
6
330
0
100
AcDbSymbolTable
 70
     0
  0
ENDTAB
  0
TABLE
  2
UCS
  5
7
330
0
100
AcDbSymbolTable
 70
     0
  0
ENDTAB
  0
TABLE
  2
APPID
  5
9
330
0
100
AcDbSymbolTable
 70
     1
  0
APPID
  5
12
330
9
100
AcDbSymbolTableRecord
100
AcDbRegAppTableRecord
  2
ACAD
 70
     0
  0
ENDTAB
  0
TABLE
  2
DIMSTYLE
  5
A
330
0
100
AcDbSymbolTable
 70
     4
100
AcDbDimStyleTable
  0
DIMSTYLE
105
27
330
A
100
AcDbSymbolTableRecord
100
AcDbDimStyleTableRecord
  2
Standard
 70
     0
178
     0
340
11
  0
DIMSTYLE
105
B2
102
{ACAD_REACTORS
330
B1
102
}
330
A
100
AcDbSymbolTableRecord
100
AcDbDimStyleTableRecord
  2
SLDDIMSTYLE0
 70
     0
 41
0.13
 44
0.0
 45
0.000000001
 78
    12
 79
     3
140
0.1011149089
147
0.0252787272
148
0.000000001
170
     1
171
     1
173
     1
178
     0
271
     6
272
     0
274
     1
276
     2
277
     5
284
    12
340
7C
  0
DIMSTYLE
105
CB
102
{ACAD_REACTORS
330
CA
102
}
330
A
100
AcDbSymbolTableRecord
100
AcDbDimStyleTableRecord
  2
SLDDIMSTYLE1
 70
     0
 41
0.13
 44
0.0
 45
0.000000001
 78
    12
 79
     3
140
0.1011149089
147
0.0252787272
148
0.000000001
170
     1
171
     1
173
     1
178
     0
271
     0
272
     0
274
     1
276
     2
277
     5
284
    12
340
7C
  0
DIMSTYLE
105
E0
102
{ACAD_REACTORS
330
DF
102
}
330
A
100
AcDbSymbolTableRecord
100
AcDbDimStyleTableRecord
  2
SLDDIMSTYLE2
 70
     0
 41
0.13
 44
0.0
 45
0.000000001
 78
    12
 79
     3
140
0.1011149089
141
0.0
143
40.3
147
0.0252787272
148
0.000000001
170
     1
171
     1
173
     1
178
     0
271
     0
272
     0
274
     1
276
     2
277
     5
284
    12
340
7C
  0
ENDTAB
  0
TABLE
  2
BLOCK_RECORD
  5
1
330
0
100
AcDbSymbolTable
 70
     9
  0
BLOCK_RECORD
  5
1F
330
1
100
AcDbSymbolTableRecord
100
AcDbBlockTableRecord
  2
*Model_Space
340
22
  0
BLOCK_RECORD
  5
1B
330
1
100
AcDbSymbolTableRecord
100
AcDbBlockTableRecord
  2
*Paper_Space
340
1E
  0
BLOCK_RECORD
  5
23
330
1
100
AcDbSymbolTableRecord
100
AcDbBlockTableRecord
  2
*Paper_Space0
340
26
  0
BLOCK_RECORD
  5
79
330
1
100
AcDbSymbolTableRecord
100
AcDbBlockTableRecord
  2
SW_NOTE_0
340
0
102
{BLKREFS
331
81
102
}
  0
BLOCK_RECORD
  5
B3
330
1
100
AcDbSymbolTableRecord
100
AcDbBlockTableRecord
  2
_D
340
0
  0
BLOCK_RECORD
  5
CC
330
1
100
AcDbSymbolTableRecord
100
AcDbBlockTableRecord
  2
_D_1
340
0
  0
BLOCK_RECORD
  5
E1
330
1
100
AcDbSymbolTableRecord
100
AcDbBlockTableRecord
  2
_D_2
340
0
  0
BLOCK_RECORD
  5
F6
330
1
100
AcDbSymbolTableRecord
100
AcDbBlockTableRecord
  2
SW_CENTERMARKSYMBOL_12
340
0
102
{BLKREFS
331
101
102
}
  0
BLOCK_RECORD
  5
102
330
1
100
AcDbSymbolTableRecord
100
AcDbBlockTableRecord
  2
SW_CENTERMARKSYMBOL_13
340
0
102
{BLKREFS
331
10D
102
}
  0
BLOCK_RECORD
  5
10E
330
1
100
AcDbSymbolTableRecord
100
AcDbBlockTableRecord
  2
SW_CENTERMARKSYMBOL_14
340
0
102
{BLKREFS
331
119
102
}
  0
BLOCK_RECORD
  5
11A
330
1
100
AcDbSymbolTableRecord
100
AcDbBlockTableRecord
  2
SW_CENTERMARKSYMBOL_15
340
0
102
{BLKREFS
331
125
102
}
  0
ENDTAB
  0
ENDSEC
  0
SECTION
  2
BLOCKS
  0
BLOCK
  5
20
330
1F
100
AcDbEntity
  8
0
100
AcDbBlockBegin
  2
*Model_Space
 70
     0
 10
0.0
 20
0.0
 30
0.0
  3
*Model_Space
  1

  0
ENDBLK
  5
21
330
1F
100
AcDbEntity
  8
0
100
AcDbBlockEnd
  0
BLOCK
  5
1C
330
1B
100
AcDbEntity
 67
     1
  8
0
100
AcDbBlockBegin
  2
*Paper_Space
 70
     0
 10
0.0
 20
0.0
 30
0.0
  3
*Paper_Space
  1

  0
ENDBLK
  5
1D
330
1B
100
AcDbEntity
 67
     1
  8
0
100
AcDbBlockEnd
  0
BLOCK
  5
24
330
23
100
AcDbEntity
  8
0
100
AcDbBlockBegin
  2
*Paper_Space0
 70
     0
 10
0.0
 20
0.0
 30
0.0
  3
*Paper_Space0
  1

  0
ENDBLK
  5
25
330
23
100
AcDbEntity
  8
0
100
AcDbBlockEnd
  0
BLOCK
  5
7A
330
79
100
AcDbEntity
  8
0
100
AcDbBlockBegin
  2
SW_NOTE_0
 70
     0
 10
0.0
 20
0.0
 30
0.0
  3
SW_NOTE_0
  1

  0
MTEXT
  5
7D
330
79
100
AcDbEntity
  8
DEFAULT
 62
     0
100
AcDbMText
 10
0.3850911458
 20
0.1879890454
 30
0.0
 40
0.1458333333
 41
0.0
 71
     2
 72
     1
  1
Legrand
  7
SLDTEXTSTYLE0
 73
     1
 44
1.0
  0
MTEXT
  5
7E
330
79
100
AcDbEntity
  8
DEFAULT
 62
     0
100
AcDbMText
 10
0.4129879835
 20
-0.0055331972
 30
0.0
 40
0.125
 41
0.0
 71
     2
 72
     1
  1
SYSTEM: Wiremold® Resource RFB® Series Floor Boxes
  7
SLDTEXTSTYLE0
 73
     1
 44
1.0
  0
MTEXT
  5
7F
330
79
100
AcDbEntity
  8
DEFAULT
 62
     0
100
AcDbMText
 10
0.3961468804
 20
-0.1721998618
 30
0.0
 40
0.125
 41
0.0
 71
     2
 72
     1
  1
Catalog Number RFBAS2_R0
  7
SLDTEXTSTYLE0
 73
     1
 44
1.0
  0
MTEXT
  5
80
330
79
100
AcDbEntity
  8
DEFAULT
 62
     0
100
AcDbMText
 10
0.3886959733
 20
-0.3388665265
 30
0.0
 40
0.125
 41
0.0
 71
     2
 72
     1
  1
06/18/2020
  7
SLDTEXTSTYLE0
 73
     1
 44
1.0
  0
ENDBLK
  5
7B
330
79
100
AcDbEntity
  8
0
100
AcDbBlockEnd
  0
BLOCK
  5
B4
330
B3
100
AcDbEntity
  8
0
100
AcDbBlockBegin
  2
_D
 70
     0
 10
0.0
 20
0.0
 30
0.0
  3
_D
  1

  0
SOLID
  5
B6
330
B3
100
AcDbEntity
  8
DEFAULT
 62
     7
100
AcDbTrace
 10
7.2942040211
 20
5.7157014218
 30
0.0
 11
7.2742040211
 21
5.5857014218
 31
0.0
 12
7.3142040211
 22
5.5857014218
 32
0.0
 13
7.3142040211
 23
5.5857014218
 33
0.0
  0
SOLID
  5
B7
330
B3
100
AcDbEntity
  8
DEFAULT
 62
     7
100
AcDbTrace
 10
7.2942040211
 20
3.4657014218
 30
0.0
 11
7.3142040211
 21
3.5957014218
 31
0.0
 12
7.2742040211
 22
3.5957014218
 32
0.0
 13
7.2742040211
 23
3.5957014218
 33
0.0
  0
LINE
  5
B8
330
B3
100
AcDbEntity
  8
DEFAULT
 62
     7
100
AcDbLine
 10
7.2547557451
 20
4.7018221954
 30
0.0
 11
7.3614301295
 21
4.7018221954
 31
0.0
  0
LINE
  5
B9
330
B3
100
AcDbEntity
  8
DEFAULT
 62
     7
100
AcDbLine
 10
7.043432438
 20
4.5279795964
 30
0.0
 11
7.0087102162
 21
4.5279795964
 31
0.0
  0
LINE
  5
BA
330
B3
100
AcDbEntity
  8
DEFAULT
 62
     7
100
AcDbLine
 10
7.0087102162
 20
4.5279795964
 30
0.0
 11
7.0087102162
 21
4.3726940969
 31
0.0
  0
LINE
  5
BB
330
B3
100
AcDbEntity
  8
DEFAULT
 62
     7
100
AcDbLine
 10
7.0087102162
 20
4.3726940969
 30
0.0
 11
7.043432438
 21
4.3726940969
 31
0.0
  0
LINE
  5
BC
330
B3
100
AcDbEntity
  8
DEFAULT
 62
     7
100
AcDbLine
 10
7.5449756775
 20
4.5279795964
 30
0.0
 11
7.5796978993
 21
4.5279795964
 31
0.0
  0
LINE
  5
BD
330
B3
100
AcDbEntity
  8
DEFAULT
 62
     7
100
AcDbLine
 10
7.5796978993
 20
4.5279795964
 30
0.0
 11
7.5796978993
 21
4.3726940969
 31
0.0
  0
LINE
  5
BE
330
B3
100
AcDbEntity
  8
DEFAULT
 62
     7
100
AcDbLine
 10
7.5796978993
 20
4.3726940969
 30
0.0
 11
7.5449756775
 21
4.3726940969
 31
0.0
  0
LINE
  5
BF
330
B3
100
AcDbEntity
  8
DEFAULT
 62
     7
100
AcDbLine
 10
6.2830829384
 20
5.7157014218
 30
0.0
 11
7.4192040211
 21
5.7157014218
 31
0.0
  0
LINE
  5
C0
330
B3
100
AcDbEntity
  8
DEFAULT
 62
     7
100
AcDbLine
 10
6.6370829384
 20
3.4657014218
 30
0.0
 11
7.4192040211
 21
3.4657014218
 31
0.0
  0
LINE
  5
C1
330
B3
100
AcDbEntity
  8
DEFAULT
 62
     7
100
AcDbLine
 10
7.2942040211
 20
5.7157014218
 30
0.0
 11
7.2942040211
 21
4.831856916
 31
0.0
  0
LINE
  5
C2
330
B3
100
AcDbEntity
  8
DEFAULT
 62
     7
100
AcDbLine
 10
7.2942040211
 20
3.4657014218
 30
0.0
 11
7.2942040211
 21
4.3495459276
 31
0.0
  0
MTEXT
  5
C3
330
B3
100
AcDbEntity
  8
DEFAULT
 62
     7
100
AcDbMText
 10
6.9744702459
 20
4.7562799425
 30
0.0
 40
0.1041666667
 41
0.0
 71
     1
 72
     1
  1

  7
SLDTEXTSTYLE0
 73
     1
 44
1.0
  0
MTEXT
  5
C4
330
B3
100
AcDbEntity
  8
DEFAULT
 62
     7
100
AcDbMText
 10
7.1628383045
 20
4.7562799425
 30
0.0
 40
0.1041666667
 41
0.0
 71
     1
 72
     1
  1
2
  7
SLDTEXTSTYLE0
 73
     1
 44
1.0
  0
MTEXT
  5
C5
330
B3
100
AcDbEntity
  8
DEFAULT
 62
     7
100
AcDbMText
 10
7.2695126888
 20
4.827245916
 30
0.0
 40
0.1041666667
 41
0.0
 71
     1
 72
     1
  1
1
  7
SLDTEXTSTYLE0
 73
     1
 44
1.0
  0
MTEXT
  5
C6
330
B3
100
AcDbEntity
  8
DEFAULT
 62
     7
100
AcDbMText
 10
7.2695126888
 20
4.68540564
 30
0.0
 40
0.1041666667
 41
0.0
 71
     1
 72
     1
  1
4
  7
SLDTEXTSTYLE0
 73
     1
 44
1.0
  0
MTEXT
  5
C7
330
B3
100
AcDbEntity
  8
DEFAULT
 62
     7
100
AcDbMText
 10
7.3761870732
 20
4.7562799425
 30
0.0
 40
0.1041666667
 41
0.0
 71
     1
 72
     1
  1
"
  7
SLDTEXTSTYLE0
 73
     1
 44
1.0
  0
MTEXT
  5
C8
330
B3
100
AcDbEntity
  8
DEFAULT
 62
     7
100
AcDbMText
 10
7.043432438
 20
4.5069719933
 30
0.0
 40
0.1041666667
 41
0.0
 71
     1
 72
     1
  1
57.2mm
  7
SLDTEXTSTYLE0
 73
     1
 44
1.0
  0
MTEXT
  5
C9
330
B3
100
AcDbEntity
  8
DEFAULT
 62
     7
100
AcDbMText
 10
7.6534825753
 20
4.7562799425
 30
0.0
 40
0.1041666667
 41
0.0
 71
     1
 72
     1
  1

  7
SLDTEXTSTYLE0
 73
     1
 44
1.0
  0
ENDBLK
  5
B5
330
B3
100
AcDbEntity
  8
0
100
AcDbBlockEnd
  0
BLOCK
  5
CD
330
CC
100
AcDbEntity
  8
0
100
AcDbBlockBegin
  2
_D_1
 70
     0
 10
0.0
 20
0.0
 30
0.0
  3
_D_1
  1

  0
SOLID
  5
CF
330
CC
100
AcDbEntity
  8
DEFAULT
 62
     7
100
AcDbTrace
 10
1.8570829384
 20
2.835780162
 30
0.0
 11
1.9870829384
 21
2.815780162
 31
0.0
 12
1.9870829384
 22
2.855780162
 32
0.0
 13
1.9870829384
 23
2.855780162
 33
0.0
  0
SOLID
  5
D0
330
CC
100
AcDbEntity
  8
DEFAULT
 62
     7
100
AcDbTrace
 10
6.5870829384
 20
2.835780162
 30
0.0
 11
6.4570829384
 21
2.855780162
 31
0.0
 12
6.4570829384
 22
2.815780162
 32
0.0
 13
6.4570829384
 23
2.815780162
 33
0.0
  0
LINE
  5
D1
330
CC
100
AcDbEntity
  8
DEFAULT
 62
     7
100
AcDbLine
 10
3.9327311343
 20
2.8357801711
 30
0.0
 11
3.8980089125
 21
2.8357801711
 31
0.0
  0
LINE
  5
D2
330
CC
100
AcDbEntity
  8
DEFAULT
 62
     7
100
AcDbLine
 10
3.8980089125
 20
2.8357801711
 30
0.0
 11
3.8980089125
 21
2.6804946717
 31
0.0
  0
LINE
  5
D3
330
CC
100
AcDbEntity
  8
DEFAULT
 62
     7
100
AcDbLine
 10
3.8980089125
 20
2.6804946717
 30
0.0
 11
3.9327311343
 21
2.6804946717
 31
0.0
  0
LINE
  5
D4
330
CC
100
AcDbEntity
  8
DEFAULT
 62
     7
100
AcDbLine
 10
4.5114348158
 20
2.8357801711
 30
0.0
 11
4.5461570376
 21
2.8357801711
 31
0.0
  0
LINE
  5
D5
330
CC
100
AcDbEntity
  8
DEFAULT
 62
     7
100
AcDbLine
 10
4.5461570376
 20
2.8357801711
 30
0.0
 11
4.5461570376
 21
2.6804946717
 31
0.0
  0
LINE
  5
D6
330
CC
100
AcDbEntity
  8
DEFAULT
 62
     7
100
AcDbLine
 10
4.5461570376
 20
2.6804946717
 30
0.0
 11
4.5114348158
 21
2.6804946717
 31
0.0
  0
LINE
  5
D7
330
CC
100
AcDbEntity
  8
DEFAULT
 62
     7
100
AcDbLine
 10
1.8570829384
 20
4.1957014218
 30
0.0
 11
1.8570829384
 21
2.710780162
 31
0.0
  0
LINE
  5
D8
330
CC
100
AcDbEntity
  8
DEFAULT
 62
     7
100
AcDbLine
 10
6.5870829384
 20
3.4157014218
 30
0.0
 11
6.5870829384
 21
2.710780162
 31
0.0
  0
LINE
  5
D9
330
CC
100
AcDbEntity
  8
DEFAULT
 62
     7
100
AcDbLine
 10
1.8570829384
 20
2.835780162
 30
0.0
 11
3.8014422242
 21
2.835780162
 31
0.0
  0
LINE
  5
DA
330
CC
100
AcDbEntity
  8
DEFAULT
 62
     7
100
AcDbLine
 10
6.5870829384
 20
2.835780162
 30
0.0
 11
4.6427236525
 21
2.835780162
 31
0.0
  0
MTEXT
  5
DB
330
CC
100
AcDbEntity
  8
DEFAULT
 62
     7
100
AcDbMText
 10
3.8637689422
 20
2.9932062093
 30
0.0
 40
0.1041666667
 41
0.0
 71
     1
 72
     1
  1

  7
SLDTEXTSTYLE0
 73
     1
 44
1.0
  0
MTEXT
  5
DC
330
CC
100
AcDbEntity
  8
DEFAULT
 62
     7
100
AcDbMText
 10
4.1294903714
 20
2.9932062093
 30
0.0
 40
0.1041666667
 41
0.0
 71
     1
 72
     1
  1
5in
  7
SLDTEXTSTYLE0
 73
     1
 44
1.0
  0
MTEXT
  5
DD
330
CC
100
AcDbEntity
  8
DEFAULT
 62
     7
100
AcDbMText
 10
3.9327311343
 20
2.8147725681
 30
0.0
 40
0.1041666667
 41
0.0
 71
     1
 72
     1
  1
120.1mm
  7
SLDTEXTSTYLE0
 73
     1
 44
1.0
  0
MTEXT
  5
DE
330
CC
100
AcDbEntity
  8
DEFAULT
 62
     7
100
AcDbMText
 10
4.6199417135
 20
2.9932062093
 30
0.0
 40
0.1041666667
 41
0.0
 71
     1
 72
     1
  1

  7
SLDTEXTSTYLE0
 73
     1
 44
1.0
  0
ENDBLK
  5
CE
330
CC
100
AcDbEntity
  8
0
100
AcDbBlockEnd
  0
BLOCK
  5
E2
330
E1
100
AcDbEntity
  8
0
100
AcDbBlockBegin
  2
_D_2
 70
     0
 10
0.0
 20
0.0
 30
0.0
  3
_D_2
  1

  0
SOLID
  5
E4
330
E1
100
AcDbEntity
  8
DEFAULT
 62
     7
100
AcDbTrace
 10
4.7935829384
 20
3.8414432766
 30
0.0
 11
4.7459034465
 21
3.9640265791
 31
0.0
 12
4.7112624303
 22
3.9440265791
 32
0.0
 13
4.7112624303
 23
3.9440265791
 33
0.0
  0
SOLID
  5
E5
330
E1
100
AcDbEntity
  8
DEFAULT
 62
     7
100
AcDbTrace
 10
4.0005829384
 20
5.214959567
 30
0.0
 11
4.0482624303
 21
5.0923762645
 31
0.0
 12
4.0829034465
 22
5.1123762645
 32
0.0
 13
4.0829034465
 23
5.1123762645
 33
0.0
  0
LINE
  5
E6
330
E1
100
AcDbEntity
  8
DEFAULT
 62
     7
100
AcDbLine
 10
2.7633447822
 20
6.4740042195
 30
0.0
 11
2.9471796635
 21
6.4740042195
 31
0.0
  0
LINE
  5
E7
330
E1
100
AcDbEntity
  8
DEFAULT
 62
     7
100
AcDbLine
 10
2.5168411131
 20
6.3001616205
 30
0.0
 11
2.4821188913
 21
6.3001616205
 31
0.0
  0
LINE
  5
E8
330
E1
100
AcDbEntity
  8
DEFAULT
 62
     7
100
AcDbLine
 10
2.4821188913
 20
6.3001616205
 30
0.0
 11
2.4821188913
 21
6.144876121
 31
0.0
  0
LINE
  5
E9
330
E1
100
AcDbEntity
  8
DEFAULT
 62
     7
100
AcDbLine
 10
2.4821188913
 20
6.144876121
 30
0.0
 11
2.5168411131
 21
6.144876121
 31
0.0
  0
LINE
  5
EA
330
E1
100
AcDbEntity
  8
DEFAULT
 62
     7
100
AcDbLine
 10
3.0183843526
 20
6.3001616205
 30
0.0
 11
3.0531065744
 21
6.3001616205
 31
0.0
  0
LINE
  5
EB
330
E1
100
AcDbEntity
  8
DEFAULT
 62
     7
100
AcDbLine
 10
3.0531065744
 20
6.3001616205
 30
0.0
 11
3.0531065744
 21
6.144876121
 31
0.0
  0
LINE
  5
EC
330
E1
100
AcDbEntity
  8
DEFAULT
 62
     7
100
AcDbLine
 10
3.0531065744
 20
6.144876121
 30
0.0
 11
3.0183843526
 21
6.144876121
 31
0.0
  0
LINE
  5
ED
330
E1
100
AcDbEntity
  8
DEFAULT
 62
     7
100
AcDbLine
 10
4.0005829384
 20
5.214959567
 30
0.0
 11
3.3378287779
 21
6.3628834459
 31
0.0
  0
LINE
  5
EE
330
E1
100
AcDbEntity
  8
DEFAULT
 62
     7
100
AcDbLine
 10
4.7935829384
 20
3.8414432766
 30
0.0
 11
4.0005829384
 21
5.214959567
 31
0.0
  0
LINE
  5
EF
330
E1
100
AcDbEntity
  8
DEFAULT
 62
     7
100
AcDbLine
 10
3.3378287779
 20
6.3628834459
 30
0.0
 11
3.0878287779
 21
6.3628834459
 31
0.0
  0
MTEXT
  5
F0
330
E1
100
AcDbEntity
  8
DEFAULT
 62
     7
100
AcDbMText
 10
2.5239061207
 20
6.5284619666
 30
0.0
 40
0.1041666667
 41
0.0
 71
     1
 72
     1
  1
%%c
  7
SLDTEXTSTYLE0
 73
     1
 44
1.0
  0
MTEXT
  5
F1
330
E1
100
AcDbEntity
  8
DEFAULT
 62
     7
100
AcDbMText
 10
2.6714273415
 20
6.5284619666
 30
0.0
 40
0.1041666667
 41
0.0
 71
     1
 72
     1
  1
1
  7
SLDTEXTSTYLE0
 73
     1
 44
1.0
  0
MTEXT
  5
F2
330
E1
100
AcDbEntity
  8
DEFAULT
 62
     7
100
AcDbMText
 10
2.7781017259
 20
6.5994279401
 30
0.0
 40
0.1041666667
 41
0.0
 71
     1
 72
     1
  1
19
  7
SLDTEXTSTYLE0
 73
     1
 44
1.0
  0
MTEXT
  5
F3
330
E1
100
AcDbEntity
  8
DEFAULT
 62
     7
100
AcDbMText
 10
2.7781017259
 20
6.4575876641
 30
0.0
 40
0.1041666667
 41
0.0
 71
     1
 72
     1
  1
32
  7
SLDTEXTSTYLE0
 73
     1
 44
1.0
  0
MTEXT
  5
F4
330
E1
100
AcDbEntity
  8
DEFAULT
 62
     7
100
AcDbMText
 10
2.9619366072
 20
6.5284619666
 30
0.0
 40
0.1041666667
 41
0.0
 71
     1
 72
     1
  1
"
  7
SLDTEXTSTYLE0
 73
     1
 44
1.0
  0
MTEXT
  5
F5
330
E1
100
AcDbEntity
  8
DEFAULT
 62
     7
100
AcDbMText
 10
2.5168411131
 20
6.2791540175
 30
0.0
 40
0.1041666667
 41
0.0
 71
     1
 72
     1
  1
40.3mm
  7
SLDTEXTSTYLE0
 73
     1
 44
1.0
  0
ENDBLK
  5
E3
330
E1
100
AcDbEntity
  8
0
100
AcDbBlockEnd
  0
BLOCK
  5
F7
330
F6
100
AcDbEntity
  8
0
100
AcDbBlockBegin
  2
SW_CENTERMARKSYMBOL_12
 70
     0
 10
0.0
 20
0.0
 30
0.0
  3
SW_CENTERMARKSYMBOL_12
  1

  0
LINE
  5
F9
330
F6
100
AcDbEntity
  8
DEFAULT
 62
     0
100
AcDbLine
 10
0.0
 20
0.0
 30
0.0
 11
0.0
 21
0.1
 31
0.0
  0
LINE
  5
FA
330
F6
100
AcDbEntity
  8
DEFAULT
 62
     0
100
AcDbLine
 10
0.0
 20
0.0
 30
0.0
 11
-0.1
 21
0.0
 31
0.0
  0
LINE
  5
FB
330
F6
100
AcDbEntity
  8
DEFAULT
 62
     0
100
AcDbLine
 10
0.0
 20
0.0
 30
0.0
 11
0.0
 21
-0.1
 31
0.0
  0
LINE
  5
FC
330
F6
100
AcDbEntity
  8
DEFAULT
 62
     0
100
AcDbLine
 10
0.0
 20
0.0
 30
0.0
 11
0.1
 21
0.0
 31
0.0
  0
LINE
  5
FD
330
F6
100
AcDbEntity
  8
DEFAULT
 62
     0
100
AcDbLine
 10
0.0
 20
0.1
 30
0.0
 11
0.0
 21
0.15325
 31
0.0
  0
LINE
  5
FE
330
F6
100
AcDbEntity
  8
DEFAULT
 62
     0
100
AcDbLine
 10
-0.1
 20
0.0
 30
0.0
 11
-0.15325
 21
0.0
 31
0.0
  0
LINE
  5
FF
330
F6
100
AcDbEntity
  8
DEFAULT
 62
     0
100
AcDbLine
 10
0.0
 20
-0.1
 30
0.0
 11
0.0
 21
-0.15325
 31
0.0
  0
LINE
  5
100
330
F6
100
AcDbEntity
  8
DEFAULT
 62
     0
100
AcDbLine
 10
0.1
 20
0.0
 30
0.0
 11
0.15325
 21
0.0
 31
0.0
  0
ENDBLK
  5
F8
330
F6
100
AcDbEntity
  8
0
100
AcDbBlockEnd
  0
BLOCK
  5
103
330
102
100
AcDbEntity
  8
0
100
AcDbBlockBegin
  2
SW_CENTERMARKSYMBOL_13
 70
     0
 10
0.0
 20
0.0
 30
0.0
  3
SW_CENTERMARKSYMBOL_13
  1

  0
LINE
  5
105
330
102
100
AcDbEntity
  8
DEFAULT
 62
     0
100
AcDbLine
 10
0.0
 20
0.0
 30
0.0
 11
0.0
 21
0.1
 31
0.0
  0
LINE
  5
106
330
102
100
AcDbEntity
  8
DEFAULT
 62
     0
100
AcDbLine
 10
0.0
 20
0.0
 30
0.0
 11
-0.1
 21
0.0
 31
0.0
  0
LINE
  5
107
330
102
100
AcDbEntity
  8
DEFAULT
 62
     0
100
AcDbLine
 10
0.0
 20
0.0
 30
0.0
 11
0.0
 21
-0.1
 31
0.0
  0
LINE
  5
108
330
102
100
AcDbEntity
  8
DEFAULT
 62
     0
100
AcDbLine
 10
0.0
 20
0.0
 30
0.0
 11
0.1
 21
0.0
 31
0.0
  0
LINE
  5
109
330
102
100
AcDbEntity
  8
DEFAULT
 62
     0
100
AcDbLine
 10
0.0
 20
0.2
 30
0.0
 11
0.0
 21
0.893
 31
0.0
  0
LINE
  5
10A
330
102
100
AcDbEntity
  8
DEFAULT
 62
     0
100
AcDbLine
 10
-0.2
 20
0.0
 30
0.0
 11
-0.893
 21
0.0
 31
0.0
  0
LINE
  5
10B
330
102
100
AcDbEntity
  8
DEFAULT
 62
     0
100
AcDbLine
 10
0.0
 20
-0.2
 30
0.0
 11
0.0
 21
-0.893
 31
0.0
  0
LINE
  5
10C
330
102
100
AcDbEntity
  8
DEFAULT
 62
     0
100
AcDbLine
 10
0.2
 20
0.0
 30
0.0
 11
0.893
 21
0.0
 31
0.0
  0
ENDBLK
  5
104
330
102
100
AcDbEntity
  8
0
100
AcDbBlockEnd
  0
BLOCK
  5
10F
330
10E
100
AcDbEntity
  8
0
100
AcDbBlockBegin
  2
SW_CENTERMARKSYMBOL_14
 70
     0
 10
0.0
 20
0.0
 30
0.0
  3
SW_CENTERMARKSYMBOL_14
  1

  0
LINE
  5
111
330
10E
100
AcDbEntity
  8
DEFAULT
 62
     0
100
AcDbLine
 10
0.0
 20
0.0
 30
0.0
 11
0.0
 21
0.1
 31
0.0
  0
LINE
  5
112
330
10E
100
AcDbEntity
  8
DEFAULT
 62
     0
100
AcDbLine
 10
0.0
 20
0.0
 30
0.0
 11
-0.1
 21
0.0
 31
0.0
  0
LINE
  5
113
330
10E
100
AcDbEntity
  8
DEFAULT
 62
     0
100
AcDbLine
 10
0.0
 20
0.0
 30
0.0
 11
0.0
 21
-0.1
 31
0.0
  0
LINE
  5
114
330
10E
100
AcDbEntity
  8
DEFAULT
 62
     0
100
AcDbLine
 10
0.0
 20
0.0
 30
0.0
 11
0.1
 21
0.0
 31
0.0
  0
LINE
  5
115
330
10E
100
AcDbEntity
  8
DEFAULT
 62
     0
100
AcDbLine
 10
0.0
 20
0.1
 30
0.0
 11
0.0
 21
0.178
 31
0.0
  0
LINE
  5
116
330
10E
100
AcDbEntity
  8
DEFAULT
 62
     0
100
AcDbLine
 10
-0.1
 20
0.0
 30
0.0
 11
-0.178
 21
0.0
 31
0.0
  0
LINE
  5
117
330
10E
100
AcDbEntity
  8
DEFAULT
 62
     0
100
AcDbLine
 10
0.0
 20
-0.1
 30
0.0
 11
0.0
 21
-0.178
 31
0.0
  0
LINE
  5
118
330
10E
100
AcDbEntity
  8
DEFAULT
 62
     0
100
AcDbLine
 10
0.1
 20
0.0
 30
0.0
 11
0.178
 21
0.0
 31
0.0
  0
ENDBLK
  5
110
330
10E
100
AcDbEntity
  8
0
100
AcDbBlockEnd
  0
BLOCK
  5
11B
330
11A
100
AcDbEntity
  8
0
100
AcDbBlockBegin
  2
SW_CENTERMARKSYMBOL_15
 70
     0
 10
0.0
 20
0.0
 30
0.0
  3
SW_CENTERMARKSYMBOL_15
  1

  0
LINE
  5
11D
330
11A
100
AcDbEntity
  8
DEFAULT
 62
     0
100
AcDbLine
 10
0.0
 20
0.0
 30
0.0
 11
0.0
 21
0.1
 31
0.0
  0
LINE
  5
11E
330
11A
100
AcDbEntity
  8
DEFAULT
 62
     0
100
AcDbLine
 10
0.0
 20
0.0
 30
0.0
 11
-0.1
 21
0.0
 31
0.0
  0
LINE
  5
11F
330
11A
100
AcDbEntity
  8
DEFAULT
 62
     0
100
AcDbLine
 10
0.0
 20
0.0
 30
0.0
 11
0.0
 21
-0.1
 31
0.0
  0
LINE
  5
120
330
11A
100
AcDbEntity
  8
DEFAULT
 62
     0
100
AcDbLine
 10
0.0
 20
0.0
 30
0.0
 11
0.1
 21
0.0
 31
0.0
  0
LINE
  5
121
330
11A
100
AcDbEntity
  8
DEFAULT
 62
     0
100
AcDbLine
 10
0.0
 20
0.1
 30
0.0
 11
0.0
 21
0.178
 31
0.0
  0
LINE
  5
122
330
11A
100
AcDbEntity
  8
DEFAULT
 62
     0
100
AcDbLine
 10
-0.1
 20
0.0
 30
0.0
 11
-0.178
 21
0.0
 31
0.0
  0
LINE
  5
123
330
11A
100
AcDbEntity
  8
DEFAULT
 62
     0
100
AcDbLine
 10
0.0
 20
-0.1
 30
0.0
 11
0.0
 21
-0.178
 31
0.0
  0
LINE
  5
124
330
11A
100
AcDbEntity
  8
DEFAULT
 62
     0
100
AcDbLine
 10
0.1
 20
0.0
 30
0.0
 11
0.178
 21
0.0
 31
0.0
  0
ENDBLK
  5
11C
330
11A
100
AcDbEntity
  8
0
100
AcDbBlockEnd
  0
ENDSEC
  0
SECTION
  2
ENTITIES
  0
INSERT
  5
81
330
1F
100
AcDbEntity
  8
DEFAULT
 62
     7
100
AcDbBlockReference
  2
SW_NOTE_0
 10
3.7136331998
 20
1.4636361266
 30
0.0
  0
LINE
  5
82
330
1F
100
AcDbEntity
  8
0
  6
Continuous
 62
     7
370
    25
100
AcDbLine
 10
6.2330828754
 20
5.7157014304
 30
0.0
 11
4.6470829354
 21
5.7157014304
 31
0.0
  0
LINE
  5
83
330
1F
100
AcDbEntity
  8
0
  6
Continuous
 62
     7
370
    25
100
AcDbLine
 10
6.2630829022
 20
5.6857014036
 30
0.0
 11
6.2330828754
 21
5.7157014304
 31
0.0
  0
LINE
  5
84
330
1F
100
AcDbEntity
  8
0
  6
Continuous
 62
     7
370
    25
100
AcDbLine
 10
6.2630829022
 20
5.2877014347
 30
0.0
 11
6.2630829022
 21
5.6857014036
 31
0.0
  0
LINE
  5
85
330
1F
100
AcDbEntity
  8
0
  6
Continuous
 62
     7
370
    25
100
AcDbLine
 10
6.587082986
 20
5.2877014347
 30
0.0
 11
6.2630829022
 21
5.2877014347
 31
0.0
  0
LINE
  5
86
330
1F
100
AcDbEntity
  8
0
  6
Continuous
 62
     7
370
    25
100
AcDbLine
 10
6.587082986
 20
5.100201414
 30
0.0
 11
6.587082986
 21
5.2877014347
 31
0.0
  0
LINE
  5
87
330
1F
100
AcDbEntity
  8
0
  6
Continuous
 62
     7
370
    25
100
AcDbLine
 10
6.5170828746
 20
5.100201414
 30
0.0
 11
6.587082986
 21
5.100201414
 31
0.0
  0
LINE
  5
88
330
1F
100
AcDbEntity
  8
0
  6
Continuous
 62
     7
370
    25
100
AcDbLine
 10
6.5170828746
 20
4.7157014241
 30
0.0
 11
6.5170828746
 21
5.100201414
 31
0.0
  0
LINE
  5
89
330
1F
100
AcDbEntity
  8
0
  6
Continuous
 62
     7
370
    25
100
AcDbLine
 10
6.587082986
 20
4.7157014241
 30
0.0
 11
6.5170828746
 21
4.7157014241
 31
0.0
  0
LINE
  5
8A
330
1F
100
AcDbEntity
  8
0
  6
Continuous
 62
     7
370
    25
100
AcDbLine
 10
6.587082986
 20
4.3407014195
 30
0.0
 11
6.587082986
 21
4.7157014241
 31
0.0
  0
LINE
  5
8B
330
1F
100
AcDbEntity
  8
0
  6
Continuous
 62
     7
370
    25
100
AcDbLine
 10
6.5170828746
 20
4.3407014195
 30
0.0
 11
6.587082986
 21
4.3407014195
 31
0.0
  0
LINE
  5
8C
330
1F
100
AcDbEntity
  8
0
  6
Continuous
 62
     7
370
    25
100
AcDbLine
 10
6.5170828746
 20
3.6532014232
 30
0.0
 11
6.5170828746
 21
4.3407014195
 31
0.0
  0
LINE
  5
8D
330
1F
100
AcDbEntity
  8
0
  6
Continuous
 62
     7
370
    25
100
AcDbLine
 10
6.587082986
 20
3.6532014232
 30
0.0
 11
6.5170828746
 21
3.6532014232
 31
0.0
  0
LINE
  5
8E
330
1F
100
AcDbEntity
  8
0
  6
Continuous
 62
     7
370
    25
100
AcDbLine
 10
6.587082986
 20
3.4657014026
 30
0.0
 11
6.587082986
 21
3.6532014232
 31
0.0
  0
LINE
  5
8F
330
1F
100
AcDbEntity
  8
0
  6
Continuous
 62
     7
370
    25
100
AcDbLine
 10
6.0270829752
 20
3.4657014026
 30
0.0
 11
6.587082986
 21
3.4657014026
 31
0.0
  0
LINE
  5
90
330
1F
100
AcDbEntity
  8
0
  6
Continuous
 62
     7
370
    25
100
AcDbLine
 10
6.0270829752
 20
3.5557014095
 30
0.0
 11
6.0270829752
 21
3.4657014026
 31
0.0
  0
LINE
  5
91
330
1F
100
AcDbEntity
  8
0
  6
Continuous
 62
     7
370
    25
100
AcDbLine
 10
5.7670829387
 20
3.5557014095
 30
0.0
 11
6.0270829752
 21
3.5557014095
 31
0.0
  0
LINE
  5
92
330
1F
100
AcDbEntity
  8
0
  6
Continuous
 62
     7
370
    25
100
AcDbLine
 10
5.7670829387
 20
3.4657014026
 30
0.0
 11
5.7670829387
 21
3.5557014095
 31
0.0
  0
LINE
  5
93
330
1F
100
AcDbEntity
  8
0
  6
Continuous
 62
     7
370
    25
100
AcDbLine
 10
3.0270829381
 20
3.4657014026
 30
0.0
 11
5.7670829387
 21
3.4657014026
 31
0.0
  0
LINE
  5
94
330
1F
100
AcDbEntity
  8
0
  6
Continuous
 62
     7
370
    25
100
AcDbLine
 10
3.0270829381
 20
3.5557014095
 30
0.0
 11
3.0270829381
 21
3.4657014026
 31
0.0
  0
LINE
  5
95
330
1F
100
AcDbEntity
  8
0
  6
Continuous
 62
     7
370
    25
100
AcDbLine
 10
2.7670829016
 20
3.5557014095
 30
0.0
 11
3.0270829381
 21
3.5557014095
 31
0.0
  0
LINE
  5
96
330
1F
100
AcDbEntity
  8
0
  6
Continuous
 62
     7
370
    25
100
AcDbLine
 10
2.7670829016
 20
3.4657014026
 30
0.0
 11
2.7670829016
 21
3.5557014095
 31
0.0
  0
LINE
  5
97
330
1F
100
AcDbEntity
  8
0
  6
Continuous
 62
     7
370
    25
100
AcDbLine
 10
2.0070829079
 20
3.4657014026
 30
0.0
 11
2.7670829016
 21
3.4657014026
 31
0.0
  0
LINE
  5
98
330
1F
100
AcDbEntity
  8
0
  6
Continuous
 62
     7
370
    25
100
AcDbLine
 10
1.9770828811
 20
3.4957014293
 30
0.0
 11
2.0070829079
 21
3.4657014026
 31
0.0
  0
LINE
  5
99
330
1F
100
AcDbEntity
  8
0
  6
Continuous
 62
     7
370
    25
100
AcDbLine
 10
1.9770828811
 20
4.2157014118
 30
0.0
 11
1.9770828811
 21
3.4957014293
 31
0.0
  0
LINE
  5
9A
330
1F
100
AcDbEntity
  8
0
  6
Continuous
 62
     7
370
    25
100
AcDbLine
 10
1.8870829475
 20
4.2157014118
 30
0.0
 11
1.9770828811
 21
4.2157014118
 31
0.0
  0
LINE
  5
9B
330
1F
100
AcDbEntity
  8
0
  6
Continuous
 62
     7
370
    25
100
AcDbLine
 10
1.8570829207
 20
4.2457014203
 30
0.0
 11
1.8870829475
 21
4.2157014118
 31
0.0
  0
LINE
  5
9C
330
1F
100
AcDbEntity
  8
0
  6
Continuous
 62
     7
370
    25
100
AcDbLine
 10
1.8570829207
 20
4.4502014237
 30
0.0
 11
1.8570829207
 21
4.2457014203
 31
0.0
  0
LINE
  5
9D
330
1F
100
AcDbEntity
  8
0
  6
Continuous
 62
     7
370
    25
100
AcDbLine
 10
1.8970828586
 20
4.4502014237
 30
0.0
 11
1.8570829207
 21
4.4502014237
 31
0.0
  0
ARC
  5
9E
330
1F
100
AcDbEntity
  8
0
  6
Continuous
 62
     7
370
    25
100
AcDbCircle
 10
1.8970829384
 20
4.5282014218
 30
0.0
 40
0.0780000000000003
100
AcDbArc
 50
270.0
 51
90.0
  0
LINE
  5
9F
330
1F
100
AcDbEntity
  8
0
  6
Continuous
 62
     7
370
    25
100
AcDbLine
 10
1.8570829207
 20
4.6062014199
 30
0.0
 11
1.8970828586
 21
4.6062014199
 31
0.0
  0
LINE
  5
A0
330
1F
100
AcDbEntity
  8
0
  6
Continuous
 62
     7
370
    25
100
AcDbLine
 10
1.8570829207
 20
4.8107014233
 30
0.0
 11
1.8570829207
 21
4.6062014199
 31
0.0
  0
LINE
  5
A1
330
1F
100
AcDbEntity
  8
0
  6
Continuous
 62
     7
370
    25
100
AcDbLine
 10
1.8870829475
 20
4.8407014318
 30
0.0
 11
1.8570829207
 21
4.8107014233
 31
0.0
  0
LINE
  5
A2
330
1F
100
AcDbEntity
  8
0
  6
Continuous
 62
     7
370
    25
100
AcDbLine
 10
1.9770828811
 20
4.8407014318
 30
0.0
 11
1.8870829475
 21
4.8407014318
 31
0.0
  0
LINE
  5
A3
330
1F
100
AcDbEntity
  8
0
  6
Continuous
 62
     7
370
    25
100
AcDbLine
 10
1.9770828811
 20
5.6857014036
 30
0.0
 11
1.9770828811
 21
4.8407014318
 31
0.0
  0
LINE
  5
A4
330
1F
100
AcDbEntity
  8
0
  6
Continuous
 62
     7
370
    25
100
AcDbLine
 10
2.0070829079
 20
5.7157014304
 30
0.0
 11
1.9770828811
 21
5.6857014036
 31
0.0
  0
LINE
  5
A5
330
1F
100
AcDbEntity
  8
0
  6
Continuous
 62
     7
370
    25
100
AcDbLine
 10
2.7670829016
 20
5.7157014304
 30
0.0
 11
2.0070829079
 21
5.7157014304
 31
0.0
  0
LINE
  5
A6
330
1F
100
AcDbEntity
  8
0
  6
Continuous
 62
     7
370
    25
100
AcDbLine
 10
2.7670829016
 20
5.5277014288
 30
0.0
 11
2.7670829016
 21
5.7157014304
 31
0.0
  0
LINE
  5
A7
330
1F
100
AcDbEntity
  8
0
  6
Continuous
 62
     7
370
    25
100
AcDbLine
 10
3.0270829381
 20
5.5277014288
 30
0.0
 11
2.7670829016
 21
5.5277014288
 31
0.0
  0
LINE
  5
A8
330
1F
100
AcDbEntity
  8
0
  6
Continuous
 62
     7
370
    25
100
AcDbLine
 10
3.0270829381
 20
5.7157014304
 30
0.0
 11
3.0270829381
 21
5.5277014288
 31
0.0
  0
LINE
  5
A9
330
1F
100
AcDbEntity
  8
0
  6
Continuous
 62
     7
370
    25
100
AcDbLine
 10
4.1470829414
 20
5.7157014304
 30
0.0
 11
3.0270829381
 21
5.7157014304
 31
0.0
  0
LINE
  5
AA
330
1F
100
AcDbEntity
  8
0
  6
Continuous
 62
     7
370
    25
100
AcDbLine
 10
4.1470829414
 20
5.6257014234
 30
0.0
 11
4.1470829414
 21
5.7157014304
 31
0.0
  0
LINE
  5
AB
330
1F
100
AcDbEntity
  8
0
  6
Continuous
 62
     7
370
    25
100
AcDbLine
 10
4.6470829354
 20
5.6257014234
 30
0.0
 11
4.1470829414
 21
5.6257014234
 31
0.0
  0
LINE
  5
AC
330
1F
100
AcDbEntity
  8
0
  6
Continuous
 62
     7
370
    25
100
AcDbLine
 10
4.6470829354
 20
5.7157014304
 30
0.0
 11
4.6470829354
 21
5.6257014234
 31
0.0
  0
CIRCLE
  5
AD
330
1F
100
AcDbEntity
  8
0
  6
Continuous
 62
     7
370
    25
100
AcDbCircle
 10
4.3970829384
 20
4.5282014218
 30
0.0
 40
0.7930000000000001
  0
CIRCLE
  5
AE
330
1F
100
AcDbEntity
  8
0
  6
Continuous
 62
     7
370
    25
100
AcDbCircle
 10
3.2095829384
 20
4.5282014218
 30
0.0
 40
0.0780000000000003
  0
CIRCLE
  5
AF
330
1F
100
AcDbEntity
  8
0
  6
Continuous
 62
     7
370
    25
100
AcDbCircle
 10
5.5845829384
 20
4.5282014218
 30
0.0
 40
0.0780000000000012
  0
CIRCLE
  5
B0
330
1F
100
AcDbEntity
  8
0
  6
Continuous
 62
     7
370
    25
100
AcDbCircle
 10
6.1110829384
 20
5.5337014218
 30
0.0
 40
0.0532499999999994
  0
DIMENSION
  5
B1
330
1F
100
AcDbEntity
  8
DEFAULT
 62
     7
100
AcDbDimension
  2
_D
 10
7.2942040211
 20
3.4657014218
 30
0.0
 11
7.2942040211
 21
4.5907014218
 31
0.0
 70
   160
  1
<>
 71
     2
 42
-1.0
  3
SLDDIMSTYLE0
100
AcDbAlignedDimension
 13
6.2330829384
 23
5.7157014218
 33
0.0
 14
6.5870829384
 24
3.4657014218
 34
0.0
 50
90.0
100
AcDbRotatedDimension
  0
DIMENSION
  5
CA
330
1F
100
AcDbEntity
  8
DEFAULT
 62
     7
100
AcDbDimension
  2
_D_1
 10
6.5870829384
 20
2.835780162
 30
0.0
 11
4.2220829384
 21
2.835780162
 31
0.0
 70
   160
  1
<>
 71
     2
 42
-1.0
  3
SLDDIMSTYLE1
100
AcDbAlignedDimension
 13
1.8570829384
 23
4.2457014218
 33
0.0
 14
6.5870829384
 24
3.4657014218
 34
0.0
 50
0.0
100
AcDbRotatedDimension
  0
DIMENSION
  5
DF
330
1F
100
AcDbEntity
  8
DEFAULT
 62
     7
100
AcDbDimension
  2
_D_2
 10
4.0005829384
 20
5.214959567
 30
0.0
 11
2.7676127237
 21
6.3628834459
 31
0.0
 70
   163
  1
<>
 71
     1
 42
-1.0
  3
SLDDIMSTYLE2
100
AcDbDiametricDimension
 15
4.7935829384
 25
3.8414432766
 35
0.0
 40
0.0
  0
INSERT
  5
101
330
1F
100
AcDbEntity
  8
DEFAULT
100
AcDbBlockReference
  2
SW_CENTERMARKSYMBOL_12
 10
6.1110829384
 20
5.5337014218
 30
0.0
  0
INSERT
  5
10D
330
1F
100
AcDbEntity
  8
DEFAULT
100
AcDbBlockReference
  2
SW_CENTERMARKSYMBOL_13
 10
4.3970829384
 20
4.5282014218
 30
0.0
  0
INSERT
  5
119
330
1F
100
AcDbEntity
  8
DEFAULT
100
AcDbBlockReference
  2
SW_CENTERMARKSYMBOL_14
 10
3.2095829384
 20
4.5282014218
 30
0.0
  0
INSERT
  5
125
330
1F
100
AcDbEntity
  8
DEFAULT
100
AcDbBlockReference
  2
SW_CENTERMARKSYMBOL_15
 10
5.5845829384
 20
4.5282014218
 30
0.0
  0
CIRCLE
  5
126
330
1F
100
AcDbEntity
  8
0
  6
HIDDEN
 62
     7
370
    18
100
AcDbCircle
 10
6.1110829384
 20
5.5337014218
 30
0.0
 40
0.069
  0
CIRCLE
  5
127
330
1F
100
AcDbEntity
  8
0
  6
HIDDEN
 62
     7
370
    18
100
AcDbCircle
 10
6.1110829384
 20
5.5337014218
 30
0.0
 40
0.069
  0
LWPOLYLINE
  5
128
330
1F
100
AcDbEntity
  8
0
  6
Continuous
 62
     7
370
    25
100
AcDbPolyline
 90
       25
 70
   128
 43
0.0
 10
6.9063895976
 20
8.4378335505
 10
6.9051066285
 20
8.449827846
 10
6.901345043
 20
8.4624860865
 10
6.8953612068
 20
8.4749456795
 10
6.8875628991
 20
8.4863574599
 10
6.8784816222
 20
8.4959437095
 10
6.8687362005
 20
8.503051207
 10
6.8589907789
 20
8.5071955339
 10
6.8499093983
 20
8.5080943632
 10
6.8421111942
 20
8.5056862575
 10
6.8361273581
 20
8.5001354546
 10
6.8323657726
 20
8.4918202483
 10
6.8310826997
 20
8.4813072973
 10
6.8323657726
 20
8.4693129418
 10
6.8361273581
 20
8.4566547014
 10
6.8421111942
 20
8.4441951083
 10
6.8499093983
 20
8.4327833878
 10
6.8589907789
 20
8.4231970783
 10
6.8687362005
 20
8.4160895808
 10
6.8784816222
 20
8.411945254
 10
6.8875628991
 20
8.4110464845
 10
6.8953612068
 20
8.4134545304
 10
6.901345043
 20
8.4190053333
 10
6.9051066285
 20
8.4273205396
 10
6.9063895976
 20
8.4378335505
  0
LINE
  5
129
330
1F
100
AcDbEntity
  8
0
  6
Continuous
 62
     7
370
    25
100
AcDbLine
 10
6.9550031458
 20
8.5583799831
 30
0.0
 11
5.8335318332
 21
9.2057915913
 31
0.0
  0
LINE
  5
12A
330
1F
100
AcDbEntity
  8
0
  6
Continuous
 62
     7
370
    25
100
AcDbLine
 10
6.9762163682
 20
8.5216376043
 30
0.0
 11
6.9550031458
 21
8.5583799831
 31
0.0
  0
LINE
  5
12B
330
1F
100
AcDbEntity
  8
0
  6
Continuous
 62
     7
370
    25
100
AcDbLine
 10
6.9762163682
 20
8.1966543865
 30
0.0
 11
6.9762163682
 21
8.5216376043
 31
0.0
  0
LINE
  5
12C
330
1F
100
AcDbEntity
  8
0
  6
Continuous
 62
     7
370
    25
100
AcDbLine
 10
7.2053190245
 20
8.0643962382
 30
0.0
 11
6.9762163682
 21
8.1966543865
 31
0.0
  0
LINE
  5
12D
330
1F
100
AcDbEntity
  8
0
  6
Continuous
 62
     7
370
    25
100
AcDbLine
 10
7.2053190245
 20
7.9112948191
 30
0.0
 11
7.2053190245
 21
8.0643962382
 31
0.0
  0
LINE
  5
12E
330
1F
100
AcDbEntity
  8
0
  6
Continuous
 62
     7
370
    25
100
AcDbLine
 10
7.1558214711
 20
7.9398691485
 30
0.0
 11
7.2053190245
 21
7.9112948191
 31
0.0
  0
LINE
  5
12F
330
1F
100
AcDbEntity
  8
0
  6
Continuous
 62
     7
370
    25
100
AcDbLine
 10
7.1558214711
 20
7.6259092145
 30
0.0
 11
7.1558214711
 21
7.9398691485
 31
0.0
  0
LINE
  5
130
330
1F
100
AcDbEntity
  8
0
  6
Continuous
 62
     7
370
    25
100
AcDbLine
 10
7.2053190245
 20
7.5973348852
 30
0.0
 11
7.1558214711
 21
7.6259092145
 31
0.0
  0
LINE
  5
131
330
1F
100
AcDbEntity
  8
0
  6
Continuous
 62
     7
370
    25
100
AcDbLine
 10
7.2053190245
 20
7.2911320769
 30
0.0
 11
7.2053190245
 21
7.5973348852
 31
0.0
  0
LINE
  5
132
330
1F
100
AcDbEntity
  8
0
  6
Continuous
 62
     7
370
    25
100
AcDbLine
 10
7.1558214711
 20
7.3197064063
 30
0.0
 11
7.2053190245
 21
7.2911320769
 31
0.0
  0
LINE
  5
133
330
1F
100
AcDbEntity
  8
0
  6
Continuous
 62
     7
370
    25
100
AcDbLine
 10
7.1558214711
 20
6.7583346012
 30
0.0
 11
7.1558214711
 21
7.3197064063
 31
0.0
  0
LINE
  5
134
330
1F
100
AcDbEntity
  8
0
  6
Continuous
 62
     7
370
    25
100
AcDbLine
 10
7.2053190245
 20
6.7297602718
 30
0.0
 11
7.1558214711
 21
6.7583346012
 31
0.0
  0
LINE
  5
135
330
1F
100
AcDbEntity
  8
0
  6
Continuous
 62
     7
370
    25
100
AcDbLine
 10
7.2053190245
 20
6.5766588527
 30
0.0
 11
7.2053190245
 21
6.7297602718
 31
0.0
  0
LINE
  5
136
330
1F
100
AcDbEntity
  8
0
  6
Continuous
 62
     7
370
    25
100
AcDbLine
 10
6.8093392194
 20
6.8052531284
 30
0.0
 11
7.2053190245
 21
6.5766588527
 31
0.0
  0
LINE
  5
137
330
1F
100
AcDbEntity
  8
0
  6
Continuous
 62
     7
370
    25
100
AcDbLine
 10
6.8093392194
 20
6.8787418072
 30
0.0
 11
6.8093392194
 21
6.8052531284
 31
0.0
  0
LINE
  5
138
330
1F
100
AcDbEntity
  8
0
  6
Continuous
 62
     7
370
    25
100
AcDbLine
 10
6.6254914305
 20
6.9848748766
 30
0.0
 11
6.8093392194
 21
6.8787418072
 31
0.0
  0
LINE
  5
139
330
1F
100
AcDbEntity
  8
0
  6
Continuous
 62
     7
370
    25
100
AcDbLine
 10
6.6254914305
 20
6.9113861979
 30
0.0
 11
6.6254914305
 21
6.9848748766
 31
0.0
  0
LINE
  5
13A
330
1F
100
AcDbEntity
  8
0
  6
Continuous
 62
     7
370
    25
100
AcDbLine
 10
4.6880188496
 20
8.0298653113
 30
0.0
 11
6.6254914305
 21
6.9113861979
 31
0.0
  0
LINE
  5
13B
330
1F
100
AcDbEntity
  8
0
  6
Continuous
 62
     7
370
    25
100
AcDbLine
 10
4.6880188496
 20
8.1033539901
 30
0.0
 11
4.6880188496
 21
8.0298653113
 31
0.0
  0
LINE
  5
13C
330
1F
100
AcDbEntity
  8
0
  6
Continuous
 62
     7
370
    25
100
AcDbLine
 10
4.5041710607
 20
8.2094870595
 30
0.0
 11
4.6880188496
 21
8.1033539901
 31
0.0
  0
LINE
  5
13D
330
1F
100
AcDbEntity
  8
0
  6
Continuous
 62
     7
370
    25
100
AcDbLine
 10
4.5041710607
 20
8.1359983807
 30
0.0
 11
4.5041710607
 21
8.2094870595
 31
0.0
  0
LINE
  5
13E
330
1F
100
AcDbEntity
  8
0
  6
Continuous
 62
     7
370
    25
100
AcDbLine
 10
3.9667699114
 20
8.4462334607
 30
0.0
 11
4.5041710607
 21
8.1359983807
 31
0.0
  0
LINE
  5
13F
330
1F
100
AcDbEntity
  8
0
  6
Continuous
 62
     7
370
    25
100
AcDbLine
 10
3.9455566891
 20
8.4829758395
 30
0.0
 11
3.9667699114
 21
8.4462334607
 31
0.0
  0
LINE
  5
140
330
1F
100
AcDbEntity
  8
0
  6
Continuous
 62
     7
370
    25
100
AcDbLine
 10
3.9455566891
 20
9.0708852098
 30
0.0
 11
3.9455566891
 21
8.4829758395
 31
0.0
  0
LINE
  5
141
330
1F
100
AcDbEntity
  8
0
  6
Continuous
 62
     7
370
    25
100
AcDbLine
 10
3.8819171257
 20
9.1076235477
 30
0.0
 11
3.9455566891
 21
9.0708852098
 31
0.0
  0
LINE
  5
142
330
1F
100
AcDbEntity
  8
0
  6
Continuous
 62
     7
370
    25
100
AcDbLine
 10
3.8607039033
 20
9.1443659116
 30
0.0
 11
3.8819171257
 21
9.1076235477
 31
0.0
  0
LINE
  5
143
330
1F
100
AcDbEntity
  8
0
  6
Continuous
 62
     7
370
    25
100
AcDbLine
 10
3.8607039033
 20
9.3113485104
 30
0.0
 11
3.8607039033
 21
9.1443659116
 31
0.0
  0
LINE
  5
144
330
1F
100
AcDbEntity
  8
0
  6
Continuous
 62
     7
370
    25
100
AcDbLine
 10
3.8889881307
 20
9.2950203735
 30
0.0
 11
3.8607039033
 21
9.3113485104
 31
0.0
  0
LWPOLYLINE
  5
145
330
1F
100
AcDbEntity
  8
0
  6
Continuous
 62
     7
370
    25
100
AcDbPolyline
 90
       15
 70
   128
 43
0.0
 10
3.8889881307
 20
9.4224007371
 10
3.9012611187
 20
9.413718847
 10
3.9129187047
 20
9.4022786008
 10
3.9233763915
 20
9.3886536252
 10
3.9321096251
 20
9.3735272248
 10
3.938680551
 20
9.3576578659
 10
3.9427596898
 20
9.3418412942
 10
3.9441425296
 20
9.3268705985
 10
3.9427596898
 20
9.3134964957
 10
3.938680551
 20
9.3023895973
 10
3.9321096251
 20
9.2941068681
 10
3.9233763915
 20
9.2890636445
 10
3.9129187047
 20
9.2875128571
 10
3.9012611187
 20
9.2895321731
 10
3.8889881307
 20
9.2950203735
  0
LINE
  5
146
330
1F
100
AcDbEntity
  8
0
  6
Continuous
 62
     7
370
    25
100
AcDbLine
 10
3.8607039033
 20
9.4387288739
 30
0.0
 11
3.8889881307
 21
9.4224007371
 31
0.0
  0
LINE
  5
147
330
1F
100
AcDbEntity
  8
0
  6
Continuous
 62
     7
370
    25
100
AcDbLine
 10
3.8607039033
 20
9.6057114728
 30
0.0
 11
3.8607039033
 21
9.4387288739
 31
0.0
  0
LINE
  5
148
330
1F
100
AcDbEntity
  8
0
  6
Continuous
 62
     7
370
    25
100
AcDbLine
 10
3.8819171257
 20
9.6179615714
 30
0.0
 11
3.8607039033
 21
9.6057114728
 31
0.0
  0
LINE
  5
149
330
1F
100
AcDbEntity
  8
0
  6
Continuous
 62
     7
370
    25
100
AcDbLine
 10
3.9455566891
 20
9.5812232335
 30
0.0
 11
3.8819171257
 21
9.6179615714
 31
0.0
  0
LINE
  5
14A
330
1F
100
AcDbEntity
  8
0
  6
Continuous
 62
     7
370
    25
100
AcDbLine
 10
3.9455566891
 20
10.2712001965
 30
0.0
 11
3.9455566891
 21
9.5812232335
 31
0.0
  0
LINE
  5
14B
330
1F
100
AcDbEntity
  8
0
  6
Continuous
 62
     7
370
    25
100
AcDbLine
 10
3.9667699114
 20
10.2834503101
 30
0.0
 11
3.9455566891
 21
10.2712001965
 31
0.0
  0
LINE
  5
14C
330
1F
100
AcDbEntity
  8
0
  6
Continuous
 62
     7
370
    25
100
AcDbLine
 10
4.5041710607
 20
9.9732152302
 30
0.0
 11
3.9667699114
 21
10.2834503101
 31
0.0
  0
LINE
  5
14D
330
1F
100
AcDbEntity
  8
0
  6
Continuous
 62
     7
370
    25
100
AcDbLine
 10
4.5041710607
 20
9.8197055563
 30
0.0
 11
4.5041710607
 21
9.9732152302
 31
0.0
  0
LINE
  5
14E
330
1F
100
AcDbEntity
  8
0
  6
Continuous
 62
     7
370
    25
100
AcDbLine
 10
4.6880188496
 20
9.7135724869
 30
0.0
 11
4.5041710607
 21
9.8197055563
 31
0.0
  0
LINE
  5
14F
330
1F
100
AcDbEntity
  8
0
  6
Continuous
 62
     7
370
    25
100
AcDbLine
 10
4.6880188496
 20
9.8670821608
 30
0.0
 11
4.6880188496
 21
9.7135724869
 31
0.0
  0
LINE
  5
150
330
1F
100
AcDbEntity
  8
0
  6
Continuous
 62
     7
370
    25
100
AcDbLine
 10
5.4799784469
 20
9.4098936168
 30
0.0
 11
4.6880188496
 21
9.8670821608
 31
0.0
  0
LINE
  5
151
330
1F
100
AcDbEntity
  8
0
  6
Continuous
 62
     7
370
    25
100
AcDbLine
 10
5.4799784469
 20
9.336404938
 30
0.0
 11
5.4799784469
 21
9.4098936168
 31
0.0
  0
LINE
  5
152
330
1F
100
AcDbEntity
  8
0
  6
Continuous
 62
     7
370
    25
100
AcDbLine
 10
5.8335318332
 20
9.1323029125
 30
0.0
 11
5.4799784469
 21
9.336404938
 31
0.0
  0
LINE
  5
153
330
1F
100
AcDbEntity
  8
0
  6
Continuous
 62
     7
370
    25
100
AcDbLine
 10
5.8335318332
 20
9.2057915913
 30
0.0
 11
5.8335318332
 21
9.1323029125
 31
0.0
  0
LWPOLYLINE
  5
154
330
1F
100
AcDbEntity
  8
0
  6
Continuous
 62
     7
370
    25
100
AcDbPolyline
 90
       94
 70
   128
 43
0.0
 10
6.2174908028
 20
8.0144945751
 10
6.2162115672
 20
8.0589467632
 10
6.2123796159
 20
8.1046731458
 10
6.2060125276
 20
8.1514650351
 10
6.1971392885
 20
8.1991089541
 10
6.1858003966
 20
8.2473875235
 10
6.1720475501
 20
8.2960804683
 10
6.1559435961
 20
8.3449655836
 10
6.1375619595
 20
8.3938198272
 10
6.1169864883
 20
8.4424202775
 10
6.0943110897
 20
8.4905452115
 10
6.0696392382
 20
8.5379750478
 10
6.0430834828
 20
8.5844933195
 10
6.01476498
 20
8.6298878718
 10
5.9848129757
 20
8.6739514607
 10
5.9533641309
 20
8.7164831005
 10
5.9205619253
 20
8.7572887666
 10
5.8865560091
 20
8.7961821898
 10
5.8515015813
 20
8.832985993
 10
5.815558572
 20
8.8675321636
 10
5.7788909694
 20
8.8996631003
 10
5.7416660994
 20
8.9292322092
 10
5.7040537933
 20
8.9561046229
 10
5.6662256745
 20
8.9801576733
 10
5.6283543451
 20
9.0012815995
 10
5.590612602
 20
9.0193800613
 10
5.5531726485
 20
9.0343704139
 10
5.5162053173
 20
9.0461843364
 10
5.4798792893
 20
9.0547678637
 10
5.4443603023
 20
9.060081903
 10
5.4098104388
 20
9.0621021061
 10
5.3763873087
 20
9.0608193414
 10
5.3442434401
 20
9.0562394464
 10
5.313525476
 20
9.0483832727
 10
5.2843736033
 20
9.037286716
 10
5.2569208273
 20
9.0230003865
 10
5.231292401
 20
9.0055894592
 10
5.2076052292
 20
8.9851334195
 10
5.1859674789
 20
8.9617255389
 10
5.1664777764
 20
8.9354726809
 10
5.1492251548
 20
8.9064945816
 10
5.1342882246
 20
8.8749235062
 10
5.1217352255
 20
8.8409034699
 10
5.1116233523
 20
8.8045897444
 10
5.1039988589
 20
8.7661479592
 10
5.0988964353
 20
8.7257535553
 10
5.096339364
 20
8.6835908501
 10
5.096339364
 20
8.6398521982
 10
5.0988964353
 20
8.5947371612
 10
5.1039988589
 20
8.5484516245
 10
5.1116233523
 20
8.5012067865
 10
5.1217352255
 20
8.4532181407
 10
5.1342882246
 20
8.4047047202
 10
5.1492251548
 20
8.3558878323
 10
5.1664777764
 20
8.3069902801
 10
5.1859674789
 20
8.2582350904
 10
5.2076052292
 20
8.2098447952
 10
5.231292401
 20
8.162040129
 10
5.2569208273
 20
8.1150392506
 10
5.2843736033
 20
8.0690566206
 10
5.313525476
 20
8.0243020281
 10
5.3442434401
 20
7.980979648
 10
5.3763873087
 20
7.9392872323
 10
5.4098104388
 20
7.8994149429
 10
5.4443603023
 20
7.8615447228
 10
5.4798792893
 20
7.8258494126
 10
5.5162053173
 20
7.7924918006
 10
5.5531726485
 20
7.7616241511
 10
5.590612602
 20
7.7333872535
 10
5.6283543451
 20
7.7079100262
 10
5.6662256745
 20
7.6853086463
 10
5.7040537933
 20
7.6656862803
 10
5.7416660994
 20
7.6491324498
 10
5.7788909694
 20
7.6357226385
 10
5.815558572
 20
7.6255180624
 10
5.8515015813
 20
7.6185653178
 10
5.8865560091
 20
7.6148961402
 10
5.9205619253
 20
7.6145271683
 10
5.9533641309
 20
7.617460214
 10
5.9848129757
 20
7.6236817903
 10
6.01476498
 20
7.6331635312
 10
6.0430834828
 20
7.6458622362
 10
6.0696392382
 20
7.6617198853
 10
6.0943110897
 20
7.6806642082
 10
6.1169864883
 20
7.7026086843
 10
6.1375619595
 20
7.7274532011
 10
6.1559435961
 20
7.7550844588
 10
6.1720475501
 20
7.7853763446
 10
6.1858003966
 20
7.8181905909
 10
6.1971392885
 20
7.8533775543
 10
6.2060125276
 20
7.8907766495
 10
6.2123796159
 20
7.9302172551
 10
6.2162115672
 20
7.971519361
 10
6.2174908028
 20
8.0144945751
  0
LWPOLYLINE
  5
155
330
1F
100
AcDbEntity
  8
0
  6
Continuous
 62
     7
370
    25
100
AcDbPolyline
 90
       30
 70
   128
 43
0.0
 10
4.8722201784
 20
8.791102776
 10
4.8709306756
 20
8.8055386967
 10
4.8671225253
 20
8.8207884019
 10
4.8609737938
 20
8.8361388331
 10
4.8527720109
 20
8.8508722042
 10
4.8429005842
 20
8.8642996604
 10
4.8318211692
 20
8.8757933018
 10
4.8200518381
 20
8.8848156959
 10
4.8081428644
 20
8.8909449872
 10
4.7966511072
 20
8.8938945685
 10
4.7861139802
 20
8.8935264918
 10
4.7770239918
 20
8.8898580707
 10
4.7698064477
 20
8.8830606853
 10
4.7647987094
 20
8.8734522439
 10
4.7622348452
 20
8.8614820775
 10
4.7622348452
 20
8.8477098372
 10
4.7647987094
 20
8.8327794962
 10
4.7698064477
 20
8.8173892432
 10
4.7770239918
 20
8.8022586587
 10
4.7861139802
 20
8.7880951605
 10
4.7966511072
 20
8.775561176
 10
4.8081428644
 20
8.7652426568
 10
4.8200518381
 20
8.7576221398
 10
4.8318211692
 20
8.7530559534
 10
4.8429005842
 20
8.7517575745
 10
4.8527720109
 20
8.7537877241
 10
4.8609737938
 20
8.7590515182
 10
4.8671225253
 20
8.7673027751
 10
4.8709306756
 20
8.7781556835
 10
4.8722201784
 20
8.791102776
  0
LWPOLYLINE
  5
156
330
1F
100
AcDbEntity
  8
0
  6
Continuous
 62
     7
370
    25
100
AcDbPolyline
 90
       30
 70
   128
 43
0.0
 10
6.5515987958
 20
7.8216181362
 10
6.5503092931
 20
7.8360540569
 10
6.5465011428
 20
7.8513037621
 10
6.5403524112
 20
7.8666541933
 10
6.5321505764
 20
7.8813875943
 10
6.5222792017
 20
7.8948150206
 10
6.5111997866
 20
7.906308662
 10
6.4994304555
 20
7.9153310561
 10
6.4875214818
 20
7.9214603474
 10
6.4760297246
 20
7.9244099287
 10
6.4654925458
 20
7.9240418819
 10
6.4564026611
 20
7.920373401
 10
6.4491850652
 20
7.9135760455
 10
6.4441772749
 20
7.9039676341
 10
6.4416134108
 20
7.8919974676
 10
6.4416134108
 20
7.8782252274
 10
6.4441772749
 20
7.8632948864
 10
6.4491850652
 20
7.8479046034
 10
6.4564026611
 20
7.832773989
 10
6.4654925458
 20
7.8186105507
 10
6.4760297246
 20
7.8060765362
 10
6.4875214818
 20
7.7957580171
 10
6.4994304555
 20
7.7881375
 10
6.5111997866
 20
7.7835713136
 10
6.5222792017
 20
7.7822729347
 10
6.5321505764
 20
7.7843031143
 10
6.5403524112
 20
7.7895668784
 10
6.5465011428
 20
7.7978181353
 10
6.5503092931
 20
7.8086710437
 10
6.5515987958
 20
7.8216181362
  0
LINE
  5
157
330
1F
100
AcDbEntity
  8
0
  6
Continuous
 62
     7
370
    25
100
AcDbLine
 10
7.0052077271
 20
8.587362471
 30
0.0
 11
6.9550031458
 21
8.5583799831
 31
0.0
  0
LINE
  5
158
330
1F
100
AcDbEntity
  8
0
  6
Continuous
 62
     7
370
    25
100
AcDbLine
 10
7.0264209495
 20
8.5506200922
 30
0.0
 11
6.9762163682
 21
8.5216376043
 31
0.0
  0
LINE
  5
159
330
1F
100
AcDbEntity
  8
0
  6
Continuous
 62
     7
370
    25
100
AcDbLine
 10
7.0264209495
 20
8.5506200922
 30
0.0
 11
7.0052077271
 21
8.587362471
 31
0.0
  0
LINE
  5
15A
330
1F
100
AcDbEntity
  8
0
  6
Continuous
 62
     7
370
    25
100
AcDbLine
 10
7.0264209495
 20
8.2256368744
 30
0.0
 11
6.9762163682
 21
8.1966543865
 31
0.0
  0
LINE
  5
15B
330
1F
100
AcDbEntity
  8
0
  6
Continuous
 62
     7
370
    25
100
AcDbLine
 10
7.0264209495
 20
8.2256368744
 30
0.0
 11
7.0264209495
 21
8.5506200922
 31
0.0
  0
LINE
  5
15C
330
1F
100
AcDbEntity
  8
0
  6
Continuous
 62
     7
370
    25
100
AcDbLine
 10
5.8335318332
 20
9.2057915913
 30
0.0
 11
5.8837364145
 21
9.2347740792
 31
0.0
  0
LINE
  5
15D
330
1F
100
AcDbEntity
  8
0
  6
Continuous
 62
     7
370
    25
100
AcDbLine
 10
7.0052077271
 20
8.587362471
 30
0.0
 11
5.8837364145
 21
9.2347740792
 31
0.0
  0
LINE
  5
15E
330
1F
100
AcDbEntity
  8
0
  6
Continuous
 62
     7
370
    25
100
AcDbLine
 10
7.2555236058
 20
8.0933787261
 30
0.0
 11
7.2053190245
 21
8.0643962382
 31
0.0
  0
LINE
  5
15F
330
1F
100
AcDbEntity
  8
0
  6
Continuous
 62
     7
370
    25
100
AcDbLine
 10
7.2555236058
 20
7.940277307
 30
0.0
 11
7.2053190245
 21
7.9112948191
 31
0.0
  0
LINE
  5
160
330
1F
100
AcDbEntity
  8
0
  6
Continuous
 62
     7
370
    25
100
AcDbLine
 10
7.2555236058
 20
7.940277307
 30
0.0
 11
7.2555236058
 21
8.0933787261
 31
0.0
  0
LINE
  5
161
330
1F
100
AcDbEntity
  8
0
  6
Continuous
 62
     7
370
    25
100
AcDbLine
 10
7.2555236058
 20
8.0933787261
 30
0.0
 11
7.0264209495
 21
8.2256368744
 31
0.0
  0
ARC
  5
162
330
1F
100
AcDbEntity
  8
0
  6
Continuous
 62
     7
370
    25
100
AcDbCircle
 10
6.9700568467
 20
8.5180615493
 30
0.0
 40
0.0897814285915193
100
AcDbArc
 50
198.5871675519
 51
221.4074241172
  0
LINE
  5
163
330
1F
100
AcDbEntity
  8
0
  6
Continuous
 62
     7
370
    25
100
AcDbLine
 10
7.2060260524
 20
7.6548917024
 30
0.0
 11
7.1558214711
 21
7.6259092145
 31
0.0
  0
LINE
  5
164
330
1F
100
AcDbEntity
  8
0
  6
Continuous
 62
     7
370
    25
100
AcDbLine
 10
7.2060260524
 20
7.6548917024
 30
0.0
 11
7.2060260524
 21
7.9117030896
 31
0.0
  0
LINE
  5
165
330
1F
100
AcDbEntity
  8
0
  6
Continuous
 62
     7
370
    25
100
AcDbLine
 10
7.2555236058
 20
7.6263173731
 30
0.0
 11
7.2053190245
 21
7.5973348852
 31
0.0
  0
LINE
  5
166
330
1F
100
AcDbEntity
  8
0
  6
Continuous
 62
     7
370
    25
100
AcDbLine
 10
7.2555236058
 20
7.3201145648
 30
0.0
 11
7.2053190245
 21
7.2911320769
 31
0.0
  0
LINE
  5
167
330
1F
100
AcDbEntity
  8
0
  6
Continuous
 62
     7
370
    25
100
AcDbLine
 10
7.2555236058
 20
7.3201145648
 30
0.0
 11
7.2555236058
 21
7.6263173731
 31
0.0
  0
LINE
  5
168
330
1F
100
AcDbEntity
  8
0
  6
Continuous
 62
     7
370
    25
100
AcDbLine
 10
7.2555236058
 20
7.6263173731
 30
0.0
 11
7.2060260524
 21
7.6548917024
 31
0.0
  0
LINE
  5
169
330
1F
100
AcDbEntity
  8
0
  6
Continuous
 62
     7
370
    25
100
AcDbLine
 10
7.2060260524
 20
6.7873170891
 30
0.0
 11
7.1558214711
 21
6.7583346012
 31
0.0
  0
LINE
  5
16A
330
1F
100
AcDbEntity
  8
0
  6
Continuous
 62
     7
370
    25
100
AcDbLine
 10
7.2060260524
 20
6.7873170891
 30
0.0
 11
7.2060260524
 21
7.2915403325
 31
0.0
  0
LWPOLYLINE
  5
16B
330
1F
100
AcDbEntity
  8
0
  6
Continuous
 62
     7
370
    25
100
AcDbPolyline
 90
       47
 70
   128
 43
0.0
 10
5.2861848599
 20
9.0380908901
 10
5.2814969823
 20
9.0345719471
 10
5.2578098105
 20
9.0141159074
 10
5.2361720603
 20
8.9907080268
 10
5.2166823578
 20
8.9644551687
 10
5.1994297361
 20
8.9354770695
 10
5.1844928059
 20
8.9039059941
 10
5.1719398068
 20
8.8698859578
 10
5.1618279337
 20
8.8335722323
 10
5.1542034402
 20
8.7951304471
 10
5.1491010166
 20
8.7547360432
 10
5.1465439453
 20
8.712573338
 10
5.1465439453
 20
8.668834686
 10
5.1491010166
 20
8.6237196491
 10
5.1542034402
 20
8.5774341124
 10
5.1618279337
 20
8.5301892744
 10
5.1719398068
 20
8.4822006286
 10
5.1844928059
 20
8.4336872081
 10
5.1994297361
 20
8.3848703201
 10
5.2166823578
 20
8.3359727679
 10
5.2361720603
 20
8.2872175783
 10
5.2578098105
 20
8.2388272831
 10
5.2814969823
 20
8.1910226169
 10
5.3071254086
 20
8.1440217385
 10
5.3345781846
 20
8.0980391085
 10
5.3637300573
 20
8.053284516
 10
5.3944480214
 20
8.0099621359
 10
5.42659189
 20
7.9682697202
 10
5.4600150201
 20
7.9283974308
 10
5.4945648837
 20
7.8905272106
 10
5.5300838706
 20
7.8548319005
 10
5.5664098986
 20
7.8214742885
 10
5.6033772298
 20
7.790606639
 10
5.6408171833
 20
7.7623697414
 10
5.6785589265
 20
7.7368925141
 10
5.7164302558
 20
7.7142911342
 10
5.7542583746
 20
7.6946687682
 10
5.7918706807
 20
7.6781149377
 10
5.8290955507
 20
7.6647051264
 10
5.8657631534
 20
7.6545005503
 10
5.9017061626
 20
7.6475478057
 10
5.9367605905
 20
7.6438786281
 10
5.9707665066
 20
7.6435096562
 10
6.0035687122
 20
7.6464427019
 10
6.0350175571
 20
7.6526642782
 10
6.0649695613
 20
7.6621460191
 10
6.0775300015
 20
7.6672923729
  0
LINE
  5
16C
330
1F
100
AcDbEntity
  8
0
  6
Continuous
 62
     7
370
    25
100
AcDbLine
 10
5.4799784469
 20
9.336404938
 30
0.0
 11
5.5301830282
 21
9.3653874259
 31
0.0
  0
LINE
  5
16D
330
1F
100
AcDbEntity
  8
0
  6
Continuous
 62
     7
370
    25
100
AcDbLine
 10
5.8335318332
 20
9.1902678883
 30
0.0
 11
5.5301830282
 21
9.3653874259
 31
0.0
  0
ARC
  5
16E
330
1F
100
AcDbEntity
  8
0
  6
Continuous
 62
     7
370
    25
100
AcDbCircle
 10
6.6067159193
 20
7.9171164286
 30
0.0
 40
0.1150439244985326
100
AcDbArc
 50
178.7375377099
 51
241.2570859419
  0
LINE
  5
16F
330
1F
100
AcDbEntity
  8
0
  6
Continuous
 62
     7
370
    25
100
AcDbLine
 10
7.2555236058
 20
6.7587427597
 30
0.0
 11
7.2053190245
 21
6.7297602718
 31
0.0
  0
LINE
  5
170
330
1F
100
AcDbEntity
  8
0
  6
Continuous
 62
     7
370
    25
100
AcDbLine
 10
7.2555236058
 20
6.6056413406
 30
0.0
 11
7.2053190245
 21
6.5766588527
 31
0.0
  0
LINE
  5
171
330
1F
100
AcDbEntity
  8
0
  6
Continuous
 62
     7
370
    25
100
AcDbLine
 10
7.2555236058
 20
6.6056413406
 30
0.0
 11
7.2555236058
 21
6.7587427597
 31
0.0
  0
LINE
  5
172
330
1F
100
AcDbEntity
  8
0
  6
Continuous
 62
     7
370
    25
100
AcDbLine
 10
7.2555236058
 20
6.7587427597
 30
0.0
 11
7.2060260524
 21
6.7873170891
 31
0.0
  0
LINE
  5
173
330
1F
100
AcDbEntity
  8
0
  6
Continuous
 62
     7
370
    25
100
AcDbLine
 10
5.4799784469
 20
9.4098936168
 30
0.0
 11
5.5301830282
 21
9.4388761047
 31
0.0
  0
LINE
  5
174
330
1F
100
AcDbEntity
  8
0
  6
Continuous
 62
     7
370
    25
100
AcDbLine
 10
5.5301830282
 20
9.3653874259
 30
0.0
 11
5.5301830282
 21
9.4388761047
 31
0.0
  0
LINE
  5
175
330
1F
100
AcDbEntity
  8
0
  6
Continuous
 62
     7
370
    25
100
AcDbLine
 10
4.7382234309
 20
9.8960646487
 30
0.0
 11
4.6880188496
 21
9.8670821608
 31
0.0
  0
LINE
  5
176
330
1F
100
AcDbEntity
  8
0
  6
Continuous
 62
     7
370
    25
100
AcDbLine
 10
5.5301830282
 20
9.4388761047
 30
0.0
 11
4.7382234309
 21
9.8960646487
 31
0.0
  0
LINE
  5
177
330
1F
100
AcDbEntity
  8
0
  6
Continuous
 62
     7
370
    25
100
AcDbLine
 10
6.6756960118
 20
6.9403686858
 30
0.0
 11
6.6254914305
 21
6.9113861979
 31
0.0
  0
LINE
  5
178
330
1F
100
AcDbEntity
  8
0
  6
Continuous
 62
     7
370
    25
100
AcDbLine
 10
6.6756960118
 20
6.9403686858
 30
0.0
 11
6.6756960118
 21
6.9558924279
 31
0.0
  0
LINE
  5
179
330
1F
100
AcDbEntity
  8
0
  6
Continuous
 62
     7
370
    25
100
AcDbLine
 10
4.554375642
 20
9.8486880442
 30
0.0
 11
4.5041710607
 21
9.8197055563
 31
0.0
  0
LINE
  5
17A
330
1F
100
AcDbEntity
  8
0
  6
Continuous
 62
     7
370
    25
100
AcDbLine
 10
4.6880189015
 20
9.7715374327
 30
0.0
 11
4.554375642
 21
9.8486880442
 31
0.0
  0
LINE
  5
17B
330
1F
100
AcDbEntity
  8
0
  6
Continuous
 62
     7
370
    25
100
AcDbLine
 10
4.554375642
 20
10.0021977181
 30
0.0
 11
4.5041710607
 21
9.9732152302
 31
0.0
  0
LINE
  5
17C
330
1F
100
AcDbEntity
  8
0
  6
Continuous
 62
     7
370
    25
100
AcDbLine
 10
4.554375642
 20
9.8486880442
 30
0.0
 11
4.554375642
 21
10.0021977181
 31
0.0
  0
LINE
  5
17D
330
1F
100
AcDbEntity
  8
0
  6
Continuous
 62
     7
370
    25
100
AcDbLine
 10
4.0169744928
 20
10.312432798
 30
0.0
 11
3.9667699114
 21
10.2834503101
 31
0.0
  0
LINE
  5
17E
330
1F
100
AcDbEntity
  8
0
  6
Continuous
 62
     7
370
    25
100
AcDbLine
 10
4.554375642
 20
10.0021977181
 30
0.0
 11
4.0169744928
 21
10.312432798
 31
0.0
  0
ARC
  5
17F
330
1F
100
AcDbEntity
  8
0
  6
Continuous
 62
     7
370
    25
100
AcDbCircle
 10
4.9273374831
 20
8.886601173
 30
0.0
 40
0.115044103366508
100
AcDbArc
 50
178.7375917871
 51
241.2570318647
  0
LINE
  5
180
330
1F
100
AcDbEntity
  8
0
  6
Continuous
 62
     7
370
    25
100
AcDbLine
 10
3.932121707
 20
9.6469440593
 30
0.0
 11
3.8819171257
 21
9.6179615714
 31
0.0
  0
LINE
  5
181
330
1F
100
AcDbEntity
  8
0
  6
Continuous
 62
     7
370
    25
100
AcDbLine
 10
3.9455566372
 20
9.6391882392
 30
0.0
 11
3.932121707
 21
9.6469440593
 31
0.0
  0
LINE
  5
182
330
1F
100
AcDbEntity
  8
0
  6
Continuous
 62
     7
370
    25
100
AcDbLine
 10
3.939192712
 20
9.3240028614
 30
0.0
 11
3.8889881307
 21
9.2950203735
 31
0.0
  0
LINE
  5
183
330
1F
100
AcDbEntity
  8
0
  6
Continuous
 62
     7
370
    25
100
AcDbLine
 10
3.9439373437
 20
9.3214999316
 30
0.0
 11
3.939192712
 21
9.3240028614
 31
0.0
  0
LINE
  5
184
330
1F
100
AcDbEntity
  8
0
  6
Continuous
 62
     7
370
    25
100
AcDbLine
 10
3.9109084846
 20
9.3403309983
 30
0.0
 11
3.8607039033
 21
9.3113485104
 31
0.0
  0
LINE
  5
185
330
1F
100
AcDbEntity
  8
0
  6
Continuous
 62
     7
370
    25
100
AcDbLine
 10
3.939192712
 20
9.3240028614
 30
0.0
 11
3.9109084846
 21
9.3403309983
 31
0.0
  0
LINE
  5
186
330
1F
100
AcDbEntity
  8
0
  6
Continuous
 62
     7
370
    25
100
AcDbLine
 10
4.554375642
 20
8.1649808686
 30
0.0
 11
4.5041710607
 21
8.1359983807
 31
0.0
  0
LINE
  5
187
330
1F
100
AcDbEntity
  8
0
  6
Continuous
 62
     7
370
    25
100
AcDbLine
 10
4.554375642
 20
8.1649808686
 30
0.0
 11
4.554375642
 21
8.1805046108
 31
0.0
  0
LWPOLYLINE
  5
188
330
1F
100
AcDbEntity
  8
0
  6
HIDDEN
 62
     7
370
    18
100
AcDbPolyline
 90
       17
 70
   128
 43
0.0
 10
6.868736163
 20
8.4032291014
 10
6.8500648976
 20
8.4182965209
 10
6.834236163
 20
8.4396475169
 10
6.8236597407
 20
8.4640315939
 10
6.8199457951
 20
8.4877364973
 10
6.8236597407
 20
8.5071533703
 10
6.834236163
 20
8.5193261701
 10
6.8500648976
 20
8.5224016983
 10
6.868736163
 20
8.5159117335
 10
6.8874074285
 20
8.500844314
 10
6.903236163
 20
8.479493318
 10
6.9138125853
 20
8.455109241
 10
6.9175265309
 20
8.4314043376
 10
6.9138125853
 20
8.4119874646
 10
6.903236163
 20
8.3998146648
 10
6.8874074285
 20
8.3967391366
 10
6.868736163
 20
8.4032291014
  0
LWPOLYLINE
  5
189
330
1F
100
AcDbEntity
  8
0
  6
HIDDEN
 62
     7
370
    18
100
AcDbPolyline
 90
       17
 70
   128
 43
0.0
 10
6.868736163
 20
8.4032291014
 10
6.8500648976
 20
8.4182965209
 10
6.834236163
 20
8.4396475169
 10
6.8236597407
 20
8.4640315939
 10
6.8199457951
 20
8.4877364973
 10
6.8236597407
 20
8.5071533703
 10
6.834236163
 20
8.5193261701
 10
6.8500648976
 20
8.5224016983
 10
6.868736163
 20
8.5159117335
 10
6.8874074285
 20
8.500844314
 10
6.903236163
 20
8.479493318
 10
6.9138125853
 20
8.455109241
 10
6.9175265309
 20
8.4314043376
 10
6.9138125853
 20
8.4119874646
 10
6.903236163
 20
8.3998146648
 10
6.8874074285
 20
8.3967391366
 10
6.868736163
 20
8.4032291014
  0
ENDSEC
  0
SECTION
  2
OBJECTS
  0
DICTIONARY
  5
C
330
0
100
AcDbDictionary
281
     1
  3
ACAD_GROUP
350
D
  3
ACAD_LAYOUT
350
1A
  3
ACAD_MLINESTYLE
350
17
  3
ACAD_PLOTSETTINGS
350
19
  3
ACAD_PLOTSTYLENAME
350
E
  3
ACAD_SCALELIST
350
47
  0
DICTIONARY
  5
D
102
{ACAD_REACTORS
330
C
102
}
330
C
100
AcDbDictionary
281
     1
  0
DICTIONARY
  5
1A
102
{ACAD_REACTORS
330
C
102
}
330
C
100
AcDbDictionary
281
     1
  3
Layout1
350
1E
  3
Layout2
350
26
  3
Model
350
22
  0
DICTIONARY
  5
17
102
{ACAD_REACTORS
330
C
102
}
330
C
100
AcDbDictionary
281
     1
  3
Standard
350
18
  0
DICTIONARY
  5
19
102
{ACAD_REACTORS
330
C
102
}
330
C
100
AcDbDictionary
281
     1
  0
ACDBDICTIONARYWDFLT
  5
E
102
{ACAD_REACTORS
330
C
102
}
330
C
100
AcDbDictionary
281
     1
  3
Normal
350
F
100
AcDbDictionaryWithDefault
340
F
  0
DICTIONARY
  5
47
102
{ACAD_REACTORS
330
C
102
}
330
C
100
AcDbDictionary
281
     1
  3
A0
350
48
  3
A1
350
49
  3
A2
350
4A
  3
A3
350
4B
  3
A4
350
4C
  3
A5
350
4D
  3
A6
350
4E
  3
A7
350
4F
  3
A8
350
50
  3
A9
350
51
  3
B0
350
52
  3
B1
350
53
  3
B2
350
54
  3
B3
350
55
  3
B4
350
56
  3
B5
350
57
  3
B6
350
58
  3
B7
350
59
  3
B8
350
5A
  3
B9
350
5B
  3
C0
350
5C
  3
C1
350
5D
  3
C2
350
5E
  3
C3
350
5F
  3
C4
350
60
  3
C5
350
61
  3
C6
350
62
  3
C7
350
63
  3
C8
350
64
  3
C9
350
65
  3
D0
350
66
  3
D1
350
67
  3
D2
350
68
  0
LAYOUT
  5
1E
102
{ACAD_REACTORS
330
1A
102
}
330
1A
100
AcDbPlotSettings
  1

  2
none_device
  4

  6

 40
0.0
 41
0.0
 42
0.0
 43
0.0
 44
0.0
 45
0.0
 46
0.0
 47
0.0
 48
0.0
 49
0.0
140
0.0
141
0.0
142
1.0
143
1.0
 70
   688
 72
     0
 73
     0
 74
     5
  7

 75
    16
147
1.0
148
0.0
149
0.0
100
AcDbLayout
  1
Layout1
 70
     1
 71
     1
 10
0.0
 20
0.0
 11
12.0
 21
9.0
 12
0.0
 22
0.0
 32
0.0
 14
1.0000000000E+20
 24
1.0000000000E+20
 34
1.0000000000E+20
 15
-1.0000000000E+20
 25
-1.0000000000E+20
 35
-1.0000000000E+20
146
0.0
 13
0.0
 23
0.0
 33
0.0
 16
1.0
 26
0.0
 36
0.0
 17
0.0
 27
1.0
 37
0.0
 76
     0
330
1B
  0
LAYOUT
  5
26
102
{ACAD_REACTORS
330
1A
102
}
330
1A
100
AcDbPlotSettings
  1

  2
none_device
  4

  6

 40
0.0
 41
0.0
 42
0.0
 43
0.0
 44
0.0
 45
0.0
 46
0.0
 47
0.0
 48
0.0
 49
0.0
140
0.0
141
0.0
142
1.0
143
1.0
 70
   688
 72
     0
 73
     0
 74
     5
  7

 75
    16
147
1.0
148
0.0
149
0.0
100
AcDbLayout
  1
Layout2
 70
     1
 71
     2
 10
0.0
 20
0.0
 11
0.0
 21
0.0
 12
0.0
 22
0.0
 32
0.0
 14
0.0
 24
0.0
 34
0.0
 15
0.0
 25
0.0
 35
0.0
146
0.0
 13
0.0
 23
0.0
 33
0.0
 16
1.0
 26
0.0
 36
0.0
 17
0.0
 27
1.0
 37
0.0
 76
     0
330
23
  0
LAYOUT
  5
22
102
{ACAD_REACTORS
330
1A
102
}
330
1A
100
AcDbPlotSettings
  1

  2
none_device
  4
Letter_(8.50_x_11.00_Inches)
  6

 40
6.35
 41
6.35
 42
6.35000508
 43
6.35000508
 44
215.9
 45
279.4
 46
0.0
 47
0.0
 48
0.0
 49
0.0
140
0.0
141
0.0
142
1.0
143
1.0
 70
  1712
 72
     0
 73
     0
 74
     0
  7

 75
     0
147
1.0
148
0.0
149
0.0
100
AcDbLayout
  1
Model
 70
     1
 71
     0
 10
0.0
 20
0.0
 11
8.5
 21
11.0
 12
0.0
 22
0.0
 32
0.0
 14
0.0
 24
0.0
 34
0.0
 15
8.5
 25
11.0
 35
0.0
146
0.0
 13
0.0
 23
0.0
 33
0.0
 16
1.0
 26
0.0
 36
0.0
 17
0.0
 27
1.0
 37
0.0
 76
     0
330
1F
331
29
  0
MLINESTYLE
  5
18
102
{ACAD_REACTORS
330
17
102
}
330
17
100
AcDbMlineStyle
  2
Standard
 70
     0
  3

 62
   256
 51
90.0
 52
90.0
 71
     2
 49
0.5
 62
   256
  6
BYLAYER
 49
-0.5
 62
   256
  6
BYLAYER
  0
ACDBPLACEHOLDER
  5
F
102
{ACAD_REACTORS
330
E
102
}
330
E
  0
SCALE
  5
48
102
{ACAD_REACTORS
330
47
102
}
330
47
100
AcDbScale
 70
     0
300
1:1
140
1.0
141
1.0
290
     1
  0
SCALE
  5
49
102
{ACAD_REACTORS
330
47
102
}
330
47
100
AcDbScale
 70
     0
300
1:2
140
1.0
141
2.0
290
     0
  0
SCALE
  5
4A
102
{ACAD_REACTORS
330
47
102
}
330
47
100
AcDbScale
 70
     0
300
1:4
140
1.0
141
4.0
290
     0
  0
SCALE
  5
4B
102
{ACAD_REACTORS
330
47
102
}
330
47
100
AcDbScale
 70
     0
300
1:5
140
1.0
141
5.0
290
     0
  0
SCALE
  5
4C
102
{ACAD_REACTORS
330
47
102
}
330
47
100
AcDbScale
 70
     0
300
1:8
140
1.0
141
8.0
290
     0
  0
SCALE
  5
4D
102
{ACAD_REACTORS
330
47
102
}
330
47
100
AcDbScale
 70
     0
300
1:10
140
1.0
141
10.0
290
     0
  0
SCALE
  5
4E
102
{ACAD_REACTORS
330
47
102
}
330
47
100
AcDbScale
 70
     0
300
1:16
140
1.0
141
16.0
290
     0
  0
SCALE
  5
4F
102
{ACAD_REACTORS
330
47
102
}
330
47
100
AcDbScale
 70
     0
300
1:20
140
1.0
141
20.0
290
     0
  0
SCALE
  5
50
102
{ACAD_REACTORS
330
47
102
}
330
47
100
AcDbScale
 70
     0
300
1:30
140
1.0
141
30.0
290
     0
  0
SCALE
  5
51
102
{ACAD_REACTORS
330
47
102
}
330
47
100
AcDbScale
 70
     0
300
1:40
140
1.0
141
40.0
290
     0
  0
SCALE
  5
52
102
{ACAD_REACTORS
330
47
102
}
330
47
100
AcDbScale
 70
     0
300
1:50
140
1.0
141
50.0
290
     0
  0
SCALE
  5
53
102
{ACAD_REACTORS
330
47
102
}
330
47
100
AcDbScale
 70
     0
300
1:100
140
1.0
141
100.0
290
     0
  0
SCALE
  5
54
102
{ACAD_REACTORS
330
47
102
}
330
47
100
AcDbScale
 70
     0
300
2:1
140
2.0
141
1.0
290
     0
  0
SCALE
  5
55
102
{ACAD_REACTORS
330
47
102
}
330
47
100
AcDbScale
 70
     0
300
4:1
140
4.0
141
1.0
290
     0
  0
SCALE
  5
56
102
{ACAD_REACTORS
330
47
102
}
330
47
100
AcDbScale
 70
     0
300
8:1
140
8.0
141
1.0
290
     0
  0
SCALE
  5
57
102
{ACAD_REACTORS
330
47
102
}
330
47
100
AcDbScale
 70
     0
300
10:1
140
10.0
141
1.0
290
     0
  0
SCALE
  5
58
102
{ACAD_REACTORS
330
47
102
}
330
47
100
AcDbScale
 70
     0
300
100:1
140
100.0
141
1.0
290
     0
  0
SCALE
  5
59
102
{ACAD_REACTORS
330
47
102
}
330
47
100
AcDbScale
 70
     0
300
1/128" = 1'-0"
140
0.0078125
141
12.0
290
     0
  0
SCALE
  5
5A
102
{ACAD_REACTORS
330
47
102
}
330
47
100
AcDbScale
 70
     0
300
1/64" = 1'-0"
140
0.015625
141
12.0
290
     0
  0
SCALE
  5
5B
102
{ACAD_REACTORS
330
47
102
}
330
47
100
AcDbScale
 70
     0
300
1/32" = 1'-0"
140
0.03125
141
12.0
290
     0
  0
SCALE
  5
5C
102
{ACAD_REACTORS
330
47
102
}
330
47
100
AcDbScale
 70
     0
300
1/16" = 1'-0"
140
0.0625
141
12.0
290
     0
  0
SCALE
  5
5D
102
{ACAD_REACTORS
330
47
102
}
330
47
100
AcDbScale
 70
     0
300
3/32" = 1'-0"
140
0.09375
141
12.0
290
     0
  0
SCALE
  5
5E
102
{ACAD_REACTORS
330
47
102
}
330
47
100
AcDbScale
 70
     0
300
1/8" = 1'-0"
140
0.125
141
12.0
290
     0
  0
SCALE
  5
5F
102
{ACAD_REACTORS
330
47
102
}
330
47
100
AcDbScale
 70
     0
300
3/16" = 1'-0"
140
0.1875
141
12.0
290
     0
  0
SCALE
  5
60
102
{ACAD_REACTORS
330
47
102
}
330
47
100
AcDbScale
 70
     0
300
1/4" = 1'-0"
140
0.25
141
12.0
290
     0
  0
SCALE
  5
61
102
{ACAD_REACTORS
330
47
102
}
330
47
100
AcDbScale
 70
     0
300
3/8" = 1'-0"
140
0.375
141
12.0
290
     0
  0
SCALE
  5
62
102
{ACAD_REACTORS
330
47
102
}
330
47
100
AcDbScale
 70
     0
300
1/2" = 1'-0"
140
0.5
141
12.0
290
     0
  0
SCALE
  5
63
102
{ACAD_REACTORS
330
47
102
}
330
47
100
AcDbScale
 70
     0
300
3/4" = 1'-0"
140
0.75
141
12.0
290
     0
  0
SCALE
  5
64
102
{ACAD_REACTORS
330
47
102
}
330
47
100
AcDbScale
 70
     0
300
1" = 1'-0"
140
1.0
141
12.0
290
     0
  0
SCALE
  5
65
102
{ACAD_REACTORS
330
47
102
}
330
47
100
AcDbScale
 70
     0
300
1-1/2" = 1'-0"
140
1.5
141
12.0
290
     0
  0
SCALE
  5
66
102
{ACAD_REACTORS
330
47
102
}
330
47
100
AcDbScale
 70
     0
300
3" = 1'-0"
140
3.0
141
12.0
290
     0
  0
SCALE
  5
67
102
{ACAD_REACTORS
330
47
102
}
330
47
100
AcDbScale
 70
     0
300
6" = 1'-0"
140
6.0
141
12.0
290
     0
  0
SCALE
  5
68
102
{ACAD_REACTORS
330
47
102
}
330
47
100
AcDbScale
 70
     0
300
1'-0" = 1'-0"
140
12.0
141
12.0
290
     0
  0
ENDSEC
  0
EOF
