  0
SECTION
  2
HEADER
  9
$ACADVER
  1
AC1015
  9
$ACADMAINTVER
 70
     6
  9
$DWGCODEPAGE
  3
ANSI_1252
  9
$INSBASE
 10
0.0
 20
0.0
 30
0.0
  9
$EXTMIN
 10
0.0
 20
0.0
 30
0.0
  9
$EXTMAX
 10
8.5
 20
11.0
 30
0.0
  9
$LIMMIN
 10
0.0
 20
0.0
  9
$LIMMAX
 10
8.5
 20
11.0
  9
$ORTHOMODE
 70
     0
  9
$REGENMODE
 70
     1
  9
$FILLMODE
 70
     1
  9
$QTEXTMODE
 70
     0
  9
$MIRRTEXT
 70
     1
  9
$LTSCALE
 40
1.0
  9
$ATTMODE
 70
     1
  9
$TEXTSIZE
 40
0.1388888889
  9
$TRACEWID
 40
0.05
  9
$TEXTSTYLE
  7
Standard
  9
$CLAYER
  8
0
  9
$CELTYPE
  6
ByLayer
  9
$CECOLOR
 62
   256
  9
$CELTSCALE
 40
1.0
  9
$DISPSILH
 70
     0
  9
$DIMSCALE
 40
1.0
  9
$DIMASZ
 40
0.13
  9
$DIMEXO
 40
0.05
  9
$DIMDLI
 40
0.38
  9
$DIMRND
 40
0.0
  9
$DIMDLE
 40
0.0
  9
$DIMEXE
 40
0.125
  9
$DIMTP
 40
0.0
  9
$DIMTM
 40
0.0
  9
$DIMTXT
 40
0.1388888889
  9
$DIMCEN
 40
0.09
  9
$DIMTSZ
 40
0.0
  9
$DIMTOL
 70
     0
  9
$DIMLIM
 70
     0
  9
$DIMTIH
 70
     1
  9
$DIMTOH
 70
     1
  9
$DIMSE1
 70
     0
  9
$DIMSE2
 70
     0
  9
$DIMTAD
 70
     0
  9
$DIMZIN
 70
     0
  9
$DIMBLK
  1

  9
$DIMASO
 70
     1
  9
$DIMSHO
 70
     1
  9
$DIMPOST
  1

  9
$DIMAPOST
  1

  9
$DIMALT
 70
     0
  9
$DIMALTD
 70
     2
  9
$DIMALTF
 40
25.4
  9
$DIMLFAC
 40
1.0
  9
$DIMTOFL
 70
     0
  9
$DIMTVP
 40
0.0
  9
$DIMTIX
 70
     0
  9
$DIMSOXD
 70
     0
  9
$DIMSAH
 70
     0
  9
$DIMBLK1
  1

  9
$DIMBLK2
  1

  9
$DIMSTYLE
  2
Standard
  9
$DIMCLRD
 70
     0
  9
$DIMCLRE
 70
     0
  9
$DIMCLRT
 70
     0
  9
$DIMTFAC
 40
1.0
  9
$DIMGAP
 40
0.06
  9
$DIMJUST
 70
     0
  9
$DIMSD1
 70
     0
  9
$DIMSD2
 70
     0
  9
$DIMTOLJ
 70
     1
  9
$DIMTZIN
 70
     0
  9
$DIMALTZ
 70
     0
  9
$DIMALTTZ
 70
     0
  9
$DIMUPT
 70
     0
  9
$DIMDEC
 70
     0
  9
$DIMTDEC
 70
     0
  9
$DIMALTU
 70
     2
  9
$DIMALTTD
 70
     2
  9
$DIMTXSTY
  7
Standard
  9
$DIMAUNIT
 70
     0
  9
$DIMADEC
 70
     0
  9
$DIMALTRND
 40
0.0
  9
$DIMAZIN
 70
     0
  9
$DIMDSEP
 70
    46
  9
$DIMATFIT
 70
     3
  9
$DIMFRAC
 70
     0
  9
$DIMLDRBLK
  1

  9
$DIMLUNIT
 70
     2
  9
$DIMLWD
 70
    -2
  9
$DIMLWE
 70
    -2
  9
$DIMTMOVE
 70
     0
  9
$LUNITS
 70
     2
  9
$LUPREC
 70
     0
  9
$SKETCHINC
 40
0.1
  9
$FILLETRAD
 40
0.5
  9
$AUNITS
 70
     0
  9
$AUPREC
 70
     0
  9
$MENU
  1
.
  9
$ELEVATION
 40
0.0
  9
$PELEVATION
 40
0.0
  9
$THICKNESS
 40
0.0
  9
$LIMCHECK
 70
     0
  9
$CHAMFERA
 40
0.0
  9
$CHAMFERB
 40
0.0
  9
$CHAMFERC
 40
0.0
  9
$CHAMFERD
 40
0.0
  9
$SKPOLY
 70
     0
  9
$TDCREATE
 40
2459019.88935059
  9
$TDUCREATE
 40
2459020.056017257
  9
$TDUPDATE
 40
2459019.889355208
  9
$TDUUPDATE
 40
2459020.056021875
  9
$TDINDWG
 40
0.0000000116
  9
$TDUSRTIMER
 40
0.0000000116
  9
$USRTIMER
 70
     1
  9
$ANGBASE
 50
0.0
  9
$ANGDIR
 70
     0
  9
$PDMODE
 70
     0
  9
$PDSIZE
 40
-1.0
  9
$PLINEWID
 40
0.0
  9
$SPLFRAME
 70
     0
  9
$SPLINETYPE
 70
     6
  9
$SPLINESEGS
 70
     8
  9
$HANDSEED
  5
18A
  9
$SURFTAB1
 70
     6
  9
$SURFTAB2
 70
     6
  9
$SURFTYPE
 70
     6
  9
$SURFU
 70
     6
  9
$SURFV
 70
     6
  9
$UCSBASE
  2

  9
$UCSNAME
  2

  9
$UCSORG
 10
0.0
 20
0.0
 30
0.0
  9
$UCSXDIR
 10
1.0
 20
0.0
 30
0.0
  9
$UCSYDIR
 10
0.0
 20
1.0
 30
0.0
  9
$UCSORTHOREF
  2

  9
$UCSORTHOVIEW
 70
     0
  9
$UCSORGTOP
 10
0.0
 20
0.0
 30
0.0
  9
$UCSORGBOTTOM
 10
0.0
 20
0.0
 30
0.0
  9
$UCSORGLEFT
 10
0.0
 20
0.0
 30
0.0
  9
$UCSORGRIGHT
 10
0.0
 20
0.0
 30
0.0
  9
$UCSORGFRONT
 10
0.0
 20
0.0
 30
0.0
  9
$UCSORGBACK
 10
0.0
 20
0.0
 30
0.0
  9
$PUCSBASE
  2

  9
$PUCSNAME
  2

  9
$PUCSORG
 10
0.0
 20
0.0
 30
0.0
  9
$PUCSXDIR
 10
1.0
 20
0.0
 30
0.0
  9
$PUCSYDIR
 10
0.0
 20
1.0
 30
0.0
  9
$PUCSORTHOREF
  2

  9
$PUCSORTHOVIEW
 70
     0
  9
$PUCSORGTOP
 10
0.0
 20
0.0
 30
0.0
  9
$PUCSORGBOTTOM
 10
0.0
 20
0.0
 30
0.0
  9
$PUCSORGLEFT
 10
0.0
 20
0.0
 30
0.0
  9
$PUCSORGRIGHT
 10
0.0
 20
0.0
 30
0.0
  9
$PUCSORGFRONT
 10
0.0
 20
0.0
 30
0.0
  9
$PUCSORGBACK
 10
0.0
 20
0.0
 30
0.0
  9
$USERI1
 70
     0
  9
$USERI2
 70
     0
  9
$USERI3
 70
     0
  9
$USERI4
 70
     0
  9
$USERI5
 70
     0
  9
$USERR1
 40
0.0
  9
$USERR2
 40
0.0
  9
$USERR3
 40
0.0
  9
$USERR4
 40
0.0
  9
$USERR5
 40
0.0
  9
$WORLDVIEW
 70
     1
  9
$SHADEDGE
 70
     3
  9
$SHADEDIF
 70
    70
  9
$TILEMODE
 70
     1
  9
$MAXACTVP
 70
    64
  9
$PINSBASE
 10
0.0
 20
0.0
 30
0.0
  9
$PLIMCHECK
 70
     0
  9
$PEXTMIN
 10
1.0000000000E+20
 20
1.0000000000E+20
 30
1.0000000000E+20
  9
$PEXTMAX
 10
-1.0000000000E+20
 20
-1.0000000000E+20
 30
-1.0000000000E+20
  9
$PLIMMIN
 10
0.0
 20
0.0
  9
$PLIMMAX
 10
12.0
 20
9.0
  9
$UNITMODE
 70
     0
  9
$VISRETAIN
 70
     1
  9
$PLINEGEN
 70
     0
  9
$PSLTSCALE
 70
     1
  9
$TREEDEPTH
 70
  3020
  9
$CMLSTYLE
  2
Standard
  9
$CMLJUST
 70
     0
  9
$CMLSCALE
 40
1.0
  9
$PROXYGRAPHICS
 70
     1
  9
$MEASUREMENT
 70
     0
  9
$CELWEIGHT
370
    -1
  9
$ENDCAPS
280
     0
  9
$JOINSTYLE
280
     0
  9
$LWDISPLAY
290
     1
  9
$INSUNITS
 70
     1
  9
$HYPERLINKBASE
  1

  9
$STYLESHEET
  1

  9
$XEDIT
290
     1
  9
$CEPSNTYPE
380
     0
  9
$PSTYLEMODE
290
     1
  9
$FINGERPRINTGUID
  2
{91f035ba-f500-4295-af16-4424b9038232}
  9
$VERSIONGUID
  2
{FAEB1C32-E019-11D5-929B-00C0DF256EC4}
  9
$EXTNAMES
290
     1
  9
$PSVPSCALE
 40
0.0
  9
$OLESTARTUP
290
     0
  0
ENDSEC
  0
SECTION
  2
CLASSES
  0
CLASS
  1
ACDBDICTIONARYWDFLT
  2
AcDbDictionaryWithDefault
  3
ObjectDBX Classes
 90
        0
280
     0
281
     0
  0
CLASS
  1
VISUALSTYLE
  2
AcDbVisualStyle
  3
ObjectDBX Classes
 90
     4095
280
     0
281
     0
  0
CLASS
  1
MATERIAL
  2
AcDbMaterial
  3
ObjectDBX Classes
 90
     1153
280
     0
281
     0
  0
CLASS
  1
SCALE
  2
AcDbScale
  3
ObjectDBX Classes
 90
     1153
280
     0
281
     0
  0
CLASS
  1
TABLESTYLE
  2
AcDbTableStyle
  3
ObjectDBX Classes
 90
     4095
280
     0
281
     0
  0
CLASS
  1
MLEADERSTYLE
  2
AcDbMLeaderStyle
  3
ACDB_MLEADERSTYLE_CLASS
 90
     4095
280
     0
281
     0
  0
CLASS
  1
SUN
  2
AcDbSun
  3
SCENEOE
 90
     1153
280
     0
281
     0
  0
CLASS
  1
ACDBPLACEHOLDER
  2
AcDbPlaceHolder
  3
ObjectDBX Classes
 90
        0
280
     0
281
     0
  0
CLASS
  1
LAYOUT
  2
AcDbLayout
  3
ObjectDBX Classes
 90
        0
280
     0
281
     0
  0
ENDSEC
  0
SECTION
  2
TABLES
  0
TABLE
  2
VPORT
  5
8
330
0
100
AcDbSymbolTable
 70
     1
  0
VPORT
  5
29
330
8
100
AcDbSymbolTableRecord
100
AcDbViewportTableRecord
  2
*Active
 70
     0
 10
0.0
 20
0.0
 11
1.0
 21
1.0
 12
4.25
 22
5.5
 13
0.0
 23
0.0
 14
0.5
 24
0.5
 15
0.5
 25
0.5
 16
0.0
 26
0.0
 36
1.0
 17
0.0
 27
0.0
 37
0.0
 40
11.0
 41
0.7727272727
 42
50.0
 43
0.0
 44
0.0
 50
0.0
 51
0.0
 71
     0
 72
  2000
 73
     1
 74
     3
 75
     0
 76
     0
 77
     0
 78
     0
281
     0
 65
     1
110
0.0
120
0.0
130
0.0
111
1.0
121
0.0
131
0.0
112
0.0
122
1.0
132
0.0
 79
     0
146
0.0
  0
ENDTAB
  0
TABLE
  2
LTYPE
  5
5
330
0
100
AcDbSymbolTable
 70
     6
  0
LTYPE
  5
14
330
5
100
AcDbSymbolTableRecord
100
AcDbLinetypeTableRecord
  2
ByBlock
 70
     0
  3

 72
    65
 73
     0
 40
0.0
  0
LTYPE
  5
15
330
5
100
AcDbSymbolTableRecord
100
AcDbLinetypeTableRecord
  2
ByLayer
 70
     0
  3

 72
    65
 73
     0
 40
0.0
  0
LTYPE
  5
16
330
5
100
AcDbSymbolTableRecord
100
AcDbLinetypeTableRecord
  2
Continuous
 70
     0
  3
Solid line
 72
    65
 73
     0
 40
0.0
  0
LTYPE
  5
6E
330
5
100
AcDbSymbolTableRecord
100
AcDbLinetypeTableRecord
  2
HIDDEN
 70
     0
  3
Hidden __ __ __ __ __ __ __ __ __ __ __ __ __ __
 72
    65
 73
     2
 40
0.075
 49
0.05
 74
     0
 49
-0.025
 74
     0
  0
LTYPE
  5
6F
330
5
100
AcDbSymbolTableRecord
100
AcDbLinetypeTableRecord
  2
PHANTOM
 70
     0
  3
Phantom ______  __  __  ______  __  __  ______
 72
    65
 73
     6
 40
0.5
 49
0.25
 74
     0
 49
-0.05
 74
     0
 49
0.05
 74
     0
 49
-0.05
 74
     0
 49
0.05
 74
     0
 49
-0.05
 74
     0
  0
LTYPE
  5
70
330
5
100
AcDbSymbolTableRecord
100
AcDbLinetypeTableRecord
  2
CENTER
 70
     0
  3
Center ____ _ ____ _ ____ _ ____ _ ____ _ ____
 72
    65
 73
     4
 40
0.4
 49
0.25
 74
     0
 49
-0.05
 74
     0
 49
0.05
 74
     0
 49
-0.05
 74
     0
  0
LTYPE
  5
71
330
5
100
AcDbSymbolTableRecord
100
AcDbLinetypeTableRecord
  2
CENTERX2
 70
     0
  3
Center (2x) ________  __  ________  __  _____
 72
    65
 73
     4
 40
0.8
 49
0.5
 74
     0
 49
-0.1
 74
     0
 49
0.1
 74
     0
 49
-0.1
 74
     0
  0
LTYPE
  5
72
330
5
100
AcDbSymbolTableRecord
100
AcDbLinetypeTableRecord
  2
DOT2
 70
     0
  3
Dot (.5x) ........................................
 72
    65
 73
     2
 40
0.025
 49
0.0
 74
     0
 49
-0.025
 74
     0
  0
ENDTAB
  0
TABLE
  2
LAYER
  5
2
330
0
100
AcDbSymbolTable
 70
     7
  0
LAYER
  5
10
330
2
100
AcDbSymbolTableRecord
100
AcDbLayerTableRecord
  2
0
 70
     0
 62
     7
  6
Continuous
370
    -3
390
F
  0
LAYER
  5
73
330
2
100
AcDbSymbolTableRecord
100
AcDbLayerTableRecord
  2
FORMAT
 70
     0
 62
     7
  6
Continuous
370
    -3
390
F
  0
LAYER
  5
74
330
2
100
AcDbSymbolTableRecord
100
AcDbLayerTableRecord
  2
DEFAULT
 70
     0
 62
   179
  6
Continuous
370
    -3
390
F
  0
LAYER
  5
75
330
2
100
AcDbSymbolTableRecord
100
AcDbLayerTableRecord
  2
INSPECTION_TAGS
 70
     0
 62
     7
  6
Continuous
370
    -3
390
F
  0
LAYER
  5
76
330
2
100
AcDbSymbolTableRecord
100
AcDbLayerTableRecord
  2
REVISIONS
 70
     0
 62
     7
  6
Continuous
370
    -3
390
F
  0
LAYER
  5
77
330
2
100
AcDbSymbolTableRecord
100
AcDbLayerTableRecord
  2
DIMENSIONS_&_ANNOTATIONS
 70
     0
 62
     7
  6
Continuous
370
    -3
390
F
  0
LAYER
  5
78
330
2
100
AcDbSymbolTableRecord
100
AcDbLayerTableRecord
  2
DIMENSION_&_ANNOTATIONS
 70
     0
 62
     7
  6
Continuous
370
    -3
390
F
  0
ENDTAB
  0
TABLE
  2
STYLE
  5
3
330
0
100
AcDbSymbolTable
 70
     2
  0
STYLE
  5
11
330
3
100
AcDbSymbolTableRecord
100
AcDbTextStyleTableRecord
  2
Standard
 70
     0
 40
0.0
 41
1.0
 50
0.0
 71
     0
 42
0.1388888889
  3
txt
  4

  0
STYLE
  5
7C
330
3
100
AcDbSymbolTableRecord
100
AcDbTextStyleTableRecord
  2
SLDTEXTSTYLE0
 70
     0
 40
0.0
 41
0.605
 50
0.0
 71
     0
 42
0.1388888889
  3
TXT
  4

  0
ENDTAB
  0
TABLE
  2
VIEW
  5
6
330
0
100
AcDbSymbolTable
 70
     0
  0
ENDTAB
  0
TABLE
  2
UCS
  5
7
330
0
100
AcDbSymbolTable
 70
     0
  0
ENDTAB
  0
TABLE
  2
APPID
  5
9
330
0
100
AcDbSymbolTable
 70
     1
  0
APPID
  5
12
330
9
100
AcDbSymbolTableRecord
100
AcDbRegAppTableRecord
  2
ACAD
 70
     0
  0
ENDTAB
  0
TABLE
  2
DIMSTYLE
  5
A
330
0
100
AcDbSymbolTable
 70
     4
100
AcDbDimStyleTable
  0
DIMSTYLE
105
27
330
A
100
AcDbSymbolTableRecord
100
AcDbDimStyleTableRecord
  2
Standard
 70
     0
178
     0
340
11
  0
DIMSTYLE
105
B2
102
{ACAD_REACTORS
330
B1
102
}
330
A
100
AcDbSymbolTableRecord
100
AcDbDimStyleTableRecord
  2
SLDDIMSTYLE0
 70
     0
 41
0.13
 44
0.0
 45
0.000000001
 78
    12
 79
     3
140
0.1011149089
147
0.0252787272
148
0.000000001
170
     1
171
     1
173
     1
178
     0
271
     0
272
     0
274
     1
276
     2
277
     5
284
    12
340
7C
  0
DIMSTYLE
105
C7
102
{ACAD_REACTORS
330
C6
102
}
330
A
100
AcDbSymbolTableRecord
100
AcDbDimStyleTableRecord
  2
SLDDIMSTYLE1
 70
     0
 41
0.13
 44
0.0
 45
0.000000001
 78
    12
 79
     3
140
0.1011149089
147
0.0252787272
148
0.000000001
170
     1
171
     1
173
     1
178
     0
271
     6
272
     0
274
     1
276
     2
277
     5
284
    12
340
7C
  0
DIMSTYLE
105
E0
102
{ACAD_REACTORS
330
DF
102
}
330
A
100
AcDbSymbolTableRecord
100
AcDbDimStyleTableRecord
  2
SLDDIMSTYLE2
 70
     0
 41
0.13
 44
0.0
 45
0.000000001
 78
    12
 79
     3
140
0.1011149089
141
0.0
143
35.5
147
0.0252787272
148
0.000000001
170
     1
171
     1
173
     1
178
     0
271
     0
272
     0
274
     1
276
     2
277
     5
284
    12
340
7C
  0
ENDTAB
  0
TABLE
  2
BLOCK_RECORD
  5
1
330
0
100
AcDbSymbolTable
 70
     9
  0
BLOCK_RECORD
  5
1F
330
1
100
AcDbSymbolTableRecord
100
AcDbBlockTableRecord
  2
*Model_Space
340
22
  0
BLOCK_RECORD
  5
1B
330
1
100
AcDbSymbolTableRecord
100
AcDbBlockTableRecord
  2
*Paper_Space
340
1E
  0
BLOCK_RECORD
  5
23
330
1
100
AcDbSymbolTableRecord
100
AcDbBlockTableRecord
  2
*Paper_Space0
340
26
  0
BLOCK_RECORD
  5
79
330
1
100
AcDbSymbolTableRecord
100
AcDbBlockTableRecord
  2
SW_NOTE_0
340
0
102
{BLKREFS
331
81
102
}
  0
BLOCK_RECORD
  5
B3
330
1
100
AcDbSymbolTableRecord
100
AcDbBlockTableRecord
  2
_D
340
0
  0
BLOCK_RECORD
  5
C8
330
1
100
AcDbSymbolTableRecord
100
AcDbBlockTableRecord
  2
_D_1
340
0
  0
BLOCK_RECORD
  5
E1
330
1
100
AcDbSymbolTableRecord
100
AcDbBlockTableRecord
  2
_D_2
340
0
  0
BLOCK_RECORD
  5
F6
330
1
100
AcDbSymbolTableRecord
100
AcDbBlockTableRecord
  2
SW_CENTERMARKSYMBOL_8
340
0
102
{BLKREFS
331
101
102
}
  0
BLOCK_RECORD
  5
102
330
1
100
AcDbSymbolTableRecord
100
AcDbBlockTableRecord
  2
SW_CENTERMARKSYMBOL_9
340
0
102
{BLKREFS
331
10D
102
}
  0
BLOCK_RECORD
  5
10E
330
1
100
AcDbSymbolTableRecord
100
AcDbBlockTableRecord
  2
SW_CENTERMARKSYMBOL_10
340
0
102
{BLKREFS
331
119
102
}
  0
BLOCK_RECORD
  5
11A
330
1
100
AcDbSymbolTableRecord
100
AcDbBlockTableRecord
  2
SW_CENTERMARKSYMBOL_11
340
0
102
{BLKREFS
331
125
102
}
  0
ENDTAB
  0
ENDSEC
  0
SECTION
  2
BLOCKS
  0
BLOCK
  5
20
330
1F
100
AcDbEntity
  8
0
100
AcDbBlockBegin
  2
*Model_Space
 70
     0
 10
0.0
 20
0.0
 30
0.0
  3
*Model_Space
  1

  0
ENDBLK
  5
21
330
1F
100
AcDbEntity
  8
0
100
AcDbBlockEnd
  0
BLOCK
  5
1C
330
1B
100
AcDbEntity
 67
     1
  8
0
100
AcDbBlockBegin
  2
*Paper_Space
 70
     0
 10
0.0
 20
0.0
 30
0.0
  3
*Paper_Space
  1

  0
ENDBLK
  5
1D
330
1B
100
AcDbEntity
 67
     1
  8
0
100
AcDbBlockEnd
  0
BLOCK
  5
24
330
23
100
AcDbEntity
  8
0
100
AcDbBlockBegin
  2
*Paper_Space0
 70
     0
 10
0.0
 20
0.0
 30
0.0
  3
*Paper_Space0
  1

  0
ENDBLK
  5
25
330
23
100
AcDbEntity
  8
0
100
AcDbBlockEnd
  0
BLOCK
  5
7A
330
79
100
AcDbEntity
  8
0
100
AcDbBlockBegin
  2
SW_NOTE_0
 70
     0
 10
0.0
 20
0.0
 30
0.0
  3
SW_NOTE_0
  1

  0
MTEXT
  5
7D
330
79
100
AcDbEntity
  8
DEFAULT
 62
     0
100
AcDbMText
 10
0.3850911458
 20
0.1879890454
 30
0.0
 40
0.1458333333
 41
0.0
 71
     2
 72
     1
  1
Legrand
  7
SLDTEXTSTYLE0
 73
     1
 44
1.0
  0
MTEXT
  5
7E
330
79
100
AcDbEntity
  8
DEFAULT
 62
     0
100
AcDbMText
 10
0.4129879835
 20
-0.0055331972
 30
0.0
 40
0.125
 41
0.0
 71
     2
 72
     1
  1
SYSTEM: Wiremold® Resource RFB® Series Floor Boxes
  7
SLDTEXTSTYLE0
 73
     1
 44
1.0
  0
MTEXT
  5
7F
330
79
100
AcDbEntity
  8
DEFAULT
 62
     0
100
AcDbMText
 10
0.3961468804
 20
-0.1721998618
 30
0.0
 40
0.125
 41
0.0
 71
     2
 72
     1
  1
Catalog Number RFBAS1_R0
  7
SLDTEXTSTYLE0
 73
     1
 44
1.0
  0
MTEXT
  5
80
330
79
100
AcDbEntity
  8
DEFAULT
 62
     0
100
AcDbMText
 10
0.3886959733
 20
-0.3388665265
 30
0.0
 40
0.125
 41
0.0
 71
     2
 72
     1
  1
06/18/2020
  7
SLDTEXTSTYLE0
 73
     1
 44
1.0
  0
ENDBLK
  5
7B
330
79
100
AcDbEntity
  8
0
100
AcDbBlockEnd
  0
BLOCK
  5
B4
330
B3
100
AcDbEntity
  8
0
100
AcDbBlockBegin
  2
_D
 70
     0
 10
0.0
 20
0.0
 30
0.0
  3
_D
  1

  0
SOLID
  5
B6
330
B3
100
AcDbEntity
  8
DEFAULT
 62
     7
100
AcDbTrace
 10
2.130936019
 20
2.784853715
 30
0.0
 11
2.260936019
 21
2.764853715
 31
0.0
 12
2.260936019
 22
2.804853715
 32
0.0
 13
2.260936019
 23
2.804853715
 33
0.0
  0
SOLID
  5
B7
330
B3
100
AcDbEntity
  8
DEFAULT
 62
     7
100
AcDbTrace
 10
6.860936019
 20
2.784853715
 30
0.0
 11
6.730936019
 21
2.804853715
 31
0.0
 12
6.730936019
 22
2.764853715
 32
0.0
 13
6.730936019
 23
2.764853715
 33
0.0
  0
LINE
  5
B8
330
B3
100
AcDbEntity
  8
DEFAULT
 62
     7
100
AcDbLine
 10
4.2065842149
 20
2.7848537241
 30
0.0
 11
4.1718619931
 21
2.7848537241
 31
0.0
  0
LINE
  5
B9
330
B3
100
AcDbEntity
  8
DEFAULT
 62
     7
100
AcDbLine
 10
4.1718619931
 20
2.7848537241
 30
0.0
 11
4.1718619931
 21
2.6295682247
 31
0.0
  0
LINE
  5
BA
330
B3
100
AcDbEntity
  8
DEFAULT
 62
     7
100
AcDbLine
 10
4.1718619931
 20
2.6295682247
 30
0.0
 11
4.2065842149
 21
2.6295682247
 31
0.0
  0
LINE
  5
BB
330
B3
100
AcDbEntity
  8
DEFAULT
 62
     7
100
AcDbLine
 10
4.7852878963
 20
2.7848537241
 30
0.0
 11
4.8200101181
 21
2.7848537241
 31
0.0
  0
LINE
  5
BC
330
B3
100
AcDbEntity
  8
DEFAULT
 62
     7
100
AcDbLine
 10
4.8200101181
 20
2.7848537241
 30
0.0
 11
4.8200101181
 21
2.6295682247
 31
0.0
  0
LINE
  5
BD
330
B3
100
AcDbEntity
  8
DEFAULT
 62
     7
100
AcDbLine
 10
4.8200101181
 20
2.6295682247
 30
0.0
 11
4.7852878963
 21
2.6295682247
 31
0.0
  0
LINE
  5
BE
330
B3
100
AcDbEntity
  8
DEFAULT
 62
     7
100
AcDbLine
 10
2.130936019
 20
3.9085545024
 30
0.0
 11
2.130936019
 21
2.659853715
 31
0.0
  0
LINE
  5
BF
330
B3
100
AcDbEntity
  8
DEFAULT
 62
     7
100
AcDbLine
 10
6.860936019
 20
3.1285545024
 30
0.0
 11
6.860936019
 21
2.659853715
 31
0.0
  0
LINE
  5
C0
330
B3
100
AcDbEntity
  8
DEFAULT
 62
     7
100
AcDbLine
 10
2.130936019
 20
2.784853715
 30
0.0
 11
4.0752953048
 21
2.784853715
 31
0.0
  0
LINE
  5
C1
330
B3
100
AcDbEntity
  8
DEFAULT
 62
     7
100
AcDbLine
 10
6.860936019
 20
2.784853715
 30
0.0
 11
4.9165767331
 21
2.784853715
 31
0.0
  0
MTEXT
  5
C2
330
B3
100
AcDbEntity
  8
DEFAULT
 62
     7
100
AcDbMText
 10
4.1376220228
 20
2.9422797623
 30
0.0
 40
0.1041666667
 41
0.0
 71
     1
 72
     1
  1

  7
SLDTEXTSTYLE0
 73
     1
 44
1.0
  0
MTEXT
  5
C3
330
B3
100
AcDbEntity
  8
DEFAULT
 62
     7
100
AcDbMText
 10
4.4033434519
 20
2.9422797623
 30
0.0
 40
0.1041666667
 41
0.0
 71
     1
 72
     1
  1
5in
  7
SLDTEXTSTYLE0
 73
     1
 44
1.0
  0
MTEXT
  5
C4
330
B3
100
AcDbEntity
  8
DEFAULT
 62
     7
100
AcDbMText
 10
4.2065842149
 20
2.7638461211
 30
0.0
 40
0.1041666667
 41
0.0
 71
     1
 72
     1
  1
120.1mm
  7
SLDTEXTSTYLE0
 73
     1
 44
1.0
  0
MTEXT
  5
C5
330
B3
100
AcDbEntity
  8
DEFAULT
 62
     7
100
AcDbMText
 10
4.8937947941
 20
2.9422797623
 30
0.0
 40
0.1041666667
 41
0.0
 71
     1
 72
     1
  1

  7
SLDTEXTSTYLE0
 73
     1
 44
1.0
  0
ENDBLK
  5
B5
330
B3
100
AcDbEntity
  8
0
100
AcDbBlockEnd
  0
BLOCK
  5
C9
330
C8
100
AcDbEntity
  8
0
100
AcDbBlockBegin
  2
_D_1
 70
     0
 10
0.0
 20
0.0
 30
0.0
  3
_D_1
  1

  0
SOLID
  5
CB
330
C8
100
AcDbEntity
  8
DEFAULT
 62
     7
100
AcDbTrace
 10
7.4908572788
 20
5.4285545024
 30
0.0
 11
7.4708572788
 21
5.2985545024
 31
0.0
 12
7.5108572788
 22
5.2985545024
 32
0.0
 13
7.5108572788
 23
5.2985545024
 33
0.0
  0
SOLID
  5
CC
330
C8
100
AcDbEntity
  8
DEFAULT
 62
     7
100
AcDbTrace
 10
7.4908572788
 20
3.1785545024
 30
0.0
 11
7.5108572788
 21
3.3085545024
 31
0.0
 12
7.4708572788
 22
3.3085545024
 32
0.0
 13
7.4708572788
 23
3.3085545024
 33
0.0
  0
LINE
  5
CD
330
C8
100
AcDbEntity
  8
DEFAULT
 62
     7
100
AcDbLine
 10
7.4514090028
 20
4.414675276
 30
0.0
 11
7.5580833872
 21
4.414675276
 31
0.0
  0
LINE
  5
CE
330
C8
100
AcDbEntity
  8
DEFAULT
 62
     7
100
AcDbLine
 10
7.2400856957
 20
4.2408326769
 30
0.0
 11
7.2053634739
 21
4.2408326769
 31
0.0
  0
LINE
  5
CF
330
C8
100
AcDbEntity
  8
DEFAULT
 62
     7
100
AcDbLine
 10
7.2053634739
 20
4.2408326769
 30
0.0
 11
7.2053634739
 21
4.0855471775
 31
0.0
  0
LINE
  5
D0
330
C8
100
AcDbEntity
  8
DEFAULT
 62
     7
100
AcDbLine
 10
7.2053634739
 20
4.0855471775
 30
0.0
 11
7.2400856957
 21
4.0855471775
 31
0.0
  0
LINE
  5
D1
330
C8
100
AcDbEntity
  8
DEFAULT
 62
     7
100
AcDbLine
 10
7.7416289352
 20
4.2408326769
 30
0.0
 11
7.776351157
 21
4.2408326769
 31
0.0
  0
LINE
  5
D2
330
C8
100
AcDbEntity
  8
DEFAULT
 62
     7
100
AcDbLine
 10
7.776351157
 20
4.2408326769
 30
0.0
 11
7.776351157
 21
4.0855471775
 31
0.0
  0
LINE
  5
D3
330
C8
100
AcDbEntity
  8
DEFAULT
 62
     7
100
AcDbLine
 10
7.776351157
 20
4.0855471775
 30
0.0
 11
7.7416289352
 21
4.0855471775
 31
0.0
  0
LINE
  5
D4
330
C8
100
AcDbEntity
  8
DEFAULT
 62
     7
100
AcDbLine
 10
6.556936019
 20
5.4285545024
 30
0.0
 11
7.6158572788
 21
5.4285545024
 31
0.0
  0
LINE
  5
D5
330
C8
100
AcDbEntity
  8
DEFAULT
 62
     7
100
AcDbLine
 10
6.910936019
 20
3.1785545024
 30
0.0
 11
7.6158572788
 21
3.1785545024
 31
0.0
  0
LINE
  5
D6
330
C8
100
AcDbEntity
  8
DEFAULT
 62
     7
100
AcDbLine
 10
7.4908572788
 20
5.4285545024
 30
0.0
 11
7.4908572788
 21
4.5447099965
 31
0.0
  0
LINE
  5
D7
330
C8
100
AcDbEntity
  8
DEFAULT
 62
     7
100
AcDbLine
 10
7.4908572788
 20
3.1785545024
 30
0.0
 11
7.4908572788
 21
4.0623990082
 31
0.0
  0
MTEXT
  5
D8
330
C8
100
AcDbEntity
  8
DEFAULT
 62
     7
100
AcDbMText
 10
7.1711235036
 20
4.4691330231
 30
0.0
 40
0.1041666667
 41
0.0
 71
     1
 72
     1
  1

  7
SLDTEXTSTYLE0
 73
     1
 44
1.0
  0
MTEXT
  5
D9
330
C8
100
AcDbEntity
  8
DEFAULT
 62
     7
100
AcDbMText
 10
7.3594915622
 20
4.4691330231
 30
0.0
 40
0.1041666667
 41
0.0
 71
     1
 72
     1
  1
2
  7
SLDTEXTSTYLE0
 73
     1
 44
1.0
  0
MTEXT
  5
DA
330
C8
100
AcDbEntity
  8
DEFAULT
 62
     7
100
AcDbMText
 10
7.4661659465
 20
4.5400989966
 30
0.0
 40
0.1041666667
 41
0.0
 71
     1
 72
     1
  1
1
  7
SLDTEXTSTYLE0
 73
     1
 44
1.0
  0
MTEXT
  5
DB
330
C8
100
AcDbEntity
  8
DEFAULT
 62
     7
100
AcDbMText
 10
7.4661659465
 20
4.3982587206
 30
0.0
 40
0.1041666667
 41
0.0
 71
     1
 72
     1
  1
4
  7
SLDTEXTSTYLE0
 73
     1
 44
1.0
  0
MTEXT
  5
DC
330
C8
100
AcDbEntity
  8
DEFAULT
 62
     7
100
AcDbMText
 10
7.5728403309
 20
4.4691330231
 30
0.0
 40
0.1041666667
 41
0.0
 71
     1
 72
     1
  1
"
  7
SLDTEXTSTYLE0
 73
     1
 44
1.0
  0
MTEXT
  5
DD
330
C8
100
AcDbEntity
  8
DEFAULT
 62
     7
100
AcDbMText
 10
7.2400856957
 20
4.2198250739
 30
0.0
 40
0.1041666667
 41
0.0
 71
     1
 72
     1
  1
57.2mm
  7
SLDTEXTSTYLE0
 73
     1
 44
1.0
  0
MTEXT
  5
DE
330
C8
100
AcDbEntity
  8
DEFAULT
 62
     7
100
AcDbMText
 10
7.850135833
 20
4.4691330231
 30
0.0
 40
0.1041666667
 41
0.0
 71
     1
 72
     1
  1

  7
SLDTEXTSTYLE0
 73
     1
 44
1.0
  0
ENDBLK
  5
CA
330
C8
100
AcDbEntity
  8
0
100
AcDbBlockEnd
  0
BLOCK
  5
E2
330
E1
100
AcDbEntity
  8
0
100
AcDbBlockBegin
  2
_D_2
 70
     0
 10
0.0
 20
0.0
 30
0.0
  3
_D_2
  1

  0
SOLID
  5
E4
330
E1
100
AcDbEntity
  8
DEFAULT
 62
     7
100
AcDbTrace
 10
5.019936019
 20
3.6365687705
 30
0.0
 11
4.972256527
 21
3.759152073
 31
0.0
 12
4.9376155109
 22
3.739152073
 32
0.0
 13
4.9376155109
 23
3.739152073
 33
0.0
  0
SOLID
  5
E5
330
E1
100
AcDbEntity
  8
DEFAULT
 62
     7
100
AcDbTrace
 10
4.321936019
 20
4.8455402342
 30
0.0
 11
4.3696155109
 21
4.7229569317
 31
0.0
 12
4.404256527
 22
4.7429569317
 32
0.0
 13
4.404256527
 23
4.7429569317
 33
0.0
  0
LINE
  5
E6
330
E1
100
AcDbEntity
  8
DEFAULT
 62
     7
100
AcDbLine
 10
2.7903761017
 20
6.6143651307
 30
0.0
 11
2.974210983
 21
6.6143651307
 31
0.0
  0
LINE
  5
E7
330
E1
100
AcDbEntity
  8
DEFAULT
 62
     7
100
AcDbLine
 10
2.5438724327
 20
6.4405225316
 30
0.0
 11
2.5091502109
 21
6.4405225316
 31
0.0
  0
LINE
  5
E8
330
E1
100
AcDbEntity
  8
DEFAULT
 62
     7
100
AcDbLine
 10
2.5091502109
 20
6.4405225316
 30
0.0
 11
2.5091502109
 21
6.2852370321
 31
0.0
  0
LINE
  5
E9
330
E1
100
AcDbEntity
  8
DEFAULT
 62
     7
100
AcDbLine
 10
2.5091502109
 20
6.2852370321
 30
0.0
 11
2.5438724327
 21
6.2852370321
 31
0.0
  0
LINE
  5
EA
330
E1
100
AcDbEntity
  8
DEFAULT
 62
     7
100
AcDbLine
 10
3.0454156721
 20
6.4405225316
 30
0.0
 11
3.0801378939
 21
6.4405225316
 31
0.0
  0
LINE
  5
EB
330
E1
100
AcDbEntity
  8
DEFAULT
 62
     7
100
AcDbLine
 10
3.0801378939
 20
6.4405225316
 30
0.0
 11
3.0801378939
 21
6.2852370321
 31
0.0
  0
LINE
  5
EC
330
E1
100
AcDbEntity
  8
DEFAULT
 62
     7
100
AcDbLine
 10
3.0801378939
 20
6.2852370321
 30
0.0
 11
3.0454156721
 21
6.2852370321
 31
0.0
  0
LINE
  5
ED
330
E1
100
AcDbEntity
  8
DEFAULT
 62
     7
100
AcDbLine
 10
4.321936019
 20
4.8455402342
 30
0.0
 11
3.3648600974
 21
6.503244357
 31
0.0
  0
LINE
  5
EE
330
E1
100
AcDbEntity
  8
DEFAULT
 62
     7
100
AcDbLine
 10
5.019936019
 20
3.6365687705
 30
0.0
 11
4.321936019
 21
4.8455402342
 31
0.0
  0
LINE
  5
EF
330
E1
100
AcDbEntity
  8
DEFAULT
 62
     7
100
AcDbLine
 10
3.3648600974
 20
6.503244357
 30
0.0
 11
3.1148600974
 21
6.503244357
 31
0.0
  0
MTEXT
  5
F0
330
E1
100
AcDbEntity
  8
DEFAULT
 62
     7
100
AcDbMText
 10
2.5509374402
 20
6.6688228777
 30
0.0
 40
0.1041666667
 41
0.0
 71
     1
 72
     1
  1
%%c
  7
SLDTEXTSTYLE0
 73
     1
 44
1.0
  0
MTEXT
  5
F1
330
E1
100
AcDbEntity
  8
DEFAULT
 62
     7
100
AcDbMText
 10
2.698458661
 20
6.6688228777
 30
0.0
 40
0.1041666667
 41
0.0
 71
     1
 72
     1
  1
1
  7
SLDTEXTSTYLE0
 73
     1
 44
1.0
  0
MTEXT
  5
F2
330
E1
100
AcDbEntity
  8
DEFAULT
 62
     7
100
AcDbMText
 10
2.8051330454
 20
6.7397888513
 30
0.0
 40
0.1041666667
 41
0.0
 71
     1
 72
     1
  1
13
  7
SLDTEXTSTYLE0
 73
     1
 44
1.0
  0
MTEXT
  5
F3
330
E1
100
AcDbEntity
  8
DEFAULT
 62
     7
100
AcDbMText
 10
2.8051330454
 20
6.5979485752
 30
0.0
 40
0.1041666667
 41
0.0
 71
     1
 72
     1
  1
32
  7
SLDTEXTSTYLE0
 73
     1
 44
1.0
  0
MTEXT
  5
F4
330
E1
100
AcDbEntity
  8
DEFAULT
 62
     7
100
AcDbMText
 10
2.9889679267
 20
6.6688228777
 30
0.0
 40
0.1041666667
 41
0.0
 71
     1
 72
     1
  1
"
  7
SLDTEXTSTYLE0
 73
     1
 44
1.0
  0
MTEXT
  5
F5
330
E1
100
AcDbEntity
  8
DEFAULT
 62
     7
100
AcDbMText
 10
2.5438724327
 20
6.4195149286
 30
0.0
 40
0.1041666667
 41
0.0
 71
     1
 72
     1
  1
35.5mm
  7
SLDTEXTSTYLE0
 73
     1
 44
1.0
  0
ENDBLK
  5
E3
330
E1
100
AcDbEntity
  8
0
100
AcDbBlockEnd
  0
BLOCK
  5
F7
330
F6
100
AcDbEntity
  8
0
100
AcDbBlockBegin
  2
SW_CENTERMARKSYMBOL_8
 70
     0
 10
0.0
 20
0.0
 30
0.0
  3
SW_CENTERMARKSYMBOL_8
  1

  0
LINE
  5
F9
330
F6
100
AcDbEntity
  8
DEFAULT
 62
     0
100
AcDbLine
 10
0.0
 20
0.0
 30
0.0
 11
0.0
 21
0.1
 31
0.0
  0
LINE
  5
FA
330
F6
100
AcDbEntity
  8
DEFAULT
 62
     0
100
AcDbLine
 10
0.0
 20
0.0
 30
0.0
 11
-0.1
 21
0.0
 31
0.0
  0
LINE
  5
FB
330
F6
100
AcDbEntity
  8
DEFAULT
 62
     0
100
AcDbLine
 10
0.0
 20
0.0
 30
0.0
 11
0.0
 21
-0.1
 31
0.0
  0
LINE
  5
FC
330
F6
100
AcDbEntity
  8
DEFAULT
 62
     0
100
AcDbLine
 10
0.0
 20
0.0
 30
0.0
 11
0.1
 21
0.0
 31
0.0
  0
LINE
  5
FD
330
F6
100
AcDbEntity
  8
DEFAULT
 62
     0
100
AcDbLine
 10
0.0
 20
0.1
 30
0.0
 11
0.0
 21
0.15325
 31
0.0
  0
LINE
  5
FE
330
F6
100
AcDbEntity
  8
DEFAULT
 62
     0
100
AcDbLine
 10
-0.1
 20
0.0
 30
0.0
 11
-0.15325
 21
0.0
 31
0.0
  0
LINE
  5
FF
330
F6
100
AcDbEntity
  8
DEFAULT
 62
     0
100
AcDbLine
 10
0.0
 20
-0.1
 30
0.0
 11
0.0
 21
-0.15325
 31
0.0
  0
LINE
  5
100
330
F6
100
AcDbEntity
  8
DEFAULT
 62
     0
100
AcDbLine
 10
0.1
 20
0.0
 30
0.0
 11
0.15325
 21
0.0
 31
0.0
  0
ENDBLK
  5
F8
330
F6
100
AcDbEntity
  8
0
100
AcDbBlockEnd
  0
BLOCK
  5
103
330
102
100
AcDbEntity
  8
0
100
AcDbBlockBegin
  2
SW_CENTERMARKSYMBOL_9
 70
     0
 10
0.0
 20
0.0
 30
0.0
  3
SW_CENTERMARKSYMBOL_9
  1

  0
LINE
  5
105
330
102
100
AcDbEntity
  8
DEFAULT
 62
     0
100
AcDbLine
 10
0.0
 20
0.0
 30
0.0
 11
0.0
 21
0.1
 31
0.0
  0
LINE
  5
106
330
102
100
AcDbEntity
  8
DEFAULT
 62
     0
100
AcDbLine
 10
0.0
 20
0.0
 30
0.0
 11
-0.1
 21
0.0
 31
0.0
  0
LINE
  5
107
330
102
100
AcDbEntity
  8
DEFAULT
 62
     0
100
AcDbLine
 10
0.0
 20
0.0
 30
0.0
 11
0.0
 21
-0.1
 31
0.0
  0
LINE
  5
108
330
102
100
AcDbEntity
  8
DEFAULT
 62
     0
100
AcDbLine
 10
0.0
 20
0.0
 30
0.0
 11
0.1
 21
0.0
 31
0.0
  0
LINE
  5
109
330
102
100
AcDbEntity
  8
DEFAULT
 62
     0
100
AcDbLine
 10
0.0
 20
0.2
 30
0.0
 11
0.0
 21
0.798
 31
0.0
  0
LINE
  5
10A
330
102
100
AcDbEntity
  8
DEFAULT
 62
     0
100
AcDbLine
 10
-0.2
 20
0.0
 30
0.0
 11
-0.798
 21
0.0
 31
0.0
  0
LINE
  5
10B
330
102
100
AcDbEntity
  8
DEFAULT
 62
     0
100
AcDbLine
 10
0.0
 20
-0.2
 30
0.0
 11
0.0
 21
-0.798
 31
0.0
  0
LINE
  5
10C
330
102
100
AcDbEntity
  8
DEFAULT
 62
     0
100
AcDbLine
 10
0.2
 20
0.0
 30
0.0
 11
0.798
 21
0.0
 31
0.0
  0
ENDBLK
  5
104
330
102
100
AcDbEntity
  8
0
100
AcDbBlockEnd
  0
BLOCK
  5
10F
330
10E
100
AcDbEntity
  8
0
100
AcDbBlockBegin
  2
SW_CENTERMARKSYMBOL_10
 70
     0
 10
0.0
 20
0.0
 30
0.0
  3
SW_CENTERMARKSYMBOL_10
  1

  0
LINE
  5
111
330
10E
100
AcDbEntity
  8
DEFAULT
 62
     0
100
AcDbLine
 10
0.0
 20
0.0
 30
0.0
 11
0.0
 21
0.1
 31
0.0
  0
LINE
  5
112
330
10E
100
AcDbEntity
  8
DEFAULT
 62
     0
100
AcDbLine
 10
0.0
 20
0.0
 30
0.0
 11
-0.1
 21
0.0
 31
0.0
  0
LINE
  5
113
330
10E
100
AcDbEntity
  8
DEFAULT
 62
     0
100
AcDbLine
 10
0.0
 20
0.0
 30
0.0
 11
0.0
 21
-0.1
 31
0.0
  0
LINE
  5
114
330
10E
100
AcDbEntity
  8
DEFAULT
 62
     0
100
AcDbLine
 10
0.0
 20
0.0
 30
0.0
 11
0.1
 21
0.0
 31
0.0
  0
LINE
  5
115
330
10E
100
AcDbEntity
  8
DEFAULT
 62
     0
100
AcDbLine
 10
0.0
 20
0.1
 30
0.0
 11
0.0
 21
0.178
 31
0.0
  0
LINE
  5
116
330
10E
100
AcDbEntity
  8
DEFAULT
 62
     0
100
AcDbLine
 10
-0.1
 20
0.0
 30
0.0
 11
-0.178
 21
0.0
 31
0.0
  0
LINE
  5
117
330
10E
100
AcDbEntity
  8
DEFAULT
 62
     0
100
AcDbLine
 10
0.0
 20
-0.1
 30
0.0
 11
0.0
 21
-0.178
 31
0.0
  0
LINE
  5
118
330
10E
100
AcDbEntity
  8
DEFAULT
 62
     0
100
AcDbLine
 10
0.1
 20
0.0
 30
0.0
 11
0.178
 21
0.0
 31
0.0
  0
ENDBLK
  5
110
330
10E
100
AcDbEntity
  8
0
100
AcDbBlockEnd
  0
BLOCK
  5
11B
330
11A
100
AcDbEntity
  8
0
100
AcDbBlockBegin
  2
SW_CENTERMARKSYMBOL_11
 70
     0
 10
0.0
 20
0.0
 30
0.0
  3
SW_CENTERMARKSYMBOL_11
  1

  0
LINE
  5
11D
330
11A
100
AcDbEntity
  8
DEFAULT
 62
     0
100
AcDbLine
 10
0.0
 20
0.0
 30
0.0
 11
0.0
 21
0.1
 31
0.0
  0
LINE
  5
11E
330
11A
100
AcDbEntity
  8
DEFAULT
 62
     0
100
AcDbLine
 10
0.0
 20
0.0
 30
0.0
 11
-0.1
 21
0.0
 31
0.0
  0
LINE
  5
11F
330
11A
100
AcDbEntity
  8
DEFAULT
 62
     0
100
AcDbLine
 10
0.0
 20
0.0
 30
0.0
 11
0.0
 21
-0.1
 31
0.0
  0
LINE
  5
120
330
11A
100
AcDbEntity
  8
DEFAULT
 62
     0
100
AcDbLine
 10
0.0
 20
0.0
 30
0.0
 11
0.1
 21
0.0
 31
0.0
  0
LINE
  5
121
330
11A
100
AcDbEntity
  8
DEFAULT
 62
     0
100
AcDbLine
 10
0.0
 20
0.1
 30
0.0
 11
0.0
 21
0.178
 31
0.0
  0
LINE
  5
122
330
11A
100
AcDbEntity
  8
DEFAULT
 62
     0
100
AcDbLine
 10
-0.1
 20
0.0
 30
0.0
 11
-0.178
 21
0.0
 31
0.0
  0
LINE
  5
123
330
11A
100
AcDbEntity
  8
DEFAULT
 62
     0
100
AcDbLine
 10
0.0
 20
-0.1
 30
0.0
 11
0.0
 21
-0.178
 31
0.0
  0
LINE
  5
124
330
11A
100
AcDbEntity
  8
DEFAULT
 62
     0
100
AcDbLine
 10
0.1
 20
0.0
 30
0.0
 11
0.178
 21
0.0
 31
0.0
  0
ENDBLK
  5
11C
330
11A
100
AcDbEntity
  8
0
100
AcDbBlockEnd
  0
ENDSEC
  0
SECTION
  2
ENTITIES
  0
INSERT
  5
81
330
1F
100
AcDbEntity
  8
DEFAULT
 62
     7
100
AcDbBlockReference
  2
SW_NOTE_0
 10
3.9596411456
 20
1.3411170287
 30
0.0
  0
LINE
  5
82
330
1F
100
AcDbEntity
  8
0
  6
Continuous
 62
     7
370
    25
100
AcDbLine
 10
6.506935956
 20
5.4285545109
 30
0.0
 11
4.9209360159
 21
5.4285545109
 31
0.0
  0
LINE
  5
83
330
1F
100
AcDbEntity
  8
0
  6
Continuous
 62
     7
370
    25
100
AcDbLine
 10
6.5369359828
 20
5.3985544842
 30
0.0
 11
6.506935956
 21
5.4285545109
 31
0.0
  0
LINE
  5
84
330
1F
100
AcDbEntity
  8
0
  6
Continuous
 62
     7
370
    25
100
AcDbLine
 10
6.5369359828
 20
5.0005545152
 30
0.0
 11
6.5369359828
 21
5.3985544842
 31
0.0
  0
LINE
  5
85
330
1F
100
AcDbEntity
  8
0
  6
Continuous
 62
     7
370
    25
100
AcDbLine
 10
6.8609360666
 20
5.0005545152
 30
0.0
 11
6.5369359828
 21
5.0005545152
 31
0.0
  0
LINE
  5
86
330
1F
100
AcDbEntity
  8
0
  6
Continuous
 62
     7
370
    25
100
AcDbLine
 10
6.8609360666
 20
4.8130544946
 30
0.0
 11
6.8609360666
 21
5.0005545152
 31
0.0
  0
LINE
  5
87
330
1F
100
AcDbEntity
  8
0
  6
Continuous
 62
     7
370
    25
100
AcDbLine
 10
6.7909359552
 20
4.8130544946
 30
0.0
 11
6.8609360666
 21
4.8130544946
 31
0.0
  0
LINE
  5
88
330
1F
100
AcDbEntity
  8
0
  6
Continuous
 62
     7
370
    25
100
AcDbLine
 10
6.7909359552
 20
4.4285545047
 30
0.0
 11
6.7909359552
 21
4.8130544946
 31
0.0
  0
LINE
  5
89
330
1F
100
AcDbEntity
  8
0
  6
Continuous
 62
     7
370
    25
100
AcDbLine
 10
6.8609360666
 20
4.4285545047
 30
0.0
 11
6.7909359552
 21
4.4285545047
 31
0.0
  0
LINE
  5
8A
330
1F
100
AcDbEntity
  8
0
  6
Continuous
 62
     7
370
    25
100
AcDbLine
 10
6.8609360666
 20
4.0535545001
 30
0.0
 11
6.8609360666
 21
4.4285545047
 31
0.0
  0
LINE
  5
8B
330
1F
100
AcDbEntity
  8
0
  6
Continuous
 62
     7
370
    25
100
AcDbLine
 10
6.7909359552
 20
4.0535545001
 30
0.0
 11
6.8609360666
 21
4.0535545001
 31
0.0
  0
LINE
  5
8C
330
1F
100
AcDbEntity
  8
0
  6
Continuous
 62
     7
370
    25
100
AcDbLine
 10
6.7909359552
 20
3.3660545038
 30
0.0
 11
6.7909359552
 21
4.0535545001
 31
0.0
  0
LINE
  5
8D
330
1F
100
AcDbEntity
  8
0
  6
Continuous
 62
     7
370
    25
100
AcDbLine
 10
6.8609360666
 20
3.3660545038
 30
0.0
 11
6.7909359552
 21
3.3660545038
 31
0.0
  0
LINE
  5
8E
330
1F
100
AcDbEntity
  8
0
  6
Continuous
 62
     7
370
    25
100
AcDbLine
 10
6.8609360666
 20
3.1785544831
 30
0.0
 11
6.8609360666
 21
3.3660545038
 31
0.0
  0
LINE
  5
8F
330
1F
100
AcDbEntity
  8
0
  6
Continuous
 62
     7
370
    25
100
AcDbLine
 10
6.3009360557
 20
3.1785544831
 30
0.0
 11
6.8609360666
 21
3.1785544831
 31
0.0
  0
LINE
  5
90
330
1F
100
AcDbEntity
  8
0
  6
Continuous
 62
     7
370
    25
100
AcDbLine
 10
6.3009360557
 20
3.2685544901
 30
0.0
 11
6.3009360557
 21
3.1785544831
 31
0.0
  0
LINE
  5
91
330
1F
100
AcDbEntity
  8
0
  6
Continuous
 62
     7
370
    25
100
AcDbLine
 10
6.0409360193
 20
3.2685544901
 30
0.0
 11
6.3009360557
 21
3.2685544901
 31
0.0
  0
LINE
  5
92
330
1F
100
AcDbEntity
  8
0
  6
Continuous
 62
     7
370
    25
100
AcDbLine
 10
6.0409360193
 20
3.1785544831
 30
0.0
 11
6.0409360193
 21
3.2685544901
 31
0.0
  0
LINE
  5
93
330
1F
100
AcDbEntity
  8
0
  6
Continuous
 62
     7
370
    25
100
AcDbLine
 10
3.3009360186
 20
3.1785544831
 30
0.0
 11
6.0409360193
 21
3.1785544831
 31
0.0
  0
LINE
  5
94
330
1F
100
AcDbEntity
  8
0
  6
Continuous
 62
     7
370
    25
100
AcDbLine
 10
3.3009360186
 20
3.2685544901
 30
0.0
 11
3.3009360186
 21
3.1785544831
 31
0.0
  0
LINE
  5
95
330
1F
100
AcDbEntity
  8
0
  6
Continuous
 62
     7
370
    25
100
AcDbLine
 10
3.0409359822
 20
3.2685544901
 30
0.0
 11
3.3009360186
 21
3.2685544901
 31
0.0
  0
LINE
  5
96
330
1F
100
AcDbEntity
  8
0
  6
Continuous
 62
     7
370
    25
100
AcDbLine
 10
3.0409359822
 20
3.1785544831
 30
0.0
 11
3.0409359822
 21
3.2685544901
 31
0.0
  0
LINE
  5
97
330
1F
100
AcDbEntity
  8
0
  6
Continuous
 62
     7
370
    25
100
AcDbLine
 10
2.2809359884
 20
3.1785544831
 30
0.0
 11
3.0409359822
 21
3.1785544831
 31
0.0
  0
LINE
  5
98
330
1F
100
AcDbEntity
  8
0
  6
Continuous
 62
     7
370
    25
100
AcDbLine
 10
2.2509359617
 20
3.2085545099
 30
0.0
 11
2.2809359884
 21
3.1785544831
 31
0.0
  0
LINE
  5
99
330
1F
100
AcDbEntity
  8
0
  6
Continuous
 62
     7
370
    25
100
AcDbLine
 10
2.2509359617
 20
3.9285544924
 30
0.0
 11
2.2509359617
 21
3.2085545099
 31
0.0
  0
LINE
  5
9A
330
1F
100
AcDbEntity
  8
0
  6
Continuous
 62
     7
370
    25
100
AcDbLine
 10
2.160936028
 20
3.9285544924
 30
0.0
 11
2.2509359617
 21
3.9285544924
 31
0.0
  0
LINE
  5
9B
330
1F
100
AcDbEntity
  8
0
  6
Continuous
 62
     7
370
    25
100
AcDbLine
 10
2.1309360013
 20
3.9585545008
 30
0.0
 11
2.160936028
 21
3.9285544924
 31
0.0
  0
LINE
  5
9C
330
1F
100
AcDbEntity
  8
0
  6
Continuous
 62
     7
370
    25
100
AcDbLine
 10
2.1309360013
 20
4.1630545043
 30
0.0
 11
2.1309360013
 21
3.9585545008
 31
0.0
  0
LINE
  5
9D
330
1F
100
AcDbEntity
  8
0
  6
Continuous
 62
     7
370
    25
100
AcDbLine
 10
2.1709359392
 20
4.1630545043
 30
0.0
 11
2.1309360013
 21
4.1630545043
 31
0.0
  0
ARC
  5
9E
330
1F
100
AcDbEntity
  8
0
  6
Continuous
 62
     7
370
    25
100
AcDbCircle
 10
2.170936019
 20
4.2410545024
 30
0.0
 40
0.0780000000000003
100
AcDbArc
 50
270.0
 51
90.0
  0
LINE
  5
9F
330
1F
100
AcDbEntity
  8
0
  6
Continuous
 62
     7
370
    25
100
AcDbLine
 10
2.1309360013
 20
4.3190545005
 30
0.0
 11
2.1709359392
 21
4.3190545005
 31
0.0
  0
LINE
  5
A0
330
1F
100
AcDbEntity
  8
0
  6
Continuous
 62
     7
370
    25
100
AcDbLine
 10
2.1309360013
 20
4.5235545039
 30
0.0
 11
2.1309360013
 21
4.3190545005
 31
0.0
  0
LINE
  5
A1
330
1F
100
AcDbEntity
  8
0
  6
Continuous
 62
     7
370
    25
100
AcDbLine
 10
2.160936028
 20
4.5535545123
 30
0.0
 11
2.1309360013
 21
4.5235545039
 31
0.0
  0
LINE
  5
A2
330
1F
100
AcDbEntity
  8
0
  6
Continuous
 62
     7
370
    25
100
AcDbLine
 10
2.2509359617
 20
4.5535545123
 30
0.0
 11
2.160936028
 21
4.5535545123
 31
0.0
  0
LINE
  5
A3
330
1F
100
AcDbEntity
  8
0
  6
Continuous
 62
     7
370
    25
100
AcDbLine
 10
2.2509359617
 20
5.3985544842
 30
0.0
 11
2.2509359617
 21
4.5535545123
 31
0.0
  0
LINE
  5
A4
330
1F
100
AcDbEntity
  8
0
  6
Continuous
 62
     7
370
    25
100
AcDbLine
 10
2.2809359884
 20
5.4285545109
 30
0.0
 11
2.2509359617
 21
5.3985544842
 31
0.0
  0
LINE
  5
A5
330
1F
100
AcDbEntity
  8
0
  6
Continuous
 62
     7
370
    25
100
AcDbLine
 10
3.0409359822
 20
5.4285545109
 30
0.0
 11
2.2809359884
 21
5.4285545109
 31
0.0
  0
LINE
  5
A6
330
1F
100
AcDbEntity
  8
0
  6
Continuous
 62
     7
370
    25
100
AcDbLine
 10
3.0409359822
 20
5.2405545094
 30
0.0
 11
3.0409359822
 21
5.4285545109
 31
0.0
  0
LINE
  5
A7
330
1F
100
AcDbEntity
  8
0
  6
Continuous
 62
     7
370
    25
100
AcDbLine
 10
3.3009360186
 20
5.2405545094
 30
0.0
 11
3.0409359822
 21
5.2405545094
 31
0.0
  0
LINE
  5
A8
330
1F
100
AcDbEntity
  8
0
  6
Continuous
 62
     7
370
    25
100
AcDbLine
 10
3.3009360186
 20
5.4285545109
 30
0.0
 11
3.3009360186
 21
5.2405545094
 31
0.0
  0
LINE
  5
A9
330
1F
100
AcDbEntity
  8
0
  6
Continuous
 62
     7
370
    25
100
AcDbLine
 10
4.420936022
 20
5.4285545109
 30
0.0
 11
3.3009360186
 21
5.4285545109
 31
0.0
  0
LINE
  5
AA
330
1F
100
AcDbEntity
  8
0
  6
Continuous
 62
     7
370
    25
100
AcDbLine
 10
4.420936022
 20
5.338554504
 30
0.0
 11
4.420936022
 21
5.4285545109
 31
0.0
  0
LINE
  5
AB
330
1F
100
AcDbEntity
  8
0
  6
Continuous
 62
     7
370
    25
100
AcDbLine
 10
4.9209360159
 20
5.338554504
 30
0.0
 11
4.420936022
 21
5.338554504
 31
0.0
  0
LINE
  5
AC
330
1F
100
AcDbEntity
  8
0
  6
Continuous
 62
     7
370
    25
100
AcDbLine
 10
4.9209360159
 20
5.4285545109
 30
0.0
 11
4.9209360159
 21
5.338554504
 31
0.0
  0
CIRCLE
  5
AD
330
1F
100
AcDbEntity
  8
0
  6
Continuous
 62
     7
370
    25
100
AcDbCircle
 10
4.670936019
 20
4.2410545024
 30
0.0
 40
0.6980000000000004
  0
CIRCLE
  5
AE
330
1F
100
AcDbEntity
  8
0
  6
Continuous
 62
     7
370
    25
100
AcDbCircle
 10
3.483436019
 20
4.2410545024
 30
0.0
 40
0.0780000000000003
  0
CIRCLE
  5
AF
330
1F
100
AcDbEntity
  8
0
  6
Continuous
 62
     7
370
    25
100
AcDbCircle
 10
5.858436019
 20
4.2410545024
 30
0.0
 40
0.0780000000000012
  0
CIRCLE
  5
B0
330
1F
100
AcDbEntity
  8
0
  6
Continuous
 62
     7
370
    25
100
AcDbCircle
 10
6.384936019
 20
5.2465545024
 30
0.0
 40
0.0532500000000002
  0
DIMENSION
  5
B1
330
1F
100
AcDbEntity
  8
DEFAULT
 62
     7
100
AcDbDimension
  2
_D
 10
6.860936019
 20
2.784853715
 30
0.0
 11
4.495936019
 21
2.784853715
 31
0.0
 70
   160
  1
<>
 71
     2
 42
-1.0
  3
SLDDIMSTYLE0
100
AcDbAlignedDimension
 13
2.130936019
 23
3.9585545024
 33
0.0
 14
6.860936019
 24
3.1785545024
 34
0.0
 50
0.0
100
AcDbRotatedDimension
  0
DIMENSION
  5
C6
330
1F
100
AcDbEntity
  8
DEFAULT
 62
     7
100
AcDbDimension
  2
_D_1
 10
7.4908572788
 20
3.1785545024
 30
0.0
 11
7.4908572788
 21
4.3035545024
 31
0.0
 70
   160
  1
<>
 71
     2
 42
-1.0
  3
SLDDIMSTYLE1
100
AcDbAlignedDimension
 13
6.506936019
 23
5.4285545024
 33
0.0
 14
6.860936019
 24
3.1785545024
 34
0.0
 50
90.0
100
AcDbRotatedDimension
  0
DIMENSION
  5
DF
330
1F
100
AcDbEntity
  8
DEFAULT
 62
     7
100
AcDbDimension
  2
_D_2
 10
4.321936019
 20
4.8455402342
 30
0.0
 11
2.7946440432
 21
6.503244357
 31
0.0
 70
   163
  1
<>
 71
     1
 42
-1.0
  3
SLDDIMSTYLE2
100
AcDbDiametricDimension
 15
5.019936019
 25
3.6365687705
 35
0.0
 40
0.0
  0
INSERT
  5
101
330
1F
100
AcDbEntity
  8
DEFAULT
100
AcDbBlockReference
  2
SW_CENTERMARKSYMBOL_8
 10
6.384936019
 20
5.2465545024
 30
0.0
  0
INSERT
  5
10D
330
1F
100
AcDbEntity
  8
DEFAULT
100
AcDbBlockReference
  2
SW_CENTERMARKSYMBOL_9
 10
4.670936019
 20
4.2410545024
 30
0.0
  0
INSERT
  5
119
330
1F
100
AcDbEntity
  8
DEFAULT
100
AcDbBlockReference
  2
SW_CENTERMARKSYMBOL_10
 10
3.483436019
 20
4.2410545024
 30
0.0
  0
INSERT
  5
125
330
1F
100
AcDbEntity
  8
DEFAULT
100
AcDbBlockReference
  2
SW_CENTERMARKSYMBOL_11
 10
5.858436019
 20
4.2410545024
 30
0.0
  0
CIRCLE
  5
126
330
1F
100
AcDbEntity
  8
0
  6
HIDDEN
 62
     7
370
    18
100
AcDbCircle
 10
6.384936019
 20
5.2465545024
 30
0.0
 40
0.0689999999999991
  0
CIRCLE
  5
127
330
1F
100
AcDbEntity
  8
0
  6
HIDDEN
 62
     7
370
    18
100
AcDbCircle
 10
6.384936019
 20
5.2465545024
 30
0.0
 40
0.0689999999999991
  0
LWPOLYLINE
  5
128
330
1F
100
AcDbEntity
  8
0
  6
Continuous
 62
     7
370
    25
100
AcDbPolyline
 90
       25
 70
   128
 43
0.0
 10
7.0938327256
 20
8.3740231239
 10
7.0925497564
 20
8.3860174195
 10
7.0887881709
 20
8.3986756599
 10
7.0828043348
 20
8.411135253
 10
7.075006027
 20
8.4225470333
 10
7.0659247501
 20
8.432133283
 10
7.0561793285
 20
8.4392407805
 10
7.0464339068
 20
8.4433851073
 10
7.0373525262
 20
8.4442839367
 10
7.0295543222
 20
8.4418758309
 10
7.023570486
 20
8.436325028
 10
7.0198089005
 20
8.4280098217
 10
7.0185258277
 20
8.4174968707
 10
7.0198089005
 20
8.4055025153
 10
7.023570486
 20
8.3928442748
 10
7.0295543222
 20
8.3803846818
 10
7.0373525262
 20
8.3689729613
 10
7.0464339068
 20
8.3593866518
 10
7.0561793285
 20
8.3522791543
 10
7.0659247501
 20
8.3481348274
 10
7.075006027
 20
8.3472360579
 10
7.0828043348
 20
8.3496441038
 10
7.0887881709
 20
8.3551949067
 10
7.0925497564
 20
8.363510113
 10
7.0938327256
 20
8.3740231239
  0
LINE
  5
129
330
1F
100
AcDbEntity
  8
0
  6
Continuous
 62
     7
370
    25
100
AcDbLine
 10
7.1424462738
 20
8.4945695565
 30
0.0
 11
6.0209749612
 21
9.1419811648
 31
0.0
  0
LINE
  5
12A
330
1F
100
AcDbEntity
  8
0
  6
Continuous
 62
     7
370
    25
100
AcDbLine
 10
7.1636594961
 20
8.4578271777
 30
0.0
 11
7.1424462738
 21
8.4945695565
 31
0.0
  0
LINE
  5
12B
330
1F
100
AcDbEntity
  8
0
  6
Continuous
 62
     7
370
    25
100
AcDbLine
 10
7.1636594961
 20
8.13284396
 30
0.0
 11
7.1636594961
 21
8.4578271777
 31
0.0
  0
LINE
  5
12C
330
1F
100
AcDbEntity
  8
0
  6
Continuous
 62
     7
370
    25
100
AcDbLine
 10
7.3927621525
 20
8.0005858116
 30
0.0
 11
7.1636594961
 21
8.13284396
 31
0.0
  0
LINE
  5
12D
330
1F
100
AcDbEntity
  8
0
  6
Continuous
 62
     7
370
    25
100
AcDbLine
 10
7.3927621525
 20
7.8474843925
 30
0.0
 11
7.3927621525
 21
8.0005858116
 31
0.0
  0
LINE
  5
12E
330
1F
100
AcDbEntity
  8
0
  6
Continuous
 62
     7
370
    25
100
AcDbLine
 10
7.343264599
 20
7.8760587219
 30
0.0
 11
7.3927621525
 21
7.8474843925
 31
0.0
  0
LINE
  5
12F
330
1F
100
AcDbEntity
  8
0
  6
Continuous
 62
     7
370
    25
100
AcDbLine
 10
7.343264599
 20
7.562098788
 30
0.0
 11
7.343264599
 21
7.8760587219
 31
0.0
  0
LINE
  5
130
330
1F
100
AcDbEntity
  8
0
  6
Continuous
 62
     7
370
    25
100
AcDbLine
 10
7.3927621525
 20
7.5335244586
 30
0.0
 11
7.343264599
 21
7.562098788
 31
0.0
  0
LINE
  5
131
330
1F
100
AcDbEntity
  8
0
  6
Continuous
 62
     7
370
    25
100
AcDbLine
 10
7.3927621525
 20
7.2273216504
 30
0.0
 11
7.3927621525
 21
7.5335244586
 31
0.0
  0
LINE
  5
132
330
1F
100
AcDbEntity
  8
0
  6
Continuous
 62
     7
370
    25
100
AcDbLine
 10
7.343264599
 20
7.2558959798
 30
0.0
 11
7.3927621525
 21
7.2273216504
 31
0.0
  0
LINE
  5
133
330
1F
100
AcDbEntity
  8
0
  6
Continuous
 62
     7
370
    25
100
AcDbLine
 10
7.343264599
 20
6.6945241746
 30
0.0
 11
7.343264599
 21
7.2558959798
 31
0.0
  0
LINE
  5
134
330
1F
100
AcDbEntity
  8
0
  6
Continuous
 62
     7
370
    25
100
AcDbLine
 10
7.3927621525
 20
6.6659498453
 30
0.0
 11
7.343264599
 21
6.6945241746
 31
0.0
  0
LINE
  5
135
330
1F
100
AcDbEntity
  8
0
  6
Continuous
 62
     7
370
    25
100
AcDbLine
 10
7.3927621525
 20
6.5128484262
 30
0.0
 11
7.3927621525
 21
6.6659498453
 31
0.0
  0
LINE
  5
136
330
1F
100
AcDbEntity
  8
0
  6
Continuous
 62
     7
370
    25
100
AcDbLine
 10
6.9967823473
 20
6.7414427019
 30
0.0
 11
7.3927621525
 21
6.5128484262
 31
0.0
  0
LINE
  5
137
330
1F
100
AcDbEntity
  8
0
  6
Continuous
 62
     7
370
    25
100
AcDbLine
 10
6.9967823473
 20
6.8149313807
 30
0.0
 11
6.9967823473
 21
6.7414427019
 31
0.0
  0
LINE
  5
138
330
1F
100
AcDbEntity
  8
0
  6
Continuous
 62
     7
370
    25
100
AcDbLine
 10
6.8129345585
 20
6.9210644501
 30
0.0
 11
6.9967823473
 21
6.8149313807
 31
0.0
  0
LINE
  5
139
330
1F
100
AcDbEntity
  8
0
  6
Continuous
 62
     7
370
    25
100
AcDbLine
 10
6.8129345585
 20
6.8475757713
 30
0.0
 11
6.8129345585
 21
6.9210644501
 31
0.0
  0
LINE
  5
13A
330
1F
100
AcDbEntity
  8
0
  6
Continuous
 62
     7
370
    25
100
AcDbLine
 10
4.8754619776
 20
7.9660548848
 30
0.0
 11
6.8129345585
 21
6.8475757713
 31
0.0
  0
LINE
  5
13B
330
1F
100
AcDbEntity
  8
0
  6
Continuous
 62
     7
370
    25
100
AcDbLine
 10
4.8754619776
 20
8.0395435635
 30
0.0
 11
4.8754619776
 21
7.9660548848
 31
0.0
  0
LINE
  5
13C
330
1F
100
AcDbEntity
  8
0
  6
Continuous
 62
     7
370
    25
100
AcDbLine
 10
4.6916141887
 20
8.145676633
 30
0.0
 11
4.8754619776
 21
8.0395435635
 31
0.0
  0
LINE
  5
13D
330
1F
100
AcDbEntity
  8
0
  6
Continuous
 62
     7
370
    25
100
AcDbLine
 10
4.6916141887
 20
8.0721879542
 30
0.0
 11
4.6916141887
 21
8.145676633
 31
0.0
  0
LINE
  5
13E
330
1F
100
AcDbEntity
  8
0
  6
Continuous
 62
     7
370
    25
100
AcDbLine
 10
4.1542130394
 20
8.3824230341
 30
0.0
 11
4.6916141887
 21
8.0721879542
 31
0.0
  0
LINE
  5
13F
330
1F
100
AcDbEntity
  8
0
  6
Continuous
 62
     7
370
    25
100
AcDbLine
 10
4.132999817
 20
8.419165413
 30
0.0
 11
4.1542130394
 21
8.3824230341
 31
0.0
  0
LINE
  5
140
330
1F
100
AcDbEntity
  8
0
  6
Continuous
 62
     7
370
    25
100
AcDbLine
 10
4.132999817
 20
9.0070747832
 30
0.0
 11
4.132999817
 21
8.419165413
 31
0.0
  0
LINE
  5
141
330
1F
100
AcDbEntity
  8
0
  6
Continuous
 62
     7
370
    25
100
AcDbLine
 10
4.0693602536
 20
9.0438131212
 30
0.0
 11
4.132999817
 21
9.0070747832
 31
0.0
  0
LINE
  5
142
330
1F
100
AcDbEntity
  8
0
  6
Continuous
 62
     7
370
    25
100
AcDbLine
 10
4.0481470313
 20
9.080555485
 30
0.0
 11
4.0693602536
 21
9.0438131212
 31
0.0
  0
LINE
  5
143
330
1F
100
AcDbEntity
  8
0
  6
Continuous
 62
     7
370
    25
100
AcDbLine
 10
4.0481470313
 20
9.2475380839
 30
0.0
 11
4.0481470313
 21
9.080555485
 31
0.0
  0
LINE
  5
144
330
1F
100
AcDbEntity
  8
0
  6
Continuous
 62
     7
370
    25
100
AcDbLine
 10
4.0764312586
 20
9.231209947
 30
0.0
 11
4.0481470313
 21
9.2475380839
 31
0.0
  0
LWPOLYLINE
  5
145
330
1F
100
AcDbEntity
  8
0
  6
Continuous
 62
     7
370
    25
100
AcDbPolyline
 90
       15
 70
   128
 43
0.0
 10
4.0764312586
 20
9.3585903105
 10
4.0887042467
 20
9.3499084205
 10
4.1003618327
 20
9.3384681743
 10
4.1108195195
 20
9.3248431987
 10
4.119552753
 20
9.3097167982
 10
4.126123679
 20
9.2938474394
 10
4.1302028178
 20
9.2780308676
 10
4.1315856575
 20
9.263060172
 10
4.1302028178
 20
9.2496860692
 10
4.126123679
 20
9.2385791708
 10
4.119552753
 20
9.2302964416
 10
4.1108195195
 20
9.225253218
 10
4.1003618327
 20
9.2237024305
 10
4.0887042467
 20
9.2257217466
 10
4.0764312586
 20
9.231209947
  0
LINE
  5
146
330
1F
100
AcDbEntity
  8
0
  6
Continuous
 62
     7
370
    25
100
AcDbLine
 10
4.0481470313
 20
9.3749184474
 30
0.0
 11
4.0764312586
 21
9.3585903105
 31
0.0
  0
LINE
  5
147
330
1F
100
AcDbEntity
  8
0
  6
Continuous
 62
     7
370
    25
100
AcDbLine
 10
4.0481470313
 20
9.5419010462
 30
0.0
 11
4.0481470313
 21
9.3749184474
 31
0.0
  0
LINE
  5
148
330
1F
100
AcDbEntity
  8
0
  6
Continuous
 62
     7
370
    25
100
AcDbLine
 10
4.0693602536
 20
9.5541511449
 30
0.0
 11
4.0481470313
 21
9.5419010462
 31
0.0
  0
LINE
  5
149
330
1F
100
AcDbEntity
  8
0
  6
Continuous
 62
     7
370
    25
100
AcDbLine
 10
4.132999817
 20
9.5174128069
 30
0.0
 11
4.0693602536
 21
9.5541511449
 31
0.0
  0
LINE
  5
14A
330
1F
100
AcDbEntity
  8
0
  6
Continuous
 62
     7
370
    25
100
AcDbLine
 10
4.132999817
 20
10.20738977
 30
0.0
 11
4.132999817
 21
9.5174128069
 31
0.0
  0
LINE
  5
14B
330
1F
100
AcDbEntity
  8
0
  6
Continuous
 62
     7
370
    25
100
AcDbLine
 10
4.1542130394
 20
10.2196398836
 30
0.0
 11
4.132999817
 21
10.20738977
 31
0.0
  0
LINE
  5
14C
330
1F
100
AcDbEntity
  8
0
  6
Continuous
 62
     7
370
    25
100
AcDbLine
 10
4.6916141887
 20
9.9094048036
 30
0.0
 11
4.1542130394
 21
10.2196398836
 31
0.0
  0
LINE
  5
14D
330
1F
100
AcDbEntity
  8
0
  6
Continuous
 62
     7
370
    25
100
AcDbLine
 10
4.6916141887
 20
9.7558951297
 30
0.0
 11
4.6916141887
 21
9.9094048036
 31
0.0
  0
LINE
  5
14E
330
1F
100
AcDbEntity
  8
0
  6
Continuous
 62
     7
370
    25
100
AcDbLine
 10
4.8754619776
 20
9.6497620603
 30
0.0
 11
4.6916141887
 21
9.7558951297
 31
0.0
  0
LINE
  5
14F
330
1F
100
AcDbEntity
  8
0
  6
Continuous
 62
     7
370
    25
100
AcDbLine
 10
4.8754619776
 20
9.8032717342
 30
0.0
 11
4.8754619776
 21
9.6497620603
 31
0.0
  0
LINE
  5
150
330
1F
100
AcDbEntity
  8
0
  6
Continuous
 62
     7
370
    25
100
AcDbLine
 10
5.6674215749
 20
9.3460831902
 30
0.0
 11
4.8754619776
 21
9.8032717342
 31
0.0
  0
LINE
  5
151
330
1F
100
AcDbEntity
  8
0
  6
Continuous
 62
     7
370
    25
100
AcDbLine
 10
5.6674215749
 20
9.2725945115
 30
0.0
 11
5.6674215749
 21
9.3460831902
 31
0.0
  0
LINE
  5
152
330
1F
100
AcDbEntity
  8
0
  6
Continuous
 62
     7
370
    25
100
AcDbLine
 10
6.0209749612
 20
9.068492486
 30
0.0
 11
5.6674215749
 21
9.2725945115
 31
0.0
  0
LINE
  5
153
330
1F
100
AcDbEntity
  8
0
  6
Continuous
 62
     7
370
    25
100
AcDbLine
 10
6.0209749612
 20
9.1419811648
 30
0.0
 11
6.0209749612
 21
9.068492486
 31
0.0
  0
LWPOLYLINE
  5
154
330
1F
100
AcDbEntity
  8
0
  6
Continuous
 62
     7
370
    25
100
AcDbPolyline
 90
       88
 70
   128
 43
0.0
 10
6.3377588131
 20
7.9894635186
 10
6.3364722141
 20
8.0313322429
 10
6.3326191065
 20
8.0744681696
 10
6.3262196095
 20
8.1186463913
 10
6.317307117
 20
8.1636365681
 10
6.3059280383
 20
8.2092041583
 10
6.2921416943
 20
8.2551116202
 10
6.2760199802
 20
8.3011195944
 10
6.2576469514
 20
8.3469881836
 10
6.237118382
 20
8.3924783301
 10
6.2145413243
 20
8.4373527585
 10
6.1900334608
 20
8.4813776077
 10
6.1637225855
 20
8.5243233285
 10
6.1357458517
 20
8.5659659866
 10
6.1062491247
 20
8.6060885043
 10
6.075386177
 20
8.6444816941
 10
6.0433179374
 20
8.6809454106
 10
6.0102115827
 20
8.7152895537
 10
5.9762396957
 20
8.7473350341
 10
5.9415794158
 20
8.7769148025
 10
5.9064114279
 20
8.8038746126
 10
5.8709190971
 20
8.82807394
 10
5.8352874527
 20
8.8493866287
 10
5.7997022661
 20
8.8677016029
 10
5.7643490594
 20
8.8829232598
 10
5.7294121454
 20
8.8949723229
 10
5.6950736773
 20
8.903785912
 10
5.6615126805
 20
8.9093181618
 10
5.6289041233
 20
8.9115402194
 10
5.5974179955
 20
8.910440447
 10
5.5672184926
 20
8.9060245932
 10
5.538463017
 20
8.8983156814
 10
5.5113014784
 20
8.8873539344
 10
5.4858755416
 20
8.87319646
 10
5.4623177193
 20
8.8559170865
 10
5.4407508534
 20
8.8356059133
 10
5.4212873889
 20
8.812368802
 10
5.4040287782
 20
8.7863269123
 10
5.3890649877
 20
8.757616058
 10
5.3764740833
 20
8.7263858542
 10
5.3663216605
 20
8.6927991478
 10
5.3586606618
 20
8.6570310673
 10
5.3535310149
 20
8.6192680796
 10
5.3509594764
 20
8.579707058
 10
5.3509594764
 20
8.5385542418
 10
5.3535310149
 20
8.4960241851
 10
5.3586606618
 20
8.4523386331
 10
5.3663216605
 20
8.4077253519
 10
5.3764740833
 20
8.3624169075
 10
5.3890649877
 20
8.316649555
 10
5.4040287782
 20
8.2706618759
 10
5.4212873889
 20
8.2246936184
 10
5.4407508534
 20
8.1789844694
 10
5.4623177193
 20
8.1337727228
 10
5.4858755416
 20
8.0892940666
 10
5.5113014784
 20
8.0457804305
 10
5.538463017
 20
8.0034586385
 10
5.5672184926
 20
7.9625493613
 10
5.5974179955
 20
7.9232659036
 10
5.6289041233
 20
7.8858130218
 10
5.6615126805
 20
7.8503860406
 10
5.6950736773
 20
7.8171695884
 10
5.7294121454
 20
7.7863368261
 10
5.7643490594
 20
7.758048587
 10
5.7997022661
 20
7.7324523001
 10
5.8352874527
 20
7.7096814924
 10
5.8709190971
 20
7.6898547602
 10
5.9064114279
 20
7.6730755147
 10
5.9415794158
 20
7.6594312303
 10
5.9762396957
 20
7.6489930913
 10
6.0102115827
 20
7.6418154659
 10
6.0433179374
 20
7.6379358255
 10
6.075386177
 20
7.6373743405
 10
6.1062491247
 20
7.6401339295
 10
6.1357458517
 20
7.6462002511
 10
6.1637225855
 20
7.6555416599
 10
6.1900334608
 20
7.6681094906
 10
6.2145413243
 20
7.6838381629
 10
6.237118382
 20
7.7026456754
 10
6.2576469514
 20
7.7244340401
 10
6.2760199802
 20
7.7490895819
 10
6.2921416943
 20
7.7764838212
 10
6.3059280383
 20
7.8064739091
 10
6.317307117
 20
7.8389034947
 10
6.3262196095
 20
7.8736035267
 10
6.3326191065
 20
7.9103930464
 10
6.3364722141
 20
7.9490802697
 10
6.3377588131
 20
7.9894635186
  0
LWPOLYLINE
  5
155
330
1F
100
AcDbEntity
  8
0
  6
Continuous
 62
     7
370
    25
100
AcDbPolyline
 90
       30
 70
   128
 43
0.0
 10
5.0596633063
 20
8.7272923495
 10
5.0583738036
 20
8.7417282701
 10
5.0545656533
 20
8.7569779753
 10
5.0484169218
 20
8.7723284065
 10
5.0402151388
 20
8.7870617776
 10
5.0303437122
 20
8.8004892338
 10
5.0192642972
 20
8.8119828752
 10
5.007494966
 20
8.8210052694
 10
4.9955859923
 20
8.8271345606
 10
4.9840942351
 20
8.830084142
 10
4.9735571082
 20
8.8297160652
 10
4.9644671198
 20
8.8260476442
 10
4.9572495757
 20
8.8192502588
 10
4.9522418373
 20
8.8096418174
 10
4.9496779732
 20
8.7976716509
 10
4.9496779732
 20
8.7838994107
 10
4.9522418373
 20
8.7689690697
 10
4.9572495757
 20
8.7535788167
 10
4.9644671198
 20
8.7384482322
 10
4.9735571082
 20
8.724284734
 10
4.9840942351
 20
8.7117507494
 10
4.9955859923
 20
8.7014322303
 10
5.007494966
 20
8.6938117132
 10
5.0192642972
 20
8.6892455268
 10
5.0303437122
 20
8.6879471479
 10
5.0402151388
 20
8.6899772976
 10
5.0484169218
 20
8.6952410916
 10
5.0545656533
 20
8.7034923485
 10
5.0583738036
 20
8.714345257
 10
5.0596633063
 20
8.7272923495
  0
LWPOLYLINE
  5
156
330
1F
100
AcDbEntity
  8
0
  6
Continuous
 62
     7
370
    25
100
AcDbPolyline
 90
       30
 70
   128
 43
0.0
 10
6.7390419238
 20
7.7578077097
 10
6.737752421
 20
7.7722436303
 10
6.7339442707
 20
7.7874933355
 10
6.7277955392
 20
7.8028437668
 10
6.7195937044
 20
7.8175771678
 10
6.7097223296
 20
7.831004594
 10
6.6986429146
 20
7.8424982355
 10
6.6868735835
 20
7.8515206296
 10
6.6749646098
 20
7.8576499208
 10
6.6634728525
 20
7.8605995022
 10
6.6529356737
 20
7.8602314554
 10
6.6438457891
 20
7.8565629745
 10
6.6366281931
 20
7.849765619
 10
6.6316204029
 20
7.8401572076
 10
6.6290565387
 20
7.8281870411
 10
6.6290565387
 20
7.8144148008
 10
6.6316204029
 20
7.7994844598
 10
6.6366281931
 20
7.7840941769
 10
6.6438457891
 20
7.7689635625
 10
6.6529356737
 20
7.7548001242
 10
6.6634728525
 20
7.7422661097
 10
6.6749646098
 20
7.7319475905
 10
6.6868735835
 20
7.7243270734
 10
6.6986429146
 20
7.7197608871
 10
6.7097223296
 20
7.7184625082
 10
6.7195937044
 20
7.7204926877
 10
6.7277955392
 20
7.7257564518
 10
6.7339442707
 20
7.7340077087
 10
6.737752421
 20
7.7448606172
 10
6.7390419238
 20
7.7578077097
  0
LINE
  5
157
330
1F
100
AcDbEntity
  8
0
  6
Continuous
 62
     7
370
    25
100
AcDbLine
 10
7.1926508551
 20
8.5235520444
 30
0.0
 11
7.1424462738
 21
8.4945695565
 31
0.0
  0
LINE
  5
158
330
1F
100
AcDbEntity
  8
0
  6
Continuous
 62
     7
370
    25
100
AcDbLine
 10
7.2138640774
 20
8.4868096656
 30
0.0
 11
7.1636594961
 21
8.4578271777
 31
0.0
  0
LINE
  5
159
330
1F
100
AcDbEntity
  8
0
  6
Continuous
 62
     7
370
    25
100
AcDbLine
 10
7.2138640774
 20
8.4868096656
 30
0.0
 11
7.1926508551
 21
8.5235520444
 31
0.0
  0
LINE
  5
15A
330
1F
100
AcDbEntity
  8
0
  6
Continuous
 62
     7
370
    25
100
AcDbLine
 10
7.2138640774
 20
8.1618264478
 30
0.0
 11
7.1636594961
 21
8.13284396
 31
0.0
  0
LINE
  5
15B
330
1F
100
AcDbEntity
  8
0
  6
Continuous
 62
     7
370
    25
100
AcDbLine
 10
7.2138640774
 20
8.1618264478
 30
0.0
 11
7.2138640774
 21
8.4868096656
 31
0.0
  0
LINE
  5
15C
330
1F
100
AcDbEntity
  8
0
  6
Continuous
 62
     7
370
    25
100
AcDbLine
 10
6.0209749612
 20
9.1419811648
 30
0.0
 11
6.0711795425
 21
9.1709636526
 31
0.0
  0
LINE
  5
15D
330
1F
100
AcDbEntity
  8
0
  6
Continuous
 62
     7
370
    25
100
AcDbLine
 10
7.1926508551
 20
8.5235520444
 30
0.0
 11
6.0711795425
 21
9.1709636526
 31
0.0
  0
LINE
  5
15E
330
1F
100
AcDbEntity
  8
0
  6
Continuous
 62
     7
370
    25
100
AcDbLine
 10
7.4429667338
 20
8.0295682995
 30
0.0
 11
7.3927621525
 21
8.0005858116
 31
0.0
  0
LINE
  5
15F
330
1F
100
AcDbEntity
  8
0
  6
Continuous
 62
     7
370
    25
100
AcDbLine
 10
7.4429667338
 20
7.8764668804
 30
0.0
 11
7.3927621525
 21
7.8474843925
 31
0.0
  0
LINE
  5
160
330
1F
100
AcDbEntity
  8
0
  6
Continuous
 62
     7
370
    25
100
AcDbLine
 10
7.4429667338
 20
7.8764668804
 30
0.0
 11
7.4429667338
 21
8.0295682995
 31
0.0
  0
LINE
  5
161
330
1F
100
AcDbEntity
  8
0
  6
Continuous
 62
     7
370
    25
100
AcDbLine
 10
7.4429667338
 20
8.0295682995
 30
0.0
 11
7.2138640774
 21
8.1618264478
 31
0.0
  0
ARC
  5
162
330
1F
100
AcDbEntity
  8
0
  6
Continuous
 62
     7
370
    25
100
AcDbCircle
 10
7.1574999747
 20
8.4542511228
 30
0.0
 40
0.0897814285915101
100
AcDbArc
 50
198.5871675519
 51
221.4074241172
  0
LINE
  5
163
330
1F
100
AcDbEntity
  8
0
  6
Continuous
 62
     7
370
    25
100
AcDbLine
 10
7.3934691804
 20
7.5910812759
 30
0.0
 11
7.343264599
 21
7.562098788
 31
0.0
  0
LINE
  5
164
330
1F
100
AcDbEntity
  8
0
  6
Continuous
 62
     7
370
    25
100
AcDbLine
 10
7.3934691804
 20
7.5910812759
 30
0.0
 11
7.3934691804
 21
7.847892663
 31
0.0
  0
LINE
  5
165
330
1F
100
AcDbEntity
  8
0
  6
Continuous
 62
     7
370
    25
100
AcDbLine
 10
7.4429667338
 20
7.5625069465
 30
0.0
 11
7.3927621525
 21
7.5335244586
 31
0.0
  0
LINE
  5
166
330
1F
100
AcDbEntity
  8
0
  6
Continuous
 62
     7
370
    25
100
AcDbLine
 10
7.4429667338
 20
7.2563041383
 30
0.0
 11
7.3927621525
 21
7.2273216504
 31
0.0
  0
LINE
  5
167
330
1F
100
AcDbEntity
  8
0
  6
Continuous
 62
     7
370
    25
100
AcDbLine
 10
7.4429667338
 20
7.2563041383
 30
0.0
 11
7.4429667338
 21
7.5625069465
 31
0.0
  0
LINE
  5
168
330
1F
100
AcDbEntity
  8
0
  6
Continuous
 62
     7
370
    25
100
AcDbLine
 10
7.4429667338
 20
7.5625069465
 30
0.0
 11
7.3934691804
 21
7.5910812759
 31
0.0
  0
LINE
  5
169
330
1F
100
AcDbEntity
  8
0
  6
Continuous
 62
     7
370
    25
100
AcDbLine
 10
7.3934691804
 20
6.7235066625
 30
0.0
 11
7.343264599
 21
6.6945241746
 31
0.0
  0
LINE
  5
16A
330
1F
100
AcDbEntity
  8
0
  6
Continuous
 62
     7
370
    25
100
AcDbLine
 10
7.3934691804
 20
6.7235066625
 30
0.0
 11
7.3934691804
 21
7.2277299059
 31
0.0
  0
LWPOLYLINE
  5
16B
330
1F
100
AcDbEntity
  8
0
  6
Continuous
 62
     7
370
    25
100
AcDbPolyline
 90
       44
 70
   128
 43
0.0
 10
5.5212326407
 20
8.8918178645
 10
5.5125223006
 20
8.8848995744
 10
5.4909554347
 20
8.8645884012
 10
5.4714919703
 20
8.8413512899
 10
5.4542333595
 20
8.8153094001
 10
5.439269569
 20
8.7865985459
 10
5.4266786647
 20
8.7553683421
 10
5.4165262418
 20
8.7217816357
 10
5.4088652431
 20
8.6860135552
 10
5.4037355963
 20
8.6482505675
 10
5.4011640577
 20
8.6086895458
 10
5.4011640577
 20
8.5675367297
 10
5.4037355963
 20
8.5250066729
 10
5.4088652431
 20
8.481321121
 10
5.4165262418
 20
8.4367078398
 10
5.4266786647
 20
8.3913993954
 10
5.439269569
 20
8.3456320429
 10
5.4542333595
 20
8.2996443638
 10
5.4714919703
 20
8.2536761063
 10
5.4909554347
 20
8.2079669573
 10
5.5125223006
 20
8.1627552107
 10
5.5360801229
 20
8.1182765545
 10
5.5615060597
 20
8.0747629184
 10
5.5886675983
 20
8.0324411264
 10
5.6174230739
 20
7.9915318492
 10
5.6476225768
 20
7.9522483915
 10
5.6791087046
 20
7.9147955097
 10
5.7117172619
 20
7.8793685285
 10
5.7452782586
 20
7.8461520763
 10
5.7796167267
 20
7.815319314
 10
5.8145536407
 20
7.7870310749
 10
5.8499068475
 20
7.761434788
 10
5.885492034
 20
7.7386639803
 10
5.9211236784
 20
7.7188372481
 10
5.9566160092
 20
7.7020580026
 10
5.9917839971
 20
7.6884137181
 10
6.026444277
 20
7.6779755792
 10
6.060416164
 20
7.6707979538
 10
6.0935225187
 20
7.6669183134
 10
6.1255907584
 20
7.6663568284
 10
6.156453706
 20
7.6691164174
 10
6.185950433
 20
7.675182739
 10
6.2139271668
 20
7.6845241478
 10
6.2173684767
 20
7.6859445454
  0
LINE
  5
16C
330
1F
100
AcDbEntity
  8
0
  6
Continuous
 62
     7
370
    25
100
AcDbLine
 10
5.6674215749
 20
9.2725945115
 30
0.0
 11
5.7176261562
 21
9.3015769994
 31
0.0
  0
LINE
  5
16D
330
1F
100
AcDbEntity
  8
0
  6
Continuous
 62
     7
370
    25
100
AcDbLine
 10
6.0209749612
 20
9.1264574618
 30
0.0
 11
5.7176261562
 21
9.3015769994
 31
0.0
  0
ARC
  5
16E
330
1F
100
AcDbEntity
  8
0
  6
Continuous
 62
     7
370
    25
100
AcDbCircle
 10
6.7941590473
 20
7.853306002
 30
0.0
 40
0.1150439244985244
100
AcDbArc
 50
178.7375377099
 51
241.2570859419
  0
LINE
  5
16F
330
1F
100
AcDbEntity
  8
0
  6
Continuous
 62
     7
370
    25
100
AcDbLine
 10
7.4429667338
 20
6.6949323332
 30
0.0
 11
7.3927621525
 21
6.6659498453
 31
0.0
  0
LINE
  5
170
330
1F
100
AcDbEntity
  8
0
  6
Continuous
 62
     7
370
    25
100
AcDbLine
 10
7.4429667338
 20
6.5418309141
 30
0.0
 11
7.3927621525
 21
6.5128484262
 31
0.0
  0
LINE
  5
171
330
1F
100
AcDbEntity
  8
0
  6
Continuous
 62
     7
370
    25
100
AcDbLine
 10
7.4429667338
 20
6.5418309141
 30
0.0
 11
7.4429667338
 21
6.6949323332
 31
0.0
  0
LINE
  5
172
330
1F
100
AcDbEntity
  8
0
  6
Continuous
 62
     7
370
    25
100
AcDbLine
 10
7.4429667338
 20
6.6949323332
 30
0.0
 11
7.3934691804
 21
6.7235066625
 31
0.0
  0
LINE
  5
173
330
1F
100
AcDbEntity
  8
0
  6
Continuous
 62
     7
370
    25
100
AcDbLine
 10
5.6674215749
 20
9.3460831902
 30
0.0
 11
5.7176261562
 21
9.3750656781
 31
0.0
  0
LINE
  5
174
330
1F
100
AcDbEntity
  8
0
  6
Continuous
 62
     7
370
    25
100
AcDbLine
 10
5.7176261562
 20
9.3015769994
 30
0.0
 11
5.7176261562
 21
9.3750656781
 31
0.0
  0
LINE
  5
175
330
1F
100
AcDbEntity
  8
0
  6
Continuous
 62
     7
370
    25
100
AcDbLine
 10
4.9256665589
 20
9.8322542221
 30
0.0
 11
4.8754619776
 21
9.8032717342
 31
0.0
  0
LINE
  5
176
330
1F
100
AcDbEntity
  8
0
  6
Continuous
 62
     7
370
    25
100
AcDbLine
 10
5.7176261562
 20
9.3750656781
 30
0.0
 11
4.9256665589
 21
9.8322542221
 31
0.0
  0
LINE
  5
177
330
1F
100
AcDbEntity
  8
0
  6
Continuous
 62
     7
370
    25
100
AcDbLine
 10
6.8631391398
 20
6.8765582592
 30
0.0
 11
6.8129345585
 21
6.8475757713
 31
0.0
  0
LINE
  5
178
330
1F
100
AcDbEntity
  8
0
  6
Continuous
 62
     7
370
    25
100
AcDbLine
 10
6.8631391398
 20
6.8765582592
 30
0.0
 11
6.8631391398
 21
6.8920820014
 31
0.0
  0
LINE
  5
179
330
1F
100
AcDbEntity
  8
0
  6
Continuous
 62
     7
370
    25
100
AcDbLine
 10
4.74181877
 20
9.7848776176
 30
0.0
 11
4.6916141887
 21
9.7558951297
 31
0.0
  0
LINE
  5
17A
330
1F
100
AcDbEntity
  8
0
  6
Continuous
 62
     7
370
    25
100
AcDbLine
 10
4.8754620294
 20
9.7077270062
 30
0.0
 11
4.74181877
 21
9.7848776176
 31
0.0
  0
LINE
  5
17B
330
1F
100
AcDbEntity
  8
0
  6
Continuous
 62
     7
370
    25
100
AcDbLine
 10
4.74181877
 20
9.9383872915
 30
0.0
 11
4.6916141887
 21
9.9094048036
 31
0.0
  0
LINE
  5
17C
330
1F
100
AcDbEntity
  8
0
  6
Continuous
 62
     7
370
    25
100
AcDbLine
 10
4.74181877
 20
9.7848776176
 30
0.0
 11
4.74181877
 21
9.9383872915
 31
0.0
  0
LINE
  5
17D
330
1F
100
AcDbEntity
  8
0
  6
Continuous
 62
     7
370
    25
100
AcDbLine
 10
4.2044176207
 20
10.2486223715
 30
0.0
 11
4.1542130394
 21
10.2196398836
 31
0.0
  0
LINE
  5
17E
330
1F
100
AcDbEntity
  8
0
  6
Continuous
 62
     7
370
    25
100
AcDbLine
 10
4.74181877
 20
9.9383872915
 30
0.0
 11
4.2044176207
 21
10.2486223715
 31
0.0
  0
ARC
  5
17F
330
1F
100
AcDbEntity
  8
0
  6
Continuous
 62
     7
370
    25
100
AcDbCircle
 10
5.1147806111
 20
8.8227907464
 30
0.0
 40
0.1150441033665124
100
AcDbArc
 50
178.7375917871
 51
241.2570318647
  0
LINE
  5
180
330
1F
100
AcDbEntity
  8
0
  6
Continuous
 62
     7
370
    25
100
AcDbLine
 10
4.119564835
 20
9.5831336328
 30
0.0
 11
4.0693602536
 21
9.5541511449
 31
0.0
  0
LINE
  5
181
330
1F
100
AcDbEntity
  8
0
  6
Continuous
 62
     7
370
    25
100
AcDbLine
 10
4.1329997652
 20
9.5753778126
 30
0.0
 11
4.119564835
 21
9.5831336328
 31
0.0
  0
LINE
  5
182
330
1F
100
AcDbEntity
  8
0
  6
Continuous
 62
     7
370
    25
100
AcDbLine
 10
4.12663584
 20
9.2601924348
 30
0.0
 11
4.0764312586
 21
9.231209947
 31
0.0
  0
LINE
  5
183
330
1F
100
AcDbEntity
  8
0
  6
Continuous
 62
     7
370
    25
100
AcDbLine
 10
4.1313804716
 20
9.2576895051
 30
0.0
 11
4.12663584
 21
9.2601924348
 31
0.0
  0
LINE
  5
184
330
1F
100
AcDbEntity
  8
0
  6
Continuous
 62
     7
370
    25
100
AcDbLine
 10
4.0983516126
 20
9.2765205717
 30
0.0
 11
4.0481470313
 21
9.2475380839
 31
0.0
  0
LINE
  5
185
330
1F
100
AcDbEntity
  8
0
  6
Continuous
 62
     7
370
    25
100
AcDbLine
 10
4.12663584
 20
9.2601924348
 30
0.0
 11
4.0983516126
 21
9.2765205717
 31
0.0
  0
LINE
  5
186
330
1F
100
AcDbEntity
  8
0
  6
Continuous
 62
     7
370
    25
100
AcDbLine
 10
4.74181877
 20
8.1011704421
 30
0.0
 11
4.6916141887
 21
8.0721879542
 31
0.0
  0
LINE
  5
187
330
1F
100
AcDbEntity
  8
0
  6
Continuous
 62
     7
370
    25
100
AcDbLine
 10
4.74181877
 20
8.1011704421
 30
0.0
 11
4.74181877
 21
8.1166941842
 31
0.0
  0
LWPOLYLINE
  5
188
330
1F
100
AcDbEntity
  8
0
  6
HIDDEN
 62
     7
370
    18
100
AcDbPolyline
 90
       17
 70
   128
 43
0.0
 10
7.056179291
 20
8.3394186749
 10
7.0375080255
 20
8.3544860943
 10
7.021679291
 20
8.3758370904
 10
7.0111028687
 20
8.4002211674
 10
7.0073889231
 20
8.4239260708
 10
7.0111028687
 20
8.4433429438
 10
7.021679291
 20
8.4555157436
 10
7.0375080255
 20
8.4585912717
 10
7.056179291
 20
8.4521013069
 10
7.0748505564
 20
8.4370338875
 10
7.090679291
 20
8.4156828915
 10
7.1012557133
 20
8.3912988144
 10
7.1049696589
 20
8.367593911
 10
7.1012557133
 20
8.348177038
 10
7.090679291
 20
8.3360042382
 10
7.0748505564
 20
8.3329287101
 10
7.056179291
 20
8.3394186749
  0
LWPOLYLINE
  5
189
330
1F
100
AcDbEntity
  8
0
  6
HIDDEN
 62
     7
370
    18
100
AcDbPolyline
 90
       17
 70
   128
 43
0.0
 10
7.056179291
 20
8.3394186749
 10
7.0375080255
 20
8.3544860943
 10
7.021679291
 20
8.3758370904
 10
7.0111028687
 20
8.4002211674
 10
7.0073889231
 20
8.4239260708
 10
7.0111028687
 20
8.4433429438
 10
7.021679291
 20
8.4555157436
 10
7.0375080255
 20
8.4585912717
 10
7.056179291
 20
8.4521013069
 10
7.0748505564
 20
8.4370338875
 10
7.090679291
 20
8.4156828915
 10
7.1012557133
 20
8.3912988144
 10
7.1049696589
 20
8.367593911
 10
7.1012557133
 20
8.348177038
 10
7.090679291
 20
8.3360042382
 10
7.0748505564
 20
8.3329287101
 10
7.056179291
 20
8.3394186749
  0
ENDSEC
  0
SECTION
  2
OBJECTS
  0
DICTIONARY
  5
C
330
0
100
AcDbDictionary
281
     1
  3
ACAD_GROUP
350
D
  3
ACAD_LAYOUT
350
1A
  3
ACAD_MLINESTYLE
350
17
  3
ACAD_PLOTSETTINGS
350
19
  3
ACAD_PLOTSTYLENAME
350
E
  3
ACAD_SCALELIST
350
47
  0
DICTIONARY
  5
D
102
{ACAD_REACTORS
330
C
102
}
330
C
100
AcDbDictionary
281
     1
  0
DICTIONARY
  5
1A
102
{ACAD_REACTORS
330
C
102
}
330
C
100
AcDbDictionary
281
     1
  3
Layout1
350
1E
  3
Layout2
350
26
  3
Model
350
22
  0
DICTIONARY
  5
17
102
{ACAD_REACTORS
330
C
102
}
330
C
100
AcDbDictionary
281
     1
  3
Standard
350
18
  0
DICTIONARY
  5
19
102
{ACAD_REACTORS
330
C
102
}
330
C
100
AcDbDictionary
281
     1
  0
ACDBDICTIONARYWDFLT
  5
E
102
{ACAD_REACTORS
330
C
102
}
330
C
100
AcDbDictionary
281
     1
  3
Normal
350
F
100
AcDbDictionaryWithDefault
340
F
  0
DICTIONARY
  5
47
102
{ACAD_REACTORS
330
C
102
}
330
C
100
AcDbDictionary
281
     1
  3
A0
350
48
  3
A1
350
49
  3
A2
350
4A
  3
A3
350
4B
  3
A4
350
4C
  3
A5
350
4D
  3
A6
350
4E
  3
A7
350
4F
  3
A8
350
50
  3
A9
350
51
  3
B0
350
52
  3
B1
350
53
  3
B2
350
54
  3
B3
350
55
  3
B4
350
56
  3
B5
350
57
  3
B6
350
58
  3
B7
350
59
  3
B8
350
5A
  3
B9
350
5B
  3
C0
350
5C
  3
C1
350
5D
  3
C2
350
5E
  3
C3
350
5F
  3
C4
350
60
  3
C5
350
61
  3
C6
350
62
  3
C7
350
63
  3
C8
350
64
  3
C9
350
65
  3
D0
350
66
  3
D1
350
67
  3
D2
350
68
  0
LAYOUT
  5
1E
102
{ACAD_REACTORS
330
1A
102
}
330
1A
100
AcDbPlotSettings
  1

  2
none_device
  4

  6

 40
0.0
 41
0.0
 42
0.0
 43
0.0
 44
0.0
 45
0.0
 46
0.0
 47
0.0
 48
0.0
 49
0.0
140
0.0
141
0.0
142
1.0
143
1.0
 70
   688
 72
     0
 73
     0
 74
     5
  7

 75
    16
147
1.0
148
0.0
149
0.0
100
AcDbLayout
  1
Layout1
 70
     1
 71
     1
 10
0.0
 20
0.0
 11
12.0
 21
9.0
 12
0.0
 22
0.0
 32
0.0
 14
1.0000000000E+20
 24
1.0000000000E+20
 34
1.0000000000E+20
 15
-1.0000000000E+20
 25
-1.0000000000E+20
 35
-1.0000000000E+20
146
0.0
 13
0.0
 23
0.0
 33
0.0
 16
1.0
 26
0.0
 36
0.0
 17
0.0
 27
1.0
 37
0.0
 76
     0
330
1B
  0
LAYOUT
  5
26
102
{ACAD_REACTORS
330
1A
102
}
330
1A
100
AcDbPlotSettings
  1

  2
none_device
  4

  6

 40
0.0
 41
0.0
 42
0.0
 43
0.0
 44
0.0
 45
0.0
 46
0.0
 47
0.0
 48
0.0
 49
0.0
140
0.0
141
0.0
142
1.0
143
1.0
 70
   688
 72
     0
 73
     0
 74
     5
  7

 75
    16
147
1.0
148
0.0
149
0.0
100
AcDbLayout
  1
Layout2
 70
     1
 71
     2
 10
0.0
 20
0.0
 11
0.0
 21
0.0
 12
0.0
 22
0.0
 32
0.0
 14
0.0
 24
0.0
 34
0.0
 15
0.0
 25
0.0
 35
0.0
146
0.0
 13
0.0
 23
0.0
 33
0.0
 16
1.0
 26
0.0
 36
0.0
 17
0.0
 27
1.0
 37
0.0
 76
     0
330
23
  0
LAYOUT
  5
22
102
{ACAD_REACTORS
330
1A
102
}
330
1A
100
AcDbPlotSettings
  1

  2
none_device
  4
Letter_(8.50_x_11.00_Inches)
  6

 40
6.35
 41
6.35
 42
6.35000508
 43
6.35000508
 44
215.9
 45
279.4
 46
0.0
 47
0.0
 48
0.0
 49
0.0
140
0.0
141
0.0
142
1.0
143
1.0
 70
  1712
 72
     0
 73
     0
 74
     0
  7

 75
     0
147
1.0
148
0.0
149
0.0
100
AcDbLayout
  1
Model
 70
     1
 71
     0
 10
0.0
 20
0.0
 11
8.5
 21
11.0
 12
0.0
 22
0.0
 32
0.0
 14
0.0
 24
0.0
 34
0.0
 15
8.5
 25
11.0
 35
0.0
146
0.0
 13
0.0
 23
0.0
 33
0.0
 16
1.0
 26
0.0
 36
0.0
 17
0.0
 27
1.0
 37
0.0
 76
     0
330
1F
331
29
  0
MLINESTYLE
  5
18
102
{ACAD_REACTORS
330
17
102
}
330
17
100
AcDbMlineStyle
  2
Standard
 70
     0
  3

 62
   256
 51
90.0
 52
90.0
 71
     2
 49
0.5
 62
   256
  6
BYLAYER
 49
-0.5
 62
   256
  6
BYLAYER
  0
ACDBPLACEHOLDER
  5
F
102
{ACAD_REACTORS
330
E
102
}
330
E
  0
SCALE
  5
48
102
{ACAD_REACTORS
330
47
102
}
330
47
100
AcDbScale
 70
     0
300
1:1
140
1.0
141
1.0
290
     1
  0
SCALE
  5
49
102
{ACAD_REACTORS
330
47
102
}
330
47
100
AcDbScale
 70
     0
300
1:2
140
1.0
141
2.0
290
     0
  0
SCALE
  5
4A
102
{ACAD_REACTORS
330
47
102
}
330
47
100
AcDbScale
 70
     0
300
1:4
140
1.0
141
4.0
290
     0
  0
SCALE
  5
4B
102
{ACAD_REACTORS
330
47
102
}
330
47
100
AcDbScale
 70
     0
300
1:5
140
1.0
141
5.0
290
     0
  0
SCALE
  5
4C
102
{ACAD_REACTORS
330
47
102
}
330
47
100
AcDbScale
 70
     0
300
1:8
140
1.0
141
8.0
290
     0
  0
SCALE
  5
4D
102
{ACAD_REACTORS
330
47
102
}
330
47
100
AcDbScale
 70
     0
300
1:10
140
1.0
141
10.0
290
     0
  0
SCALE
  5
4E
102
{ACAD_REACTORS
330
47
102
}
330
47
100
AcDbScale
 70
     0
300
1:16
140
1.0
141
16.0
290
     0
  0
SCALE
  5
4F
102
{ACAD_REACTORS
330
47
102
}
330
47
100
AcDbScale
 70
     0
300
1:20
140
1.0
141
20.0
290
     0
  0
SCALE
  5
50
102
{ACAD_REACTORS
330
47
102
}
330
47
100
AcDbScale
 70
     0
300
1:30
140
1.0
141
30.0
290
     0
  0
SCALE
  5
51
102
{ACAD_REACTORS
330
47
102
}
330
47
100
AcDbScale
 70
     0
300
1:40
140
1.0
141
40.0
290
     0
  0
SCALE
  5
52
102
{ACAD_REACTORS
330
47
102
}
330
47
100
AcDbScale
 70
     0
300
1:50
140
1.0
141
50.0
290
     0
  0
SCALE
  5
53
102
{ACAD_REACTORS
330
47
102
}
330
47
100
AcDbScale
 70
     0
300
1:100
140
1.0
141
100.0
290
     0
  0
SCALE
  5
54
102
{ACAD_REACTORS
330
47
102
}
330
47
100
AcDbScale
 70
     0
300
2:1
140
2.0
141
1.0
290
     0
  0
SCALE
  5
55
102
{ACAD_REACTORS
330
47
102
}
330
47
100
AcDbScale
 70
     0
300
4:1
140
4.0
141
1.0
290
     0
  0
SCALE
  5
56
102
{ACAD_REACTORS
330
47
102
}
330
47
100
AcDbScale
 70
     0
300
8:1
140
8.0
141
1.0
290
     0
  0
SCALE
  5
57
102
{ACAD_REACTORS
330
47
102
}
330
47
100
AcDbScale
 70
     0
300
10:1
140
10.0
141
1.0
290
     0
  0
SCALE
  5
58
102
{ACAD_REACTORS
330
47
102
}
330
47
100
AcDbScale
 70
     0
300
100:1
140
100.0
141
1.0
290
     0
  0
SCALE
  5
59
102
{ACAD_REACTORS
330
47
102
}
330
47
100
AcDbScale
 70
     0
300
1/128" = 1'-0"
140
0.0078125
141
12.0
290
     0
  0
SCALE
  5
5A
102
{ACAD_REACTORS
330
47
102
}
330
47
100
AcDbScale
 70
     0
300
1/64" = 1'-0"
140
0.015625
141
12.0
290
     0
  0
SCALE
  5
5B
102
{ACAD_REACTORS
330
47
102
}
330
47
100
AcDbScale
 70
     0
300
1/32" = 1'-0"
140
0.03125
141
12.0
290
     0
  0
SCALE
  5
5C
102
{ACAD_REACTORS
330
47
102
}
330
47
100
AcDbScale
 70
     0
300
1/16" = 1'-0"
140
0.0625
141
12.0
290
     0
  0
SCALE
  5
5D
102
{ACAD_REACTORS
330
47
102
}
330
47
100
AcDbScale
 70
     0
300
3/32" = 1'-0"
140
0.09375
141
12.0
290
     0
  0
SCALE
  5
5E
102
{ACAD_REACTORS
330
47
102
}
330
47
100
AcDbScale
 70
     0
300
1/8" = 1'-0"
140
0.125
141
12.0
290
     0
  0
SCALE
  5
5F
102
{ACAD_REACTORS
330
47
102
}
330
47
100
AcDbScale
 70
     0
300
3/16" = 1'-0"
140
0.1875
141
12.0
290
     0
  0
SCALE
  5
60
102
{ACAD_REACTORS
330
47
102
}
330
47
100
AcDbScale
 70
     0
300
1/4" = 1'-0"
140
0.25
141
12.0
290
     0
  0
SCALE
  5
61
102
{ACAD_REACTORS
330
47
102
}
330
47
100
AcDbScale
 70
     0
300
3/8" = 1'-0"
140
0.375
141
12.0
290
     0
  0
SCALE
  5
62
102
{ACAD_REACTORS
330
47
102
}
330
47
100
AcDbScale
 70
     0
300
1/2" = 1'-0"
140
0.5
141
12.0
290
     0
  0
SCALE
  5
63
102
{ACAD_REACTORS
330
47
102
}
330
47
100
AcDbScale
 70
     0
300
3/4" = 1'-0"
140
0.75
141
12.0
290
     0
  0
SCALE
  5
64
102
{ACAD_REACTORS
330
47
102
}
330
47
100
AcDbScale
 70
     0
300
1" = 1'-0"
140
1.0
141
12.0
290
     0
  0
SCALE
  5
65
102
{ACAD_REACTORS
330
47
102
}
330
47
100
AcDbScale
 70
     0
300
1-1/2" = 1'-0"
140
1.5
141
12.0
290
     0
  0
SCALE
  5
66
102
{ACAD_REACTORS
330
47
102
}
330
47
100
AcDbScale
 70
     0
300
3" = 1'-0"
140
3.0
141
12.0
290
     0
  0
SCALE
  5
67
102
{ACAD_REACTORS
330
47
102
}
330
47
100
AcDbScale
 70
     0
300
6" = 1'-0"
140
6.0
141
12.0
290
     0
  0
SCALE
  5
68
102
{ACAD_REACTORS
330
47
102
}
330
47
100
AcDbScale
 70
     0
300
1'-0" = 1'-0"
140
12.0
141
12.0
290
     0
  0
ENDSEC
  0
EOF
