  0
SECTION
  2
HEADER
  9
$ACADVER
  1
AC1015
  9
$ACADMAINTVER
 70
     6
  9
$DWGCODEPAGE
  3
ANSI_1252
  9
$INSBASE
 10
0.0
 20
0.0
 30
0.0
  9
$EXTMIN
 10
0.0
 20
0.0
 30
0.0
  9
$EXTMAX
 10
8.5
 20
11.0
 30
0.0
  9
$LIMMIN
 10
0.0
 20
0.0
  9
$LIMMAX
 10
8.5
 20
11.0
  9
$ORTHOMODE
 70
     0
  9
$REGENMODE
 70
     1
  9
$FILLMODE
 70
     1
  9
$QTEXTMODE
 70
     0
  9
$MIRRTEXT
 70
     1
  9
$LTSCALE
 40
1.0
  9
$ATTMODE
 70
     1
  9
$TEXTSIZE
 40
0.1388888889
  9
$TRACEWID
 40
0.05
  9
$TEXTSTYLE
  7
Standard
  9
$CLAYER
  8
0
  9
$CELTYPE
  6
ByLayer
  9
$CECOLOR
 62
   256
  9
$CELTSCALE
 40
1.0
  9
$DISPSILH
 70
     0
  9
$DIMSCALE
 40
1.0
  9
$DIMASZ
 40
0.13
  9
$DIMEXO
 40
0.05
  9
$DIMDLI
 40
0.38
  9
$DIMRND
 40
0.0
  9
$DIMDLE
 40
0.0
  9
$DIMEXE
 40
0.125
  9
$DIMTP
 40
0.0
  9
$DIMTM
 40
0.0
  9
$DIMTXT
 40
0.1388888889
  9
$DIMCEN
 40
0.09
  9
$DIMTSZ
 40
0.0
  9
$DIMTOL
 70
     0
  9
$DIMLIM
 70
     0
  9
$DIMTIH
 70
     1
  9
$DIMTOH
 70
     1
  9
$DIMSE1
 70
     0
  9
$DIMSE2
 70
     0
  9
$DIMTAD
 70
     0
  9
$DIMZIN
 70
     0
  9
$DIMBLK
  1

  9
$DIMASO
 70
     1
  9
$DIMSHO
 70
     1
  9
$DIMPOST
  1

  9
$DIMAPOST
  1

  9
$DIMALT
 70
     0
  9
$DIMALTD
 70
     2
  9
$DIMALTF
 40
25.4
  9
$DIMLFAC
 40
1.0
  9
$DIMTOFL
 70
     0
  9
$DIMTVP
 40
0.0
  9
$DIMTIX
 70
     0
  9
$DIMSOXD
 70
     0
  9
$DIMSAH
 70
     0
  9
$DIMBLK1
  1

  9
$DIMBLK2
  1

  9
$DIMSTYLE
  2
Standard
  9
$DIMCLRD
 70
     0
  9
$DIMCLRE
 70
     0
  9
$DIMCLRT
 70
     0
  9
$DIMTFAC
 40
1.0
  9
$DIMGAP
 40
0.06
  9
$DIMJUST
 70
     0
  9
$DIMSD1
 70
     0
  9
$DIMSD2
 70
     0
  9
$DIMTOLJ
 70
     1
  9
$DIMTZIN
 70
     0
  9
$DIMALTZ
 70
     0
  9
$DIMALTTZ
 70
     0
  9
$DIMUPT
 70
     0
  9
$DIMDEC
 70
     0
  9
$DIMTDEC
 70
     0
  9
$DIMALTU
 70
     2
  9
$DIMALTTD
 70
     2
  9
$DIMTXSTY
  7
Standard
  9
$DIMAUNIT
 70
     0
  9
$DIMADEC
 70
     0
  9
$DIMALTRND
 40
0.0
  9
$DIMAZIN
 70
     0
  9
$DIMDSEP
 70
    46
  9
$DIMATFIT
 70
     3
  9
$DIMFRAC
 70
     0
  9
$DIMLDRBLK
  1

  9
$DIMLUNIT
 70
     2
  9
$DIMLWD
 70
    -2
  9
$DIMLWE
 70
    -2
  9
$DIMTMOVE
 70
     0
  9
$LUNITS
 70
     2
  9
$LUPREC
 70
     0
  9
$SKETCHINC
 40
0.1
  9
$FILLETRAD
 40
0.5
  9
$AUNITS
 70
     0
  9
$AUPREC
 70
     0
  9
$MENU
  1
.
  9
$ELEVATION
 40
0.0
  9
$PELEVATION
 40
0.0
  9
$THICKNESS
 40
0.0
  9
$LIMCHECK
 70
     0
  9
$CHAMFERA
 40
0.0
  9
$CHAMFERB
 40
0.0
  9
$CHAMFERC
 40
0.0
  9
$CHAMFERD
 40
0.0
  9
$SKPOLY
 70
     0
  9
$TDCREATE
 40
2459019.889379155
  9
$TDUCREATE
 40
2459020.056045822
  9
$TDUPDATE
 40
2459019.889380012
  9
$TDUUPDATE
 40
2459020.056046678
  9
$TDINDWG
 40
0.0000000116
  9
$TDUSRTIMER
 40
0.0000000116
  9
$USRTIMER
 70
     1
  9
$ANGBASE
 50
0.0
  9
$ANGDIR
 70
     0
  9
$PDMODE
 70
     0
  9
$PDSIZE
 40
-1.0
  9
$PLINEWID
 40
0.0
  9
$SPLFRAME
 70
     0
  9
$SPLINETYPE
 70
     6
  9
$SPLINESEGS
 70
     8
  9
$HANDSEED
  5
15C
  9
$SURFTAB1
 70
     6
  9
$SURFTAB2
 70
     6
  9
$SURFTYPE
 70
     6
  9
$SURFU
 70
     6
  9
$SURFV
 70
     6
  9
$UCSBASE
  2

  9
$UCSNAME
  2

  9
$UCSORG
 10
0.0
 20
0.0
 30
0.0
  9
$UCSXDIR
 10
1.0
 20
0.0
 30
0.0
  9
$UCSYDIR
 10
0.0
 20
1.0
 30
0.0
  9
$UCSORTHOREF
  2

  9
$UCSORTHOVIEW
 70
     0
  9
$UCSORGTOP
 10
0.0
 20
0.0
 30
0.0
  9
$UCSORGBOTTOM
 10
0.0
 20
0.0
 30
0.0
  9
$UCSORGLEFT
 10
0.0
 20
0.0
 30
0.0
  9
$UCSORGRIGHT
 10
0.0
 20
0.0
 30
0.0
  9
$UCSORGFRONT
 10
0.0
 20
0.0
 30
0.0
  9
$UCSORGBACK
 10
0.0
 20
0.0
 30
0.0
  9
$PUCSBASE
  2

  9
$PUCSNAME
  2

  9
$PUCSORG
 10
0.0
 20
0.0
 30
0.0
  9
$PUCSXDIR
 10
1.0
 20
0.0
 30
0.0
  9
$PUCSYDIR
 10
0.0
 20
1.0
 30
0.0
  9
$PUCSORTHOREF
  2

  9
$PUCSORTHOVIEW
 70
     0
  9
$PUCSORGTOP
 10
0.0
 20
0.0
 30
0.0
  9
$PUCSORGBOTTOM
 10
0.0
 20
0.0
 30
0.0
  9
$PUCSORGLEFT
 10
0.0
 20
0.0
 30
0.0
  9
$PUCSORGRIGHT
 10
0.0
 20
0.0
 30
0.0
  9
$PUCSORGFRONT
 10
0.0
 20
0.0
 30
0.0
  9
$PUCSORGBACK
 10
0.0
 20
0.0
 30
0.0
  9
$USERI1
 70
     0
  9
$USERI2
 70
     0
  9
$USERI3
 70
     0
  9
$USERI4
 70
     0
  9
$USERI5
 70
     0
  9
$USERR1
 40
0.0
  9
$USERR2
 40
0.0
  9
$USERR3
 40
0.0
  9
$USERR4
 40
0.0
  9
$USERR5
 40
0.0
  9
$WORLDVIEW
 70
     1
  9
$SHADEDGE
 70
     3
  9
$SHADEDIF
 70
    70
  9
$TILEMODE
 70
     1
  9
$MAXACTVP
 70
    64
  9
$PINSBASE
 10
0.0
 20
0.0
 30
0.0
  9
$PLIMCHECK
 70
     0
  9
$PEXTMIN
 10
1.0000000000E+20
 20
1.0000000000E+20
 30
1.0000000000E+20
  9
$PEXTMAX
 10
-1.0000000000E+20
 20
-1.0000000000E+20
 30
-1.0000000000E+20
  9
$PLIMMIN
 10
0.0
 20
0.0
  9
$PLIMMAX
 10
12.0
 20
9.0
  9
$UNITMODE
 70
     0
  9
$VISRETAIN
 70
     1
  9
$PLINEGEN
 70
     0
  9
$PSLTSCALE
 70
     1
  9
$TREEDEPTH
 70
  3020
  9
$CMLSTYLE
  2
Standard
  9
$CMLJUST
 70
     0
  9
$CMLSCALE
 40
1.0
  9
$PROXYGRAPHICS
 70
     1
  9
$MEASUREMENT
 70
     0
  9
$CELWEIGHT
370
    -1
  9
$ENDCAPS
280
     0
  9
$JOINSTYLE
280
     0
  9
$LWDISPLAY
290
     1
  9
$INSUNITS
 70
     1
  9
$HYPERLINKBASE
  1

  9
$STYLESHEET
  1

  9
$XEDIT
290
     1
  9
$CEPSNTYPE
380
     0
  9
$PSTYLEMODE
290
     1
  9
$FINGERPRINTGUID
  2
{54c359d2-276f-4ed9-84fd-7a7765f14ab9}
  9
$VERSIONGUID
  2
{FAEB1C32-E019-11D5-929B-00C0DF256EC4}
  9
$EXTNAMES
290
     1
  9
$PSVPSCALE
 40
0.0
  9
$OLESTARTUP
290
     0
  0
ENDSEC
  0
SECTION
  2
CLASSES
  0
CLASS
  1
ACDBDICTIONARYWDFLT
  2
AcDbDictionaryWithDefault
  3
ObjectDBX Classes
 90
        0
280
     0
281
     0
  0
CLASS
  1
VISUALSTYLE
  2
AcDbVisualStyle
  3
ObjectDBX Classes
 90
     4095
280
     0
281
     0
  0
CLASS
  1
MATERIAL
  2
AcDbMaterial
  3
ObjectDBX Classes
 90
     1153
280
     0
281
     0
  0
CLASS
  1
SCALE
  2
AcDbScale
  3
ObjectDBX Classes
 90
     1153
280
     0
281
     0
  0
CLASS
  1
TABLESTYLE
  2
AcDbTableStyle
  3
ObjectDBX Classes
 90
     4095
280
     0
281
     0
  0
CLASS
  1
MLEADERSTYLE
  2
AcDbMLeaderStyle
  3
ACDB_MLEADERSTYLE_CLASS
 90
     4095
280
     0
281
     0
  0
CLASS
  1
SUN
  2
AcDbSun
  3
SCENEOE
 90
     1153
280
     0
281
     0
  0
CLASS
  1
ACDBPLACEHOLDER
  2
AcDbPlaceHolder
  3
ObjectDBX Classes
 90
        0
280
     0
281
     0
  0
CLASS
  1
LAYOUT
  2
AcDbLayout
  3
ObjectDBX Classes
 90
        0
280
     0
281
     0
  0
ENDSEC
  0
SECTION
  2
TABLES
  0
TABLE
  2
VPORT
  5
8
330
0
100
AcDbSymbolTable
 70
     1
  0
VPORT
  5
29
330
8
100
AcDbSymbolTableRecord
100
AcDbViewportTableRecord
  2
*Active
 70
     0
 10
0.0
 20
0.0
 11
1.0
 21
1.0
 12
4.25
 22
5.5
 13
0.0
 23
0.0
 14
0.5
 24
0.5
 15
0.5
 25
0.5
 16
0.0
 26
0.0
 36
1.0
 17
0.0
 27
0.0
 37
0.0
 40
11.0
 41
0.7727272727
 42
50.0
 43
0.0
 44
0.0
 50
0.0
 51
0.0
 71
     0
 72
  2000
 73
     1
 74
     3
 75
     0
 76
     0
 77
     0
 78
     0
281
     0
 65
     1
110
0.0
120
0.0
130
0.0
111
1.0
121
0.0
131
0.0
112
0.0
122
1.0
132
0.0
 79
     0
146
0.0
  0
ENDTAB
  0
TABLE
  2
LTYPE
  5
5
330
0
100
AcDbSymbolTable
 70
     6
  0
LTYPE
  5
14
330
5
100
AcDbSymbolTableRecord
100
AcDbLinetypeTableRecord
  2
ByBlock
 70
     0
  3

 72
    65
 73
     0
 40
0.0
  0
LTYPE
  5
15
330
5
100
AcDbSymbolTableRecord
100
AcDbLinetypeTableRecord
  2
ByLayer
 70
     0
  3

 72
    65
 73
     0
 40
0.0
  0
LTYPE
  5
16
330
5
100
AcDbSymbolTableRecord
100
AcDbLinetypeTableRecord
  2
Continuous
 70
     0
  3
Solid line
 72
    65
 73
     0
 40
0.0
  0
LTYPE
  5
6E
330
5
100
AcDbSymbolTableRecord
100
AcDbLinetypeTableRecord
  2
HIDDEN
 70
     0
  3
Hidden __ __ __ __ __ __ __ __ __ __ __ __ __ __
 72
    65
 73
     2
 40
0.075
 49
0.05
 74
     0
 49
-0.025
 74
     0
  0
LTYPE
  5
6F
330
5
100
AcDbSymbolTableRecord
100
AcDbLinetypeTableRecord
  2
PHANTOM
 70
     0
  3
Phantom ______  __  __  ______  __  __  ______
 72
    65
 73
     6
 40
0.5
 49
0.25
 74
     0
 49
-0.05
 74
     0
 49
0.05
 74
     0
 49
-0.05
 74
     0
 49
0.05
 74
     0
 49
-0.05
 74
     0
  0
LTYPE
  5
70
330
5
100
AcDbSymbolTableRecord
100
AcDbLinetypeTableRecord
  2
CENTER
 70
     0
  3
Center ____ _ ____ _ ____ _ ____ _ ____ _ ____
 72
    65
 73
     4
 40
0.4
 49
0.25
 74
     0
 49
-0.05
 74
     0
 49
0.05
 74
     0
 49
-0.05
 74
     0
  0
LTYPE
  5
71
330
5
100
AcDbSymbolTableRecord
100
AcDbLinetypeTableRecord
  2
CENTERX2
 70
     0
  3
Center (2x) ________  __  ________  __  _____
 72
    65
 73
     4
 40
0.8
 49
0.5
 74
     0
 49
-0.1
 74
     0
 49
0.1
 74
     0
 49
-0.1
 74
     0
  0
LTYPE
  5
72
330
5
100
AcDbSymbolTableRecord
100
AcDbLinetypeTableRecord
  2
DOT2
 70
     0
  3
Dot (.5x) ........................................
 72
    65
 73
     2
 40
0.025
 49
0.0
 74
     0
 49
-0.025
 74
     0
  0
ENDTAB
  0
TABLE
  2
LAYER
  5
2
330
0
100
AcDbSymbolTable
 70
     7
  0
LAYER
  5
10
330
2
100
AcDbSymbolTableRecord
100
AcDbLayerTableRecord
  2
0
 70
     0
 62
     7
  6
Continuous
370
    -3
390
F
  0
LAYER
  5
73
330
2
100
AcDbSymbolTableRecord
100
AcDbLayerTableRecord
  2
FORMAT
 70
     0
 62
     7
  6
Continuous
370
    -3
390
F
  0
LAYER
  5
74
330
2
100
AcDbSymbolTableRecord
100
AcDbLayerTableRecord
  2
DEFAULT
 70
     0
 62
   179
  6
Continuous
370
    -3
390
F
  0
LAYER
  5
75
330
2
100
AcDbSymbolTableRecord
100
AcDbLayerTableRecord
  2
INSPECTION_TAGS
 70
     0
 62
     7
  6
Continuous
370
    -3
390
F
  0
LAYER
  5
76
330
2
100
AcDbSymbolTableRecord
100
AcDbLayerTableRecord
  2
REVISIONS
 70
     0
 62
     7
  6
Continuous
370
    -3
390
F
  0
LAYER
  5
77
330
2
100
AcDbSymbolTableRecord
100
AcDbLayerTableRecord
  2
DIMENSIONS_&_ANNOTATIONS
 70
     0
 62
     7
  6
Continuous
370
    -3
390
F
  0
LAYER
  5
78
330
2
100
AcDbSymbolTableRecord
100
AcDbLayerTableRecord
  2
DIMENSION_&_ANNOTATIONS
 70
     0
 62
     7
  6
Continuous
370
    -3
390
F
  0
ENDTAB
  0
TABLE
  2
STYLE
  5
3
330
0
100
AcDbSymbolTable
 70
     2
  0
STYLE
  5
11
330
3
100
AcDbSymbolTableRecord
100
AcDbTextStyleTableRecord
  2
Standard
 70
     0
 40
0.0
 41
1.0
 50
0.0
 71
     0
 42
0.1388888889
  3
txt
  4

  0
STYLE
  5
7C
330
3
100
AcDbSymbolTableRecord
100
AcDbTextStyleTableRecord
  2
SLDTEXTSTYLE0
 70
     0
 40
0.0
 41
0.605
 50
0.0
 71
     0
 42
0.1388888889
  3
TXT
  4

  0
ENDTAB
  0
TABLE
  2
VIEW
  5
6
330
0
100
AcDbSymbolTable
 70
     0
  0
ENDTAB
  0
TABLE
  2
UCS
  5
7
330
0
100
AcDbSymbolTable
 70
     0
  0
ENDTAB
  0
TABLE
  2
APPID
  5
9
330
0
100
AcDbSymbolTable
 70
     1
  0
APPID
  5
12
330
9
100
AcDbSymbolTableRecord
100
AcDbRegAppTableRecord
  2
ACAD
 70
     0
  0
ENDTAB
  0
TABLE
  2
DIMSTYLE
  5
A
330
0
100
AcDbSymbolTable
 70
     3
100
AcDbDimStyleTable
  0
DIMSTYLE
105
27
330
A
100
AcDbSymbolTableRecord
100
AcDbDimStyleTableRecord
  2
Standard
 70
     0
178
     0
340
11
  0
DIMSTYLE
105
B7
102
{ACAD_REACTORS
330
B6
102
}
330
A
100
AcDbSymbolTableRecord
100
AcDbDimStyleTableRecord
  2
SLDDIMSTYLE0
 70
     0
 41
0.13
 44
0.0
 45
0.000000001
 78
    12
 79
     3
140
0.1011149089
147
0.0252787272
148
0.000000001
170
     1
171
     1
173
     1
178
     0
271
     6
272
     0
274
     1
276
     2
277
     5
284
    12
340
7C
  0
DIMSTYLE
105
D0
102
{ACAD_REACTORS
330
CF
102
}
330
A
100
AcDbSymbolTableRecord
100
AcDbDimStyleTableRecord
  2
SLDDIMSTYLE1
 70
     0
 41
0.13
 44
0.0
 45
0.000000001
 78
    12
 79
     3
140
0.1011149089
147
0.0252787272
148
0.000000001
170
     1
171
     1
173
     1
178
     0
271
     0
272
     0
274
     1
276
     2
277
     5
284
    12
340
7C
  0
ENDTAB
  0
TABLE
  2
BLOCK_RECORD
  5
1
330
0
100
AcDbSymbolTable
 70
     5
  0
BLOCK_RECORD
  5
1F
330
1
100
AcDbSymbolTableRecord
100
AcDbBlockTableRecord
  2
*Model_Space
340
22
  0
BLOCK_RECORD
  5
1B
330
1
100
AcDbSymbolTableRecord
100
AcDbBlockTableRecord
  2
*Paper_Space
340
1E
  0
BLOCK_RECORD
  5
23
330
1
100
AcDbSymbolTableRecord
100
AcDbBlockTableRecord
  2
*Paper_Space0
340
26
  0
BLOCK_RECORD
  5
79
330
1
100
AcDbSymbolTableRecord
100
AcDbBlockTableRecord
  2
SW_NOTE_0
340
0
102
{BLKREFS
331
81
102
}
  0
BLOCK_RECORD
  5
B8
330
1
100
AcDbSymbolTableRecord
100
AcDbBlockTableRecord
  2
_D
340
0
  0
BLOCK_RECORD
  5
D1
330
1
100
AcDbSymbolTableRecord
100
AcDbBlockTableRecord
  2
_D_1
340
0
  0
BLOCK_RECORD
  5
E4
330
1
100
AcDbSymbolTableRecord
100
AcDbBlockTableRecord
  2
SW_CENTERMARKSYMBOL_16
340
0
102
{BLKREFS
331
EF
102
}
  0
ENDTAB
  0
ENDSEC
  0
SECTION
  2
BLOCKS
  0
BLOCK
  5
20
330
1F
100
AcDbEntity
  8
0
100
AcDbBlockBegin
  2
*Model_Space
 70
     0
 10
0.0
 20
0.0
 30
0.0
  3
*Model_Space
  1

  0
ENDBLK
  5
21
330
1F
100
AcDbEntity
  8
0
100
AcDbBlockEnd
  0
BLOCK
  5
1C
330
1B
100
AcDbEntity
 67
     1
  8
0
100
AcDbBlockBegin
  2
*Paper_Space
 70
     0
 10
0.0
 20
0.0
 30
0.0
  3
*Paper_Space
  1

  0
ENDBLK
  5
1D
330
1B
100
AcDbEntity
 67
     1
  8
0
100
AcDbBlockEnd
  0
BLOCK
  5
24
330
23
100
AcDbEntity
  8
0
100
AcDbBlockBegin
  2
*Paper_Space0
 70
     0
 10
0.0
 20
0.0
 30
0.0
  3
*Paper_Space0
  1

  0
ENDBLK
  5
25
330
23
100
AcDbEntity
  8
0
100
AcDbBlockEnd
  0
BLOCK
  5
7A
330
79
100
AcDbEntity
  8
0
100
AcDbBlockBegin
  2
SW_NOTE_0
 70
     0
 10
0.0
 20
0.0
 30
0.0
  3
SW_NOTE_0
  1

  0
MTEXT
  5
7D
330
79
100
AcDbEntity
  8
DEFAULT
 62
     0
100
AcDbMText
 10
0.3850911458
 20
0.1879890454
 30
0.0
 40
0.1458333333
 41
0.0
 71
     2
 72
     1
  1
Legrand
  7
SLDTEXTSTYLE0
 73
     1
 44
1.0
  0
MTEXT
  5
7E
330
79
100
AcDbEntity
  8
DEFAULT
 62
     0
100
AcDbMText
 10
0.4129879835
 20
-0.0055331972
 30
0.0
 40
0.125
 41
0.0
 71
     2
 72
     1
  1
SYSTEM: Wiremold® Resource RFB® Series Floor Boxes
  7
SLDTEXTSTYLE0
 73
     1
 44
1.0
  0
MTEXT
  5
7F
330
79
100
AcDbEntity
  8
DEFAULT
 62
     0
100
AcDbMText
 10
0.3961468804
 20
-0.1721998618
 30
0.0
 40
0.125
 41
0.0
 71
     2
 72
     1
  1
Catalog Number RFBA6A_R0
  7
SLDTEXTSTYLE0
 73
     1
 44
1.0
  0
MTEXT
  5
80
330
79
100
AcDbEntity
  8
DEFAULT
 62
     0
100
AcDbMText
 10
0.3886959733
 20
-0.3388665265
 30
0.0
 40
0.125
 41
0.0
 71
     2
 72
     1
  1
06/18/2020
  7
SLDTEXTSTYLE0
 73
     1
 44
1.0
  0
ENDBLK
  5
7B
330
79
100
AcDbEntity
  8
0
100
AcDbBlockEnd
  0
BLOCK
  5
B9
330
B8
100
AcDbEntity
  8
0
100
AcDbBlockBegin
  2
_D
 70
     0
 10
0.0
 20
0.0
 30
0.0
  3
_D
  1

  0
SOLID
  5
BB
330
B8
100
AcDbEntity
  8
DEFAULT
 62
     7
100
AcDbTrace
 10
7.4366937188
 20
5.6013744076
 30
0.0
 11
7.4166937188
 21
5.4713744076
 31
0.0
 12
7.4566937188
 22
5.4713744076
 32
0.0
 13
7.4566937188
 23
5.4713744076
 33
0.0
  0
SOLID
  5
BC
330
B8
100
AcDbEntity
  8
DEFAULT
 62
     7
100
AcDbTrace
 10
7.4366937188
 20
3.3513744076
 30
0.0
 11
7.4566937188
 21
3.4813744076
 31
0.0
 12
7.4166937188
 22
3.4813744076
 32
0.0
 13
7.4166937188
 23
3.4813744076
 33
0.0
  0
LINE
  5
BD
330
B8
100
AcDbEntity
  8
DEFAULT
 62
     7
100
AcDbLine
 10
7.3972454429
 20
4.5874951812
 30
0.0
 11
7.5039198272
 21
4.5874951812
 31
0.0
  0
LINE
  5
BE
330
B8
100
AcDbEntity
  8
DEFAULT
 62
     7
100
AcDbLine
 10
7.1859221358
 20
4.4136525822
 30
0.0
 11
7.151199914
 21
4.4136525822
 31
0.0
  0
LINE
  5
BF
330
B8
100
AcDbEntity
  8
DEFAULT
 62
     7
100
AcDbLine
 10
7.151199914
 20
4.4136525822
 30
0.0
 11
7.151199914
 21
4.2583670827
 31
0.0
  0
LINE
  5
C0
330
B8
100
AcDbEntity
  8
DEFAULT
 62
     7
100
AcDbLine
 10
7.151199914
 20
4.2583670827
 30
0.0
 11
7.1859221358
 21
4.2583670827
 31
0.0
  0
LINE
  5
C1
330
B8
100
AcDbEntity
  8
DEFAULT
 62
     7
100
AcDbLine
 10
7.6874653752
 20
4.4136525822
 30
0.0
 11
7.722187597
 21
4.4136525822
 31
0.0
  0
LINE
  5
C2
330
B8
100
AcDbEntity
  8
DEFAULT
 62
     7
100
AcDbLine
 10
7.722187597
 20
4.4136525822
 30
0.0
 11
7.722187597
 21
4.2583670827
 31
0.0
  0
LINE
  5
C3
330
B8
100
AcDbEntity
  8
DEFAULT
 62
     7
100
AcDbLine
 10
7.722187597
 20
4.2583670827
 30
0.0
 11
7.6874653752
 21
4.2583670827
 31
0.0
  0
LINE
  5
C4
330
B8
100
AcDbEntity
  8
DEFAULT
 62
     7
100
AcDbLine
 10
6.4372914692
 20
5.6013744076
 30
0.0
 11
7.5616937188
 21
5.6013744076
 31
0.0
  0
LINE
  5
C5
330
B8
100
AcDbEntity
  8
DEFAULT
 62
     7
100
AcDbLine
 10
6.7912914692
 20
3.3513744076
 30
0.0
 11
7.5616937188
 21
3.3513744076
 31
0.0
  0
LINE
  5
C6
330
B8
100
AcDbEntity
  8
DEFAULT
 62
     7
100
AcDbLine
 10
7.4366937188
 20
5.6013744076
 30
0.0
 11
7.4366937188
 21
4.7175299017
 31
0.0
  0
LINE
  5
C7
330
B8
100
AcDbEntity
  8
DEFAULT
 62
     7
100
AcDbLine
 10
7.4366937188
 20
3.3513744076
 30
0.0
 11
7.4366937188
 21
4.2352189134
 31
0.0
  0
MTEXT
  5
C8
330
B8
100
AcDbEntity
  8
DEFAULT
 62
     7
100
AcDbMText
 10
7.1169599437
 20
4.6419529283
 30
0.0
 40
0.1041666667
 41
0.0
 71
     1
 72
     1
  1

  7
SLDTEXTSTYLE0
 73
     1
 44
1.0
  0
MTEXT
  5
C9
330
B8
100
AcDbEntity
  8
DEFAULT
 62
     7
100
AcDbMText
 10
7.3053280022
 20
4.6419529283
 30
0.0
 40
0.1041666667
 41
0.0
 71
     1
 72
     1
  1
2
  7
SLDTEXTSTYLE0
 73
     1
 44
1.0
  0
MTEXT
  5
CA
330
B8
100
AcDbEntity
  8
DEFAULT
 62
     7
100
AcDbMText
 10
7.4120023866
 20
4.7129189018
 30
0.0
 40
0.1041666667
 41
0.0
 71
     1
 72
     1
  1
1
  7
SLDTEXTSTYLE0
 73
     1
 44
1.0
  0
MTEXT
  5
CB
330
B8
100
AcDbEntity
  8
DEFAULT
 62
     7
100
AcDbMText
 10
7.4120023866
 20
4.5710786258
 30
0.0
 40
0.1041666667
 41
0.0
 71
     1
 72
     1
  1
4
  7
SLDTEXTSTYLE0
 73
     1
 44
1.0
  0
MTEXT
  5
CC
330
B8
100
AcDbEntity
  8
DEFAULT
 62
     7
100
AcDbMText
 10
7.5186767709
 20
4.6419529283
 30
0.0
 40
0.1041666667
 41
0.0
 71
     1
 72
     1
  1
"
  7
SLDTEXTSTYLE0
 73
     1
 44
1.0
  0
MTEXT
  5
CD
330
B8
100
AcDbEntity
  8
DEFAULT
 62
     7
100
AcDbMText
 10
7.1859221358
 20
4.3926449791
 30
0.0
 40
0.1041666667
 41
0.0
 71
     1
 72
     1
  1
57.2mm
  7
SLDTEXTSTYLE0
 73
     1
 44
1.0
  0
MTEXT
  5
CE
330
B8
100
AcDbEntity
  8
DEFAULT
 62
     7
100
AcDbMText
 10
7.795972273
 20
4.6419529283
 30
0.0
 40
0.1041666667
 41
0.0
 71
     1
 72
     1
  1

  7
SLDTEXTSTYLE0
 73
     1
 44
1.0
  0
ENDBLK
  5
BA
330
B8
100
AcDbEntity
  8
0
100
AcDbBlockEnd
  0
BLOCK
  5
D2
330
D1
100
AcDbEntity
  8
0
100
AcDbBlockBegin
  2
_D_1
 70
     0
 10
0.0
 20
0.0
 30
0.0
  3
_D_1
  1

  0
SOLID
  5
D4
330
D1
100
AcDbEntity
  8
DEFAULT
 62
     7
100
AcDbTrace
 10
6.7412914692
 20
2.7214531477
 30
0.0
 11
6.6112914692
 21
2.7414531477
 31
0.0
 12
6.6112914692
 22
2.7014531477
 32
0.0
 13
6.6112914692
 23
2.7014531477
 33
0.0
  0
SOLID
  5
D5
330
D1
100
AcDbEntity
  8
DEFAULT
 62
     7
100
AcDbTrace
 10
2.0112914692
 20
2.7214531477
 30
0.0
 11
2.1412914692
 21
2.7014531477
 31
0.0
 12
2.1412914692
 22
2.7414531477
 32
0.0
 13
2.1412914692
 23
2.7414531477
 33
0.0
  0
LINE
  5
D6
330
D1
100
AcDbEntity
  8
DEFAULT
 62
     7
100
AcDbLine
 10
4.0869396651
 20
2.7214531569
 30
0.0
 11
4.0522174433
 21
2.7214531569
 31
0.0
  0
LINE
  5
D7
330
D1
100
AcDbEntity
  8
DEFAULT
 62
     7
100
AcDbLine
 10
4.0522174433
 20
2.7214531569
 30
0.0
 11
4.0522174433
 21
2.5661676574
 31
0.0
  0
LINE
  5
D8
330
D1
100
AcDbEntity
  8
DEFAULT
 62
     7
100
AcDbLine
 10
4.0522174433
 20
2.5661676574
 30
0.0
 11
4.0869396651
 21
2.5661676574
 31
0.0
  0
LINE
  5
D9
330
D1
100
AcDbEntity
  8
DEFAULT
 62
     7
100
AcDbLine
 10
4.6656433466
 20
2.7214531569
 30
0.0
 11
4.7003655684
 21
2.7214531569
 31
0.0
  0
LINE
  5
DA
330
D1
100
AcDbEntity
  8
DEFAULT
 62
     7
100
AcDbLine
 10
4.7003655684
 20
2.7214531569
 30
0.0
 11
4.7003655684
 21
2.5661676574
 31
0.0
  0
LINE
  5
DB
330
D1
100
AcDbEntity
  8
DEFAULT
 62
     7
100
AcDbLine
 10
4.7003655684
 20
2.5661676574
 30
0.0
 11
4.6656433466
 21
2.5661676574
 31
0.0
  0
LINE
  5
DC
330
D1
100
AcDbEntity
  8
DEFAULT
 62
     7
100
AcDbLine
 10
6.7412914692
 20
3.3013744076
 30
0.0
 11
6.7412914692
 21
2.5964531477
 31
0.0
  0
LINE
  5
DD
330
D1
100
AcDbEntity
  8
DEFAULT
 62
     7
100
AcDbLine
 10
2.0112914692
 20
4.0813744076
 30
0.0
 11
2.0112914692
 21
2.5964531477
 31
0.0
  0
LINE
  5
DE
330
D1
100
AcDbEntity
  8
DEFAULT
 62
     7
100
AcDbLine
 10
6.7412914692
 20
2.7214531477
 30
0.0
 11
4.7969321833
 21
2.7214531477
 31
0.0
  0
LINE
  5
DF
330
D1
100
AcDbEntity
  8
DEFAULT
 62
     7
100
AcDbLine
 10
2.0112914692
 20
2.7214531477
 30
0.0
 11
3.955650755
 21
2.7214531477
 31
0.0
  0
MTEXT
  5
E0
330
D1
100
AcDbEntity
  8
DEFAULT
 62
     7
100
AcDbMText
 10
4.0179774731
 20
2.8788791951
 30
0.0
 40
0.1041666667
 41
0.0
 71
     1
 72
     1
  1

  7
SLDTEXTSTYLE0
 73
     1
 44
1.0
  0
MTEXT
  5
E1
330
D1
100
AcDbEntity
  8
DEFAULT
 62
     7
100
AcDbMText
 10
4.2836989022
 20
2.8788791951
 30
0.0
 40
0.1041666667
 41
0.0
 71
     1
 72
     1
  1
5in
  7
SLDTEXTSTYLE0
 73
     1
 44
1.0
  0
MTEXT
  5
E2
330
D1
100
AcDbEntity
  8
DEFAULT
 62
     7
100
AcDbMText
 10
4.0869396651
 20
2.7004455539
 30
0.0
 40
0.1041666667
 41
0.0
 71
     1
 72
     1
  1
120.1mm
  7
SLDTEXTSTYLE0
 73
     1
 44
1.0
  0
MTEXT
  5
E3
330
D1
100
AcDbEntity
  8
DEFAULT
 62
     7
100
AcDbMText
 10
4.7741502443
 20
2.8788791951
 30
0.0
 40
0.1041666667
 41
0.0
 71
     1
 72
     1
  1

  7
SLDTEXTSTYLE0
 73
     1
 44
1.0
  0
ENDBLK
  5
D3
330
D1
100
AcDbEntity
  8
0
100
AcDbBlockEnd
  0
BLOCK
  5
E5
330
E4
100
AcDbEntity
  8
0
100
AcDbBlockBegin
  2
SW_CENTERMARKSYMBOL_16
 70
     0
 10
0.0
 20
0.0
 30
0.0
  3
SW_CENTERMARKSYMBOL_16
  1

  0
LINE
  5
E7
330
E4
100
AcDbEntity
  8
DEFAULT
 62
     0
100
AcDbLine
 10
0.0
 20
0.0
 30
0.0
 11
0.0
 21
0.1
 31
0.0
  0
LINE
  5
E8
330
E4
100
AcDbEntity
  8
DEFAULT
 62
     0
100
AcDbLine
 10
0.0
 20
0.0
 30
0.0
 11
-0.1
 21
0.0
 31
0.0
  0
LINE
  5
E9
330
E4
100
AcDbEntity
  8
DEFAULT
 62
     0
100
AcDbLine
 10
0.0
 20
0.0
 30
0.0
 11
0.0
 21
-0.1
 31
0.0
  0
LINE
  5
EA
330
E4
100
AcDbEntity
  8
DEFAULT
 62
     0
100
AcDbLine
 10
0.0
 20
0.0
 30
0.0
 11
0.1
 21
0.0
 31
0.0
  0
LINE
  5
EB
330
E4
100
AcDbEntity
  8
DEFAULT
 62
     0
100
AcDbLine
 10
0.0
 20
0.1
 30
0.0
 11
0.0
 21
0.15325
 31
0.0
  0
LINE
  5
EC
330
E4
100
AcDbEntity
  8
DEFAULT
 62
     0
100
AcDbLine
 10
-0.1
 20
0.0
 30
0.0
 11
-0.15325
 21
0.0
 31
0.0
  0
LINE
  5
ED
330
E4
100
AcDbEntity
  8
DEFAULT
 62
     0
100
AcDbLine
 10
0.0
 20
-0.1
 30
0.0
 11
0.0
 21
-0.15325
 31
0.0
  0
LINE
  5
EE
330
E4
100
AcDbEntity
  8
DEFAULT
 62
     0
100
AcDbLine
 10
0.1
 20
0.0
 30
0.0
 11
0.15325
 21
0.0
 31
0.0
  0
ENDBLK
  5
E6
330
E4
100
AcDbEntity
  8
0
100
AcDbBlockEnd
  0
ENDSEC
  0
SECTION
  2
ENTITIES
  0
INSERT
  5
81
330
1F
100
AcDbEntity
  8
DEFAULT
 62
     7
100
AcDbBlockReference
  2
SW_NOTE_0
 10
3.8598654273
 20
1.42375461
 30
0.0
  0
LINE
  5
82
330
1F
100
AcDbEntity
  8
0
  6
Continuous
 62
     7
370
    25
100
AcDbLine
 10
6.3872914692
 20
5.6013744076
 30
0.0
 11
4.8012914692
 21
5.6013744076
 31
0.0
  0
LINE
  5
83
330
1F
100
AcDbEntity
  8
0
  6
Continuous
 62
     7
370
    25
100
AcDbLine
 10
6.4172914692
 20
5.5713744076
 30
0.0
 11
6.3872914692
 21
5.6013744076
 31
0.0
  0
LINE
  5
84
330
1F
100
AcDbEntity
  8
0
  6
Continuous
 62
     7
370
    25
100
AcDbLine
 10
6.4172914692
 20
5.1733744076
 30
0.0
 11
6.4172914692
 21
5.5713744076
 31
0.0
  0
LINE
  5
85
330
1F
100
AcDbEntity
  8
0
  6
Continuous
 62
     7
370
    25
100
AcDbLine
 10
6.7412914692
 20
5.1733744076
 30
0.0
 11
6.4172914692
 21
5.1733744076
 31
0.0
  0
LINE
  5
86
330
1F
100
AcDbEntity
  8
0
  6
Continuous
 62
     7
370
    25
100
AcDbLine
 10
6.7412914692
 20
4.9858744076
 30
0.0
 11
6.7412914692
 21
5.1733744076
 31
0.0
  0
LINE
  5
87
330
1F
100
AcDbEntity
  8
0
  6
Continuous
 62
     7
370
    25
100
AcDbLine
 10
6.6712914692
 20
4.9858744076
 30
0.0
 11
6.7412914692
 21
4.9858744076
 31
0.0
  0
LINE
  5
88
330
1F
100
AcDbEntity
  8
0
  6
Continuous
 62
     7
370
    25
100
AcDbLine
 10
6.6712914692
 20
4.6013744076
 30
0.0
 11
6.6712914692
 21
4.9858744076
 31
0.0
  0
LINE
  5
89
330
1F
100
AcDbEntity
  8
0
  6
Continuous
 62
     7
370
    25
100
AcDbLine
 10
6.7412914692
 20
4.6013744076
 30
0.0
 11
6.6712914692
 21
4.6013744076
 31
0.0
  0
LINE
  5
8A
330
1F
100
AcDbEntity
  8
0
  6
Continuous
 62
     7
370
    25
100
AcDbLine
 10
6.7412914692
 20
4.2263744076
 30
0.0
 11
6.7412914692
 21
4.6013744076
 31
0.0
  0
LINE
  5
8B
330
1F
100
AcDbEntity
  8
0
  6
Continuous
 62
     7
370
    25
100
AcDbLine
 10
6.6712914692
 20
4.2263744076
 30
0.0
 11
6.7412914692
 21
4.2263744076
 31
0.0
  0
LINE
  5
8C
330
1F
100
AcDbEntity
  8
0
  6
Continuous
 62
     7
370
    25
100
AcDbLine
 10
6.6712914692
 20
3.5388744076
 30
0.0
 11
6.6712914692
 21
4.2263744076
 31
0.0
  0
LINE
  5
8D
330
1F
100
AcDbEntity
  8
0
  6
Continuous
 62
     7
370
    25
100
AcDbLine
 10
6.7412914692
 20
3.5388744076
 30
0.0
 11
6.6712914692
 21
3.5388744076
 31
0.0
  0
LINE
  5
8E
330
1F
100
AcDbEntity
  8
0
  6
Continuous
 62
     7
370
    25
100
AcDbLine
 10
6.7412914692
 20
3.3513744076
 30
0.0
 11
6.7412914692
 21
3.5388744076
 31
0.0
  0
LINE
  5
8F
330
1F
100
AcDbEntity
  8
0
  6
Continuous
 62
     7
370
    25
100
AcDbLine
 10
6.1812914692
 20
3.3513744076
 30
0.0
 11
6.7412914692
 21
3.3513744076
 31
0.0
  0
LINE
  5
90
330
1F
100
AcDbEntity
  8
0
  6
Continuous
 62
     7
370
    25
100
AcDbLine
 10
6.1812914692
 20
3.4413744076
 30
0.0
 11
6.1812914692
 21
3.3513744076
 31
0.0
  0
LINE
  5
91
330
1F
100
AcDbEntity
  8
0
  6
Continuous
 62
     7
370
    25
100
AcDbLine
 10
5.9212914692
 20
3.4413744076
 30
0.0
 11
6.1812914692
 21
3.4413744076
 31
0.0
  0
LINE
  5
92
330
1F
100
AcDbEntity
  8
0
  6
Continuous
 62
     7
370
    25
100
AcDbLine
 10
5.9212914692
 20
3.3513744076
 30
0.0
 11
5.9212914692
 21
3.4413744076
 31
0.0
  0
LINE
  5
93
330
1F
100
AcDbEntity
  8
0
  6
Continuous
 62
     7
370
    25
100
AcDbLine
 10
3.1812914692
 20
3.3513744076
 30
0.0
 11
5.9212914692
 21
3.3513744076
 31
0.0
  0
LINE
  5
94
330
1F
100
AcDbEntity
  8
0
  6
Continuous
 62
     7
370
    25
100
AcDbLine
 10
3.1812914692
 20
3.4413744076
 30
0.0
 11
3.1812914692
 21
3.3513744076
 31
0.0
  0
LINE
  5
95
330
1F
100
AcDbEntity
  8
0
  6
Continuous
 62
     7
370
    25
100
AcDbLine
 10
2.9212914692
 20
3.4413744076
 30
0.0
 11
3.1812914692
 21
3.4413744076
 31
0.0
  0
LINE
  5
96
330
1F
100
AcDbEntity
  8
0
  6
Continuous
 62
     7
370
    25
100
AcDbLine
 10
2.9212914692
 20
3.3513744076
 30
0.0
 11
2.9212914692
 21
3.4413744076
 31
0.0
  0
LINE
  5
97
330
1F
100
AcDbEntity
  8
0
  6
Continuous
 62
     7
370
    25
100
AcDbLine
 10
2.1612914692
 20
3.3513744076
 30
0.0
 11
2.9212914692
 21
3.3513744076
 31
0.0
  0
LINE
  5
98
330
1F
100
AcDbEntity
  8
0
  6
Continuous
 62
     7
370
    25
100
AcDbLine
 10
2.1312914692
 20
3.3813744076
 30
0.0
 11
2.1612914692
 21
3.3513744076
 31
0.0
  0
LINE
  5
99
330
1F
100
AcDbEntity
  8
0
  6
Continuous
 62
     7
370
    25
100
AcDbLine
 10
2.1312914692
 20
4.1013744076
 30
0.0
 11
2.1312914692
 21
3.3813744076
 31
0.0
  0
LINE
  5
9A
330
1F
100
AcDbEntity
  8
0
  6
Continuous
 62
     7
370
    25
100
AcDbLine
 10
2.0412914692
 20
4.1013744076
 30
0.0
 11
2.1312914692
 21
4.1013744076
 31
0.0
  0
LINE
  5
9B
330
1F
100
AcDbEntity
  8
0
  6
Continuous
 62
     7
370
    25
100
AcDbLine
 10
2.0112914692
 20
4.1313744076
 30
0.0
 11
2.0412914692
 21
4.1013744076
 31
0.0
  0
LINE
  5
9C
330
1F
100
AcDbEntity
  8
0
  6
Continuous
 62
     7
370
    25
100
AcDbLine
 10
2.0112914692
 20
4.3358744076
 30
0.0
 11
2.0112914692
 21
4.1313744076
 31
0.0
  0
LINE
  5
9D
330
1F
100
AcDbEntity
  8
0
  6
Continuous
 62
     7
370
    25
100
AcDbLine
 10
2.0512914692
 20
4.3358744076
 30
0.0
 11
2.0112914692
 21
4.3358744076
 31
0.0
  0
ARC
  5
9E
330
1F
100
AcDbEntity
  8
0
  6
Continuous
 62
     7
370
    25
100
AcDbCircle
 10
2.0512914692
 20
4.4138744076
 30
0.0
 40
0.0780000000000003
100
AcDbArc
 50
270.0
 51
90.0
  0
LINE
  5
9F
330
1F
100
AcDbEntity
  8
0
  6
Continuous
 62
     7
370
    25
100
AcDbLine
 10
2.0112914692
 20
4.4918744076
 30
0.0
 11
2.0512914692
 21
4.4918744076
 31
0.0
  0
LINE
  5
A0
330
1F
100
AcDbEntity
  8
0
  6
Continuous
 62
     7
370
    25
100
AcDbLine
 10
2.0112914692
 20
4.6963744076
 30
0.0
 11
2.0112914692
 21
4.4918744076
 31
0.0
  0
LINE
  5
A1
330
1F
100
AcDbEntity
  8
0
  6
Continuous
 62
     7
370
    25
100
AcDbLine
 10
2.0412914692
 20
4.7263744076
 30
0.0
 11
2.0112914692
 21
4.6963744076
 31
0.0
  0
LINE
  5
A2
330
1F
100
AcDbEntity
  8
0
  6
Continuous
 62
     7
370
    25
100
AcDbLine
 10
2.1312914692
 20
4.7263744076
 30
0.0
 11
2.0412914692
 21
4.7263744076
 31
0.0
  0
LINE
  5
A3
330
1F
100
AcDbEntity
  8
0
  6
Continuous
 62
     7
370
    25
100
AcDbLine
 10
2.1312914692
 20
5.5713744076
 30
0.0
 11
2.1312914692
 21
4.7263744076
 31
0.0
  0
LINE
  5
A4
330
1F
100
AcDbEntity
  8
0
  6
Continuous
 62
     7
370
    25
100
AcDbLine
 10
2.1612914692
 20
5.6013744076
 30
0.0
 11
2.1312914692
 21
5.5713744076
 31
0.0
  0
LINE
  5
A5
330
1F
100
AcDbEntity
  8
0
  6
Continuous
 62
     7
370
    25
100
AcDbLine
 10
2.9212914692
 20
5.6013744076
 30
0.0
 11
2.1612914692
 21
5.6013744076
 31
0.0
  0
LINE
  5
A6
330
1F
100
AcDbEntity
  8
0
  6
Continuous
 62
     7
370
    25
100
AcDbLine
 10
2.9212914692
 20
5.4133744076
 30
0.0
 11
2.9212914692
 21
5.6013744076
 31
0.0
  0
LINE
  5
A7
330
1F
100
AcDbEntity
  8
0
  6
Continuous
 62
     7
370
    25
100
AcDbLine
 10
3.1812914692
 20
5.4133744076
 30
0.0
 11
2.9212914692
 21
5.4133744076
 31
0.0
  0
LINE
  5
A8
330
1F
100
AcDbEntity
  8
0
  6
Continuous
 62
     7
370
    25
100
AcDbLine
 10
3.1812914692
 20
5.6013744076
 30
0.0
 11
3.1812914692
 21
5.4133744076
 31
0.0
  0
LINE
  5
A9
330
1F
100
AcDbEntity
  8
0
  6
Continuous
 62
     7
370
    25
100
AcDbLine
 10
4.3012914692
 20
5.6013744076
 30
0.0
 11
3.1812914692
 21
5.6013744076
 31
0.0
  0
LINE
  5
AA
330
1F
100
AcDbEntity
  8
0
  6
Continuous
 62
     7
370
    25
100
AcDbLine
 10
4.3012914692
 20
5.5113744076
 30
0.0
 11
4.3012914692
 21
5.6013744076
 31
0.0
  0
LINE
  5
AB
330
1F
100
AcDbEntity
  8
0
  6
Continuous
 62
     7
370
    25
100
AcDbLine
 10
4.8012914692
 20
5.5113744076
 30
0.0
 11
4.3012914692
 21
5.5113744076
 31
0.0
  0
LINE
  5
AC
330
1F
100
AcDbEntity
  8
0
  6
Continuous
 62
     7
370
    25
100
AcDbLine
 10
4.8012914692
 20
5.6013744076
 30
0.0
 11
4.8012914692
 21
5.5113744076
 31
0.0
  0
LINE
  5
AD
330
1F
100
AcDbEntity
  8
0
  6
Continuous
 62
     7
370
    25
100
AcDbLine
 10
4.6237914692
 20
5.0013744076
 30
0.0
 11
4.6237914692
 21
3.8263744076
 31
0.0
  0
LINE
  5
AE
330
1F
100
AcDbEntity
  8
0
  6
Continuous
 62
     7
370
    25
100
AcDbLine
 10
4.6237914692
 20
3.8263744076
 30
0.0
 11
6.5987914692
 21
3.8263744076
 31
0.0
  0
LINE
  5
AF
330
1F
100
AcDbEntity
  8
0
  6
Continuous
 62
     7
370
    25
100
AcDbLine
 10
6.5987914692
 20
3.8263744076
 30
0.0
 11
6.5987914692
 21
5.0013744076
 31
0.0
  0
LINE
  5
B0
330
1F
100
AcDbEntity
  8
0
  6
Continuous
 62
     7
370
    25
100
AcDbLine
 10
6.5987914692
 20
5.0013744076
 30
0.0
 11
4.6237914692
 21
5.0013744076
 31
0.0
  0
LINE
  5
B1
330
1F
100
AcDbEntity
  8
0
  6
Continuous
 62
     7
370
    25
100
AcDbLine
 10
2.5437914692
 20
3.8263744076
 30
0.0
 11
4.5187914692
 21
3.8263744076
 31
0.0
  0
LINE
  5
B2
330
1F
100
AcDbEntity
  8
0
  6
Continuous
 62
     7
370
    25
100
AcDbLine
 10
4.5187914692
 20
3.8263744076
 30
0.0
 11
4.5187914692
 21
5.0013744076
 31
0.0
  0
LINE
  5
B3
330
1F
100
AcDbEntity
  8
0
  6
Continuous
 62
     7
370
    25
100
AcDbLine
 10
4.5187914692
 20
5.0013744076
 30
0.0
 11
2.5437914692
 21
5.0013744076
 31
0.0
  0
LINE
  5
B4
330
1F
100
AcDbEntity
  8
0
  6
Continuous
 62
     7
370
    25
100
AcDbLine
 10
2.5437914692
 20
5.0013744076
 30
0.0
 11
2.5437914692
 21
3.8263744076
 31
0.0
  0
CIRCLE
  5
B5
330
1F
100
AcDbEntity
  8
0
  6
Continuous
 62
     7
370
    25
100
AcDbCircle
 10
6.2652914692
 20
5.4193744076
 30
0.0
 40
0.0532500000000002
  0
DIMENSION
  5
B6
330
1F
100
AcDbEntity
  8
DEFAULT
 62
     7
100
AcDbDimension
  2
_D
 10
7.4366937188
 20
3.3513744076
 30
0.0
 11
7.4366937188
 21
4.4763744076
 31
0.0
 70
   160
  1
<>
 71
     2
 42
-1.0
  3
SLDDIMSTYLE0
100
AcDbAlignedDimension
 13
6.3872914692
 23
5.6013744076
 33
0.0
 14
6.7412914692
 24
3.3513744076
 34
0.0
 50
90.0
100
AcDbRotatedDimension
  0
DIMENSION
  5
CF
330
1F
100
AcDbEntity
  8
DEFAULT
 62
     7
100
AcDbDimension
  2
_D_1
 10
2.0112914692
 20
2.7214531477
 30
0.0
 11
4.3762914692
 21
2.7214531477
 31
0.0
 70
   160
  1
<>
 71
     2
 42
-1.0
  3
SLDDIMSTYLE1
100
AcDbAlignedDimension
 13
6.7412914692
 23
3.3513744076
 33
0.0
 14
2.0112914692
 24
4.1313744076
 34
0.0
 50
0.0
100
AcDbRotatedDimension
  0
INSERT
  5
EF
330
1F
100
AcDbEntity
  8
DEFAULT
100
AcDbBlockReference
  2
SW_CENTERMARKSYMBOL_16
 10
6.2652914692
 20
5.4193744076
 30
0.0
  0
CIRCLE
  5
F0
330
1F
100
AcDbEntity
  8
0
  6
HIDDEN
 62
     7
370
    18
100
AcDbCircle
 10
6.2652914692
 20
5.4193744076
 30
0.0
 40
0.069
  0
CIRCLE
  5
F1
330
1F
100
AcDbEntity
  8
0
  6
HIDDEN
 62
     7
370
    18
100
AcDbCircle
 10
6.2652914692
 20
5.4193744076
 30
0.0
 40
0.069
  0
LWPOLYLINE
  5
F2
330
1F
100
AcDbEntity
  8
0
  6
Continuous
 62
     7
370
    25
100
AcDbPolyline
 90
       25
 70
   128
 43
0.0
 10
7.0273635313
 20
8.4936676737
 10
7.0260805621
 20
8.5056619692
 10
7.0223189766
 20
8.5183202097
 10
7.0163351405
 20
8.5307798027
 10
7.0085368327
 20
8.5421915831
 10
6.9994555558
 20
8.5517778328
 10
6.9897101342
 20
8.5588853302
 10
6.9799647125
 20
8.5630296571
 10
6.9708833319
 20
8.5639284864
 10
6.9630851279
 20
8.5615203807
 10
6.9571012917
 20
8.5559695778
 10
6.9533397062
 20
8.5476543715
 10
6.9520566334
 20
8.5371414205
 10
6.9533397062
 20
8.5251470651
 10
6.9571012917
 20
8.5124888246
 10
6.9630851279
 20
8.5000292316
 10
6.9708833319
 20
8.488617511
 10
6.9799647125
 20
8.4790312015
 10
6.9897101342
 20
8.4719237041
 10
6.9994555558
 20
8.4677793772
 10
7.0085368327
 20
8.4668806077
 10
7.0163351405
 20
8.4692886536
 10
7.0223189766
 20
8.4748394565
 10
7.0260805621
 20
8.4831546628
 10
7.0273635313
 20
8.4936676737
  0
LINE
  5
F3
330
1F
100
AcDbEntity
  8
0
  6
Continuous
 62
     7
370
    25
100
AcDbLine
 10
7.0759770794
 20
8.6142141063
 30
0.0
 11
5.9545057669
 21
9.2616257145
 31
0.0
  0
LINE
  5
F4
330
1F
100
AcDbEntity
  8
0
  6
Continuous
 62
     7
370
    25
100
AcDbLine
 10
7.0971903018
 20
8.5774717275
 30
0.0
 11
7.0759770794
 21
8.6142141063
 31
0.0
  0
LINE
  5
F5
330
1F
100
AcDbEntity
  8
0
  6
Continuous
 62
     7
370
    25
100
AcDbLine
 10
7.0971903018
 20
8.2524885097
 30
0.0
 11
7.0971903018
 21
8.5774717275
 31
0.0
  0
LINE
  5
F6
330
1F
100
AcDbEntity
  8
0
  6
Continuous
 62
     7
370
    25
100
AcDbLine
 10
7.3262929582
 20
8.1202303614
 30
0.0
 11
7.0971903018
 21
8.2524885097
 31
0.0
  0
LINE
  5
F7
330
1F
100
AcDbEntity
  8
0
  6
Continuous
 62
     7
370
    25
100
AcDbLine
 10
7.3262929582
 20
7.9671289423
 30
0.0
 11
7.3262929582
 21
8.1202303614
 31
0.0
  0
LINE
  5
F8
330
1F
100
AcDbEntity
  8
0
  6
Continuous
 62
     7
370
    25
100
AcDbLine
 10
7.2767954047
 20
7.9957032717
 30
0.0
 11
7.3262929582
 21
7.9671289423
 31
0.0
  0
LINE
  5
F9
330
1F
100
AcDbEntity
  8
0
  6
Continuous
 62
     7
370
    25
100
AcDbLine
 10
7.2767954047
 20
7.6817433378
 30
0.0
 11
7.2767954047
 21
7.9957032717
 31
0.0
  0
LINE
  5
FA
330
1F
100
AcDbEntity
  8
0
  6
Continuous
 62
     7
370
    25
100
AcDbLine
 10
7.3262929582
 20
7.6531690084
 30
0.0
 11
7.2767954047
 21
7.6817433378
 31
0.0
  0
LINE
  5
FB
330
1F
100
AcDbEntity
  8
0
  6
Continuous
 62
     7
370
    25
100
AcDbLine
 10
7.3262929582
 20
7.3469662002
 30
0.0
 11
7.3262929582
 21
7.6531690084
 31
0.0
  0
LINE
  5
FC
330
1F
100
AcDbEntity
  8
0
  6
Continuous
 62
     7
370
    25
100
AcDbLine
 10
7.2767954047
 20
7.3755405295
 30
0.0
 11
7.3262929582
 21
7.3469662002
 31
0.0
  0
LINE
  5
FD
330
1F
100
AcDbEntity
  8
0
  6
Continuous
 62
     7
370
    25
100
AcDbLine
 10
7.2767954047
 20
6.8141687244
 30
0.0
 11
7.2767954047
 21
7.3755405295
 31
0.0
  0
LINE
  5
FE
330
1F
100
AcDbEntity
  8
0
  6
Continuous
 62
     7
370
    25
100
AcDbLine
 10
7.3262929582
 20
6.785594395
 30
0.0
 11
7.2767954047
 21
6.8141687244
 31
0.0
  0
LINE
  5
FF
330
1F
100
AcDbEntity
  8
0
  6
Continuous
 62
     7
370
    25
100
AcDbLine
 10
7.3262929582
 20
6.6324929759
 30
0.0
 11
7.3262929582
 21
6.785594395
 31
0.0
  0
LINE
  5
100
330
1F
100
AcDbEntity
  8
0
  6
Continuous
 62
     7
370
    25
100
AcDbLine
 10
6.930313153
 20
6.8610872517
 30
0.0
 11
7.3262929582
 21
6.6324929759
 31
0.0
  0
LINE
  5
101
330
1F
100
AcDbEntity
  8
0
  6
Continuous
 62
     7
370
    25
100
AcDbLine
 10
6.930313153
 20
6.9345759304
 30
0.0
 11
6.930313153
 21
6.8610872517
 31
0.0
  0
LINE
  5
102
330
1F
100
AcDbEntity
  8
0
  6
Continuous
 62
     7
370
    25
100
AcDbLine
 10
6.7464653641
 20
7.0407089999
 30
0.0
 11
6.930313153
 21
6.9345759304
 31
0.0
  0
LINE
  5
103
330
1F
100
AcDbEntity
  8
0
  6
Continuous
 62
     7
370
    25
100
AcDbLine
 10
6.7464653641
 20
6.9672203211
 30
0.0
 11
6.7464653641
 21
7.0407089999
 31
0.0
  0
LINE
  5
104
330
1F
100
AcDbEntity
  8
0
  6
Continuous
 62
     7
370
    25
100
AcDbLine
 10
4.8089927833
 20
8.0856994345
 30
0.0
 11
6.7464653641
 21
6.9672203211
 31
0.0
  0
LINE
  5
105
330
1F
100
AcDbEntity
  8
0
  6
Continuous
 62
     7
370
    25
100
AcDbLine
 10
4.8089927833
 20
8.1591881133
 30
0.0
 11
4.8089927833
 21
8.0856994345
 31
0.0
  0
LINE
  5
106
330
1F
100
AcDbEntity
  8
0
  6
Continuous
 62
     7
370
    25
100
AcDbLine
 10
4.6251449944
 20
8.2653211827
 30
0.0
 11
4.8089927833
 21
8.1591881133
 31
0.0
  0
LINE
  5
107
330
1F
100
AcDbEntity
  8
0
  6
Continuous
 62
     7
370
    25
100
AcDbLine
 10
4.6251449944
 20
8.191832504
 30
0.0
 11
4.6251449944
 21
8.2653211827
 31
0.0
  0
LINE
  5
108
330
1F
100
AcDbEntity
  8
0
  6
Continuous
 62
     7
370
    25
100
AcDbLine
 10
4.0877438451
 20
8.5020675839
 30
0.0
 11
4.6251449944
 21
8.191832504
 31
0.0
  0
LINE
  5
109
330
1F
100
AcDbEntity
  8
0
  6
Continuous
 62
     7
370
    25
100
AcDbLine
 10
4.0665306227
 20
8.5388099627
 30
0.0
 11
4.0877438451
 21
8.5020675839
 31
0.0
  0
LINE
  5
10A
330
1F
100
AcDbEntity
  8
0
  6
Continuous
 62
     7
370
    25
100
AcDbLine
 10
4.0665306227
 20
9.126719333
 30
0.0
 11
4.0665306227
 21
8.5388099627
 31
0.0
  0
LINE
  5
10B
330
1F
100
AcDbEntity
  8
0
  6
Continuous
 62
     7
370
    25
100
AcDbLine
 10
4.0028910593
 20
9.1634576709
 30
0.0
 11
4.0665306227
 21
9.126719333
 31
0.0
  0
LINE
  5
10C
330
1F
100
AcDbEntity
  8
0
  6
Continuous
 62
     7
370
    25
100
AcDbLine
 10
3.981677837
 20
9.2002000348
 30
0.0
 11
4.0028910593
 21
9.1634576709
 31
0.0
  0
LINE
  5
10D
330
1F
100
AcDbEntity
  8
0
  6
Continuous
 62
     7
370
    25
100
AcDbLine
 10
3.981677837
 20
9.3671826336
 30
0.0
 11
3.981677837
 21
9.2002000348
 31
0.0
  0
LINE
  5
10E
330
1F
100
AcDbEntity
  8
0
  6
Continuous
 62
     7
370
    25
100
AcDbLine
 10
4.0099620643
 20
9.3508544967
 30
0.0
 11
3.981677837
 21
9.3671826336
 31
0.0
  0
LWPOLYLINE
  5
10F
330
1F
100
AcDbEntity
  8
0
  6
Continuous
 62
     7
370
    25
100
AcDbPolyline
 90
       15
 70
   128
 43
0.0
 10
4.0099620643
 20
9.4782348603
 10
4.0222350524
 20
9.4695529703
 10
4.0338926384
 20
9.458112724
 10
4.0443503252
 20
9.4444877484
 10
4.0530835587
 20
9.429361348
 10
4.0596544847
 20
9.4134919891
 10
4.0637336234
 20
9.3976754174
 10
4.0651164632
 20
9.3827047218
 10
4.0637336234
 20
9.3693306189
 10
4.0596544847
 20
9.3582237205
 10
4.0530835587
 20
9.3499409913
 10
4.0443503252
 20
9.3448977677
 10
4.0338926384
 20
9.3433469803
 10
4.0222350524
 20
9.3453662964
 10
4.0099620643
 20
9.3508544967
  0
LINE
  5
110
330
1F
100
AcDbEntity
  8
0
  6
Continuous
 62
     7
370
    25
100
AcDbLine
 10
3.981677837
 20
9.4945629972
 30
0.0
 11
4.0099620643
 21
9.4782348603
 31
0.0
  0
LINE
  5
111
330
1F
100
AcDbEntity
  8
0
  6
Continuous
 62
     7
370
    25
100
AcDbLine
 10
3.981677837
 20
9.661545596
 30
0.0
 11
3.981677837
 21
9.4945629972
 31
0.0
  0
LINE
  5
112
330
1F
100
AcDbEntity
  8
0
  6
Continuous
 62
     7
370
    25
100
AcDbLine
 10
4.0028910593
 20
9.6737956946
 30
0.0
 11
3.981677837
 21
9.661545596
 31
0.0
  0
LINE
  5
113
330
1F
100
AcDbEntity
  8
0
  6
Continuous
 62
     7
370
    25
100
AcDbLine
 10
4.0665306227
 20
9.6370573567
 30
0.0
 11
4.0028910593
 21
9.6737956946
 31
0.0
  0
LINE
  5
114
330
1F
100
AcDbEntity
  8
0
  6
Continuous
 62
     7
370
    25
100
AcDbLine
 10
4.0665306227
 20
10.3270343197
 30
0.0
 11
4.0665306227
 21
9.6370573567
 31
0.0
  0
LINE
  5
115
330
1F
100
AcDbEntity
  8
0
  6
Continuous
 62
     7
370
    25
100
AcDbLine
 10
4.0877438451
 20
10.3392844333
 30
0.0
 11
4.0665306227
 21
10.3270343197
 31
0.0
  0
LINE
  5
116
330
1F
100
AcDbEntity
  8
0
  6
Continuous
 62
     7
370
    25
100
AcDbLine
 10
4.6251449944
 20
10.0290493534
 30
0.0
 11
4.0877438451
 21
10.3392844333
 31
0.0
  0
LINE
  5
117
330
1F
100
AcDbEntity
  8
0
  6
Continuous
 62
     7
370
    25
100
AcDbLine
 10
4.6251449944
 20
9.8755396795
 30
0.0
 11
4.6251449944
 21
10.0290493534
 31
0.0
  0
LINE
  5
118
330
1F
100
AcDbEntity
  8
0
  6
Continuous
 62
     7
370
    25
100
AcDbLine
 10
4.8089927833
 20
9.7694066101
 30
0.0
 11
4.6251449944
 21
9.8755396795
 31
0.0
  0
LINE
  5
119
330
1F
100
AcDbEntity
  8
0
  6
Continuous
 62
     7
370
    25
100
AcDbLine
 10
4.8089927833
 20
9.922916284
 30
0.0
 11
4.8089927833
 21
9.7694066101
 31
0.0
  0
LINE
  5
11A
330
1F
100
AcDbEntity
  8
0
  6
Continuous
 62
     7
370
    25
100
AcDbLine
 10
5.6009523805
 20
9.46572774
 30
0.0
 11
4.8089927833
 21
9.922916284
 31
0.0
  0
LINE
  5
11B
330
1F
100
AcDbEntity
  8
0
  6
Continuous
 62
     7
370
    25
100
AcDbLine
 10
5.6009523805
 20
9.3922390612
 30
0.0
 11
5.6009523805
 21
9.46572774
 31
0.0
  0
LINE
  5
11C
330
1F
100
AcDbEntity
  8
0
  6
Continuous
 62
     7
370
    25
100
AcDbLine
 10
5.9545057669
 20
9.1881370357
 30
0.0
 11
5.6009523805
 21
9.3922390612
 31
0.0
  0
LINE
  5
11D
330
1F
100
AcDbEntity
  8
0
  6
Continuous
 62
     7
370
    25
100
AcDbLine
 10
5.9545057669
 20
9.2616257145
 30
0.0
 11
5.9545057669
 21
9.1881370357
 31
0.0
  0
LINE
  5
11E
330
1F
100
AcDbEntity
  8
0
  6
Continuous
 62
     7
370
    25
100
AcDbLine
 10
5.8289943168
 20
8.8441574272
 30
0.0
 11
5.8289943168
 21
7.8847219953
 31
0.0
  0
LINE
  5
11F
330
1F
100
AcDbEntity
  8
0
  6
Continuous
 62
     7
370
    25
100
AcDbLine
 10
5.8289943168
 20
7.8847219953
 30
0.0
 11
7.2255302556
 21
7.0785189583
 31
0.0
  0
LINE
  5
120
330
1F
100
AcDbEntity
  8
0
  6
Continuous
 62
     7
370
    25
100
AcDbLine
 10
7.2255302556
 20
7.0785189583
 30
0.0
 11
7.2255302556
 21
8.0379543902
 31
0.0
  0
LINE
  5
121
330
1F
100
AcDbEntity
  8
0
  6
Continuous
 62
     7
370
    25
100
AcDbLine
 10
7.2255302556
 20
8.0379543902
 30
0.0
 11
5.8289943168
 21
8.8441574272
 31
0.0
  0
LINE
  5
122
330
1F
100
AcDbEntity
  8
0
  6
Continuous
 62
     7
370
    25
100
AcDbLine
 10
4.3582122228
 20
8.7337864253
 30
0.0
 11
5.7547481033
 21
7.927583422
 31
0.0
  0
LINE
  5
123
330
1F
100
AcDbEntity
  8
0
  6
Continuous
 62
     7
370
    25
100
AcDbLine
 10
5.7547481033
 20
7.927583422
 30
0.0
 11
5.7547481033
 21
8.8870188539
 31
0.0
  0
LINE
  5
124
330
1F
100
AcDbEntity
  8
0
  6
Continuous
 62
     7
370
    25
100
AcDbLine
 10
5.7547481033
 20
8.8870188539
 30
0.0
 11
4.3582122228
 21
9.6932218572
 31
0.0
  0
LINE
  5
125
330
1F
100
AcDbEntity
  8
0
  6
Continuous
 62
     7
370
    25
100
AcDbLine
 10
4.3582122228
 20
9.6932218572
 30
0.0
 11
4.3582122228
 21
8.7337864253
 31
0.0
  0
LINE
  5
126
330
1F
100
AcDbEntity
  8
0
  6
Continuous
 62
     7
370
    25
100
AcDbLine
 10
7.1261816608
 20
8.6431965942
 30
0.0
 11
7.0759770794
 21
8.6142141063
 31
0.0
  0
LINE
  5
127
330
1F
100
AcDbEntity
  8
0
  6
Continuous
 62
     7
370
    25
100
AcDbLine
 10
7.1473948831
 20
8.6064542154
 30
0.0
 11
7.0971903018
 21
8.5774717275
 31
0.0
  0
LINE
  5
128
330
1F
100
AcDbEntity
  8
0
  6
Continuous
 62
     7
370
    25
100
AcDbLine
 10
7.1473948831
 20
8.6064542154
 30
0.0
 11
7.1261816608
 21
8.6431965942
 31
0.0
  0
LINE
  5
129
330
1F
100
AcDbEntity
  8
0
  6
Continuous
 62
     7
370
    25
100
AcDbLine
 10
7.1473948831
 20
8.2814709976
 30
0.0
 11
7.0971903018
 21
8.2524885097
 31
0.0
  0
LINE
  5
12A
330
1F
100
AcDbEntity
  8
0
  6
Continuous
 62
     7
370
    25
100
AcDbLine
 10
7.1473948831
 20
8.2814709976
 30
0.0
 11
7.1473948831
 21
8.6064542154
 31
0.0
  0
LINE
  5
12B
330
1F
100
AcDbEntity
  8
0
  6
Continuous
 62
     7
370
    25
100
AcDbLine
 10
5.9545057669
 20
9.2616257145
 30
0.0
 11
6.0047103482
 21
9.2906082024
 31
0.0
  0
LINE
  5
12C
330
1F
100
AcDbEntity
  8
0
  6
Continuous
 62
     7
370
    25
100
AcDbLine
 10
7.1261816608
 20
8.6431965942
 30
0.0
 11
6.0047103482
 21
9.2906082024
 31
0.0
  0
LINE
  5
12D
330
1F
100
AcDbEntity
  8
0
  6
Continuous
 62
     7
370
    25
100
AcDbLine
 10
7.3764975395
 20
8.1492128493
 30
0.0
 11
7.3262929582
 21
8.1202303614
 31
0.0
  0
LINE
  5
12E
330
1F
100
AcDbEntity
  8
0
  6
Continuous
 62
     7
370
    25
100
AcDbLine
 10
7.3764975395
 20
7.9961114302
 30
0.0
 11
7.3262929582
 21
7.9671289423
 31
0.0
  0
LINE
  5
12F
330
1F
100
AcDbEntity
  8
0
  6
Continuous
 62
     7
370
    25
100
AcDbLine
 10
7.3764975395
 20
7.9961114302
 30
0.0
 11
7.3764975395
 21
8.1492128493
 31
0.0
  0
LINE
  5
130
330
1F
100
AcDbEntity
  8
0
  6
Continuous
 62
     7
370
    25
100
AcDbLine
 10
7.3764975395
 20
8.1492128493
 30
0.0
 11
7.1473948831
 21
8.2814709976
 31
0.0
  0
ARC
  5
131
330
1F
100
AcDbEntity
  8
0
  6
Continuous
 62
     7
370
    25
100
AcDbCircle
 10
7.0910307804
 20
8.5738956726
 30
0.0
 40
0.0897814285915091
100
AcDbArc
 50
198.5871675519
 51
221.4074241172
  0
LINE
  5
132
330
1F
100
AcDbEntity
  8
0
  6
Continuous
 62
     7
370
    25
100
AcDbLine
 10
7.3269999861
 20
7.7107258257
 30
0.0
 11
7.2767954047
 21
7.6817433378
 31
0.0
  0
LINE
  5
133
330
1F
100
AcDbEntity
  8
0
  6
Continuous
 62
     7
370
    25
100
AcDbLine
 10
7.3269999861
 20
7.7107258257
 30
0.0
 11
7.3269999861
 21
7.9675372128
 31
0.0
  0
LINE
  5
134
330
1F
100
AcDbEntity
  8
0
  6
Continuous
 62
     7
370
    25
100
AcDbLine
 10
7.3764975395
 20
7.6821514963
 30
0.0
 11
7.3262929582
 21
7.6531690084
 31
0.0
  0
LINE
  5
135
330
1F
100
AcDbEntity
  8
0
  6
Continuous
 62
     7
370
    25
100
AcDbLine
 10
7.3764975395
 20
7.375948688
 30
0.0
 11
7.3262929582
 21
7.3469662002
 31
0.0
  0
LINE
  5
136
330
1F
100
AcDbEntity
  8
0
  6
Continuous
 62
     7
370
    25
100
AcDbLine
 10
7.3764975395
 20
7.375948688
 30
0.0
 11
7.3764975395
 21
7.6821514963
 31
0.0
  0
LINE
  5
137
330
1F
100
AcDbEntity
  8
0
  6
Continuous
 62
     7
370
    25
100
AcDbLine
 10
7.3764975395
 20
7.6821514963
 30
0.0
 11
7.3269999861
 21
7.7107258257
 31
0.0
  0
LINE
  5
138
330
1F
100
AcDbEntity
  8
0
  6
Continuous
 62
     7
370
    25
100
AcDbLine
 10
7.3269999861
 20
6.8431512123
 30
0.0
 11
7.2767954047
 21
6.8141687244
 31
0.0
  0
LINE
  5
139
330
1F
100
AcDbEntity
  8
0
  6
Continuous
 62
     7
370
    25
100
AcDbLine
 10
7.3269999861
 20
6.8431512123
 30
0.0
 11
7.3269999861
 21
7.3473744557
 31
0.0
  0
LINE
  5
13A
330
1F
100
AcDbEntity
  8
0
  6
Continuous
 62
     7
370
    25
100
AcDbLine
 10
5.8791988981
 20
7.9137044832
 30
0.0
 11
5.8289943168
 21
7.8847219953
 31
0.0
  0
LINE
  5
13B
330
1F
100
AcDbEntity
  8
0
  6
Continuous
 62
     7
370
    25
100
AcDbLine
 10
5.8791988981
 20
7.9137044832
 30
0.0
 11
7.2255302038
 21
7.136483964
 31
0.0
  0
LINE
  5
13C
330
1F
100
AcDbEntity
  8
0
  6
Continuous
 62
     7
370
    25
100
AcDbLine
 10
5.6009523805
 20
9.3922390612
 30
0.0
 11
5.6511569619
 21
9.4212215491
 31
0.0
  0
LINE
  5
13D
330
1F
100
AcDbEntity
  8
0
  6
Continuous
 62
     7
370
    25
100
AcDbLine
 10
5.9545057669
 20
9.2461020115
 30
0.0
 11
5.6511569619
 21
9.4212215491
 31
0.0
  0
LINE
  5
13E
330
1F
100
AcDbEntity
  8
0
  6
Continuous
 62
     7
370
    25
100
AcDbLine
 10
7.3764975395
 20
6.8145768829
 30
0.0
 11
7.3262929582
 21
6.785594395
 31
0.0
  0
LINE
  5
13F
330
1F
100
AcDbEntity
  8
0
  6
Continuous
 62
     7
370
    25
100
AcDbLine
 10
7.3764975395
 20
6.8145768829
 30
0.0
 11
7.3269999861
 21
6.8431512123
 31
0.0
  0
LINE
  5
140
330
1F
100
AcDbEntity
  8
0
  6
Continuous
 62
     7
370
    25
100
AcDbLine
 10
7.3764975395
 20
6.6614754638
 30
0.0
 11
7.3262929582
 21
6.6324929759
 31
0.0
  0
LINE
  5
141
330
1F
100
AcDbEntity
  8
0
  6
Continuous
 62
     7
370
    25
100
AcDbLine
 10
7.3764975395
 20
6.6614754638
 30
0.0
 11
7.3764975395
 21
6.8145768829
 31
0.0
  0
LINE
  5
142
330
1F
100
AcDbEntity
  8
0
  6
Continuous
 62
     7
370
    25
100
AcDbLine
 10
5.6009523805
 20
9.46572774
 30
0.0
 11
5.6511569619
 21
9.4947102279
 31
0.0
  0
LINE
  5
143
330
1F
100
AcDbEntity
  8
0
  6
Continuous
 62
     7
370
    25
100
AcDbLine
 10
5.6511569619
 20
9.4212215491
 30
0.0
 11
5.6511569619
 21
9.4947102279
 31
0.0
  0
LINE
  5
144
330
1F
100
AcDbEntity
  8
0
  6
Continuous
 62
     7
370
    25
100
AcDbLine
 10
4.8591973646
 20
9.9518987719
 30
0.0
 11
4.8089927833
 21
9.922916284
 31
0.0
  0
LINE
  5
145
330
1F
100
AcDbEntity
  8
0
  6
Continuous
 62
     7
370
    25
100
AcDbLine
 10
5.6511569619
 20
9.4947102279
 30
0.0
 11
4.8591973646
 21
9.9518987719
 31
0.0
  0
LINE
  5
146
330
1F
100
AcDbEntity
  8
0
  6
Continuous
 62
     7
370
    25
100
AcDbLine
 10
5.8791988981
 20
8.8151749485
 30
0.0
 11
5.8791988981
 21
7.9137044832
 31
0.0
  0
LINE
  5
147
330
1F
100
AcDbEntity
  8
0
  6
Continuous
 62
     7
370
    25
100
AcDbLine
 10
6.7966699455
 20
6.996202809
 30
0.0
 11
6.7464653641
 21
6.9672203211
 31
0.0
  0
LINE
  5
148
330
1F
100
AcDbEntity
  8
0
  6
Continuous
 62
     7
370
    25
100
AcDbLine
 10
6.7966699455
 20
6.996202809
 30
0.0
 11
6.7966699455
 21
7.0117265511
 31
0.0
  0
LINE
  5
149
330
1F
100
AcDbEntity
  8
0
  6
Continuous
 62
     7
370
    25
100
AcDbLine
 10
4.6753495757
 20
9.9045221674
 30
0.0
 11
4.6251449944
 21
9.8755396795
 31
0.0
  0
LINE
  5
14A
330
1F
100
AcDbEntity
  8
0
  6
Continuous
 62
     7
370
    25
100
AcDbLine
 10
4.8089928351
 20
9.8273715559
 30
0.0
 11
4.6753495757
 21
9.9045221674
 31
0.0
  0
LINE
  5
14B
330
1F
100
AcDbEntity
  8
0
  6
Continuous
 62
     7
370
    25
100
AcDbLine
 10
4.6753495757
 20
10.0580318413
 30
0.0
 11
4.6251449944
 21
10.0290493534
 31
0.0
  0
LINE
  5
14C
330
1F
100
AcDbEntity
  8
0
  6
Continuous
 62
     7
370
    25
100
AcDbLine
 10
4.6753495757
 20
9.9045221674
 30
0.0
 11
4.6753495757
 21
10.0580318413
 31
0.0
  0
LINE
  5
14D
330
1F
100
AcDbEntity
  8
0
  6
Continuous
 62
     7
370
    25
100
AcDbLine
 10
4.1379484264
 20
10.3682669212
 30
0.0
 11
4.0877438451
 21
10.3392844333
 31
0.0
  0
LINE
  5
14E
330
1F
100
AcDbEntity
  8
0
  6
Continuous
 62
     7
370
    25
100
AcDbLine
 10
4.6753495757
 20
10.0580318413
 30
0.0
 11
4.1379484264
 21
10.3682669212
 31
0.0
  0
LINE
  5
14F
330
1F
100
AcDbEntity
  8
0
  6
Continuous
 62
     7
370
    25
100
AcDbLine
 10
4.4084168042
 20
8.7627689132
 30
0.0
 11
4.3582122228
 21
8.7337864253
 31
0.0
  0
LINE
  5
150
330
1F
100
AcDbEntity
  8
0
  6
Continuous
 62
     7
370
    25
100
AcDbLine
 10
4.4084168042
 20
8.7627689132
 30
0.0
 11
5.7547481001
 21
7.9855483997
 31
0.0
  0
LINE
  5
151
330
1F
100
AcDbEntity
  8
0
  6
Continuous
 62
     7
370
    25
100
AcDbLine
 10
4.4084168042
 20
9.6642393785
 30
0.0
 11
4.4084168042
 21
8.7627689132
 31
0.0
  0
LINE
  5
152
330
1F
100
AcDbEntity
  8
0
  6
Continuous
 62
     7
370
    25
100
AcDbLine
 10
4.0530956407
 20
9.7027781825
 30
0.0
 11
4.0028910593
 21
9.6737956946
 31
0.0
  0
LINE
  5
153
330
1F
100
AcDbEntity
  8
0
  6
Continuous
 62
     7
370
    25
100
AcDbLine
 10
4.0665305709
 20
9.6950223624
 30
0.0
 11
4.0530956407
 21
9.7027781825
 31
0.0
  0
LINE
  5
154
330
1F
100
AcDbEntity
  8
0
  6
Continuous
 62
     7
370
    25
100
AcDbLine
 10
4.0601666456
 20
9.3798369846
 30
0.0
 11
4.0099620643
 21
9.3508544967
 31
0.0
  0
LINE
  5
155
330
1F
100
AcDbEntity
  8
0
  6
Continuous
 62
     7
370
    25
100
AcDbLine
 10
4.0649112773
 20
9.3773340548
 30
0.0
 11
4.0601666456
 21
9.3798369846
 31
0.0
  0
LINE
  5
156
330
1F
100
AcDbEntity
  8
0
  6
Continuous
 62
     7
370
    25
100
AcDbLine
 10
4.0318824183
 20
9.3961651215
 30
0.0
 11
3.981677837
 21
9.3671826336
 31
0.0
  0
LINE
  5
157
330
1F
100
AcDbEntity
  8
0
  6
Continuous
 62
     7
370
    25
100
AcDbLine
 10
4.0601666456
 20
9.3798369846
 30
0.0
 11
4.0318824183
 21
9.3961651215
 31
0.0
  0
LINE
  5
158
330
1F
100
AcDbEntity
  8
0
  6
Continuous
 62
     7
370
    25
100
AcDbLine
 10
4.6753495757
 20
8.2208149918
 30
0.0
 11
4.6251449944
 21
8.191832504
 31
0.0
  0
LINE
  5
159
330
1F
100
AcDbEntity
  8
0
  6
Continuous
 62
     7
370
    25
100
AcDbLine
 10
4.6753495757
 20
8.2208149918
 30
0.0
 11
4.6753495757
 21
8.236338734
 31
0.0
  0
LWPOLYLINE
  5
15A
330
1F
100
AcDbEntity
  8
0
  6
HIDDEN
 62
     7
370
    18
100
AcDbPolyline
 90
       17
 70
   128
 43
0.0
 10
6.9897100967
 20
8.4590632247
 10
6.9710388312
 20
8.4741306441
 10
6.9552100967
 20
8.4954816401
 10
6.9446336744
 20
8.5198657172
 10
6.9409197288
 20
8.5435706205
 10
6.9446336744
 20
8.5629874936
 10
6.9552100967
 20
8.5751602934
 10
6.9710388312
 20
8.5782358215
 10
6.9897100967
 20
8.5717458567
 10
7.0083813621
 20
8.5566784373
 10
7.0242100967
 20
8.5353274412
 10
7.0347865189
 20
8.5109433642
 10
7.0385004646
 20
8.4872384608
 10
7.0347865189
 20
8.4678215878
 10
7.0242100967
 20
8.455648788
 10
7.0083813621
 20
8.4525732598
 10
6.9897100967
 20
8.4590632247
  0
LWPOLYLINE
  5
15B
330
1F
100
AcDbEntity
  8
0
  6
HIDDEN
 62
     7
370
    18
100
AcDbPolyline
 90
       17
 70
   128
 43
0.0
 10
6.9897100967
 20
8.4590632247
 10
6.9710388312
 20
8.4741306441
 10
6.9552100967
 20
8.4954816401
 10
6.9446336744
 20
8.5198657172
 10
6.9409197288
 20
8.5435706205
 10
6.9446336744
 20
8.5629874936
 10
6.9552100967
 20
8.5751602934
 10
6.9710388312
 20
8.5782358215
 10
6.9897100967
 20
8.5717458567
 10
7.0083813621
 20
8.5566784373
 10
7.0242100967
 20
8.5353274412
 10
7.0347865189
 20
8.5109433642
 10
7.0385004646
 20
8.4872384608
 10
7.0347865189
 20
8.4678215878
 10
7.0242100967
 20
8.455648788
 10
7.0083813621
 20
8.4525732598
 10
6.9897100967
 20
8.4590632247
  0
ENDSEC
  0
SECTION
  2
OBJECTS
  0
DICTIONARY
  5
C
330
0
100
AcDbDictionary
281
     1
  3
ACAD_GROUP
350
D
  3
ACAD_LAYOUT
350
1A
  3
ACAD_MLINESTYLE
350
17
  3
ACAD_PLOTSETTINGS
350
19
  3
ACAD_PLOTSTYLENAME
350
E
  3
ACAD_SCALELIST
350
47
  0
DICTIONARY
  5
D
102
{ACAD_REACTORS
330
C
102
}
330
C
100
AcDbDictionary
281
     1
  0
DICTIONARY
  5
1A
102
{ACAD_REACTORS
330
C
102
}
330
C
100
AcDbDictionary
281
     1
  3
Layout1
350
1E
  3
Layout2
350
26
  3
Model
350
22
  0
DICTIONARY
  5
17
102
{ACAD_REACTORS
330
C
102
}
330
C
100
AcDbDictionary
281
     1
  3
Standard
350
18
  0
DICTIONARY
  5
19
102
{ACAD_REACTORS
330
C
102
}
330
C
100
AcDbDictionary
281
     1
  0
ACDBDICTIONARYWDFLT
  5
E
102
{ACAD_REACTORS
330
C
102
}
330
C
100
AcDbDictionary
281
     1
  3
Normal
350
F
100
AcDbDictionaryWithDefault
340
F
  0
DICTIONARY
  5
47
102
{ACAD_REACTORS
330
C
102
}
330
C
100
AcDbDictionary
281
     1
  3
A0
350
48
  3
A1
350
49
  3
A2
350
4A
  3
A3
350
4B
  3
A4
350
4C
  3
A5
350
4D
  3
A6
350
4E
  3
A7
350
4F
  3
A8
350
50
  3
A9
350
51
  3
B0
350
52
  3
B1
350
53
  3
B2
350
54
  3
B3
350
55
  3
B4
350
56
  3
B5
350
57
  3
B6
350
58
  3
B7
350
59
  3
B8
350
5A
  3
B9
350
5B
  3
C0
350
5C
  3
C1
350
5D
  3
C2
350
5E
  3
C3
350
5F
  3
C4
350
60
  3
C5
350
61
  3
C6
350
62
  3
C7
350
63
  3
C8
350
64
  3
C9
350
65
  3
D0
350
66
  3
D1
350
67
  3
D2
350
68
  0
LAYOUT
  5
1E
102
{ACAD_REACTORS
330
1A
102
}
330
1A
100
AcDbPlotSettings
  1

  2
none_device
  4

  6

 40
0.0
 41
0.0
 42
0.0
 43
0.0
 44
0.0
 45
0.0
 46
0.0
 47
0.0
 48
0.0
 49
0.0
140
0.0
141
0.0
142
1.0
143
1.0
 70
   688
 72
     0
 73
     0
 74
     5
  7

 75
    16
147
1.0
148
0.0
149
0.0
100
AcDbLayout
  1
Layout1
 70
     1
 71
     1
 10
0.0
 20
0.0
 11
12.0
 21
9.0
 12
0.0
 22
0.0
 32
0.0
 14
1.0000000000E+20
 24
1.0000000000E+20
 34
1.0000000000E+20
 15
-1.0000000000E+20
 25
-1.0000000000E+20
 35
-1.0000000000E+20
146
0.0
 13
0.0
 23
0.0
 33
0.0
 16
1.0
 26
0.0
 36
0.0
 17
0.0
 27
1.0
 37
0.0
 76
     0
330
1B
  0
LAYOUT
  5
26
102
{ACAD_REACTORS
330
1A
102
}
330
1A
100
AcDbPlotSettings
  1

  2
none_device
  4

  6

 40
0.0
 41
0.0
 42
0.0
 43
0.0
 44
0.0
 45
0.0
 46
0.0
 47
0.0
 48
0.0
 49
0.0
140
0.0
141
0.0
142
1.0
143
1.0
 70
   688
 72
     0
 73
     0
 74
     5
  7

 75
    16
147
1.0
148
0.0
149
0.0
100
AcDbLayout
  1
Layout2
 70
     1
 71
     2
 10
0.0
 20
0.0
 11
0.0
 21
0.0
 12
0.0
 22
0.0
 32
0.0
 14
0.0
 24
0.0
 34
0.0
 15
0.0
 25
0.0
 35
0.0
146
0.0
 13
0.0
 23
0.0
 33
0.0
 16
1.0
 26
0.0
 36
0.0
 17
0.0
 27
1.0
 37
0.0
 76
     0
330
23
  0
LAYOUT
  5
22
102
{ACAD_REACTORS
330
1A
102
}
330
1A
100
AcDbPlotSettings
  1

  2
none_device
  4
Letter_(8.50_x_11.00_Inches)
  6

 40
6.35
 41
6.35
 42
6.35000508
 43
6.35000508
 44
215.9
 45
279.4
 46
0.0
 47
0.0
 48
0.0
 49
0.0
140
0.0
141
0.0
142
1.0
143
1.0
 70
  1712
 72
     0
 73
     0
 74
     0
  7

 75
     0
147
1.0
148
0.0
149
0.0
100
AcDbLayout
  1
Model
 70
     1
 71
     0
 10
0.0
 20
0.0
 11
8.5
 21
11.0
 12
0.0
 22
0.0
 32
0.0
 14
0.0
 24
0.0
 34
0.0
 15
8.5
 25
11.0
 35
0.0
146
0.0
 13
0.0
 23
0.0
 33
0.0
 16
1.0
 26
0.0
 36
0.0
 17
0.0
 27
1.0
 37
0.0
 76
     0
330
1F
331
29
  0
MLINESTYLE
  5
18
102
{ACAD_REACTORS
330
17
102
}
330
17
100
AcDbMlineStyle
  2
Standard
 70
     0
  3

 62
   256
 51
90.0
 52
90.0
 71
     2
 49
0.5
 62
   256
  6
BYLAYER
 49
-0.5
 62
   256
  6
BYLAYER
  0
ACDBPLACEHOLDER
  5
F
102
{ACAD_REACTORS
330
E
102
}
330
E
  0
SCALE
  5
48
102
{ACAD_REACTORS
330
47
102
}
330
47
100
AcDbScale
 70
     0
300
1:1
140
1.0
141
1.0
290
     1
  0
SCALE
  5
49
102
{ACAD_REACTORS
330
47
102
}
330
47
100
AcDbScale
 70
     0
300
1:2
140
1.0
141
2.0
290
     0
  0
SCALE
  5
4A
102
{ACAD_REACTORS
330
47
102
}
330
47
100
AcDbScale
 70
     0
300
1:4
140
1.0
141
4.0
290
     0
  0
SCALE
  5
4B
102
{ACAD_REACTORS
330
47
102
}
330
47
100
AcDbScale
 70
     0
300
1:5
140
1.0
141
5.0
290
     0
  0
SCALE
  5
4C
102
{ACAD_REACTORS
330
47
102
}
330
47
100
AcDbScale
 70
     0
300
1:8
140
1.0
141
8.0
290
     0
  0
SCALE
  5
4D
102
{ACAD_REACTORS
330
47
102
}
330
47
100
AcDbScale
 70
     0
300
1:10
140
1.0
141
10.0
290
     0
  0
SCALE
  5
4E
102
{ACAD_REACTORS
330
47
102
}
330
47
100
AcDbScale
 70
     0
300
1:16
140
1.0
141
16.0
290
     0
  0
SCALE
  5
4F
102
{ACAD_REACTORS
330
47
102
}
330
47
100
AcDbScale
 70
     0
300
1:20
140
1.0
141
20.0
290
     0
  0
SCALE
  5
50
102
{ACAD_REACTORS
330
47
102
}
330
47
100
AcDbScale
 70
     0
300
1:30
140
1.0
141
30.0
290
     0
  0
SCALE
  5
51
102
{ACAD_REACTORS
330
47
102
}
330
47
100
AcDbScale
 70
     0
300
1:40
140
1.0
141
40.0
290
     0
  0
SCALE
  5
52
102
{ACAD_REACTORS
330
47
102
}
330
47
100
AcDbScale
 70
     0
300
1:50
140
1.0
141
50.0
290
     0
  0
SCALE
  5
53
102
{ACAD_REACTORS
330
47
102
}
330
47
100
AcDbScale
 70
     0
300
1:100
140
1.0
141
100.0
290
     0
  0
SCALE
  5
54
102
{ACAD_REACTORS
330
47
102
}
330
47
100
AcDbScale
 70
     0
300
2:1
140
2.0
141
1.0
290
     0
  0
SCALE
  5
55
102
{ACAD_REACTORS
330
47
102
}
330
47
100
AcDbScale
 70
     0
300
4:1
140
4.0
141
1.0
290
     0
  0
SCALE
  5
56
102
{ACAD_REACTORS
330
47
102
}
330
47
100
AcDbScale
 70
     0
300
8:1
140
8.0
141
1.0
290
     0
  0
SCALE
  5
57
102
{ACAD_REACTORS
330
47
102
}
330
47
100
AcDbScale
 70
     0
300
10:1
140
10.0
141
1.0
290
     0
  0
SCALE
  5
58
102
{ACAD_REACTORS
330
47
102
}
330
47
100
AcDbScale
 70
     0
300
100:1
140
100.0
141
1.0
290
     0
  0
SCALE
  5
59
102
{ACAD_REACTORS
330
47
102
}
330
47
100
AcDbScale
 70
     0
300
1/128" = 1'-0"
140
0.0078125
141
12.0
290
     0
  0
SCALE
  5
5A
102
{ACAD_REACTORS
330
47
102
}
330
47
100
AcDbScale
 70
     0
300
1/64" = 1'-0"
140
0.015625
141
12.0
290
     0
  0
SCALE
  5
5B
102
{ACAD_REACTORS
330
47
102
}
330
47
100
AcDbScale
 70
     0
300
1/32" = 1'-0"
140
0.03125
141
12.0
290
     0
  0
SCALE
  5
5C
102
{ACAD_REACTORS
330
47
102
}
330
47
100
AcDbScale
 70
     0
300
1/16" = 1'-0"
140
0.0625
141
12.0
290
     0
  0
SCALE
  5
5D
102
{ACAD_REACTORS
330
47
102
}
330
47
100
AcDbScale
 70
     0
300
3/32" = 1'-0"
140
0.09375
141
12.0
290
     0
  0
SCALE
  5
5E
102
{ACAD_REACTORS
330
47
102
}
330
47
100
AcDbScale
 70
     0
300
1/8" = 1'-0"
140
0.125
141
12.0
290
     0
  0
SCALE
  5
5F
102
{ACAD_REACTORS
330
47
102
}
330
47
100
AcDbScale
 70
     0
300
3/16" = 1'-0"
140
0.1875
141
12.0
290
     0
  0
SCALE
  5
60
102
{ACAD_REACTORS
330
47
102
}
330
47
100
AcDbScale
 70
     0
300
1/4" = 1'-0"
140
0.25
141
12.0
290
     0
  0
SCALE
  5
61
102
{ACAD_REACTORS
330
47
102
}
330
47
100
AcDbScale
 70
     0
300
3/8" = 1'-0"
140
0.375
141
12.0
290
     0
  0
SCALE
  5
62
102
{ACAD_REACTORS
330
47
102
}
330
47
100
AcDbScale
 70
     0
300
1/2" = 1'-0"
140
0.5
141
12.0
290
     0
  0
SCALE
  5
63
102
{ACAD_REACTORS
330
47
102
}
330
47
100
AcDbScale
 70
     0
300
3/4" = 1'-0"
140
0.75
141
12.0
290
     0
  0
SCALE
  5
64
102
{ACAD_REACTORS
330
47
102
}
330
47
100
AcDbScale
 70
     0
300
1" = 1'-0"
140
1.0
141
12.0
290
     0
  0
SCALE
  5
65
102
{ACAD_REACTORS
330
47
102
}
330
47
100
AcDbScale
 70
     0
300
1-1/2" = 1'-0"
140
1.5
141
12.0
290
     0
  0
SCALE
  5
66
102
{ACAD_REACTORS
330
47
102
}
330
47
100
AcDbScale
 70
     0
300
3" = 1'-0"
140
3.0
141
12.0
290
     0
  0
SCALE
  5
67
102
{ACAD_REACTORS
330
47
102
}
330
47
100
AcDbScale
 70
     0
300
6" = 1'-0"
140
6.0
141
12.0
290
     0
  0
SCALE
  5
68
102
{ACAD_REACTORS
330
47
102
}
330
47
100
AcDbScale
 70
     0
300
1'-0" = 1'-0"
140
12.0
141
12.0
290
     0
  0
ENDSEC
  0
EOF
