  0
SECTION
  2
HEADER
  9
$ACADVER
  1
AC1015
  9
$ACADMAINTVER
 70
     6
  9
$DWGCODEPAGE
  3
ANSI_1252
  9
$INSBASE
 10
0.0
 20
0.0
 30
0.0
  9
$EXTMIN
 10
0.0
 20
0.0
 30
0.0
  9
$EXTMAX
 10
8.5
 20
11.0
 30
0.0
  9
$LIMMIN
 10
0.0
 20
0.0
  9
$LIMMAX
 10
8.5
 20
11.0
  9
$ORTHOMODE
 70
     0
  9
$REGENMODE
 70
     1
  9
$FILLMODE
 70
     1
  9
$QTEXTMODE
 70
     0
  9
$MIRRTEXT
 70
     1
  9
$LTSCALE
 40
1.0
  9
$ATTMODE
 70
     1
  9
$TEXTSIZE
 40
0.1388888889
  9
$TRACEWID
 40
0.05
  9
$TEXTSTYLE
  7
Standard
  9
$CLAYER
  8
0
  9
$CELTYPE
  6
ByLayer
  9
$CECOLOR
 62
   256
  9
$CELTSCALE
 40
1.0
  9
$DISPSILH
 70
     0
  9
$DIMSCALE
 40
1.0
  9
$DIMASZ
 40
0.13
  9
$DIMEXO
 40
0.05
  9
$DIMDLI
 40
0.38
  9
$DIMRND
 40
0.0
  9
$DIMDLE
 40
0.0
  9
$DIMEXE
 40
0.125
  9
$DIMTP
 40
0.0
  9
$DIMTM
 40
0.0
  9
$DIMTXT
 40
0.1388888889
  9
$DIMCEN
 40
0.09
  9
$DIMTSZ
 40
0.0
  9
$DIMTOL
 70
     0
  9
$DIMLIM
 70
     0
  9
$DIMTIH
 70
     1
  9
$DIMTOH
 70
     1
  9
$DIMSE1
 70
     0
  9
$DIMSE2
 70
     0
  9
$DIMTAD
 70
     0
  9
$DIMZIN
 70
     0
  9
$DIMBLK
  1

  9
$DIMASO
 70
     1
  9
$DIMSHO
 70
     1
  9
$DIMPOST
  1

  9
$DIMAPOST
  1

  9
$DIMALT
 70
     0
  9
$DIMALTD
 70
     2
  9
$DIMALTF
 40
25.4
  9
$DIMLFAC
 40
1.0
  9
$DIMTOFL
 70
     0
  9
$DIMTVP
 40
0.0
  9
$DIMTIX
 70
     0
  9
$DIMSOXD
 70
     0
  9
$DIMSAH
 70
     0
  9
$DIMBLK1
  1

  9
$DIMBLK2
  1

  9
$DIMSTYLE
  2
Standard
  9
$DIMCLRD
 70
     0
  9
$DIMCLRE
 70
     0
  9
$DIMCLRT
 70
     0
  9
$DIMTFAC
 40
1.0
  9
$DIMGAP
 40
0.06
  9
$DIMJUST
 70
     0
  9
$DIMSD1
 70
     0
  9
$DIMSD2
 70
     0
  9
$DIMTOLJ
 70
     1
  9
$DIMTZIN
 70
     0
  9
$DIMALTZ
 70
     0
  9
$DIMALTTZ
 70
     0
  9
$DIMUPT
 70
     0
  9
$DIMDEC
 70
     0
  9
$DIMTDEC
 70
     0
  9
$DIMALTU
 70
     2
  9
$DIMALTTD
 70
     2
  9
$DIMTXSTY
  7
Standard
  9
$DIMAUNIT
 70
     0
  9
$DIMADEC
 70
     0
  9
$DIMALTRND
 40
0.0
  9
$DIMAZIN
 70
     0
  9
$DIMDSEP
 70
    46
  9
$DIMATFIT
 70
     3
  9
$DIMFRAC
 70
     0
  9
$DIMLDRBLK
  1

  9
$DIMLUNIT
 70
     2
  9
$DIMLWD
 70
    -2
  9
$DIMLWE
 70
    -2
  9
$DIMTMOVE
 70
     0
  9
$LUNITS
 70
     2
  9
$LUPREC
 70
     0
  9
$SKETCHINC
 40
0.1
  9
$FILLETRAD
 40
0.5
  9
$AUNITS
 70
     0
  9
$AUPREC
 70
     0
  9
$MENU
  1
.
  9
$ELEVATION
 40
0.0
  9
$PELEVATION
 40
0.0
  9
$THICKNESS
 40
0.0
  9
$LIMCHECK
 70
     0
  9
$CHAMFERA
 40
0.0
  9
$CHAMFERB
 40
0.0
  9
$CHAMFERC
 40
0.0
  9
$CHAMFERD
 40
0.0
  9
$SKPOLY
 70
     0
  9
$TDCREATE
 40
2459019.889390521
  9
$TDUCREATE
 40
2459020.056057188
  9
$TDUPDATE
 40
2459019.889391331
  9
$TDUUPDATE
 40
2459020.056057998
  9
$TDINDWG
 40
0.0000000116
  9
$TDUSRTIMER
 40
0.0000000116
  9
$USRTIMER
 70
     1
  9
$ANGBASE
 50
0.0
  9
$ANGDIR
 70
     0
  9
$PDMODE
 70
     0
  9
$PDSIZE
 40
-1.0
  9
$PLINEWID
 40
0.0
  9
$SPLFRAME
 70
     0
  9
$SPLINETYPE
 70
     6
  9
$SPLINESEGS
 70
     8
  9
$HANDSEED
  5
191
  9
$SURFTAB1
 70
     6
  9
$SURFTAB2
 70
     6
  9
$SURFTYPE
 70
     6
  9
$SURFU
 70
     6
  9
$SURFV
 70
     6
  9
$UCSBASE
  2

  9
$UCSNAME
  2

  9
$UCSORG
 10
0.0
 20
0.0
 30
0.0
  9
$UCSXDIR
 10
1.0
 20
0.0
 30
0.0
  9
$UCSYDIR
 10
0.0
 20
1.0
 30
0.0
  9
$UCSORTHOREF
  2

  9
$UCSORTHOVIEW
 70
     0
  9
$UCSORGTOP
 10
0.0
 20
0.0
 30
0.0
  9
$UCSORGBOTTOM
 10
0.0
 20
0.0
 30
0.0
  9
$UCSORGLEFT
 10
0.0
 20
0.0
 30
0.0
  9
$UCSORGRIGHT
 10
0.0
 20
0.0
 30
0.0
  9
$UCSORGFRONT
 10
0.0
 20
0.0
 30
0.0
  9
$UCSORGBACK
 10
0.0
 20
0.0
 30
0.0
  9
$PUCSBASE
  2

  9
$PUCSNAME
  2

  9
$PUCSORG
 10
0.0
 20
0.0
 30
0.0
  9
$PUCSXDIR
 10
1.0
 20
0.0
 30
0.0
  9
$PUCSYDIR
 10
0.0
 20
1.0
 30
0.0
  9
$PUCSORTHOREF
  2

  9
$PUCSORTHOVIEW
 70
     0
  9
$PUCSORGTOP
 10
0.0
 20
0.0
 30
0.0
  9
$PUCSORGBOTTOM
 10
0.0
 20
0.0
 30
0.0
  9
$PUCSORGLEFT
 10
0.0
 20
0.0
 30
0.0
  9
$PUCSORGRIGHT
 10
0.0
 20
0.0
 30
0.0
  9
$PUCSORGFRONT
 10
0.0
 20
0.0
 30
0.0
  9
$PUCSORGBACK
 10
0.0
 20
0.0
 30
0.0
  9
$USERI1
 70
     0
  9
$USERI2
 70
     0
  9
$USERI3
 70
     0
  9
$USERI4
 70
     0
  9
$USERI5
 70
     0
  9
$USERR1
 40
0.0
  9
$USERR2
 40
0.0
  9
$USERR3
 40
0.0
  9
$USERR4
 40
0.0
  9
$USERR5
 40
0.0
  9
$WORLDVIEW
 70
     1
  9
$SHADEDGE
 70
     3
  9
$SHADEDIF
 70
    70
  9
$TILEMODE
 70
     1
  9
$MAXACTVP
 70
    64
  9
$PINSBASE
 10
0.0
 20
0.0
 30
0.0
  9
$PLIMCHECK
 70
     0
  9
$PEXTMIN
 10
1.0000000000E+20
 20
1.0000000000E+20
 30
1.0000000000E+20
  9
$PEXTMAX
 10
-1.0000000000E+20
 20
-1.0000000000E+20
 30
-1.0000000000E+20
  9
$PLIMMIN
 10
0.0
 20
0.0
  9
$PLIMMAX
 10
12.0
 20
9.0
  9
$UNITMODE
 70
     0
  9
$VISRETAIN
 70
     1
  9
$PLINEGEN
 70
     0
  9
$PSLTSCALE
 70
     1
  9
$TREEDEPTH
 70
  3020
  9
$CMLSTYLE
  2
Standard
  9
$CMLJUST
 70
     0
  9
$CMLSCALE
 40
1.0
  9
$PROXYGRAPHICS
 70
     1
  9
$MEASUREMENT
 70
     0
  9
$CELWEIGHT
370
    -1
  9
$ENDCAPS
280
     0
  9
$JOINSTYLE
280
     0
  9
$LWDISPLAY
290
     1
  9
$INSUNITS
 70
     1
  9
$HYPERLINKBASE
  1

  9
$STYLESHEET
  1

  9
$XEDIT
290
     1
  9
$CEPSNTYPE
380
     0
  9
$PSTYLEMODE
290
     1
  9
$FINGERPRINTGUID
  2
{13d3f1f5-3a1b-48f7-8dcf-645da1b400a3}
  9
$VERSIONGUID
  2
{FAEB1C32-E019-11D5-929B-00C0DF256EC4}
  9
$EXTNAMES
290
     1
  9
$PSVPSCALE
 40
0.0
  9
$OLESTARTUP
290
     0
  0
ENDSEC
  0
SECTION
  2
CLASSES
  0
CLASS
  1
ACDBDICTIONARYWDFLT
  2
AcDbDictionaryWithDefault
  3
ObjectDBX Classes
 90
        0
280
     0
281
     0
  0
CLASS
  1
VISUALSTYLE
  2
AcDbVisualStyle
  3
ObjectDBX Classes
 90
     4095
280
     0
281
     0
  0
CLASS
  1
MATERIAL
  2
AcDbMaterial
  3
ObjectDBX Classes
 90
     1153
280
     0
281
     0
  0
CLASS
  1
SCALE
  2
AcDbScale
  3
ObjectDBX Classes
 90
     1153
280
     0
281
     0
  0
CLASS
  1
TABLESTYLE
  2
AcDbTableStyle
  3
ObjectDBX Classes
 90
     4095
280
     0
281
     0
  0
CLASS
  1
MLEADERSTYLE
  2
AcDbMLeaderStyle
  3
ACDB_MLEADERSTYLE_CLASS
 90
     4095
280
     0
281
     0
  0
CLASS
  1
SUN
  2
AcDbSun
  3
SCENEOE
 90
     1153
280
     0
281
     0
  0
CLASS
  1
ACDBPLACEHOLDER
  2
AcDbPlaceHolder
  3
ObjectDBX Classes
 90
        0
280
     0
281
     0
  0
CLASS
  1
LAYOUT
  2
AcDbLayout
  3
ObjectDBX Classes
 90
        0
280
     0
281
     0
  0
ENDSEC
  0
SECTION
  2
TABLES
  0
TABLE
  2
VPORT
  5
8
330
0
100
AcDbSymbolTable
 70
     1
  0
VPORT
  5
29
330
8
100
AcDbSymbolTableRecord
100
AcDbViewportTableRecord
  2
*Active
 70
     0
 10
0.0
 20
0.0
 11
1.0
 21
1.0
 12
4.25
 22
5.5
 13
0.0
 23
0.0
 14
0.5
 24
0.5
 15
0.5
 25
0.5
 16
0.0
 26
0.0
 36
1.0
 17
0.0
 27
0.0
 37
0.0
 40
11.0
 41
0.7727272727
 42
50.0
 43
0.0
 44
0.0
 50
0.0
 51
0.0
 71
     0
 72
  2000
 73
     1
 74
     3
 75
     0
 76
     0
 77
     0
 78
     0
281
     0
 65
     1
110
0.0
120
0.0
130
0.0
111
1.0
121
0.0
131
0.0
112
0.0
122
1.0
132
0.0
 79
     0
146
0.0
  0
ENDTAB
  0
TABLE
  2
LTYPE
  5
5
330
0
100
AcDbSymbolTable
 70
     6
  0
LTYPE
  5
14
330
5
100
AcDbSymbolTableRecord
100
AcDbLinetypeTableRecord
  2
ByBlock
 70
     0
  3

 72
    65
 73
     0
 40
0.0
  0
LTYPE
  5
15
330
5
100
AcDbSymbolTableRecord
100
AcDbLinetypeTableRecord
  2
ByLayer
 70
     0
  3

 72
    65
 73
     0
 40
0.0
  0
LTYPE
  5
16
330
5
100
AcDbSymbolTableRecord
100
AcDbLinetypeTableRecord
  2
Continuous
 70
     0
  3
Solid line
 72
    65
 73
     0
 40
0.0
  0
LTYPE
  5
6E
330
5
100
AcDbSymbolTableRecord
100
AcDbLinetypeTableRecord
  2
HIDDEN
 70
     0
  3
Hidden __ __ __ __ __ __ __ __ __ __ __ __ __ __
 72
    65
 73
     2
 40
0.075
 49
0.05
 74
     0
 49
-0.025
 74
     0
  0
LTYPE
  5
6F
330
5
100
AcDbSymbolTableRecord
100
AcDbLinetypeTableRecord
  2
PHANTOM
 70
     0
  3
Phantom ______  __  __  ______  __  __  ______
 72
    65
 73
     6
 40
0.5
 49
0.25
 74
     0
 49
-0.05
 74
     0
 49
0.05
 74
     0
 49
-0.05
 74
     0
 49
0.05
 74
     0
 49
-0.05
 74
     0
  0
LTYPE
  5
70
330
5
100
AcDbSymbolTableRecord
100
AcDbLinetypeTableRecord
  2
CENTER
 70
     0
  3
Center ____ _ ____ _ ____ _ ____ _ ____ _ ____
 72
    65
 73
     4
 40
0.4
 49
0.25
 74
     0
 49
-0.05
 74
     0
 49
0.05
 74
     0
 49
-0.05
 74
     0
  0
LTYPE
  5
71
330
5
100
AcDbSymbolTableRecord
100
AcDbLinetypeTableRecord
  2
CENTERX2
 70
     0
  3
Center (2x) ________  __  ________  __  _____
 72
    65
 73
     4
 40
0.8
 49
0.5
 74
     0
 49
-0.1
 74
     0
 49
0.1
 74
     0
 49
-0.1
 74
     0
  0
LTYPE
  5
72
330
5
100
AcDbSymbolTableRecord
100
AcDbLinetypeTableRecord
  2
DOT2
 70
     0
  3
Dot (.5x) ........................................
 72
    65
 73
     2
 40
0.025
 49
0.0
 74
     0
 49
-0.025
 74
     0
  0
ENDTAB
  0
TABLE
  2
LAYER
  5
2
330
0
100
AcDbSymbolTable
 70
     7
  0
LAYER
  5
10
330
2
100
AcDbSymbolTableRecord
100
AcDbLayerTableRecord
  2
0
 70
     0
 62
     7
  6
Continuous
370
    -3
390
F
  0
LAYER
  5
73
330
2
100
AcDbSymbolTableRecord
100
AcDbLayerTableRecord
  2
FORMAT
 70
     0
 62
     7
  6
Continuous
370
    -3
390
F
  0
LAYER
  5
74
330
2
100
AcDbSymbolTableRecord
100
AcDbLayerTableRecord
  2
DEFAULT
 70
     0
 62
   179
  6
Continuous
370
    -3
390
F
  0
LAYER
  5
75
330
2
100
AcDbSymbolTableRecord
100
AcDbLayerTableRecord
  2
INSPECTION_TAGS
 70
     0
 62
     7
  6
Continuous
370
    -3
390
F
  0
LAYER
  5
76
330
2
100
AcDbSymbolTableRecord
100
AcDbLayerTableRecord
  2
REVISIONS
 70
     0
 62
     7
  6
Continuous
370
    -3
390
F
  0
LAYER
  5
77
330
2
100
AcDbSymbolTableRecord
100
AcDbLayerTableRecord
  2
DIMENSIONS_&_ANNOTATIONS
 70
     0
 62
     7
  6
Continuous
370
    -3
390
F
  0
LAYER
  5
78
330
2
100
AcDbSymbolTableRecord
100
AcDbLayerTableRecord
  2
DIMENSION_&_ANNOTATIONS
 70
     0
 62
     7
  6
Continuous
370
    -3
390
F
  0
ENDTAB
  0
TABLE
  2
STYLE
  5
3
330
0
100
AcDbSymbolTable
 70
     2
  0
STYLE
  5
11
330
3
100
AcDbSymbolTableRecord
100
AcDbTextStyleTableRecord
  2
Standard
 70
     0
 40
0.0
 41
1.0
 50
0.0
 71
     0
 42
0.1388888889
  3
txt
  4

  0
STYLE
  5
7C
330
3
100
AcDbSymbolTableRecord
100
AcDbTextStyleTableRecord
  2
SLDTEXTSTYLE0
 70
     0
 40
0.0
 41
0.605
 50
0.0
 71
     0
 42
0.1388888889
  3
TXT
  4

  0
ENDTAB
  0
TABLE
  2
VIEW
  5
6
330
0
100
AcDbSymbolTable
 70
     0
  0
ENDTAB
  0
TABLE
  2
UCS
  5
7
330
0
100
AcDbSymbolTable
 70
     0
  0
ENDTAB
  0
TABLE
  2
APPID
  5
9
330
0
100
AcDbSymbolTable
 70
     1
  0
APPID
  5
12
330
9
100
AcDbSymbolTableRecord
100
AcDbRegAppTableRecord
  2
ACAD
 70
     0
  0
ENDTAB
  0
TABLE
  2
DIMSTYLE
  5
A
330
0
100
AcDbSymbolTable
 70
     3
100
AcDbDimStyleTable
  0
DIMSTYLE
105
27
330
A
100
AcDbSymbolTableRecord
100
AcDbDimStyleTableRecord
  2
Standard
 70
     0
178
     0
340
11
  0
DIMSTYLE
105
B7
102
{ACAD_REACTORS
330
B6
102
}
330
A
100
AcDbSymbolTableRecord
100
AcDbDimStyleTableRecord
  2
SLDDIMSTYLE0
 70
     0
 41
0.13
 44
0.0
 45
0.000000001
 78
    12
 79
     3
140
0.1011149089
147
0.0252787272
148
0.000000001
170
     1
171
     1
173
     1
178
     0
271
     6
272
     0
274
     1
276
     2
277
     5
284
    12
340
7C
  0
DIMSTYLE
105
D0
102
{ACAD_REACTORS
330
CF
102
}
330
A
100
AcDbSymbolTableRecord
100
AcDbDimStyleTableRecord
  2
SLDDIMSTYLE1
 70
     0
 41
0.13
 44
0.0
 45
0.000000001
 78
    12
 79
     3
140
0.1011149089
147
0.0252787272
148
0.000000001
170
     1
171
     1
173
     1
178
     0
271
     0
272
     0
274
     1
276
     2
277
     5
284
    12
340
7C
  0
ENDTAB
  0
TABLE
  2
BLOCK_RECORD
  5
1
330
0
100
AcDbSymbolTable
 70
     9
  0
BLOCK_RECORD
  5
1F
330
1
100
AcDbSymbolTableRecord
100
AcDbBlockTableRecord
  2
*Model_Space
340
22
  0
BLOCK_RECORD
  5
1B
330
1
100
AcDbSymbolTableRecord
100
AcDbBlockTableRecord
  2
*Paper_Space
340
1E
  0
BLOCK_RECORD
  5
23
330
1
100
AcDbSymbolTableRecord
100
AcDbBlockTableRecord
  2
*Paper_Space0
340
26
  0
BLOCK_RECORD
  5
79
330
1
100
AcDbSymbolTableRecord
100
AcDbBlockTableRecord
  2
SW_NOTE_0
340
0
102
{BLKREFS
331
81
102
}
  0
BLOCK_RECORD
  5
B8
330
1
100
AcDbSymbolTableRecord
100
AcDbBlockTableRecord
  2
_D
340
0
  0
BLOCK_RECORD
  5
D1
330
1
100
AcDbSymbolTableRecord
100
AcDbBlockTableRecord
  2
_D_1
340
0
  0
BLOCK_RECORD
  5
E4
330
1
100
AcDbSymbolTableRecord
100
AcDbBlockTableRecord
  2
SW_CENTERMARKSYMBOL_17
340
0
102
{BLKREFS
331
EF
102
}
  0
BLOCK_RECORD
  5
F0
330
1
100
AcDbSymbolTableRecord
100
AcDbBlockTableRecord
  2
SW_CENTERMARKSYMBOL_18
340
0
102
{BLKREFS
331
FB
102
}
  0
BLOCK_RECORD
  5
FC
330
1
100
AcDbSymbolTableRecord
100
AcDbBlockTableRecord
  2
SW_CENTERMARKSYMBOL_19
340
0
102
{BLKREFS
331
107
102
}
  0
BLOCK_RECORD
  5
108
330
1
100
AcDbSymbolTableRecord
100
AcDbBlockTableRecord
  2
SW_CENTERMARKSYMBOL_20
340
0
102
{BLKREFS
331
113
102
}
  0
BLOCK_RECORD
  5
114
330
1
100
AcDbSymbolTableRecord
100
AcDbBlockTableRecord
  2
SW_CENTERMARKSYMBOL_21
340
0
102
{BLKREFS
331
11F
102
}
  0
ENDTAB
  0
ENDSEC
  0
SECTION
  2
BLOCKS
  0
BLOCK
  5
20
330
1F
100
AcDbEntity
  8
0
100
AcDbBlockBegin
  2
*Model_Space
 70
     0
 10
0.0
 20
0.0
 30
0.0
  3
*Model_Space
  1

  0
ENDBLK
  5
21
330
1F
100
AcDbEntity
  8
0
100
AcDbBlockEnd
  0
BLOCK
  5
1C
330
1B
100
AcDbEntity
 67
     1
  8
0
100
AcDbBlockBegin
  2
*Paper_Space
 70
     0
 10
0.0
 20
0.0
 30
0.0
  3
*Paper_Space
  1

  0
ENDBLK
  5
1D
330
1B
100
AcDbEntity
 67
     1
  8
0
100
AcDbBlockEnd
  0
BLOCK
  5
24
330
23
100
AcDbEntity
  8
0
100
AcDbBlockBegin
  2
*Paper_Space0
 70
     0
 10
0.0
 20
0.0
 30
0.0
  3
*Paper_Space0
  1

  0
ENDBLK
  5
25
330
23
100
AcDbEntity
  8
0
100
AcDbBlockEnd
  0
BLOCK
  5
7A
330
79
100
AcDbEntity
  8
0
100
AcDbBlockBegin
  2
SW_NOTE_0
 70
     0
 10
0.0
 20
0.0
 30
0.0
  3
SW_NOTE_0
  1

  0
MTEXT
  5
7D
330
79
100
AcDbEntity
  8
DEFAULT
 62
     0
100
AcDbMText
 10
0.3850911458
 20
0.1879890454
 30
0.0
 40
0.1458333333
 41
0.0
 71
     2
 72
     1
  1
Legrand
  7
SLDTEXTSTYLE0
 73
     1
 44
1.0
  0
MTEXT
  5
7E
330
79
100
AcDbEntity
  8
DEFAULT
 62
     0
100
AcDbMText
 10
0.4129879835
 20
-0.0055331972
 30
0.0
 40
0.125
 41
0.0
 71
     2
 72
     1
  1
SYSTEM: Wiremold® Resource RFB® Series Floor Boxes
  7
SLDTEXTSTYLE0
 73
     1
 44
1.0
  0
MTEXT
  5
7F
330
79
100
AcDbEntity
  8
DEFAULT
 62
     0
100
AcDbMText
 10
0.3966531164
 20
-0.1721998618
 30
0.0
 40
0.125
 41
0.0
 71
     2
 72
     1
  1
Catalog Number RFBAMAAP_R0
  7
SLDTEXTSTYLE0
 73
     1
 44
1.0
  0
MTEXT
  5
80
330
79
100
AcDbEntity
  8
DEFAULT
 62
     0
100
AcDbMText
 10
0.3886959733
 20
-0.3388665265
 30
0.0
 40
0.125
 41
0.0
 71
     2
 72
     1
  1
06/18/2020
  7
SLDTEXTSTYLE0
 73
     1
 44
1.0
  0
ENDBLK
  5
7B
330
79
100
AcDbEntity
  8
0
100
AcDbBlockEnd
  0
BLOCK
  5
B9
330
B8
100
AcDbEntity
  8
0
100
AcDbBlockBegin
  2
_D
 70
     0
 10
0.0
 20
0.0
 30
0.0
  3
_D
  1

  0
SOLID
  5
BB
330
B8
100
AcDbEntity
  8
DEFAULT
 62
     7
100
AcDbTrace
 10
7.4243880845
 20
5.8007819905
 30
0.0
 11
7.4043880845
 21
5.6707819905
 31
0.0
 12
7.4443880845
 22
5.6707819905
 32
0.0
 13
7.4443880845
 23
5.6707819905
 33
0.0
  0
SOLID
  5
BC
330
B8
100
AcDbEntity
  8
DEFAULT
 62
     7
100
AcDbTrace
 10
7.4243880845
 20
3.5507819905
 30
0.0
 11
7.4443880845
 21
3.6807819905
 31
0.0
 12
7.4043880845
 22
3.6807819905
 32
0.0
 13
7.4043880845
 23
3.6807819905
 33
0.0
  0
LINE
  5
BD
330
B8
100
AcDbEntity
  8
DEFAULT
 62
     7
100
AcDbLine
 10
7.3849398085
 20
4.7869027641
 30
0.0
 11
7.4916141929
 21
4.7869027641
 31
0.0
  0
LINE
  5
BE
330
B8
100
AcDbEntity
  8
DEFAULT
 62
     7
100
AcDbLine
 10
7.1736165014
 20
4.6130601651
 30
0.0
 11
7.1388942796
 21
4.6130601651
 31
0.0
  0
LINE
  5
BF
330
B8
100
AcDbEntity
  8
DEFAULT
 62
     7
100
AcDbLine
 10
7.1388942796
 20
4.6130601651
 30
0.0
 11
7.1388942796
 21
4.4577746656
 31
0.0
  0
LINE
  5
C0
330
B8
100
AcDbEntity
  8
DEFAULT
 62
     7
100
AcDbLine
 10
7.1388942796
 20
4.4577746656
 30
0.0
 11
7.1736165014
 21
4.4577746656
 31
0.0
  0
LINE
  5
C1
330
B8
100
AcDbEntity
  8
DEFAULT
 62
     7
100
AcDbLine
 10
7.6751597409
 20
4.6130601651
 30
0.0
 11
7.7098819627
 21
4.6130601651
 31
0.0
  0
LINE
  5
C2
330
B8
100
AcDbEntity
  8
DEFAULT
 62
     7
100
AcDbLine
 10
7.7098819627
 20
4.6130601651
 30
0.0
 11
7.7098819627
 21
4.4577746656
 31
0.0
  0
LINE
  5
C3
330
B8
100
AcDbEntity
  8
DEFAULT
 62
     7
100
AcDbLine
 10
7.7098819627
 20
4.4577746656
 30
0.0
 11
7.6751597409
 21
4.4577746656
 31
0.0
  0
LINE
  5
C4
330
B8
100
AcDbEntity
  8
DEFAULT
 62
     7
100
AcDbLine
 10
6.4904668246
 20
5.8007819905
 30
0.0
 11
7.5493880845
 21
5.8007819905
 31
0.0
  0
LINE
  5
C5
330
B8
100
AcDbEntity
  8
DEFAULT
 62
     7
100
AcDbLine
 10
6.8444668246
 20
3.5507819905
 30
0.0
 11
7.5493880845
 21
3.5507819905
 31
0.0
  0
LINE
  5
C6
330
B8
100
AcDbEntity
  8
DEFAULT
 62
     7
100
AcDbLine
 10
7.4243880845
 20
5.8007819905
 30
0.0
 11
7.4243880845
 21
4.9169374847
 31
0.0
  0
LINE
  5
C7
330
B8
100
AcDbEntity
  8
DEFAULT
 62
     7
100
AcDbLine
 10
7.4243880845
 20
3.5507819905
 30
0.0
 11
7.4243880845
 21
4.4346264964
 31
0.0
  0
MTEXT
  5
C8
330
B8
100
AcDbEntity
  8
DEFAULT
 62
     7
100
AcDbMText
 10
7.1046543093
 20
4.8413605112
 30
0.0
 40
0.1041666667
 41
0.0
 71
     1
 72
     1
  1

  7
SLDTEXTSTYLE0
 73
     1
 44
1.0
  0
MTEXT
  5
C9
330
B8
100
AcDbEntity
  8
DEFAULT
 62
     7
100
AcDbMText
 10
7.2930223679
 20
4.8413605112
 30
0.0
 40
0.1041666667
 41
0.0
 71
     1
 72
     1
  1
2
  7
SLDTEXTSTYLE0
 73
     1
 44
1.0
  0
MTEXT
  5
CA
330
B8
100
AcDbEntity
  8
DEFAULT
 62
     7
100
AcDbMText
 10
7.3996967522
 20
4.9123264847
 30
0.0
 40
0.1041666667
 41
0.0
 71
     1
 72
     1
  1
1
  7
SLDTEXTSTYLE0
 73
     1
 44
1.0
  0
MTEXT
  5
CB
330
B8
100
AcDbEntity
  8
DEFAULT
 62
     7
100
AcDbMText
 10
7.3996967522
 20
4.7704862087
 30
0.0
 40
0.1041666667
 41
0.0
 71
     1
 72
     1
  1
4
  7
SLDTEXTSTYLE0
 73
     1
 44
1.0
  0
MTEXT
  5
CC
330
B8
100
AcDbEntity
  8
DEFAULT
 62
     7
100
AcDbMText
 10
7.5063711366
 20
4.8413605112
 30
0.0
 40
0.1041666667
 41
0.0
 71
     1
 72
     1
  1
"
  7
SLDTEXTSTYLE0
 73
     1
 44
1.0
  0
MTEXT
  5
CD
330
B8
100
AcDbEntity
  8
DEFAULT
 62
     7
100
AcDbMText
 10
7.1736165014
 20
4.5920525621
 30
0.0
 40
0.1041666667
 41
0.0
 71
     1
 72
     1
  1
57.2mm
  7
SLDTEXTSTYLE0
 73
     1
 44
1.0
  0
MTEXT
  5
CE
330
B8
100
AcDbEntity
  8
DEFAULT
 62
     7
100
AcDbMText
 10
7.7836666387
 20
4.8413605112
 30
0.0
 40
0.1041666667
 41
0.0
 71
     1
 72
     1
  1

  7
SLDTEXTSTYLE0
 73
     1
 44
1.0
  0
ENDBLK
  5
BA
330
B8
100
AcDbEntity
  8
0
100
AcDbBlockEnd
  0
BLOCK
  5
D2
330
D1
100
AcDbEntity
  8
0
100
AcDbBlockBegin
  2
_D_1
 70
     0
 10
0.0
 20
0.0
 30
0.0
  3
_D_1
  1

  0
SOLID
  5
D4
330
D1
100
AcDbEntity
  8
DEFAULT
 62
     7
100
AcDbTrace
 10
2.0644668246
 20
2.9208607307
 30
0.0
 11
2.1944668246
 21
2.9008607307
 31
0.0
 12
2.1944668246
 22
2.9408607307
 32
0.0
 13
2.1944668246
 23
2.9408607307
 33
0.0
  0
SOLID
  5
D5
330
D1
100
AcDbEntity
  8
DEFAULT
 62
     7
100
AcDbTrace
 10
6.7944668246
 20
2.9208607307
 30
0.0
 11
6.6644668246
 21
2.9408607307
 31
0.0
 12
6.6644668246
 22
2.9008607307
 32
0.0
 13
6.6644668246
 23
2.9008607307
 33
0.0
  0
LINE
  5
D6
330
D1
100
AcDbEntity
  8
DEFAULT
 62
     7
100
AcDbLine
 10
4.1401150206
 20
2.9208607398
 30
0.0
 11
4.1053927988
 21
2.9208607398
 31
0.0
  0
LINE
  5
D7
330
D1
100
AcDbEntity
  8
DEFAULT
 62
     7
100
AcDbLine
 10
4.1053927988
 20
2.9208607398
 30
0.0
 11
4.1053927988
 21
2.7655752404
 31
0.0
  0
LINE
  5
D8
330
D1
100
AcDbEntity
  8
DEFAULT
 62
     7
100
AcDbLine
 10
4.1053927988
 20
2.7655752404
 30
0.0
 11
4.1401150206
 21
2.7655752404
 31
0.0
  0
LINE
  5
D9
330
D1
100
AcDbEntity
  8
DEFAULT
 62
     7
100
AcDbLine
 10
4.718818702
 20
2.9208607398
 30
0.0
 11
4.7535409238
 21
2.9208607398
 31
0.0
  0
LINE
  5
DA
330
D1
100
AcDbEntity
  8
DEFAULT
 62
     7
100
AcDbLine
 10
4.7535409238
 20
2.9208607398
 30
0.0
 11
4.7535409238
 21
2.7655752404
 31
0.0
  0
LINE
  5
DB
330
D1
100
AcDbEntity
  8
DEFAULT
 62
     7
100
AcDbLine
 10
4.7535409238
 20
2.7655752404
 30
0.0
 11
4.718818702
 21
2.7655752404
 31
0.0
  0
LINE
  5
DC
330
D1
100
AcDbEntity
  8
DEFAULT
 62
     7
100
AcDbLine
 10
2.0644668246
 20
4.2807819905
 30
0.0
 11
2.0644668246
 21
2.7958607307
 31
0.0
  0
LINE
  5
DD
330
D1
100
AcDbEntity
  8
DEFAULT
 62
     7
100
AcDbLine
 10
6.7944668246
 20
3.5007819905
 30
0.0
 11
6.7944668246
 21
2.7958607307
 31
0.0
  0
LINE
  5
DE
330
D1
100
AcDbEntity
  8
DEFAULT
 62
     7
100
AcDbLine
 10
2.0644668246
 20
2.9208607307
 30
0.0
 11
4.0088261105
 21
2.9208607307
 31
0.0
  0
LINE
  5
DF
330
D1
100
AcDbEntity
  8
DEFAULT
 62
     7
100
AcDbLine
 10
6.7944668246
 20
2.9208607307
 30
0.0
 11
4.8501075388
 21
2.9208607307
 31
0.0
  0
MTEXT
  5
E0
330
D1
100
AcDbEntity
  8
DEFAULT
 62
     7
100
AcDbMText
 10
4.0711528285
 20
3.078286778
 30
0.0
 40
0.1041666667
 41
0.0
 71
     1
 72
     1
  1

  7
SLDTEXTSTYLE0
 73
     1
 44
1.0
  0
MTEXT
  5
E1
330
D1
100
AcDbEntity
  8
DEFAULT
 62
     7
100
AcDbMText
 10
4.3368742576
 20
3.078286778
 30
0.0
 40
0.1041666667
 41
0.0
 71
     1
 72
     1
  1
5in
  7
SLDTEXTSTYLE0
 73
     1
 44
1.0
  0
MTEXT
  5
E2
330
D1
100
AcDbEntity
  8
DEFAULT
 62
     7
100
AcDbMText
 10
4.1401150206
 20
2.8998531368
 30
0.0
 40
0.1041666667
 41
0.0
 71
     1
 72
     1
  1
120.1mm
  7
SLDTEXTSTYLE0
 73
     1
 44
1.0
  0
MTEXT
  5
E3
330
D1
100
AcDbEntity
  8
DEFAULT
 62
     7
100
AcDbMText
 10
4.8273255998
 20
3.078286778
 30
0.0
 40
0.1041666667
 41
0.0
 71
     1
 72
     1
  1

  7
SLDTEXTSTYLE0
 73
     1
 44
1.0
  0
ENDBLK
  5
D3
330
D1
100
AcDbEntity
  8
0
100
AcDbBlockEnd
  0
BLOCK
  5
E5
330
E4
100
AcDbEntity
  8
0
100
AcDbBlockBegin
  2
SW_CENTERMARKSYMBOL_17
 70
     0
 10
0.0
 20
0.0
 30
0.0
  3
SW_CENTERMARKSYMBOL_17
  1

  0
LINE
  5
E7
330
E4
100
AcDbEntity
  8
DEFAULT
 62
     0
100
AcDbLine
 10
0.0
 20
0.0
 30
0.0
 11
0.0
 21
0.1
 31
0.0
  0
LINE
  5
E8
330
E4
100
AcDbEntity
  8
DEFAULT
 62
     0
100
AcDbLine
 10
0.0
 20
0.0
 30
0.0
 11
-0.1
 21
0.0
 31
0.0
  0
LINE
  5
E9
330
E4
100
AcDbEntity
  8
DEFAULT
 62
     0
100
AcDbLine
 10
0.0
 20
0.0
 30
0.0
 11
0.0
 21
-0.1
 31
0.0
  0
LINE
  5
EA
330
E4
100
AcDbEntity
  8
DEFAULT
 62
     0
100
AcDbLine
 10
0.0
 20
0.0
 30
0.0
 11
0.1
 21
0.0
 31
0.0
  0
LINE
  5
EB
330
E4
100
AcDbEntity
  8
DEFAULT
 62
     0
100
AcDbLine
 10
0.0
 20
0.1
 30
0.0
 11
0.0
 21
0.15325
 31
0.0
  0
LINE
  5
EC
330
E4
100
AcDbEntity
  8
DEFAULT
 62
     0
100
AcDbLine
 10
-0.1
 20
0.0
 30
0.0
 11
-0.15325
 21
0.0
 31
0.0
  0
LINE
  5
ED
330
E4
100
AcDbEntity
  8
DEFAULT
 62
     0
100
AcDbLine
 10
0.0
 20
-0.1
 30
0.0
 11
0.0
 21
-0.15325
 31
0.0
  0
LINE
  5
EE
330
E4
100
AcDbEntity
  8
DEFAULT
 62
     0
100
AcDbLine
 10
0.1
 20
0.0
 30
0.0
 11
0.15325
 21
0.0
 31
0.0
  0
ENDBLK
  5
E6
330
E4
100
AcDbEntity
  8
0
100
AcDbBlockEnd
  0
BLOCK
  5
F1
330
F0
100
AcDbEntity
  8
0
100
AcDbBlockBegin
  2
SW_CENTERMARKSYMBOL_18
 70
     0
 10
0.0
 20
0.0
 30
0.0
  3
SW_CENTERMARKSYMBOL_18
  1

  0
LINE
  5
F3
330
F0
100
AcDbEntity
  8
DEFAULT
 62
     0
100
AcDbLine
 10
0.0
 20
0.0
 30
0.0
 11
0.0
 21
0.1
 31
0.0
  0
LINE
  5
F4
330
F0
100
AcDbEntity
  8
DEFAULT
 62
     0
100
AcDbLine
 10
0.0
 20
0.0
 30
0.0
 11
-0.1
 21
0.0
 31
0.0
  0
LINE
  5
F5
330
F0
100
AcDbEntity
  8
DEFAULT
 62
     0
100
AcDbLine
 10
0.0
 20
0.0
 30
0.0
 11
0.0
 21
-0.1
 31
0.0
  0
LINE
  5
F6
330
F0
100
AcDbEntity
  8
DEFAULT
 62
     0
100
AcDbLine
 10
0.0
 20
0.0
 30
0.0
 11
0.1
 21
0.0
 31
0.0
  0
LINE
  5
F7
330
F0
100
AcDbEntity
  8
DEFAULT
 62
     0
100
AcDbLine
 10
0.0
 20
0.1
 30
0.0
 11
0.0
 21
0.1445
 31
0.0
  0
LINE
  5
F8
330
F0
100
AcDbEntity
  8
DEFAULT
 62
     0
100
AcDbLine
 10
-0.1
 20
0.0
 30
0.0
 11
-0.1445
 21
0.0
 31
0.0
  0
LINE
  5
F9
330
F0
100
AcDbEntity
  8
DEFAULT
 62
     0
100
AcDbLine
 10
0.0
 20
-0.1
 30
0.0
 11
0.0
 21
-0.1445
 31
0.0
  0
LINE
  5
FA
330
F0
100
AcDbEntity
  8
DEFAULT
 62
     0
100
AcDbLine
 10
0.1
 20
0.0
 30
0.0
 11
0.1445
 21
0.0
 31
0.0
  0
ENDBLK
  5
F2
330
F0
100
AcDbEntity
  8
0
100
AcDbBlockEnd
  0
BLOCK
  5
FD
330
FC
100
AcDbEntity
  8
0
100
AcDbBlockBegin
  2
SW_CENTERMARKSYMBOL_19
 70
     0
 10
0.0
 20
0.0
 30
0.0
  3
SW_CENTERMARKSYMBOL_19
  1

  0
LINE
  5
FF
330
FC
100
AcDbEntity
  8
DEFAULT
 62
     0
100
AcDbLine
 10
0.0
 20
0.0
 30
0.0
 11
0.0
 21
0.1
 31
0.0
  0
LINE
  5
100
330
FC
100
AcDbEntity
  8
DEFAULT
 62
     0
100
AcDbLine
 10
0.0
 20
0.0
 30
0.0
 11
-0.1
 21
0.0
 31
0.0
  0
LINE
  5
101
330
FC
100
AcDbEntity
  8
DEFAULT
 62
     0
100
AcDbLine
 10
0.0
 20
0.0
 30
0.0
 11
0.0
 21
-0.1
 31
0.0
  0
LINE
  5
102
330
FC
100
AcDbEntity
  8
DEFAULT
 62
     0
100
AcDbLine
 10
0.0
 20
0.0
 30
0.0
 11
0.1
 21
0.0
 31
0.0
  0
LINE
  5
103
330
FC
100
AcDbEntity
  8
DEFAULT
 62
     0
100
AcDbLine
 10
0.0
 20
0.1
 30
0.0
 11
0.0
 21
0.1445
 31
0.0
  0
LINE
  5
104
330
FC
100
AcDbEntity
  8
DEFAULT
 62
     0
100
AcDbLine
 10
-0.1
 20
0.0
 30
0.0
 11
-0.1445
 21
0.0
 31
0.0
  0
LINE
  5
105
330
FC
100
AcDbEntity
  8
DEFAULT
 62
     0
100
AcDbLine
 10
0.0
 20
-0.1
 30
0.0
 11
0.0
 21
-0.1445
 31
0.0
  0
LINE
  5
106
330
FC
100
AcDbEntity
  8
DEFAULT
 62
     0
100
AcDbLine
 10
0.1
 20
0.0
 30
0.0
 11
0.1445
 21
0.0
 31
0.0
  0
ENDBLK
  5
FE
330
FC
100
AcDbEntity
  8
0
100
AcDbBlockEnd
  0
BLOCK
  5
109
330
108
100
AcDbEntity
  8
0
100
AcDbBlockBegin
  2
SW_CENTERMARKSYMBOL_20
 70
     0
 10
0.0
 20
0.0
 30
0.0
  3
SW_CENTERMARKSYMBOL_20
  1

  0
LINE
  5
10B
330
108
100
AcDbEntity
  8
DEFAULT
 62
     0
100
AcDbLine
 10
0.0
 20
0.0
 30
0.0
 11
0.0
 21
0.1
 31
0.0
  0
LINE
  5
10C
330
108
100
AcDbEntity
  8
DEFAULT
 62
     0
100
AcDbLine
 10
0.0
 20
0.0
 30
0.0
 11
-0.1
 21
0.0
 31
0.0
  0
LINE
  5
10D
330
108
100
AcDbEntity
  8
DEFAULT
 62
     0
100
AcDbLine
 10
0.0
 20
0.0
 30
0.0
 11
0.0
 21
-0.1
 31
0.0
  0
LINE
  5
10E
330
108
100
AcDbEntity
  8
DEFAULT
 62
     0
100
AcDbLine
 10
0.0
 20
0.0
 30
0.0
 11
0.1
 21
0.0
 31
0.0
  0
LINE
  5
10F
330
108
100
AcDbEntity
  8
DEFAULT
 62
     0
100
AcDbLine
 10
0.0
 20
0.1
 30
0.0
 11
0.0
 21
0.1445
 31
0.0
  0
LINE
  5
110
330
108
100
AcDbEntity
  8
DEFAULT
 62
     0
100
AcDbLine
 10
-0.1
 20
0.0
 30
0.0
 11
-0.1445
 21
0.0
 31
0.0
  0
LINE
  5
111
330
108
100
AcDbEntity
  8
DEFAULT
 62
     0
100
AcDbLine
 10
0.0
 20
-0.1
 30
0.0
 11
0.0
 21
-0.1445
 31
0.0
  0
LINE
  5
112
330
108
100
AcDbEntity
  8
DEFAULT
 62
     0
100
AcDbLine
 10
0.1
 20
0.0
 30
0.0
 11
0.1445
 21
0.0
 31
0.0
  0
ENDBLK
  5
10A
330
108
100
AcDbEntity
  8
0
100
AcDbBlockEnd
  0
BLOCK
  5
115
330
114
100
AcDbEntity
  8
0
100
AcDbBlockBegin
  2
SW_CENTERMARKSYMBOL_21
 70
     0
 10
0.0
 20
0.0
 30
0.0
  3
SW_CENTERMARKSYMBOL_21
  1

  0
LINE
  5
117
330
114
100
AcDbEntity
  8
DEFAULT
 62
     0
100
AcDbLine
 10
0.0
 20
0.0
 30
0.0
 11
0.0
 21
0.1
 31
0.0
  0
LINE
  5
118
330
114
100
AcDbEntity
  8
DEFAULT
 62
     0
100
AcDbLine
 10
0.0
 20
0.0
 30
0.0
 11
-0.1
 21
0.0
 31
0.0
  0
LINE
  5
119
330
114
100
AcDbEntity
  8
DEFAULT
 62
     0
100
AcDbLine
 10
0.0
 20
0.0
 30
0.0
 11
0.0
 21
-0.1
 31
0.0
  0
LINE
  5
11A
330
114
100
AcDbEntity
  8
DEFAULT
 62
     0
100
AcDbLine
 10
0.0
 20
0.0
 30
0.0
 11
0.1
 21
0.0
 31
0.0
  0
LINE
  5
11B
330
114
100
AcDbEntity
  8
DEFAULT
 62
     0
100
AcDbLine
 10
0.0
 20
0.1
 30
0.0
 11
0.0
 21
0.1445
 31
0.0
  0
LINE
  5
11C
330
114
100
AcDbEntity
  8
DEFAULT
 62
     0
100
AcDbLine
 10
-0.1
 20
0.0
 30
0.0
 11
-0.1445
 21
0.0
 31
0.0
  0
LINE
  5
11D
330
114
100
AcDbEntity
  8
DEFAULT
 62
     0
100
AcDbLine
 10
0.0
 20
-0.1
 30
0.0
 11
0.0
 21
-0.1445
 31
0.0
  0
LINE
  5
11E
330
114
100
AcDbEntity
  8
DEFAULT
 62
     0
100
AcDbLine
 10
0.1
 20
0.0
 30
0.0
 11
0.1445
 21
0.0
 31
0.0
  0
ENDBLK
  5
116
330
114
100
AcDbEntity
  8
0
100
AcDbBlockEnd
  0
ENDSEC
  0
SECTION
  2
ENTITIES
  0
INSERT
  5
81
330
1F
100
AcDbEntity
  8
DEFAULT
 62
     7
100
AcDbBlockReference
  2
SW_NOTE_0
 10
3.8684447154
 20
1.4988030925
 30
0.0
  0
LINE
  5
82
330
1F
100
AcDbEntity
  8
0
  6
Continuous
 62
     7
370
    25
100
AcDbLine
 10
6.4404668246
 20
5.8007819905
 30
0.0
 11
4.8544668246
 21
5.8007819905
 31
0.0
  0
LINE
  5
83
330
1F
100
AcDbEntity
  8
0
  6
Continuous
 62
     7
370
    25
100
AcDbLine
 10
6.4704668246
 20
5.7707819905
 30
0.0
 11
6.4404668246
 21
5.8007819905
 31
0.0
  0
LINE
  5
84
330
1F
100
AcDbEntity
  8
0
  6
Continuous
 62
     7
370
    25
100
AcDbLine
 10
6.4704668246
 20
5.3727819905
 30
0.0
 11
6.4704668246
 21
5.7707819905
 31
0.0
  0
LINE
  5
85
330
1F
100
AcDbEntity
  8
0
  6
Continuous
 62
     7
370
    25
100
AcDbLine
 10
6.7944668246
 20
5.3727819905
 30
0.0
 11
6.4704668246
 21
5.3727819905
 31
0.0
  0
LINE
  5
86
330
1F
100
AcDbEntity
  8
0
  6
Continuous
 62
     7
370
    25
100
AcDbLine
 10
6.7944668246
 20
5.1852819905
 30
0.0
 11
6.7944668246
 21
5.3727819905
 31
0.0
  0
LINE
  5
87
330
1F
100
AcDbEntity
  8
0
  6
Continuous
 62
     7
370
    25
100
AcDbLine
 10
6.7244668246
 20
5.1852819905
 30
0.0
 11
6.7944668246
 21
5.1852819905
 31
0.0
  0
LINE
  5
88
330
1F
100
AcDbEntity
  8
0
  6
Continuous
 62
     7
370
    25
100
AcDbLine
 10
6.7244668246
 20
4.8007819905
 30
0.0
 11
6.7244668246
 21
5.1852819905
 31
0.0
  0
LINE
  5
89
330
1F
100
AcDbEntity
  8
0
  6
Continuous
 62
     7
370
    25
100
AcDbLine
 10
6.7944668246
 20
4.8007819905
 30
0.0
 11
6.7244668246
 21
4.8007819905
 31
0.0
  0
LINE
  5
8A
330
1F
100
AcDbEntity
  8
0
  6
Continuous
 62
     7
370
    25
100
AcDbLine
 10
6.7944668246
 20
4.4257819905
 30
0.0
 11
6.7944668246
 21
4.8007819905
 31
0.0
  0
LINE
  5
8B
330
1F
100
AcDbEntity
  8
0
  6
Continuous
 62
     7
370
    25
100
AcDbLine
 10
6.7244668246
 20
4.4257819905
 30
0.0
 11
6.7944668246
 21
4.4257819905
 31
0.0
  0
LINE
  5
8C
330
1F
100
AcDbEntity
  8
0
  6
Continuous
 62
     7
370
    25
100
AcDbLine
 10
6.7244668246
 20
3.7382819905
 30
0.0
 11
6.7244668246
 21
4.4257819905
 31
0.0
  0
LINE
  5
8D
330
1F
100
AcDbEntity
  8
0
  6
Continuous
 62
     7
370
    25
100
AcDbLine
 10
6.7944668246
 20
3.7382819905
 30
0.0
 11
6.7244668246
 21
3.7382819905
 31
0.0
  0
LINE
  5
8E
330
1F
100
AcDbEntity
  8
0
  6
Continuous
 62
     7
370
    25
100
AcDbLine
 10
6.7944668246
 20
3.5507819905
 30
0.0
 11
6.7944668246
 21
3.7382819905
 31
0.0
  0
LINE
  5
8F
330
1F
100
AcDbEntity
  8
0
  6
Continuous
 62
     7
370
    25
100
AcDbLine
 10
6.2344668246
 20
3.5507819905
 30
0.0
 11
6.7944668246
 21
3.5507819905
 31
0.0
  0
LINE
  5
90
330
1F
100
AcDbEntity
  8
0
  6
Continuous
 62
     7
370
    25
100
AcDbLine
 10
6.2344668246
 20
3.6407819905
 30
0.0
 11
6.2344668246
 21
3.5507819905
 31
0.0
  0
LINE
  5
91
330
1F
100
AcDbEntity
  8
0
  6
Continuous
 62
     7
370
    25
100
AcDbLine
 10
5.9744668246
 20
3.6407819905
 30
0.0
 11
6.2344668246
 21
3.6407819905
 31
0.0
  0
LINE
  5
92
330
1F
100
AcDbEntity
  8
0
  6
Continuous
 62
     7
370
    25
100
AcDbLine
 10
5.9744668246
 20
3.5507819905
 30
0.0
 11
5.9744668246
 21
3.6407819905
 31
0.0
  0
LINE
  5
93
330
1F
100
AcDbEntity
  8
0
  6
Continuous
 62
     7
370
    25
100
AcDbLine
 10
3.2344668246
 20
3.5507819905
 30
0.0
 11
5.9744668246
 21
3.5507819905
 31
0.0
  0
LINE
  5
94
330
1F
100
AcDbEntity
  8
0
  6
Continuous
 62
     7
370
    25
100
AcDbLine
 10
3.2344668246
 20
3.6407819905
 30
0.0
 11
3.2344668246
 21
3.5507819905
 31
0.0
  0
LINE
  5
95
330
1F
100
AcDbEntity
  8
0
  6
Continuous
 62
     7
370
    25
100
AcDbLine
 10
2.9744668246
 20
3.6407819905
 30
0.0
 11
3.2344668246
 21
3.6407819905
 31
0.0
  0
LINE
  5
96
330
1F
100
AcDbEntity
  8
0
  6
Continuous
 62
     7
370
    25
100
AcDbLine
 10
2.9744668246
 20
3.5507819905
 30
0.0
 11
2.9744668246
 21
3.6407819905
 31
0.0
  0
LINE
  5
97
330
1F
100
AcDbEntity
  8
0
  6
Continuous
 62
     7
370
    25
100
AcDbLine
 10
2.2144668246
 20
3.5507819905
 30
0.0
 11
2.9744668246
 21
3.5507819905
 31
0.0
  0
LINE
  5
98
330
1F
100
AcDbEntity
  8
0
  6
Continuous
 62
     7
370
    25
100
AcDbLine
 10
2.1844668246
 20
3.5807819905
 30
0.0
 11
2.2144668246
 21
3.5507819905
 31
0.0
  0
LINE
  5
99
330
1F
100
AcDbEntity
  8
0
  6
Continuous
 62
     7
370
    25
100
AcDbLine
 10
2.1844668246
 20
4.3007819905
 30
0.0
 11
2.1844668246
 21
3.5807819905
 31
0.0
  0
LINE
  5
9A
330
1F
100
AcDbEntity
  8
0
  6
Continuous
 62
     7
370
    25
100
AcDbLine
 10
2.0944668246
 20
4.3007819905
 30
0.0
 11
2.1844668246
 21
4.3007819905
 31
0.0
  0
LINE
  5
9B
330
1F
100
AcDbEntity
  8
0
  6
Continuous
 62
     7
370
    25
100
AcDbLine
 10
2.0644668246
 20
4.3307819905
 30
0.0
 11
2.0944668246
 21
4.3007819905
 31
0.0
  0
LINE
  5
9C
330
1F
100
AcDbEntity
  8
0
  6
Continuous
 62
     7
370
    25
100
AcDbLine
 10
2.0644668246
 20
4.5352819905
 30
0.0
 11
2.0644668246
 21
4.3307819905
 31
0.0
  0
LINE
  5
9D
330
1F
100
AcDbEntity
  8
0
  6
Continuous
 62
     7
370
    25
100
AcDbLine
 10
2.1044668246
 20
4.5352819905
 30
0.0
 11
2.0644668246
 21
4.5352819905
 31
0.0
  0
ARC
  5
9E
330
1F
100
AcDbEntity
  8
0
  6
Continuous
 62
     7
370
    25
100
AcDbCircle
 10
2.1044668246
 20
4.6132819905
 30
0.0
 40
0.0780000000000003
100
AcDbArc
 50
270.0
 51
90.0
  0
LINE
  5
9F
330
1F
100
AcDbEntity
  8
0
  6
Continuous
 62
     7
370
    25
100
AcDbLine
 10
2.0644668246
 20
4.6912819905
 30
0.0
 11
2.1044668246
 21
4.6912819905
 31
0.0
  0
LINE
  5
A0
330
1F
100
AcDbEntity
  8
0
  6
Continuous
 62
     7
370
    25
100
AcDbLine
 10
2.0644668246
 20
4.8957819905
 30
0.0
 11
2.0644668246
 21
4.6912819905
 31
0.0
  0
LINE
  5
A1
330
1F
100
AcDbEntity
  8
0
  6
Continuous
 62
     7
370
    25
100
AcDbLine
 10
2.0944668246
 20
4.9257819905
 30
0.0
 11
2.0644668246
 21
4.8957819905
 31
0.0
  0
LINE
  5
A2
330
1F
100
AcDbEntity
  8
0
  6
Continuous
 62
     7
370
    25
100
AcDbLine
 10
2.1844668246
 20
4.9257819905
 30
0.0
 11
2.0944668246
 21
4.9257819905
 31
0.0
  0
LINE
  5
A3
330
1F
100
AcDbEntity
  8
0
  6
Continuous
 62
     7
370
    25
100
AcDbLine
 10
2.1844668246
 20
5.7707819905
 30
0.0
 11
2.1844668246
 21
4.9257819905
 31
0.0
  0
LINE
  5
A4
330
1F
100
AcDbEntity
  8
0
  6
Continuous
 62
     7
370
    25
100
AcDbLine
 10
2.2144668246
 20
5.8007819905
 30
0.0
 11
2.1844668246
 21
5.7707819905
 31
0.0
  0
LINE
  5
A5
330
1F
100
AcDbEntity
  8
0
  6
Continuous
 62
     7
370
    25
100
AcDbLine
 10
2.9744668246
 20
5.8007819905
 30
0.0
 11
2.2144668246
 21
5.8007819905
 31
0.0
  0
LINE
  5
A6
330
1F
100
AcDbEntity
  8
0
  6
Continuous
 62
     7
370
    25
100
AcDbLine
 10
2.9744668246
 20
5.6127819905
 30
0.0
 11
2.9744668246
 21
5.8007819905
 31
0.0
  0
LINE
  5
A7
330
1F
100
AcDbEntity
  8
0
  6
Continuous
 62
     7
370
    25
100
AcDbLine
 10
3.2344668246
 20
5.6127819905
 30
0.0
 11
2.9744668246
 21
5.6127819905
 31
0.0
  0
LINE
  5
A8
330
1F
100
AcDbEntity
  8
0
  6
Continuous
 62
     7
370
    25
100
AcDbLine
 10
3.2344668246
 20
5.8007819905
 30
0.0
 11
3.2344668246
 21
5.6127819905
 31
0.0
  0
LINE
  5
A9
330
1F
100
AcDbEntity
  8
0
  6
Continuous
 62
     7
370
    25
100
AcDbLine
 10
4.3544668246
 20
5.8007819905
 30
0.0
 11
3.2344668246
 21
5.8007819905
 31
0.0
  0
LINE
  5
AA
330
1F
100
AcDbEntity
  8
0
  6
Continuous
 62
     7
370
    25
100
AcDbLine
 10
4.3544668246
 20
5.7107819905
 30
0.0
 11
4.3544668246
 21
5.8007819905
 31
0.0
  0
LINE
  5
AB
330
1F
100
AcDbEntity
  8
0
  6
Continuous
 62
     7
370
    25
100
AcDbLine
 10
4.8544668246
 20
5.7107819905
 30
0.0
 11
4.3544668246
 21
5.7107819905
 31
0.0
  0
LINE
  5
AC
330
1F
100
AcDbEntity
  8
0
  6
Continuous
 62
     7
370
    25
100
AcDbLine
 10
4.8544668246
 20
5.8007819905
 30
0.0
 11
4.8544668246
 21
5.7107819905
 31
0.0
  0
LINE
  5
AD
330
1F
100
AcDbEntity
  8
0
  6
Continuous
 62
     7
370
    25
100
AcDbLine
 10
3.8944668246
 20
3.9132819905
 30
0.0
 11
5.3144668246
 21
3.9132819905
 31
0.0
  0
LINE
  5
AE
330
1F
100
AcDbEntity
  8
0
  6
Continuous
 62
     7
370
    25
100
AcDbLine
 10
5.3144668246
 20
3.9132819905
 30
0.0
 11
5.3144668246
 21
5.3132819905
 31
0.0
  0
LINE
  5
AF
330
1F
100
AcDbEntity
  8
0
  6
Continuous
 62
     7
370
    25
100
AcDbLine
 10
5.3144668246
 20
5.3132819905
 30
0.0
 11
3.8944668246
 21
5.3132819905
 31
0.0
  0
LINE
  5
B0
330
1F
100
AcDbEntity
  8
0
  6
Continuous
 62
     7
370
    25
100
AcDbLine
 10
3.8944668246
 20
5.3132819905
 30
0.0
 11
3.8944668246
 21
3.9132819905
 31
0.0
  0
CIRCLE
  5
B1
330
1F
100
AcDbEntity
  8
0
  6
Continuous
 62
     7
370
    25
100
AcDbCircle
 10
5.5044668246
 20
4.9632819905
 30
0.0
 40
0.0445000000000002
  0
CIRCLE
  5
B2
330
1F
100
AcDbEntity
  8
0
  6
Continuous
 62
     7
370
    25
100
AcDbCircle
 10
5.5044668246
 20
4.2632819905
 30
0.0
 40
0.0445000000000002
  0
CIRCLE
  5
B3
330
1F
100
AcDbEntity
  8
0
  6
Continuous
 62
     7
370
    25
100
AcDbCircle
 10
3.7044668246
 20
4.2632819905
 30
0.0
 40
0.0445000000000002
  0
CIRCLE
  5
B4
330
1F
100
AcDbEntity
  8
0
  6
Continuous
 62
     7
370
    25
100
AcDbCircle
 10
3.7044668246
 20
4.9632819905
 30
0.0
 40
0.0445000000000002
  0
CIRCLE
  5
B5
330
1F
100
AcDbEntity
  8
0
  6
Continuous
 62
     7
370
    25
100
AcDbCircle
 10
6.3184668246
 20
5.6187819905
 30
0.0
 40
0.0532500000000002
  0
DIMENSION
  5
B6
330
1F
100
AcDbEntity
  8
DEFAULT
 62
     7
100
AcDbDimension
  2
_D
 10
7.4243880845
 20
3.5507819905
 30
0.0
 11
7.4243880845
 21
4.6757819905
 31
0.0
 70
   160
  1
<>
 71
     2
 42
-1.0
  3
SLDDIMSTYLE0
100
AcDbAlignedDimension
 13
6.4404668246
 23
5.8007819905
 33
0.0
 14
6.7944668246
 24
3.5507819905
 34
0.0
 50
90.0
100
AcDbRotatedDimension
  0
DIMENSION
  5
CF
330
1F
100
AcDbEntity
  8
DEFAULT
 62
     7
100
AcDbDimension
  2
_D_1
 10
6.7944668246
 20
2.9208607307
 30
0.0
 11
4.4294668246
 21
2.9208607307
 31
0.0
 70
   160
  1
<>
 71
     2
 42
-1.0
  3
SLDDIMSTYLE1
100
AcDbAlignedDimension
 13
2.0644668246
 23
4.3307819905
 33
0.0
 14
6.7944668246
 24
3.5507819905
 34
0.0
 50
0.0
100
AcDbRotatedDimension
  0
INSERT
  5
EF
330
1F
100
AcDbEntity
  8
DEFAULT
100
AcDbBlockReference
  2
SW_CENTERMARKSYMBOL_17
 10
6.3184668246
 20
5.6187819905
 30
0.0
  0
INSERT
  5
FB
330
1F
100
AcDbEntity
  8
DEFAULT
100
AcDbBlockReference
  2
SW_CENTERMARKSYMBOL_18
 10
5.5044668246
 20
4.9632819905
 30
0.0
  0
INSERT
  5
107
330
1F
100
AcDbEntity
  8
DEFAULT
100
AcDbBlockReference
  2
SW_CENTERMARKSYMBOL_19
 10
5.5044668246
 20
4.2632819905
 30
0.0
  0
INSERT
  5
113
330
1F
100
AcDbEntity
  8
DEFAULT
100
AcDbBlockReference
  2
SW_CENTERMARKSYMBOL_20
 10
3.7044668246
 20
4.2632819905
 30
0.0
  0
INSERT
  5
11F
330
1F
100
AcDbEntity
  8
DEFAULT
100
AcDbBlockReference
  2
SW_CENTERMARKSYMBOL_21
 10
3.7044668246
 20
4.9632819905
 30
0.0
  0
CIRCLE
  5
120
330
1F
100
AcDbEntity
  8
0
  6
HIDDEN
 62
     7
370
    18
100
AcDbCircle
 10
6.3184668246
 20
5.6187819905
 30
0.0
 40
0.0689999999999991
  0
CIRCLE
  5
121
330
1F
100
AcDbEntity
  8
0
  6
HIDDEN
 62
     7
370
    18
100
AcDbCircle
 10
6.3184668246
 20
5.6187819905
 30
0.0
 40
0.0689999999999991
  0
CIRCLE
  5
122
330
1F
100
AcDbEntity
  8
0
  6
HIDDEN
 62
     7
370
    18
100
AcDbCircle
 10
5.5044668246
 20
4.9632819905
 30
0.0
 40
0.056
  0
CIRCLE
  5
123
330
1F
100
AcDbEntity
  8
0
  6
HIDDEN
 62
     7
370
    18
100
AcDbCircle
 10
5.5044668246
 20
4.2632819905
 30
0.0
 40
0.056
  0
CIRCLE
  5
124
330
1F
100
AcDbEntity
  8
0
  6
HIDDEN
 62
     7
370
    18
100
AcDbCircle
 10
3.7044668246
 20
4.2632819905
 30
0.0
 40
0.056
  0
CIRCLE
  5
125
330
1F
100
AcDbEntity
  8
0
  6
HIDDEN
 62
     7
370
    18
100
AcDbCircle
 10
3.7044668246
 20
4.9632819905
 30
0.0
 40
0.056
  0
LWPOLYLINE
  5
126
330
1F
100
AcDbEntity
  8
0
  6
Continuous
 62
     7
370
    25
100
AcDbPolyline
 90
       25
 70
   128
 43
0.0
 10
7.0805388867
 20
8.267672413
 10
7.0792559176
 20
8.2796667086
 10
7.0754943321
 20
8.292324949
 10
7.0695104959
 20
8.3047845421
 10
7.0617121882
 20
8.3161963224
 10
7.0526309113
 20
8.3257825721
 10
7.0428854896
 20
8.3328900696
 10
7.033140068
 20
8.3370343964
 10
7.0240586874
 20
8.3379332258
 10
7.0162604833
 20
8.33552512
 10
7.0102766472
 20
8.3299743171
 10
7.0065150617
 20
8.3216591108
 10
7.0052319888
 20
8.3111461598
 10
7.0065150617
 20
8.2991518044
 10
7.0102766472
 20
8.2864935639
 10
7.0162604833
 20
8.2740339709
 10
7.0240586874
 20
8.2626222504
 10
7.033140068
 20
8.2530359409
 10
7.0428854896
 20
8.2459284434
 10
7.0526309113
 20
8.2417841165
 10
7.0617121882
 20
8.240885347
 10
7.0695104959
 20
8.2432933929
 10
7.0754943321
 20
8.2488441958
 10
7.0792559176
 20
8.2571594021
 10
7.0805388867
 20
8.267672413
  0
LINE
  5
127
330
1F
100
AcDbEntity
  8
0
  6
Continuous
 62
     7
370
    25
100
AcDbLine
 10
7.1291524349
 20
8.3882188456
 30
0.0
 11
6.0076811223
 21
9.0356304539
 31
0.0
  0
LINE
  5
128
330
1F
100
AcDbEntity
  8
0
  6
Continuous
 62
     7
370
    25
100
AcDbLine
 10
7.1503656573
 20
8.3514764668
 30
0.0
 11
7.1291524349
 21
8.3882188456
 31
0.0
  0
LINE
  5
129
330
1F
100
AcDbEntity
  8
0
  6
Continuous
 62
     7
370
    25
100
AcDbLine
 10
7.1503656573
 20
8.0264932491
 30
0.0
 11
7.1503656573
 21
8.3514764668
 31
0.0
  0
LINE
  5
12A
330
1F
100
AcDbEntity
  8
0
  6
Continuous
 62
     7
370
    25
100
AcDbLine
 10
7.3794683136
 20
7.8942351007
 30
0.0
 11
7.1503656573
 21
8.0264932491
 31
0.0
  0
LINE
  5
12B
330
1F
100
AcDbEntity
  8
0
  6
Continuous
 62
     7
370
    25
100
AcDbLine
 10
7.3794683136
 20
7.7411336816
 30
0.0
 11
7.3794683136
 21
7.8942351007
 31
0.0
  0
LINE
  5
12C
330
1F
100
AcDbEntity
  8
0
  6
Continuous
 62
     7
370
    25
100
AcDbLine
 10
7.3299707602
 20
7.769708011
 30
0.0
 11
7.3794683136
 21
7.7411336816
 31
0.0
  0
LINE
  5
12D
330
1F
100
AcDbEntity
  8
0
  6
Continuous
 62
     7
370
    25
100
AcDbLine
 10
7.3299707602
 20
7.4557480771
 30
0.0
 11
7.3299707602
 21
7.769708011
 31
0.0
  0
LINE
  5
12E
330
1F
100
AcDbEntity
  8
0
  6
Continuous
 62
     7
370
    25
100
AcDbLine
 10
7.3794683136
 20
7.4271737477
 30
0.0
 11
7.3299707602
 21
7.4557480771
 31
0.0
  0
LINE
  5
12F
330
1F
100
AcDbEntity
  8
0
  6
Continuous
 62
     7
370
    25
100
AcDbLine
 10
7.3794683136
 20
7.1209709395
 30
0.0
 11
7.3794683136
 21
7.4271737477
 31
0.0
  0
LINE
  5
130
330
1F
100
AcDbEntity
  8
0
  6
Continuous
 62
     7
370
    25
100
AcDbLine
 10
7.3299707602
 20
7.1495452689
 30
0.0
 11
7.3794683136
 21
7.1209709395
 31
0.0
  0
LINE
  5
131
330
1F
100
AcDbEntity
  8
0
  6
Continuous
 62
     7
370
    25
100
AcDbLine
 10
7.3299707602
 20
6.5881734637
 30
0.0
 11
7.3299707602
 21
7.1495452689
 31
0.0
  0
LINE
  5
132
330
1F
100
AcDbEntity
  8
0
  6
Continuous
 62
     7
370
    25
100
AcDbLine
 10
7.3794683136
 20
6.5595991344
 30
0.0
 11
7.3299707602
 21
6.5881734637
 31
0.0
  0
LINE
  5
133
330
1F
100
AcDbEntity
  8
0
  6
Continuous
 62
     7
370
    25
100
AcDbLine
 10
7.3794683136
 20
6.4064977153
 30
0.0
 11
7.3794683136
 21
6.5595991344
 31
0.0
  0
LINE
  5
134
330
1F
100
AcDbEntity
  8
0
  6
Continuous
 62
     7
370
    25
100
AcDbLine
 10
6.9834885085
 20
6.635091991
 30
0.0
 11
7.3794683136
 21
6.4064977153
 31
0.0
  0
LINE
  5
135
330
1F
100
AcDbEntity
  8
0
  6
Continuous
 62
     7
370
    25
100
AcDbLine
 10
6.9834885085
 20
6.7085806698
 30
0.0
 11
6.9834885085
 21
6.635091991
 31
0.0
  0
LINE
  5
136
330
1F
100
AcDbEntity
  8
0
  6
Continuous
 62
     7
370
    25
100
AcDbLine
 10
6.7996407196
 20
6.8147137392
 30
0.0
 11
6.9834885085
 21
6.7085806698
 31
0.0
  0
LINE
  5
137
330
1F
100
AcDbEntity
  8
0
  6
Continuous
 62
     7
370
    25
100
AcDbLine
 10
6.7996407196
 20
6.7412250604
 30
0.0
 11
6.7996407196
 21
6.8147137392
 31
0.0
  0
LINE
  5
138
330
1F
100
AcDbEntity
  8
0
  6
Continuous
 62
     7
370
    25
100
AcDbLine
 10
4.8621681387
 20
7.8597041739
 30
0.0
 11
6.7996407196
 21
6.7412250604
 31
0.0
  0
LINE
  5
139
330
1F
100
AcDbEntity
  8
0
  6
Continuous
 62
     7
370
    25
100
AcDbLine
 10
4.8621681387
 20
7.9331928526
 30
0.0
 11
4.8621681387
 21
7.8597041739
 31
0.0
  0
LINE
  5
13A
330
1F
100
AcDbEntity
  8
0
  6
Continuous
 62
     7
370
    25
100
AcDbLine
 10
4.6783203498
 20
8.0393259221
 30
0.0
 11
4.8621681387
 21
7.9331928526
 31
0.0
  0
LINE
  5
13B
330
1F
100
AcDbEntity
  8
0
  6
Continuous
 62
     7
370
    25
100
AcDbLine
 10
4.6783203498
 20
7.9658372433
 30
0.0
 11
4.6783203498
 21
8.0393259221
 31
0.0
  0
LINE
  5
13C
330
1F
100
AcDbEntity
  8
0
  6
Continuous
 62
     7
370
    25
100
AcDbLine
 10
4.1409192005
 20
8.2760723232
 30
0.0
 11
4.6783203498
 21
7.9658372433
 31
0.0
  0
LINE
  5
13D
330
1F
100
AcDbEntity
  8
0
  6
Continuous
 62
     7
370
    25
100
AcDbLine
 10
4.1197059782
 20
8.3128147021
 30
0.0
 11
4.1409192005
 21
8.2760723232
 31
0.0
  0
LINE
  5
13E
330
1F
100
AcDbEntity
  8
0
  6
Continuous
 62
     7
370
    25
100
AcDbLine
 10
4.1197059782
 20
8.9007240723
 30
0.0
 11
4.1197059782
 21
8.3128147021
 31
0.0
  0
LINE
  5
13F
330
1F
100
AcDbEntity
  8
0
  6
Continuous
 62
     7
370
    25
100
AcDbLine
 10
4.0560664148
 20
8.9374624103
 30
0.0
 11
4.1197059782
 21
8.9007240723
 31
0.0
  0
LINE
  5
140
330
1F
100
AcDbEntity
  8
0
  6
Continuous
 62
     7
370
    25
100
AcDbLine
 10
4.0348531924
 20
8.9742047741
 30
0.0
 11
4.0560664148
 21
8.9374624103
 31
0.0
  0
LINE
  5
141
330
1F
100
AcDbEntity
  8
0
  6
Continuous
 62
     7
370
    25
100
AcDbLine
 10
4.0348531924
 20
9.141187373
 30
0.0
 11
4.0348531924
 21
8.9742047741
 31
0.0
  0
LINE
  5
142
330
1F
100
AcDbEntity
  8
0
  6
Continuous
 62
     7
370
    25
100
AcDbLine
 10
4.0631374198
 20
9.1248592361
 30
0.0
 11
4.0348531924
 21
9.141187373
 31
0.0
  0
LWPOLYLINE
  5
143
330
1F
100
AcDbEntity
  8
0
  6
Continuous
 62
     7
370
    25
100
AcDbPolyline
 90
       15
 70
   128
 43
0.0
 10
4.0631374198
 20
9.2522395996
 10
4.0754104078
 20
9.2435577096
 10
4.0870679938
 20
9.2321174634
 10
4.0975256806
 20
9.2184924878
 10
4.1062589142
 20
9.2033660873
 10
4.1128298401
 20
9.1874967285
 10
4.1169089789
 20
9.1716801567
 10
4.1182918187
 20
9.1567094611
 10
4.1169089789
 20
9.1433353583
 10
4.1128298401
 20
9.1322284599
 10
4.1062589142
 20
9.1239457307
 10
4.0975256806
 20
9.1189025071
 10
4.0870679938
 20
9.1173517196
 10
4.0754104078
 20
9.1193710357
 10
4.0631374198
 20
9.1248592361
  0
LINE
  5
144
330
1F
100
AcDbEntity
  8
0
  6
Continuous
 62
     7
370
    25
100
AcDbLine
 10
4.0348531924
 20
9.2685677365
 30
0.0
 11
4.0631374198
 21
9.2522395996
 31
0.0
  0
LINE
  5
145
330
1F
100
AcDbEntity
  8
0
  6
Continuous
 62
     7
370
    25
100
AcDbLine
 10
4.0348531924
 20
9.4355503353
 30
0.0
 11
4.0348531924
 21
9.2685677365
 31
0.0
  0
LINE
  5
146
330
1F
100
AcDbEntity
  8
0
  6
Continuous
 62
     7
370
    25
100
AcDbLine
 10
4.0560664148
 20
9.447800434
 30
0.0
 11
4.0348531924
 21
9.4355503353
 31
0.0
  0
LINE
  5
147
330
1F
100
AcDbEntity
  8
0
  6
Continuous
 62
     7
370
    25
100
AcDbLine
 10
4.1197059782
 20
9.411062096
 30
0.0
 11
4.0560664148
 21
9.447800434
 31
0.0
  0
LINE
  5
148
330
1F
100
AcDbEntity
  8
0
  6
Continuous
 62
     7
370
    25
100
AcDbLine
 10
4.1197059782
 20
10.1010390591
 30
0.0
 11
4.1197059782
 21
9.411062096
 31
0.0
  0
LINE
  5
149
330
1F
100
AcDbEntity
  8
0
  6
Continuous
 62
     7
370
    25
100
AcDbLine
 10
4.1409192005
 20
10.1132891727
 30
0.0
 11
4.1197059782
 21
10.1010390591
 31
0.0
  0
LINE
  5
14A
330
1F
100
AcDbEntity
  8
0
  6
Continuous
 62
     7
370
    25
100
AcDbLine
 10
4.6783203498
 20
9.8030540927
 30
0.0
 11
4.1409192005
 21
10.1132891727
 31
0.0
  0
LINE
  5
14B
330
1F
100
AcDbEntity
  8
0
  6
Continuous
 62
     7
370
    25
100
AcDbLine
 10
4.6783203498
 20
9.6495444188
 30
0.0
 11
4.6783203498
 21
9.8030540927
 31
0.0
  0
LINE
  5
14C
330
1F
100
AcDbEntity
  8
0
  6
Continuous
 62
     7
370
    25
100
AcDbLine
 10
4.8621681387
 20
9.5434113494
 30
0.0
 11
4.6783203498
 21
9.6495444188
 31
0.0
  0
LINE
  5
14D
330
1F
100
AcDbEntity
  8
0
  6
Continuous
 62
     7
370
    25
100
AcDbLine
 10
4.8621681387
 20
9.6969210233
 30
0.0
 11
4.8621681387
 21
9.5434113494
 31
0.0
  0
LINE
  5
14E
330
1F
100
AcDbEntity
  8
0
  6
Continuous
 62
     7
370
    25
100
AcDbLine
 10
5.654127736
 20
9.2397324793
 30
0.0
 11
4.8621681387
 21
9.6969210233
 31
0.0
  0
LINE
  5
14F
330
1F
100
AcDbEntity
  8
0
  6
Continuous
 62
     7
370
    25
100
AcDbLine
 10
5.654127736
 20
9.1662438006
 30
0.0
 11
5.654127736
 21
9.2397324793
 31
0.0
  0
LINE
  5
150
330
1F
100
AcDbEntity
  8
0
  6
Continuous
 62
     7
370
    25
100
AcDbLine
 10
6.0076811223
 20
8.9621417751
 30
0.0
 11
5.654127736
 21
9.1662438006
 31
0.0
  0
LINE
  5
151
330
1F
100
AcDbEntity
  8
0
  6
Continuous
 62
     7
370
    25
100
AcDbLine
 10
6.0076811223
 20
9.0356304539
 30
0.0
 11
6.0076811223
 21
8.9621417751
 31
0.0
  0
LINE
  5
152
330
1F
100
AcDbEntity
  8
0
  6
Continuous
 62
     7
370
    25
100
AcDbLine
 10
5.3288586159
 20
7.886285545
 30
0.0
 11
6.3329502424
 21
7.3066357872
 31
0.0
  0
LINE
  5
153
330
1F
100
AcDbEntity
  8
0
  6
Continuous
 62
     7
370
    25
100
AcDbLine
 10
6.3329502424
 20
7.3066357872
 30
0.0
 11
6.3329502424
 21
8.449792946
 31
0.0
  0
LINE
  5
154
330
1F
100
AcDbEntity
  8
0
  6
Continuous
 62
     7
370
    25
100
AcDbLine
 10
6.3329502424
 20
8.449792946
 30
0.0
 11
5.3288586159
 21
9.0294427038
 31
0.0
  0
LINE
  5
155
330
1F
100
AcDbEntity
  8
0
  6
Continuous
 62
     7
370
    25
100
AcDbLine
 10
5.3288586159
 20
9.0294427038
 30
0.0
 11
5.3288586159
 21
7.886285545
 31
0.0
  0
LWPOLYLINE
  5
156
330
1F
100
AcDbEntity
  8
0
  6
Continuous
 62
     7
370
    25
100
AcDbPolyline
 90
       23
 70
   128
 43
0.0
 10
6.4987667715
 20
8.0682798116
 10
6.4974922027
 20
8.0792526625
 10
6.4937716337
 20
8.0908082057
 10
6.4879065429
 20
8.1020102617
 10
6.4803720678
 20
8.1119512897
 10
6.4717786324
 20
8.1198259449
 10
6.4628224271
 20
8.1249962521
 10
6.4542289916
 20
8.1270433664
 10
6.4466945165
 20
8.1258014582
 10
6.4408294258
 20
8.1213710918
 10
6.4371089086
 20
8.1141111962
 10
6.4358342879
 20
8.104609961
 10
6.4371089086
 20
8.0936370802
 10
6.4408294258
 20
8.0820815669
 10
6.4466945165
 20
8.0708795109
 10
6.4542289916
 20
8.0609384829
 10
6.4628224271
 20
8.0530638128
 10
6.4717786324
 20
8.0478935055
 10
6.4803720678
 20
8.0458464062
 10
6.4879065429
 20
8.0470883144
 10
6.4937716337
 20
8.0515186808
 10
6.4974922027
 20
8.0587785464
 10
6.4987667715
 20
8.0682798116
  0
LWPOLYLINE
  5
157
330
1F
100
AcDbEntity
  8
0
  6
Continuous
 62
     7
370
    25
100
AcDbPolyline
 90
       23
 70
   128
 43
0.0
 10
6.4987667715
 20
7.4967012322
 10
6.4974922027
 20
7.5076740831
 10
6.4937716337
 20
7.5192296263
 10
6.4879065429
 20
7.5304316824
 10
6.4803720678
 20
7.5403727104
 10
6.4717786324
 20
7.5482473805
 10
6.4628224271
 20
7.5534176877
 10
6.4542289916
 20
7.555464787
 10
6.4466945165
 20
7.5542228788
 10
6.4408294258
 20
7.5497925124
 10
6.4371089086
 20
7.5425326169
 10
6.4358342879
 20
7.5330313817
 10
6.4371089086
 20
7.5220585008
 10
6.4408294258
 20
7.5105029875
 10
6.4466945165
 20
7.4993009315
 10
6.4542289916
 20
7.4893599035
 10
6.4628224271
 20
7.4814852484
 10
6.4717786324
 20
7.4763149411
 10
6.4803720678
 20
7.4742678269
 10
6.4879065429
 20
7.475509735
 10
6.4937716337
 20
7.4799401015
 10
6.4974922027
 20
7.4871999671
 10
6.4987667715
 20
7.4967012322
  0
LWPOLYLINE
  5
158
330
1F
100
AcDbEntity
  8
0
  6
Continuous
 62
     7
370
    25
100
AcDbPolyline
 90
       23
 70
   128
 43
0.0
 10
5.2259745704
 20
8.2314685299
 10
5.2246999497
 20
8.2424414108
 10
5.2209794325
 20
8.2539969241
 10
5.2151143418
 20
8.2651989801
 10
5.2075798667
 20
8.2751400081
 10
5.1989864312
 20
8.2830146782
 10
5.1900302259
 20
8.2881849855
 10
5.1814367905
 20
8.2902320847
 10
5.1739023154
 20
8.2889901766
 10
5.1680372246
 20
8.2845598101
 10
5.1643166556
 20
8.2772999445
 10
5.1630420868
 20
8.2677986794
 10
5.1643166556
 20
8.2568258285
 10
5.1680372246
 20
8.2452702853
 10
5.1739023154
 20
8.2340682292
 10
5.1814367905
 20
8.2241272012
 10
5.1900302259
 20
8.2162525461
 10
5.1989864312
 20
8.2110822388
 10
5.2075798667
 20
8.2090351246
 10
5.2151143418
 20
8.2102770328
 10
5.2209794325
 20
8.2147073992
 10
5.2246999497
 20
8.2219672947
 10
5.2259745704
 20
8.2314685299
  0
LWPOLYLINE
  5
159
330
1F
100
AcDbEntity
  8
0
  6
Continuous
 62
     7
370
    25
100
AcDbPolyline
 90
       23
 70
   128
 43
0.0
 10
5.2259745704
 20
8.8030471093
 10
5.2246999497
 20
8.8140199902
 10
5.2209794325
 20
8.8255755034
 10
5.2151143418
 20
8.8367775595
 10
5.2075798667
 20
8.8467185875
 10
5.1989864312
 20
8.8545932426
 10
5.1900302259
 20
8.8597635499
 10
5.1814367905
 20
8.8618106641
 10
5.1739023154
 20
8.8605687559
 10
5.1680372246
 20
8.8561383895
 10
5.1643166556
 20
8.8488785239
 10
5.1630420868
 20
8.8393772588
 10
5.1643166556
 20
8.8284044078
 10
5.1680372246
 20
8.8168488647
 10
5.1739023154
 20
8.8056468086
 10
5.1814367905
 20
8.7957057806
 10
5.1900302259
 20
8.7878311105
 10
5.1989864312
 20
8.7826608032
 10
5.2075798667
 20
8.780613704
 10
5.2151143418
 20
8.7818556122
 10
5.2209794325
 20
8.7862859786
 10
5.2246999497
 20
8.7935458741
 10
5.2259745704
 20
8.8030471093
  0
LINE
  5
15A
330
1F
100
AcDbEntity
  8
0
  6
Continuous
 62
     7
370
    25
100
AcDbLine
 10
7.1793570162
 20
8.4172013335
 30
0.0
 11
7.1291524349
 21
8.3882188456
 31
0.0
  0
LINE
  5
15B
330
1F
100
AcDbEntity
  8
0
  6
Continuous
 62
     7
370
    25
100
AcDbLine
 10
7.2005702386
 20
8.3804589547
 30
0.0
 11
7.1503656573
 21
8.3514764668
 31
0.0
  0
LINE
  5
15C
330
1F
100
AcDbEntity
  8
0
  6
Continuous
 62
     7
370
    25
100
AcDbLine
 10
7.2005702386
 20
8.3804589547
 30
0.0
 11
7.1793570162
 21
8.4172013335
 31
0.0
  0
LINE
  5
15D
330
1F
100
AcDbEntity
  8
0
  6
Continuous
 62
     7
370
    25
100
AcDbLine
 10
7.2005702386
 20
8.0554757369
 30
0.0
 11
7.1503656573
 21
8.0264932491
 31
0.0
  0
LINE
  5
15E
330
1F
100
AcDbEntity
  8
0
  6
Continuous
 62
     7
370
    25
100
AcDbLine
 10
7.2005702386
 20
8.0554757369
 30
0.0
 11
7.2005702386
 21
8.3804589547
 31
0.0
  0
LINE
  5
15F
330
1F
100
AcDbEntity
  8
0
  6
Continuous
 62
     7
370
    25
100
AcDbLine
 10
6.0076811223
 20
9.0356304539
 30
0.0
 11
6.0578857036
 21
9.0646129417
 31
0.0
  0
LINE
  5
160
330
1F
100
AcDbEntity
  8
0
  6
Continuous
 62
     7
370
    25
100
AcDbLine
 10
7.1793570162
 20
8.4172013335
 30
0.0
 11
6.0578857036
 21
9.0646129417
 31
0.0
  0
LINE
  5
161
330
1F
100
AcDbEntity
  8
0
  6
Continuous
 62
     7
370
    25
100
AcDbLine
 10
7.4296728949
 20
7.9232175886
 30
0.0
 11
7.3794683136
 21
7.8942351007
 31
0.0
  0
LINE
  5
162
330
1F
100
AcDbEntity
  8
0
  6
Continuous
 62
     7
370
    25
100
AcDbLine
 10
7.4296728949
 20
7.7701161695
 30
0.0
 11
7.3794683136
 21
7.7411336816
 31
0.0
  0
LINE
  5
163
330
1F
100
AcDbEntity
  8
0
  6
Continuous
 62
     7
370
    25
100
AcDbLine
 10
7.4296728949
 20
7.7701161695
 30
0.0
 11
7.4296728949
 21
7.9232175886
 31
0.0
  0
LINE
  5
164
330
1F
100
AcDbEntity
  8
0
  6
Continuous
 62
     7
370
    25
100
AcDbLine
 10
7.4296728949
 20
7.9232175886
 30
0.0
 11
7.2005702386
 21
8.0554757369
 31
0.0
  0
ARC
  5
165
330
1F
100
AcDbEntity
  8
0
  6
Continuous
 62
     7
370
    25
100
AcDbCircle
 10
7.1442061358
 20
8.3479004119
 30
0.0
 40
0.0897814285915115
100
AcDbArc
 50
198.5871675519
 51
221.4074241172
  0
LINE
  5
166
330
1F
100
AcDbEntity
  8
0
  6
Continuous
 62
     7
370
    25
100
AcDbLine
 10
7.3801753415
 20
7.484730565
 30
0.0
 11
7.3299707602
 21
7.4557480771
 31
0.0
  0
LINE
  5
167
330
1F
100
AcDbEntity
  8
0
  6
Continuous
 62
     7
370
    25
100
AcDbLine
 10
7.3801753415
 20
7.484730565
 30
0.0
 11
7.3801753415
 21
7.7415419521
 31
0.0
  0
LINE
  5
168
330
1F
100
AcDbEntity
  8
0
  6
Continuous
 62
     7
370
    25
100
AcDbLine
 10
7.4296728949
 20
7.4561562356
 30
0.0
 11
7.3794683136
 21
7.4271737477
 31
0.0
  0
LINE
  5
169
330
1F
100
AcDbEntity
  8
0
  6
Continuous
 62
     7
370
    25
100
AcDbLine
 10
7.4296728949
 20
7.1499534274
 30
0.0
 11
7.3794683136
 21
7.1209709395
 31
0.0
  0
LINE
  5
16A
330
1F
100
AcDbEntity
  8
0
  6
Continuous
 62
     7
370
    25
100
AcDbLine
 10
7.4296728949
 20
7.1499534274
 30
0.0
 11
7.4296728949
 21
7.4561562356
 31
0.0
  0
LINE
  5
16B
330
1F
100
AcDbEntity
  8
0
  6
Continuous
 62
     7
370
    25
100
AcDbLine
 10
7.4296728949
 20
7.4561562356
 30
0.0
 11
7.3801753415
 21
7.484730565
 31
0.0
  0
LINE
  5
16C
330
1F
100
AcDbEntity
  8
0
  6
Continuous
 62
     7
370
    25
100
AcDbLine
 10
7.3801753415
 20
6.6171559516
 30
0.0
 11
7.3299707602
 21
6.5881734637
 31
0.0
  0
LINE
  5
16D
330
1F
100
AcDbEntity
  8
0
  6
Continuous
 62
     7
370
    25
100
AcDbLine
 10
7.3801753415
 20
6.6171559516
 30
0.0
 11
7.3801753415
 21
7.121379195
 31
0.0
  0
LINE
  5
16E
330
1F
100
AcDbEntity
  8
0
  6
Continuous
 62
     7
370
    25
100
AcDbLine
 10
5.654127736
 20
9.1662438006
 30
0.0
 11
5.7043323173
 21
9.1952262885
 31
0.0
  0
LINE
  5
16F
330
1F
100
AcDbEntity
  8
0
  6
Continuous
 62
     7
370
    25
100
AcDbLine
 10
6.0076811223
 20
9.0201067509
 30
0.0
 11
5.7043323173
 21
9.1952262885
 31
0.0
  0
LINE
  5
170
330
1F
100
AcDbEntity
  8
0
  6
Continuous
 62
     7
370
    25
100
AcDbLine
 10
7.4296728949
 20
6.5885816223
 30
0.0
 11
7.3794683136
 21
6.5595991344
 31
0.0
  0
LINE
  5
171
330
1F
100
AcDbEntity
  8
0
  6
Continuous
 62
     7
370
    25
100
AcDbLine
 10
7.4296728949
 20
6.5885816223
 30
0.0
 11
7.3801753415
 21
6.6171559516
 31
0.0
  0
LINE
  5
172
330
1F
100
AcDbEntity
  8
0
  6
Continuous
 62
     7
370
    25
100
AcDbLine
 10
7.4296728949
 20
6.4354802032
 30
0.0
 11
7.3794683136
 21
6.4064977153
 31
0.0
  0
LINE
  5
173
330
1F
100
AcDbEntity
  8
0
  6
Continuous
 62
     7
370
    25
100
AcDbLine
 10
7.4296728949
 20
6.4354802032
 30
0.0
 11
7.4296728949
 21
6.5885816223
 31
0.0
  0
LINE
  5
174
330
1F
100
AcDbEntity
  8
0
  6
Continuous
 62
     7
370
    25
100
AcDbLine
 10
5.654127736
 20
9.2397324793
 30
0.0
 11
5.7043323173
 21
9.2687149672
 31
0.0
  0
LINE
  5
175
330
1F
100
AcDbEntity
  8
0
  6
Continuous
 62
     7
370
    25
100
AcDbLine
 10
5.7043323173
 20
9.1952262885
 30
0.0
 11
5.7043323173
 21
9.2687149672
 31
0.0
  0
LINE
  5
176
330
1F
100
AcDbEntity
  8
0
  6
Continuous
 62
     7
370
    25
100
AcDbLine
 10
4.91237272
 20
9.7259035112
 30
0.0
 11
4.8621681387
 21
9.6969210233
 31
0.0
  0
LINE
  5
177
330
1F
100
AcDbEntity
  8
0
  6
Continuous
 62
     7
370
    25
100
AcDbLine
 10
5.7043323173
 20
9.2687149672
 30
0.0
 11
4.91237272
 21
9.7259035112
 31
0.0
  0
LINE
  5
178
330
1F
100
AcDbEntity
  8
0
  6
Continuous
 62
     7
370
    25
100
AcDbLine
 10
6.8498453009
 20
6.7702075483
 30
0.0
 11
6.7996407196
 21
6.7412250604
 31
0.0
  0
LINE
  5
179
330
1F
100
AcDbEntity
  8
0
  6
Continuous
 62
     7
370
    25
100
AcDbLine
 10
6.8498453009
 20
6.7702075483
 30
0.0
 11
6.8498453009
 21
6.7857312905
 31
0.0
  0
LINE
  5
17A
330
1F
100
AcDbEntity
  8
0
  6
Continuous
 62
     7
370
    25
100
AcDbLine
 10
5.3790631972
 20
7.9152680329
 30
0.0
 11
5.3288586159
 21
7.886285545
 31
0.0
  0
LINE
  5
17B
330
1F
100
AcDbEntity
  8
0
  6
Continuous
 62
     7
370
    25
100
AcDbLine
 10
5.3790631972
 20
7.9152680329
 30
0.0
 11
6.3329502424
 21
7.364600763
 31
0.0
  0
LINE
  5
17C
330
1F
100
AcDbEntity
  8
0
  6
Continuous
 62
     7
370
    25
100
AcDbLine
 10
5.3790631972
 20
9.0004601952
 30
0.0
 11
5.3790631972
 21
7.9152680329
 31
0.0
  0
LINE
  5
17D
330
1F
100
AcDbEntity
  8
0
  6
Continuous
 62
     7
370
    25
100
AcDbLine
 10
4.7285249311
 20
9.6785269067
 30
0.0
 11
4.6783203498
 21
9.6495444188
 31
0.0
  0
LINE
  5
17E
330
1F
100
AcDbEntity
  8
0
  6
Continuous
 62
     7
370
    25
100
AcDbLine
 10
4.8621681906
 20
9.6013762953
 30
0.0
 11
4.7285249311
 21
9.6785269067
 31
0.0
  0
LINE
  5
17F
330
1F
100
AcDbEntity
  8
0
  6
Continuous
 62
     7
370
    25
100
AcDbLine
 10
4.7285249311
 20
9.8320365806
 30
0.0
 11
4.6783203498
 21
9.8030540927
 31
0.0
  0
LINE
  5
180
330
1F
100
AcDbEntity
  8
0
  6
Continuous
 62
     7
370
    25
100
AcDbLine
 10
4.7285249311
 20
9.6785269067
 30
0.0
 11
4.7285249311
 21
9.8320365806
 31
0.0
  0
LINE
  5
181
330
1F
100
AcDbEntity
  8
0
  6
Continuous
 62
     7
370
    25
100
AcDbLine
 10
4.1911237819
 20
10.1422716606
 30
0.0
 11
4.1409192005
 21
10.1132891727
 31
0.0
  0
LINE
  5
182
330
1F
100
AcDbEntity
  8
0
  6
Continuous
 62
     7
370
    25
100
AcDbLine
 10
4.7285249311
 20
9.8320365806
 30
0.0
 11
4.1911237819
 21
10.1422716606
 31
0.0
  0
LINE
  5
183
330
1F
100
AcDbEntity
  8
0
  6
Continuous
 62
     7
370
    25
100
AcDbLine
 10
4.1062709961
 20
9.4767829219
 30
0.0
 11
4.0560664148
 21
9.447800434
 31
0.0
  0
LINE
  5
184
330
1F
100
AcDbEntity
  8
0
  6
Continuous
 62
     7
370
    25
100
AcDbLine
 10
4.1197059263
 20
9.4690271017
 30
0.0
 11
4.1062709961
 21
9.4767829219
 31
0.0
  0
LINE
  5
185
330
1F
100
AcDbEntity
  8
0
  6
Continuous
 62
     7
370
    25
100
AcDbLine
 10
4.1133420011
 20
9.1538417239
 30
0.0
 11
4.0631374198
 21
9.1248592361
 31
0.0
  0
LINE
  5
186
330
1F
100
AcDbEntity
  8
0
  6
Continuous
 62
     7
370
    25
100
AcDbLine
 10
4.1180866328
 20
9.1513387942
 30
0.0
 11
4.1133420011
 21
9.1538417239
 31
0.0
  0
LINE
  5
187
330
1F
100
AcDbEntity
  8
0
  6
Continuous
 62
     7
370
    25
100
AcDbLine
 10
4.0850577737
 20
9.1701698608
 30
0.0
 11
4.0348531924
 21
9.141187373
 31
0.0
  0
LINE
  5
188
330
1F
100
AcDbEntity
  8
0
  6
Continuous
 62
     7
370
    25
100
AcDbLine
 10
4.1133420011
 20
9.1538417239
 30
0.0
 11
4.0850577737
 21
9.1701698608
 31
0.0
  0
LINE
  5
189
330
1F
100
AcDbEntity
  8
0
  6
Continuous
 62
     7
370
    25
100
AcDbLine
 10
4.7285249311
 20
7.9948197312
 30
0.0
 11
4.6783203498
 21
7.9658372433
 31
0.0
  0
LINE
  5
18A
330
1F
100
AcDbEntity
  8
0
  6
Continuous
 62
     7
370
    25
100
AcDbLine
 10
4.7285249311
 20
7.9948197312
 30
0.0
 11
4.7285249311
 21
8.0103434733
 31
0.0
  0
LWPOLYLINE
  5
18B
330
1F
100
AcDbEntity
  8
0
  6
HIDDEN
 62
     7
370
    18
100
AcDbPolyline
 90
       17
 70
   128
 43
0.0
 10
7.0428854521
 20
8.233067964
 10
7.0242141866
 20
8.2481353834
 10
7.0083854521
 20
8.2694863795
 10
6.9978090298
 20
8.2938704565
 10
6.9940950842
 20
8.3175753599
 10
6.9978090298
 20
8.3369922329
 10
7.0083854521
 20
8.3491650327
 10
7.0242141866
 20
8.3522405608
 10
7.0428854521
 20
8.345750596
 10
7.0615567176
 20
8.3306831766
 10
7.0773854521
 20
8.3093321806
 10
7.0879618744
 20
8.2849481035
 10
7.09167582
 20
8.2612432001
 10
7.0879618744
 20
8.2418263271
 10
7.0773854521
 20
8.2296535273
 10
7.0615567176
 20
8.2265779992
 10
7.0428854521
 20
8.233067964
  0
LWPOLYLINE
  5
18C
330
1F
100
AcDbEntity
  8
0
  6
HIDDEN
 62
     7
370
    18
100
AcDbPolyline
 90
       17
 70
   128
 43
0.0
 10
7.0428854521
 20
8.233067964
 10
7.0242141866
 20
8.2481353834
 10
7.0083854521
 20
8.2694863795
 10
6.9978090298
 20
8.2938704565
 10
6.9940950842
 20
8.3175753599
 10
6.9978090298
 20
8.3369922329
 10
7.0083854521
 20
8.3491650327
 10
7.0242141866
 20
8.3522405608
 10
7.0428854521
 20
8.345750596
 10
7.0615567176
 20
8.3306831766
 10
7.0773854521
 20
8.3093321806
 10
7.0879618744
 20
8.2849481035
 10
7.09167582
 20
8.2612432001
 10
7.0879618744
 20
8.2418263271
 10
7.0773854521
 20
8.2296535273
 10
7.0615567176
 20
8.2265779992
 10
7.0428854521
 20
8.233067964
  0
LWPOLYLINE
  5
18D
330
1F
100
AcDbEntity
  8
0
  6
HIDDEN
 62
     7
370
    18
100
AcDbPolyline
 90
       17
 70
   128
 43
0.0
 10
6.4673005322
 20
8.0407185939
 10
6.4521470414
 20
8.0529472241
 10
6.4393005322
 20
8.0702755687
 10
6.4307167692
 20
8.0900655443
 10
6.4277025525
 20
8.1093043065
 10
6.4307167692
 20
8.1250629281
 10
6.4393005322
 20
8.1349423018
 10
6.4521470414
 20
8.1374383826
 10
6.4673005322
 20
8.1321711648
 10
6.482454023
 20
8.1199425345
 10
6.4953005322
 20
8.1026141899
 10
6.5038842952
 20
8.0828242143
 10
6.506898512
 20
8.0635854522
 10
6.5038842952
 20
8.0478268306
 10
6.4953005322
 20
8.0379474569
 10
6.482454023
 20
8.0354513761
 10
6.4673005322
 20
8.0407185939
  0
LWPOLYLINE
  5
18E
330
1F
100
AcDbEntity
  8
0
  6
HIDDEN
 62
     7
370
    18
100
AcDbPolyline
 90
       17
 70
   128
 43
0.0
 10
6.4673005322
 20
7.4691400255
 10
6.4521470414
 20
7.4813686558
 10
6.4393005322
 20
7.4986970004
 10
6.4307167692
 20
7.518486976
 10
6.4277025525
 20
7.5377257381
 10
6.4307167692
 20
7.5534843597
 10
6.4393005322
 20
7.5633637335
 10
6.4521470414
 20
7.5658598143
 10
6.4673005322
 20
7.5605925965
 10
6.482454023
 20
7.5483639662
 10
6.4953005322
 20
7.5310356216
 10
6.5038842952
 20
7.511245646
 10
6.506898512
 20
7.4920068839
 10
6.5038842952
 20
7.4762482623
 10
6.4953005322
 20
7.4663688885
 10
6.482454023
 20
7.4638728077
 10
6.4673005322
 20
7.4691400255
  0
LWPOLYLINE
  5
18F
330
1F
100
AcDbEntity
  8
0
  6
HIDDEN
 62
     7
370
    18
100
AcDbPolyline
 90
       17
 70
   128
 43
0.0
 10
5.1945083261
 20
8.2039073262
 10
5.1793548353
 20
8.2161359564
 10
5.1665083261
 20
8.2334643011
 10
5.1579245631
 20
8.2532542766
 10
5.1549103463
 20
8.2724930388
 10
5.1579245631
 20
8.2882516604
 10
5.1665083261
 20
8.2981310341
 10
5.1793548353
 20
8.3006271149
 10
5.1945083261
 20
8.2953598971
 10
5.2096618169
 20
8.2831312669
 10
5.2225083261
 20
8.2658029222
 10
5.2310920891
 20
8.2460129467
 10
5.2341063058
 20
8.2267741845
 10
5.2310920891
 20
8.2110155629
 10
5.2225083261
 20
8.2011361892
 10
5.2096618169
 20
8.1986401084
 10
5.1945083261
 20
8.2039073262
  0
LWPOLYLINE
  5
190
330
1F
100
AcDbEntity
  8
0
  6
HIDDEN
 62
     7
370
    18
100
AcDbPolyline
 90
       17
 70
   128
 43
0.0
 10
5.1945083261
 20
8.7754858945
 10
5.1793548353
 20
8.7877145248
 10
5.1665083261
 20
8.8050428694
 10
5.1579245631
 20
8.8248328449
 10
5.1549103463
 20
8.8440716071
 10
5.1579245631
 20
8.8598302287
 10
5.1665083261
 20
8.8697096024
 10
5.1793548353
 20
8.8722056832
 10
5.1945083261
 20
8.8669384654
 10
5.2096618169
 20
8.8547098352
 10
5.2225083261
 20
8.8373814906
 10
5.2310920891
 20
8.817591515
 10
5.2341063058
 20
8.7983527528
 10
5.2310920891
 20
8.7825941312
 10
5.2225083261
 20
8.7727147575
 10
5.2096618169
 20
8.7702186767
 10
5.1945083261
 20
8.7754858945
  0
ENDSEC
  0
SECTION
  2
OBJECTS
  0
DICTIONARY
  5
C
330
0
100
AcDbDictionary
281
     1
  3
ACAD_GROUP
350
D
  3
ACAD_LAYOUT
350
1A
  3
ACAD_MLINESTYLE
350
17
  3
ACAD_PLOTSETTINGS
350
19
  3
ACAD_PLOTSTYLENAME
350
E
  3
ACAD_SCALELIST
350
47
  0
DICTIONARY
  5
D
102
{ACAD_REACTORS
330
C
102
}
330
C
100
AcDbDictionary
281
     1
  0
DICTIONARY
  5
1A
102
{ACAD_REACTORS
330
C
102
}
330
C
100
AcDbDictionary
281
     1
  3
Layout1
350
1E
  3
Layout2
350
26
  3
Model
350
22
  0
DICTIONARY
  5
17
102
{ACAD_REACTORS
330
C
102
}
330
C
100
AcDbDictionary
281
     1
  3
Standard
350
18
  0
DICTIONARY
  5
19
102
{ACAD_REACTORS
330
C
102
}
330
C
100
AcDbDictionary
281
     1
  0
ACDBDICTIONARYWDFLT
  5
E
102
{ACAD_REACTORS
330
C
102
}
330
C
100
AcDbDictionary
281
     1
  3
Normal
350
F
100
AcDbDictionaryWithDefault
340
F
  0
DICTIONARY
  5
47
102
{ACAD_REACTORS
330
C
102
}
330
C
100
AcDbDictionary
281
     1
  3
A0
350
48
  3
A1
350
49
  3
A2
350
4A
  3
A3
350
4B
  3
A4
350
4C
  3
A5
350
4D
  3
A6
350
4E
  3
A7
350
4F
  3
A8
350
50
  3
A9
350
51
  3
B0
350
52
  3
B1
350
53
  3
B2
350
54
  3
B3
350
55
  3
B4
350
56
  3
B5
350
57
  3
B6
350
58
  3
B7
350
59
  3
B8
350
5A
  3
B9
350
5B
  3
C0
350
5C
  3
C1
350
5D
  3
C2
350
5E
  3
C3
350
5F
  3
C4
350
60
  3
C5
350
61
  3
C6
350
62
  3
C7
350
63
  3
C8
350
64
  3
C9
350
65
  3
D0
350
66
  3
D1
350
67
  3
D2
350
68
  0
LAYOUT
  5
1E
102
{ACAD_REACTORS
330
1A
102
}
330
1A
100
AcDbPlotSettings
  1

  2
none_device
  4

  6

 40
0.0
 41
0.0
 42
0.0
 43
0.0
 44
0.0
 45
0.0
 46
0.0
 47
0.0
 48
0.0
 49
0.0
140
0.0
141
0.0
142
1.0
143
1.0
 70
   688
 72
     0
 73
     0
 74
     5
  7

 75
    16
147
1.0
148
0.0
149
0.0
100
AcDbLayout
  1
Layout1
 70
     1
 71
     1
 10
0.0
 20
0.0
 11
12.0
 21
9.0
 12
0.0
 22
0.0
 32
0.0
 14
1.0000000000E+20
 24
1.0000000000E+20
 34
1.0000000000E+20
 15
-1.0000000000E+20
 25
-1.0000000000E+20
 35
-1.0000000000E+20
146
0.0
 13
0.0
 23
0.0
 33
0.0
 16
1.0
 26
0.0
 36
0.0
 17
0.0
 27
1.0
 37
0.0
 76
     0
330
1B
  0
LAYOUT
  5
26
102
{ACAD_REACTORS
330
1A
102
}
330
1A
100
AcDbPlotSettings
  1

  2
none_device
  4

  6

 40
0.0
 41
0.0
 42
0.0
 43
0.0
 44
0.0
 45
0.0
 46
0.0
 47
0.0
 48
0.0
 49
0.0
140
0.0
141
0.0
142
1.0
143
1.0
 70
   688
 72
     0
 73
     0
 74
     5
  7

 75
    16
147
1.0
148
0.0
149
0.0
100
AcDbLayout
  1
Layout2
 70
     1
 71
     2
 10
0.0
 20
0.0
 11
0.0
 21
0.0
 12
0.0
 22
0.0
 32
0.0
 14
0.0
 24
0.0
 34
0.0
 15
0.0
 25
0.0
 35
0.0
146
0.0
 13
0.0
 23
0.0
 33
0.0
 16
1.0
 26
0.0
 36
0.0
 17
0.0
 27
1.0
 37
0.0
 76
     0
330
23
  0
LAYOUT
  5
22
102
{ACAD_REACTORS
330
1A
102
}
330
1A
100
AcDbPlotSettings
  1

  2
none_device
  4
Letter_(8.50_x_11.00_Inches)
  6

 40
6.35
 41
6.35
 42
6.35000508
 43
6.35000508
 44
215.9
 45
279.4
 46
0.0
 47
0.0
 48
0.0
 49
0.0
140
0.0
141
0.0
142
1.0
143
1.0
 70
  1712
 72
     0
 73
     0
 74
     0
  7

 75
     0
147
1.0
148
0.0
149
0.0
100
AcDbLayout
  1
Model
 70
     1
 71
     0
 10
0.0
 20
0.0
 11
8.5
 21
11.0
 12
0.0
 22
0.0
 32
0.0
 14
0.0
 24
0.0
 34
0.0
 15
8.5
 25
11.0
 35
0.0
146
0.0
 13
0.0
 23
0.0
 33
0.0
 16
1.0
 26
0.0
 36
0.0
 17
0.0
 27
1.0
 37
0.0
 76
     0
330
1F
331
29
  0
MLINESTYLE
  5
18
102
{ACAD_REACTORS
330
17
102
}
330
17
100
AcDbMlineStyle
  2
Standard
 70
     0
  3

 62
   256
 51
90.0
 52
90.0
 71
     2
 49
0.5
 62
   256
  6
BYLAYER
 49
-0.5
 62
   256
  6
BYLAYER
  0
ACDBPLACEHOLDER
  5
F
102
{ACAD_REACTORS
330
E
102
}
330
E
  0
SCALE
  5
48
102
{ACAD_REACTORS
330
47
102
}
330
47
100
AcDbScale
 70
     0
300
1:1
140
1.0
141
1.0
290
     1
  0
SCALE
  5
49
102
{ACAD_REACTORS
330
47
102
}
330
47
100
AcDbScale
 70
     0
300
1:2
140
1.0
141
2.0
290
     0
  0
SCALE
  5
4A
102
{ACAD_REACTORS
330
47
102
}
330
47
100
AcDbScale
 70
     0
300
1:4
140
1.0
141
4.0
290
     0
  0
SCALE
  5
4B
102
{ACAD_REACTORS
330
47
102
}
330
47
100
AcDbScale
 70
     0
300
1:5
140
1.0
141
5.0
290
     0
  0
SCALE
  5
4C
102
{ACAD_REACTORS
330
47
102
}
330
47
100
AcDbScale
 70
     0
300
1:8
140
1.0
141
8.0
290
     0
  0
SCALE
  5
4D
102
{ACAD_REACTORS
330
47
102
}
330
47
100
AcDbScale
 70
     0
300
1:10
140
1.0
141
10.0
290
     0
  0
SCALE
  5
4E
102
{ACAD_REACTORS
330
47
102
}
330
47
100
AcDbScale
 70
     0
300
1:16
140
1.0
141
16.0
290
     0
  0
SCALE
  5
4F
102
{ACAD_REACTORS
330
47
102
}
330
47
100
AcDbScale
 70
     0
300
1:20
140
1.0
141
20.0
290
     0
  0
SCALE
  5
50
102
{ACAD_REACTORS
330
47
102
}
330
47
100
AcDbScale
 70
     0
300
1:30
140
1.0
141
30.0
290
     0
  0
SCALE
  5
51
102
{ACAD_REACTORS
330
47
102
}
330
47
100
AcDbScale
 70
     0
300
1:40
140
1.0
141
40.0
290
     0
  0
SCALE
  5
52
102
{ACAD_REACTORS
330
47
102
}
330
47
100
AcDbScale
 70
     0
300
1:50
140
1.0
141
50.0
290
     0
  0
SCALE
  5
53
102
{ACAD_REACTORS
330
47
102
}
330
47
100
AcDbScale
 70
     0
300
1:100
140
1.0
141
100.0
290
     0
  0
SCALE
  5
54
102
{ACAD_REACTORS
330
47
102
}
330
47
100
AcDbScale
 70
     0
300
2:1
140
2.0
141
1.0
290
     0
  0
SCALE
  5
55
102
{ACAD_REACTORS
330
47
102
}
330
47
100
AcDbScale
 70
     0
300
4:1
140
4.0
141
1.0
290
     0
  0
SCALE
  5
56
102
{ACAD_REACTORS
330
47
102
}
330
47
100
AcDbScale
 70
     0
300
8:1
140
8.0
141
1.0
290
     0
  0
SCALE
  5
57
102
{ACAD_REACTORS
330
47
102
}
330
47
100
AcDbScale
 70
     0
300
10:1
140
10.0
141
1.0
290
     0
  0
SCALE
  5
58
102
{ACAD_REACTORS
330
47
102
}
330
47
100
AcDbScale
 70
     0
300
100:1
140
100.0
141
1.0
290
     0
  0
SCALE
  5
59
102
{ACAD_REACTORS
330
47
102
}
330
47
100
AcDbScale
 70
     0
300
1/128" = 1'-0"
140
0.0078125
141
12.0
290
     0
  0
SCALE
  5
5A
102
{ACAD_REACTORS
330
47
102
}
330
47
100
AcDbScale
 70
     0
300
1/64" = 1'-0"
140
0.015625
141
12.0
290
     0
  0
SCALE
  5
5B
102
{ACAD_REACTORS
330
47
102
}
330
47
100
AcDbScale
 70
     0
300
1/32" = 1'-0"
140
0.03125
141
12.0
290
     0
  0
SCALE
  5
5C
102
{ACAD_REACTORS
330
47
102
}
330
47
100
AcDbScale
 70
     0
300
1/16" = 1'-0"
140
0.0625
141
12.0
290
     0
  0
SCALE
  5
5D
102
{ACAD_REACTORS
330
47
102
}
330
47
100
AcDbScale
 70
     0
300
3/32" = 1'-0"
140
0.09375
141
12.0
290
     0
  0
SCALE
  5
5E
102
{ACAD_REACTORS
330
47
102
}
330
47
100
AcDbScale
 70
     0
300
1/8" = 1'-0"
140
0.125
141
12.0
290
     0
  0
SCALE
  5
5F
102
{ACAD_REACTORS
330
47
102
}
330
47
100
AcDbScale
 70
     0
300
3/16" = 1'-0"
140
0.1875
141
12.0
290
     0
  0
SCALE
  5
60
102
{ACAD_REACTORS
330
47
102
}
330
47
100
AcDbScale
 70
     0
300
1/4" = 1'-0"
140
0.25
141
12.0
290
     0
  0
SCALE
  5
61
102
{ACAD_REACTORS
330
47
102
}
330
47
100
AcDbScale
 70
     0
300
3/8" = 1'-0"
140
0.375
141
12.0
290
     0
  0
SCALE
  5
62
102
{ACAD_REACTORS
330
47
102
}
330
47
100
AcDbScale
 70
     0
300
1/2" = 1'-0"
140
0.5
141
12.0
290
     0
  0
SCALE
  5
63
102
{ACAD_REACTORS
330
47
102
}
330
47
100
AcDbScale
 70
     0
300
3/4" = 1'-0"
140
0.75
141
12.0
290
     0
  0
SCALE
  5
64
102
{ACAD_REACTORS
330
47
102
}
330
47
100
AcDbScale
 70
     0
300
1" = 1'-0"
140
1.0
141
12.0
290
     0
  0
SCALE
  5
65
102
{ACAD_REACTORS
330
47
102
}
330
47
100
AcDbScale
 70
     0
300
1-1/2" = 1'-0"
140
1.5
141
12.0
290
     0
  0
SCALE
  5
66
102
{ACAD_REACTORS
330
47
102
}
330
47
100
AcDbScale
 70
     0
300
3" = 1'-0"
140
3.0
141
12.0
290
     0
  0
SCALE
  5
67
102
{ACAD_REACTORS
330
47
102
}
330
47
100
AcDbScale
 70
     0
300
6" = 1'-0"
140
6.0
141
12.0
290
     0
  0
SCALE
  5
68
102
{ACAD_REACTORS
330
47
102
}
330
47
100
AcDbScale
 70
     0
300
1'-0" = 1'-0"
140
12.0
141
12.0
290
     0
  0
ENDSEC
  0
EOF
