  0
SECTION
  2
HEADER
  9
$ACADVER
  1
AC1015
  9
$ACADMAINTVER
 70
     6
  9
$DWGCODEPAGE
  3
ANSI_1252
  9
$INSBASE
 10
0.0
 20
0.0
 30
0.0
  9
$EXTMIN
 10
0.0
 20
0.0
 30
0.0
  9
$EXTMAX
 10
8.5
 20
11.0
 30
0.0
  9
$LIMMIN
 10
0.0
 20
0.0
  9
$LIMMAX
 10
8.5
 20
11.0
  9
$ORTHOMODE
 70
     0
  9
$REGENMODE
 70
     1
  9
$FILLMODE
 70
     1
  9
$QTEXTMODE
 70
     0
  9
$MIRRTEXT
 70
     1
  9
$LTSCALE
 40
1.0
  9
$ATTMODE
 70
     1
  9
$TEXTSIZE
 40
0.1388888889
  9
$TRACEWID
 40
0.05
  9
$TEXTSTYLE
  7
Standard
  9
$CLAYER
  8
0
  9
$CELTYPE
  6
ByLayer
  9
$CECOLOR
 62
   256
  9
$CELTSCALE
 40
1.0
  9
$DISPSILH
 70
     0
  9
$DIMSCALE
 40
1.0
  9
$DIMASZ
 40
0.13
  9
$DIMEXO
 40
0.05
  9
$DIMDLI
 40
0.38
  9
$DIMRND
 40
0.0
  9
$DIMDLE
 40
0.0
  9
$DIMEXE
 40
0.125
  9
$DIMTP
 40
0.0
  9
$DIMTM
 40
0.0
  9
$DIMTXT
 40
0.1388888889
  9
$DIMCEN
 40
0.09
  9
$DIMTSZ
 40
0.0
  9
$DIMTOL
 70
     0
  9
$DIMLIM
 70
     0
  9
$DIMTIH
 70
     1
  9
$DIMTOH
 70
     1
  9
$DIMSE1
 70
     0
  9
$DIMSE2
 70
     0
  9
$DIMTAD
 70
     0
  9
$DIMZIN
 70
     0
  9
$DIMBLK
  1

  9
$DIMASO
 70
     1
  9
$DIMSHO
 70
     1
  9
$DIMPOST
  1

  9
$DIMAPOST
  1

  9
$DIMALT
 70
     0
  9
$DIMALTD
 70
     2
  9
$DIMALTF
 40
25.4
  9
$DIMLFAC
 40
1.0
  9
$DIMTOFL
 70
     0
  9
$DIMTVP
 40
0.0
  9
$DIMTIX
 70
     0
  9
$DIMSOXD
 70
     0
  9
$DIMSAH
 70
     0
  9
$DIMBLK1
  1

  9
$DIMBLK2
  1

  9
$DIMSTYLE
  2
Standard
  9
$DIMCLRD
 70
     0
  9
$DIMCLRE
 70
     0
  9
$DIMCLRT
 70
     0
  9
$DIMTFAC
 40
1.0
  9
$DIMGAP
 40
0.06
  9
$DIMJUST
 70
     0
  9
$DIMSD1
 70
     0
  9
$DIMSD2
 70
     0
  9
$DIMTOLJ
 70
     1
  9
$DIMTZIN
 70
     0
  9
$DIMALTZ
 70
     0
  9
$DIMALTTZ
 70
     0
  9
$DIMUPT
 70
     0
  9
$DIMDEC
 70
     0
  9
$DIMTDEC
 70
     0
  9
$DIMALTU
 70
     2
  9
$DIMALTTD
 70
     2
  9
$DIMTXSTY
  7
Standard
  9
$DIMAUNIT
 70
     0
  9
$DIMADEC
 70
     0
  9
$DIMALTRND
 40
0.0
  9
$DIMAZIN
 70
     0
  9
$DIMDSEP
 70
    46
  9
$DIMATFIT
 70
     3
  9
$DIMFRAC
 70
     0
  9
$DIMLDRBLK
  1

  9
$DIMLUNIT
 70
     2
  9
$DIMLWD
 70
    -2
  9
$DIMLWE
 70
    -2
  9
$DIMTMOVE
 70
     0
  9
$LUNITS
 70
     2
  9
$LUPREC
 70
     0
  9
$SKETCHINC
 40
0.1
  9
$FILLETRAD
 40
0.5
  9
$AUNITS
 70
     0
  9
$AUPREC
 70
     0
  9
$MENU
  1
.
  9
$ELEVATION
 40
0.0
  9
$PELEVATION
 40
0.0
  9
$THICKNESS
 40
0.0
  9
$LIMCHECK
 70
     0
  9
$CHAMFERA
 40
0.0
  9
$CHAMFERB
 40
0.0
  9
$CHAMFERC
 40
0.0
  9
$CHAMFERD
 40
0.0
  9
$SKPOLY
 70
     0
  9
$TDCREATE
 40
2459019.889326817
  9
$TDUCREATE
 40
2459020.055993484
  9
$TDUPDATE
 40
2459019.889327627
  9
$TDUUPDATE
 40
2459020.055994294
  9
$TDINDWG
 40
0.0000000116
  9
$TDUSRTIMER
 40
0.0000000116
  9
$USRTIMER
 70
     1
  9
$ANGBASE
 50
0.0
  9
$ANGDIR
 70
     0
  9
$PDMODE
 70
     0
  9
$PDSIZE
 40
-1.0
  9
$PLINEWID
 40
0.0
  9
$SPLFRAME
 70
     0
  9
$SPLINETYPE
 70
     6
  9
$SPLINESEGS
 70
     8
  9
$HANDSEED
  5
18D
  9
$SURFTAB1
 70
     6
  9
$SURFTAB2
 70
     6
  9
$SURFTYPE
 70
     6
  9
$SURFU
 70
     6
  9
$SURFV
 70
     6
  9
$UCSBASE
  2

  9
$UCSNAME
  2

  9
$UCSORG
 10
0.0
 20
0.0
 30
0.0
  9
$UCSXDIR
 10
1.0
 20
0.0
 30
0.0
  9
$UCSYDIR
 10
0.0
 20
1.0
 30
0.0
  9
$UCSORTHOREF
  2

  9
$UCSORTHOVIEW
 70
     0
  9
$UCSORGTOP
 10
0.0
 20
0.0
 30
0.0
  9
$UCSORGBOTTOM
 10
0.0
 20
0.0
 30
0.0
  9
$UCSORGLEFT
 10
0.0
 20
0.0
 30
0.0
  9
$UCSORGRIGHT
 10
0.0
 20
0.0
 30
0.0
  9
$UCSORGFRONT
 10
0.0
 20
0.0
 30
0.0
  9
$UCSORGBACK
 10
0.0
 20
0.0
 30
0.0
  9
$PUCSBASE
  2

  9
$PUCSNAME
  2

  9
$PUCSORG
 10
0.0
 20
0.0
 30
0.0
  9
$PUCSXDIR
 10
1.0
 20
0.0
 30
0.0
  9
$PUCSYDIR
 10
0.0
 20
1.0
 30
0.0
  9
$PUCSORTHOREF
  2

  9
$PUCSORTHOVIEW
 70
     0
  9
$PUCSORGTOP
 10
0.0
 20
0.0
 30
0.0
  9
$PUCSORGBOTTOM
 10
0.0
 20
0.0
 30
0.0
  9
$PUCSORGLEFT
 10
0.0
 20
0.0
 30
0.0
  9
$PUCSORGRIGHT
 10
0.0
 20
0.0
 30
0.0
  9
$PUCSORGFRONT
 10
0.0
 20
0.0
 30
0.0
  9
$PUCSORGBACK
 10
0.0
 20
0.0
 30
0.0
  9
$USERI1
 70
     0
  9
$USERI2
 70
     0
  9
$USERI3
 70
     0
  9
$USERI4
 70
     0
  9
$USERI5
 70
     0
  9
$USERR1
 40
0.0
  9
$USERR2
 40
0.0
  9
$USERR3
 40
0.0
  9
$USERR4
 40
0.0
  9
$USERR5
 40
0.0
  9
$WORLDVIEW
 70
     1
  9
$SHADEDGE
 70
     3
  9
$SHADEDIF
 70
    70
  9
$TILEMODE
 70
     1
  9
$MAXACTVP
 70
    64
  9
$PINSBASE
 10
0.0
 20
0.0
 30
0.0
  9
$PLIMCHECK
 70
     0
  9
$PEXTMIN
 10
1.0000000000E+20
 20
1.0000000000E+20
 30
1.0000000000E+20
  9
$PEXTMAX
 10
-1.0000000000E+20
 20
-1.0000000000E+20
 30
-1.0000000000E+20
  9
$PLIMMIN
 10
0.0
 20
0.0
  9
$PLIMMAX
 10
12.0
 20
9.0
  9
$UNITMODE
 70
     0
  9
$VISRETAIN
 70
     1
  9
$PLINEGEN
 70
     0
  9
$PSLTSCALE
 70
     1
  9
$TREEDEPTH
 70
  3020
  9
$CMLSTYLE
  2
Standard
  9
$CMLJUST
 70
     0
  9
$CMLSCALE
 40
1.0
  9
$PROXYGRAPHICS
 70
     1
  9
$MEASUREMENT
 70
     0
  9
$CELWEIGHT
370
    -1
  9
$ENDCAPS
280
     0
  9
$JOINSTYLE
280
     0
  9
$LWDISPLAY
290
     1
  9
$INSUNITS
 70
     1
  9
$HYPERLINKBASE
  1

  9
$STYLESHEET
  1

  9
$XEDIT
290
     1
  9
$CEPSNTYPE
380
     0
  9
$PSTYLEMODE
290
     1
  9
$FINGERPRINTGUID
  2
{20b12bdc-21ba-4243-9aae-b0a52e72966d}
  9
$VERSIONGUID
  2
{FAEB1C32-E019-11D5-929B-00C0DF256EC4}
  9
$EXTNAMES
290
     1
  9
$PSVPSCALE
 40
0.0
  9
$OLESTARTUP
290
     0
  0
ENDSEC
  0
SECTION
  2
CLASSES
  0
CLASS
  1
ACDBDICTIONARYWDFLT
  2
AcDbDictionaryWithDefault
  3
ObjectDBX Classes
 90
        0
280
     0
281
     0
  0
CLASS
  1
VISUALSTYLE
  2
AcDbVisualStyle
  3
ObjectDBX Classes
 90
     4095
280
     0
281
     0
  0
CLASS
  1
MATERIAL
  2
AcDbMaterial
  3
ObjectDBX Classes
 90
     1153
280
     0
281
     0
  0
CLASS
  1
SCALE
  2
AcDbScale
  3
ObjectDBX Classes
 90
     1153
280
     0
281
     0
  0
CLASS
  1
TABLESTYLE
  2
AcDbTableStyle
  3
ObjectDBX Classes
 90
     4095
280
     0
281
     0
  0
CLASS
  1
MLEADERSTYLE
  2
AcDbMLeaderStyle
  3
ACDB_MLEADERSTYLE_CLASS
 90
     4095
280
     0
281
     0
  0
CLASS
  1
SUN
  2
AcDbSun
  3
SCENEOE
 90
     1153
280
     0
281
     0
  0
CLASS
  1
ACDBPLACEHOLDER
  2
AcDbPlaceHolder
  3
ObjectDBX Classes
 90
        0
280
     0
281
     0
  0
CLASS
  1
LAYOUT
  2
AcDbLayout
  3
ObjectDBX Classes
 90
        0
280
     0
281
     0
  0
ENDSEC
  0
SECTION
  2
TABLES
  0
TABLE
  2
VPORT
  5
8
330
0
100
AcDbSymbolTable
 70
     1
  0
VPORT
  5
29
330
8
100
AcDbSymbolTableRecord
100
AcDbViewportTableRecord
  2
*Active
 70
     0
 10
0.0
 20
0.0
 11
1.0
 21
1.0
 12
4.25
 22
5.5
 13
0.0
 23
0.0
 14
0.5
 24
0.5
 15
0.5
 25
0.5
 16
0.0
 26
0.0
 36
1.0
 17
0.0
 27
0.0
 37
0.0
 40
11.0
 41
0.7727272727
 42
50.0
 43
0.0
 44
0.0
 50
0.0
 51
0.0
 71
     0
 72
  2000
 73
     1
 74
     3
 75
     0
 76
     0
 77
     0
 78
     0
281
     0
 65
     1
110
0.0
120
0.0
130
0.0
111
1.0
121
0.0
131
0.0
112
0.0
122
1.0
132
0.0
 79
     0
146
0.0
  0
ENDTAB
  0
TABLE
  2
LTYPE
  5
5
330
0
100
AcDbSymbolTable
 70
     6
  0
LTYPE
  5
14
330
5
100
AcDbSymbolTableRecord
100
AcDbLinetypeTableRecord
  2
ByBlock
 70
     0
  3

 72
    65
 73
     0
 40
0.0
  0
LTYPE
  5
15
330
5
100
AcDbSymbolTableRecord
100
AcDbLinetypeTableRecord
  2
ByLayer
 70
     0
  3

 72
    65
 73
     0
 40
0.0
  0
LTYPE
  5
16
330
5
100
AcDbSymbolTableRecord
100
AcDbLinetypeTableRecord
  2
Continuous
 70
     0
  3
Solid line
 72
    65
 73
     0
 40
0.0
  0
LTYPE
  5
6E
330
5
100
AcDbSymbolTableRecord
100
AcDbLinetypeTableRecord
  2
HIDDEN
 70
     0
  3
Hidden __ __ __ __ __ __ __ __ __ __ __ __ __ __
 72
    65
 73
     2
 40
0.075
 49
0.05
 74
     0
 49
-0.025
 74
     0
  0
LTYPE
  5
6F
330
5
100
AcDbSymbolTableRecord
100
AcDbLinetypeTableRecord
  2
PHANTOM
 70
     0
  3
Phantom ______  __  __  ______  __  __  ______
 72
    65
 73
     6
 40
0.5
 49
0.25
 74
     0
 49
-0.05
 74
     0
 49
0.05
 74
     0
 49
-0.05
 74
     0
 49
0.05
 74
     0
 49
-0.05
 74
     0
  0
LTYPE
  5
70
330
5
100
AcDbSymbolTableRecord
100
AcDbLinetypeTableRecord
  2
CENTER
 70
     0
  3
Center ____ _ ____ _ ____ _ ____ _ ____ _ ____
 72
    65
 73
     4
 40
0.4
 49
0.25
 74
     0
 49
-0.05
 74
     0
 49
0.05
 74
     0
 49
-0.05
 74
     0
  0
LTYPE
  5
71
330
5
100
AcDbSymbolTableRecord
100
AcDbLinetypeTableRecord
  2
CENTERX2
 70
     0
  3
Center (2x) ________  __  ________  __  _____
 72
    65
 73
     4
 40
0.8
 49
0.5
 74
     0
 49
-0.1
 74
     0
 49
0.1
 74
     0
 49
-0.1
 74
     0
  0
LTYPE
  5
72
330
5
100
AcDbSymbolTableRecord
100
AcDbLinetypeTableRecord
  2
DOT2
 70
     0
  3
Dot (.5x) ........................................
 72
    65
 73
     2
 40
0.025
 49
0.0
 74
     0
 49
-0.025
 74
     0
  0
ENDTAB
  0
TABLE
  2
LAYER
  5
2
330
0
100
AcDbSymbolTable
 70
     7
  0
LAYER
  5
10
330
2
100
AcDbSymbolTableRecord
100
AcDbLayerTableRecord
  2
0
 70
     0
 62
     7
  6
Continuous
370
    -3
390
F
  0
LAYER
  5
73
330
2
100
AcDbSymbolTableRecord
100
AcDbLayerTableRecord
  2
FORMAT
 70
     0
 62
     7
  6
Continuous
370
    -3
390
F
  0
LAYER
  5
74
330
2
100
AcDbSymbolTableRecord
100
AcDbLayerTableRecord
  2
DEFAULT
 70
     0
 62
   179
  6
Continuous
370
    -3
390
F
  0
LAYER
  5
75
330
2
100
AcDbSymbolTableRecord
100
AcDbLayerTableRecord
  2
INSPECTION_TAGS
 70
     0
 62
     7
  6
Continuous
370
    -3
390
F
  0
LAYER
  5
76
330
2
100
AcDbSymbolTableRecord
100
AcDbLayerTableRecord
  2
REVISIONS
 70
     0
 62
     7
  6
Continuous
370
    -3
390
F
  0
LAYER
  5
77
330
2
100
AcDbSymbolTableRecord
100
AcDbLayerTableRecord
  2
DIMENSIONS_&_ANNOTATIONS
 70
     0
 62
     7
  6
Continuous
370
    -3
390
F
  0
LAYER
  5
78
330
2
100
AcDbSymbolTableRecord
100
AcDbLayerTableRecord
  2
DIMENSION_&_ANNOTATIONS
 70
     0
 62
     7
  6
Continuous
370
    -3
390
F
  0
ENDTAB
  0
TABLE
  2
STYLE
  5
3
330
0
100
AcDbSymbolTable
 70
     2
  0
STYLE
  5
11
330
3
100
AcDbSymbolTableRecord
100
AcDbTextStyleTableRecord
  2
Standard
 70
     0
 40
0.0
 41
1.0
 50
0.0
 71
     0
 42
0.1388888889
  3
txt
  4

  0
STYLE
  5
7C
330
3
100
AcDbSymbolTableRecord
100
AcDbTextStyleTableRecord
  2
SLDTEXTSTYLE0
 70
     0
 40
0.0
 41
0.605
 50
0.0
 71
     0
 42
0.1388888889
  3
TXT
  4

  0
ENDTAB
  0
TABLE
  2
VIEW
  5
6
330
0
100
AcDbSymbolTable
 70
     0
  0
ENDTAB
  0
TABLE
  2
UCS
  5
7
330
0
100
AcDbSymbolTable
 70
     0
  0
ENDTAB
  0
TABLE
  2
APPID
  5
9
330
0
100
AcDbSymbolTable
 70
     1
  0
APPID
  5
12
330
9
100
AcDbSymbolTableRecord
100
AcDbRegAppTableRecord
  2
ACAD
 70
     0
  0
ENDTAB
  0
TABLE
  2
DIMSTYLE
  5
A
330
0
100
AcDbSymbolTable
 70
     3
100
AcDbDimStyleTable
  0
DIMSTYLE
105
27
330
A
100
AcDbSymbolTableRecord
100
AcDbDimStyleTableRecord
  2
Standard
 70
     0
178
     0
340
11
  0
DIMSTYLE
105
BA
102
{ACAD_REACTORS
330
B9
102
}
330
A
100
AcDbSymbolTableRecord
100
AcDbDimStyleTableRecord
  2
SLDDIMSTYLE0
 70
     0
 41
0.13
 44
0.0
 45
0.000000001
 78
    12
 79
     3
140
0.1011149089
147
0.0252787272
148
0.000000001
170
     1
171
     1
173
     1
178
     0
271
     0
272
     0
274
     1
276
     2
277
     5
284
    12
340
7C
  0
DIMSTYLE
105
CF
102
{ACAD_REACTORS
330
CE
102
}
330
A
100
AcDbSymbolTableRecord
100
AcDbDimStyleTableRecord
  2
SLDDIMSTYLE1
 70
     0
 41
0.13
 44
0.0
 45
0.000000001
 78
    12
 79
     3
140
0.1011149089
147
0.0252787272
148
0.000000001
170
     1
171
     1
173
     1
178
     0
271
     6
272
     0
274
     1
276
     2
277
     5
284
    12
340
7C
  0
ENDTAB
  0
TABLE
  2
BLOCK_RECORD
  5
1
330
0
100
AcDbSymbolTable
 70
     8
  0
BLOCK_RECORD
  5
1F
330
1
100
AcDbSymbolTableRecord
100
AcDbBlockTableRecord
  2
*Model_Space
340
22
  0
BLOCK_RECORD
  5
1B
330
1
100
AcDbSymbolTableRecord
100
AcDbBlockTableRecord
  2
*Paper_Space
340
1E
  0
BLOCK_RECORD
  5
23
330
1
100
AcDbSymbolTableRecord
100
AcDbBlockTableRecord
  2
*Paper_Space0
340
26
  0
BLOCK_RECORD
  5
79
330
1
100
AcDbSymbolTableRecord
100
AcDbBlockTableRecord
  2
SW_NOTE_0
340
0
102
{BLKREFS
331
81
102
}
  0
BLOCK_RECORD
  5
BB
330
1
100
AcDbSymbolTableRecord
100
AcDbBlockTableRecord
  2
_D
340
0
  0
BLOCK_RECORD
  5
D0
330
1
100
AcDbSymbolTableRecord
100
AcDbBlockTableRecord
  2
_D_1
340
0
  0
BLOCK_RECORD
  5
E7
330
1
100
AcDbSymbolTableRecord
100
AcDbBlockTableRecord
  2
SW_CENTERMARKSYMBOL_1
340
0
102
{BLKREFS
331
F2
102
}
  0
BLOCK_RECORD
  5
F3
330
1
100
AcDbSymbolTableRecord
100
AcDbBlockTableRecord
  2
SW_CENTERMARKSYMBOL_2
340
0
102
{BLKREFS
331
FE
102
}
  0
BLOCK_RECORD
  5
FF
330
1
100
AcDbSymbolTableRecord
100
AcDbBlockTableRecord
  2
SW_CENTERMARKSYMBOL_3
340
0
102
{BLKREFS
331
10A
102
}
  0
BLOCK_RECORD
  5
10B
330
1
100
AcDbSymbolTableRecord
100
AcDbBlockTableRecord
  2
SW_CENTERMARKSYMBOL_4
340
0
102
{BLKREFS
331
116
102
}
  0
ENDTAB
  0
ENDSEC
  0
SECTION
  2
BLOCKS
  0
BLOCK
  5
20
330
1F
100
AcDbEntity
  8
0
100
AcDbBlockBegin
  2
*Model_Space
 70
     0
 10
0.0
 20
0.0
 30
0.0
  3
*Model_Space
  1

  0
ENDBLK
  5
21
330
1F
100
AcDbEntity
  8
0
100
AcDbBlockEnd
  0
BLOCK
  5
1C
330
1B
100
AcDbEntity
 67
     1
  8
0
100
AcDbBlockBegin
  2
*Paper_Space
 70
     0
 10
0.0
 20
0.0
 30
0.0
  3
*Paper_Space
  1

  0
ENDBLK
  5
1D
330
1B
100
AcDbEntity
 67
     1
  8
0
100
AcDbBlockEnd
  0
BLOCK
  5
24
330
23
100
AcDbEntity
  8
0
100
AcDbBlockBegin
  2
*Paper_Space0
 70
     0
 10
0.0
 20
0.0
 30
0.0
  3
*Paper_Space0
  1

  0
ENDBLK
  5
25
330
23
100
AcDbEntity
  8
0
100
AcDbBlockEnd
  0
BLOCK
  5
7A
330
79
100
AcDbEntity
  8
0
100
AcDbBlockBegin
  2
SW_NOTE_0
 70
     0
 10
0.0
 20
0.0
 30
0.0
  3
SW_NOTE_0
  1

  0
MTEXT
  5
7D
330
79
100
AcDbEntity
  8
DEFAULT
 62
     0
100
AcDbMText
 10
0.3850911458
 20
0.1879890454
 30
0.0
 40
0.1458333333
 41
0.0
 71
     2
 72
     1
  1
Legrand
  7
SLDTEXTSTYLE0
 73
     1
 44
1.0
  0
MTEXT
  5
7E
330
79
100
AcDbEntity
  8
DEFAULT
 62
     0
100
AcDbMText
 10
0.4129879835
 20
-0.0055331972
 30
0.0
 40
0.125
 41
0.0
 71
     2
 72
     1
  1
SYSTEM: Wiremold® Resource RFB® Series Floor Boxes
  7
SLDTEXTSTYLE0
 73
     1
 44
1.0
  0
MTEXT
  5
7F
330
79
100
AcDbEntity
  8
DEFAULT
 62
     0
100
AcDbMText
 10
0.3959297292
 20
-0.1721998618
 30
0.0
 40
0.125
 41
0.0
 71
     2
 72
     1
  1
Catalog Number RFBADP_R0
  7
SLDTEXTSTYLE0
 73
     1
 44
1.0
  0
MTEXT
  5
80
330
79
100
AcDbEntity
  8
DEFAULT
 62
     0
100
AcDbMText
 10
0.3886959733
 20
-0.3388665265
 30
0.0
 40
0.125
 41
0.0
 71
     2
 72
     1
  1
06/18/2020
  7
SLDTEXTSTYLE0
 73
     1
 44
1.0
  0
ENDBLK
  5
7B
330
79
100
AcDbEntity
  8
0
100
AcDbBlockEnd
  0
BLOCK
  5
BC
330
BB
100
AcDbEntity
  8
0
100
AcDbBlockBegin
  2
_D
 70
     0
 10
0.0
 20
0.0
 30
0.0
  3
_D
  1

  0
SOLID
  5
BE
330
BB
100
AcDbEntity
  8
DEFAULT
 62
     7
100
AcDbTrace
 10
2.0108166892
 20
2.7057854091
 30
0.0
 11
2.1408166892
 21
2.6857854091
 31
0.0
 12
2.1408166892
 22
2.7257854091
 32
0.0
 13
2.1408166892
 23
2.7257854091
 33
0.0
  0
SOLID
  5
BF
330
BB
100
AcDbEntity
  8
DEFAULT
 62
     7
100
AcDbTrace
 10
6.7408166892
 20
2.7057854091
 30
0.0
 11
6.6108166892
 21
2.7257854091
 31
0.0
 12
6.6108166892
 22
2.6857854091
 32
0.0
 13
6.6108166892
 23
2.6857854091
 33
0.0
  0
LINE
  5
C0
330
BB
100
AcDbEntity
  8
DEFAULT
 62
     7
100
AcDbLine
 10
4.0864648852
 20
2.7057854182
 30
0.0
 11
4.0517426634
 21
2.7057854182
 31
0.0
  0
LINE
  5
C1
330
BB
100
AcDbEntity
  8
DEFAULT
 62
     7
100
AcDbLine
 10
4.0517426634
 20
2.7057854182
 30
0.0
 11
4.0517426634
 21
2.5504999188
 31
0.0
  0
LINE
  5
C2
330
BB
100
AcDbEntity
  8
DEFAULT
 62
     7
100
AcDbLine
 10
4.0517426634
 20
2.5504999188
 30
0.0
 11
4.0864648852
 21
2.5504999188
 31
0.0
  0
LINE
  5
C3
330
BB
100
AcDbEntity
  8
DEFAULT
 62
     7
100
AcDbLine
 10
4.6651685666
 20
2.7057854182
 30
0.0
 11
4.6998907884
 21
2.7057854182
 31
0.0
  0
LINE
  5
C4
330
BB
100
AcDbEntity
  8
DEFAULT
 62
     7
100
AcDbLine
 10
4.6998907884
 20
2.7057854182
 30
0.0
 11
4.6998907884
 21
2.5504999188
 31
0.0
  0
LINE
  5
C5
330
BB
100
AcDbEntity
  8
DEFAULT
 62
     7
100
AcDbLine
 10
4.6998907884
 20
2.5504999188
 30
0.0
 11
4.6651685666
 21
2.5504999188
 31
0.0
  0
LINE
  5
C6
330
BB
100
AcDbEntity
  8
DEFAULT
 62
     7
100
AcDbLine
 10
2.0108166892
 20
4.0657066689
 30
0.0
 11
2.0108166892
 21
2.5807854091
 31
0.0
  0
LINE
  5
C7
330
BB
100
AcDbEntity
  8
DEFAULT
 62
     7
100
AcDbLine
 10
6.7408166892
 20
3.2857066689
 30
0.0
 11
6.7408166892
 21
2.5807854091
 31
0.0
  0
LINE
  5
C8
330
BB
100
AcDbEntity
  8
DEFAULT
 62
     7
100
AcDbLine
 10
2.0108166892
 20
2.7057854091
 30
0.0
 11
3.9551759751
 21
2.7057854091
 31
0.0
  0
LINE
  5
C9
330
BB
100
AcDbEntity
  8
DEFAULT
 62
     7
100
AcDbLine
 10
6.7408166892
 20
2.7057854091
 30
0.0
 11
4.7964574034
 21
2.7057854091
 31
0.0
  0
MTEXT
  5
CA
330
BB
100
AcDbEntity
  8
DEFAULT
 62
     7
100
AcDbMText
 10
4.0175026931
 20
2.8632114564
 30
0.0
 40
0.1041666667
 41
0.0
 71
     1
 72
     1
  1

  7
SLDTEXTSTYLE0
 73
     1
 44
1.0
  0
MTEXT
  5
CB
330
BB
100
AcDbEntity
  8
DEFAULT
 62
     7
100
AcDbMText
 10
4.2832241222
 20
2.8632114564
 30
0.0
 40
0.1041666667
 41
0.0
 71
     1
 72
     1
  1
5in
  7
SLDTEXTSTYLE0
 73
     1
 44
1.0
  0
MTEXT
  5
CC
330
BB
100
AcDbEntity
  8
DEFAULT
 62
     7
100
AcDbMText
 10
4.0864648852
 20
2.6847778152
 30
0.0
 40
0.1041666667
 41
0.0
 71
     1
 72
     1
  1
120.1mm
  7
SLDTEXTSTYLE0
 73
     1
 44
1.0
  0
MTEXT
  5
CD
330
BB
100
AcDbEntity
  8
DEFAULT
 62
     7
100
AcDbMText
 10
4.7736754644
 20
2.8632114564
 30
0.0
 40
0.1041666667
 41
0.0
 71
     1
 72
     1
  1

  7
SLDTEXTSTYLE0
 73
     1
 44
1.0
  0
ENDBLK
  5
BD
330
BB
100
AcDbEntity
  8
0
100
AcDbBlockEnd
  0
BLOCK
  5
D1
330
D0
100
AcDbEntity
  8
0
100
AcDbBlockBegin
  2
_D_1
 70
     0
 10
0.0
 20
0.0
 30
0.0
  3
_D_1
  1

  0
SOLID
  5
D3
330
D0
100
AcDbEntity
  8
DEFAULT
 62
     7
100
AcDbTrace
 10
7.3707379491
 20
5.5857066689
 30
0.0
 11
7.3507379491
 21
5.4557066689
 31
0.0
 12
7.3907379491
 22
5.4557066689
 32
0.0
 13
7.3907379491
 23
5.4557066689
 33
0.0
  0
SOLID
  5
D4
330
D0
100
AcDbEntity
  8
DEFAULT
 62
     7
100
AcDbTrace
 10
7.3707379491
 20
3.3357066689
 30
0.0
 11
7.3907379491
 21
3.4657066689
 31
0.0
 12
7.3507379491
 22
3.4657066689
 32
0.0
 13
7.3507379491
 23
3.4657066689
 33
0.0
  0
LINE
  5
D5
330
D0
100
AcDbEntity
  8
DEFAULT
 62
     7
100
AcDbLine
 10
7.3312896731
 20
4.5718274425
 30
0.0
 11
7.4379640575
 21
4.5718274425
 31
0.0
  0
LINE
  5
D6
330
D0
100
AcDbEntity
  8
DEFAULT
 62
     7
100
AcDbLine
 10
7.119966366
 20
4.3979848435
 30
0.0
 11
7.0852441442
 21
4.3979848435
 31
0.0
  0
LINE
  5
D7
330
D0
100
AcDbEntity
  8
DEFAULT
 62
     7
100
AcDbLine
 10
7.0852441442
 20
4.3979848435
 30
0.0
 11
7.0852441442
 21
4.242699344
 31
0.0
  0
LINE
  5
D8
330
D0
100
AcDbEntity
  8
DEFAULT
 62
     7
100
AcDbLine
 10
7.0852441442
 20
4.242699344
 30
0.0
 11
7.119966366
 21
4.242699344
 31
0.0
  0
LINE
  5
D9
330
D0
100
AcDbEntity
  8
DEFAULT
 62
     7
100
AcDbLine
 10
7.6215096055
 20
4.3979848435
 30
0.0
 11
7.6562318273
 21
4.3979848435
 31
0.0
  0
LINE
  5
DA
330
D0
100
AcDbEntity
  8
DEFAULT
 62
     7
100
AcDbLine
 10
7.6562318273
 20
4.3979848435
 30
0.0
 11
7.6562318273
 21
4.242699344
 31
0.0
  0
LINE
  5
DB
330
D0
100
AcDbEntity
  8
DEFAULT
 62
     7
100
AcDbLine
 10
7.6562318273
 20
4.242699344
 30
0.0
 11
7.6215096055
 21
4.242699344
 31
0.0
  0
LINE
  5
DC
330
D0
100
AcDbEntity
  8
DEFAULT
 62
     7
100
AcDbLine
 10
6.4368166892
 20
5.5857066689
 30
0.0
 11
7.4957379491
 21
5.5857066689
 31
0.0
  0
LINE
  5
DD
330
D0
100
AcDbEntity
  8
DEFAULT
 62
     7
100
AcDbLine
 10
6.7908166892
 20
3.3357066689
 30
0.0
 11
7.4957379491
 21
3.3357066689
 31
0.0
  0
LINE
  5
DE
330
D0
100
AcDbEntity
  8
DEFAULT
 62
     7
100
AcDbLine
 10
7.3707379491
 20
5.5857066689
 30
0.0
 11
7.3707379491
 21
4.7018621631
 31
0.0
  0
LINE
  5
DF
330
D0
100
AcDbEntity
  8
DEFAULT
 62
     7
100
AcDbLine
 10
7.3707379491
 20
3.3357066689
 30
0.0
 11
7.3707379491
 21
4.2195511748
 31
0.0
  0
MTEXT
  5
E0
330
D0
100
AcDbEntity
  8
DEFAULT
 62
     7
100
AcDbMText
 10
7.0510041739
 20
4.6262851896
 30
0.0
 40
0.1041666667
 41
0.0
 71
     1
 72
     1
  1

  7
SLDTEXTSTYLE0
 73
     1
 44
1.0
  0
MTEXT
  5
E1
330
D0
100
AcDbEntity
  8
DEFAULT
 62
     7
100
AcDbMText
 10
7.2393722325
 20
4.6262851896
 30
0.0
 40
0.1041666667
 41
0.0
 71
     1
 72
     1
  1
2
  7
SLDTEXTSTYLE0
 73
     1
 44
1.0
  0
MTEXT
  5
E2
330
D0
100
AcDbEntity
  8
DEFAULT
 62
     7
100
AcDbMText
 10
7.3460466168
 20
4.6972511631
 30
0.0
 40
0.1041666667
 41
0.0
 71
     1
 72
     1
  1
1
  7
SLDTEXTSTYLE0
 73
     1
 44
1.0
  0
MTEXT
  5
E3
330
D0
100
AcDbEntity
  8
DEFAULT
 62
     7
100
AcDbMText
 10
7.3460466168
 20
4.5554108871
 30
0.0
 40
0.1041666667
 41
0.0
 71
     1
 72
     1
  1
4
  7
SLDTEXTSTYLE0
 73
     1
 44
1.0
  0
MTEXT
  5
E4
330
D0
100
AcDbEntity
  8
DEFAULT
 62
     7
100
AcDbMText
 10
7.4527210012
 20
4.6262851896
 30
0.0
 40
0.1041666667
 41
0.0
 71
     1
 72
     1
  1
"
  7
SLDTEXTSTYLE0
 73
     1
 44
1.0
  0
MTEXT
  5
E5
330
D0
100
AcDbEntity
  8
DEFAULT
 62
     7
100
AcDbMText
 10
7.119966366
 20
4.3769772405
 30
0.0
 40
0.1041666667
 41
0.0
 71
     1
 72
     1
  1
57.2mm
  7
SLDTEXTSTYLE0
 73
     1
 44
1.0
  0
MTEXT
  5
E6
330
D0
100
AcDbEntity
  8
DEFAULT
 62
     7
100
AcDbMText
 10
7.7300165032
 20
4.6262851896
 30
0.0
 40
0.1041666667
 41
0.0
 71
     1
 72
     1
  1

  7
SLDTEXTSTYLE0
 73
     1
 44
1.0
  0
ENDBLK
  5
D2
330
D0
100
AcDbEntity
  8
0
100
AcDbBlockEnd
  0
BLOCK
  5
E8
330
E7
100
AcDbEntity
  8
0
100
AcDbBlockBegin
  2
SW_CENTERMARKSYMBOL_1
 70
     0
 10
0.0
 20
0.0
 30
0.0
  3
SW_CENTERMARKSYMBOL_1
  1

  0
LINE
  5
EA
330
E7
100
AcDbEntity
  8
DEFAULT
 62
     0
100
AcDbLine
 10
0.0
 20
0.0
 30
0.0
 11
0.0
 21
0.1
 31
0.0
  0
LINE
  5
EB
330
E7
100
AcDbEntity
  8
DEFAULT
 62
     0
100
AcDbLine
 10
0.0
 20
0.0
 30
0.0
 11
-0.1
 21
0.0
 31
0.0
  0
LINE
  5
EC
330
E7
100
AcDbEntity
  8
DEFAULT
 62
     0
100
AcDbLine
 10
0.0
 20
0.0
 30
0.0
 11
0.0
 21
-0.1
 31
0.0
  0
LINE
  5
ED
330
E7
100
AcDbEntity
  8
DEFAULT
 62
     0
100
AcDbLine
 10
0.0
 20
0.0
 30
0.0
 11
0.1
 21
0.0
 31
0.0
  0
LINE
  5
EE
330
E7
100
AcDbEntity
  8
DEFAULT
 62
     0
100
AcDbLine
 10
0.0
 20
0.1
 30
0.0
 11
0.0
 21
0.15325
 31
0.0
  0
LINE
  5
EF
330
E7
100
AcDbEntity
  8
DEFAULT
 62
     0
100
AcDbLine
 10
-0.1
 20
0.0
 30
0.0
 11
-0.15325
 21
0.0
 31
0.0
  0
LINE
  5
F0
330
E7
100
AcDbEntity
  8
DEFAULT
 62
     0
100
AcDbLine
 10
0.0
 20
-0.1
 30
0.0
 11
0.0
 21
-0.15325
 31
0.0
  0
LINE
  5
F1
330
E7
100
AcDbEntity
  8
DEFAULT
 62
     0
100
AcDbLine
 10
0.1
 20
0.0
 30
0.0
 11
0.15325
 21
0.0
 31
0.0
  0
ENDBLK
  5
E9
330
E7
100
AcDbEntity
  8
0
100
AcDbBlockEnd
  0
BLOCK
  5
F4
330
F3
100
AcDbEntity
  8
0
100
AcDbBlockBegin
  2
SW_CENTERMARKSYMBOL_2
 70
     0
 10
0.0
 20
0.0
 30
0.0
  3
SW_CENTERMARKSYMBOL_2
  1

  0
LINE
  5
F6
330
F3
100
AcDbEntity
  8
DEFAULT
 62
     0
100
AcDbLine
 10
0.0
 20
0.0
 30
0.0
 11
0.0
 21
0.1
 31
0.0
  0
LINE
  5
F7
330
F3
100
AcDbEntity
  8
DEFAULT
 62
     0
100
AcDbLine
 10
0.0
 20
0.0
 30
0.0
 11
-0.1
 21
0.0
 31
0.0
  0
LINE
  5
F8
330
F3
100
AcDbEntity
  8
DEFAULT
 62
     0
100
AcDbLine
 10
0.0
 20
0.0
 30
0.0
 11
0.0
 21
-0.1
 31
0.0
  0
LINE
  5
F9
330
F3
100
AcDbEntity
  8
DEFAULT
 62
     0
100
AcDbLine
 10
0.0
 20
0.0
 30
0.0
 11
0.1
 21
0.0
 31
0.0
  0
LINE
  5
FA
330
F3
100
AcDbEntity
  8
DEFAULT
 62
     0
100
AcDbLine
 10
0.0
 20
0.1
 30
0.0
 11
0.0
 21
0.178
 31
0.0
  0
LINE
  5
FB
330
F3
100
AcDbEntity
  8
DEFAULT
 62
     0
100
AcDbLine
 10
-0.1
 20
0.0
 30
0.0
 11
-0.178
 21
0.0
 31
0.0
  0
LINE
  5
FC
330
F3
100
AcDbEntity
  8
DEFAULT
 62
     0
100
AcDbLine
 10
0.0
 20
-0.1
 30
0.0
 11
0.0
 21
-0.178
 31
0.0
  0
LINE
  5
FD
330
F3
100
AcDbEntity
  8
DEFAULT
 62
     0
100
AcDbLine
 10
0.1
 20
0.0
 30
0.0
 11
0.178
 21
0.0
 31
0.0
  0
ENDBLK
  5
F5
330
F3
100
AcDbEntity
  8
0
100
AcDbBlockEnd
  0
BLOCK
  5
100
330
FF
100
AcDbEntity
  8
0
100
AcDbBlockBegin
  2
SW_CENTERMARKSYMBOL_3
 70
     0
 10
0.0
 20
0.0
 30
0.0
  3
SW_CENTERMARKSYMBOL_3
  1

  0
LINE
  5
102
330
FF
100
AcDbEntity
  8
DEFAULT
 62
     0
100
AcDbLine
 10
0.0
 20
0.0
 30
0.0
 11
0.0
 21
0.1
 31
0.0
  0
LINE
  5
103
330
FF
100
AcDbEntity
  8
DEFAULT
 62
     0
100
AcDbLine
 10
0.0
 20
0.0
 30
0.0
 11
-0.1
 21
0.0
 31
0.0
  0
LINE
  5
104
330
FF
100
AcDbEntity
  8
DEFAULT
 62
     0
100
AcDbLine
 10
0.0
 20
0.0
 30
0.0
 11
0.0
 21
-0.1
 31
0.0
  0
LINE
  5
105
330
FF
100
AcDbEntity
  8
DEFAULT
 62
     0
100
AcDbLine
 10
0.0
 20
0.0
 30
0.0
 11
0.1
 21
0.0
 31
0.0
  0
LINE
  5
106
330
FF
100
AcDbEntity
  8
DEFAULT
 62
     0
100
AcDbLine
 10
0.0
 20
0.1
 30
0.0
 11
0.0
 21
0.178
 31
0.0
  0
LINE
  5
107
330
FF
100
AcDbEntity
  8
DEFAULT
 62
     0
100
AcDbLine
 10
-0.1
 20
0.0
 30
0.0
 11
-0.178
 21
0.0
 31
0.0
  0
LINE
  5
108
330
FF
100
AcDbEntity
  8
DEFAULT
 62
     0
100
AcDbLine
 10
0.0
 20
-0.1
 30
0.0
 11
0.0
 21
-0.178
 31
0.0
  0
LINE
  5
109
330
FF
100
AcDbEntity
  8
DEFAULT
 62
     0
100
AcDbLine
 10
0.1
 20
0.0
 30
0.0
 11
0.178
 21
0.0
 31
0.0
  0
ENDBLK
  5
101
330
FF
100
AcDbEntity
  8
0
100
AcDbBlockEnd
  0
BLOCK
  5
10C
330
10B
100
AcDbEntity
  8
0
100
AcDbBlockBegin
  2
SW_CENTERMARKSYMBOL_4
 70
     0
 10
0.0
 20
0.0
 30
0.0
  3
SW_CENTERMARKSYMBOL_4
  1

  0
LINE
  5
10E
330
10B
100
AcDbEntity
  8
DEFAULT
 62
     0
100
AcDbLine
 10
0.0
 20
0.0
 30
0.0
 11
0.0
 21
0.1
 31
0.0
  0
LINE
  5
10F
330
10B
100
AcDbEntity
  8
DEFAULT
 62
     0
100
AcDbLine
 10
0.0
 20
0.0
 30
0.0
 11
-0.1
 21
0.0
 31
0.0
  0
LINE
  5
110
330
10B
100
AcDbEntity
  8
DEFAULT
 62
     0
100
AcDbLine
 10
0.0
 20
0.0
 30
0.0
 11
0.0
 21
-0.1
 31
0.0
  0
LINE
  5
111
330
10B
100
AcDbEntity
  8
DEFAULT
 62
     0
100
AcDbLine
 10
0.0
 20
0.0
 30
0.0
 11
0.1
 21
0.0
 31
0.0
  0
LINE
  5
112
330
10B
100
AcDbEntity
  8
DEFAULT
 62
     0
100
AcDbLine
 10
0.0
 20
0.1
 30
0.0
 11
0.0
 21
0.178
 31
0.0
  0
LINE
  5
113
330
10B
100
AcDbEntity
  8
DEFAULT
 62
     0
100
AcDbLine
 10
-0.1
 20
0.0
 30
0.0
 11
-0.178
 21
0.0
 31
0.0
  0
LINE
  5
114
330
10B
100
AcDbEntity
  8
DEFAULT
 62
     0
100
AcDbLine
 10
0.0
 20
-0.1
 30
0.0
 11
0.0
 21
-0.178
 31
0.0
  0
LINE
  5
115
330
10B
100
AcDbEntity
  8
DEFAULT
 62
     0
100
AcDbLine
 10
0.1
 20
0.0
 30
0.0
 11
0.178
 21
0.0
 31
0.0
  0
ENDBLK
  5
10D
330
10B
100
AcDbEntity
  8
0
100
AcDbBlockEnd
  0
ENDSEC
  0
SECTION
  2
ENTITIES
  0
INSERT
  5
81
330
1F
100
AcDbEntity
  8
DEFAULT
 62
     7
100
AcDbBlockReference
  2
SW_NOTE_0
 10
3.7559076074
 20
1.5976380224
 30
0.0
  0
LINE
  5
82
330
1F
100
AcDbEntity
  8
0
  6
Continuous
 62
     7
370
    25
100
AcDbLine
 10
6.3868166263
 20
5.5857066775
 30
0.0
 11
4.8008166862
 21
5.5857066775
 31
0.0
  0
LINE
  5
83
330
1F
100
AcDbEntity
  8
0
  6
Continuous
 62
     7
370
    25
100
AcDbLine
 10
6.416816653
 20
5.5557066507
 30
0.0
 11
6.3868166263
 21
5.5857066775
 31
0.0
  0
LINE
  5
84
330
1F
100
AcDbEntity
  8
0
  6
Continuous
 62
     7
370
    25
100
AcDbLine
 10
6.416816653
 20
5.1577066818
 30
0.0
 11
6.416816653
 21
5.5557066507
 31
0.0
  0
LINE
  5
85
330
1F
100
AcDbEntity
  8
0
  6
Continuous
 62
     7
370
    25
100
AcDbLine
 10
6.7408167368
 20
5.1577066818
 30
0.0
 11
6.416816653
 21
5.1577066818
 31
0.0
  0
LINE
  5
86
330
1F
100
AcDbEntity
  8
0
  6
Continuous
 62
     7
370
    25
100
AcDbLine
 10
6.7408167368
 20
4.9702066611
 30
0.0
 11
6.7408167368
 21
5.1577066818
 31
0.0
  0
LINE
  5
87
330
1F
100
AcDbEntity
  8
0
  6
Continuous
 62
     7
370
    25
100
AcDbLine
 10
6.6708166255
 20
4.9702066611
 30
0.0
 11
6.7408167368
 21
4.9702066611
 31
0.0
  0
LINE
  5
88
330
1F
100
AcDbEntity
  8
0
  6
Continuous
 62
     7
370
    25
100
AcDbLine
 10
6.6708166255
 20
4.5857066712
 30
0.0
 11
6.6708166255
 21
4.9702066611
 31
0.0
  0
LINE
  5
89
330
1F
100
AcDbEntity
  8
0
  6
Continuous
 62
     7
370
    25
100
AcDbLine
 10
6.7408167368
 20
4.5857066712
 30
0.0
 11
6.6708166255
 21
4.5857066712
 31
0.0
  0
LINE
  5
8A
330
1F
100
AcDbEntity
  8
0
  6
Continuous
 62
     7
370
    25
100
AcDbLine
 10
6.7408167368
 20
4.2107066666
 30
0.0
 11
6.7408167368
 21
4.5857066712
 31
0.0
  0
LINE
  5
8B
330
1F
100
AcDbEntity
  8
0
  6
Continuous
 62
     7
370
    25
100
AcDbLine
 10
6.6708166255
 20
4.2107066666
 30
0.0
 11
6.7408167368
 21
4.2107066666
 31
0.0
  0
LINE
  5
8C
330
1F
100
AcDbEntity
  8
0
  6
Continuous
 62
     7
370
    25
100
AcDbLine
 10
6.6708166255
 20
3.5232066703
 30
0.0
 11
6.6708166255
 21
4.2107066666
 31
0.0
  0
LINE
  5
8D
330
1F
100
AcDbEntity
  8
0
  6
Continuous
 62
     7
370
    25
100
AcDbLine
 10
6.7408167368
 20
3.5232066703
 30
0.0
 11
6.6708166255
 21
3.5232066703
 31
0.0
  0
LINE
  5
8E
330
1F
100
AcDbEntity
  8
0
  6
Continuous
 62
     7
370
    25
100
AcDbLine
 10
6.7408167368
 20
3.3357066497
 30
0.0
 11
6.7408167368
 21
3.5232066703
 31
0.0
  0
LINE
  5
8F
330
1F
100
AcDbEntity
  8
0
  6
Continuous
 62
     7
370
    25
100
AcDbLine
 10
6.180816726
 20
3.3357066497
 30
0.0
 11
6.7408167368
 21
3.3357066497
 31
0.0
  0
LINE
  5
90
330
1F
100
AcDbEntity
  8
0
  6
Continuous
 62
     7
370
    25
100
AcDbLine
 10
6.180816726
 20
3.4257066567
 30
0.0
 11
6.180816726
 21
3.3357066497
 31
0.0
  0
LINE
  5
91
330
1F
100
AcDbEntity
  8
0
  6
Continuous
 62
     7
370
    25
100
AcDbLine
 10
5.9208166895
 20
3.4257066567
 30
0.0
 11
6.180816726
 21
3.4257066567
 31
0.0
  0
LINE
  5
92
330
1F
100
AcDbEntity
  8
0
  6
Continuous
 62
     7
370
    25
100
AcDbLine
 10
5.9208166895
 20
3.3357066497
 30
0.0
 11
5.9208166895
 21
3.4257066567
 31
0.0
  0
LINE
  5
93
330
1F
100
AcDbEntity
  8
0
  6
Continuous
 62
     7
370
    25
100
AcDbLine
 10
3.1808166889
 20
3.3357066497
 30
0.0
 11
5.9208166895
 21
3.3357066497
 31
0.0
  0
LINE
  5
94
330
1F
100
AcDbEntity
  8
0
  6
Continuous
 62
     7
370
    25
100
AcDbLine
 10
3.1808166889
 20
3.4257066567
 30
0.0
 11
3.1808166889
 21
3.3357066497
 31
0.0
  0
LINE
  5
95
330
1F
100
AcDbEntity
  8
0
  6
Continuous
 62
     7
370
    25
100
AcDbLine
 10
2.9208166525
 20
3.4257066567
 30
0.0
 11
3.1808166889
 21
3.4257066567
 31
0.0
  0
LINE
  5
96
330
1F
100
AcDbEntity
  8
0
  6
Continuous
 62
     7
370
    25
100
AcDbLine
 10
2.9208166525
 20
3.3357066497
 30
0.0
 11
2.9208166525
 21
3.4257066567
 31
0.0
  0
LINE
  5
97
330
1F
100
AcDbEntity
  8
0
  6
Continuous
 62
     7
370
    25
100
AcDbLine
 10
2.1608166587
 20
3.3357066497
 30
0.0
 11
2.9208166525
 21
3.3357066497
 31
0.0
  0
LINE
  5
98
330
1F
100
AcDbEntity
  8
0
  6
Continuous
 62
     7
370
    25
100
AcDbLine
 10
2.1308166319
 20
3.3657066765
 30
0.0
 11
2.1608166587
 21
3.3357066497
 31
0.0
  0
LINE
  5
99
330
1F
100
AcDbEntity
  8
0
  6
Continuous
 62
     7
370
    25
100
AcDbLine
 10
2.1308166319
 20
4.085706659
 30
0.0
 11
2.1308166319
 21
3.3657066765
 31
0.0
  0
LINE
  5
9A
330
1F
100
AcDbEntity
  8
0
  6
Continuous
 62
     7
370
    25
100
AcDbLine
 10
2.0408166983
 20
4.085706659
 30
0.0
 11
2.1308166319
 21
4.085706659
 31
0.0
  0
LINE
  5
9B
330
1F
100
AcDbEntity
  8
0
  6
Continuous
 62
     7
370
    25
100
AcDbLine
 10
2.0108166715
 20
4.1157066674
 30
0.0
 11
2.0408166983
 21
4.085706659
 31
0.0
  0
LINE
  5
9C
330
1F
100
AcDbEntity
  8
0
  6
Continuous
 62
     7
370
    25
100
AcDbLine
 10
2.0108166715
 20
4.3202066708
 30
0.0
 11
2.0108166715
 21
4.1157066674
 31
0.0
  0
LINE
  5
9D
330
1F
100
AcDbEntity
  8
0
  6
Continuous
 62
     7
370
    25
100
AcDbLine
 10
2.0508166094
 20
4.3202066708
 30
0.0
 11
2.0108166715
 21
4.3202066708
 31
0.0
  0
ARC
  5
9E
330
1F
100
AcDbEntity
  8
0
  6
Continuous
 62
     7
370
    25
100
AcDbCircle
 10
2.0508166892
 20
4.3982066689
 30
0.0
 40
0.0780000000000003
100
AcDbArc
 50
270.0
 51
90.0
  0
LINE
  5
9F
330
1F
100
AcDbEntity
  8
0
  6
Continuous
 62
     7
370
    25
100
AcDbLine
 10
2.0108166715
 20
4.476206667
 30
0.0
 11
2.0508166094
 21
4.476206667
 31
0.0
  0
LINE
  5
A0
330
1F
100
AcDbEntity
  8
0
  6
Continuous
 62
     7
370
    25
100
AcDbLine
 10
2.0108166715
 20
4.6807066705
 30
0.0
 11
2.0108166715
 21
4.476206667
 31
0.0
  0
LINE
  5
A1
330
1F
100
AcDbEntity
  8
0
  6
Continuous
 62
     7
370
    25
100
AcDbLine
 10
2.0408166983
 20
4.7107066789
 30
0.0
 11
2.0108166715
 21
4.6807066705
 31
0.0
  0
LINE
  5
A2
330
1F
100
AcDbEntity
  8
0
  6
Continuous
 62
     7
370
    25
100
AcDbLine
 10
2.1308166319
 20
4.7107066789
 30
0.0
 11
2.0408166983
 21
4.7107066789
 31
0.0
  0
LINE
  5
A3
330
1F
100
AcDbEntity
  8
0
  6
Continuous
 62
     7
370
    25
100
AcDbLine
 10
2.1308166319
 20
5.5557066507
 30
0.0
 11
2.1308166319
 21
4.7107066789
 31
0.0
  0
LINE
  5
A4
330
1F
100
AcDbEntity
  8
0
  6
Continuous
 62
     7
370
    25
100
AcDbLine
 10
2.1608166587
 20
5.5857066775
 30
0.0
 11
2.1308166319
 21
5.5557066507
 31
0.0
  0
LINE
  5
A5
330
1F
100
AcDbEntity
  8
0
  6
Continuous
 62
     7
370
    25
100
AcDbLine
 10
2.9208166525
 20
5.5857066775
 30
0.0
 11
2.1608166587
 21
5.5857066775
 31
0.0
  0
LINE
  5
A6
330
1F
100
AcDbEntity
  8
0
  6
Continuous
 62
     7
370
    25
100
AcDbLine
 10
2.9208166525
 20
5.3977066759
 30
0.0
 11
2.9208166525
 21
5.5857066775
 31
0.0
  0
LINE
  5
A7
330
1F
100
AcDbEntity
  8
0
  6
Continuous
 62
     7
370
    25
100
AcDbLine
 10
3.1808166889
 20
5.3977066759
 30
0.0
 11
2.9208166525
 21
5.3977066759
 31
0.0
  0
LINE
  5
A8
330
1F
100
AcDbEntity
  8
0
  6
Continuous
 62
     7
370
    25
100
AcDbLine
 10
3.1808166889
 20
5.5857066775
 30
0.0
 11
3.1808166889
 21
5.3977066759
 31
0.0
  0
LINE
  5
A9
330
1F
100
AcDbEntity
  8
0
  6
Continuous
 62
     7
370
    25
100
AcDbLine
 10
4.3008166923
 20
5.5857066775
 30
0.0
 11
3.1808166889
 21
5.5857066775
 31
0.0
  0
LINE
  5
AA
330
1F
100
AcDbEntity
  8
0
  6
Continuous
 62
     7
370
    25
100
AcDbLine
 10
4.3008166923
 20
5.4957066705
 30
0.0
 11
4.3008166923
 21
5.5857066775
 31
0.0
  0
LINE
  5
AB
330
1F
100
AcDbEntity
  8
0
  6
Continuous
 62
     7
370
    25
100
AcDbLine
 10
4.8008166862
 20
5.4957066705
 30
0.0
 11
4.3008166923
 21
5.4957066705
 31
0.0
  0
LINE
  5
AC
330
1F
100
AcDbEntity
  8
0
  6
Continuous
 62
     7
370
    25
100
AcDbLine
 10
4.8008166862
 20
5.5857066775
 30
0.0
 11
4.8008166862
 21
5.4957066705
 31
0.0
  0
LINE
  5
AD
330
1F
100
AcDbEntity
  8
0
  6
Continuous
 62
     7
370
    25
100
AcDbLine
 10
5.8783167005
 20
4.0314560557
 30
0.0
 11
5.8783167005
 21
4.7649572822
 31
0.0
  0
ARC
  5
AE
330
1F
100
AcDbEntity
  8
0
  6
Continuous
 62
     7
370
    25
100
AcDbCircle
 10
5.3158166892
 20
4.3982066689
 30
0.0
 40
0.6714999999999998
100
AcDbArc
 50
33.1043930386
 51
146.8956069614
  0
LINE
  5
AF
330
1F
100
AcDbEntity
  8
0
  6
Continuous
 62
     7
370
    25
100
AcDbLine
 10
4.7533166866
 20
4.7649572822
 30
0.0
 11
4.7533166866
 21
4.0314560557
 31
0.0
  0
ARC
  5
B0
330
1F
100
AcDbEntity
  8
0
  6
Continuous
 62
     7
370
    25
100
AcDbCircle
 10
5.3158166892
 20
4.3982066689
 30
0.0
 40
0.6714999999999998
100
AcDbArc
 50
213.1043930386
 51
326.8956069614
  0
LINE
  5
B1
330
1F
100
AcDbEntity
  8
0
  6
Continuous
 62
     7
370
    25
100
AcDbLine
 10
4.3483166919
 20
4.0314560557
 30
0.0
 11
4.3483166919
 21
4.7649572822
 31
0.0
  0
ARC
  5
B2
330
1F
100
AcDbEntity
  8
0
  6
Continuous
 62
     7
370
    25
100
AcDbCircle
 10
3.7858166892
 20
4.3982066689
 30
0.0
 40
0.6714999999999998
100
AcDbArc
 50
33.1043930386
 51
146.8956069614
  0
LINE
  5
B3
330
1F
100
AcDbEntity
  8
0
  6
Continuous
 62
     7
370
    25
100
AcDbLine
 10
3.223316678
 20
4.7649572822
 30
0.0
 11
3.223316678
 21
4.0314560557
 31
0.0
  0
ARC
  5
B4
330
1F
100
AcDbEntity
  8
0
  6
Continuous
 62
     7
370
    25
100
AcDbCircle
 10
3.7858166892
 20
4.3982066689
 30
0.0
 40
0.6714999999999998
100
AcDbArc
 50
213.1043930386
 51
326.8956069614
  0
CIRCLE
  5
B5
330
1F
100
AcDbEntity
  8
0
  6
Continuous
 62
     7
370
    25
100
AcDbCircle
 10
6.1913166892
 20
4.3982066689
 30
0.0
 40
0.0780000000000003
  0
CIRCLE
  5
B6
330
1F
100
AcDbEntity
  8
0
  6
Continuous
 62
     7
370
    25
100
AcDbCircle
 10
2.9103166892
 20
4.3982066689
 30
0.0
 40
0.0780000000000003
  0
CIRCLE
  5
B7
330
1F
100
AcDbEntity
  8
0
  6
Continuous
 62
     7
370
    25
100
AcDbCircle
 10
4.5508166892
 20
4.3982066689
 30
0.0
 40
0.0779999999999994
  0
CIRCLE
  5
B8
330
1F
100
AcDbEntity
  8
0
  6
Continuous
 62
     7
370
    25
100
AcDbCircle
 10
6.2648166892
 20
5.4037066689
 30
0.0
 40
0.0532500000000002
  0
DIMENSION
  5
B9
330
1F
100
AcDbEntity
  8
DEFAULT
 62
     7
100
AcDbDimension
  2
_D
 10
6.7408166892
 20
2.7057854091
 30
0.0
 11
4.3758166892
 21
2.7057854091
 31
0.0
 70
   160
  1
<>
 71
     2
 42
-1.0
  3
SLDDIMSTYLE0
100
AcDbAlignedDimension
 13
2.0108166892
 23
4.1157066689
 33
0.0
 14
6.7408166892
 24
3.3357066689
 34
0.0
100
AcDbRotatedDimension
  0
DIMENSION
  5
CE
330
1F
100
AcDbEntity
  8
DEFAULT
 62
     7
100
AcDbDimension
  2
_D_1
 10
7.3707379491
 20
3.3357066689
 30
0.0
 11
7.3707379491
 21
4.4607066689
 31
0.0
 70
   160
  1
<>
 71
     2
 42
-1.0
  3
SLDDIMSTYLE1
100
AcDbAlignedDimension
 13
6.3868166892
 23
5.5857066689
 33
0.0
 14
6.7408166892
 24
3.3357066689
 34
0.0
 50
90.0
100
AcDbRotatedDimension
  0
INSERT
  5
F2
330
1F
100
AcDbEntity
  8
DEFAULT
100
AcDbBlockReference
  2
SW_CENTERMARKSYMBOL_1
 10
6.2648166892
 20
5.4037066689
 30
0.0
  0
INSERT
  5
FE
330
1F
100
AcDbEntity
  8
DEFAULT
100
AcDbBlockReference
  2
SW_CENTERMARKSYMBOL_2
 10
6.1913166892
 20
4.3982066689
 30
0.0
  0
INSERT
  5
10A
330
1F
100
AcDbEntity
  8
DEFAULT
100
AcDbBlockReference
  2
SW_CENTERMARKSYMBOL_3
 10
2.9103166892
 20
4.3982066689
 30
0.0
  0
INSERT
  5
116
330
1F
100
AcDbEntity
  8
DEFAULT
100
AcDbBlockReference
  2
SW_CENTERMARKSYMBOL_4
 10
4.5508166892
 20
4.3982066689
 30
0.0
  0
CIRCLE
  5
117
330
1F
100
AcDbEntity
  8
0
  6
HIDDEN
 62
     7
370
    18
100
AcDbCircle
 10
6.2648166892
 20
5.4037066689
 30
0.0
 40
0.0689999999999991
  0
CIRCLE
  5
118
330
1F
100
AcDbEntity
  8
0
  6
HIDDEN
 62
     7
370
    18
100
AcDbCircle
 10
6.2648166892
 20
5.4037066689
 30
0.0
 40
0.0689999999999991
  0
LWPOLYLINE
  5
119
330
1F
100
AcDbEntity
  8
0
  6
Continuous
 62
     7
370
    25
100
AcDbPolyline
 90
       25
 70
   128
 43
0.0
 10
6.6197425265
 20
8.0549709912
 10
6.6184595574
 20
8.0669652867
 10
6.6146979719
 20
8.0796235272
 10
6.6087141357
 20
8.0920831203
 10
6.600915828
 20
8.1034949006
 10
6.5918345511
 20
8.1130811503
 10
6.5820891294
 20
8.1201886478
 10
6.5723437078
 20
8.1243329746
 10
6.5632623272
 20
8.125231804
 10
6.5554641231
 20
8.1228236982
 10
6.549480287
 20
8.1172728953
 10
6.5457187015
 20
8.108957689
 10
6.5444356286
 20
8.098444738
 10
6.5457187015
 20
8.0864503826
 10
6.549480287
 20
8.0737921421
 10
6.5554641231
 20
8.0613325491
 10
6.5632623272
 20
8.0499208286
 10
6.5723437078
 20
8.0403345191
 10
6.5820891294
 20
8.0332270216
 10
6.5918345511
 20
8.0290826947
 10
6.600915828
 20
8.0281839252
 10
6.6087141357
 20
8.0305919711
 10
6.6146979719
 20
8.036142774
 10
6.6184595574
 20
8.0444579803
 10
6.6197425265
 20
8.0549709912
  0
LINE
  5
11A
330
1F
100
AcDbEntity
  8
0
  6
Continuous
 62
     7
370
    25
100
AcDbLine
 10
6.6683560747
 20
8.1755174238
 30
0.0
 11
5.5468847621
 21
8.8229290321
 31
0.0
  0
LINE
  5
11B
330
1F
100
AcDbEntity
  8
0
  6
Continuous
 62
     7
370
    25
100
AcDbLine
 10
6.6895692971
 20
8.138775045
 30
0.0
 11
6.6683560747
 21
8.1755174238
 31
0.0
  0
LINE
  5
11C
330
1F
100
AcDbEntity
  8
0
  6
Continuous
 62
     7
370
    25
100
AcDbLine
 10
6.6895692971
 20
7.8137918273
 30
0.0
 11
6.6895692971
 21
8.138775045
 31
0.0
  0
LINE
  5
11D
330
1F
100
AcDbEntity
  8
0
  6
Continuous
 62
     7
370
    25
100
AcDbLine
 10
6.9186719534
 20
7.6815336789
 30
0.0
 11
6.6895692971
 21
7.8137918273
 31
0.0
  0
LINE
  5
11E
330
1F
100
AcDbEntity
  8
0
  6
Continuous
 62
     7
370
    25
100
AcDbLine
 10
6.9186719534
 20
7.5284322598
 30
0.0
 11
6.9186719534
 21
7.6815336789
 31
0.0
  0
LINE
  5
11F
330
1F
100
AcDbEntity
  8
0
  6
Continuous
 62
     7
370
    25
100
AcDbLine
 10
6.8691744
 20
7.5570065892
 30
0.0
 11
6.9186719534
 21
7.5284322598
 31
0.0
  0
LINE
  5
120
330
1F
100
AcDbEntity
  8
0
  6
Continuous
 62
     7
370
    25
100
AcDbLine
 10
6.8691744
 20
7.2430466553
 30
0.0
 11
6.8691744
 21
7.5570065892
 31
0.0
  0
LINE
  5
121
330
1F
100
AcDbEntity
  8
0
  6
Continuous
 62
     7
370
    25
100
AcDbLine
 10
6.9186719534
 20
7.2144723259
 30
0.0
 11
6.8691744
 21
7.2430466553
 31
0.0
  0
LINE
  5
122
330
1F
100
AcDbEntity
  8
0
  6
Continuous
 62
     7
370
    25
100
AcDbLine
 10
6.9186719534
 20
6.9082695177
 30
0.0
 11
6.9186719534
 21
7.2144723259
 31
0.0
  0
LINE
  5
123
330
1F
100
AcDbEntity
  8
0
  6
Continuous
 62
     7
370
    25
100
AcDbLine
 10
6.8691744
 20
6.9368438471
 30
0.0
 11
6.9186719534
 21
6.9082695177
 31
0.0
  0
LINE
  5
124
330
1F
100
AcDbEntity
  8
0
  6
Continuous
 62
     7
370
    25
100
AcDbLine
 10
6.8691744
 20
6.3754720419
 30
0.0
 11
6.8691744
 21
6.9368438471
 31
0.0
  0
LINE
  5
125
330
1F
100
AcDbEntity
  8
0
  6
Continuous
 62
     7
370
    25
100
AcDbLine
 10
6.9186719534
 20
6.3468977126
 30
0.0
 11
6.8691744
 21
6.3754720419
 31
0.0
  0
LINE
  5
126
330
1F
100
AcDbEntity
  8
0
  6
Continuous
 62
     7
370
    25
100
AcDbLine
 10
6.9186719534
 20
6.1937962935
 30
0.0
 11
6.9186719534
 21
6.3468977126
 31
0.0
  0
LINE
  5
127
330
1F
100
AcDbEntity
  8
0
  6
Continuous
 62
     7
370
    25
100
AcDbLine
 10
6.5226921483
 20
6.4223905692
 30
0.0
 11
6.9186719534
 21
6.1937962935
 31
0.0
  0
LINE
  5
128
330
1F
100
AcDbEntity
  8
0
  6
Continuous
 62
     7
370
    25
100
AcDbLine
 10
6.5226921483
 20
6.495879248
 30
0.0
 11
6.5226921483
 21
6.4223905692
 31
0.0
  0
LINE
  5
129
330
1F
100
AcDbEntity
  8
0
  6
Continuous
 62
     7
370
    25
100
AcDbLine
 10
6.3388443594
 20
6.6020123174
 30
0.0
 11
6.5226921483
 21
6.495879248
 31
0.0
  0
LINE
  5
12A
330
1F
100
AcDbEntity
  8
0
  6
Continuous
 62
     7
370
    25
100
AcDbLine
 10
6.3388443594
 20
6.5285236386
 30
0.0
 11
6.3388443594
 21
6.6020123174
 31
0.0
  0
LINE
  5
12B
330
1F
100
AcDbEntity
  8
0
  6
Continuous
 62
     7
370
    25
100
AcDbLine
 10
4.4013717785
 20
7.6470027521
 30
0.0
 11
6.3388443594
 21
6.5285236386
 31
0.0
  0
LINE
  5
12C
330
1F
100
AcDbEntity
  8
0
  6
Continuous
 62
     7
370
    25
100
AcDbLine
 10
4.4013717785
 20
7.7204914308
 30
0.0
 11
4.4013717785
 21
7.6470027521
 31
0.0
  0
LINE
  5
12D
330
1F
100
AcDbEntity
  8
0
  6
Continuous
 62
     7
370
    25
100
AcDbLine
 10
4.2175239896
 20
7.8266245003
 30
0.0
 11
4.4013717785
 21
7.7204914308
 31
0.0
  0
LINE
  5
12E
330
1F
100
AcDbEntity
  8
0
  6
Continuous
 62
     7
370
    25
100
AcDbLine
 10
4.2175239896
 20
7.7531358215
 30
0.0
 11
4.2175239896
 21
7.8266245003
 31
0.0
  0
LINE
  5
12F
330
1F
100
AcDbEntity
  8
0
  6
Continuous
 62
     7
370
    25
100
AcDbLine
 10
3.6801228403
 20
8.0633709014
 30
0.0
 11
4.2175239896
 21
7.7531358215
 31
0.0
  0
LINE
  5
130
330
1F
100
AcDbEntity
  8
0
  6
Continuous
 62
     7
370
    25
100
AcDbLine
 10
3.658909618
 20
8.1001132803
 30
0.0
 11
3.6801228403
 21
8.0633709014
 31
0.0
  0
LINE
  5
131
330
1F
100
AcDbEntity
  8
0
  6
Continuous
 62
     7
370
    25
100
AcDbLine
 10
3.658909618
 20
8.6880226505
 30
0.0
 11
3.658909618
 21
8.1001132803
 31
0.0
  0
LINE
  5
132
330
1F
100
AcDbEntity
  8
0
  6
Continuous
 62
     7
370
    25
100
AcDbLine
 10
3.5952700546
 20
8.7247609885
 30
0.0
 11
3.658909618
 21
8.6880226505
 31
0.0
  0
LINE
  5
133
330
1F
100
AcDbEntity
  8
0
  6
Continuous
 62
     7
370
    25
100
AcDbLine
 10
3.5740568322
 20
8.7615033523
 30
0.0
 11
3.5952700546
 21
8.7247609885
 31
0.0
  0
LINE
  5
134
330
1F
100
AcDbEntity
  8
0
  6
Continuous
 62
     7
370
    25
100
AcDbLine
 10
3.5740568322
 20
8.9284859511
 30
0.0
 11
3.5740568322
 21
8.7615033523
 31
0.0
  0
LINE
  5
135
330
1F
100
AcDbEntity
  8
0
  6
Continuous
 62
     7
370
    25
100
AcDbLine
 10
3.6023410596
 20
8.9121578143
 30
0.0
 11
3.5740568322
 21
8.9284859511
 31
0.0
  0
LWPOLYLINE
  5
136
330
1F
100
AcDbEntity
  8
0
  6
Continuous
 62
     7
370
    25
100
AcDbPolyline
 90
       15
 70
   128
 43
0.0
 10
3.6023410596
 20
9.0395381778
 10
3.6146140476
 20
9.0308562878
 10
3.6262716336
 20
9.0194160416
 10
3.6367293204
 20
9.005791066
 10
3.645462554
 20
8.9906646655
 10
3.6520334799
 20
8.9747953067
 10
3.6561126187
 20
8.9589787349
 10
3.6574954585
 20
8.9440080393
 10
3.6561126187
 20
8.9306339365
 10
3.6520334799
 20
8.9195270381
 10
3.645462554
 20
8.9112443089
 10
3.6367293204
 20
8.9062010853
 10
3.6262716336
 20
8.9046502978
 10
3.6146140476
 20
8.9066696139
 10
3.6023410596
 20
8.9121578143
  0
LINE
  5
137
330
1F
100
AcDbEntity
  8
0
  6
Continuous
 62
     7
370
    25
100
AcDbLine
 10
3.5740568322
 20
9.0558663147
 30
0.0
 11
3.6023410596
 21
9.0395381778
 31
0.0
  0
LINE
  5
138
330
1F
100
AcDbEntity
  8
0
  6
Continuous
 62
     7
370
    25
100
AcDbLine
 10
3.5740568322
 20
9.2228489135
 30
0.0
 11
3.5740568322
 21
9.0558663147
 31
0.0
  0
LINE
  5
139
330
1F
100
AcDbEntity
  8
0
  6
Continuous
 62
     7
370
    25
100
AcDbLine
 10
3.5952700546
 20
9.2350990122
 30
0.0
 11
3.5740568322
 21
9.2228489135
 31
0.0
  0
LINE
  5
13A
330
1F
100
AcDbEntity
  8
0
  6
Continuous
 62
     7
370
    25
100
AcDbLine
 10
3.658909618
 20
9.1983606742
 30
0.0
 11
3.5952700546
 21
9.2350990122
 31
0.0
  0
LINE
  5
13B
330
1F
100
AcDbEntity
  8
0
  6
Continuous
 62
     7
370
    25
100
AcDbLine
 10
3.658909618
 20
9.8883376373
 30
0.0
 11
3.658909618
 21
9.1983606742
 31
0.0
  0
LINE
  5
13C
330
1F
100
AcDbEntity
  8
0
  6
Continuous
 62
     7
370
    25
100
AcDbLine
 10
3.6801228403
 20
9.9005877509
 30
0.0
 11
3.658909618
 21
9.8883376373
 31
0.0
  0
LINE
  5
13D
330
1F
100
AcDbEntity
  8
0
  6
Continuous
 62
     7
370
    25
100
AcDbLine
 10
4.2175239896
 20
9.5903526709
 30
0.0
 11
3.6801228403
 21
9.9005877509
 31
0.0
  0
LINE
  5
13E
330
1F
100
AcDbEntity
  8
0
  6
Continuous
 62
     7
370
    25
100
AcDbLine
 10
4.2175239896
 20
9.436842997
 30
0.0
 11
4.2175239896
 21
9.5903526709
 31
0.0
  0
LINE
  5
13F
330
1F
100
AcDbEntity
  8
0
  6
Continuous
 62
     7
370
    25
100
AcDbLine
 10
4.4013717785
 20
9.3307099276
 30
0.0
 11
4.2175239896
 21
9.436842997
 31
0.0
  0
LINE
  5
140
330
1F
100
AcDbEntity
  8
0
  6
Continuous
 62
     7
370
    25
100
AcDbLine
 10
4.4013717785
 20
9.4842196015
 30
0.0
 11
4.4013717785
 21
9.3307099276
 31
0.0
  0
LINE
  5
141
330
1F
100
AcDbEntity
  8
0
  6
Continuous
 62
     7
370
    25
100
AcDbLine
 10
5.1933313758
 20
9.0270310575
 30
0.0
 11
4.4013717785
 21
9.4842196015
 31
0.0
  0
LINE
  5
142
330
1F
100
AcDbEntity
  8
0
  6
Continuous
 62
     7
370
    25
100
AcDbLine
 10
5.1933313758
 20
8.9535423788
 30
0.0
 11
5.1933313758
 21
9.0270310575
 31
0.0
  0
LINE
  5
143
330
1F
100
AcDbEntity
  8
0
  6
Continuous
 62
     7
370
    25
100
AcDbLine
 10
5.5468847621
 20
8.7494403533
 30
0.0
 11
5.1933313758
 21
8.9535423788
 31
0.0
  0
LINE
  5
144
330
1F
100
AcDbEntity
  8
0
  6
Continuous
 62
     7
370
    25
100
AcDbLine
 10
5.5468847621
 20
8.8229290321
 30
0.0
 11
5.5468847621
 21
8.7494403533
 31
0.0
  0
LINE
  5
145
330
1F
100
AcDbEntity
  8
0
  6
Continuous
 62
     7
370
    25
100
AcDbLine
 10
6.308792329
 20
7.1139800913
 30
0.0
 11
6.308792329
 21
7.7129137784
 31
0.0
  0
LWPOLYLINE
  5
146
330
1F
100
AcDbEntity
  8
0
  6
Continuous
 62
     7
370
    25
100
AcDbPolyline
 90
       28
 70
   128
 43
0.0
 10
6.308792329
 20
7.7129137784
 10
6.2886583936
 20
7.7574815114
 10
6.2664822444
 20
7.8014304732
 10
6.2423838711
 20
7.8445229255
 10
6.2164935308
 20
7.8865258615
 10
6.1889512809
 20
7.9272121135
 10
6.1599060976
 20
7.9663616105
 10
6.1295149945
 20
8.003762695
 10
6.0979424004
 20
8.0392129915
 10
6.06535907
 20
8.0725209032
 10
6.0319411512
 20
8.1035061813
 10
5.9978693547
 20
8.1320013909
 10
5.963328073
 20
8.1578522414
 10
5.9285039801
 20
8.1809191126
 10
5.8935855132
 20
8.2010771145
 10
5.8587614203
 20
8.2182172851
 10
5.8242201386
 20
8.2322469496
 10
5.790148394
 20
8.2430901688
 10
5.7567304492
 20
8.2506884136
 10
5.724147093
 20
8.2550004292
 10
5.6925744988
 20
8.2560030741
 10
5.6621834216
 20
8.2536907954
 10
5.6331382124
 20
8.2480761682
 10
5.6055959884
 20
8.2391895061
 10
5.5797056611
 20
8.2270789132
 10
5.5556072619
 20
8.2118098654
 10
5.5334311386
 20
8.1934649256
 10
5.5132971903
 20
8.172143347
  0
LINE
  5
147
330
1F
100
AcDbEntity
  8
0
  6
Continuous
 62
     7
370
    25
100
AcDbLine
 10
5.5132971903
 20
8.172143347
 30
0.0
 11
5.5132971903
 21
7.5732096599
 31
0.0
  0
LWPOLYLINE
  5
148
330
1F
100
AcDbEntity
  8
0
  6
Continuous
 62
     7
370
    25
100
AcDbPolyline
 90
       28
 70
   128
 43
0.0
 10
5.5132971903
 20
7.5732096599
 10
5.5334311386
 20
7.5286419194
 10
5.5556072619
 20
7.4846929726
 10
5.5797056611
 20
7.4416005053
 10
5.6055959884
 20
7.3995975768
 10
5.6331382124
 20
7.3589113397
 10
5.6621834216
 20
7.3197618278
 10
5.6925744988
 20
7.2823607583
 10
5.724147093
 20
7.2469104618
 10
5.7567304492
 20
7.2136025351
 10
5.790148394
 20
7.1826172421
 10
5.8242201386
 20
7.1541220623
 10
5.8587614203
 20
7.1282712118
 10
5.8935855132
 20
7.1052043407
 10
5.9285039801
 20
7.0850463388
 10
5.963328073
 20
7.0679061682
 10
5.9978693547
 20
7.0538765037
 10
6.0319411512
 20
7.0430332545
 10
6.06535907
 20
7.0354350247
 10
6.0979424004
 20
7.031123024
 10
6.1295149945
 20
7.0301203792
 10
6.1599060976
 20
7.0324326429
 10
6.1889512809
 20
7.0380472851
 10
6.2164935308
 20
7.0469339323
 10
6.2423838711
 20
7.0590445176
 10
6.2664822444
 20
7.0743135804
 10
6.2886583936
 20
7.0926585052
 10
6.308792329
 20
7.1139800913
  0
LINE
  5
149
330
1F
100
AcDbEntity
  8
0
  6
Continuous
 62
     7
370
    25
100
AcDbLine
 10
5.2269189476
 20
7.7385323004
 30
0.0
 11
5.2269189476
 21
8.3374659875
 31
0.0
  0
LWPOLYLINE
  5
14A
330
1F
100
AcDbEntity
  8
0
  6
Continuous
 62
     7
370
    25
100
AcDbPolyline
 90
       28
 70
   128
 43
0.0
 10
5.2269189476
 20
8.3374659875
 10
5.2067849993
 20
8.382033728
 10
5.184608876
 20
8.4259826748
 10
5.1605104768
 20
8.469075142
 10
5.1346201495
 20
8.5110780705
 10
5.1070779255
 20
8.5517643077
 10
5.0780327163
 20
8.5909138196
 10
5.0476416391
 20
8.6283148891
 10
5.016069045
 20
8.6637651856
 10
4.9834856887
 20
8.6970731123
 10
4.9500677439
 20
8.7280584053
 10
4.9159959993
 20
8.756553585
 10
4.8814547176
 20
8.7824044355
 10
4.8466306247
 20
8.8054713067
 10
4.8117121578
 20
8.8256293086
 10
4.7768880649
 20
8.8427694792
 10
4.7423467832
 20
8.8567991437
 10
4.7082749868
 20
8.8676423929
 10
4.6748570679
 20
8.8752406227
 10
4.6422737376
 20
8.8795526233
 10
4.6107011434
 20
8.8805552682
 10
4.5803100403
 20
8.8782430045
 10
4.551264857
 20
8.8726283623
 10
4.5237226071
 20
8.8637417151
 10
4.4978322668
 20
8.8516311297
 10
4.4737338935
 20
8.836362067
 10
4.4515577443
 20
8.8180171422
 10
4.431423809
 20
8.796695556
  0
LINE
  5
14B
330
1F
100
AcDbEntity
  8
0
  6
Continuous
 62
     7
370
    25
100
AcDbLine
 10
4.431423809
 20
8.796695556
 30
0.0
 11
4.431423809
 21
8.197761869
 31
0.0
  0
LWPOLYLINE
  5
14C
330
1F
100
AcDbEntity
  8
0
  6
Continuous
 62
     7
370
    25
100
AcDbPolyline
 90
       28
 70
   128
 43
0.0
 10
4.431423809
 20
8.197761869
 10
4.4515577443
 20
8.1531941359
 10
4.4737338935
 20
8.1092451742
 10
4.4978322668
 20
8.0661527219
 10
4.5237226071
 20
8.0241497859
 10
4.551264857
 20
7.9834635338
 10
4.5803100403
 20
7.9443140368
 10
4.6107011434
 20
7.9069129524
 10
4.6422737376
 20
7.8714626559
 10
4.6748570679
 20
7.8381547441
 10
4.7082749868
 20
7.8071694661
 10
4.7423467832
 20
7.7786742564
 10
4.7768880649
 20
7.7528234059
 10
4.8117121578
 20
7.7297565348
 10
4.8466306247
 20
7.7095985329
 10
4.8814547176
 20
7.6924583623
 10
4.9159959993
 20
7.6784286978
 10
4.9500677439
 20
7.6675854785
 10
4.9834856887
 20
7.6599872338
 10
5.016069045
 20
7.6556752181
 10
5.0476416391
 20
7.6546725733
 10
5.0780327163
 20
7.656984852
 10
5.1070779255
 20
7.6625994792
 10
5.1346201495
 20
7.6714861413
 10
5.1605104768
 20
7.6835967342
 10
5.184608876
 20
7.698865782
 10
5.2067849993
 20
7.7172107218
 10
5.2269189476
 20
7.7385323004
  0
LWPOLYLINE
  5
14D
330
1F
100
AcDbEntity
  8
0
  6
Continuous
 62
     7
370
    25
100
AcDbPolyline
 90
       30
 70
   128
 43
0.0
 10
6.585271092
 20
7.2538391423
 10
6.5839815893
 20
7.2682750629
 10
6.580173439
 20
7.2835247681
 10
6.5740247075
 20
7.2988751994
 10
6.5658228727
 20
7.3136086004
 10
6.5559514461
 20
7.3270360566
 10
6.5448721347
 20
7.3385296381
 10
6.5331027517
 20
7.3475520622
 10
6.521193778
 20
7.3536813534
 10
6.5097020208
 20
7.3566309348
 10
6.4991648939
 20
7.356262858
 10
6.4900749055
 20
7.352594437
 10
6.4828573614
 20
7.3457970516
 10
6.4778495193
 20
7.3361886701
 10
6.4752857589
 20
7.3242184438
 10
6.4752857589
 20
7.3104462035
 10
6.4778495193
 20
7.2955159224
 10
6.4828573614
 20
7.2801256095
 10
6.4900749055
 20
7.264995025
 10
6.4991648939
 20
7.2508315268
 10
6.5097020208
 20
7.2382975422
 10
6.521193778
 20
7.2279790231
 10
6.5331027517
 20
7.220358506
 10
6.5448721347
 20
7.2157922897
 10
6.5559514461
 20
7.2144939707
 10
6.5658228727
 20
7.2165241203
 10
6.5740247075
 20
7.2217878844
 10
6.580173439
 20
7.2300391413
 10
6.5839815893
 20
7.2408920498
 10
6.585271092
 20
7.2538391423
  0
LWPOLYLINE
  5
14E
330
1F
100
AcDbEntity
  8
0
  6
Continuous
 62
     7
370
    25
100
AcDbPolyline
 90
       30
 70
   128
 43
0.0
 10
4.26525374
 20
8.5931566515
 10
4.2639642372
 20
8.6075925721
 10
4.2601560869
 20
8.6228422773
 10
4.2540073554
 20
8.6381927085
 10
4.2458055206
 20
8.6529261096
 10
4.2359341977
 20
8.6663535059
 10
4.2248547826
 20
8.6778471473
 10
4.2130853996
 20
8.6868695714
 10
4.201176426
 20
8.6929988626
 10
4.1896846687
 20
8.695948444
 10
4.1791475418
 20
8.6955803672
 10
4.1700575534
 20
8.6919119462
 10
4.1628400093
 20
8.6851145608
 10
4.1578322709
 20
8.6755061194
 10
4.1552684068
 20
8.6635359529
 10
4.1552684068
 20
8.6497637127
 10
4.1578322709
 20
8.6348333717
 10
4.1628400093
 20
8.6194431187
 10
4.1700575534
 20
8.6043125342
 10
4.1791475418
 20
8.590149036
 10
4.1896846687
 20
8.5776150514
 10
4.201176426
 20
8.5672965323
 10
4.2130853996
 20
8.5596760152
 10
4.2248547826
 20
8.5551097989
 10
4.2359341977
 20
8.55381142
 10
4.2458055206
 20
8.5558416295
 10
4.2540073554
 20
8.5611053936
 10
4.2601560869
 20
8.5693566505
 10
4.2639642372
 20
8.580209559
 10
4.26525374
 20
8.5931566515
  0
LWPOLYLINE
  5
14F
330
1F
100
AcDbEntity
  8
0
  6
Continuous
 62
     7
370
    25
100
AcDbPolyline
 90
       30
 70
   128
 43
0.0
 10
5.4252623966
 20
7.9234979081
 10
5.4239729197
 20
7.9379338138
 10
5.4201647824
 20
7.9531835115
 10
5.4140160476
 20
7.9685339446
 10
5.4058142258
 20
7.9832673381
 10
5.3959428219
 20
7.9966947812
 10
5.3848634149
 20
8.008188418
 10
5.3730940641
 20
8.0172108234
 10
5.3611850915
 20
8.0233401141
 10
5.349693348
 20
8.0262896875
 10
5.3391561724
 20
8.0259216388
 10
5.3300662748
 20
8.0222531654
 10
5.3228486854
 20
8.0154558062
 10
5.3178408951
 20
8.0058473947
 10
5.3152770569
 20
7.9938772133
 10
5.3152770569
 20
7.9801049731
 10
5.3178408951
 20
7.965174647
 10
5.3228486854
 20
7.9497843641
 10
5.3300662748
 20
7.9346537534
 10
5.3391561724
 20
7.9204903076
 10
5.349693348
 20
7.907956295
 10
5.3611850915
 20
7.8976377838
 10
5.3730940641
 20
7.8900172673
 10
5.3848634149
 20
7.8854510696
 10
5.3959428219
 20
7.8841526954
 10
5.4058142258
 20
7.8861828581
 10
5.4140160476
 20
7.8914466297
 10
5.4201647824
 20
7.8996978847
 10
5.4239729197
 20
7.9105508007
 10
5.4252623966
 20
7.9234979081
  0
LINE
  5
150
330
1F
100
AcDbEntity
  8
0
  6
Continuous
 62
     7
370
    25
100
AcDbLine
 10
6.718560656
 20
8.2044999117
 30
0.0
 11
6.6683560747
 21
8.1755174238
 31
0.0
  0
LINE
  5
151
330
1F
100
AcDbEntity
  8
0
  6
Continuous
 62
     7
370
    25
100
AcDbLine
 10
6.7397738784
 20
8.1677575329
 30
0.0
 11
6.6895692971
 21
8.138775045
 31
0.0
  0
LINE
  5
152
330
1F
100
AcDbEntity
  8
0
  6
Continuous
 62
     7
370
    25
100
AcDbLine
 10
6.7397738784
 20
8.1677575329
 30
0.0
 11
6.718560656
 21
8.2044999117
 31
0.0
  0
LINE
  5
153
330
1F
100
AcDbEntity
  8
0
  6
Continuous
 62
     7
370
    25
100
AcDbLine
 10
6.7397738784
 20
7.8427743151
 30
0.0
 11
6.6895692971
 21
7.8137918273
 31
0.0
  0
LINE
  5
154
330
1F
100
AcDbEntity
  8
0
  6
Continuous
 62
     7
370
    25
100
AcDbLine
 10
6.7397738784
 20
7.8427743151
 30
0.0
 11
6.7397738784
 21
8.1677575329
 31
0.0
  0
LINE
  5
155
330
1F
100
AcDbEntity
  8
0
  6
Continuous
 62
     7
370
    25
100
AcDbLine
 10
5.5468847621
 20
8.8229290321
 30
0.0
 11
5.5970893434
 21
8.8519115199
 31
0.0
  0
LINE
  5
156
330
1F
100
AcDbEntity
  8
0
  6
Continuous
 62
     7
370
    25
100
AcDbLine
 10
6.718560656
 20
8.2044999117
 30
0.0
 11
5.5970893434
 21
8.8519115199
 31
0.0
  0
LINE
  5
157
330
1F
100
AcDbEntity
  8
0
  6
Continuous
 62
     7
370
    25
100
AcDbLine
 10
6.9688765347
 20
7.7105161668
 30
0.0
 11
6.9186719534
 21
7.6815336789
 31
0.0
  0
LINE
  5
158
330
1F
100
AcDbEntity
  8
0
  6
Continuous
 62
     7
370
    25
100
AcDbLine
 10
6.9688765347
 20
7.5574147477
 30
0.0
 11
6.9186719534
 21
7.5284322598
 31
0.0
  0
LINE
  5
159
330
1F
100
AcDbEntity
  8
0
  6
Continuous
 62
     7
370
    25
100
AcDbLine
 10
6.9688765347
 20
7.5574147477
 30
0.0
 11
6.9688765347
 21
7.7105161668
 31
0.0
  0
LINE
  5
15A
330
1F
100
AcDbEntity
  8
0
  6
Continuous
 62
     7
370
    25
100
AcDbLine
 10
6.9688765347
 20
7.7105161668
 30
0.0
 11
6.7397738784
 21
7.8427743151
 31
0.0
  0
ARC
  5
15B
330
1F
100
AcDbEntity
  8
0
  6
Continuous
 62
     7
370
    25
100
AcDbCircle
 10
6.6834097756
 20
8.1351989901
 30
0.0
 40
0.0897814285915208
100
AcDbArc
 50
198.5871675519
 51
221.4074241172
  0
LINE
  5
15C
330
1F
100
AcDbEntity
  8
0
  6
Continuous
 62
     7
370
    25
100
AcDbLine
 10
6.9193789813
 20
7.2720291432
 30
0.0
 11
6.8691744
 21
7.2430466553
 31
0.0
  0
LINE
  5
15D
330
1F
100
AcDbEntity
  8
0
  6
Continuous
 62
     7
370
    25
100
AcDbLine
 10
6.9193789813
 20
7.2720291432
 30
0.0
 11
6.9193789813
 21
7.5288405303
 31
0.0
  0
LINE
  5
15E
330
1F
100
AcDbEntity
  8
0
  6
Continuous
 62
     7
370
    25
100
AcDbLine
 10
6.9688765347
 20
7.2434548138
 30
0.0
 11
6.9186719534
 21
7.2144723259
 31
0.0
  0
LINE
  5
15F
330
1F
100
AcDbEntity
  8
0
  6
Continuous
 62
     7
370
    25
100
AcDbLine
 10
6.9688765347
 20
6.9372520056
 30
0.0
 11
6.9186719534
 21
6.9082695177
 31
0.0
  0
LINE
  5
160
330
1F
100
AcDbEntity
  8
0
  6
Continuous
 62
     7
370
    25
100
AcDbLine
 10
6.9688765347
 20
6.9372520056
 30
0.0
 11
6.9688765347
 21
7.2434548138
 31
0.0
  0
LINE
  5
161
330
1F
100
AcDbEntity
  8
0
  6
Continuous
 62
     7
370
    25
100
AcDbLine
 10
6.9688765347
 20
7.2434548138
 30
0.0
 11
6.9193789813
 21
7.2720291432
 31
0.0
  0
LINE
  5
162
330
1F
100
AcDbEntity
  8
0
  6
Continuous
 62
     7
370
    25
100
AcDbLine
 10
5.5635017716
 20
8.2011258348
 30
0.0
 11
5.5132971903
 21
8.172143347
 31
0.0
  0
LWPOLYLINE
  5
163
330
1F
100
AcDbEntity
  8
0
  6
Continuous
 62
     7
370
    25
100
AcDbPolyline
 90
        3
 70
   128
 43
0.0
 10
5.6013638029
 20
8.237477403
 10
5.5836357199
 20
8.2224474135
 10
5.5635017716
 20
8.2011258348
  0
LINE
  5
164
330
1F
100
AcDbEntity
  8
0
  6
Continuous
 62
     7
370
    25
100
AcDbLine
 10
6.9193789813
 20
6.4044545298
 30
0.0
 11
6.8691744
 21
6.3754720419
 31
0.0
  0
LINE
  5
165
330
1F
100
AcDbEntity
  8
0
  6
Continuous
 62
     7
370
    25
100
AcDbLine
 10
6.9193789813
 20
6.4044545298
 30
0.0
 11
6.9193789813
 21
6.9086777732
 31
0.0
  0
ARC
  5
166
330
1F
100
AcDbEntity
  8
0
  6
Continuous
 62
     7
370
    25
100
AcDbCircle
 10
6.6403881279
 20
7.3493373855
 30
0.0
 40
0.1150438379473585
100
AcDbArc
 50
178.7375122786
 51
241.2570826363
  0
LINE
  5
167
330
1F
100
AcDbEntity
  8
0
  6
Continuous
 62
     7
370
    25
100
AcDbLine
 10
5.1933313758
 20
8.9535423788
 30
0.0
 11
5.2435359571
 21
8.9825248667
 31
0.0
  0
LINE
  5
168
330
1F
100
AcDbEntity
  8
0
  6
Continuous
 62
     7
370
    25
100
AcDbLine
 10
5.5468847621
 20
8.8074053291
 30
0.0
 11
5.2435359571
 21
8.9825248667
 31
0.0
  0
LINE
  5
169
330
1F
100
AcDbEntity
  8
0
  6
Continuous
 62
     7
370
    25
100
AcDbLine
 10
6.9688765347
 20
6.3758802004
 30
0.0
 11
6.9186719534
 21
6.3468977126
 31
0.0
  0
LINE
  5
16A
330
1F
100
AcDbEntity
  8
0
  6
Continuous
 62
     7
370
    25
100
AcDbLine
 10
6.9688765347
 20
6.3758802004
 30
0.0
 11
6.9193789813
 21
6.4044545298
 31
0.0
  0
LINE
  5
16B
330
1F
100
AcDbEntity
  8
0
  6
Continuous
 62
     7
370
    25
100
AcDbLine
 10
6.9688765347
 20
6.2227787814
 30
0.0
 11
6.9186719534
 21
6.1937962935
 31
0.0
  0
LINE
  5
16C
330
1F
100
AcDbEntity
  8
0
  6
Continuous
 62
     7
370
    25
100
AcDbLine
 10
6.9688765347
 20
6.2227787814
 30
0.0
 11
6.9688765347
 21
6.3758802004
 31
0.0
  0
LINE
  5
16D
330
1F
100
AcDbEntity
  8
0
  6
Continuous
 62
     7
370
    25
100
AcDbLine
 10
5.5635017716
 20
7.6021921478
 30
0.0
 11
5.5132971903
 21
7.5732096599
 31
0.0
  0
LWPOLYLINE
  5
16E
330
1F
100
AcDbEntity
  8
0
  6
Continuous
 62
     7
370
    25
100
AcDbPolyline
 90
       25
 70
   128
 43
0.0
 10
5.5635017716
 20
7.6021921478
 10
5.5836357199
 20
7.5576244073
 10
5.6058118432
 20
7.5136754605
 10
5.6299102424
 20
7.4705829932
 10
5.6558005697
 20
7.4285800647
 10
5.6833427937
 20
7.3878938276
 10
5.712388003
 20
7.3487443157
 10
5.7427790801
 20
7.3113432462
 10
5.7743516743
 20
7.2758929497
 10
5.8069350306
 20
7.2425850229
 10
5.8403529753
 20
7.21159973
 10
5.87442472
 20
7.1831045502
 10
5.9089660017
 20
7.1572536997
 10
5.9437900945
 20
7.1341868286
 10
5.9787085615
 20
7.1140288267
 10
6.0135326543
 20
7.096888656
 10
6.048073936
 20
7.0828589916
 10
6.0821457325
 20
7.0720157424
 10
6.1155636513
 20
7.0644175126
 10
6.1481469817
 20
7.0601055119
 10
6.1797195758
 20
7.0591028671
 10
6.2101106789
 20
7.0614151308
 10
6.2391558622
 20
7.0670297729
 10
6.2666981122
 20
7.0759164201
 10
6.2709302718
 20
7.0776285474
  0
LINE
  5
16F
330
1F
100
AcDbEntity
  8
0
  6
Continuous
 62
     7
370
    25
100
AcDbLine
 10
4.4515763598
 20
9.5132020894
 30
0.0
 11
4.4013717785
 21
9.4842196015
 31
0.0
  0
LINE
  5
170
330
1F
100
AcDbEntity
  8
0
  6
Continuous
 62
     7
370
    25
100
AcDbLine
 10
5.1933313758
 20
9.0270310575
 30
0.0
 11
5.2435359571
 21
9.0560135454
 31
0.0
  0
LINE
  5
171
330
1F
100
AcDbEntity
  8
0
  6
Continuous
 62
     7
370
    25
100
AcDbLine
 10
5.2435359571
 20
9.0560135454
 30
0.0
 11
4.4515763598
 21
9.5132020894
 31
0.0
  0
LINE
  5
172
330
1F
100
AcDbEntity
  8
0
  6
Continuous
 62
     7
370
    25
100
AcDbLine
 10
5.2435359571
 20
8.9825248667
 30
0.0
 11
5.2435359571
 21
9.0560135454
 31
0.0
  0
LINE
  5
173
330
1F
100
AcDbEntity
  8
0
  6
Continuous
 62
     7
370
    25
100
AcDbLine
 10
5.5635017716
 20
8.2011258348
 30
0.0
 11
5.5635017716
 21
7.6021921478
 31
0.0
  0
LINE
  5
174
330
1F
100
AcDbEntity
  8
0
  6
Continuous
 62
     7
370
    25
100
AcDbLine
 10
4.4816283903
 20
8.8256780439
 30
0.0
 11
4.431423809
 21
8.796695556
 31
0.0
  0
LWPOLYLINE
  5
175
330
1F
100
AcDbEntity
  8
0
  6
Continuous
 62
     7
370
    25
100
AcDbPolyline
 90
        3
 70
   128
 43
0.0
 10
4.5194904475
 20
8.8620295971
 10
4.5017623256
 20
8.8469996301
 10
4.4816283903
 20
8.8256780439
  0
LINE
  5
176
330
1F
100
AcDbEntity
  8
0
  6
Continuous
 62
     7
370
    25
100
AcDbLine
 10
6.3890489407
 20
6.5575061265
 30
0.0
 11
6.3388443594
 21
6.5285236386
 31
0.0
  0
LINE
  5
177
330
1F
100
AcDbEntity
  8
0
  6
Continuous
 62
     7
370
    25
100
AcDbLine
 10
6.3890489407
 20
6.5575061265
 30
0.0
 11
6.3890489407
 21
6.5730298687
 31
0.0
  0
ARC
  5
178
330
1F
100
AcDbEntity
  8
0
  6
Continuous
 62
     7
370
    25
100
AcDbCircle
 10
5.4803795407
 20
8.0189961899
 30
0.0
 40
0.1150439256092314
100
AcDbArc
 50
178.7375380457
 51
241.2570856061
  0
LINE
  5
179
330
1F
100
AcDbEntity
  8
0
  6
Continuous
 62
     7
370
    25
100
AcDbLine
 10
4.267728571
 20
9.4658254849
 30
0.0
 11
4.2175239896
 21
9.436842997
 31
0.0
  0
LINE
  5
17A
330
1F
100
AcDbEntity
  8
0
  6
Continuous
 62
     7
370
    25
100
AcDbLine
 10
4.4013718304
 20
9.3886748735
 30
0.0
 11
4.267728571
 21
9.4658254849
 31
0.0
  0
LINE
  5
17B
330
1F
100
AcDbEntity
  8
0
  6
Continuous
 62
     7
370
    25
100
AcDbLine
 10
4.267728571
 20
9.6193351588
 30
0.0
 11
4.2175239896
 21
9.5903526709
 31
0.0
  0
LINE
  5
17C
330
1F
100
AcDbEntity
  8
0
  6
Continuous
 62
     7
370
    25
100
AcDbLine
 10
4.267728571
 20
9.4658254849
 30
0.0
 11
4.267728571
 21
9.6193351588
 31
0.0
  0
LINE
  5
17D
330
1F
100
AcDbEntity
  8
0
  6
Continuous
 62
     7
370
    25
100
AcDbLine
 10
3.7303274217
 20
9.9295702388
 30
0.0
 11
3.6801228403
 21
9.9005877509
 31
0.0
  0
LINE
  5
17E
330
1F
100
AcDbEntity
  8
0
  6
Continuous
 62
     7
370
    25
100
AcDbLine
 10
4.267728571
 20
9.6193351588
 30
0.0
 11
3.7303274217
 21
9.9295702388
 31
0.0
  0
LINE
  5
17F
330
1F
100
AcDbEntity
  8
0
  6
Continuous
 62
     7
370
    25
100
AcDbLine
 10
4.4816283903
 20
8.2267443569
 30
0.0
 11
4.431423809
 21
8.197761869
 31
0.0
  0
LWPOLYLINE
  5
180
330
1F
100
AcDbEntity
  8
0
  6
Continuous
 62
     7
370
    25
100
AcDbPolyline
 90
       25
 70
   128
 43
0.0
 10
4.4816283903
 20
8.2267443569
 10
4.5017623256
 20
8.1821766238
 10
4.5239384749
 20
8.1382276621
 10
4.5480368481
 20
8.0951352098
 10
4.5739271884
 20
8.0531322738
 10
4.6014694383
 20
8.0124460217
 10
4.6305146216
 20
7.9732965247
 10
4.6609057247
 20
7.9358954403
 10
4.6924783189
 20
7.9004451438
 10
4.7250616492
 20
7.867137232
 10
4.7584795681
 20
7.836151954
 10
4.7925513646
 20
7.8076567443
 10
4.8270926463
 20
7.7818058938
 10
4.8619167391
 20
7.7587390227
 10
4.8968352061
 20
7.7385810208
 10
4.9316592989
 20
7.7214408502
 10
4.9662005806
 20
7.7074111857
 10
5.0002723252
 20
7.6965679664
 10
5.03369027
 20
7.6889697216
 10
5.0662736263
 20
7.684657706
 10
5.0978462204
 20
7.6836550612
 10
5.1282372976
 20
7.6859673399
 10
5.1572825068
 20
7.6915819671
 10
5.1848247308
 20
7.7004686292
 10
5.1890569164
 20
7.7021807415
  0
LINE
  5
181
330
1F
100
AcDbEntity
  8
0
  6
Continuous
 62
     7
370
    25
100
AcDbLine
 10
4.4816283903
 20
8.8256780439
 30
0.0
 11
4.4816283903
 21
8.2267443569
 31
0.0
  0
ARC
  5
182
330
1F
100
AcDbEntity
  8
0
  6
Continuous
 62
     7
370
    25
100
AcDbCircle
 10
4.3203710554
 20
8.6886550532
 30
0.0
 40
0.1150441139958623
100
AcDbArc
 50
178.7375942648
 51
241.2570581238
  0
LINE
  5
183
330
1F
100
AcDbEntity
  8
0
  6
Continuous
 62
     7
370
    25
100
AcDbLine
 10
3.6454746359
 20
9.2640815001
 30
0.0
 11
3.5952700546
 21
9.2350990122
 31
0.0
  0
LINE
  5
184
330
1F
100
AcDbEntity
  8
0
  6
Continuous
 62
     7
370
    25
100
AcDbLine
 10
3.6589095661
 20
9.2563256799
 30
0.0
 11
3.6454746359
 21
9.2640815001
 31
0.0
  0
LINE
  5
185
330
1F
100
AcDbEntity
  8
0
  6
Continuous
 62
     7
370
    25
100
AcDbLine
 10
3.6525456409
 20
8.9411403021
 30
0.0
 11
3.6023410596
 21
8.9121578143
 31
0.0
  0
LINE
  5
186
330
1F
100
AcDbEntity
  8
0
  6
Continuous
 62
     7
370
    25
100
AcDbLine
 10
3.6572902726
 20
8.9386373724
 30
0.0
 11
3.6525456409
 21
8.9411403021
 31
0.0
  0
LINE
  5
187
330
1F
100
AcDbEntity
  8
0
  6
Continuous
 62
     7
370
    25
100
AcDbLine
 10
3.6242614136
 20
8.957468439
 30
0.0
 11
3.5740568322
 21
8.9284859511
 31
0.0
  0
LINE
  5
188
330
1F
100
AcDbEntity
  8
0
  6
Continuous
 62
     7
370
    25
100
AcDbLine
 10
3.6525456409
 20
8.9411403021
 30
0.0
 11
3.6242614136
 21
8.957468439
 31
0.0
  0
LINE
  5
189
330
1F
100
AcDbEntity
  8
0
  6
Continuous
 62
     7
370
    25
100
AcDbLine
 10
4.267728571
 20
7.7821183094
 30
0.0
 11
4.2175239896
 21
7.7531358215
 31
0.0
  0
LINE
  5
18A
330
1F
100
AcDbEntity
  8
0
  6
Continuous
 62
     7
370
    25
100
AcDbLine
 10
4.267728571
 20
7.7821183094
 30
0.0
 11
4.267728571
 21
7.7976420515
 31
0.0
  0
LWPOLYLINE
  5
18B
330
1F
100
AcDbEntity
  8
0
  6
HIDDEN
 62
     7
370
    18
100
AcDbPolyline
 90
       17
 70
   128
 43
0.0
 10
6.5820890919
 20
8.0203665422
 10
6.5634178265
 20
8.0354339616
 10
6.5475890919
 20
8.0567849577
 10
6.5370126696
 20
8.0811690347
 10
6.533298724
 20
8.1048739381
 10
6.5370126696
 20
8.1242908111
 10
6.5475890919
 20
8.1364636109
 10
6.5634178265
 20
8.139539139
 10
6.5820890919
 20
8.1330491742
 10
6.6007603574
 20
8.1179817548
 10
6.6165890919
 20
8.0966307588
 10
6.6271655142
 20
8.0722466817
 10
6.6308794598
 20
8.0485417783
 10
6.6271655142
 20
8.0291249053
 10
6.6165890919
 20
8.0169521055
 10
6.6007603574
 20
8.0138765774
 10
6.5820890919
 20
8.0203665422
  0
LWPOLYLINE
  5
18C
330
1F
100
AcDbEntity
  8
0
  6
HIDDEN
 62
     7
370
    18
100
AcDbPolyline
 90
       17
 70
   128
 43
0.0
 10
6.5820890919
 20
8.0203665422
 10
6.5634178265
 20
8.0354339616
 10
6.5475890919
 20
8.0567849577
 10
6.5370126696
 20
8.0811690347
 10
6.533298724
 20
8.1048739381
 10
6.5370126696
 20
8.1242908111
 10
6.5475890919
 20
8.1364636109
 10
6.5634178265
 20
8.139539139
 10
6.5820890919
 20
8.1330491742
 10
6.6007603574
 20
8.1179817548
 10
6.6165890919
 20
8.0966307588
 10
6.6271655142
 20
8.0722466817
 10
6.6308794598
 20
8.0485417783
 10
6.6271655142
 20
8.0291249053
 10
6.6165890919
 20
8.0169521055
 10
6.6007603574
 20
8.0138765774
 10
6.5820890919
 20
8.0203665422
  0
ENDSEC
  0
SECTION
  2
OBJECTS
  0
DICTIONARY
  5
C
330
0
100
AcDbDictionary
281
     1
  3
ACAD_GROUP
350
D
  3
ACAD_LAYOUT
350
1A
  3
ACAD_MLINESTYLE
350
17
  3
ACAD_PLOTSETTINGS
350
19
  3
ACAD_PLOTSTYLENAME
350
E
  3
ACAD_SCALELIST
350
47
  0
DICTIONARY
  5
D
102
{ACAD_REACTORS
330
C
102
}
330
C
100
AcDbDictionary
281
     1
  0
DICTIONARY
  5
1A
102
{ACAD_REACTORS
330
C
102
}
330
C
100
AcDbDictionary
281
     1
  3
Layout1
350
1E
  3
Layout2
350
26
  3
Model
350
22
  0
DICTIONARY
  5
17
102
{ACAD_REACTORS
330
C
102
}
330
C
100
AcDbDictionary
281
     1
  3
Standard
350
18
  0
DICTIONARY
  5
19
102
{ACAD_REACTORS
330
C
102
}
330
C
100
AcDbDictionary
281
     1
  0
ACDBDICTIONARYWDFLT
  5
E
102
{ACAD_REACTORS
330
C
102
}
330
C
100
AcDbDictionary
281
     1
  3
Normal
350
F
100
AcDbDictionaryWithDefault
340
F
  0
DICTIONARY
  5
47
102
{ACAD_REACTORS
330
C
102
}
330
C
100
AcDbDictionary
281
     1
  3
A0
350
48
  3
A1
350
49
  3
A2
350
4A
  3
A3
350
4B
  3
A4
350
4C
  3
A5
350
4D
  3
A6
350
4E
  3
A7
350
4F
  3
A8
350
50
  3
A9
350
51
  3
B0
350
52
  3
B1
350
53
  3
B2
350
54
  3
B3
350
55
  3
B4
350
56
  3
B5
350
57
  3
B6
350
58
  3
B7
350
59
  3
B8
350
5A
  3
B9
350
5B
  3
C0
350
5C
  3
C1
350
5D
  3
C2
350
5E
  3
C3
350
5F
  3
C4
350
60
  3
C5
350
61
  3
C6
350
62
  3
C7
350
63
  3
C8
350
64
  3
C9
350
65
  3
D0
350
66
  3
D1
350
67
  3
D2
350
68
  0
LAYOUT
  5
1E
102
{ACAD_REACTORS
330
1A
102
}
330
1A
100
AcDbPlotSettings
  1

  2
none_device
  4

  6

 40
0.0
 41
0.0
 42
0.0
 43
0.0
 44
0.0
 45
0.0
 46
0.0
 47
0.0
 48
0.0
 49
0.0
140
0.0
141
0.0
142
1.0
143
1.0
 70
   688
 72
     0
 73
     0
 74
     5
  7

 75
    16
147
1.0
148
0.0
149
0.0
100
AcDbLayout
  1
Layout1
 70
     1
 71
     1
 10
0.0
 20
0.0
 11
12.0
 21
9.0
 12
0.0
 22
0.0
 32
0.0
 14
1.0000000000E+20
 24
1.0000000000E+20
 34
1.0000000000E+20
 15
-1.0000000000E+20
 25
-1.0000000000E+20
 35
-1.0000000000E+20
146
0.0
 13
0.0
 23
0.0
 33
0.0
 16
1.0
 26
0.0
 36
0.0
 17
0.0
 27
1.0
 37
0.0
 76
     0
330
1B
  0
LAYOUT
  5
26
102
{ACAD_REACTORS
330
1A
102
}
330
1A
100
AcDbPlotSettings
  1

  2
none_device
  4

  6

 40
0.0
 41
0.0
 42
0.0
 43
0.0
 44
0.0
 45
0.0
 46
0.0
 47
0.0
 48
0.0
 49
0.0
140
0.0
141
0.0
142
1.0
143
1.0
 70
   688
 72
     0
 73
     0
 74
     5
  7

 75
    16
147
1.0
148
0.0
149
0.0
100
AcDbLayout
  1
Layout2
 70
     1
 71
     2
 10
0.0
 20
0.0
 11
0.0
 21
0.0
 12
0.0
 22
0.0
 32
0.0
 14
0.0
 24
0.0
 34
0.0
 15
0.0
 25
0.0
 35
0.0
146
0.0
 13
0.0
 23
0.0
 33
0.0
 16
1.0
 26
0.0
 36
0.0
 17
0.0
 27
1.0
 37
0.0
 76
     0
330
23
  0
LAYOUT
  5
22
102
{ACAD_REACTORS
330
1A
102
}
330
1A
100
AcDbPlotSettings
  1

  2
none_device
  4
Letter_(8.50_x_11.00_Inches)
  6

 40
6.35
 41
6.35
 42
6.35000508
 43
6.35000508
 44
215.9
 45
279.4
 46
0.0
 47
0.0
 48
0.0
 49
0.0
140
0.0
141
0.0
142
1.0
143
1.0
 70
  1712
 72
     0
 73
     0
 74
     0
  7

 75
     0
147
1.0
148
0.0
149
0.0
100
AcDbLayout
  1
Model
 70
     1
 71
     0
 10
0.0
 20
0.0
 11
8.5
 21
11.0
 12
0.0
 22
0.0
 32
0.0
 14
0.0
 24
0.0
 34
0.0
 15
8.5
 25
11.0
 35
0.0
146
0.0
 13
0.0
 23
0.0
 33
0.0
 16
1.0
 26
0.0
 36
0.0
 17
0.0
 27
1.0
 37
0.0
 76
     0
330
1F
331
29
  0
MLINESTYLE
  5
18
102
{ACAD_REACTORS
330
17
102
}
330
17
100
AcDbMlineStyle
  2
Standard
 70
     0
  3

 62
   256
 51
90.0
 52
90.0
 71
     2
 49
0.5
 62
   256
  6
BYLAYER
 49
-0.5
 62
   256
  6
BYLAYER
  0
ACDBPLACEHOLDER
  5
F
102
{ACAD_REACTORS
330
E
102
}
330
E
  0
SCALE
  5
48
102
{ACAD_REACTORS
330
47
102
}
330
47
100
AcDbScale
 70
     0
300
1:1
140
1.0
141
1.0
290
     1
  0
SCALE
  5
49
102
{ACAD_REACTORS
330
47
102
}
330
47
100
AcDbScale
 70
     0
300
1:2
140
1.0
141
2.0
290
     0
  0
SCALE
  5
4A
102
{ACAD_REACTORS
330
47
102
}
330
47
100
AcDbScale
 70
     0
300
1:4
140
1.0
141
4.0
290
     0
  0
SCALE
  5
4B
102
{ACAD_REACTORS
330
47
102
}
330
47
100
AcDbScale
 70
     0
300
1:5
140
1.0
141
5.0
290
     0
  0
SCALE
  5
4C
102
{ACAD_REACTORS
330
47
102
}
330
47
100
AcDbScale
 70
     0
300
1:8
140
1.0
141
8.0
290
     0
  0
SCALE
  5
4D
102
{ACAD_REACTORS
330
47
102
}
330
47
100
AcDbScale
 70
     0
300
1:10
140
1.0
141
10.0
290
     0
  0
SCALE
  5
4E
102
{ACAD_REACTORS
330
47
102
}
330
47
100
AcDbScale
 70
     0
300
1:16
140
1.0
141
16.0
290
     0
  0
SCALE
  5
4F
102
{ACAD_REACTORS
330
47
102
}
330
47
100
AcDbScale
 70
     0
300
1:20
140
1.0
141
20.0
290
     0
  0
SCALE
  5
50
102
{ACAD_REACTORS
330
47
102
}
330
47
100
AcDbScale
 70
     0
300
1:30
140
1.0
141
30.0
290
     0
  0
SCALE
  5
51
102
{ACAD_REACTORS
330
47
102
}
330
47
100
AcDbScale
 70
     0
300
1:40
140
1.0
141
40.0
290
     0
  0
SCALE
  5
52
102
{ACAD_REACTORS
330
47
102
}
330
47
100
AcDbScale
 70
     0
300
1:50
140
1.0
141
50.0
290
     0
  0
SCALE
  5
53
102
{ACAD_REACTORS
330
47
102
}
330
47
100
AcDbScale
 70
     0
300
1:100
140
1.0
141
100.0
290
     0
  0
SCALE
  5
54
102
{ACAD_REACTORS
330
47
102
}
330
47
100
AcDbScale
 70
     0
300
2:1
140
2.0
141
1.0
290
     0
  0
SCALE
  5
55
102
{ACAD_REACTORS
330
47
102
}
330
47
100
AcDbScale
 70
     0
300
4:1
140
4.0
141
1.0
290
     0
  0
SCALE
  5
56
102
{ACAD_REACTORS
330
47
102
}
330
47
100
AcDbScale
 70
     0
300
8:1
140
8.0
141
1.0
290
     0
  0
SCALE
  5
57
102
{ACAD_REACTORS
330
47
102
}
330
47
100
AcDbScale
 70
     0
300
10:1
140
10.0
141
1.0
290
     0
  0
SCALE
  5
58
102
{ACAD_REACTORS
330
47
102
}
330
47
100
AcDbScale
 70
     0
300
100:1
140
100.0
141
1.0
290
     0
  0
SCALE
  5
59
102
{ACAD_REACTORS
330
47
102
}
330
47
100
AcDbScale
 70
     0
300
1/128" = 1'-0"
140
0.0078125
141
12.0
290
     0
  0
SCALE
  5
5A
102
{ACAD_REACTORS
330
47
102
}
330
47
100
AcDbScale
 70
     0
300
1/64" = 1'-0"
140
0.015625
141
12.0
290
     0
  0
SCALE
  5
5B
102
{ACAD_REACTORS
330
47
102
}
330
47
100
AcDbScale
 70
     0
300
1/32" = 1'-0"
140
0.03125
141
12.0
290
     0
  0
SCALE
  5
5C
102
{ACAD_REACTORS
330
47
102
}
330
47
100
AcDbScale
 70
     0
300
1/16" = 1'-0"
140
0.0625
141
12.0
290
     0
  0
SCALE
  5
5D
102
{ACAD_REACTORS
330
47
102
}
330
47
100
AcDbScale
 70
     0
300
3/32" = 1'-0"
140
0.09375
141
12.0
290
     0
  0
SCALE
  5
5E
102
{ACAD_REACTORS
330
47
102
}
330
47
100
AcDbScale
 70
     0
300
1/8" = 1'-0"
140
0.125
141
12.0
290
     0
  0
SCALE
  5
5F
102
{ACAD_REACTORS
330
47
102
}
330
47
100
AcDbScale
 70
     0
300
3/16" = 1'-0"
140
0.1875
141
12.0
290
     0
  0
SCALE
  5
60
102
{ACAD_REACTORS
330
47
102
}
330
47
100
AcDbScale
 70
     0
300
1/4" = 1'-0"
140
0.25
141
12.0
290
     0
  0
SCALE
  5
61
102
{ACAD_REACTORS
330
47
102
}
330
47
100
AcDbScale
 70
     0
300
3/8" = 1'-0"
140
0.375
141
12.0
290
     0
  0
SCALE
  5
62
102
{ACAD_REACTORS
330
47
102
}
330
47
100
AcDbScale
 70
     0
300
1/2" = 1'-0"
140
0.5
141
12.0
290
     0
  0
SCALE
  5
63
102
{ACAD_REACTORS
330
47
102
}
330
47
100
AcDbScale
 70
     0
300
3/4" = 1'-0"
140
0.75
141
12.0
290
     0
  0
SCALE
  5
64
102
{ACAD_REACTORS
330
47
102
}
330
47
100
AcDbScale
 70
     0
300
1" = 1'-0"
140
1.0
141
12.0
290
     0
  0
SCALE
  5
65
102
{ACAD_REACTORS
330
47
102
}
330
47
100
AcDbScale
 70
     0
300
1-1/2" = 1'-0"
140
1.5
141
12.0
290
     0
  0
SCALE
  5
66
102
{ACAD_REACTORS
330
47
102
}
330
47
100
AcDbScale
 70
     0
300
3" = 1'-0"
140
3.0
141
12.0
290
     0
  0
SCALE
  5
67
102
{ACAD_REACTORS
330
47
102
}
330
47
100
AcDbScale
 70
     0
300
6" = 1'-0"
140
6.0
141
12.0
290
     0
  0
SCALE
  5
68
102
{ACAD_REACTORS
330
47
102
}
330
47
100
AcDbScale
 70
     0
300
1'-0" = 1'-0"
140
12.0
141
12.0
290
     0
  0
ENDSEC
  0
EOF
