  0
SECTION
  2
HEADER
  9
$ACADVER
  1
AC1015
  9
$ACADMAINTVER
 70
     6
  9
$DWGCODEPAGE
  3
ANSI_1252
  9
$INSBASE
 10
0.0
 20
0.0
 30
0.0
  9
$EXTMIN
 10
0.0
 20
0.0
 30
0.0
  9
$EXTMAX
 10
8.5
 20
11.0
 30
0.0
  9
$LIMMIN
 10
0.0
 20
0.0
  9
$LIMMAX
 10
8.5
 20
11.0
  9
$ORTHOMODE
 70
     0
  9
$REGENMODE
 70
     1
  9
$FILLMODE
 70
     1
  9
$QTEXTMODE
 70
     0
  9
$MIRRTEXT
 70
     1
  9
$LTSCALE
 40
1.0
  9
$ATTMODE
 70
     1
  9
$TEXTSIZE
 40
0.1388888889
  9
$TRACEWID
 40
0.05
  9
$TEXTSTYLE
  7
Standard
  9
$CLAYER
  8
0
  9
$CELTYPE
  6
ByLayer
  9
$CECOLOR
 62
   256
  9
$CELTSCALE
 40
1.0
  9
$DISPSILH
 70
     0
  9
$DIMSCALE
 40
1.0
  9
$DIMASZ
 40
0.13
  9
$DIMEXO
 40
0.05
  9
$DIMDLI
 40
0.38
  9
$DIMRND
 40
0.0
  9
$DIMDLE
 40
0.0
  9
$DIMEXE
 40
0.125
  9
$DIMTP
 40
0.0
  9
$DIMTM
 40
0.0
  9
$DIMTXT
 40
0.1388888889
  9
$DIMCEN
 40
0.09
  9
$DIMTSZ
 40
0.0
  9
$DIMTOL
 70
     0
  9
$DIMLIM
 70
     0
  9
$DIMTIH
 70
     1
  9
$DIMTOH
 70
     1
  9
$DIMSE1
 70
     0
  9
$DIMSE2
 70
     0
  9
$DIMTAD
 70
     0
  9
$DIMZIN
 70
     0
  9
$DIMBLK
  1

  9
$DIMASO
 70
     1
  9
$DIMSHO
 70
     1
  9
$DIMPOST
  1

  9
$DIMAPOST
  1

  9
$DIMALT
 70
     0
  9
$DIMALTD
 70
     2
  9
$DIMALTF
 40
25.4
  9
$DIMLFAC
 40
1.0
  9
$DIMTOFL
 70
     0
  9
$DIMTVP
 40
0.0
  9
$DIMTIX
 70
     0
  9
$DIMSOXD
 70
     0
  9
$DIMSAH
 70
     0
  9
$DIMBLK1
  1

  9
$DIMBLK2
  1

  9
$DIMSTYLE
  2
Standard
  9
$DIMCLRD
 70
     0
  9
$DIMCLRE
 70
     0
  9
$DIMCLRT
 70
     0
  9
$DIMTFAC
 40
1.0
  9
$DIMGAP
 40
0.06
  9
$DIMJUST
 70
     0
  9
$DIMSD1
 70
     0
  9
$DIMSD2
 70
     0
  9
$DIMTOLJ
 70
     1
  9
$DIMTZIN
 70
     0
  9
$DIMALTZ
 70
     0
  9
$DIMALTTZ
 70
     0
  9
$DIMUPT
 70
     0
  9
$DIMDEC
 70
     0
  9
$DIMTDEC
 70
     0
  9
$DIMALTU
 70
     2
  9
$DIMALTTD
 70
     2
  9
$DIMTXSTY
  7
Standard
  9
$DIMAUNIT
 70
     0
  9
$DIMADEC
 70
     0
  9
$DIMALTRND
 40
0.0
  9
$DIMAZIN
 70
     0
  9
$DIMDSEP
 70
    46
  9
$DIMATFIT
 70
     3
  9
$DIMFRAC
 70
     0
  9
$DIMLDRBLK
  1

  9
$DIMLUNIT
 70
     2
  9
$DIMLWD
 70
    -2
  9
$DIMLWE
 70
    -2
  9
$DIMTMOVE
 70
     0
  9
$LUNITS
 70
     2
  9
$LUPREC
 70
     0
  9
$SKETCHINC
 40
0.1
  9
$FILLETRAD
 40
0.5
  9
$AUNITS
 70
     0
  9
$AUPREC
 70
     0
  9
$MENU
  1
.
  9
$ELEVATION
 40
0.0
  9
$PELEVATION
 40
0.0
  9
$THICKNESS
 40
0.0
  9
$LIMCHECK
 70
     0
  9
$CHAMFERA
 40
0.0
  9
$CHAMFERB
 40
0.0
  9
$CHAMFERC
 40
0.0
  9
$CHAMFERD
 40
0.0
  9
$SKPOLY
 70
     0
  9
$TDCREATE
 40
2459019.889339908
  9
$TDUCREATE
 40
2459020.056006574
  9
$TDUPDATE
 40
2459019.889340637
  9
$TDUUPDATE
 40
2459020.056007303
  9
$TDINDWG
 40
0.0000000116
  9
$TDUSRTIMER
 40
0.0000000116
  9
$USRTIMER
 70
     1
  9
$ANGBASE
 50
0.0
  9
$ANGDIR
 70
     0
  9
$PDMODE
 70
     0
  9
$PDSIZE
 40
-1.0
  9
$PLINEWID
 40
0.0
  9
$SPLFRAME
 70
     0
  9
$SPLINETYPE
 70
     6
  9
$SPLINESEGS
 70
     8
  9
$HANDSEED
  5
17D
  9
$SURFTAB1
 70
     6
  9
$SURFTAB2
 70
     6
  9
$SURFTYPE
 70
     6
  9
$SURFU
 70
     6
  9
$SURFV
 70
     6
  9
$UCSBASE
  2

  9
$UCSNAME
  2

  9
$UCSORG
 10
0.0
 20
0.0
 30
0.0
  9
$UCSXDIR
 10
1.0
 20
0.0
 30
0.0
  9
$UCSYDIR
 10
0.0
 20
1.0
 30
0.0
  9
$UCSORTHOREF
  2

  9
$UCSORTHOVIEW
 70
     0
  9
$UCSORGTOP
 10
0.0
 20
0.0
 30
0.0
  9
$UCSORGBOTTOM
 10
0.0
 20
0.0
 30
0.0
  9
$UCSORGLEFT
 10
0.0
 20
0.0
 30
0.0
  9
$UCSORGRIGHT
 10
0.0
 20
0.0
 30
0.0
  9
$UCSORGFRONT
 10
0.0
 20
0.0
 30
0.0
  9
$UCSORGBACK
 10
0.0
 20
0.0
 30
0.0
  9
$PUCSBASE
  2

  9
$PUCSNAME
  2

  9
$PUCSORG
 10
0.0
 20
0.0
 30
0.0
  9
$PUCSXDIR
 10
1.0
 20
0.0
 30
0.0
  9
$PUCSYDIR
 10
0.0
 20
1.0
 30
0.0
  9
$PUCSORTHOREF
  2

  9
$PUCSORTHOVIEW
 70
     0
  9
$PUCSORGTOP
 10
0.0
 20
0.0
 30
0.0
  9
$PUCSORGBOTTOM
 10
0.0
 20
0.0
 30
0.0
  9
$PUCSORGLEFT
 10
0.0
 20
0.0
 30
0.0
  9
$PUCSORGRIGHT
 10
0.0
 20
0.0
 30
0.0
  9
$PUCSORGFRONT
 10
0.0
 20
0.0
 30
0.0
  9
$PUCSORGBACK
 10
0.0
 20
0.0
 30
0.0
  9
$USERI1
 70
     0
  9
$USERI2
 70
     0
  9
$USERI3
 70
     0
  9
$USERI4
 70
     0
  9
$USERI5
 70
     0
  9
$USERR1
 40
0.0
  9
$USERR2
 40
0.0
  9
$USERR3
 40
0.0
  9
$USERR4
 40
0.0
  9
$USERR5
 40
0.0
  9
$WORLDVIEW
 70
     1
  9
$SHADEDGE
 70
     3
  9
$SHADEDIF
 70
    70
  9
$TILEMODE
 70
     1
  9
$MAXACTVP
 70
    64
  9
$PINSBASE
 10
0.0
 20
0.0
 30
0.0
  9
$PLIMCHECK
 70
     0
  9
$PEXTMIN
 10
1.0000000000E+20
 20
1.0000000000E+20
 30
1.0000000000E+20
  9
$PEXTMAX
 10
-1.0000000000E+20
 20
-1.0000000000E+20
 30
-1.0000000000E+20
  9
$PLIMMIN
 10
0.0
 20
0.0
  9
$PLIMMAX
 10
12.0
 20
9.0
  9
$UNITMODE
 70
     0
  9
$VISRETAIN
 70
     1
  9
$PLINEGEN
 70
     0
  9
$PSLTSCALE
 70
     1
  9
$TREEDEPTH
 70
  3020
  9
$CMLSTYLE
  2
Standard
  9
$CMLJUST
 70
     0
  9
$CMLSCALE
 40
1.0
  9
$PROXYGRAPHICS
 70
     1
  9
$MEASUREMENT
 70
     0
  9
$CELWEIGHT
370
    -1
  9
$ENDCAPS
280
     0
  9
$JOINSTYLE
280
     0
  9
$LWDISPLAY
290
     1
  9
$INSUNITS
 70
     1
  9
$HYPERLINKBASE
  1

  9
$STYLESHEET
  1

  9
$XEDIT
290
     1
  9
$CEPSNTYPE
380
     0
  9
$PSTYLEMODE
290
     1
  9
$FINGERPRINTGUID
  2
{422d6cfe-df97-4942-ad64-003123348b7e}
  9
$VERSIONGUID
  2
{FAEB1C32-E019-11D5-929B-00C0DF256EC4}
  9
$EXTNAMES
290
     1
  9
$PSVPSCALE
 40
0.0
  9
$OLESTARTUP
290
     0
  0
ENDSEC
  0
SECTION
  2
CLASSES
  0
CLASS
  1
ACDBDICTIONARYWDFLT
  2
AcDbDictionaryWithDefault
  3
ObjectDBX Classes
 90
        0
280
     0
281
     0
  0
CLASS
  1
VISUALSTYLE
  2
AcDbVisualStyle
  3
ObjectDBX Classes
 90
     4095
280
     0
281
     0
  0
CLASS
  1
MATERIAL
  2
AcDbMaterial
  3
ObjectDBX Classes
 90
     1153
280
     0
281
     0
  0
CLASS
  1
SCALE
  2
AcDbScale
  3
ObjectDBX Classes
 90
     1153
280
     0
281
     0
  0
CLASS
  1
TABLESTYLE
  2
AcDbTableStyle
  3
ObjectDBX Classes
 90
     4095
280
     0
281
     0
  0
CLASS
  1
MLEADERSTYLE
  2
AcDbMLeaderStyle
  3
ACDB_MLEADERSTYLE_CLASS
 90
     4095
280
     0
281
     0
  0
CLASS
  1
SUN
  2
AcDbSun
  3
SCENEOE
 90
     1153
280
     0
281
     0
  0
CLASS
  1
ACDBPLACEHOLDER
  2
AcDbPlaceHolder
  3
ObjectDBX Classes
 90
        0
280
     0
281
     0
  0
CLASS
  1
LAYOUT
  2
AcDbLayout
  3
ObjectDBX Classes
 90
        0
280
     0
281
     0
  0
ENDSEC
  0
SECTION
  2
TABLES
  0
TABLE
  2
VPORT
  5
8
330
0
100
AcDbSymbolTable
 70
     1
  0
VPORT
  5
29
330
8
100
AcDbSymbolTableRecord
100
AcDbViewportTableRecord
  2
*Active
 70
     0
 10
0.0
 20
0.0
 11
1.0
 21
1.0
 12
4.25
 22
5.5
 13
0.0
 23
0.0
 14
0.5
 24
0.5
 15
0.5
 25
0.5
 16
0.0
 26
0.0
 36
1.0
 17
0.0
 27
0.0
 37
0.0
 40
11.0
 41
0.7727272727
 42
50.0
 43
0.0
 44
0.0
 50
0.0
 51
0.0
 71
     0
 72
  2000
 73
     1
 74
     3
 75
     0
 76
     0
 77
     0
 78
     0
281
     0
 65
     1
110
0.0
120
0.0
130
0.0
111
1.0
121
0.0
131
0.0
112
0.0
122
1.0
132
0.0
 79
     0
146
0.0
  0
ENDTAB
  0
TABLE
  2
LTYPE
  5
5
330
0
100
AcDbSymbolTable
 70
     6
  0
LTYPE
  5
14
330
5
100
AcDbSymbolTableRecord
100
AcDbLinetypeTableRecord
  2
ByBlock
 70
     0
  3

 72
    65
 73
     0
 40
0.0
  0
LTYPE
  5
15
330
5
100
AcDbSymbolTableRecord
100
AcDbLinetypeTableRecord
  2
ByLayer
 70
     0
  3

 72
    65
 73
     0
 40
0.0
  0
LTYPE
  5
16
330
5
100
AcDbSymbolTableRecord
100
AcDbLinetypeTableRecord
  2
Continuous
 70
     0
  3
Solid line
 72
    65
 73
     0
 40
0.0
  0
LTYPE
  5
6E
330
5
100
AcDbSymbolTableRecord
100
AcDbLinetypeTableRecord
  2
HIDDEN
 70
     0
  3
Hidden __ __ __ __ __ __ __ __ __ __ __ __ __ __
 72
    65
 73
     2
 40
0.075
 49
0.05
 74
     0
 49
-0.025
 74
     0
  0
LTYPE
  5
6F
330
5
100
AcDbSymbolTableRecord
100
AcDbLinetypeTableRecord
  2
PHANTOM
 70
     0
  3
Phantom ______  __  __  ______  __  __  ______
 72
    65
 73
     6
 40
0.5
 49
0.25
 74
     0
 49
-0.05
 74
     0
 49
0.05
 74
     0
 49
-0.05
 74
     0
 49
0.05
 74
     0
 49
-0.05
 74
     0
  0
LTYPE
  5
70
330
5
100
AcDbSymbolTableRecord
100
AcDbLinetypeTableRecord
  2
CENTER
 70
     0
  3
Center ____ _ ____ _ ____ _ ____ _ ____ _ ____
 72
    65
 73
     4
 40
0.4
 49
0.25
 74
     0
 49
-0.05
 74
     0
 49
0.05
 74
     0
 49
-0.05
 74
     0
  0
LTYPE
  5
71
330
5
100
AcDbSymbolTableRecord
100
AcDbLinetypeTableRecord
  2
CENTERX2
 70
     0
  3
Center (2x) ________  __  ________  __  _____
 72
    65
 73
     4
 40
0.8
 49
0.5
 74
     0
 49
-0.1
 74
     0
 49
0.1
 74
     0
 49
-0.1
 74
     0
  0
LTYPE
  5
72
330
5
100
AcDbSymbolTableRecord
100
AcDbLinetypeTableRecord
  2
DOT2
 70
     0
  3
Dot (.5x) ........................................
 72
    65
 73
     2
 40
0.025
 49
0.0
 74
     0
 49
-0.025
 74
     0
  0
ENDTAB
  0
TABLE
  2
LAYER
  5
2
330
0
100
AcDbSymbolTable
 70
     7
  0
LAYER
  5
10
330
2
100
AcDbSymbolTableRecord
100
AcDbLayerTableRecord
  2
0
 70
     0
 62
     7
  6
Continuous
370
    -3
390
F
  0
LAYER
  5
73
330
2
100
AcDbSymbolTableRecord
100
AcDbLayerTableRecord
  2
FORMAT
 70
     0
 62
     7
  6
Continuous
370
    -3
390
F
  0
LAYER
  5
74
330
2
100
AcDbSymbolTableRecord
100
AcDbLayerTableRecord
  2
DEFAULT
 70
     0
 62
   179
  6
Continuous
370
    -3
390
F
  0
LAYER
  5
75
330
2
100
AcDbSymbolTableRecord
100
AcDbLayerTableRecord
  2
INSPECTION_TAGS
 70
     0
 62
     7
  6
Continuous
370
    -3
390
F
  0
LAYER
  5
76
330
2
100
AcDbSymbolTableRecord
100
AcDbLayerTableRecord
  2
REVISIONS
 70
     0
 62
     7
  6
Continuous
370
    -3
390
F
  0
LAYER
  5
77
330
2
100
AcDbSymbolTableRecord
100
AcDbLayerTableRecord
  2
DIMENSIONS_&_ANNOTATIONS
 70
     0
 62
     7
  6
Continuous
370
    -3
390
F
  0
LAYER
  5
78
330
2
100
AcDbSymbolTableRecord
100
AcDbLayerTableRecord
  2
DIMENSION_&_ANNOTATIONS
 70
     0
 62
     7
  6
Continuous
370
    -3
390
F
  0
ENDTAB
  0
TABLE
  2
STYLE
  5
3
330
0
100
AcDbSymbolTable
 70
     2
  0
STYLE
  5
11
330
3
100
AcDbSymbolTableRecord
100
AcDbTextStyleTableRecord
  2
Standard
 70
     0
 40
0.0
 41
1.0
 50
0.0
 71
     0
 42
0.1388888889
  3
txt
  4

  0
STYLE
  5
7C
330
3
100
AcDbSymbolTableRecord
100
AcDbTextStyleTableRecord
  2
SLDTEXTSTYLE0
 70
     0
 40
0.0
 41
0.605
 50
0.0
 71
     0
 42
0.1388888889
  3
TXT
  4

  0
ENDTAB
  0
TABLE
  2
VIEW
  5
6
330
0
100
AcDbSymbolTable
 70
     0
  0
ENDTAB
  0
TABLE
  2
UCS
  5
7
330
0
100
AcDbSymbolTable
 70
     0
  0
ENDTAB
  0
TABLE
  2
APPID
  5
9
330
0
100
AcDbSymbolTable
 70
     1
  0
APPID
  5
12
330
9
100
AcDbSymbolTableRecord
100
AcDbRegAppTableRecord
  2
ACAD
 70
     0
  0
ENDTAB
  0
TABLE
  2
DIMSTYLE
  5
A
330
0
100
AcDbSymbolTable
 70
     3
100
AcDbDimStyleTable
  0
DIMSTYLE
105
27
330
A
100
AcDbSymbolTableRecord
100
AcDbDimStyleTableRecord
  2
Standard
 70
     0
178
     0
340
11
  0
DIMSTYLE
105
B9
102
{ACAD_REACTORS
330
B8
102
}
330
A
100
AcDbSymbolTableRecord
100
AcDbDimStyleTableRecord
  2
SLDDIMSTYLE0
 70
     0
 41
0.13
 44
0.0
 45
0.000000001
 78
    12
 79
     3
140
0.1011149089
147
0.0252787272
148
0.000000001
170
     1
171
     1
173
     1
178
     0
271
     0
272
     0
274
     1
276
     2
277
     5
284
    12
340
7C
  0
DIMSTYLE
105
CE
102
{ACAD_REACTORS
330
CD
102
}
330
A
100
AcDbSymbolTableRecord
100
AcDbDimStyleTableRecord
  2
SLDDIMSTYLE1
 70
     0
 41
0.13
 44
0.0
 45
0.000000001
 78
    12
 79
     3
140
0.1011149089
147
0.0252787272
148
0.000000001
170
     1
171
     1
173
     1
178
     0
271
     6
272
     0
274
     1
276
     2
277
     5
284
    12
340
7C
  0
ENDTAB
  0
TABLE
  2
BLOCK_RECORD
  5
1
330
0
100
AcDbSymbolTable
 70
     7
  0
BLOCK_RECORD
  5
1F
330
1
100
AcDbSymbolTableRecord
100
AcDbBlockTableRecord
  2
*Model_Space
340
22
  0
BLOCK_RECORD
  5
1B
330
1
100
AcDbSymbolTableRecord
100
AcDbBlockTableRecord
  2
*Paper_Space
340
1E
  0
BLOCK_RECORD
  5
23
330
1
100
AcDbSymbolTableRecord
100
AcDbBlockTableRecord
  2
*Paper_Space0
340
26
  0
BLOCK_RECORD
  5
79
330
1
100
AcDbSymbolTableRecord
100
AcDbBlockTableRecord
  2
SW_NOTE_0
340
0
102
{BLKREFS
331
81
102
}
  0
BLOCK_RECORD
  5
BA
330
1
100
AcDbSymbolTableRecord
100
AcDbBlockTableRecord
  2
_D
340
0
  0
BLOCK_RECORD
  5
CF
330
1
100
AcDbSymbolTableRecord
100
AcDbBlockTableRecord
  2
_D_1
340
0
  0
BLOCK_RECORD
  5
E6
330
1
100
AcDbSymbolTableRecord
100
AcDbBlockTableRecord
  2
SW_CENTERMARKSYMBOL_5
340
0
102
{BLKREFS
331
F1
102
}
  0
BLOCK_RECORD
  5
F2
330
1
100
AcDbSymbolTableRecord
100
AcDbBlockTableRecord
  2
SW_CENTERMARKSYMBOL_6
340
0
102
{BLKREFS
331
FD
102
}
  0
BLOCK_RECORD
  5
FE
330
1
100
AcDbSymbolTableRecord
100
AcDbBlockTableRecord
  2
SW_CENTERMARKSYMBOL_7
340
0
102
{BLKREFS
331
109
102
}
  0
ENDTAB
  0
ENDSEC
  0
SECTION
  2
BLOCKS
  0
BLOCK
  5
20
330
1F
100
AcDbEntity
  8
0
100
AcDbBlockBegin
  2
*Model_Space
 70
     0
 10
0.0
 20
0.0
 30
0.0
  3
*Model_Space
  1

  0
ENDBLK
  5
21
330
1F
100
AcDbEntity
  8
0
100
AcDbBlockEnd
  0
BLOCK
  5
1C
330
1B
100
AcDbEntity
 67
     1
  8
0
100
AcDbBlockBegin
  2
*Paper_Space
 70
     0
 10
0.0
 20
0.0
 30
0.0
  3
*Paper_Space
  1

  0
ENDBLK
  5
1D
330
1B
100
AcDbEntity
 67
     1
  8
0
100
AcDbBlockEnd
  0
BLOCK
  5
24
330
23
100
AcDbEntity
  8
0
100
AcDbBlockBegin
  2
*Paper_Space0
 70
     0
 10
0.0
 20
0.0
 30
0.0
  3
*Paper_Space0
  1

  0
ENDBLK
  5
25
330
23
100
AcDbEntity
  8
0
100
AcDbBlockEnd
  0
BLOCK
  5
7A
330
79
100
AcDbEntity
  8
0
100
AcDbBlockBegin
  2
SW_NOTE_0
 70
     0
 10
0.0
 20
0.0
 30
0.0
  3
SW_NOTE_0
  1

  0
MTEXT
  5
7D
330
79
100
AcDbEntity
  8
DEFAULT
 62
     0
100
AcDbMText
 10
0.3850911458
 20
0.1879890454
 30
0.0
 40
0.1458333333
 41
0.0
 71
     2
 72
     1
  1
Legrand
  7
SLDTEXTSTYLE0
 73
     1
 44
1.0
  0
MTEXT
  5
7E
330
79
100
AcDbEntity
  8
DEFAULT
 62
     0
100
AcDbMText
 10
0.4129879835
 20
-0.0055331972
 30
0.0
 40
0.125
 41
0.0
 71
     2
 72
     1
  1
SYSTEM: Wiremold® Resource RFB® Series Floor Boxes
  7
SLDTEXTSTYLE0
 73
     1
 44
1.0
  0
MTEXT
  5
7F
330
79
100
AcDbEntity
  8
DEFAULT
 62
     0
100
AcDbMText
 10
0.3962913861
 20
-0.1721998618
 30
0.0
 40
0.125
 41
0.0
 71
     2
 72
     1
  1
Catalog Number RFBADEC_R0
  7
SLDTEXTSTYLE0
 73
     1
 44
1.0
  0
MTEXT
  5
80
330
79
100
AcDbEntity
  8
DEFAULT
 62
     0
100
AcDbMText
 10
0.3886959733
 20
-0.3388665265
 30
0.0
 40
0.125
 41
0.0
 71
     2
 72
     1
  1
06/18/2020
  7
SLDTEXTSTYLE0
 73
     1
 44
1.0
  0
ENDBLK
  5
7B
330
79
100
AcDbEntity
  8
0
100
AcDbBlockEnd
  0
BLOCK
  5
BB
330
BA
100
AcDbEntity
  8
0
100
AcDbBlockBegin
  2
_D
 70
     0
 10
0.0
 20
0.0
 30
0.0
  3
_D
  1

  0
SOLID
  5
BD
330
BA
100
AcDbEntity
  8
DEFAULT
 62
     7
100
AcDbTrace
 10
1.8517654028
 20
2.4738467757
 30
0.0
 11
1.9817654028
 21
2.4538467757
 31
0.0
 12
1.9817654028
 22
2.4938467757
 32
0.0
 13
1.9817654028
 23
2.4938467757
 33
0.0
  0
SOLID
  5
BE
330
BA
100
AcDbEntity
  8
DEFAULT
 62
     7
100
AcDbTrace
 10
6.5817654028
 20
2.4738467757
 30
0.0
 11
6.4517654028
 21
2.4938467757
 31
0.0
 12
6.4517654028
 22
2.4538467757
 32
0.0
 13
6.4517654028
 23
2.4538467757
 33
0.0
  0
LINE
  5
BF
330
BA
100
AcDbEntity
  8
DEFAULT
 62
     7
100
AcDbLine
 10
3.9274135988
 20
2.4738467849
 30
0.0
 11
3.892691377
 21
2.4738467849
 31
0.0
  0
LINE
  5
C0
330
BA
100
AcDbEntity
  8
DEFAULT
 62
     7
100
AcDbLine
 10
3.892691377
 20
2.4738467849
 30
0.0
 11
3.892691377
 21
2.3185612854
 31
0.0
  0
LINE
  5
C1
330
BA
100
AcDbEntity
  8
DEFAULT
 62
     7
100
AcDbLine
 10
3.892691377
 20
2.3185612854
 30
0.0
 11
3.9274135988
 21
2.3185612854
 31
0.0
  0
LINE
  5
C2
330
BA
100
AcDbEntity
  8
DEFAULT
 62
     7
100
AcDbLine
 10
4.5061172802
 20
2.4738467849
 30
0.0
 11
4.540839502
 21
2.4738467849
 31
0.0
  0
LINE
  5
C3
330
BA
100
AcDbEntity
  8
DEFAULT
 62
     7
100
AcDbLine
 10
4.540839502
 20
2.4738467849
 30
0.0
 11
4.540839502
 21
2.3185612854
 31
0.0
  0
LINE
  5
C4
330
BA
100
AcDbEntity
  8
DEFAULT
 62
     7
100
AcDbLine
 10
4.540839502
 20
2.3185612854
 30
0.0
 11
4.5061172802
 21
2.3185612854
 31
0.0
  0
LINE
  5
C5
330
BA
100
AcDbEntity
  8
DEFAULT
 62
     7
100
AcDbLine
 10
1.8517654028
 20
3.8952606635
 30
0.0
 11
1.8517654028
 21
2.3488467757
 31
0.0
  0
LINE
  5
C6
330
BA
100
AcDbEntity
  8
DEFAULT
 62
     7
100
AcDbLine
 10
6.5817654028
 20
3.1152606635
 30
0.0
 11
6.5817654028
 21
2.3488467757
 31
0.0
  0
LINE
  5
C7
330
BA
100
AcDbEntity
  8
DEFAULT
 62
     7
100
AcDbLine
 10
1.8517654028
 20
2.4738467757
 30
0.0
 11
3.7961246887
 21
2.4738467757
 31
0.0
  0
LINE
  5
C8
330
BA
100
AcDbEntity
  8
DEFAULT
 62
     7
100
AcDbLine
 10
6.5817654028
 20
2.4738467757
 30
0.0
 11
4.637406117
 21
2.4738467757
 31
0.0
  0
MTEXT
  5
C9
330
BA
100
AcDbEntity
  8
DEFAULT
 62
     7
100
AcDbMText
 10
3.8584514067
 20
2.6312728231
 30
0.0
 40
0.1041666667
 41
0.0
 71
     1
 72
     1
  1

  7
SLDTEXTSTYLE0
 73
     1
 44
1.0
  0
MTEXT
  5
CA
330
BA
100
AcDbEntity
  8
DEFAULT
 62
     7
100
AcDbMText
 10
4.1241728358
 20
2.6312728231
 30
0.0
 40
0.1041666667
 41
0.0
 71
     1
 72
     1
  1
5in
  7
SLDTEXTSTYLE0
 73
     1
 44
1.0
  0
MTEXT
  5
CB
330
BA
100
AcDbEntity
  8
DEFAULT
 62
     7
100
AcDbMText
 10
3.9274135988
 20
2.4528391819
 30
0.0
 40
0.1041666667
 41
0.0
 71
     1
 72
     1
  1
120.1mm
  7
SLDTEXTSTYLE0
 73
     1
 44
1.0
  0
MTEXT
  5
CC
330
BA
100
AcDbEntity
  8
DEFAULT
 62
     7
100
AcDbMText
 10
4.614624178
 20
2.6312728231
 30
0.0
 40
0.1041666667
 41
0.0
 71
     1
 72
     1
  1

  7
SLDTEXTSTYLE0
 73
     1
 44
1.0
  0
ENDBLK
  5
BC
330
BA
100
AcDbEntity
  8
0
100
AcDbBlockEnd
  0
BLOCK
  5
D0
330
CF
100
AcDbEntity
  8
0
100
AcDbBlockBegin
  2
_D_1
 70
     0
 10
0.0
 20
0.0
 30
0.0
  3
_D_1
  1

  0
SOLID
  5
D2
330
CF
100
AcDbEntity
  8
DEFAULT
 62
     7
100
AcDbTrace
 10
7.5156282635
 20
5.4152606635
 30
0.0
 11
7.4956282635
 21
5.2852606635
 31
0.0
 12
7.5356282635
 22
5.2852606635
 32
0.0
 13
7.5356282635
 23
5.2852606635
 33
0.0
  0
SOLID
  5
D3
330
CF
100
AcDbEntity
  8
DEFAULT
 62
     7
100
AcDbTrace
 10
7.5156282635
 20
3.1652606635
 30
0.0
 11
7.5356282635
 21
3.2952606635
 31
0.0
 12
7.4956282635
 22
3.2952606635
 32
0.0
 13
7.4956282635
 23
3.2952606635
 33
0.0
  0
LINE
  5
D4
330
CF
100
AcDbEntity
  8
DEFAULT
 62
     7
100
AcDbLine
 10
7.4761799876
 20
4.4013814371
 30
0.0
 11
7.5828543719
 21
4.4013814371
 31
0.0
  0
LINE
  5
D5
330
CF
100
AcDbEntity
  8
DEFAULT
 62
     7
100
AcDbLine
 10
7.2648566805
 20
4.2275388381
 30
0.0
 11
7.2301344587
 21
4.2275388381
 31
0.0
  0
LINE
  5
D6
330
CF
100
AcDbEntity
  8
DEFAULT
 62
     7
100
AcDbLine
 10
7.2301344587
 20
4.2275388381
 30
0.0
 11
7.2301344587
 21
4.0722533386
 31
0.0
  0
LINE
  5
D7
330
CF
100
AcDbEntity
  8
DEFAULT
 62
     7
100
AcDbLine
 10
7.2301344587
 20
4.0722533386
 30
0.0
 11
7.2648566805
 21
4.0722533386
 31
0.0
  0
LINE
  5
D8
330
CF
100
AcDbEntity
  8
DEFAULT
 62
     7
100
AcDbLine
 10
7.7663999199
 20
4.2275388381
 30
0.0
 11
7.8011221417
 21
4.2275388381
 31
0.0
  0
LINE
  5
D9
330
CF
100
AcDbEntity
  8
DEFAULT
 62
     7
100
AcDbLine
 10
7.8011221417
 20
4.2275388381
 30
0.0
 11
7.8011221417
 21
4.0722533386
 31
0.0
  0
LINE
  5
DA
330
CF
100
AcDbEntity
  8
DEFAULT
 62
     7
100
AcDbLine
 10
7.8011221417
 20
4.0722533386
 30
0.0
 11
7.7663999199
 21
4.0722533386
 31
0.0
  0
LINE
  5
DB
330
CF
100
AcDbEntity
  8
DEFAULT
 62
     7
100
AcDbLine
 10
6.2777654028
 20
5.4152606635
 30
0.0
 11
7.6406282635
 21
5.4152606635
 31
0.0
  0
LINE
  5
DC
330
CF
100
AcDbEntity
  8
DEFAULT
 62
     7
100
AcDbLine
 10
6.6317654028
 20
3.1652606635
 30
0.0
 11
7.6406282635
 21
3.1652606635
 31
0.0
  0
LINE
  5
DD
330
CF
100
AcDbEntity
  8
DEFAULT
 62
     7
100
AcDbLine
 10
7.5156282635
 20
5.4152606635
 30
0.0
 11
7.5156282635
 21
4.5314161577
 31
0.0
  0
LINE
  5
DE
330
CF
100
AcDbEntity
  8
DEFAULT
 62
     7
100
AcDbLine
 10
7.5156282635
 20
3.1652606635
 30
0.0
 11
7.5156282635
 21
4.0491051694
 31
0.0
  0
MTEXT
  5
DF
330
CF
100
AcDbEntity
  8
DEFAULT
 62
     7
100
AcDbMText
 10
7.1958944884
 20
4.4558391842
 30
0.0
 40
0.1041666667
 41
0.0
 71
     1
 72
     1
  1

  7
SLDTEXTSTYLE0
 73
     1
 44
1.0
  0
MTEXT
  5
E0
330
CF
100
AcDbEntity
  8
DEFAULT
 62
     7
100
AcDbMText
 10
7.3842625469
 20
4.4558391842
 30
0.0
 40
0.1041666667
 41
0.0
 71
     1
 72
     1
  1
2
  7
SLDTEXTSTYLE0
 73
     1
 44
1.0
  0
MTEXT
  5
E1
330
CF
100
AcDbEntity
  8
DEFAULT
 62
     7
100
AcDbMText
 10
7.4909369313
 20
4.5268051577
 30
0.0
 40
0.1041666667
 41
0.0
 71
     1
 72
     1
  1
1
  7
SLDTEXTSTYLE0
 73
     1
 44
1.0
  0
MTEXT
  5
E2
330
CF
100
AcDbEntity
  8
DEFAULT
 62
     7
100
AcDbMText
 10
7.4909369313
 20
4.3849648817
 30
0.0
 40
0.1041666667
 41
0.0
 71
     1
 72
     1
  1
4
  7
SLDTEXTSTYLE0
 73
     1
 44
1.0
  0
MTEXT
  5
E3
330
CF
100
AcDbEntity
  8
DEFAULT
 62
     7
100
AcDbMText
 10
7.5976113156
 20
4.4558391842
 30
0.0
 40
0.1041666667
 41
0.0
 71
     1
 72
     1
  1
"
  7
SLDTEXTSTYLE0
 73
     1
 44
1.0
  0
MTEXT
  5
E4
330
CF
100
AcDbEntity
  8
DEFAULT
 62
     7
100
AcDbMText
 10
7.2648566805
 20
4.206531235
 30
0.0
 40
0.1041666667
 41
0.0
 71
     1
 72
     1
  1
57.2mm
  7
SLDTEXTSTYLE0
 73
     1
 44
1.0
  0
MTEXT
  5
E5
330
CF
100
AcDbEntity
  8
DEFAULT
 62
     7
100
AcDbMText
 10
7.8749068177
 20
4.4558391842
 30
0.0
 40
0.1041666667
 41
0.0
 71
     1
 72
     1
  1

  7
SLDTEXTSTYLE0
 73
     1
 44
1.0
  0
ENDBLK
  5
D1
330
CF
100
AcDbEntity
  8
0
100
AcDbBlockEnd
  0
BLOCK
  5
E7
330
E6
100
AcDbEntity
  8
0
100
AcDbBlockBegin
  2
SW_CENTERMARKSYMBOL_5
 70
     0
 10
0.0
 20
0.0
 30
0.0
  3
SW_CENTERMARKSYMBOL_5
  1

  0
LINE
  5
E9
330
E6
100
AcDbEntity
  8
DEFAULT
 62
     0
100
AcDbLine
 10
0.0
 20
0.0
 30
0.0
 11
0.0
 21
0.1
 31
0.0
  0
LINE
  5
EA
330
E6
100
AcDbEntity
  8
DEFAULT
 62
     0
100
AcDbLine
 10
0.0
 20
0.0
 30
0.0
 11
-0.1
 21
0.0
 31
0.0
  0
LINE
  5
EB
330
E6
100
AcDbEntity
  8
DEFAULT
 62
     0
100
AcDbLine
 10
0.0
 20
0.0
 30
0.0
 11
0.0
 21
-0.1
 31
0.0
  0
LINE
  5
EC
330
E6
100
AcDbEntity
  8
DEFAULT
 62
     0
100
AcDbLine
 10
0.0
 20
0.0
 30
0.0
 11
0.1
 21
0.0
 31
0.0
  0
LINE
  5
ED
330
E6
100
AcDbEntity
  8
DEFAULT
 62
     0
100
AcDbLine
 10
0.0
 20
0.1
 30
0.0
 11
0.0
 21
0.15325
 31
0.0
  0
LINE
  5
EE
330
E6
100
AcDbEntity
  8
DEFAULT
 62
     0
100
AcDbLine
 10
-0.1
 20
0.0
 30
0.0
 11
-0.15325
 21
0.0
 31
0.0
  0
LINE
  5
EF
330
E6
100
AcDbEntity
  8
DEFAULT
 62
     0
100
AcDbLine
 10
0.0
 20
-0.1
 30
0.0
 11
0.0
 21
-0.15325
 31
0.0
  0
LINE
  5
F0
330
E6
100
AcDbEntity
  8
DEFAULT
 62
     0
100
AcDbLine
 10
0.1
 20
0.0
 30
0.0
 11
0.15325
 21
0.0
 31
0.0
  0
ENDBLK
  5
E8
330
E6
100
AcDbEntity
  8
0
100
AcDbBlockEnd
  0
BLOCK
  5
F3
330
F2
100
AcDbEntity
  8
0
100
AcDbBlockBegin
  2
SW_CENTERMARKSYMBOL_6
 70
     0
 10
0.0
 20
0.0
 30
0.0
  3
SW_CENTERMARKSYMBOL_6
  1

  0
LINE
  5
F5
330
F2
100
AcDbEntity
  8
DEFAULT
 62
     0
100
AcDbLine
 10
0.0
 20
0.0
 30
0.0
 11
0.0
 21
0.1
 31
0.0
  0
LINE
  5
F6
330
F2
100
AcDbEntity
  8
DEFAULT
 62
     0
100
AcDbLine
 10
0.0
 20
0.0
 30
0.0
 11
-0.1
 21
0.0
 31
0.0
  0
LINE
  5
F7
330
F2
100
AcDbEntity
  8
DEFAULT
 62
     0
100
AcDbLine
 10
0.0
 20
0.0
 30
0.0
 11
0.0
 21
-0.1
 31
0.0
  0
LINE
  5
F8
330
F2
100
AcDbEntity
  8
DEFAULT
 62
     0
100
AcDbLine
 10
0.0
 20
0.0
 30
0.0
 11
0.1
 21
0.0
 31
0.0
  0
LINE
  5
F9
330
F2
100
AcDbEntity
  8
DEFAULT
 62
     0
100
AcDbLine
 10
0.0
 20
0.1
 30
0.0
 11
0.0
 21
0.178
 31
0.0
  0
LINE
  5
FA
330
F2
100
AcDbEntity
  8
DEFAULT
 62
     0
100
AcDbLine
 10
-0.1
 20
0.0
 30
0.0
 11
-0.178
 21
0.0
 31
0.0
  0
LINE
  5
FB
330
F2
100
AcDbEntity
  8
DEFAULT
 62
     0
100
AcDbLine
 10
0.0
 20
-0.1
 30
0.0
 11
0.0
 21
-0.178
 31
0.0
  0
LINE
  5
FC
330
F2
100
AcDbEntity
  8
DEFAULT
 62
     0
100
AcDbLine
 10
0.1
 20
0.0
 30
0.0
 11
0.178
 21
0.0
 31
0.0
  0
ENDBLK
  5
F4
330
F2
100
AcDbEntity
  8
0
100
AcDbBlockEnd
  0
BLOCK
  5
FF
330
FE
100
AcDbEntity
  8
0
100
AcDbBlockBegin
  2
SW_CENTERMARKSYMBOL_7
 70
     0
 10
0.0
 20
0.0
 30
0.0
  3
SW_CENTERMARKSYMBOL_7
  1

  0
LINE
  5
101
330
FE
100
AcDbEntity
  8
DEFAULT
 62
     0
100
AcDbLine
 10
0.0
 20
0.0
 30
0.0
 11
0.0
 21
0.1
 31
0.0
  0
LINE
  5
102
330
FE
100
AcDbEntity
  8
DEFAULT
 62
     0
100
AcDbLine
 10
0.0
 20
0.0
 30
0.0
 11
-0.1
 21
0.0
 31
0.0
  0
LINE
  5
103
330
FE
100
AcDbEntity
  8
DEFAULT
 62
     0
100
AcDbLine
 10
0.0
 20
0.0
 30
0.0
 11
0.0
 21
-0.1
 31
0.0
  0
LINE
  5
104
330
FE
100
AcDbEntity
  8
DEFAULT
 62
     0
100
AcDbLine
 10
0.0
 20
0.0
 30
0.0
 11
0.1
 21
0.0
 31
0.0
  0
LINE
  5
105
330
FE
100
AcDbEntity
  8
DEFAULT
 62
     0
100
AcDbLine
 10
0.0
 20
0.1
 30
0.0
 11
0.0
 21
0.178
 31
0.0
  0
LINE
  5
106
330
FE
100
AcDbEntity
  8
DEFAULT
 62
     0
100
AcDbLine
 10
-0.1
 20
0.0
 30
0.0
 11
-0.178
 21
0.0
 31
0.0
  0
LINE
  5
107
330
FE
100
AcDbEntity
  8
DEFAULT
 62
     0
100
AcDbLine
 10
0.0
 20
-0.1
 30
0.0
 11
0.0
 21
-0.178
 31
0.0
  0
LINE
  5
108
330
FE
100
AcDbEntity
  8
DEFAULT
 62
     0
100
AcDbLine
 10
0.1
 20
0.0
 30
0.0
 11
0.178
 21
0.0
 31
0.0
  0
ENDBLK
  5
100
330
FE
100
AcDbEntity
  8
0
100
AcDbBlockEnd
  0
ENDSEC
  0
SECTION
  2
ENTITIES
  0
INSERT
  5
81
330
1F
100
AcDbEntity
  8
DEFAULT
 62
     7
100
AcDbBlockReference
  2
SW_NOTE_0
 10
3.7974144865
 20
1.3463423252
 30
0.0
  0
LINE
  5
82
330
1F
100
AcDbEntity
  8
0
  6
Continuous
 62
     7
370
    25
100
AcDbLine
 10
6.2277653399
 20
5.4152606721
 30
0.0
 11
4.6417653998
 21
5.4152606721
 31
0.0
  0
LINE
  5
83
330
1F
100
AcDbEntity
  8
0
  6
Continuous
 62
     7
370
    25
100
AcDbLine
 10
6.2577653667
 20
5.3852606453
 30
0.0
 11
6.2277653399
 21
5.4152606721
 31
0.0
  0
LINE
  5
84
330
1F
100
AcDbEntity
  8
0
  6
Continuous
 62
     7
370
    25
100
AcDbLine
 10
6.2577653667
 20
4.9872606764
 30
0.0
 11
6.2577653667
 21
5.3852606453
 31
0.0
  0
LINE
  5
85
330
1F
100
AcDbEntity
  8
0
  6
Continuous
 62
     7
370
    25
100
AcDbLine
 10
6.5817654504
 20
4.9872606764
 30
0.0
 11
6.2577653667
 21
4.9872606764
 31
0.0
  0
LINE
  5
86
330
1F
100
AcDbEntity
  8
0
  6
Continuous
 62
     7
370
    25
100
AcDbLine
 10
6.5817654504
 20
4.7997606557
 30
0.0
 11
6.5817654504
 21
4.9872606764
 31
0.0
  0
LINE
  5
87
330
1F
100
AcDbEntity
  8
0
  6
Continuous
 62
     7
370
    25
100
AcDbLine
 10
6.5117653391
 20
4.7997606557
 30
0.0
 11
6.5817654504
 21
4.7997606557
 31
0.0
  0
LINE
  5
88
330
1F
100
AcDbEntity
  8
0
  6
Continuous
 62
     7
370
    25
100
AcDbLine
 10
6.5117653391
 20
4.4152606658
 30
0.0
 11
6.5117653391
 21
4.7997606557
 31
0.0
  0
LINE
  5
89
330
1F
100
AcDbEntity
  8
0
  6
Continuous
 62
     7
370
    25
100
AcDbLine
 10
6.5817654504
 20
4.4152606658
 30
0.0
 11
6.5117653391
 21
4.4152606658
 31
0.0
  0
LINE
  5
8A
330
1F
100
AcDbEntity
  8
0
  6
Continuous
 62
     7
370
    25
100
AcDbLine
 10
6.5817654504
 20
4.0402606612
 30
0.0
 11
6.5817654504
 21
4.4152606658
 31
0.0
  0
LINE
  5
8B
330
1F
100
AcDbEntity
  8
0
  6
Continuous
 62
     7
370
    25
100
AcDbLine
 10
6.5117653391
 20
4.0402606612
 30
0.0
 11
6.5817654504
 21
4.0402606612
 31
0.0
  0
LINE
  5
8C
330
1F
100
AcDbEntity
  8
0
  6
Continuous
 62
     7
370
    25
100
AcDbLine
 10
6.5117653391
 20
3.3527606649
 30
0.0
 11
6.5117653391
 21
4.0402606612
 31
0.0
  0
LINE
  5
8D
330
1F
100
AcDbEntity
  8
0
  6
Continuous
 62
     7
370
    25
100
AcDbLine
 10
6.5817654504
 20
3.3527606649
 30
0.0
 11
6.5117653391
 21
3.3527606649
 31
0.0
  0
LINE
  5
8E
330
1F
100
AcDbEntity
  8
0
  6
Continuous
 62
     7
370
    25
100
AcDbLine
 10
6.5817654504
 20
3.1652606443
 30
0.0
 11
6.5817654504
 21
3.3527606649
 31
0.0
  0
LINE
  5
8F
330
1F
100
AcDbEntity
  8
0
  6
Continuous
 62
     7
370
    25
100
AcDbLine
 10
6.0217654396
 20
3.1652606443
 30
0.0
 11
6.5817654504
 21
3.1652606443
 31
0.0
  0
LINE
  5
90
330
1F
100
AcDbEntity
  8
0
  6
Continuous
 62
     7
370
    25
100
AcDbLine
 10
6.0217654396
 20
3.2552606512
 30
0.0
 11
6.0217654396
 21
3.1652606443
 31
0.0
  0
LINE
  5
91
330
1F
100
AcDbEntity
  8
0
  6
Continuous
 62
     7
370
    25
100
AcDbLine
 10
5.7617654032
 20
3.2552606512
 30
0.0
 11
6.0217654396
 21
3.2552606512
 31
0.0
  0
LINE
  5
92
330
1F
100
AcDbEntity
  8
0
  6
Continuous
 62
     7
370
    25
100
AcDbLine
 10
5.7617654032
 20
3.1652606443
 30
0.0
 11
5.7617654032
 21
3.2552606512
 31
0.0
  0
LINE
  5
93
330
1F
100
AcDbEntity
  8
0
  6
Continuous
 62
     7
370
    25
100
AcDbLine
 10
3.0217654025
 20
3.1652606443
 30
0.0
 11
5.7617654032
 21
3.1652606443
 31
0.0
  0
LINE
  5
94
330
1F
100
AcDbEntity
  8
0
  6
Continuous
 62
     7
370
    25
100
AcDbLine
 10
3.0217654025
 20
3.2552606512
 30
0.0
 11
3.0217654025
 21
3.1652606443
 31
0.0
  0
LINE
  5
95
330
1F
100
AcDbEntity
  8
0
  6
Continuous
 62
     7
370
    25
100
AcDbLine
 10
2.7617653661
 20
3.2552606512
 30
0.0
 11
3.0217654025
 21
3.2552606512
 31
0.0
  0
LINE
  5
96
330
1F
100
AcDbEntity
  8
0
  6
Continuous
 62
     7
370
    25
100
AcDbLine
 10
2.7617653661
 20
3.1652606443
 30
0.0
 11
2.7617653661
 21
3.2552606512
 31
0.0
  0
LINE
  5
97
330
1F
100
AcDbEntity
  8
0
  6
Continuous
 62
     7
370
    25
100
AcDbLine
 10
2.0017653723
 20
3.1652606443
 30
0.0
 11
2.7617653661
 21
3.1652606443
 31
0.0
  0
LINE
  5
98
330
1F
100
AcDbEntity
  8
0
  6
Continuous
 62
     7
370
    25
100
AcDbLine
 10
1.9717653456
 20
3.195260671
 30
0.0
 11
2.0017653723
 21
3.1652606443
 31
0.0
  0
LINE
  5
99
330
1F
100
AcDbEntity
  8
0
  6
Continuous
 62
     7
370
    25
100
AcDbLine
 10
1.9717653456
 20
3.9152606535
 30
0.0
 11
1.9717653456
 21
3.195260671
 31
0.0
  0
LINE
  5
9A
330
1F
100
AcDbEntity
  8
0
  6
Continuous
 62
     7
370
    25
100
AcDbLine
 10
1.8817654119
 20
3.9152606535
 30
0.0
 11
1.9717653456
 21
3.9152606535
 31
0.0
  0
LINE
  5
9B
330
1F
100
AcDbEntity
  8
0
  6
Continuous
 62
     7
370
    25
100
AcDbLine
 10
1.8517653851
 20
3.945260662
 30
0.0
 11
1.8817654119
 21
3.9152606535
 31
0.0
  0
LINE
  5
9C
330
1F
100
AcDbEntity
  8
0
  6
Continuous
 62
     7
370
    25
100
AcDbLine
 10
1.8517653851
 20
4.1497606654
 30
0.0
 11
1.8517653851
 21
3.945260662
 31
0.0
  0
LINE
  5
9D
330
1F
100
AcDbEntity
  8
0
  6
Continuous
 62
     7
370
    25
100
AcDbLine
 10
1.8917653231
 20
4.1497606654
 30
0.0
 11
1.8517653851
 21
4.1497606654
 31
0.0
  0
ARC
  5
9E
330
1F
100
AcDbEntity
  8
0
  6
Continuous
 62
     7
370
    25
100
AcDbCircle
 10
1.8917654028
 20
4.2277606635
 30
0.0
 40
0.0780000000000003
100
AcDbArc
 50
270.0
 51
90.0
  0
LINE
  5
9F
330
1F
100
AcDbEntity
  8
0
  6
Continuous
 62
     7
370
    25
100
AcDbLine
 10
1.8517653851
 20
4.3057606616
 30
0.0
 11
1.8917653231
 21
4.3057606616
 31
0.0
  0
LINE
  5
A0
330
1F
100
AcDbEntity
  8
0
  6
Continuous
 62
     7
370
    25
100
AcDbLine
 10
1.8517653851
 20
4.510260665
 30
0.0
 11
1.8517653851
 21
4.3057606616
 31
0.0
  0
LINE
  5
A1
330
1F
100
AcDbEntity
  8
0
  6
Continuous
 62
     7
370
    25
100
AcDbLine
 10
1.8817654119
 20
4.5402606735
 30
0.0
 11
1.8517653851
 21
4.510260665
 31
0.0
  0
LINE
  5
A2
330
1F
100
AcDbEntity
  8
0
  6
Continuous
 62
     7
370
    25
100
AcDbLine
 10
1.9717653456
 20
4.5402606735
 30
0.0
 11
1.8817654119
 21
4.5402606735
 31
0.0
  0
LINE
  5
A3
330
1F
100
AcDbEntity
  8
0
  6
Continuous
 62
     7
370
    25
100
AcDbLine
 10
1.9717653456
 20
5.3852606453
 30
0.0
 11
1.9717653456
 21
4.5402606735
 31
0.0
  0
LINE
  5
A4
330
1F
100
AcDbEntity
  8
0
  6
Continuous
 62
     7
370
    25
100
AcDbLine
 10
2.0017653723
 20
5.4152606721
 30
0.0
 11
1.9717653456
 21
5.3852606453
 31
0.0
  0
LINE
  5
A5
330
1F
100
AcDbEntity
  8
0
  6
Continuous
 62
     7
370
    25
100
AcDbLine
 10
2.7617653661
 20
5.4152606721
 30
0.0
 11
2.0017653723
 21
5.4152606721
 31
0.0
  0
LINE
  5
A6
330
1F
100
AcDbEntity
  8
0
  6
Continuous
 62
     7
370
    25
100
AcDbLine
 10
2.7617653661
 20
5.2272606705
 30
0.0
 11
2.7617653661
 21
5.4152606721
 31
0.0
  0
LINE
  5
A7
330
1F
100
AcDbEntity
  8
0
  6
Continuous
 62
     7
370
    25
100
AcDbLine
 10
3.0217654025
 20
5.2272606705
 30
0.0
 11
2.7617653661
 21
5.2272606705
 31
0.0
  0
LINE
  5
A8
330
1F
100
AcDbEntity
  8
0
  6
Continuous
 62
     7
370
    25
100
AcDbLine
 10
3.0217654025
 20
5.4152606721
 30
0.0
 11
3.0217654025
 21
5.2272606705
 31
0.0
  0
LINE
  5
A9
330
1F
100
AcDbEntity
  8
0
  6
Continuous
 62
     7
370
    25
100
AcDbLine
 10
4.1417654059
 20
5.4152606721
 30
0.0
 11
3.0217654025
 21
5.4152606721
 31
0.0
  0
LINE
  5
AA
330
1F
100
AcDbEntity
  8
0
  6
Continuous
 62
     7
370
    25
100
AcDbLine
 10
4.1417654059
 20
5.3252606651
 30
0.0
 11
4.1417654059
 21
5.4152606721
 31
0.0
  0
LINE
  5
AB
330
1F
100
AcDbEntity
  8
0
  6
Continuous
 62
     7
370
    25
100
AcDbLine
 10
4.6417653998
 20
5.3252606651
 30
0.0
 11
4.1417654059
 21
5.3252606651
 31
0.0
  0
LINE
  5
AC
330
1F
100
AcDbEntity
  8
0
  6
Continuous
 62
     7
370
    25
100
AcDbLine
 10
4.6417653998
 20
5.4152606721
 30
0.0
 11
4.6417653998
 21
5.3252606651
 31
0.0
  0
CIRCLE
  5
AD
330
1F
100
AcDbEntity
  8
0
  6
Continuous
 62
     7
370
    25
100
AcDbCircle
 10
6.2980154028
 20
4.2277606635
 30
0.0
 40
0.0779999999999994
  0
CIRCLE
  5
AE
330
1F
100
AcDbEntity
  8
0
  6
Continuous
 62
     7
370
    25
100
AcDbCircle
 10
2.4855154028
 20
4.2277606635
 30
0.0
 40
0.0779999999999998
  0
LINE
  5
AF
330
1F
100
AcDbEntity
  8
0
  6
Continuous
 62
     7
370
    25
100
AcDbLine
 10
5.6187653684
 20
4.8877606658
 30
0.0
 11
3.1647654373
 21
4.8877606658
 31
0.0
  0
ARC
  5
B0
330
1F
100
AcDbEntity
  8
0
  6
Continuous
 62
     7
370
    25
100
AcDbCircle
 10
3.1647654028
 20
4.7947606635
 30
0.0
 40
0.093
100
AcDbArc
 50
90.0
 51
180.0
  0
LINE
  5
B1
330
1F
100
AcDbEntity
  8
0
  6
Continuous
 62
     7
370
    25
100
AcDbLine
 10
3.0717653983
 20
4.7947606635
 30
0.0
 11
3.0717653983
 21
3.6607606635
 31
0.0
  0
ARC
  5
B2
330
1F
100
AcDbEntity
  8
0
  6
Continuous
 62
     7
370
    25
100
AcDbCircle
 10
3.1647654028
 20
3.6607606635
 30
0.0
 40
0.093
100
AcDbArc
 50
180.0
 51
270.0
  0
LINE
  5
B3
330
1F
100
AcDbEntity
  8
0
  6
Continuous
 62
     7
370
    25
100
AcDbLine
 10
3.1647654373
 20
3.5677606612
 30
0.0
 11
5.6187653684
 21
3.5677606612
 31
0.0
  0
ARC
  5
B4
330
1F
100
AcDbEntity
  8
0
  6
Continuous
 62
     7
370
    25
100
AcDbCircle
 10
5.6187654028
 20
3.6607606635
 30
0.0
 40
0.0930000000000009
100
AcDbArc
 50
270.0
 51
0.0
  0
LINE
  5
B5
330
1F
100
AcDbEntity
  8
0
  6
Continuous
 62
     7
370
    25
100
AcDbLine
 10
5.7117654074
 20
3.6607606635
 30
0.0
 11
5.7117654074
 21
4.7947606635
 31
0.0
  0
ARC
  5
B6
330
1F
100
AcDbEntity
  8
0
  6
Continuous
 62
     7
370
    25
100
AcDbCircle
 10
5.6187654028
 20
4.7947606635
 30
0.0
 40
0.0930000000000009
100
AcDbArc
 50
0.0
 51
90.0
  0
CIRCLE
  5
B7
330
1F
100
AcDbEntity
  8
0
  6
Continuous
 62
     7
370
    25
100
AcDbCircle
 10
6.1057654028
 20
5.2332606635
 30
0.0
 40
0.0532499999999985
  0
DIMENSION
  5
B8
330
1F
100
AcDbEntity
  8
DEFAULT
 62
     7
100
AcDbDimension
  2
_D
 10
6.5817654028
 20
2.4738467757
 30
0.0
 11
4.2167654028
 21
2.4738467757
 31
0.0
 70
   160
  1
<>
 71
     2
 42
-1.0
  3
SLDDIMSTYLE0
100
AcDbAlignedDimension
 13
1.8517654028
 23
3.9452606635
 33
0.0
 14
6.5817654028
 24
3.1652606635
 34
0.0
 50
0.0
100
AcDbRotatedDimension
  0
DIMENSION
  5
CD
330
1F
100
AcDbEntity
  8
DEFAULT
 62
     7
100
AcDbDimension
  2
_D_1
 10
7.5156282635
 20
3.1652606635
 30
0.0
 11
7.5156282635
 21
4.2902606635
 31
0.0
 70
   160
  1
<>
 71
     2
 42
-1.0
  3
SLDDIMSTYLE1
100
AcDbAlignedDimension
 13
6.2277654028
 23
5.4152606635
 33
0.0
 14
6.5817654028
 24
3.1652606635
 34
0.0
 50
90.0
100
AcDbRotatedDimension
  0
INSERT
  5
F1
330
1F
100
AcDbEntity
  8
DEFAULT
100
AcDbBlockReference
  2
SW_CENTERMARKSYMBOL_5
 10
6.1057654028
 20
5.2332606635
 30
0.0
  0
INSERT
  5
FD
330
1F
100
AcDbEntity
  8
DEFAULT
100
AcDbBlockReference
  2
SW_CENTERMARKSYMBOL_6
 10
6.2980154028
 20
4.2277606635
 30
0.0
  0
INSERT
  5
109
330
1F
100
AcDbEntity
  8
DEFAULT
100
AcDbBlockReference
  2
SW_CENTERMARKSYMBOL_7
 10
2.4855154028
 20
4.2277606635
 30
0.0
  0
CIRCLE
  5
10A
330
1F
100
AcDbEntity
  8
0
  6
HIDDEN
 62
     7
370
    18
100
AcDbCircle
 10
6.1057654028
 20
5.2332606635
 30
0.0
 40
0.069
  0
CIRCLE
  5
10B
330
1F
100
AcDbEntity
  8
0
  6
HIDDEN
 62
     7
370
    18
100
AcDbCircle
 10
6.1057654028
 20
5.2332606635
 30
0.0
 40
0.069
  0
LWPOLYLINE
  5
10C
330
1F
100
AcDbEntity
  8
0
  6
Continuous
 62
     7
370
    25
100
AcDbPolyline
 90
       25
 70
   128
 43
0.0
 10
6.6192426782
 20
8.3341416073
 10
6.617959709
 20
8.3461359029
 10
6.6141981236
 20
8.3587941433
 10
6.6082142874
 20
8.3712537364
 10
6.6004159796
 20
8.3826655168
 10
6.5913347027
 20
8.3922517664
 10
6.5815892811
 20
8.3993592639
 10
6.5718438595
 20
8.4035035907
 10
6.5627624788
 20
8.4044024201
 10
6.5549642748
 20
8.4019943143
 10
6.5489804386
 20
8.3964435115
 10
6.5452188531
 20
8.3881283051
 10
6.5439357803
 20
8.3776153541
 10
6.5452188531
 20
8.3656209987
 10
6.5489804386
 20
8.3529627583
 10
6.5549642748
 20
8.3405031652
 10
6.5627624788
 20
8.3290914447
 10
6.5718438595
 20
8.3195051352
 10
6.5815892811
 20
8.3123976377
 10
6.5913347027
 20
8.3082533108
 10
6.6004159796
 20
8.3073545414
 10
6.6082142874
 20
8.3097625872
 10
6.6141981236
 20
8.3153133901
 10
6.617959709
 20
8.3236285964
 10
6.6192426782
 20
8.3341416073
  0
LINE
  5
10D
330
1F
100
AcDbEntity
  8
0
  6
Continuous
 62
     7
370
    25
100
AcDbLine
 10
6.6678562264
 20
8.45468804
 30
0.0
 11
5.5463849138
 21
9.1020996482
 31
0.0
  0
LINE
  5
10E
330
1F
100
AcDbEntity
  8
0
  6
Continuous
 62
     7
370
    25
100
AcDbLine
 10
6.6890694487
 20
8.4179456611
 30
0.0
 11
6.6678562264
 21
8.45468804
 31
0.0
  0
LINE
  5
10F
330
1F
100
AcDbEntity
  8
0
  6
Continuous
 62
     7
370
    25
100
AcDbLine
 10
6.6890694487
 20
8.0929624434
 30
0.0
 11
6.6890694487
 21
8.4179456611
 31
0.0
  0
LINE
  5
110
330
1F
100
AcDbEntity
  8
0
  6
Continuous
 62
     7
370
    25
100
AcDbLine
 10
6.9181721051
 20
7.9607042951
 30
0.0
 11
6.6890694487
 21
8.0929624434
 31
0.0
  0
LINE
  5
111
330
1F
100
AcDbEntity
  8
0
  6
Continuous
 62
     7
370
    25
100
AcDbLine
 10
6.9181721051
 20
7.807602876
 30
0.0
 11
6.9181721051
 21
7.9607042951
 31
0.0
  0
LINE
  5
112
330
1F
100
AcDbEntity
  8
0
  6
Continuous
 62
     7
370
    25
100
AcDbLine
 10
6.8686745517
 20
7.8361772053
 30
0.0
 11
6.9181721051
 21
7.807602876
 31
0.0
  0
LINE
  5
113
330
1F
100
AcDbEntity
  8
0
  6
Continuous
 62
     7
370
    25
100
AcDbLine
 10
6.8686745517
 20
7.5222172714
 30
0.0
 11
6.8686745517
 21
7.8361772053
 31
0.0
  0
LINE
  5
114
330
1F
100
AcDbEntity
  8
0
  6
Continuous
 62
     7
370
    25
100
AcDbLine
 10
6.9181721051
 20
7.493642942
 30
0.0
 11
6.8686745517
 21
7.5222172714
 31
0.0
  0
LINE
  5
115
330
1F
100
AcDbEntity
  8
0
  6
Continuous
 62
     7
370
    25
100
AcDbLine
 10
6.9181721051
 20
7.1874401338
 30
0.0
 11
6.9181721051
 21
7.493642942
 31
0.0
  0
LINE
  5
116
330
1F
100
AcDbEntity
  8
0
  6
Continuous
 62
     7
370
    25
100
AcDbLine
 10
6.8686745517
 20
7.2160144632
 30
0.0
 11
6.9181721051
 21
7.1874401338
 31
0.0
  0
LINE
  5
117
330
1F
100
AcDbEntity
  8
0
  6
Continuous
 62
     7
370
    25
100
AcDbLine
 10
6.8686745517
 20
6.654642658
 30
0.0
 11
6.8686745517
 21
7.2160144632
 31
0.0
  0
LINE
  5
118
330
1F
100
AcDbEntity
  8
0
  6
Continuous
 62
     7
370
    25
100
AcDbLine
 10
6.9181721051
 20
6.6260683287
 30
0.0
 11
6.8686745517
 21
6.654642658
 31
0.0
  0
LINE
  5
119
330
1F
100
AcDbEntity
  8
0
  6
Continuous
 62
     7
370
    25
100
AcDbLine
 10
6.9181721051
 20
6.4729669096
 30
0.0
 11
6.9181721051
 21
6.6260683287
 31
0.0
  0
LINE
  5
11A
330
1F
100
AcDbEntity
  8
0
  6
Continuous
 62
     7
370
    25
100
AcDbLine
 10
6.5221923
 20
6.7015611853
 30
0.0
 11
6.9181721051
 21
6.4729669096
 31
0.0
  0
LINE
  5
11B
330
1F
100
AcDbEntity
  8
0
  6
Continuous
 62
     7
370
    25
100
AcDbLine
 10
6.5221923
 20
6.7750498641
 30
0.0
 11
6.5221923
 21
6.7015611853
 31
0.0
  0
LINE
  5
11C
330
1F
100
AcDbEntity
  8
0
  6
Continuous
 62
     7
370
    25
100
AcDbLine
 10
6.3383445111
 20
6.8811829335
 30
0.0
 11
6.5221923
 21
6.7750498641
 31
0.0
  0
LINE
  5
11D
330
1F
100
AcDbEntity
  8
0
  6
Continuous
 62
     7
370
    25
100
AcDbLine
 10
6.3383445111
 20
6.8076942547
 30
0.0
 11
6.3383445111
 21
6.8811829335
 31
0.0
  0
LINE
  5
11E
330
1F
100
AcDbEntity
  8
0
  6
Continuous
 62
     7
370
    25
100
AcDbLine
 10
4.4008719302
 20
7.9261733682
 30
0.0
 11
6.3383445111
 21
6.8076942547
 31
0.0
  0
LINE
  5
11F
330
1F
100
AcDbEntity
  8
0
  6
Continuous
 62
     7
370
    25
100
AcDbLine
 10
4.4008719302
 20
7.999662047
 30
0.0
 11
4.4008719302
 21
7.9261733682
 31
0.0
  0
LINE
  5
120
330
1F
100
AcDbEntity
  8
0
  6
Continuous
 62
     7
370
    25
100
AcDbLine
 10
4.2170241413
 20
8.1057951164
 30
0.0
 11
4.4008719302
 21
7.999662047
 31
0.0
  0
LINE
  5
121
330
1F
100
AcDbEntity
  8
0
  6
Continuous
 62
     7
370
    25
100
AcDbLine
 10
4.2170241413
 20
8.0323064376
 30
0.0
 11
4.2170241413
 21
8.1057951164
 31
0.0
  0
LINE
  5
122
330
1F
100
AcDbEntity
  8
0
  6
Continuous
 62
     7
370
    25
100
AcDbLine
 10
3.679622992
 20
8.3425415175
 30
0.0
 11
4.2170241413
 21
8.0323064376
 31
0.0
  0
LINE
  5
123
330
1F
100
AcDbEntity
  8
0
  6
Continuous
 62
     7
370
    25
100
AcDbLine
 10
3.6584097696
 20
8.3792838964
 30
0.0
 11
3.679622992
 21
8.3425415175
 31
0.0
  0
LINE
  5
124
330
1F
100
AcDbEntity
  8
0
  6
Continuous
 62
     7
370
    25
100
AcDbLine
 10
3.6584097696
 20
8.9671932666
 30
0.0
 11
3.6584097696
 21
8.3792838964
 31
0.0
  0
LINE
  5
125
330
1F
100
AcDbEntity
  8
0
  6
Continuous
 62
     7
370
    25
100
AcDbLine
 10
3.5947702063
 20
9.0039316046
 30
0.0
 11
3.6584097696
 21
8.9671932666
 31
0.0
  0
LINE
  5
126
330
1F
100
AcDbEntity
  8
0
  6
Continuous
 62
     7
370
    25
100
AcDbLine
 10
3.5735569839
 20
9.0406739684
 30
0.0
 11
3.5947702063
 21
9.0039316046
 31
0.0
  0
LINE
  5
127
330
1F
100
AcDbEntity
  8
0
  6
Continuous
 62
     7
370
    25
100
AcDbLine
 10
3.5735569839
 20
9.2076565673
 30
0.0
 11
3.5735569839
 21
9.0406739684
 31
0.0
  0
LINE
  5
128
330
1F
100
AcDbEntity
  8
0
  6
Continuous
 62
     7
370
    25
100
AcDbLine
 10
3.6018412112
 20
9.1913284304
 30
0.0
 11
3.5735569839
 21
9.2076565673
 31
0.0
  0
LWPOLYLINE
  5
129
330
1F
100
AcDbEntity
  8
0
  6
Continuous
 62
     7
370
    25
100
AcDbPolyline
 90
       15
 70
   128
 43
0.0
 10
3.6018412112
 20
9.3187087939
 10
3.6141141993
 20
9.3100269039
 10
3.6257717853
 20
9.2985866577
 10
3.6362294721
 20
9.2849616821
 10
3.6449627056
 20
9.2698352817
 10
3.6515336316
 20
9.2539659228
 10
3.6556127704
 20
9.238149351
 10
3.6569956101
 20
9.2231786554
 10
3.6556127704
 20
9.2098045526
 10
3.6515336316
 20
9.1986976542
 10
3.6449627056
 20
9.190414925
 10
3.6362294721
 20
9.1853717014
 10
3.6257717853
 20
9.1838209139
 10
3.6141141993
 20
9.18584023
 10
3.6018412112
 20
9.1913284304
  0
LINE
  5
12A
330
1F
100
AcDbEntity
  8
0
  6
Continuous
 62
     7
370
    25
100
AcDbLine
 10
3.5735569839
 20
9.3350369308
 30
0.0
 11
3.6018412112
 21
9.3187087939
 31
0.0
  0
LINE
  5
12B
330
1F
100
AcDbEntity
  8
0
  6
Continuous
 62
     7
370
    25
100
AcDbLine
 10
3.5735569839
 20
9.5020195297
 30
0.0
 11
3.5735569839
 21
9.3350369308
 31
0.0
  0
LINE
  5
12C
330
1F
100
AcDbEntity
  8
0
  6
Continuous
 62
     7
370
    25
100
AcDbLine
 10
3.5947702063
 20
9.5142696283
 30
0.0
 11
3.5735569839
 21
9.5020195297
 31
0.0
  0
LINE
  5
12D
330
1F
100
AcDbEntity
  8
0
  6
Continuous
 62
     7
370
    25
100
AcDbLine
 10
3.6584097696
 20
9.4775312903
 30
0.0
 11
3.5947702063
 21
9.5142696283
 31
0.0
  0
LINE
  5
12E
330
1F
100
AcDbEntity
  8
0
  6
Continuous
 62
     7
370
    25
100
AcDbLine
 10
3.6584097696
 20
10.1675082534
 30
0.0
 11
3.6584097696
 21
9.4775312903
 31
0.0
  0
LINE
  5
12F
330
1F
100
AcDbEntity
  8
0
  6
Continuous
 62
     7
370
    25
100
AcDbLine
 10
3.679622992
 20
10.179758367
 30
0.0
 11
3.6584097696
 21
10.1675082534
 31
0.0
  0
LINE
  5
130
330
1F
100
AcDbEntity
  8
0
  6
Continuous
 62
     7
370
    25
100
AcDbLine
 10
4.2170241413
 20
9.8695232871
 30
0.0
 11
3.679622992
 21
10.179758367
 31
0.0
  0
LINE
  5
131
330
1F
100
AcDbEntity
  8
0
  6
Continuous
 62
     7
370
    25
100
AcDbLine
 10
4.2170241413
 20
9.7160136132
 30
0.0
 11
4.2170241413
 21
9.8695232871
 31
0.0
  0
LINE
  5
132
330
1F
100
AcDbEntity
  8
0
  6
Continuous
 62
     7
370
    25
100
AcDbLine
 10
4.4008719302
 20
9.6098805437
 30
0.0
 11
4.2170241413
 21
9.7160136132
 31
0.0
  0
LINE
  5
133
330
1F
100
AcDbEntity
  8
0
  6
Continuous
 62
     7
370
    25
100
AcDbLine
 10
4.4008719302
 20
9.7633902176
 30
0.0
 11
4.4008719302
 21
9.6098805437
 31
0.0
  0
LINE
  5
134
330
1F
100
AcDbEntity
  8
0
  6
Continuous
 62
     7
370
    25
100
AcDbLine
 10
5.1928315275
 20
9.3062016737
 30
0.0
 11
4.4008719302
 21
9.7633902176
 31
0.0
  0
LINE
  5
135
330
1F
100
AcDbEntity
  8
0
  6
Continuous
 62
     7
370
    25
100
AcDbLine
 10
5.1928315275
 20
9.2327129949
 30
0.0
 11
5.1928315275
 21
9.3062016737
 31
0.0
  0
LINE
  5
136
330
1F
100
AcDbEntity
  8
0
  6
Continuous
 62
     7
370
    25
100
AcDbLine
 10
5.5463849138
 20
9.0286109694
 30
0.0
 11
5.1928315275
 21
9.2327129949
 31
0.0
  0
LINE
  5
137
330
1F
100
AcDbEntity
  8
0
  6
Continuous
 62
     7
370
    25
100
AcDbLine
 10
5.5463849138
 20
9.1020996482
 30
0.0
 11
5.5463849138
 21
9.0286109694
 31
0.0
  0
LWPOLYLINE
  5
138
330
1F
100
AcDbEntity
  8
0
  6
Continuous
 62
     7
370
    25
100
AcDbPolyline
 90
       30
 70
   128
 43
0.0
 10
6.7726848968
 20
7.4245295156
 10
6.771395394
 20
7.4389654362
 10
6.7675872437
 20
7.4542151414
 10
6.7614385122
 20
7.4695655726
 10
6.7532366774
 20
7.4842989736
 10
6.7433652508
 20
7.4977264298
 10
6.7322858357
 20
7.5092200713
 10
6.7205165565
 20
7.5182424354
 10
6.7086075828
 20
7.5243717267
 10
6.6971158255
 20
7.527321308
 10
6.6865785949
 20
7.5269532912
 10
6.6774887102
 20
7.5232848103
 10
6.6702711661
 20
7.5164874249
 10
6.665263324
 20
7.5068790434
 10
6.6626994599
 20
7.4949088769
 10
6.6626994599
 20
7.4811366366
 10
6.665263324
 20
7.4662062956
 10
6.6702711661
 20
7.4508159828
 10
6.6774887102
 20
7.4356853983
 10
6.6865785949
 20
7.42152196
 10
6.6971158255
 20
7.4089879155
 10
6.7086075828
 20
7.3986693964
 10
6.7205165565
 20
7.3910488793
 10
6.7322858357
 20
7.3864827229
 10
6.7433652508
 20
7.385184344
 10
6.7532366774
 20
7.3872144936
 10
6.7614385122
 20
7.3924782577
 10
6.7675872437
 20
7.4007295146
 10
6.771395394
 20
7.4115824231
 10
6.7726848968
 20
7.4245295156
  0
LWPOLYLINE
  5
139
330
1F
100
AcDbEntity
  8
0
  6
Continuous
 62
     7
370
    25
100
AcDbPolyline
 90
       30
 70
   128
 43
0.0
 10
4.0768402386
 20
8.9808075104
 10
4.0755507358
 20
8.9952434311
 10
4.0717425855
 20
9.0104931363
 10
4.065593854
 20
9.0258435675
 10
4.0573921229
 20
9.0405769086
 10
4.0475206963
 20
9.0540043648
 10
4.0364412813
 20
9.0654980063
 10
4.0246718983
 20
9.0745204303
 10
4.0127629246
 20
9.0806497216
 10
4.0012711673
 20
9.0835993029
 10
3.9907340404
 20
9.0832312262
 10
3.9816441557
 20
9.0795627453
 10
3.9744265079
 20
9.0727654197
 10
3.9694187695
 20
9.0631569784
 10
3.9668549054
 20
9.0511868119
 10
3.9668549054
 20
9.0374145716
 10
3.9694187695
 20
9.0224842306
 10
3.9744265079
 20
9.0070939776
 10
3.9816441557
 20
8.9919633333
 10
3.9907340404
 20
8.977799895
 10
4.0012711673
 20
8.9652659104
 10
4.0127629246
 20
8.9549473912
 10
4.0246718983
 20
8.9473268742
 10
4.0364412813
 20
8.9427606579
 10
4.0475206963
 20
8.941462279
 10
4.0573921229
 20
8.9434924286
 10
4.065593854
 20
8.9487562526
 10
4.0717425855
 20
8.9570075095
 10
4.0755507358
 20
8.9678604179
 10
4.0768402386
 20
8.9808075104
  0
LINE
  5
13A
330
1F
100
AcDbEntity
  8
0
  6
Continuous
 62
     7
370
    25
100
AcDbLine
 10
6.2372282168
 20
8.272559015
 30
0.0
 11
4.5019882244
 21
9.2742917401
 31
0.0
  0
ARC
  5
13B
330
1F
100
AcDbEntity
  8
0
  6
Continuous
 62
     7
370
    25
100
AcDbCircle
 10
4.4763171863
 20
9.2428196654
 30
0.0
 40
0.0406139592425708
100
AcDbArc
 50
50.7966761137
 51
189.2140365171
  0
LINE
  5
13C
330
1F
100
AcDbEntity
  8
0
  6
Continuous
 62
     7
370
    25
100
AcDbLine
 10
4.4362272662
 20
9.2363164358
 30
0.0
 11
4.4362272662
 21
8.3103591552
 31
0.0
  0
ARC
  5
13D
330
1F
100
AcDbEntity
  8
0
  6
Continuous
 62
     7
370
    25
100
AcDbCircle
 10
4.5790023691
 20
8.3168562174
 30
0.0
 40
0.1429228526563724
100
AcDbArc
 50
182.605479566
 51
237.3945336224
  0
LINE
  5
13E
330
1F
100
AcDbEntity
  8
0
  6
Continuous
 62
     7
370
    25
100
AcDbLine
 10
4.5019882244
 20
8.1964578646
 30
0.0
 11
6.2372282168
 21
7.1947251395
 31
0.0
  0
ARC
  5
13F
330
1F
100
AcDbEntity
  8
0
  6
Continuous
 62
     7
370
    25
100
AcDbCircle
 10
6.262899255
 20
7.2261972142
 30
0.0
 40
0.040613959242571
100
AcDbArc
 50
230.7966761137
 51
9.2140365171
  0
LINE
  5
140
330
1F
100
AcDbEntity
  8
0
  6
Continuous
 62
     7
370
    25
100
AcDbLine
 10
6.302989175
 20
7.2327004438
 30
0.0
 11
6.302989175
 21
8.1586577244
 31
0.0
  0
ARC
  5
141
330
1F
100
AcDbEntity
  8
0
  6
Continuous
 62
     7
370
    25
100
AcDbCircle
 10
6.1602140722
 20
8.1521606622
 30
0.0
 40
0.1429228526563695
100
AcDbArc
 50
2.605479566
 51
57.3945336224
  0
LINE
  5
142
330
1F
100
AcDbEntity
  8
0
  6
Continuous
 62
     7
370
    25
100
AcDbLine
 10
6.7180608077
 20
8.4836705278
 30
0.0
 11
6.6678562264
 21
8.45468804
 31
0.0
  0
LINE
  5
143
330
1F
100
AcDbEntity
  8
0
  6
Continuous
 62
     7
370
    25
100
AcDbLine
 10
6.73927403
 20
8.446928149
 30
0.0
 11
6.6890694487
 21
8.4179456611
 31
0.0
  0
LINE
  5
144
330
1F
100
AcDbEntity
  8
0
  6
Continuous
 62
     7
370
    25
100
AcDbLine
 10
6.73927403
 20
8.446928149
 30
0.0
 11
6.7180608077
 21
8.4836705278
 31
0.0
  0
LINE
  5
145
330
1F
100
AcDbEntity
  8
0
  6
Continuous
 62
     7
370
    25
100
AcDbLine
 10
6.73927403
 20
8.1219449313
 30
0.0
 11
6.6890694487
 21
8.0929624434
 31
0.0
  0
LINE
  5
146
330
1F
100
AcDbEntity
  8
0
  6
Continuous
 62
     7
370
    25
100
AcDbLine
 10
6.73927403
 20
8.1219449313
 30
0.0
 11
6.73927403
 21
8.446928149
 31
0.0
  0
LINE
  5
147
330
1F
100
AcDbEntity
  8
0
  6
Continuous
 62
     7
370
    25
100
AcDbLine
 10
5.5463849138
 20
9.1020996482
 30
0.0
 11
5.5965894951
 21
9.1310821361
 31
0.0
  0
LINE
  5
148
330
1F
100
AcDbEntity
  8
0
  6
Continuous
 62
     7
370
    25
100
AcDbLine
 10
6.7180608077
 20
8.4836705278
 30
0.0
 11
5.5965894951
 21
9.1310821361
 31
0.0
  0
LINE
  5
149
330
1F
100
AcDbEntity
  8
0
  6
Continuous
 62
     7
370
    25
100
AcDbLine
 10
6.9683766864
 20
7.9896867829
 30
0.0
 11
6.9181721051
 21
7.9607042951
 31
0.0
  0
LINE
  5
14A
330
1F
100
AcDbEntity
  8
0
  6
Continuous
 62
     7
370
    25
100
AcDbLine
 10
6.9683766864
 20
7.8365853638
 30
0.0
 11
6.9181721051
 21
7.807602876
 31
0.0
  0
LINE
  5
14B
330
1F
100
AcDbEntity
  8
0
  6
Continuous
 62
     7
370
    25
100
AcDbLine
 10
6.9683766864
 20
7.8365853638
 30
0.0
 11
6.9683766864
 21
7.9896867829
 31
0.0
  0
LINE
  5
14C
330
1F
100
AcDbEntity
  8
0
  6
Continuous
 62
     7
370
    25
100
AcDbLine
 10
6.9683766864
 20
7.9896867829
 30
0.0
 11
6.73927403
 21
8.1219449313
 31
0.0
  0
ARC
  5
14D
330
1F
100
AcDbEntity
  8
0
  6
Continuous
 62
     7
370
    25
100
AcDbCircle
 10
6.6829099273
 20
8.4143696062
 30
0.0
 40
0.0897814285915254
100
AcDbArc
 50
198.5871675519
 51
221.4074241172
  0
LINE
  5
14E
330
1F
100
AcDbEntity
  8
0
  6
Continuous
 62
     7
370
    25
100
AcDbLine
 10
6.918879133
 20
7.5511997593
 30
0.0
 11
6.8686745517
 21
7.5222172714
 31
0.0
  0
LINE
  5
14F
330
1F
100
AcDbEntity
  8
0
  6
Continuous
 62
     7
370
    25
100
AcDbLine
 10
6.918879133
 20
7.5511997593
 30
0.0
 11
6.918879133
 21
7.8080111465
 31
0.0
  0
LINE
  5
150
330
1F
100
AcDbEntity
  8
0
  6
Continuous
 62
     7
370
    25
100
AcDbLine
 10
6.9683766864
 20
7.5226254299
 30
0.0
 11
6.9181721051
 21
7.493642942
 31
0.0
  0
LINE
  5
151
330
1F
100
AcDbEntity
  8
0
  6
Continuous
 62
     7
370
    25
100
AcDbLine
 10
6.9683766864
 20
7.2164226217
 30
0.0
 11
6.9181721051
 21
7.1874401338
 31
0.0
  0
LINE
  5
152
330
1F
100
AcDbEntity
  8
0
  6
Continuous
 62
     7
370
    25
100
AcDbLine
 10
6.9683766864
 20
7.2164226217
 30
0.0
 11
6.9683766864
 21
7.5226254299
 31
0.0
  0
LINE
  5
153
330
1F
100
AcDbEntity
  8
0
  6
Continuous
 62
     7
370
    25
100
AcDbLine
 10
6.9683766864
 20
7.5226254299
 30
0.0
 11
6.918879133
 21
7.5511997593
 31
0.0
  0
ARC
  5
154
330
1F
100
AcDbEntity
  8
0
  6
Continuous
 62
     7
370
    25
100
AcDbCircle
 10
6.8278018283
 20
7.5200276986
 30
0.0
 40
0.1150437350018279
100
AcDbArc
 50
178.7374811549
 51
241.25711376
  0
LINE
  5
155
330
1F
100
AcDbEntity
  8
0
  6
Continuous
 62
     7
370
    25
100
AcDbLine
 10
6.918879133
 20
6.6836251459
 30
0.0
 11
6.8686745517
 21
6.654642658
 31
0.0
  0
LINE
  5
156
330
1F
100
AcDbEntity
  8
0
  6
Continuous
 62
     7
370
    25
100
AcDbLine
 10
6.918879133
 20
6.6836251459
 30
0.0
 11
6.918879133
 21
7.1878483893
 31
0.0
  0
LINE
  5
157
330
1F
100
AcDbEntity
  8
0
  6
Continuous
 62
     7
370
    25
100
AcDbLine
 10
5.1928315275
 20
9.2327129949
 30
0.0
 11
5.2430361088
 21
9.2616954828
 31
0.0
  0
LINE
  5
158
330
1F
100
AcDbEntity
  8
0
  6
Continuous
 62
     7
370
    25
100
AcDbLine
 10
5.5463849138
 20
9.0865759452
 30
0.0
 11
5.2430361088
 21
9.2616954828
 31
0.0
  0
LINE
  5
159
330
1F
100
AcDbEntity
  8
0
  6
Continuous
 62
     7
370
    25
100
AcDbLine
 10
6.9683766864
 20
6.6550508166
 30
0.0
 11
6.9181721051
 21
6.6260683287
 31
0.0
  0
LINE
  5
15A
330
1F
100
AcDbEntity
  8
0
  6
Continuous
 62
     7
370
    25
100
AcDbLine
 10
6.9683766864
 20
6.5019493975
 30
0.0
 11
6.9181721051
 21
6.4729669096
 31
0.0
  0
LINE
  5
15B
330
1F
100
AcDbEntity
  8
0
  6
Continuous
 62
     7
370
    25
100
AcDbLine
 10
6.9683766864
 20
6.5019493975
 30
0.0
 11
6.9683766864
 21
6.6550508166
 31
0.0
  0
LINE
  5
15C
330
1F
100
AcDbEntity
  8
0
  6
Continuous
 62
     7
370
    25
100
AcDbLine
 10
6.9683766864
 20
6.6550508166
 30
0.0
 11
6.918879133
 21
6.6836251459
 31
0.0
  0
LINE
  5
15D
330
1F
100
AcDbEntity
  8
0
  6
Continuous
 62
     7
370
    25
100
AcDbLine
 10
5.1928315275
 20
9.3062016737
 30
0.0
 11
5.2430361088
 21
9.3351841615
 31
0.0
  0
LINE
  5
15E
330
1F
100
AcDbEntity
  8
0
  6
Continuous
 62
     7
370
    25
100
AcDbLine
 10
5.2430361088
 20
9.2616954828
 30
0.0
 11
5.2430361088
 21
9.3351841615
 31
0.0
  0
LINE
  5
15F
330
1F
100
AcDbEntity
  8
0
  6
Continuous
 62
     7
370
    25
100
AcDbLine
 10
4.4510765115
 20
9.7923727055
 30
0.0
 11
4.4008719302
 21
9.7633902176
 31
0.0
  0
LINE
  5
160
330
1F
100
AcDbEntity
  8
0
  6
Continuous
 62
     7
370
    25
100
AcDbLine
 10
5.2430361088
 20
9.3351841615
 30
0.0
 11
4.4510765115
 21
9.7923727055
 31
0.0
  0
LINE
  5
161
330
1F
100
AcDbEntity
  8
0
  6
Continuous
 62
     7
370
    25
100
AcDbLine
 10
6.2874327981
 20
7.2237076274
 30
0.0
 11
6.2372282168
 21
7.1947251395
 31
0.0
  0
LWPOLYLINE
  5
162
330
1F
100
AcDbEntity
  8
0
  6
Continuous
 62
     7
370
    25
100
AcDbPolyline
 90
        3
 70
   128
 43
0.0
 10
6.2874327981
 20
7.2237076274
 10
6.3002621267
 20
7.2177605444
 10
6.3014710484
 20
7.2173539599
  0
LINE
  5
163
330
1F
100
AcDbEntity
  8
0
  6
Continuous
 62
     7
370
    25
100
AcDbLine
 10
4.5521928058
 20
8.2254403525
 30
0.0
 11
4.5019882244
 21
8.1964578646
 31
0.0
  0
LINE
  5
164
330
1F
100
AcDbEntity
  8
0
  6
Continuous
 62
     7
370
    25
100
AcDbLine
 10
4.5521928058
 20
8.2254403525
 30
0.0
 11
6.2874327981
 21
7.2237076274
 31
0.0
  0
LINE
  5
165
330
1F
100
AcDbEntity
  8
0
  6
Continuous
 62
     7
370
    25
100
AcDbLine
 10
6.3885490924
 20
6.8366767426
 30
0.0
 11
6.3383445111
 21
6.8076942547
 31
0.0
  0
LINE
  5
166
330
1F
100
AcDbEntity
  8
0
  6
Continuous
 62
     7
370
    25
100
AcDbLine
 10
6.3885490924
 20
6.8366767426
 30
0.0
 11
6.3885490924
 21
6.8522004848
 31
0.0
  0
LINE
  5
167
330
1F
100
AcDbEntity
  8
0
  6
Continuous
 62
     7
370
    25
100
AcDbLine
 10
4.2672287226
 20
9.744996101
 30
0.0
 11
4.2170241413
 21
9.7160136132
 31
0.0
  0
LINE
  5
168
330
1F
100
AcDbEntity
  8
0
  6
Continuous
 62
     7
370
    25
100
AcDbLine
 10
4.400871982
 20
9.6678454896
 30
0.0
 11
4.2672287226
 21
9.744996101
 31
0.0
  0
LINE
  5
169
330
1F
100
AcDbEntity
  8
0
  6
Continuous
 62
     7
370
    25
100
AcDbLine
 10
4.2672287226
 20
9.8985057749
 30
0.0
 11
4.2170241413
 21
9.8695232871
 31
0.0
  0
LINE
  5
16A
330
1F
100
AcDbEntity
  8
0
  6
Continuous
 62
     7
370
    25
100
AcDbLine
 10
4.2672287226
 20
9.744996101
 30
0.0
 11
4.2672287226
 21
9.8985057749
 31
0.0
  0
LINE
  5
16B
330
1F
100
AcDbEntity
  8
0
  6
Continuous
 62
     7
370
    25
100
AcDbLine
 10
3.7298275733
 20
10.2087408549
 30
0.0
 11
3.679622992
 21
10.179758367
 31
0.0
  0
LINE
  5
16C
330
1F
100
AcDbEntity
  8
0
  6
Continuous
 62
     7
370
    25
100
AcDbLine
 10
4.2672287226
 20
9.8985057749
 30
0.0
 11
3.7298275733
 21
10.2087408549
 31
0.0
  0
LINE
  5
16D
330
1F
100
AcDbEntity
  8
0
  6
Continuous
 62
     7
370
    25
100
AcDbLine
 10
4.4864318475
 20
9.2652989237
 30
0.0
 11
4.4362272662
 21
9.2363164358
 31
0.0
  0
LWPOLYLINE
  5
16E
330
1F
100
AcDbEntity
  8
0
  6
Continuous
 62
     7
370
    25
100
AcDbPolyline
 90
        3
 70
   128
 43
0.0
 10
4.487950026
 20
9.280645357
 10
4.4876954233
 20
9.279384312
 10
4.4864318475
 20
9.2652989237
  0
LINE
  5
16F
330
1F
100
AcDbEntity
  8
0
  6
Continuous
 62
     7
370
    25
100
AcDbLine
 10
4.4864318475
 20
8.339341643
 30
0.0
 11
4.4362272662
 21
8.3103591552
 31
0.0
  0
LINE
  5
170
330
1F
100
AcDbEntity
  8
0
  6
Continuous
 62
     7
370
    25
100
AcDbLine
 10
4.4864318475
 20
9.2652989237
 30
0.0
 11
4.4864318475
 21
8.339341643
 31
0.0
  0
ARC
  5
171
330
1F
100
AcDbEntity
  8
0
  6
Continuous
 62
     7
370
    25
100
AcDbCircle
 10
4.1319575541
 20
9.0763059121
 30
0.0
 40
0.1150441139958605
100
AcDbArc
 50
178.7375942648
 51
241.2570581238
  0
ARC
  5
172
330
1F
100
AcDbEntity
  8
0
  6
Continuous
 62
     7
370
    25
100
AcDbCircle
 10
4.6292069504
 20
8.3458387053
 30
0.0
 40
0.1429228526563766
100
AcDbArc
 50
182.605479566
 51
237.3945336224
  0
LINE
  5
173
330
1F
100
AcDbEntity
  8
0
  6
Continuous
 62
     7
370
    25
100
AcDbLine
 10
3.6449747876
 20
9.5432521162
 30
0.0
 11
3.5947702063
 21
9.5142696283
 31
0.0
  0
LINE
  5
174
330
1F
100
AcDbEntity
  8
0
  6
Continuous
 62
     7
370
    25
100
AcDbLine
 10
3.6584097178
 20
9.5354962961
 30
0.0
 11
3.6449747876
 21
9.5432521162
 31
0.0
  0
LINE
  5
175
330
1F
100
AcDbEntity
  8
0
  6
Continuous
 62
     7
370
    25
100
AcDbLine
 10
3.6520457926
 20
9.2203109183
 30
0.0
 11
3.6018412112
 21
9.1913284304
 31
0.0
  0
LINE
  5
176
330
1F
100
AcDbEntity
  8
0
  6
Continuous
 62
     7
370
    25
100
AcDbLine
 10
3.6567904243
 20
9.2178079885
 30
0.0
 11
3.6520457926
 21
9.2203109183
 31
0.0
  0
LINE
  5
177
330
1F
100
AcDbEntity
  8
0
  6
Continuous
 62
     7
370
    25
100
AcDbLine
 10
3.6237615652
 20
9.2366390552
 30
0.0
 11
3.5735569839
 21
9.2076565673
 31
0.0
  0
LINE
  5
178
330
1F
100
AcDbEntity
  8
0
  6
Continuous
 62
     7
370
    25
100
AcDbLine
 10
3.6520457926
 20
9.2203109183
 30
0.0
 11
3.6237615652
 21
9.2366390552
 31
0.0
  0
LINE
  5
179
330
1F
100
AcDbEntity
  8
0
  6
Continuous
 62
     7
370
    25
100
AcDbLine
 10
4.2672287226
 20
8.0612889255
 30
0.0
 11
4.2170241413
 21
8.0323064376
 31
0.0
  0
LINE
  5
17A
330
1F
100
AcDbEntity
  8
0
  6
Continuous
 62
     7
370
    25
100
AcDbLine
 10
4.2672287226
 20
8.0612889255
 30
0.0
 11
4.2672287226
 21
8.0768126677
 31
0.0
  0
LWPOLYLINE
  5
17B
330
1F
100
AcDbEntity
  8
0
  6
HIDDEN
 62
     7
370
    18
100
AcDbPolyline
 90
       17
 70
   128
 43
0.0
 10
6.5815892436
 20
8.2995371583
 10
6.5629179781
 20
8.3146045777
 10
6.5470892436
 20
8.3359555738
 10
6.5365128213
 20
8.3603396508
 10
6.5327988757
 20
8.3840445542
 10
6.5365128213
 20
8.4034614272
 10
6.5470892436
 20
8.415634227
 10
6.5629179781
 20
8.4187097551
 10
6.5815892436
 20
8.4122197903
 10
6.600260509
 20
8.3971523709
 10
6.6160892436
 20
8.3758013749
 10
6.6266656659
 20
8.3514172978
 10
6.6303796115
 20
8.3277123945
 10
6.6266656659
 20
8.3082955214
 10
6.6160892436
 20
8.2961227216
 10
6.600260509
 20
8.2930471935
 10
6.5815892436
 20
8.2995371583
  0
LWPOLYLINE
  5
17C
330
1F
100
AcDbEntity
  8
0
  6
HIDDEN
 62
     7
370
    18
100
AcDbPolyline
 90
       17
 70
   128
 43
0.0
 10
6.5815892436
 20
8.2995371583
 10
6.5629179781
 20
8.3146045777
 10
6.5470892436
 20
8.3359555738
 10
6.5365128213
 20
8.3603396508
 10
6.5327988757
 20
8.3840445542
 10
6.5365128213
 20
8.4034614272
 10
6.5470892436
 20
8.415634227
 10
6.5629179781
 20
8.4187097551
 10
6.5815892436
 20
8.4122197903
 10
6.600260509
 20
8.3971523709
 10
6.6160892436
 20
8.3758013749
 10
6.6266656659
 20
8.3514172978
 10
6.6303796115
 20
8.3277123945
 10
6.6266656659
 20
8.3082955214
 10
6.6160892436
 20
8.2961227216
 10
6.600260509
 20
8.2930471935
 10
6.5815892436
 20
8.2995371583
  0
ENDSEC
  0
SECTION
  2
OBJECTS
  0
DICTIONARY
  5
C
330
0
100
AcDbDictionary
281
     1
  3
ACAD_GROUP
350
D
  3
ACAD_LAYOUT
350
1A
  3
ACAD_MLINESTYLE
350
17
  3
ACAD_PLOTSETTINGS
350
19
  3
ACAD_PLOTSTYLENAME
350
E
  3
ACAD_SCALELIST
350
47
  0
DICTIONARY
  5
D
102
{ACAD_REACTORS
330
C
102
}
330
C
100
AcDbDictionary
281
     1
  0
DICTIONARY
  5
1A
102
{ACAD_REACTORS
330
C
102
}
330
C
100
AcDbDictionary
281
     1
  3
Layout1
350
1E
  3
Layout2
350
26
  3
Model
350
22
  0
DICTIONARY
  5
17
102
{ACAD_REACTORS
330
C
102
}
330
C
100
AcDbDictionary
281
     1
  3
Standard
350
18
  0
DICTIONARY
  5
19
102
{ACAD_REACTORS
330
C
102
}
330
C
100
AcDbDictionary
281
     1
  0
ACDBDICTIONARYWDFLT
  5
E
102
{ACAD_REACTORS
330
C
102
}
330
C
100
AcDbDictionary
281
     1
  3
Normal
350
F
100
AcDbDictionaryWithDefault
340
F
  0
DICTIONARY
  5
47
102
{ACAD_REACTORS
330
C
102
}
330
C
100
AcDbDictionary
281
     1
  3
A0
350
48
  3
A1
350
49
  3
A2
350
4A
  3
A3
350
4B
  3
A4
350
4C
  3
A5
350
4D
  3
A6
350
4E
  3
A7
350
4F
  3
A8
350
50
  3
A9
350
51
  3
B0
350
52
  3
B1
350
53
  3
B2
350
54
  3
B3
350
55
  3
B4
350
56
  3
B5
350
57
  3
B6
350
58
  3
B7
350
59
  3
B8
350
5A
  3
B9
350
5B
  3
C0
350
5C
  3
C1
350
5D
  3
C2
350
5E
  3
C3
350
5F
  3
C4
350
60
  3
C5
350
61
  3
C6
350
62
  3
C7
350
63
  3
C8
350
64
  3
C9
350
65
  3
D0
350
66
  3
D1
350
67
  3
D2
350
68
  0
LAYOUT
  5
1E
102
{ACAD_REACTORS
330
1A
102
}
330
1A
100
AcDbPlotSettings
  1

  2
none_device
  4

  6

 40
0.0
 41
0.0
 42
0.0
 43
0.0
 44
0.0
 45
0.0
 46
0.0
 47
0.0
 48
0.0
 49
0.0
140
0.0
141
0.0
142
1.0
143
1.0
 70
   688
 72
     0
 73
     0
 74
     5
  7

 75
    16
147
1.0
148
0.0
149
0.0
100
AcDbLayout
  1
Layout1
 70
     1
 71
     1
 10
0.0
 20
0.0
 11
12.0
 21
9.0
 12
0.0
 22
0.0
 32
0.0
 14
1.0000000000E+20
 24
1.0000000000E+20
 34
1.0000000000E+20
 15
-1.0000000000E+20
 25
-1.0000000000E+20
 35
-1.0000000000E+20
146
0.0
 13
0.0
 23
0.0
 33
0.0
 16
1.0
 26
0.0
 36
0.0
 17
0.0
 27
1.0
 37
0.0
 76
     0
330
1B
  0
LAYOUT
  5
26
102
{ACAD_REACTORS
330
1A
102
}
330
1A
100
AcDbPlotSettings
  1

  2
none_device
  4

  6

 40
0.0
 41
0.0
 42
0.0
 43
0.0
 44
0.0
 45
0.0
 46
0.0
 47
0.0
 48
0.0
 49
0.0
140
0.0
141
0.0
142
1.0
143
1.0
 70
   688
 72
     0
 73
     0
 74
     5
  7

 75
    16
147
1.0
148
0.0
149
0.0
100
AcDbLayout
  1
Layout2
 70
     1
 71
     2
 10
0.0
 20
0.0
 11
0.0
 21
0.0
 12
0.0
 22
0.0
 32
0.0
 14
0.0
 24
0.0
 34
0.0
 15
0.0
 25
0.0
 35
0.0
146
0.0
 13
0.0
 23
0.0
 33
0.0
 16
1.0
 26
0.0
 36
0.0
 17
0.0
 27
1.0
 37
0.0
 76
     0
330
23
  0
LAYOUT
  5
22
102
{ACAD_REACTORS
330
1A
102
}
330
1A
100
AcDbPlotSettings
  1

  2
none_device
  4
Letter_(8.50_x_11.00_Inches)
  6

 40
6.35
 41
6.35
 42
6.35000508
 43
6.35000508
 44
215.9
 45
279.4
 46
0.0
 47
0.0
 48
0.0
 49
0.0
140
0.0
141
0.0
142
1.0
143
1.0
 70
  1712
 72
     0
 73
     0
 74
     0
  7

 75
     0
147
1.0
148
0.0
149
0.0
100
AcDbLayout
  1
Model
 70
     1
 71
     0
 10
0.0
 20
0.0
 11
8.5
 21
11.0
 12
0.0
 22
0.0
 32
0.0
 14
0.0
 24
0.0
 34
0.0
 15
8.5
 25
11.0
 35
0.0
146
0.0
 13
0.0
 23
0.0
 33
0.0
 16
1.0
 26
0.0
 36
0.0
 17
0.0
 27
1.0
 37
0.0
 76
     0
330
1F
331
29
  0
MLINESTYLE
  5
18
102
{ACAD_REACTORS
330
17
102
}
330
17
100
AcDbMlineStyle
  2
Standard
 70
     0
  3

 62
   256
 51
90.0
 52
90.0
 71
     2
 49
0.5
 62
   256
  6
BYLAYER
 49
-0.5
 62
   256
  6
BYLAYER
  0
ACDBPLACEHOLDER
  5
F
102
{ACAD_REACTORS
330
E
102
}
330
E
  0
SCALE
  5
48
102
{ACAD_REACTORS
330
47
102
}
330
47
100
AcDbScale
 70
     0
300
1:1
140
1.0
141
1.0
290
     1
  0
SCALE
  5
49
102
{ACAD_REACTORS
330
47
102
}
330
47
100
AcDbScale
 70
     0
300
1:2
140
1.0
141
2.0
290
     0
  0
SCALE
  5
4A
102
{ACAD_REACTORS
330
47
102
}
330
47
100
AcDbScale
 70
     0
300
1:4
140
1.0
141
4.0
290
     0
  0
SCALE
  5
4B
102
{ACAD_REACTORS
330
47
102
}
330
47
100
AcDbScale
 70
     0
300
1:5
140
1.0
141
5.0
290
     0
  0
SCALE
  5
4C
102
{ACAD_REACTORS
330
47
102
}
330
47
100
AcDbScale
 70
     0
300
1:8
140
1.0
141
8.0
290
     0
  0
SCALE
  5
4D
102
{ACAD_REACTORS
330
47
102
}
330
47
100
AcDbScale
 70
     0
300
1:10
140
1.0
141
10.0
290
     0
  0
SCALE
  5
4E
102
{ACAD_REACTORS
330
47
102
}
330
47
100
AcDbScale
 70
     0
300
1:16
140
1.0
141
16.0
290
     0
  0
SCALE
  5
4F
102
{ACAD_REACTORS
330
47
102
}
330
47
100
AcDbScale
 70
     0
300
1:20
140
1.0
141
20.0
290
     0
  0
SCALE
  5
50
102
{ACAD_REACTORS
330
47
102
}
330
47
100
AcDbScale
 70
     0
300
1:30
140
1.0
141
30.0
290
     0
  0
SCALE
  5
51
102
{ACAD_REACTORS
330
47
102
}
330
47
100
AcDbScale
 70
     0
300
1:40
140
1.0
141
40.0
290
     0
  0
SCALE
  5
52
102
{ACAD_REACTORS
330
47
102
}
330
47
100
AcDbScale
 70
     0
300
1:50
140
1.0
141
50.0
290
     0
  0
SCALE
  5
53
102
{ACAD_REACTORS
330
47
102
}
330
47
100
AcDbScale
 70
     0
300
1:100
140
1.0
141
100.0
290
     0
  0
SCALE
  5
54
102
{ACAD_REACTORS
330
47
102
}
330
47
100
AcDbScale
 70
     0
300
2:1
140
2.0
141
1.0
290
     0
  0
SCALE
  5
55
102
{ACAD_REACTORS
330
47
102
}
330
47
100
AcDbScale
 70
     0
300
4:1
140
4.0
141
1.0
290
     0
  0
SCALE
  5
56
102
{ACAD_REACTORS
330
47
102
}
330
47
100
AcDbScale
 70
     0
300
8:1
140
8.0
141
1.0
290
     0
  0
SCALE
  5
57
102
{ACAD_REACTORS
330
47
102
}
330
47
100
AcDbScale
 70
     0
300
10:1
140
10.0
141
1.0
290
     0
  0
SCALE
  5
58
102
{ACAD_REACTORS
330
47
102
}
330
47
100
AcDbScale
 70
     0
300
100:1
140
100.0
141
1.0
290
     0
  0
SCALE
  5
59
102
{ACAD_REACTORS
330
47
102
}
330
47
100
AcDbScale
 70
     0
300
1/128" = 1'-0"
140
0.0078125
141
12.0
290
     0
  0
SCALE
  5
5A
102
{ACAD_REACTORS
330
47
102
}
330
47
100
AcDbScale
 70
     0
300
1/64" = 1'-0"
140
0.015625
141
12.0
290
     0
  0
SCALE
  5
5B
102
{ACAD_REACTORS
330
47
102
}
330
47
100
AcDbScale
 70
     0
300
1/32" = 1'-0"
140
0.03125
141
12.0
290
     0
  0
SCALE
  5
5C
102
{ACAD_REACTORS
330
47
102
}
330
47
100
AcDbScale
 70
     0
300
1/16" = 1'-0"
140
0.0625
141
12.0
290
     0
  0
SCALE
  5
5D
102
{ACAD_REACTORS
330
47
102
}
330
47
100
AcDbScale
 70
     0
300
3/32" = 1'-0"
140
0.09375
141
12.0
290
     0
  0
SCALE
  5
5E
102
{ACAD_REACTORS
330
47
102
}
330
47
100
AcDbScale
 70
     0
300
1/8" = 1'-0"
140
0.125
141
12.0
290
     0
  0
SCALE
  5
5F
102
{ACAD_REACTORS
330
47
102
}
330
47
100
AcDbScale
 70
     0
300
3/16" = 1'-0"
140
0.1875
141
12.0
290
     0
  0
SCALE
  5
60
102
{ACAD_REACTORS
330
47
102
}
330
47
100
AcDbScale
 70
     0
300
1/4" = 1'-0"
140
0.25
141
12.0
290
     0
  0
SCALE
  5
61
102
{ACAD_REACTORS
330
47
102
}
330
47
100
AcDbScale
 70
     0
300
3/8" = 1'-0"
140
0.375
141
12.0
290
     0
  0
SCALE
  5
62
102
{ACAD_REACTORS
330
47
102
}
330
47
100
AcDbScale
 70
     0
300
1/2" = 1'-0"
140
0.5
141
12.0
290
     0
  0
SCALE
  5
63
102
{ACAD_REACTORS
330
47
102
}
330
47
100
AcDbScale
 70
     0
300
3/4" = 1'-0"
140
0.75
141
12.0
290
     0
  0
SCALE
  5
64
102
{ACAD_REACTORS
330
47
102
}
330
47
100
AcDbScale
 70
     0
300
1" = 1'-0"
140
1.0
141
12.0
290
     0
  0
SCALE
  5
65
102
{ACAD_REACTORS
330
47
102
}
330
47
100
AcDbScale
 70
     0
300
1-1/2" = 1'-0"
140
1.5
141
12.0
290
     0
  0
SCALE
  5
66
102
{ACAD_REACTORS
330
47
102
}
330
47
100
AcDbScale
 70
     0
300
3" = 1'-0"
140
3.0
141
12.0
290
     0
  0
SCALE
  5
67
102
{ACAD_REACTORS
330
47
102
}
330
47
100
AcDbScale
 70
     0
300
6" = 1'-0"
140
6.0
141
12.0
290
     0
  0
SCALE
  5
68
102
{ACAD_REACTORS
330
47
102
}
330
47
100
AcDbScale
 70
     0
300
1'-0" = 1'-0"
140
12.0
141
12.0
290
     0
  0
ENDSEC
  0
EOF
