  0
SECTION
  2
HEADER
  9
$ACADVER
  1
AC1015
  9
$ACADMAINTVER
 70
     6
  9
$DWGCODEPAGE
  3
ANSI_1252
  9
$INSBASE
 10
0.0
 20
0.0
 30
0.0
  9
$EXTMIN
 10
0.0
 20
0.0
 30
0.0
  9
$EXTMAX
 10
17.0
 20
22.0
 30
0.0
  9
$LIMMIN
 10
0.0
 20
0.0
  9
$LIMMAX
 10
12.0
 20
9.0
  9
$ORTHOMODE
 70
     0
  9
$REGENMODE
 70
     1
  9
$FILLMODE
 70
     1
  9
$QTEXTMODE
 70
     0
  9
$MIRRTEXT
 70
     1
  9
$LTSCALE
 40
2.0
  9
$ATTMODE
 70
     1
  9
$TEXTSIZE
 40
0.2777777778
  9
$TRACEWID
 40
0.05
  9
$TEXTSTYLE
  7
Standard
  9
$CLAYER
  8
0
  9
$CELTYPE
  6
ByLayer
  9
$CECOLOR
 62
   256
  9
$CELTSCALE
 40
1.0
  9
$DISPSILH
 70
     0
  9
$DIMSCALE
 40
1.0
  9
$DIMASZ
 40
0.26
  9
$DIMEXO
 40
0.1
  9
$DIMDLI
 40
0.38
  9
$DIMRND
 40
0.0
  9
$DIMDLE
 40
0.0
  9
$DIMEXE
 40
0.25
  9
$DIMTP
 40
0.0
  9
$DIMTM
 40
0.0
  9
$DIMTXT
 40
0.2777777778
  9
$DIMCEN
 40
0.09
  9
$DIMTSZ
 40
0.0
  9
$DIMTOL
 70
     0
  9
$DIMLIM
 70
     0
  9
$DIMTIH
 70
     1
  9
$DIMTOH
 70
     1
  9
$DIMSE1
 70
     0
  9
$DIMSE2
 70
     0
  9
$DIMTAD
 70
     0
  9
$DIMZIN
 70
     0
  9
$DIMBLK
  1

  9
$DIMASO
 70
     1
  9
$DIMSHO
 70
     1
  9
$DIMPOST
  1

  9
$DIMAPOST
  1

  9
$DIMALT
 70
     0
  9
$DIMALTD
 70
     2
  9
$DIMALTF
 40
25.4
  9
$DIMLFAC
 40
1.0
  9
$DIMTOFL
 70
     0
  9
$DIMTVP
 40
0.0
  9
$DIMTIX
 70
     0
  9
$DIMSOXD
 70
     0
  9
$DIMSAH
 70
     0
  9
$DIMBLK1
  1

  9
$DIMBLK2
  1

  9
$DIMSTYLE
  2
Standard
  9
$DIMCLRD
 70
     0
  9
$DIMCLRE
 70
     0
  9
$DIMCLRT
 70
     0
  9
$DIMTFAC
 40
1.0
  9
$DIMGAP
 40
0.12
  9
$DIMJUST
 70
     0
  9
$DIMSD1
 70
     0
  9
$DIMSD2
 70
     0
  9
$DIMTOLJ
 70
     1
  9
$DIMTZIN
 70
     0
  9
$DIMALTZ
 70
     0
  9
$DIMALTTZ
 70
     0
  9
$DIMUPT
 70
     0
  9
$DIMDEC
 70
     2
  9
$DIMTDEC
 70
     2
  9
$DIMALTU
 70
     2
  9
$DIMALTTD
 70
     2
  9
$DIMTXSTY
  7
Standard
  9
$DIMAUNIT
 70
     0
  9
$DIMADEC
 70
     0
  9
$DIMALTRND
 40
0.0
  9
$DIMAZIN
 70
     0
  9
$DIMDSEP
 70
    46
  9
$DIMATFIT
 70
     3
  9
$DIMFRAC
 70
     0
  9
$DIMLDRBLK
  1

  9
$DIMLUNIT
 70
     2
  9
$DIMLWD
 70
    -2
  9
$DIMLWE
 70
    -2
  9
$DIMTMOVE
 70
     0
  9
$LUNITS
 70
     2
  9
$LUPREC
 70
     2
  9
$SKETCHINC
 40
0.1
  9
$FILLETRAD
 40
0.0
  9
$AUNITS
 70
     0
  9
$AUPREC
 70
     0
  9
$MENU
  1
.
  9
$ELEVATION
 40
0.0
  9
$PELEVATION
 40
0.0
  9
$THICKNESS
 40
0.0
  9
$LIMCHECK
 70
     0
  9
$CHAMFERA
 40
0.0
  9
$CHAMFERB
 40
0.0
  9
$CHAMFERC
 40
0.0
  9
$CHAMFERD
 40
0.0
  9
$SKPOLY
 70
     0
  9
$TDCREATE
 40
2460293.578468518
  9
$TDUCREATE
 40
2460293.786801852
  9
$TDUPDATE
 40
2460293.578469236
  9
$TDUUPDATE
 40
2460293.786802569
  9
$TDINDWG
 40
0.0000000116
  9
$TDUSRTIMER
 40
0.0000000116
  9
$USRTIMER
 70
     1
  9
$ANGBASE
 50
0.0
  9
$ANGDIR
 70
     0
  9
$PDMODE
 70
     0
  9
$PDSIZE
 40
-1.0
  9
$PLINEWID
 40
0.0
  9
$SPLFRAME
 70
     0
  9
$SPLINETYPE
 70
     6
  9
$SPLINESEGS
 70
     8
  9
$HANDSEED
  5
16E
  9
$SURFTAB1
 70
     6
  9
$SURFTAB2
 70
     6
  9
$SURFTYPE
 70
     6
  9
$SURFU
 70
     6
  9
$SURFV
 70
     6
  9
$UCSBASE
  2

  9
$UCSNAME
  2

  9
$UCSORG
 10
0.0
 20
0.0
 30
0.0
  9
$UCSXDIR
 10
1.0
 20
0.0
 30
0.0
  9
$UCSYDIR
 10
0.0
 20
1.0
 30
0.0
  9
$UCSORTHOREF
  2

  9
$UCSORTHOVIEW
 70
     0
  9
$UCSORGTOP
 10
0.0
 20
0.0
 30
0.0
  9
$UCSORGBOTTOM
 10
0.0
 20
0.0
 30
0.0
  9
$UCSORGLEFT
 10
0.0
 20
0.0
 30
0.0
  9
$UCSORGRIGHT
 10
0.0
 20
0.0
 30
0.0
  9
$UCSORGFRONT
 10
0.0
 20
0.0
 30
0.0
  9
$UCSORGBACK
 10
0.0
 20
0.0
 30
0.0
  9
$PUCSBASE
  2

  9
$PUCSNAME
  2

  9
$PUCSORG
 10
0.0
 20
0.0
 30
0.0
  9
$PUCSXDIR
 10
1.0
 20
0.0
 30
0.0
  9
$PUCSYDIR
 10
0.0
 20
1.0
 30
0.0
  9
$PUCSORTHOREF
  2

  9
$PUCSORTHOVIEW
 70
     0
  9
$PUCSORGTOP
 10
0.0
 20
0.0
 30
0.0
  9
$PUCSORGBOTTOM
 10
0.0
 20
0.0
 30
0.0
  9
$PUCSORGLEFT
 10
0.0
 20
0.0
 30
0.0
  9
$PUCSORGRIGHT
 10
0.0
 20
0.0
 30
0.0
  9
$PUCSORGFRONT
 10
0.0
 20
0.0
 30
0.0
  9
$PUCSORGBACK
 10
0.0
 20
0.0
 30
0.0
  9
$USERI1
 70
     0
  9
$USERI2
 70
     0
  9
$USERI3
 70
     0
  9
$USERI4
 70
     0
  9
$USERI5
 70
     0
  9
$USERR1
 40
0.0
  9
$USERR2
 40
0.0
  9
$USERR3
 40
0.0
  9
$USERR4
 40
0.0
  9
$USERR5
 40
0.0
  9
$WORLDVIEW
 70
     1
  9
$SHADEDGE
 70
     3
  9
$SHADEDIF
 70
    70
  9
$TILEMODE
 70
     0
  9
$MAXACTVP
 70
    64
  9
$PINSBASE
 10
0.0
 20
0.0
 30
0.0
  9
$PLIMCHECK
 70
     0
  9
$PEXTMIN
 10
0.0
 20
0.0
 30
0.0
  9
$PEXTMAX
 10
17.0
 20
22.0
 30
0.0
  9
$PLIMMIN
 10
0.0
 20
0.0
  9
$PLIMMAX
 10
17.0
 20
22.0
  9
$UNITMODE
 70
     0
  9
$VISRETAIN
 70
     1
  9
$PLINEGEN
 70
     0
  9
$PSLTSCALE
 70
     1
  9
$TREEDEPTH
 70
  3020
  9
$CMLSTYLE
  2
Standard
  9
$CMLJUST
 70
     0
  9
$CMLSCALE
 40
1.0
  9
$PROXYGRAPHICS
 70
     1
  9
$MEASUREMENT
 70
     0
  9
$CELWEIGHT
370
    -1
  9
$ENDCAPS
280
     0
  9
$JOINSTYLE
280
     0
  9
$LWDISPLAY
290
     1
  9
$INSUNITS
 70
     1
  9
$HYPERLINKBASE
  1

  9
$STYLESHEET
  1

  9
$XEDIT
290
     1
  9
$CEPSNTYPE
380
     0
  9
$PSTYLEMODE
290
     1
  9
$FINGERPRINTGUID
  2
{00a492d9-a215-42d0-854e-06ad2c9c4b6d}
  9
$VERSIONGUID
  2
{FAEB1C32-E019-11D5-929B-00C0DF256EC4}
  9
$EXTNAMES
290
     1
  9
$PSVPSCALE
 40
0.0
  9
$OLESTARTUP
290
     0
  0
ENDSEC
  0
SECTION
  2
CLASSES
  0
CLASS
  1
ACDBDICTIONARYWDFLT
  2
AcDbDictionaryWithDefault
  3
ObjectDBX Classes
 90
        0
280
     0
281
     0
  0
CLASS
  1
VISUALSTYLE
  2
AcDbVisualStyle
  3
ObjectDBX Classes
 90
     4095
280
     0
281
     0
  0
CLASS
  1
MATERIAL
  2
AcDbMaterial
  3
ObjectDBX Classes
 90
     1153
280
     0
281
     0
  0
CLASS
  1
SCALE
  2
AcDbScale
  3
ObjectDBX Classes
 90
     1153
280
     0
281
     0
  0
CLASS
  1
TABLESTYLE
  2
AcDbTableStyle
  3
ObjectDBX Classes
 90
     4095
280
     0
281
     0
  0
CLASS
  1
MLEADERSTYLE
  2
AcDbMLeaderStyle
  3
ACDB_MLEADERSTYLE_CLASS
 90
     4095
280
     0
281
     0
  0
CLASS
  1
SUN
  2
AcDbSun
  3
SCENEOE
 90
     1153
280
     0
281
     0
  0
CLASS
  1
ACDBPLACEHOLDER
  2
AcDbPlaceHolder
  3
ObjectDBX Classes
 90
        0
280
     0
281
     0
  0
CLASS
  1
LAYOUT
  2
AcDbLayout
  3
ObjectDBX Classes
 90
        0
280
     0
281
     0
  0
ENDSEC
  0
SECTION
  2
TABLES
  0
TABLE
  2
VPORT
  5
8
330
0
100
AcDbSymbolTable
 70
     1
  0
VPORT
  5
29
330
8
100
AcDbSymbolTableRecord
100
AcDbViewportTableRecord
  2
*Active
 70
     0
 10
0.0
 20
0.0
 11
1.0
 21
1.0
 12
8.5
 22
11.0
 13
0.0
 23
0.0
 14
0.5
 24
0.5
 15
0.5
 25
0.5
 16
0.0
 26
0.0
 36
1.0
 17
0.0
 27
0.0
 37
0.0
 40
22.0
 41
0.7727272727
 42
50.0
 43
0.0
 44
0.0
 50
0.0
 51
0.0
 71
     0
 72
  2000
 73
     1
 74
     3
 75
     0
 76
     0
 77
     0
 78
     0
281
     0
 65
     1
110
0.0
120
0.0
130
0.0
111
1.0
121
0.0
131
0.0
112
0.0
122
1.0
132
0.0
 79
     0
146
0.0
  0
ENDTAB
  0
TABLE
  2
LTYPE
  5
5
330
0
100
AcDbSymbolTable
 70
     6
  0
LTYPE
  5
14
330
5
100
AcDbSymbolTableRecord
100
AcDbLinetypeTableRecord
  2
ByBlock
 70
     0
  3

 72
    65
 73
     0
 40
0.0
  0
LTYPE
  5
15
330
5
100
AcDbSymbolTableRecord
100
AcDbLinetypeTableRecord
  2
ByLayer
 70
     0
  3

 72
    65
 73
     0
 40
0.0
  0
LTYPE
  5
16
330
5
100
AcDbSymbolTableRecord
100
AcDbLinetypeTableRecord
  2
Continuous
 70
     0
  3
Solid line
 72
    65
 73
     0
 40
0.0
  0
LTYPE
  5
5E
330
5
100
AcDbSymbolTableRecord
100
AcDbLinetypeTableRecord
  2
HIDDEN
 70
     0
  3
Hidden __ __ __ __ __ __ __ __ __ __ __ __ __ __
 72
    65
 73
     2
 40
0.075
 49
0.05
 74
     0
 49
-0.025
 74
     0
  0
LTYPE
  5
5F
330
5
100
AcDbSymbolTableRecord
100
AcDbLinetypeTableRecord
  2
PHANTOM
 70
     0
  3
Phantom ______  __  __  ______  __  __  ______
 72
    65
 73
     6
 40
0.5
 49
0.25
 74
     0
 49
-0.05
 74
     0
 49
0.05
 74
     0
 49
-0.05
 74
     0
 49
0.05
 74
     0
 49
-0.05
 74
     0
  0
LTYPE
  5
60
330
5
100
AcDbSymbolTableRecord
100
AcDbLinetypeTableRecord
  2
CENTER
 70
     0
  3
Center ____ _ ____ _ ____ _ ____ _ ____ _ ____
 72
    65
 73
     4
 40
0.4
 49
0.25
 74
     0
 49
-0.05
 74
     0
 49
0.05
 74
     0
 49
-0.05
 74
     0
  0
LTYPE
  5
61
330
5
100
AcDbSymbolTableRecord
100
AcDbLinetypeTableRecord
  2
CENTERX2
 70
     0
  3
Center (2x) ________  __  ________  __  _____
 72
    65
 73
     4
 40
0.8
 49
0.5
 74
     0
 49
-0.1
 74
     0
 49
0.1
 74
     0
 49
-0.1
 74
     0
  0
LTYPE
  5
62
330
5
100
AcDbSymbolTableRecord
100
AcDbLinetypeTableRecord
  2
DOT2
 70
     0
  3
Dot (.5x) ........................................
 72
    65
 73
     2
 40
0.025
 49
0.0
 74
     0
 49
-0.025
 74
     0
  0
ENDTAB
  0
TABLE
  2
LAYER
  5
2
330
0
100
AcDbSymbolTable
 70
     7
  0
LAYER
  5
10
330
2
100
AcDbSymbolTableRecord
100
AcDbLayerTableRecord
  2
0
 70
     0
 62
     7
  6
Continuous
370
    -3
390
F
  0
LAYER
  5
63
330
2
100
AcDbSymbolTableRecord
100
AcDbLayerTableRecord
  2
FORMAT
 70
     0
 62
     7
  6
Continuous
370
    -3
390
F
  0
LAYER
  5
64
330
2
100
AcDbSymbolTableRecord
100
AcDbLayerTableRecord
  2
DEFAULT
 70
     0
 62
   179
  6
Continuous
370
    -3
390
F
  0
LAYER
  5
65
330
2
100
AcDbSymbolTableRecord
100
AcDbLayerTableRecord
  2
INSPECTION_TAGS
 70
     0
 62
     7
  6
Continuous
370
    -3
390
F
  0
LAYER
  5
66
330
2
100
AcDbSymbolTableRecord
100
AcDbLayerTableRecord
  2
REVISIONS
 70
     0
 62
     7
  6
Continuous
370
    -3
390
F
  0
LAYER
  5
67
330
2
100
AcDbSymbolTableRecord
100
AcDbLayerTableRecord
  2
DIMENSIONS_&_ANNOTATIONS
 70
     0
 62
     7
  6
Continuous
370
    -3
390
F
  0
LAYER
  5
68
330
2
100
AcDbSymbolTableRecord
100
AcDbLayerTableRecord
  2
DIMENSION_&_ANNOTATIONS
 70
     0
 62
     7
  6
Continuous
370
    -3
390
F
  0
ENDTAB
  0
TABLE
  2
STYLE
  5
3
330
0
100
AcDbSymbolTable
 70
     2
  0
STYLE
  5
11
330
3
100
AcDbSymbolTableRecord
100
AcDbTextStyleTableRecord
  2
Standard
 70
     0
 40
0.0
 41
1.0
 50
0.0
 71
     0
 42
0.2777777778
  3
txt
  4

  0
STYLE
  5
13B
330
3
100
AcDbSymbolTableRecord
100
AcDbTextStyleTableRecord
  2
SLDTEXTSTYLE0
 70
     0
 40
0.0
 41
0.605
 50
0.0
 71
     0
 42
0.2777777778
  3
TXT
  4

  0
ENDTAB
  0
TABLE
  2
VIEW
  5
6
330
0
100
AcDbSymbolTable
 70
     0
  0
ENDTAB
  0
TABLE
  2
UCS
  5
7
330
0
100
AcDbSymbolTable
 70
     0
  0
ENDTAB
  0
TABLE
  2
APPID
  5
9
330
0
100
AcDbSymbolTable
 70
     1
  0
APPID
  5
12
330
9
100
AcDbSymbolTableRecord
100
AcDbRegAppTableRecord
  2
ACAD
 70
     0
  0
ENDTAB
  0
TABLE
  2
DIMSTYLE
  5
A
330
0
100
AcDbSymbolTable
 70
     3
100
AcDbDimStyleTable
  0
DIMSTYLE
105
27
330
A
100
AcDbSymbolTableRecord
100
AcDbDimStyleTableRecord
  2
Standard
 70
     0
178
     0
340
11
  0
DIMSTYLE
105
13C
102
{ACAD_REACTORS
330
13A
102
}
330
A
100
AcDbSymbolTableRecord
100
AcDbDimStyleTableRecord
  2
SLDDIMSTYLE0
 70
     0
 41
0.26
 44
0.0
 45
0.000000001
 78
    12
 79
     3
140
0.2022298177
143
29.275
147
0.0505574544
148
0.000000001
170
     1
171
     1
173
     1
178
     0
271
     6
272
     2
274
     1
276
     2
277
     5
284
    12
340
13B
  0
DIMSTYLE
105
155
102
{ACAD_REACTORS
330
154
102
}
330
A
100
AcDbSymbolTableRecord
100
AcDbDimStyleTableRecord
  2
SLDDIMSTYLE1
 70
     0
 41
0.26
 44
0.0
 45
0.000000001
 78
    12
 79
     3
140
0.2022298177
147
0.0505574544
148
0.000000001
170
     1
171
     1
173
     1
178
     0
271
     6
272
     2
274
     1
276
     2
277
     5
284
    12
340
13B
  0
ENDTAB
  0
TABLE
  2
BLOCK_RECORD
  5
1
330
0
100
AcDbSymbolTable
 70
     2
  0
BLOCK_RECORD
  5
1F
330
1
100
AcDbSymbolTableRecord
100
AcDbBlockTableRecord
  2
*Model_Space
340
22
  0
BLOCK_RECORD
  5
1B
330
1
100
AcDbSymbolTableRecord
100
AcDbBlockTableRecord
  2
*Paper_Space
340
1E
  0
BLOCK_RECORD
  5
13D
330
1
100
AcDbSymbolTableRecord
100
AcDbBlockTableRecord
  2
_D
340
0
  0
BLOCK_RECORD
  5
156
330
1
100
AcDbSymbolTableRecord
100
AcDbBlockTableRecord
  2
_D_1
340
0
  0
ENDTAB
  0
ENDSEC
  0
SECTION
  2
BLOCKS
  0
BLOCK
  5
20
330
1F
100
AcDbEntity
  8
0
100
AcDbBlockBegin
  2
*Model_Space
 70
     0
 10
0.0
 20
0.0
 30
0.0
  3
*Model_Space
  1

  0
ENDBLK
  5
21
330
1F
100
AcDbEntity
  8
0
100
AcDbBlockEnd
  0
BLOCK
  5
1C
330
1B
100
AcDbEntity
 67
     1
  8
0
100
AcDbBlockBegin
  2
*Paper_Space
 70
     0
 10
0.0
 20
0.0
 30
0.0
  3
*Paper_Space
  1

  0
ENDBLK
  5
1D
330
1B
100
AcDbEntity
 67
     1
  8
0
100
AcDbBlockEnd
  0
BLOCK
  5
13E
330
13D
100
AcDbEntity
  8
0
100
AcDbBlockBegin
  2
_D
 70
     0
 10
0.0
 20
0.0
 30
0.0
  3
_D
  1

  0
SOLID
  5
140
330
13D
100
AcDbEntity
  8
DEFAULT
 62
     7
100
AcDbTrace
 10
5.8445243705
 20
8.1109506297
 30
0.0
 11
6.1045243705
 21
8.0709506297
 31
0.0
 12
6.1045243705
 22
8.1509506297
 32
0.0
 13
6.1045243705
 23
8.1509506297
 33
0.0
  0
SOLID
  5
141
330
13D
100
AcDbEntity
  8
DEFAULT
 62
     7
100
AcDbTrace
 10
10.4545243705
 20
8.1109506297
 30
0.0
 11
10.1945243705
 21
8.1509506297
 31
0.0
 12
10.1945243705
 22
8.0709506297
 32
0.0
 13
10.1945243705
 23
8.0709506297
 33
0.0
  0
LINE
  5
142
330
13D
100
AcDbEntity
  8
DEFAULT
 62
     7
100
AcDbLine
 10
8.0706278186
 20
8.3331921769
 30
0.0
 11
8.2839765873
 21
8.3331921769
 31
0.0
  0
LINE
  5
143
330
13D
100
AcDbEntity
  8
DEFAULT
 62
     7
100
AcDbLine
 10
7.5708207624
 20
7.9855069788
 30
0.0
 11
7.5013763188
 21
7.9855069788
 31
0.0
  0
LINE
  5
144
330
13D
100
AcDbEntity
  8
DEFAULT
 62
     7
100
AcDbLine
 10
7.5013763188
 20
7.9855069788
 30
0.0
 11
7.5013763188
 21
7.6749359799
 31
0.0
  0
LINE
  5
145
330
13D
100
AcDbEntity
  8
DEFAULT
 62
     7
100
AcDbLine
 10
7.5013763188
 20
7.6749359799
 30
0.0
 11
7.5708207624
 21
7.6749359799
 31
0.0
  0
LINE
  5
146
330
13D
100
AcDbEntity
  8
DEFAULT
 62
     7
100
AcDbLine
 10
8.7282281253
 20
7.9855069788
 30
0.0
 11
8.7976725689
 21
7.9855069788
 31
0.0
  0
LINE
  5
147
330
13D
100
AcDbEntity
  8
DEFAULT
 62
     7
100
AcDbLine
 10
8.7976725689
 20
7.9855069788
 30
0.0
 11
8.7976725689
 21
7.6749359799
 31
0.0
  0
LINE
  5
148
330
13D
100
AcDbEntity
  8
DEFAULT
 62
     7
100
AcDbLine
 10
8.7976725689
 20
7.6749359799
 30
0.0
 11
8.7282281253
 21
7.6749359799
 31
0.0
  0
LINE
  5
149
330
13D
100
AcDbEntity
  8
DEFAULT
 62
     7
100
AcDbLine
 10
5.8445243705
 20
9.4578289493
 30
0.0
 11
5.8445243705
 21
7.8609506297
 31
0.0
  0
LINE
  5
14A
330
13D
100
AcDbEntity
  8
DEFAULT
 62
     7
100
AcDbLine
 10
10.4545243705
 20
9.4278289493
 30
0.0
 11
10.4545243705
 21
7.8609506297
 31
0.0
  0
LINE
  5
14B
330
13D
100
AcDbEntity
  8
DEFAULT
 62
     7
100
AcDbLine
 10
5.8445243705
 20
8.1109506297
 30
0.0
 11
7.3109615073
 21
8.1109506297
 31
0.0
  0
LINE
  5
14C
330
13D
100
AcDbEntity
  8
DEFAULT
 62
     7
100
AcDbLine
 10
10.4545243705
 20
8.1109506297
 30
0.0
 11
8.9880872337
 21
8.1109506297
 31
0.0
  0
MTEXT
  5
14D
330
13D
100
AcDbEntity
  8
DEFAULT
 62
     7
100
AcDbMText
 10
7.4328963782
 20
8.4421076711
 30
0.0
 40
0.2083333333
 41
0.0
 71
     1
 72
     1
  1

  7
SLDTEXTSTYLE0
 73
     1
 44
1.0
  0
MTEXT
  5
14E
330
13D
100
AcDbEntity
  8
DEFAULT
 62
     7
100
AcDbMText
 10
7.8867929373
 20
8.4421076711
 30
0.0
 40
0.2083333333
 41
0.0
 71
     1
 72
     1
  1
4
  7
SLDTEXTSTYLE0
 73
     1
 44
1.0
  0
MTEXT
  5
14F
330
13D
100
AcDbEntity
  8
DEFAULT
 62
     7
100
AcDbMText
 10
8.100141706
 20
8.5840396181
 30
0.0
 40
0.2083333333
 41
0.0
 71
     1
 72
     1
  1
5
  7
SLDTEXTSTYLE0
 73
     1
 44
1.0
  0
MTEXT
  5
150
330
13D
100
AcDbEntity
  8
DEFAULT
 62
     7
100
AcDbMText
 10
8.100141706
 20
8.3003590661
 30
0.0
 40
0.2083333333
 41
0.0
 71
     1
 72
     1
  1
8
  7
SLDTEXTSTYLE0
 73
     1
 44
1.0
  0
MTEXT
  5
151
330
13D
100
AcDbEntity
  8
DEFAULT
 62
     7
100
AcDbMText
 10
8.3134904747
 20
8.4421076711
 30
0.0
 40
0.2083333333
 41
0.0
 71
     1
 72
     1
  1
"
  7
SLDTEXTSTYLE0
 73
     1
 44
1.0
  0
MTEXT
  5
152
330
13D
100
AcDbEntity
  8
DEFAULT
 62
     7
100
AcDbMText
 10
7.5708207624
 20
7.9434917728
 30
0.0
 40
0.2083333333
 41
0.0
 71
     1
 72
     1
  1
117.1mm
  7
SLDTEXTSTYLE0
 73
     1
 44
1.0
  0
MTEXT
  5
153
330
13D
100
AcDbEntity
  8
DEFAULT
 62
     7
100
AcDbMText
 10
8.9452419208
 20
8.4421076711
 30
0.0
 40
0.2083333333
 41
0.0
 71
     1
 72
     1
  1

  7
SLDTEXTSTYLE0
 73
     1
 44
1.0
  0
ENDBLK
  5
13F
330
13D
100
AcDbEntity
  8
0
100
AcDbBlockEnd
  0
BLOCK
  5
157
330
156
100
AcDbEntity
  8
0
100
AcDbBlockBegin
  2
_D_1
 70
     0
 10
0.0
 20
0.0
 30
0.0
  3
_D_1
  1

  0
SOLID
  5
159
330
156
100
AcDbEntity
  8
DEFAULT
 62
     7
100
AcDbTrace
 10
11.8947254641
 20
11.7778289493
 30
0.0
 11
11.8547254641
 21
11.5178289493
 31
0.0
 12
11.9347254641
 22
11.5178289493
 32
0.0
 13
11.9347254641
 23
11.5178289493
 33
0.0
  0
SOLID
  5
15A
330
156
100
AcDbEntity
  8
DEFAULT
 62
     7
100
AcDbTrace
 10
11.8947254641
 20
9.5278289493
 30
0.0
 11
11.9347254641
 21
9.7878289493
 31
0.0
 12
11.8547254641
 22
9.7878289493
 32
0.0
 13
11.8547254641
 23
9.7878289493
 33
0.0
  0
LINE
  5
15B
330
156
100
AcDbEntity
  8
DEFAULT
 62
     7
100
AcDbLine
 10
11.8158289122
 20
10.8750704965
 30
0.0
 11
12.0291776809
 21
10.8750704965
 31
0.0
  0
LINE
  5
15C
330
156
100
AcDbEntity
  8
DEFAULT
 62
     7
100
AcDbLine
 10
11.393182298
 20
10.5273852984
 30
0.0
 11
11.3237378544
 21
10.5273852984
 31
0.0
  0
LINE
  5
15D
330
156
100
AcDbEntity
  8
DEFAULT
 62
     7
100
AcDbLine
 10
11.3237378544
 20
10.5273852984
 30
0.0
 11
11.3237378544
 21
10.2168142995
 31
0.0
  0
LINE
  5
15E
330
156
100
AcDbEntity
  8
DEFAULT
 62
     7
100
AcDbLine
 10
11.3237378544
 20
10.2168142995
 30
0.0
 11
11.393182298
 21
10.2168142995
 31
0.0
  0
LINE
  5
15F
330
156
100
AcDbEntity
  8
DEFAULT
 62
     7
100
AcDbLine
 10
12.3962687769
 20
10.5273852984
 30
0.0
 11
12.4657132205
 21
10.5273852984
 31
0.0
  0
LINE
  5
160
330
156
100
AcDbEntity
  8
DEFAULT
 62
     7
100
AcDbLine
 10
12.4657132205
 20
10.5273852984
 30
0.0
 11
12.4657132205
 21
10.2168142995
 31
0.0
  0
LINE
  5
161
330
156
100
AcDbEntity
  8
DEFAULT
 62
     7
100
AcDbLine
 10
12.4657132205
 20
10.2168142995
 30
0.0
 11
12.3962687769
 21
10.2168142995
 31
0.0
  0
LINE
  5
162
330
156
100
AcDbEntity
  8
DEFAULT
 62
     7
100
AcDbLine
 10
10.2005243705
 20
11.7778289493
 30
0.0
 11
12.1447254641
 21
11.7778289493
 31
0.0
  0
LINE
  5
163
330
156
100
AcDbEntity
  8
DEFAULT
 62
     7
100
AcDbLine
 10
10.5545243705
 20
9.5278289493
 30
0.0
 11
12.1447254641
 21
9.5278289493
 31
0.0
  0
LINE
  5
164
330
156
100
AcDbEntity
  8
DEFAULT
 62
     7
100
AcDbLine
 10
11.8947254641
 20
11.7778289493
 30
0.0
 11
11.8947254641
 21
11.1351399376
 31
0.0
  0
LINE
  5
165
330
156
100
AcDbEntity
  8
DEFAULT
 62
     7
100
AcDbLine
 10
11.8947254641
 20
9.5278289493
 30
0.0
 11
11.8947254641
 21
10.170517961
 31
0.0
  0
MTEXT
  5
166
330
156
100
AcDbEntity
  8
DEFAULT
 62
     7
100
AcDbMText
 10
11.2552579138
 20
10.9839859906
 30
0.0
 40
0.2083333333
 41
0.0
 71
     1
 72
     1
  1

  7
SLDTEXTSTYLE0
 73
     1
 44
1.0
  0
MTEXT
  5
167
330
156
100
AcDbEntity
  8
DEFAULT
 62
     7
100
AcDbMText
 10
11.6319940309
 20
10.9839859906
 30
0.0
 40
0.2083333333
 41
0.0
 71
     1
 72
     1
  1
2
  7
SLDTEXTSTYLE0
 73
     1
 44
1.0
  0
MTEXT
  5
168
330
156
100
AcDbEntity
  8
DEFAULT
 62
     7
100
AcDbMText
 10
11.8453427996
 20
11.1259179377
 30
0.0
 40
0.2083333333
 41
0.0
 71
     1
 72
     1
  1
1
  7
SLDTEXTSTYLE0
 73
     1
 44
1.0
  0
MTEXT
  5
169
330
156
100
AcDbEntity
  8
DEFAULT
 62
     7
100
AcDbMText
 10
11.8453427996
 20
10.8422373857
 30
0.0
 40
0.2083333333
 41
0.0
 71
     1
 72
     1
  1
4
  7
SLDTEXTSTYLE0
 73
     1
 44
1.0
  0
MTEXT
  5
16A
330
156
100
AcDbEntity
  8
DEFAULT
 62
     7
100
AcDbMText
 10
12.0586915683
 20
10.9839859906
 30
0.0
 40
0.2083333333
 41
0.0
 71
     1
 72
     1
  1
"
  7
SLDTEXTSTYLE0
 73
     1
 44
1.0
  0
MTEXT
  5
16B
330
156
100
AcDbEntity
  8
DEFAULT
 62
     7
100
AcDbMText
 10
11.393182298
 20
10.4853700923
 30
0.0
 40
0.2083333333
 41
0.0
 71
     1
 72
     1
  1
57.2mm
  7
SLDTEXTSTYLE0
 73
     1
 44
1.0
  0
MTEXT
  5
16C
330
156
100
AcDbEntity
  8
DEFAULT
 62
     7
100
AcDbMText
 10
12.6132825725
 20
10.9839859906
 30
0.0
 40
0.2083333333
 41
0.0
 71
     1
 72
     1
  1

  7
SLDTEXTSTYLE0
 73
     1
 44
1.0
  0
ENDBLK
  5
158
330
156
100
AcDbEntity
  8
0
100
AcDbBlockEnd
  0
ENDSEC
  0
SECTION
  2
ENTITIES
  0
VIEWPORT
  5
69
330
1B
100
AcDbEntity
 67
     1
  8
0
100
AcDbViewport
 10
8.5
 20
11.0
 30
0.0
 40
17.986
 41
23.276
 68
     1
 69
     1
 12
8.5
 22
11.0
 13
0.0
 23
0.0
 14
0.5
 24
0.5
 15
0.5
 25
0.5
 16
0.0
 26
0.0
 36
1.0
 17
0.0
 27
0.0
 37
0.0
 42
50.0
 43
0.0
 44
0.0
 45
23.276
 50
0.0
 51
0.0
 72
   100
 90
   557152
  1

281
     0
 71
     1
 74
     0
110
0.0
120
0.0
130
0.0
111
1.0
121
0.0
131
0.0
112
0.0
122
1.0
132
0.0
 79
     0
146
0.0
  0
LINE
  5
6B
330
1B
100
AcDbEntity
 67
     1
  8
0
  6
Continuous
 62
     7
370
    25
100
AcDbLine
 10
7.7720243705
 20
10.2903289493
 30
0.0
 11
7.4770243705
 21
10.2903289493
 31
0.0
  0
LINE
  5
6C
330
1B
100
AcDbEntity
 67
     1
  8
0
  6
Continuous
 62
     7
370
    25
100
AcDbLine
 10
7.7720243705
 20
10.3903289493
 30
0.0
 11
7.7720243705
 21
10.2903289493
 31
0.0
  0
LINE
  5
6D
330
1B
100
AcDbEntity
 67
     1
  8
0
  6
Continuous
 62
     7
370
    25
100
AcDbLine
 10
7.4770243705
 20
10.3903289493
 30
0.0
 11
7.7720243705
 21
10.3903289493
 31
0.0
  0
LINE
  5
6E
330
1B
100
AcDbEntity
 67
     1
  8
0
  6
Continuous
 62
     7
370
    25
100
AcDbLine
 10
7.4770243705
 20
10.2903289493
 30
0.0
 11
7.4770243705
 21
10.3903289493
 31
0.0
  0
LINE
  5
6F
330
1B
100
AcDbEntity
 67
     1
  8
0
  6
Continuous
 62
     7
370
    25
100
AcDbLine
 10
7.8045243705
 20
10.7903289493
 30
0.0
 11
7.8045243705
 21
10.8903289493
 31
0.0
  0
LINE
  5
70
330
1B
100
AcDbEntity
 67
     1
  8
0
  6
Continuous
 62
     7
370
    25
100
AcDbLine
 10
7.8045243705
 20
10.8903289493
 30
0.0
 11
7.6745243705
 21
10.8903289493
 31
0.0
  0
LINE
  5
71
330
1B
100
AcDbEntity
 67
     1
  8
0
  6
Continuous
 62
     7
370
    25
100
AcDbLine
 10
7.6745243705
 20
10.8903289493
 30
0.0
 11
7.6745243705
 21
11.0903289493
 31
0.0
  0
LINE
  5
72
330
1B
100
AcDbEntity
 67
     1
  8
0
  6
Continuous
 62
     7
370
    25
100
AcDbLine
 10
7.6745243705
 20
11.0903289493
 30
0.0
 11
7.5745243705
 21
11.0903289493
 31
0.0
  0
LINE
  5
73
330
1B
100
AcDbEntity
 67
     1
  8
0
  6
Continuous
 62
     7
370
    25
100
AcDbLine
 10
7.5745243705
 20
11.0903289493
 30
0.0
 11
7.5745243705
 21
10.8903289493
 31
0.0
  0
LINE
  5
74
330
1B
100
AcDbEntity
 67
     1
  8
0
  6
Continuous
 62
     7
370
    25
100
AcDbLine
 10
7.5745243705
 20
10.8903289493
 30
0.0
 11
7.4445243705
 21
10.8903289493
 31
0.0
  0
LINE
  5
75
330
1B
100
AcDbEntity
 67
     1
  8
0
  6
Continuous
 62
     7
370
    25
100
AcDbLine
 10
7.4445243705
 20
10.8903289493
 30
0.0
 11
7.4445243705
 21
10.7903289493
 31
0.0
  0
LINE
  5
76
330
1B
100
AcDbEntity
 67
     1
  8
0
  6
Continuous
 62
     7
370
    25
100
AcDbLine
 10
7.4445243705
 20
10.7903289493
 30
0.0
 11
7.8045243705
 21
10.7903289493
 31
0.0
  0
LINE
  5
77
330
1B
100
AcDbEntity
 67
     1
  8
0
  6
Continuous
 62
     7
370
    25
100
AcDbLine
 10
8.0445243705
 20
10.9445534543
 30
0.0
 11
8.0445243705
 21
10.2361044442
 31
0.0
  0
LINE
  5
78
330
1B
100
AcDbEntity
 67
     1
  8
0
  6
Continuous
 62
     7
370
    25
100
AcDbLine
 10
7.0445243705
 20
10.7003289493
 30
0.0
 11
7.0445243705
 21
10.4803289493
 31
0.0
  0
LINE
  5
79
330
1B
100
AcDbEntity
 67
     1
  8
0
  6
Continuous
 62
     7
370
    25
100
AcDbLine
 10
7.0445243705
 20
10.4803289493
 30
0.0
 11
7.1545243705
 21
10.4803289493
 31
0.0
  0
ARC
  5
7A
330
1B
100
AcDbEntity
 67
     1
  8
0
  6
Continuous
 62
     7
370
    25
100
AcDbCircle
 10
7.1545243705
 20
10.5903289493
 30
0.0
 40
0.1100000000000012
100
AcDbArc
 50
270.0
 51
90.0
  0
LINE
  5
7B
330
1B
100
AcDbEntity
 67
     1
  8
0
  6
Continuous
 62
     7
370
    25
100
AcDbLine
 10
7.1545243705
 20
10.7003289493
 30
0.0
 11
7.0445243705
 21
10.7003289493
 31
0.0
  0
ARC
  5
7C
330
1B
100
AcDbEntity
 67
     1
  8
0
  6
Continuous
 62
     7
370
    25
100
AcDbCircle
 10
7.4995243705
 20
10.5903289493
 30
0.0
 40
0.6499999999999999
100
AcDbArc
 50
213.0219833134
 51
326.9780166866
  0
LINE
  5
7D
330
1B
100
AcDbEntity
 67
     1
  8
0
  6
Continuous
 62
     7
370
    25
100
AcDbLine
 10
6.9545243705
 20
10.2361044442
 30
0.0
 11
6.9545243705
 21
10.9445534543
 31
0.0
  0
ARC
  5
7E
330
1B
100
AcDbEntity
 67
     1
  8
0
  6
Continuous
 62
     7
370
    25
100
AcDbCircle
 10
7.4995243705
 20
10.5903289493
 30
0.0
 40
0.6499999999999989
100
AcDbArc
 50
33.0219833134
 51
146.9780166866
  0
LINE
  5
7F
330
1B
100
AcDbEntity
 67
     1
  8
0
  6
Continuous
 62
     7
370
    25
100
AcDbLine
 10
9.3020243705
 20
10.2903289493
 30
0.0
 11
9.0070243705
 21
10.2903289493
 31
0.0
  0
LINE
  5
80
330
1B
100
AcDbEntity
 67
     1
  8
0
  6
Continuous
 62
     7
370
    25
100
AcDbLine
 10
9.3020243705
 20
10.3903289493
 30
0.0
 11
9.3020243705
 21
10.2903289493
 31
0.0
  0
LINE
  5
81
330
1B
100
AcDbEntity
 67
     1
  8
0
  6
Continuous
 62
     7
370
    25
100
AcDbLine
 10
9.0070243705
 20
10.3903289493
 30
0.0
 11
9.3020243705
 21
10.3903289493
 31
0.0
  0
LINE
  5
82
330
1B
100
AcDbEntity
 67
     1
  8
0
  6
Continuous
 62
     7
370
    25
100
AcDbLine
 10
9.0070243705
 20
10.2903289493
 30
0.0
 11
9.0070243705
 21
10.3903289493
 31
0.0
  0
LINE
  5
83
330
1B
100
AcDbEntity
 67
     1
  8
0
  6
Continuous
 62
     7
370
    25
100
AcDbLine
 10
9.3345243705
 20
10.7903289493
 30
0.0
 11
9.3345243705
 21
10.8903289493
 31
0.0
  0
LINE
  5
84
330
1B
100
AcDbEntity
 67
     1
  8
0
  6
Continuous
 62
     7
370
    25
100
AcDbLine
 10
9.3345243705
 20
10.8903289493
 30
0.0
 11
9.2045243705
 21
10.8903289493
 31
0.0
  0
LINE
  5
85
330
1B
100
AcDbEntity
 67
     1
  8
0
  6
Continuous
 62
     7
370
    25
100
AcDbLine
 10
9.2045243705
 20
11.0903289493
 30
0.0
 11
9.1045243705
 21
11.0903289493
 31
0.0
  0
LINE
  5
86
330
1B
100
AcDbEntity
 67
     1
  8
0
  6
Continuous
 62
     7
370
    25
100
AcDbLine
 10
9.1045243705
 20
11.0903289493
 30
0.0
 11
9.1045243705
 21
10.8903289493
 31
0.0
  0
LINE
  5
87
330
1B
100
AcDbEntity
 67
     1
  8
0
  6
Continuous
 62
     7
370
    25
100
AcDbLine
 10
9.1045243705
 20
10.8903289493
 30
0.0
 11
8.9745243705
 21
10.8903289493
 31
0.0
  0
LINE
  5
88
330
1B
100
AcDbEntity
 67
     1
  8
0
  6
Continuous
 62
     7
370
    25
100
AcDbLine
 10
8.9745243705
 20
10.8903289493
 30
0.0
 11
8.9745243705
 21
10.7903289493
 31
0.0
  0
LINE
  5
89
330
1B
100
AcDbEntity
 67
     1
  8
0
  6
Continuous
 62
     7
370
    25
100
AcDbLine
 10
8.9745243705
 20
10.7903289493
 30
0.0
 11
9.3345243705
 21
10.7903289493
 31
0.0
  0
LINE
  5
8A
330
1B
100
AcDbEntity
 67
     1
  8
0
  6
Continuous
 62
     7
370
    25
100
AcDbLine
 10
9.5745243705
 20
10.9445534543
 30
0.0
 11
9.5745243705
 21
10.2361044442
 31
0.0
  0
ARC
  5
8B
330
1B
100
AcDbEntity
 67
     1
  8
0
  6
Continuous
 62
     7
370
    25
100
AcDbCircle
 10
9.0295243705
 20
10.5903289493
 30
0.0
 40
0.6500000000000014
100
AcDbArc
 50
213.0219833134
 51
326.9780166866
  0
LINE
  5
8C
330
1B
100
AcDbEntity
 67
     1
  8
0
  6
Continuous
 62
     7
370
    25
100
AcDbLine
 10
8.4845243705
 20
10.2361044442
 30
0.0
 11
8.4845243705
 21
10.9445534543
 31
0.0
  0
LINE
  5
8D
330
1B
100
AcDbEntity
 67
     1
  8
0
  6
Continuous
 62
     7
370
    25
100
AcDbLine
 10
8.5745243705
 20
10.4803289493
 30
0.0
 11
8.6845243705
 21
10.4803289493
 31
0.0
  0
ARC
  5
8E
330
1B
100
AcDbEntity
 67
     1
  8
0
  6
Continuous
 62
     7
370
    25
100
AcDbCircle
 10
8.6845243705
 20
10.5903289493
 30
0.0
 40
0.1100000000000012
100
AcDbArc
 50
270.0
 51
90.0
  0
LINE
  5
8F
330
1B
100
AcDbEntity
 67
     1
  8
0
  6
Continuous
 62
     7
370
    25
100
AcDbLine
 10
8.5745243705
 20
10.7003289493
 30
0.0
 11
8.5745243705
 21
10.4803289493
 31
0.0
  0
LINE
  5
90
330
1B
100
AcDbEntity
 67
     1
  8
0
  6
Continuous
 62
     7
370
    25
100
AcDbLine
 10
8.6845243705
 20
10.7003289493
 30
0.0
 11
8.5745243705
 21
10.7003289493
 31
0.0
  0
ARC
  5
91
330
1B
100
AcDbEntity
 67
     1
  8
0
  6
Continuous
 62
     7
370
    25
100
AcDbCircle
 10
9.0295243705
 20
10.5903289493
 30
0.0
 40
0.6500000000000005
100
AcDbArc
 50
33.0219833134
 51
146.9780166866
  0
LINE
  5
92
330
1B
100
AcDbEntity
 67
     1
  8
0
  6
Continuous
 62
     7
370
    25
100
AcDbLine
 10
9.2045243705
 20
10.8903289493
 30
0.0
 11
9.2045243705
 21
11.0903289493
 31
0.0
  0
LINE
  5
93
330
1B
100
AcDbEntity
 67
     1
  8
0
  6
Continuous
 62
     7
370
    25
100
AcDbLine
 10
7.3309650338
 20
9.9403289493
 30
0.0
 11
7.4995243705
 21
9.9403289493
 31
0.0
  0
LINE
  5
94
330
1B
100
AcDbEntity
 67
     1
  8
0
  6
Continuous
 62
     7
370
    25
100
AcDbLine
 10
6.9545243705
 20
10.2361044442
 30
0.0
 11
6.9545243705
 21
10.198044295
 31
0.0
  0
LINE
  5
95
330
1B
100
AcDbEntity
 67
     1
  8
0
  6
Continuous
 62
     7
370
    25
100
AcDbLine
 10
7.4995243705
 20
11.2403289493
 30
0.0
 11
7.3309650338
 21
11.2403289493
 31
0.0
  0
LINE
  5
96
330
1B
100
AcDbEntity
 67
     1
  8
0
  6
Continuous
 62
     7
370
    25
100
AcDbLine
 10
6.9545243705
 20
10.9826136036
 30
0.0
 11
6.9545243705
 21
10.9445534543
 31
0.0
  0
LINE
  5
97
330
1B
100
AcDbEntity
 67
     1
  8
0
  6
Continuous
 62
     7
370
    25
100
AcDbLine
 10
9.0295243705
 20
9.9403289493
 30
0.0
 11
9.1980837072
 21
9.9403289493
 31
0.0
  0
LINE
  5
98
330
1B
100
AcDbEntity
 67
     1
  8
0
  6
Continuous
 62
     7
370
    25
100
AcDbLine
 10
9.5745243705
 20
10.198044295
 30
0.0
 11
9.5745243705
 21
10.2361044442
 31
0.0
  0
LINE
  5
99
330
1B
100
AcDbEntity
 67
     1
  8
0
  6
Continuous
 62
     7
370
    25
100
AcDbLine
 10
7.4995243705
 20
9.9403289493
 30
0.0
 11
7.6680837072
 21
9.9403289493
 31
0.0
  0
LINE
  5
9A
330
1B
100
AcDbEntity
 67
     1
  8
0
  6
Continuous
 62
     7
370
    25
100
AcDbLine
 10
8.8609650338
 20
9.9403289493
 30
0.0
 11
9.0295243705
 21
9.9403289493
 31
0.0
  0
LINE
  5
9B
330
1B
100
AcDbEntity
 67
     1
  8
0
  6
Continuous
 62
     7
370
    25
100
AcDbLine
 10
9.0295243705
 20
11.2403289493
 30
0.0
 11
8.8609650338
 21
11.2403289493
 31
0.0
  0
LINE
  5
9C
330
1B
100
AcDbEntity
 67
     1
  8
0
  6
Continuous
 62
     7
370
    25
100
AcDbLine
 10
7.6680837072
 20
11.2403289493
 30
0.0
 11
7.4995243705
 21
11.2403289493
 31
0.0
  0
LINE
  5
9D
330
1B
100
AcDbEntity
 67
     1
  8
0
  6
Continuous
 62
     7
370
    25
100
AcDbLine
 10
9.1980837072
 20
11.2403289493
 30
0.0
 11
9.0295243705
 21
11.2403289493
 31
0.0
  0
LINE
  5
9E
330
1B
100
AcDbEntity
 67
     1
  8
0
  6
Continuous
 62
     7
370
    25
100
AcDbLine
 10
9.5745243705
 20
10.9445534543
 30
0.0
 11
9.5745243705
 21
10.9826136036
 31
0.0
  0
LINE
  5
9F
330
1B
100
AcDbEntity
 67
     1
  8
0
  6
Continuous
 62
     7
370
    25
100
AcDbLine
 10
6.9545243705
 20
10.9653289493
 30
0.0
 11
6.9424900358
 21
10.9653289493
 31
0.0
  0
LINE
  5
A0
330
1B
100
AcDbEntity
 67
     1
  8
0
  6
Continuous
 62
     7
370
    25
100
AcDbLine
 10
6.9545243705
 20
10.2153289493
 30
0.0
 11
6.9424900358
 21
10.2153289493
 31
0.0
  0
LINE
  5
A1
330
1B
100
AcDbEntity
 67
     1
  8
0
  6
Continuous
 62
     7
370
    25
100
AcDbLine
 10
9.5865587052
 20
10.9653289493
 30
0.0
 11
9.5745243705
 21
10.9653289493
 31
0.0
  0
LINE
  5
A2
330
1B
100
AcDbEntity
 67
     1
  8
0
  6
Continuous
 62
     7
370
    25
100
AcDbLine
 10
9.5865587052
 20
10.2153289493
 30
0.0
 11
9.5745243705
 21
10.2153289493
 31
0.0
  0
LINE
  5
A3
330
1B
100
AcDbEntity
 67
     1
  8
0
  6
Continuous
 62
     7
370
    25
100
AcDbLine
 10
6.7136644828
 20
10.6062605466
 30
0.0
 11
6.7117063183
 21
10.6055892255
 31
0.0
  0
LINE
  5
A4
330
1B
100
AcDbEntity
 67
     1
  8
0
  6
Continuous
 62
     7
370
    25
100
AcDbLine
 10
6.7136644828
 20
10.6062605466
 30
0.0
 11
6.7045840021
 21
10.6327472389
 31
0.0
  0
LINE
  5
A5
330
1B
100
AcDbEntity
 67
     1
  8
0
  6
Continuous
 62
     7
370
    25
100
AcDbLine
 10
6.7045840021
 20
10.6327472389
 30
0.0
 11
6.7026258375
 21
10.6320759178
 31
0.0
  0
ARC
  5
A6
330
1B
100
AcDbEntity
 67
     1
  8
0
  6
Continuous
 62
     7
370
    25
100
AcDbCircle
 10
6.6240243705
 20
10.5903289493
 30
0.0
 40
0.0889999999999995
100
AcDbArc
 50
27.9737545327
 51
99.8729370879
  0
LINE
  5
A7
330
1B
100
AcDbEntity
 67
     1
  8
0
  6
Continuous
 62
     7
370
    25
100
AcDbLine
 10
6.6080927732
 20
10.6799690616
 30
0.0
 11
6.6087640943
 21
10.6780108971
 31
0.0
  0
LINE
  5
A8
330
1B
100
AcDbEntity
 67
     1
  8
0
  6
Continuous
 62
     7
370
    25
100
AcDbLine
 10
6.6080927732
 20
10.6799690616
 30
0.0
 11
6.5816060809
 21
10.6708885808
 31
0.0
  0
LINE
  5
A9
330
1B
100
AcDbEntity
 67
     1
  8
0
  6
Continuous
 62
     7
370
    25
100
AcDbLine
 10
6.5816060809
 20
10.6708885808
 30
0.0
 11
6.582277402
 21
10.6689304163
 31
0.0
  0
ARC
  5
AA
330
1B
100
AcDbEntity
 67
     1
  8
0
  6
Continuous
 62
     7
370
    25
100
AcDbCircle
 10
6.6240243705
 20
10.5903289493
 30
0.0
 40
0.0889999999999995
100
AcDbArc
 50
117.9737545327
 51
189.8729370879
  0
LINE
  5
AB
330
1B
100
AcDbEntity
 67
     1
  8
0
  6
Continuous
 62
     7
370
    25
100
AcDbLine
 10
6.5363424227
 20
10.5750686731
 30
0.0
 11
6.5343842582
 21
10.574397352
 31
0.0
  0
LINE
  5
AC
330
1B
100
AcDbEntity
 67
     1
  8
0
  6
Continuous
 62
     7
370
    25
100
AcDbLine
 10
6.5343842582
 20
10.574397352
 30
0.0
 11
6.5434647389
 21
10.5479106597
 31
0.0
  0
LINE
  5
AD
330
1B
100
AcDbEntity
 67
     1
  8
0
  6
Continuous
 62
     7
370
    25
100
AcDbLine
 10
6.5454229035
 20
10.5485819807
 30
0.0
 11
6.5434647389
 21
10.5479106597
 31
0.0
  0
ARC
  5
AE
330
1B
100
AcDbEntity
 67
     1
  8
0
  6
Continuous
 62
     7
370
    25
100
AcDbCircle
 10
6.6240243705
 20
10.5903289493
 30
0.0
 40
0.0890000000000011
100
AcDbArc
 50
207.9737545327
 51
279.8729370879
  0
LINE
  5
AF
330
1B
100
AcDbEntity
 67
     1
  8
0
  6
Continuous
 62
     7
370
    25
100
AcDbLine
 10
6.6392846467
 20
10.5026470015
 30
0.0
 11
6.6399559678
 21
10.5006888369
 31
0.0
  0
LINE
  5
B0
330
1B
100
AcDbEntity
 67
     1
  8
0
  6
Continuous
 62
     7
370
    25
100
AcDbLine
 10
6.6399559678
 20
10.5006888369
 30
0.0
 11
6.6664426601
 21
10.5097693177
 31
0.0
  0
LINE
  5
B1
330
1B
100
AcDbEntity
 67
     1
  8
0
  6
Continuous
 62
     7
370
    25
100
AcDbLine
 10
6.665771339
 20
10.5117274822
 30
0.0
 11
6.6664426601
 21
10.5097693177
 31
0.0
  0
ARC
  5
B2
330
1B
100
AcDbEntity
 67
     1
  8
0
  6
Continuous
 62
     7
370
    25
100
AcDbCircle
 10
6.6240243705
 20
10.5903289493
 30
0.0
 40
0.0889999999999998
100
AcDbArc
 50
297.9737545327
 51
9.8729370879
  0
CIRCLE
  5
B3
330
1B
100
AcDbEntity
 67
     1
  8
0
  6
Continuous
 62
     7
370
    25
100
AcDbCircle
 10
6.6240243705
 20
10.5903289493
 30
0.0
 40
0.1349999999999996
  0
LINE
  5
B4
330
1B
100
AcDbEntity
 67
     1
  8
0
  6
Continuous
 62
     7
370
    25
100
AcDbLine
 10
6.6192689066
 20
10.6473695976
 30
0.0
 11
6.5927822143
 21
10.6382891168
 31
0.0
  0
LINE
  5
B5
330
1B
100
AcDbEntity
 67
     1
  8
0
  6
Continuous
 62
     7
370
    25
100
AcDbLine
 10
6.6810650188
 20
10.5950844132
 30
0.0
 11
6.6719845381
 21
10.6215711055
 31
0.0
  0
LINE
  5
B6
330
1B
100
AcDbEntity
 67
     1
  8
0
  6
Continuous
 62
     7
370
    25
100
AcDbLine
 10
6.5669837222
 20
10.5855734853
 30
0.0
 11
6.5760642029
 21
10.559086793
 31
0.0
  0
LINE
  5
B7
330
1B
100
AcDbEntity
 67
     1
  8
0
  6
Continuous
 62
     7
370
    25
100
AcDbLine
 10
6.6287798344
 20
10.5332883009
 30
0.0
 11
6.6552665267
 21
10.5423687817
 31
0.0
  0
ARC
  5
B8
330
1B
100
AcDbEntity
 67
     1
  8
0
  6
Continuous
 62
     7
370
    25
100
AcDbCircle
 10
6.5895227726
 20
10.5198297312
 30
0.0
 40
0.0415000000000001
100
AcDbArc
 50
18.9233458103
 51
108.9233458103
  0
LINE
  5
B9
330
1B
100
AcDbEntity
 67
     1
  8
0
  6
Continuous
 62
     7
370
    25
100
AcDbLine
 10
6.5760642029
 20
10.559086793
 30
0.0
 11
6.5454229035
 21
10.5485819807
 31
0.0
  0
LINE
  5
BA
330
1B
100
AcDbEntity
 67
     1
  8
0
  6
Continuous
 62
     7
370
    25
100
AcDbLine
 10
6.6287798344
 20
10.5332883009
 30
0.0
 11
6.6392846467
 21
10.5026470015
 31
0.0
  0
ARC
  5
BB
330
1B
100
AcDbEntity
 67
     1
  8
0
  6
Continuous
 62
     7
370
    25
100
AcDbCircle
 10
6.6945235885
 20
10.5558273514
 30
0.0
 40
0.0415000000000001
100
AcDbArc
 50
108.9233458103
 51
198.9233458103
  0
LINE
  5
BC
330
1B
100
AcDbEntity
 67
     1
  8
0
  6
Continuous
 62
     7
370
    25
100
AcDbLine
 10
6.6552665267
 20
10.5423687817
 30
0.0
 11
6.665771339
 21
10.5117274822
 31
0.0
  0
LINE
  5
BD
330
1B
100
AcDbEntity
 67
     1
  8
0
  6
Continuous
 62
     7
370
    25
100
AcDbLine
 10
6.7117063183
 20
10.6055892255
 30
0.0
 11
6.6810650188
 21
10.5950844132
 31
0.0
  0
ARC
  5
BE
330
1B
100
AcDbEntity
 67
     1
  8
0
  6
Continuous
 62
     7
370
    25
100
AcDbCircle
 10
6.6585259684
 20
10.6608281673
 30
0.0
 40
0.0414999999999996
100
AcDbArc
 50
198.9233458103
 51
288.9233458103
  0
LINE
  5
BF
330
1B
100
AcDbEntity
 67
     1
  8
0
  6
Continuous
 62
     7
370
    25
100
AcDbLine
 10
6.7026258375
 20
10.6320759178
 30
0.0
 11
6.6719845381
 21
10.6215711055
 31
0.0
  0
LINE
  5
C0
330
1B
100
AcDbEntity
 67
     1
  8
0
  6
Continuous
 62
     7
370
    25
100
AcDbLine
 10
6.6087640943
 20
10.6780108971
 30
0.0
 11
6.6192689066
 21
10.6473695976
 31
0.0
  0
ARC
  5
C1
330
1B
100
AcDbEntity
 67
     1
  8
0
  6
Continuous
 62
     7
370
    25
100
AcDbCircle
 10
6.5535251525
 20
10.6248305471
 30
0.0
 40
0.0415000000000001
100
AcDbArc
 50
288.9233458103
 51
18.9233458103
  0
LINE
  5
C2
330
1B
100
AcDbEntity
 67
     1
  8
0
  6
Continuous
 62
     7
370
    25
100
AcDbLine
 10
6.5669837222
 20
10.5855734853
 30
0.0
 11
6.5363424227
 21
10.5750686731
 31
0.0
  0
LINE
  5
C3
330
1B
100
AcDbEntity
 67
     1
  8
0
  6
Continuous
 62
     7
370
    25
100
AcDbLine
 10
6.582277402
 20
10.6689304163
 30
0.0
 11
6.5927822143
 21
10.6382891168
 31
0.0
  0
LINE
  5
C4
330
1B
100
AcDbEntity
 67
     1
  8
0
  6
Continuous
 62
     7
370
    25
100
AcDbLine
 10
9.9605894917
 20
10.6040682108
 30
0.0
 11
9.9474243364
 21
10.6287801247
 31
0.0
  0
LINE
  5
C5
330
1B
100
AcDbEntity
 67
     1
  8
0
  6
Continuous
 62
     7
370
    25
100
AcDbLine
 10
9.9910045823
 20
10.6202717066
 30
0.0
 11
9.977839427
 21
10.6449836204
 31
0.0
  0
LINE
  5
C6
330
1B
100
AcDbEntity
 67
     1
  8
0
  6
Continuous
 62
     7
370
    25
100
AcDbLine
 10
9.9910045823
 20
10.6202717066
 30
0.0
 11
9.9891776273
 21
10.6192984049
 31
0.0
  0
LINE
  5
C7
330
1B
100
AcDbEntity
 67
     1
  8
0
  6
Continuous
 62
     7
370
    25
100
AcDbLine
 10
9.977839427
 20
10.6449836204
 30
0.0
 11
9.9760124721
 21
10.6440103188
 31
0.0
  0
ARC
  5
C8
330
1B
100
AcDbEntity
 67
     1
  8
0
  6
Continuous
 62
     7
370
    25
100
AcDbCircle
 10
9.9050243705
 20
10.5903289493
 30
0.0
 40
0.0890000000000014
100
AcDbArc
 50
37.0966573592
 51
108.9958399144
  0
LINE
  5
C9
330
1B
100
AcDbEntity
 67
     1
  8
0
  6
Continuous
 62
     7
370
    25
100
AcDbLine
 10
9.8750816132
 20
10.676309161
 30
0.0
 11
9.8760549148
 21
10.6744822061
 31
0.0
  0
LINE
  5
CA
330
1B
100
AcDbEntity
 67
     1
  8
0
  6
Continuous
 62
     7
370
    25
100
AcDbLine
 10
9.8750816132
 20
10.676309161
 30
0.0
 11
9.8503696993
 21
10.6631440058
 31
0.0
  0
LINE
  5
CB
330
1B
100
AcDbEntity
 67
     1
  8
0
  6
Continuous
 62
     7
370
    25
100
AcDbLine
 10
9.8503696993
 20
10.6631440058
 30
0.0
 11
9.851343001
 21
10.6613170508
 31
0.0
  0
ARC
  5
CC
330
1B
100
AcDbEntity
 67
     1
  8
0
  6
Continuous
 62
     7
370
    25
100
AcDbCircle
 10
9.9050243705
 20
10.5903289493
 30
0.0
 40
0.0890000000000014
100
AcDbArc
 50
127.0966573592
 51
198.9958399144
  0
LINE
  5
CD
330
1B
100
AcDbEntity
 67
     1
  8
0
  6
Continuous
 62
     7
370
    25
100
AcDbLine
 10
9.8208711137
 20
10.5613594936
 30
0.0
 11
9.8190441587
 21
10.560386192
 31
0.0
  0
LINE
  5
CE
330
1B
100
AcDbEntity
 67
     1
  8
0
  6
Continuous
 62
     7
370
    25
100
AcDbLine
 10
9.8190441587
 20
10.560386192
 30
0.0
 11
9.832209314
 21
10.5356742781
 31
0.0
  0
LINE
  5
CF
330
1B
100
AcDbEntity
 67
     1
  8
0
  6
Continuous
 62
     7
370
    25
100
AcDbLine
 10
9.8340362689
 20
10.5366475797
 30
0.0
 11
9.832209314
 21
10.5356742781
 31
0.0
  0
ARC
  5
D0
330
1B
100
AcDbEntity
 67
     1
  8
0
  6
Continuous
 62
     7
370
    25
100
AcDbCircle
 10
9.9050243705
 20
10.5903289493
 30
0.0
 40
0.0890000000000004
100
AcDbArc
 50
217.0966573592
 51
288.9958399144
  0
LINE
  5
D1
330
1B
100
AcDbEntity
 67
     1
  8
0
  6
Continuous
 62
     7
370
    25
100
AcDbLine
 10
9.9339938262
 20
10.5061756924
 30
0.0
 11
9.9349671278
 21
10.5043487375
 31
0.0
  0
LINE
  5
D2
330
1B
100
AcDbEntity
 67
     1
  8
0
  6
Continuous
 62
     7
370
    25
100
AcDbLine
 10
9.9349671278
 20
10.5043487375
 30
0.0
 11
9.9596790417
 21
10.5175138928
 31
0.0
  0
LINE
  5
D3
330
1B
100
AcDbEntity
 67
     1
  8
0
  6
Continuous
 62
     7
370
    25
100
AcDbLine
 10
9.95870574
 20
10.5193408477
 30
0.0
 11
9.9596790417
 21
10.5175138928
 31
0.0
  0
ARC
  5
D4
330
1B
100
AcDbEntity
 67
     1
  8
0
  6
Continuous
 62
     7
370
    25
100
AcDbCircle
 10
9.9050243705
 20
10.5903289493
 30
0.0
 40
0.0890000000000004
100
AcDbArc
 50
307.0966573592
 51
18.9958399144
  0
CIRCLE
  5
D5
330
1B
100
AcDbEntity
 67
     1
  8
0
  6
Continuous
 62
     7
370
    25
100
AcDbCircle
 10
9.9050243705
 20
10.5903289493
 30
0.0
 40
0.1350000000000005
  0
LINE
  5
D6
330
1B
100
AcDbEntity
 67
     1
  8
0
  6
Continuous
 62
     7
370
    25
100
AcDbLine
 10
9.8912851089
 20
10.6458940704
 30
0.0
 11
9.8665731951
 21
10.6327289152
 31
0.0
  0
LINE
  5
D7
330
1B
100
AcDbEntity
 67
     1
  8
0
  6
Continuous
 62
     7
370
    25
100
AcDbLine
 10
9.8494592493
 20
10.5765896877
 30
0.0
 11
9.8626244046
 21
10.5518777738
 31
0.0
  0
LINE
  5
D8
330
1B
100
AcDbEntity
 67
     1
  8
0
  6
Continuous
 62
     7
370
    25
100
AcDbLine
 10
9.9187636321
 20
10.5347638281
 30
0.0
 11
9.9434755459
 21
10.5479289834
 31
0.0
  0
ARC
  5
D9
330
1B
100
AcDbEntity
 67
     1
  8
0
  6
Continuous
 62
     7
370
    25
100
AcDbCircle
 10
9.9279116955
 20
10.6654067113
 30
0.0
 40
0.0415000000000015
100
AcDbArc
 50
208.0462486368
 51
298.0462486368
  0
LINE
  5
DA
330
1B
100
AcDbEntity
 67
     1
  8
0
  6
Continuous
 62
     7
370
    25
100
AcDbLine
 10
9.9760124721
 20
10.6440103188
 30
0.0
 11
9.9474243364
 21
10.6287801247
 31
0.0
  0
LINE
  5
DB
330
1B
100
AcDbEntity
 67
     1
  8
0
  6
Continuous
 62
     7
370
    25
100
AcDbLine
 10
9.8760549148
 20
10.6744822061
 30
0.0
 11
9.8912851089
 21
10.6458940704
 31
0.0
  0
ARC
  5
DC
330
1B
100
AcDbEntity
 67
     1
  8
0
  6
Continuous
 62
     7
370
    25
100
AcDbCircle
 10
9.9801021325
 20
10.5674416242
 30
0.0
 40
0.0415000000000015
100
AcDbArc
 50
118.0462486368
 51
208.0462486368
  0
LINE
  5
DD
330
1B
100
AcDbEntity
 67
     1
  8
0
  6
Continuous
 62
     7
370
    25
100
AcDbLine
 10
9.9434755459
 20
10.5479289834
 30
0.0
 11
9.95870574
 21
10.5193408477
 31
0.0
  0
LINE
  5
DE
330
1B
100
AcDbEntity
 67
     1
  8
0
  6
Continuous
 62
     7
370
    25
100
AcDbLine
 10
9.9891776273
 20
10.6192984049
 30
0.0
 11
9.9605894917
 21
10.6040682108
 31
0.0
  0
ARC
  5
DF
330
1B
100
AcDbEntity
 67
     1
  8
0
  6
Continuous
 62
     7
370
    25
100
AcDbCircle
 10
9.8299466085
 20
10.6132162743
 30
0.0
 40
0.0415000000000006
100
AcDbArc
 50
298.0462486368
 51
28.0462486368
  0
LINE
  5
E0
330
1B
100
AcDbEntity
 67
     1
  8
0
  6
Continuous
 62
     7
370
    25
100
AcDbLine
 10
9.8494592493
 20
10.5765896877
 30
0.0
 11
9.8208711137
 21
10.5613594936
 31
0.0
  0
LINE
  5
E1
330
1B
100
AcDbEntity
 67
     1
  8
0
  6
Continuous
 62
     7
370
    25
100
AcDbLine
 10
9.851343001
 20
10.6613170508
 30
0.0
 11
9.8665731951
 21
10.6327289152
 31
0.0
  0
ARC
  5
E2
330
1B
100
AcDbEntity
 67
     1
  8
0
  6
Continuous
 62
     7
370
    25
100
AcDbCircle
 10
9.8821370455
 20
10.5152511872
 30
0.0
 40
0.0415000000000022
100
AcDbArc
 50
28.0462486368
 51
118.0462486368
  0
LINE
  5
E3
330
1B
100
AcDbEntity
 67
     1
  8
0
  6
Continuous
 62
     7
370
    25
100
AcDbLine
 10
9.9187636321
 20
10.5347638281
 30
0.0
 11
9.9339938262
 21
10.5061756924
 31
0.0
  0
LINE
  5
E4
330
1B
100
AcDbEntity
 67
     1
  8
0
  6
Continuous
 62
     7
370
    25
100
AcDbLine
 10
9.8626244046
 20
10.5518777738
 30
0.0
 11
9.8340362689
 21
10.5366475797
 31
0.0
  0
LINE
  5
E5
330
1B
100
AcDbEntity
 67
     1
  8
0
  6
Continuous
 62
     7
370
    25
100
AcDbLine
 10
10.0599920388
 20
11.6364760223
 30
0.0
 11
10.0583038877
 21
11.6352780132
 31
0.0
  0
LINE
  5
E6
330
1B
100
AcDbEntity
 67
     1
  8
0
  6
Continuous
 62
     7
370
    25
100
AcDbLine
 10
10.0599920388
 20
11.6364760223
 30
0.0
 11
10.0437874249
 21
11.6593104369
 31
0.0
  0
LINE
  5
E7
330
1B
100
AcDbEntity
 67
     1
  8
0
  6
Continuous
 62
     7
370
    25
100
AcDbLine
 10
10.0437874249
 20
11.6593104369
 30
0.0
 11
10.0420992737
 21
11.6581124277
 31
0.0
  0
ARC
  5
E8
330
1B
100
AcDbEntity
 67
     1
  8
0
  6
Continuous
 62
     7
370
    25
100
AcDbCircle
 10
9.9785243705
 20
11.5958289493
 30
0.0
 40
0.0889999999999996
100
AcDbArc
 50
44.4121123201
 51
116.3112948753
  0
LINE
  5
E9
330
1B
100
AcDbEntity
 67
     1
  8
0
  6
Continuous
 62
     7
370
    25
100
AcDbLine
 10
9.9378772974
 20
11.6772966176
 30
0.0
 11
9.9390753066
 21
11.6756084664
 31
0.0
  0
LINE
  5
EA
330
1B
100
AcDbEntity
 67
     1
  8
0
  6
Continuous
 62
     7
370
    25
100
AcDbLine
 10
9.9378772974
 20
11.6772966176
 30
0.0
 11
9.9150428829
 21
11.6610920036
 31
0.0
  0
LINE
  5
EB
330
1B
100
AcDbEntity
 67
     1
  8
0
  6
Continuous
 62
     7
370
    25
100
AcDbLine
 10
9.9150428829
 20
11.6610920036
 30
0.0
 11
9.9162408921
 21
11.6594038524
 31
0.0
  0
ARC
  5
EC
330
1B
100
AcDbEntity
 67
     1
  8
0
  6
Continuous
 62
     7
370
    25
100
AcDbCircle
 10
9.9785243705
 20
11.5958289493
 30
0.0
 40
0.0889999999999996
100
AcDbArc
 50
134.4121123201
 51
206.3112948753
  0
LINE
  5
ED
330
1B
100
AcDbEntity
 67
     1
  8
0
  6
Continuous
 62
     7
370
    25
100
AcDbLine
 10
9.8987448533
 20
11.5563798854
 30
0.0
 11
9.8970567022
 21
11.5551818762
 31
0.0
  0
LINE
  5
EE
330
1B
100
AcDbEntity
 67
     1
  8
0
  6
Continuous
 62
     7
370
    25
100
AcDbLine
 10
9.8970567022
 20
11.5551818762
 30
0.0
 11
9.9132613161
 21
11.5323474617
 31
0.0
  0
LINE
  5
EF
330
1B
100
AcDbEntity
 67
     1
  8
0
  6
Continuous
 62
     7
370
    25
100
AcDbLine
 10
9.9149494673
 20
11.5335454708
 30
0.0
 11
9.9132613161
 21
11.5323474617
 31
0.0
  0
ARC
  5
F0
330
1B
100
AcDbEntity
 67
     1
  8
0
  6
Continuous
 62
     7
370
    25
100
AcDbCircle
 10
9.9785243705
 20
11.5958289493
 30
0.0
 40
0.0890000000000028
100
AcDbArc
 50
224.4121123201
 51
296.3112948753
  0
LINE
  5
F1
330
1B
100
AcDbEntity
 67
     1
  8
0
  6
Continuous
 62
     7
370
    25
100
AcDbLine
 10
10.0179734344
 20
11.5160494321
 30
0.0
 11
10.0191714436
 21
11.5143612809
 31
0.0
  0
LINE
  5
F2
330
1B
100
AcDbEntity
 67
     1
  8
0
  6
Continuous
 62
     7
370
    25
100
AcDbLine
 10
10.0191714436
 20
11.5143612809
 30
0.0
 11
10.0420058581
 21
11.5305658949
 31
0.0
  0
LINE
  5
F3
330
1B
100
AcDbEntity
 67
     1
  8
0
  6
Continuous
 62
     7
370
    25
100
AcDbLine
 10
10.0408078489
 20
11.5322540461
 30
0.0
 11
10.0420058581
 21
11.5305658949
 31
0.0
  0
ARC
  5
F4
330
1B
100
AcDbEntity
 67
     1
  8
0
  6
Continuous
 62
     7
370
    25
100
AcDbCircle
 10
9.9785243705
 20
11.5958289493
 30
0.0
 40
0.0890000000000004
100
AcDbArc
 50
314.4121123201
 51
26.3112948753
  0
CIRCLE
  5
F5
330
1B
100
AcDbEntity
 67
     1
  8
0
  6
Continuous
 62
     7
370
    25
100
AcDbCircle
 10
9.9785243705
 20
11.5958289493
 30
0.0
 40
0.1350000000000006
  0
LINE
  5
F6
330
1B
100
AcDbEntity
 67
     1
  8
0
  6
Continuous
 62
     7
370
    25
100
AcDbLine
 10
9.9578217179
 20
11.6491923279
 30
0.0
 11
9.9349873034
 21
11.6329877139
 31
0.0
  0
LINE
  5
F7
330
1B
100
AcDbEntity
 67
     1
  8
0
  6
Continuous
 62
     7
370
    25
100
AcDbLine
 10
10.0318877491
 20
11.6165316018
 30
0.0
 11
10.0156831351
 21
11.6393660163
 31
0.0
  0
LINE
  5
F8
330
1B
100
AcDbEntity
 67
     1
  8
0
  6
Continuous
 62
     7
370
    25
100
AcDbLine
 10
9.9251609919
 20
11.5751262967
 30
0.0
 11
9.9413656058
 21
11.5522918822
 31
0.0
  0
LINE
  5
F9
330
1B
100
AcDbEntity
 67
     1
  8
0
  6
Continuous
 62
     7
370
    25
100
AcDbLine
 10
9.9992270231
 20
11.5424655706
 30
0.0
 11
10.0220614376
 21
11.5586701846
 31
0.0
  0
ARC
  5
FA
330
1B
100
AcDbEntity
 67
     1
  8
0
  6
Continuous
 62
     7
370
    25
100
AcDbCircle
 10
9.9916655823
 20
11.6732098807
 30
0.0
 40
0.0415000000000001
100
AcDbArc
 50
215.3617035977
 51
305.3617035977
  0
LINE
  5
FB
330
1B
100
AcDbEntity
 67
     1
  8
0
  6
Continuous
 62
     7
370
    25
100
AcDbLine
 10
9.9390753066
 20
11.6756084664
 30
0.0
 11
9.9578217179
 21
11.6491923279
 31
0.0
  0
LINE
  5
FC
330
1B
100
AcDbEntity
 67
     1
  8
0
  6
Continuous
 62
     7
370
    25
100
AcDbLine
 10
10.0420992737
 20
11.6581124277
 30
0.0
 11
10.0156831351
 21
11.6393660163
 31
0.0
  0
ARC
  5
FD
330
1B
100
AcDbEntity
 67
     1
  8
0
  6
Continuous
 62
     7
370
    25
100
AcDbCircle
 10
9.9653831587
 20
11.5184480178
 30
0.0
 40
0.0415000000000001
100
AcDbArc
 50
35.3617035977
 51
125.3617035977
  0
LINE
  5
FE
330
1B
100
AcDbEntity
 67
     1
  8
0
  6
Continuous
 62
     7
370
    25
100
AcDbLine
 10
9.9992270231
 20
11.5424655706
 30
0.0
 11
10.0179734344
 21
11.5160494321
 31
0.0
  0
LINE
  5
FF
330
1B
100
AcDbEntity
 67
     1
  8
0
  6
Continuous
 62
     7
370
    25
100
AcDbLine
 10
9.9413656058
 20
11.5522918822
 30
0.0
 11
9.9149494673
 21
11.5335454708
 31
0.0
  0
ARC
  5
100
330
1B
100
AcDbEntity
 67
     1
  8
0
  6
Continuous
 62
     7
370
    25
100
AcDbCircle
 10
10.0559053019
 20
11.5826877374
 30
0.0
 40
0.0414999999999986
100
AcDbArc
 50
125.3617035977
 51
215.3617035977
  0
LINE
  5
101
330
1B
100
AcDbEntity
 67
     1
  8
0
  6
Continuous
 62
     7
370
    25
100
AcDbLine
 10
10.0220614376
 20
11.5586701846
 30
0.0
 11
10.0408078489
 21
11.5322540461
 31
0.0
  0
LINE
  5
102
330
1B
100
AcDbEntity
 67
     1
  8
0
  6
Continuous
 62
     7
370
    25
100
AcDbLine
 10
10.0583038877
 20
11.6352780132
 30
0.0
 11
10.0318877491
 21
11.6165316018
 31
0.0
  0
ARC
  5
103
330
1B
100
AcDbEntity
 67
     1
  8
0
  6
Continuous
 62
     7
370
    25
100
AcDbCircle
 10
9.901143439
 20
11.6089701611
 30
0.0
 40
0.0415000000000011
100
AcDbArc
 50
305.3617035977
 51
35.3617035977
  0
LINE
  5
104
330
1B
100
AcDbEntity
 67
     1
  8
0
  6
Continuous
 62
     7
370
    25
100
AcDbLine
 10
9.9251609919
 20
11.5751262967
 30
0.0
 11
9.8987448533
 21
11.5563798854
 31
0.0
  0
LINE
  5
105
330
1B
100
AcDbEntity
 67
     1
  8
0
  6
Continuous
 62
     7
370
    25
100
AcDbLine
 10
9.9162408921
 20
11.6594038524
 30
0.0
 11
9.9349873034
 21
11.6329877139
 31
0.0
  0
LINE
  5
106
330
1B
100
AcDbEntity
 67
     1
  8
0
  6
Continuous
 62
     7
370
    25
100
AcDbLine
 10
10.1005243705
 20
11.7778289493
 30
0.0
 11
8.5145243705
 21
11.7778289493
 31
0.0
  0
LINE
  5
107
330
1B
100
AcDbEntity
 67
     1
  8
0
  6
Continuous
 62
     7
370
    25
100
AcDbLine
 10
10.1305243705
 20
11.7478289493
 30
0.0
 11
10.1005243705
 21
11.7778289493
 31
0.0
  0
LINE
  5
108
330
1B
100
AcDbEntity
 67
     1
  8
0
  6
Continuous
 62
     7
370
    25
100
AcDbLine
 10
10.1305243705
 20
11.3498289493
 30
0.0
 11
10.1305243705
 21
11.7478289493
 31
0.0
  0
LINE
  5
109
330
1B
100
AcDbEntity
 67
     1
  8
0
  6
Continuous
 62
     7
370
    25
100
AcDbLine
 10
10.4545243705
 20
11.3498289493
 30
0.0
 11
10.1305243705
 21
11.3498289493
 31
0.0
  0
LINE
  5
10A
330
1B
100
AcDbEntity
 67
     1
  8
0
  6
Continuous
 62
     7
370
    25
100
AcDbLine
 10
10.4545243705
 20
11.1623289493
 30
0.0
 11
10.4545243705
 21
11.3498289493
 31
0.0
  0
LINE
  5
10B
330
1B
100
AcDbEntity
 67
     1
  8
0
  6
Continuous
 62
     7
370
    25
100
AcDbLine
 10
10.3845243705
 20
11.1623289493
 30
0.0
 11
10.4545243705
 21
11.1623289493
 31
0.0
  0
LINE
  5
10C
330
1B
100
AcDbEntity
 67
     1
  8
0
  6
Continuous
 62
     7
370
    25
100
AcDbLine
 10
10.3845243705
 20
10.7778289493
 30
0.0
 11
10.3845243705
 21
11.1623289493
 31
0.0
  0
LINE
  5
10D
330
1B
100
AcDbEntity
 67
     1
  8
0
  6
Continuous
 62
     7
370
    25
100
AcDbLine
 10
10.4545243705
 20
10.7778289493
 30
0.0
 11
10.3845243705
 21
10.7778289493
 31
0.0
  0
LINE
  5
10E
330
1B
100
AcDbEntity
 67
     1
  8
0
  6
Continuous
 62
     7
370
    25
100
AcDbLine
 10
10.4545243705
 20
10.4028289493
 30
0.0
 11
10.4545243705
 21
10.7778289493
 31
0.0
  0
LINE
  5
10F
330
1B
100
AcDbEntity
 67
     1
  8
0
  6
Continuous
 62
     7
370
    25
100
AcDbLine
 10
10.3845243705
 20
10.4028289493
 30
0.0
 11
10.4545243705
 21
10.4028289493
 31
0.0
  0
LINE
  5
110
330
1B
100
AcDbEntity
 67
     1
  8
0
  6
Continuous
 62
     7
370
    25
100
AcDbLine
 10
10.3845243705
 20
9.7153289493
 30
0.0
 11
10.3845243705
 21
10.4028289493
 31
0.0
  0
LINE
  5
111
330
1B
100
AcDbEntity
 67
     1
  8
0
  6
Continuous
 62
     7
370
    25
100
AcDbLine
 10
10.4545243705
 20
9.7153289493
 30
0.0
 11
10.3845243705
 21
9.7153289493
 31
0.0
  0
LINE
  5
112
330
1B
100
AcDbEntity
 67
     1
  8
0
  6
Continuous
 62
     7
370
    25
100
AcDbLine
 10
10.4545243705
 20
9.5278289493
 30
0.0
 11
10.4545243705
 21
9.7153289493
 31
0.0
  0
LINE
  5
113
330
1B
100
AcDbEntity
 67
     1
  8
0
  6
Continuous
 62
     7
370
    25
100
AcDbLine
 10
9.8945243705
 20
9.5278289493
 30
0.0
 11
10.4545243705
 21
9.5278289493
 31
0.0
  0
LINE
  5
114
330
1B
100
AcDbEntity
 67
     1
  8
0
  6
Continuous
 62
     7
370
    25
100
AcDbLine
 10
9.8945243705
 20
9.6178289493
 30
0.0
 11
9.8945243705
 21
9.5278289493
 31
0.0
  0
LINE
  5
115
330
1B
100
AcDbEntity
 67
     1
  8
0
  6
Continuous
 62
     7
370
    25
100
AcDbLine
 10
9.6345243705
 20
9.6178289493
 30
0.0
 11
9.8945243705
 21
9.6178289493
 31
0.0
  0
LINE
  5
116
330
1B
100
AcDbEntity
 67
     1
  8
0
  6
Continuous
 62
     7
370
    25
100
AcDbLine
 10
9.6345243705
 20
9.5278289493
 30
0.0
 11
9.6345243705
 21
9.6178289493
 31
0.0
  0
LINE
  5
117
330
1B
100
AcDbEntity
 67
     1
  8
0
  6
Continuous
 62
     7
370
    25
100
AcDbLine
 10
6.8945243705
 20
9.5278289493
 30
0.0
 11
9.6345243705
 21
9.5278289493
 31
0.0
  0
LINE
  5
118
330
1B
100
AcDbEntity
 67
     1
  8
0
  6
Continuous
 62
     7
370
    25
100
AcDbLine
 10
6.8945243705
 20
9.6178289493
 30
0.0
 11
6.8945243705
 21
9.5278289493
 31
0.0
  0
LINE
  5
119
330
1B
100
AcDbEntity
 67
     1
  8
0
  6
Continuous
 62
     7
370
    25
100
AcDbLine
 10
6.6345243705
 20
9.6178289493
 30
0.0
 11
6.8945243705
 21
9.6178289493
 31
0.0
  0
LINE
  5
11A
330
1B
100
AcDbEntity
 67
     1
  8
0
  6
Continuous
 62
     7
370
    25
100
AcDbLine
 10
6.6345243705
 20
9.5278289493
 30
0.0
 11
6.6345243705
 21
9.6178289493
 31
0.0
  0
LINE
  5
11B
330
1B
100
AcDbEntity
 67
     1
  8
0
  6
Continuous
 62
     7
370
    25
100
AcDbLine
 10
5.8745243705
 20
9.5278289493
 30
0.0
 11
6.6345243705
 21
9.5278289493
 31
0.0
  0
LINE
  5
11C
330
1B
100
AcDbEntity
 67
     1
  8
0
  6
Continuous
 62
     7
370
    25
100
AcDbLine
 10
5.8445243705
 20
9.5578289493
 30
0.0
 11
5.8745243705
 21
9.5278289493
 31
0.0
  0
LINE
  5
11D
330
1B
100
AcDbEntity
 67
     1
  8
0
  6
Continuous
 62
     7
370
    25
100
AcDbLine
 10
5.8445243705
 20
10.2778289493
 30
0.0
 11
5.8445243705
 21
9.5578289493
 31
0.0
  0
LINE
  5
11E
330
1B
100
AcDbEntity
 67
     1
  8
0
  6
Continuous
 62
     7
370
    25
100
AcDbLine
 10
5.7545243705
 20
10.2778289493
 30
0.0
 11
5.8445243705
 21
10.2778289493
 31
0.0
  0
LINE
  5
11F
330
1B
100
AcDbEntity
 67
     1
  8
0
  6
Continuous
 62
     7
370
    25
100
AcDbLine
 10
5.7245243705
 20
10.3078289493
 30
0.0
 11
5.7545243705
 21
10.2778289493
 31
0.0
  0
LINE
  5
120
330
1B
100
AcDbEntity
 67
     1
  8
0
  6
Continuous
 62
     7
370
    25
100
AcDbLine
 10
5.7245243705
 20
10.5123289493
 30
0.0
 11
5.7245243705
 21
10.3078289493
 31
0.0
  0
LINE
  5
121
330
1B
100
AcDbEntity
 67
     1
  8
0
  6
Continuous
 62
     7
370
    25
100
AcDbLine
 10
5.7645243705
 20
10.5123289493
 30
0.0
 11
5.7245243705
 21
10.5123289493
 31
0.0
  0
ARC
  5
122
330
1B
100
AcDbEntity
 67
     1
  8
0
  6
Continuous
 62
     7
370
    25
100
AcDbCircle
 10
5.7645243705
 20
10.5903289493
 30
0.0
 40
0.0780000000000012
100
AcDbArc
 50
270.0
 51
90.0
  0
LINE
  5
123
330
1B
100
AcDbEntity
 67
     1
  8
0
  6
Continuous
 62
     7
370
    25
100
AcDbLine
 10
5.7245243705
 20
10.6683289493
 30
0.0
 11
5.7645243705
 21
10.6683289493
 31
0.0
  0
LINE
  5
124
330
1B
100
AcDbEntity
 67
     1
  8
0
  6
Continuous
 62
     7
370
    25
100
AcDbLine
 10
5.7245243705
 20
10.8728289493
 30
0.0
 11
5.7245243705
 21
10.6683289493
 31
0.0
  0
LINE
  5
125
330
1B
100
AcDbEntity
 67
     1
  8
0
  6
Continuous
 62
     7
370
    25
100
AcDbLine
 10
5.7545243705
 20
10.9028289493
 30
0.0
 11
5.7245243705
 21
10.8728289493
 31
0.0
  0
LINE
  5
126
330
1B
100
AcDbEntity
 67
     1
  8
0
  6
Continuous
 62
     7
370
    25
100
AcDbLine
 10
5.8445243705
 20
10.9028289493
 30
0.0
 11
5.7545243705
 21
10.9028289493
 31
0.0
  0
LINE
  5
127
330
1B
100
AcDbEntity
 67
     1
  8
0
  6
Continuous
 62
     7
370
    25
100
AcDbLine
 10
5.8445243705
 20
11.7478289493
 30
0.0
 11
5.8445243705
 21
10.9028289493
 31
0.0
  0
LINE
  5
128
330
1B
100
AcDbEntity
 67
     1
  8
0
  6
Continuous
 62
     7
370
    25
100
AcDbLine
 10
5.8745243705
 20
11.7778289493
 30
0.0
 11
5.8445243705
 21
11.7478289493
 31
0.0
  0
LINE
  5
129
330
1B
100
AcDbEntity
 67
     1
  8
0
  6
Continuous
 62
     7
370
    25
100
AcDbLine
 10
6.6345243705
 20
11.7778289493
 30
0.0
 11
5.8745243705
 21
11.7778289493
 31
0.0
  0
LINE
  5
12A
330
1B
100
AcDbEntity
 67
     1
  8
0
  6
Continuous
 62
     7
370
    25
100
AcDbLine
 10
6.6345243705
 20
11.5898289493
 30
0.0
 11
6.6345243705
 21
11.7778289493
 31
0.0
  0
LINE
  5
12B
330
1B
100
AcDbEntity
 67
     1
  8
0
  6
Continuous
 62
     7
370
    25
100
AcDbLine
 10
6.8945243705
 20
11.5898289493
 30
0.0
 11
6.6345243705
 21
11.5898289493
 31
0.0
  0
LINE
  5
12C
330
1B
100
AcDbEntity
 67
     1
  8
0
  6
Continuous
 62
     7
370
    25
100
AcDbLine
 10
6.8945243705
 20
11.7778289493
 30
0.0
 11
6.8945243705
 21
11.5898289493
 31
0.0
  0
LINE
  5
12D
330
1B
100
AcDbEntity
 67
     1
  8
0
  6
Continuous
 62
     7
370
    25
100
AcDbLine
 10
8.0145243705
 20
11.7778289493
 30
0.0
 11
6.8945243705
 21
11.7778289493
 31
0.0
  0
LINE
  5
12E
330
1B
100
AcDbEntity
 67
     1
  8
0
  6
Continuous
 62
     7
370
    25
100
AcDbLine
 10
8.0145243705
 20
11.6878289493
 30
0.0
 11
8.0145243705
 21
11.7778289493
 31
0.0
  0
LINE
  5
12F
330
1B
100
AcDbEntity
 67
     1
  8
0
  6
Continuous
 62
     7
370
    25
100
AcDbLine
 10
8.5145243705
 20
11.6878289493
 30
0.0
 11
8.0145243705
 21
11.6878289493
 31
0.0
  0
LINE
  5
130
330
1B
100
AcDbEntity
 67
     1
  8
0
  6
Continuous
 62
     7
370
    25
100
AcDbLine
 10
8.5145243705
 20
11.7778289493
 30
0.0
 11
8.5145243705
 21
11.6878289493
 31
0.0
  0
LINE
  5
131
330
1B
100
AcDbEntity
 67
     1
  8
0
  6
Continuous
 62
     7
370
    25
100
AcDbLine
 10
9.5920243705
 20
10.2235783528
 30
0.0
 11
9.5920243705
 21
10.9570795457
 31
0.0
  0
ARC
  5
132
330
1B
100
AcDbEntity
 67
     1
  8
0
  6
Continuous
 62
     7
370
    25
100
AcDbCircle
 10
9.0295243705
 20
10.5903289493
 30
0.0
 40
0.6714999999999988
100
AcDbArc
 50
33.1043930386
 51
146.8956069614
  0
LINE
  5
133
330
1B
100
AcDbEntity
 67
     1
  8
0
  6
Continuous
 62
     7
370
    25
100
AcDbLine
 10
8.4670243705
 20
10.9570795457
 30
0.0
 11
8.4670243705
 21
10.2235783528
 31
0.0
  0
ARC
  5
134
330
1B
100
AcDbEntity
 67
     1
  8
0
  6
Continuous
 62
     7
370
    25
100
AcDbCircle
 10
9.0295243705
 20
10.5903289493
 30
0.0
 40
0.6714999999999998
100
AcDbArc
 50
213.1043930386
 51
326.8956069614
  0
LINE
  5
135
330
1B
100
AcDbEntity
 67
     1
  8
0
  6
Continuous
 62
     7
370
    25
100
AcDbLine
 10
8.0620243705
 20
10.2235783528
 30
0.0
 11
8.0620243705
 21
10.9570795457
 31
0.0
  0
ARC
  5
136
330
1B
100
AcDbEntity
 67
     1
  8
0
  6
Continuous
 62
     7
370
    25
100
AcDbCircle
 10
7.4995243705
 20
10.5903289493
 30
0.0
 40
0.6714999999999988
100
AcDbArc
 50
33.1043930386
 51
146.8956069614
  0
LINE
  5
137
330
1B
100
AcDbEntity
 67
     1
  8
0
  6
Continuous
 62
     7
370
    25
100
AcDbLine
 10
6.9370243705
 20
10.9570795457
 30
0.0
 11
6.9370243705
 21
10.2235783528
 31
0.0
  0
ARC
  5
138
330
1B
100
AcDbEntity
 67
     1
  8
0
  6
Continuous
 62
     7
370
    25
100
AcDbCircle
 10
7.4995243705
 20
10.5903289493
 30
0.0
 40
0.6714999999999998
100
AcDbArc
 50
213.1043930386
 51
326.8956069614
  0
CIRCLE
  5
139
330
1B
100
AcDbEntity
 67
     1
  8
0
  6
Continuous
 62
     7
370
    25
100
AcDbCircle
 10
8.2645243705
 20
10.5903289493
 30
0.0
 40
0.0780000000000012
  0
DIMENSION
  5
13A
330
1B
100
AcDbEntity
 67
     1
  8
DEFAULT
 62
     7
100
AcDbDimension
  2
_D
 10
10.4545243705
 20
8.1109506297
 30
0.0
 11
8.1495243705
 21
8.1109506297
 31
0.0
 70
   160
  1
<>
 71
     2
 42
-1.0
  3
SLDDIMSTYLE0
100
AcDbAlignedDimension
 13
5.8445243705
 23
9.5578289493
 33
0.0
 14
10.4545243705
 24
9.5278289493
 34
0.0
 50
0.0
100
AcDbRotatedDimension
  0
DIMENSION
  5
154
330
1B
100
AcDbEntity
 67
     1
  8
DEFAULT
 62
     7
100
AcDbDimension
  2
_D_1
 10
11.8947254641
 20
9.5278289493
 30
0.0
 11
11.8947254641
 21
10.6528289493
 31
0.0
 70
   160
  1
<>
 71
     2
 42
-1.0
  3
SLDDIMSTYLE1
100
AcDbAlignedDimension
 13
10.1005243705
 23
11.7778289493
 33
0.0
 14
10.4545243705
 24
9.5278289493
 34
0.0
 50
90.0
100
AcDbRotatedDimension
  0
ENDSEC
  0
SECTION
  2
OBJECTS
  0
DICTIONARY
  5
C
330
0
100
AcDbDictionary
281
     1
  3
ACAD_GROUP
350
D
  3
ACAD_LAYOUT
350
1A
  3
ACAD_MLINESTYLE
350
17
  3
ACAD_PLOTSETTINGS
350
19
  3
ACAD_PLOTSTYLENAME
350
E
  3
ACAD_SCALELIST
350
47
  3
DWGPROPS
350
16D
  0
DICTIONARY
  5
D
102
{ACAD_REACTORS
330
C
102
}
330
C
100
AcDbDictionary
281
     1
  0
DICTIONARY
  5
1A
102
{ACAD_REACTORS
330
C
102
}
330
C
100
AcDbDictionary
281
     1
  3
Model
350
22
  3
Sheet2
350
1E
  0
DICTIONARY
  5
17
102
{ACAD_REACTORS
330
C
102
}
330
C
100
AcDbDictionary
281
     1
  3
Standard
350
18
  0
DICTIONARY
  5
19
102
{ACAD_REACTORS
330
C
102
}
330
C
100
AcDbDictionary
281
     1
  0
ACDBDICTIONARYWDFLT
  5
E
102
{ACAD_REACTORS
330
C
102
}
330
C
100
AcDbDictionary
281
     1
  3
Normal
350
F
100
AcDbDictionaryWithDefault
340
F
  0
DICTIONARY
  5
47
102
{ACAD_REACTORS
330
C
102
}
330
C
100
AcDbDictionary
281
     1
  3
A0
350
48
  3
A1
350
49
  3
A2
350
4A
  3
A3
350
4B
  3
A4
350
4C
  3
A5
350
4D
  3
A6
350
4E
  3
A7
350
4F
  3
A8
350
50
  3
A9
350
51
  3
B1
350
52
  3
B2
350
53
  3
B3
350
54
  3
B4
350
55
  3
B5
350
56
  3
B6
350
57
  3
B7
350
58
  0
XRECORD
  5
16D
102
{ACAD_REACTORS
330
C
102
}
330
C
100
AcDbXrecord
280
     1
  1
DWGPROPS COOKIE
  2

  3

  4

  6

  7

  8
tbowman
  9

300
=
301
=
302
=
303
=
304
=
305
=
306
=
307
=
308
=
309
=
 40
0.0
 41
2460293.786801852
 42
2460293.786802569
  1

 90
        0
  0
LAYOUT
  5
22
102
{ACAD_REACTORS
330
1A
102
}
330
1A
100
AcDbPlotSettings
  1

  2
none_device
  4
Letter_(8.50_x_11.00_Inches)
  6

 40
6.35
 41
6.35
 42
6.35000508
 43
6.35000508
 44
215.9
 45
279.4
 46
0.0
 47
0.0
 48
0.0
 49
0.0
140
0.0
141
0.0
142
1.0
143
1.0
 70
  1712
 72
     0
 73
     0
 74
     0
  7

 75
     0
147
1.0
148
0.0
149
0.0
100
AcDbLayout
  1
Model
 70
     1
 71
     0
 10
0.0
 20
0.0
 11
12.0
 21
9.0
 12
0.0
 22
0.0
 32
0.0
 14
0.0
 24
0.0
 34
0.0
 15
17.0
 25
22.0
 35
0.0
146
0.0
 13
0.0
 23
0.0
 33
0.0
 16
1.0
 26
0.0
 36
0.0
 17
0.0
 27
1.0
 37
0.0
 76
     0
330
1F
331
29
  0
LAYOUT
  5
1E
102
{ACAD_REACTORS
330
1A
102
}
330
1A
100
AcDbPlotSettings
  1

  2
none_device
  4
Letter_(8.50_x_11.00_Inches)
  6

 40
6.35
 41
6.35
 42
6.35000508
 43
6.35000508
 44
215.9
 45
279.4
 46
0.0
 47
0.0
 48
0.0
 49
0.0
140
0.0
141
0.0
142
1.0
143
1.0
 70
  4832
 72
     0
 73
     0
 74
     1
  7

 75
     0
147
1.0
148
0.0
149
0.0
100
AcDbLayout
  1
Sheet2
 70
     1
 71
     0
 10
0.0
 20
0.0
 11
17.0
 21
22.0
 12
0.0
 22
0.0
 32
0.0
 14
0.0
 24
0.0
 34
0.0
 15
17.0
 25
22.0
 35
0.0
146
0.0
 13
0.0
 23
0.0
 33
0.0
 16
1.0
 26
0.0
 36
0.0
 17
0.0
 27
1.0
 37
0.0
 76
     0
330
1B
331
69
  0
MLINESTYLE
  5
18
102
{ACAD_REACTORS
330
17
102
}
330
17
100
AcDbMlineStyle
  2
Standard
 70
     0
  3

 62
   256
 51
90.0
 52
90.0
 71
     2
 49
0.5
 62
   256
  6
BYLAYER
 49
-0.5
 62
   256
  6
BYLAYER
  0
ACDBPLACEHOLDER
  5
F
102
{ACAD_REACTORS
330
E
102
}
330
E
  0
SCALE
  5
48
102
{ACAD_REACTORS
330
47
102
}
330
47
100
AcDbScale
 70
     0
300
1:1
140
1.0
141
1.0
290
     1
  0
SCALE
  5
49
102
{ACAD_REACTORS
330
47
102
}
330
47
100
AcDbScale
 70
     0
300
1/128" = 1'-0"
140
0.0078125
141
12.0
290
     0
  0
SCALE
  5
4A
102
{ACAD_REACTORS
330
47
102
}
330
47
100
AcDbScale
 70
     0
300
1/64" = 1'-0"
140
0.015625
141
12.0
290
     0
  0
SCALE
  5
4B
102
{ACAD_REACTORS
330
47
102
}
330
47
100
AcDbScale
 70
     0
300
1/32" = 1'-0"
140
0.03125
141
12.0
290
     0
  0
SCALE
  5
4C
102
{ACAD_REACTORS
330
47
102
}
330
47
100
AcDbScale
 70
     0
300
1/16" = 1'-0"
140
0.0625
141
12.0
290
     0
  0
SCALE
  5
4D
102
{ACAD_REACTORS
330
47
102
}
330
47
100
AcDbScale
 70
     0
300
3/32" = 1'-0"
140
0.09375
141
12.0
290
     0
  0
SCALE
  5
4E
102
{ACAD_REACTORS
330
47
102
}
330
47
100
AcDbScale
 70
     0
300
1/8" = 1'-0"
140
0.125
141
12.0
290
     0
  0
SCALE
  5
4F
102
{ACAD_REACTORS
330
47
102
}
330
47
100
AcDbScale
 70
     0
300
3/16" = 1'-0"
140
0.1875
141
12.0
290
     0
  0
SCALE
  5
50
102
{ACAD_REACTORS
330
47
102
}
330
47
100
AcDbScale
 70
     0
300
1/4" = 1'-0"
140
0.25
141
12.0
290
     0
  0
SCALE
  5
51
102
{ACAD_REACTORS
330
47
102
}
330
47
100
AcDbScale
 70
     0
300
3/8" = 1'-0"
140
0.375
141
12.0
290
     0
  0
SCALE
  5
52
102
{ACAD_REACTORS
330
47
102
}
330
47
100
AcDbScale
 70
     0
300
1/2" = 1'-0"
140
0.5
141
12.0
290
     0
  0
SCALE
  5
53
102
{ACAD_REACTORS
330
47
102
}
330
47
100
AcDbScale
 70
     0
300
3/4" = 1'-0"
140
0.75
141
12.0
290
     0
  0
SCALE
  5
54
102
{ACAD_REACTORS
330
47
102
}
330
47
100
AcDbScale
 70
     0
300
1" = 1'-0"
140
1.0
141
12.0
290
     0
  0
SCALE
  5
55
102
{ACAD_REACTORS
330
47
102
}
330
47
100
AcDbScale
 70
     0
300
1-1/2" = 1'-0"
140
1.5
141
12.0
290
     0
  0
SCALE
  5
56
102
{ACAD_REACTORS
330
47
102
}
330
47
100
AcDbScale
 70
     0
300
3" = 1'-0"
140
3.0
141
12.0
290
     0
  0
SCALE
  5
57
102
{ACAD_REACTORS
330
47
102
}
330
47
100
AcDbScale
 70
     0
300
6" = 1'-0"
140
6.0
141
12.0
290
     0
  0
SCALE
  5
58
102
{ACAD_REACTORS
330
47
102
}
330
47
100
AcDbScale
 70
     0
300
1'-0" = 1'-0"
140
12.0
141
12.0
290
     0
  0
ENDSEC
  0
EOF
