  0
SECTION
  2
HEADER
  9
$ACADVER
  1
AC1015
  9
$ACADMAINTVER
 70
     6
  9
$DWGCODEPAGE
  3
ANSI_1252
  9
$INSBASE
 10
0.0
 20
0.0
 30
0.0
  9
$EXTMIN
 10
0.0
 20
0.0
 30
0.0
  9
$EXTMAX
 10
17.0
 20
22.0
 30
0.0
  9
$LIMMIN
 10
0.0
 20
0.0
  9
$LIMMAX
 10
12.0
 20
9.0
  9
$ORTHOMODE
 70
     0
  9
$REGENMODE
 70
     1
  9
$FILLMODE
 70
     1
  9
$QTEXTMODE
 70
     0
  9
$MIRRTEXT
 70
     1
  9
$LTSCALE
 40
2.0
  9
$ATTMODE
 70
     1
  9
$TEXTSIZE
 40
0.2777777778
  9
$TRACEWID
 40
0.05
  9
$TEXTSTYLE
  7
Standard
  9
$CLAYER
  8
0
  9
$CELTYPE
  6
ByLayer
  9
$CECOLOR
 62
   256
  9
$CELTSCALE
 40
1.0
  9
$DISPSILH
 70
     0
  9
$DIMSCALE
 40
1.0
  9
$DIMASZ
 40
0.26
  9
$DIMEXO
 40
0.1
  9
$DIMDLI
 40
0.38
  9
$DIMRND
 40
0.0
  9
$DIMDLE
 40
0.0
  9
$DIMEXE
 40
0.25
  9
$DIMTP
 40
0.0
  9
$DIMTM
 40
0.0
  9
$DIMTXT
 40
0.2777777778
  9
$DIMCEN
 40
0.09
  9
$DIMTSZ
 40
0.0
  9
$DIMTOL
 70
     0
  9
$DIMLIM
 70
     0
  9
$DIMTIH
 70
     1
  9
$DIMTOH
 70
     1
  9
$DIMSE1
 70
     0
  9
$DIMSE2
 70
     0
  9
$DIMTAD
 70
     0
  9
$DIMZIN
 70
     0
  9
$DIMBLK
  1

  9
$DIMASO
 70
     1
  9
$DIMSHO
 70
     1
  9
$DIMPOST
  1

  9
$DIMAPOST
  1

  9
$DIMALT
 70
     0
  9
$DIMALTD
 70
     2
  9
$DIMALTF
 40
25.4
  9
$DIMLFAC
 40
1.0
  9
$DIMTOFL
 70
     0
  9
$DIMTVP
 40
0.0
  9
$DIMTIX
 70
     0
  9
$DIMSOXD
 70
     0
  9
$DIMSAH
 70
     0
  9
$DIMBLK1
  1

  9
$DIMBLK2
  1

  9
$DIMSTYLE
  2
Standard
  9
$DIMCLRD
 70
     0
  9
$DIMCLRE
 70
     0
  9
$DIMCLRT
 70
     0
  9
$DIMTFAC
 40
1.0
  9
$DIMGAP
 40
0.12
  9
$DIMJUST
 70
     0
  9
$DIMSD1
 70
     0
  9
$DIMSD2
 70
     0
  9
$DIMTOLJ
 70
     1
  9
$DIMTZIN
 70
     0
  9
$DIMALTZ
 70
     0
  9
$DIMALTTZ
 70
     0
  9
$DIMUPT
 70
     0
  9
$DIMDEC
 70
     0
  9
$DIMTDEC
 70
     0
  9
$DIMALTU
 70
     2
  9
$DIMALTTD
 70
     2
  9
$DIMTXSTY
  7
Standard
  9
$DIMAUNIT
 70
     0
  9
$DIMADEC
 70
     0
  9
$DIMALTRND
 40
0.0
  9
$DIMAZIN
 70
     0
  9
$DIMDSEP
 70
    46
  9
$DIMATFIT
 70
     3
  9
$DIMFRAC
 70
     0
  9
$DIMLDRBLK
  1

  9
$DIMLUNIT
 70
     2
  9
$DIMLWD
 70
    -2
  9
$DIMLWE
 70
    -2
  9
$DIMTMOVE
 70
     0
  9
$LUNITS
 70
     2
  9
$LUPREC
 70
     0
  9
$SKETCHINC
 40
0.1
  9
$FILLETRAD
 40
0.0
  9
$AUNITS
 70
     0
  9
$AUPREC
 70
     0
  9
$MENU
  1
.
  9
$ELEVATION
 40
0.0
  9
$PELEVATION
 40
0.0
  9
$THICKNESS
 40
0.0
  9
$LIMCHECK
 70
     0
  9
$CHAMFERA
 40
0.0
  9
$CHAMFERB
 40
0.0
  9
$CHAMFERC
 40
0.0
  9
$CHAMFERD
 40
0.0
  9
$SKPOLY
 70
     0
  9
$TDCREATE
 40
2460293.578023125
  9
$TDUCREATE
 40
2460293.786356458
  9
$TDUPDATE
 40
2460293.578024005
  9
$TDUUPDATE
 40
2460293.786357338
  9
$TDINDWG
 40
0.0000000116
  9
$TDUSRTIMER
 40
0.0000000116
  9
$USRTIMER
 70
     1
  9
$ANGBASE
 50
0.0
  9
$ANGDIR
 70
     0
  9
$PDMODE
 70
     0
  9
$PDSIZE
 40
-1.0
  9
$PLINEWID
 40
0.0
  9
$SPLFRAME
 70
     0
  9
$SPLINETYPE
 70
     6
  9
$SPLINESEGS
 70
     8
  9
$HANDSEED
  5
1B1
  9
$SURFTAB1
 70
     6
  9
$SURFTAB2
 70
     6
  9
$SURFTYPE
 70
     6
  9
$SURFU
 70
     6
  9
$SURFV
 70
     6
  9
$UCSBASE
  2

  9
$UCSNAME
  2

  9
$UCSORG
 10
0.0
 20
0.0
 30
0.0
  9
$UCSXDIR
 10
1.0
 20
0.0
 30
0.0
  9
$UCSYDIR
 10
0.0
 20
1.0
 30
0.0
  9
$UCSORTHOREF
  2

  9
$UCSORTHOVIEW
 70
     0
  9
$UCSORGTOP
 10
0.0
 20
0.0
 30
0.0
  9
$UCSORGBOTTOM
 10
0.0
 20
0.0
 30
0.0
  9
$UCSORGLEFT
 10
0.0
 20
0.0
 30
0.0
  9
$UCSORGRIGHT
 10
0.0
 20
0.0
 30
0.0
  9
$UCSORGFRONT
 10
0.0
 20
0.0
 30
0.0
  9
$UCSORGBACK
 10
0.0
 20
0.0
 30
0.0
  9
$PUCSBASE
  2

  9
$PUCSNAME
  2

  9
$PUCSORG
 10
0.0
 20
0.0
 30
0.0
  9
$PUCSXDIR
 10
1.0
 20
0.0
 30
0.0
  9
$PUCSYDIR
 10
0.0
 20
1.0
 30
0.0
  9
$PUCSORTHOREF
  2

  9
$PUCSORTHOVIEW
 70
     0
  9
$PUCSORGTOP
 10
0.0
 20
0.0
 30
0.0
  9
$PUCSORGBOTTOM
 10
0.0
 20
0.0
 30
0.0
  9
$PUCSORGLEFT
 10
0.0
 20
0.0
 30
0.0
  9
$PUCSORGRIGHT
 10
0.0
 20
0.0
 30
0.0
  9
$PUCSORGFRONT
 10
0.0
 20
0.0
 30
0.0
  9
$PUCSORGBACK
 10
0.0
 20
0.0
 30
0.0
  9
$USERI1
 70
     0
  9
$USERI2
 70
     0
  9
$USERI3
 70
     0
  9
$USERI4
 70
     0
  9
$USERI5
 70
     0
  9
$USERR1
 40
0.0
  9
$USERR2
 40
0.0
  9
$USERR3
 40
0.0
  9
$USERR4
 40
0.0
  9
$USERR5
 40
0.0
  9
$WORLDVIEW
 70
     1
  9
$SHADEDGE
 70
     3
  9
$SHADEDIF
 70
    70
  9
$TILEMODE
 70
     0
  9
$MAXACTVP
 70
    64
  9
$PINSBASE
 10
0.0
 20
0.0
 30
0.0
  9
$PLIMCHECK
 70
     0
  9
$PEXTMIN
 10
0.0
 20
0.0
 30
0.0
  9
$PEXTMAX
 10
17.0
 20
22.0
 30
0.0
  9
$PLIMMIN
 10
0.0
 20
0.0
  9
$PLIMMAX
 10
17.0
 20
22.0
  9
$UNITMODE
 70
     0
  9
$VISRETAIN
 70
     1
  9
$PLINEGEN
 70
     0
  9
$PSLTSCALE
 70
     1
  9
$TREEDEPTH
 70
  3020
  9
$CMLSTYLE
  2
Standard
  9
$CMLJUST
 70
     0
  9
$CMLSCALE
 40
1.0
  9
$PROXYGRAPHICS
 70
     1
  9
$MEASUREMENT
 70
     0
  9
$CELWEIGHT
370
    -1
  9
$ENDCAPS
280
     0
  9
$JOINSTYLE
280
     0
  9
$LWDISPLAY
290
     1
  9
$INSUNITS
 70
     1
  9
$HYPERLINKBASE
  1

  9
$STYLESHEET
  1

  9
$XEDIT
290
     1
  9
$CEPSNTYPE
380
     0
  9
$PSTYLEMODE
290
     1
  9
$FINGERPRINTGUID
  2
{d90fed85-03d4-4f65-858f-c0976c0232a4}
  9
$VERSIONGUID
  2
{FAEB1C32-E019-11D5-929B-00C0DF256EC4}
  9
$EXTNAMES
290
     1
  9
$PSVPSCALE
 40
0.0
  9
$OLESTARTUP
290
     0
  0
ENDSEC
  0
SECTION
  2
CLASSES
  0
CLASS
  1
ACDBDICTIONARYWDFLT
  2
AcDbDictionaryWithDefault
  3
ObjectDBX Classes
 90
        0
280
     0
281
     0
  0
CLASS
  1
VISUALSTYLE
  2
AcDbVisualStyle
  3
ObjectDBX Classes
 90
     4095
280
     0
281
     0
  0
CLASS
  1
MATERIAL
  2
AcDbMaterial
  3
ObjectDBX Classes
 90
     1153
280
     0
281
     0
  0
CLASS
  1
SCALE
  2
AcDbScale
  3
ObjectDBX Classes
 90
     1153
280
     0
281
     0
  0
CLASS
  1
TABLESTYLE
  2
AcDbTableStyle
  3
ObjectDBX Classes
 90
     4095
280
     0
281
     0
  0
CLASS
  1
MLEADERSTYLE
  2
AcDbMLeaderStyle
  3
ACDB_MLEADERSTYLE_CLASS
 90
     4095
280
     0
281
     0
  0
CLASS
  1
SUN
  2
AcDbSun
  3
SCENEOE
 90
     1153
280
     0
281
     0
  0
CLASS
  1
ACDBPLACEHOLDER
  2
AcDbPlaceHolder
  3
ObjectDBX Classes
 90
        0
280
     0
281
     0
  0
CLASS
  1
LAYOUT
  2
AcDbLayout
  3
ObjectDBX Classes
 90
        0
280
     0
281
     0
  0
ENDSEC
  0
SECTION
  2
TABLES
  0
TABLE
  2
VPORT
  5
8
330
0
100
AcDbSymbolTable
 70
     1
  0
VPORT
  5
29
330
8
100
AcDbSymbolTableRecord
100
AcDbViewportTableRecord
  2
*Active
 70
     0
 10
0.0
 20
0.0
 11
1.0
 21
1.0
 12
8.5
 22
11.0
 13
0.0
 23
0.0
 14
0.5
 24
0.5
 15
0.5
 25
0.5
 16
0.0
 26
0.0
 36
1.0
 17
0.0
 27
0.0
 37
0.0
 40
22.0
 41
0.7727272727
 42
50.0
 43
0.0
 44
0.0
 50
0.0
 51
0.0
 71
     0
 72
  2000
 73
     1
 74
     3
 75
     0
 76
     0
 77
     0
 78
     0
281
     0
 65
     1
110
0.0
120
0.0
130
0.0
111
1.0
121
0.0
131
0.0
112
0.0
122
1.0
132
0.0
 79
     0
146
0.0
  0
ENDTAB
  0
TABLE
  2
LTYPE
  5
5
330
0
100
AcDbSymbolTable
 70
     6
  0
LTYPE
  5
14
330
5
100
AcDbSymbolTableRecord
100
AcDbLinetypeTableRecord
  2
ByBlock
 70
     0
  3

 72
    65
 73
     0
 40
0.0
  0
LTYPE
  5
15
330
5
100
AcDbSymbolTableRecord
100
AcDbLinetypeTableRecord
  2
ByLayer
 70
     0
  3

 72
    65
 73
     0
 40
0.0
  0
LTYPE
  5
16
330
5
100
AcDbSymbolTableRecord
100
AcDbLinetypeTableRecord
  2
Continuous
 70
     0
  3
Solid line
 72
    65
 73
     0
 40
0.0
  0
LTYPE
  5
5E
330
5
100
AcDbSymbolTableRecord
100
AcDbLinetypeTableRecord
  2
HIDDEN
 70
     0
  3
Hidden __ __ __ __ __ __ __ __ __ __ __ __ __ __
 72
    65
 73
     2
 40
0.075
 49
0.05
 74
     0
 49
-0.025
 74
     0
  0
LTYPE
  5
5F
330
5
100
AcDbSymbolTableRecord
100
AcDbLinetypeTableRecord
  2
PHANTOM
 70
     0
  3
Phantom ______  __  __  ______  __  __  ______
 72
    65
 73
     6
 40
0.5
 49
0.25
 74
     0
 49
-0.05
 74
     0
 49
0.05
 74
     0
 49
-0.05
 74
     0
 49
0.05
 74
     0
 49
-0.05
 74
     0
  0
LTYPE
  5
60
330
5
100
AcDbSymbolTableRecord
100
AcDbLinetypeTableRecord
  2
CENTER
 70
     0
  3
Center ____ _ ____ _ ____ _ ____ _ ____ _ ____
 72
    65
 73
     4
 40
0.4
 49
0.25
 74
     0
 49
-0.05
 74
     0
 49
0.05
 74
     0
 49
-0.05
 74
     0
  0
LTYPE
  5
61
330
5
100
AcDbSymbolTableRecord
100
AcDbLinetypeTableRecord
  2
CENTERX2
 70
     0
  3
Center (2x) ________  __  ________  __  _____
 72
    65
 73
     4
 40
0.8
 49
0.5
 74
     0
 49
-0.1
 74
     0
 49
0.1
 74
     0
 49
-0.1
 74
     0
  0
LTYPE
  5
62
330
5
100
AcDbSymbolTableRecord
100
AcDbLinetypeTableRecord
  2
DOT2
 70
     0
  3
Dot (.5x) ........................................
 72
    65
 73
     2
 40
0.025
 49
0.0
 74
     0
 49
-0.025
 74
     0
  0
ENDTAB
  0
TABLE
  2
LAYER
  5
2
330
0
100
AcDbSymbolTable
 70
     7
  0
LAYER
  5
10
330
2
100
AcDbSymbolTableRecord
100
AcDbLayerTableRecord
  2
0
 70
     0
 62
     7
  6
Continuous
370
    -3
390
F
  0
LAYER
  5
63
330
2
100
AcDbSymbolTableRecord
100
AcDbLayerTableRecord
  2
FORMAT
 70
     0
 62
     7
  6
Continuous
370
    -3
390
F
  0
LAYER
  5
64
330
2
100
AcDbSymbolTableRecord
100
AcDbLayerTableRecord
  2
DEFAULT
 70
     0
 62
   179
  6
Continuous
370
    -3
390
F
  0
LAYER
  5
65
330
2
100
AcDbSymbolTableRecord
100
AcDbLayerTableRecord
  2
INSPECTION_TAGS
 70
     0
 62
     7
  6
Continuous
370
    -3
390
F
  0
LAYER
  5
66
330
2
100
AcDbSymbolTableRecord
100
AcDbLayerTableRecord
  2
REVISIONS
 70
     0
 62
     7
  6
Continuous
370
    -3
390
F
  0
LAYER
  5
67
330
2
100
AcDbSymbolTableRecord
100
AcDbLayerTableRecord
  2
DIMENSIONS_&_ANNOTATIONS
 70
     0
 62
     7
  6
Continuous
370
    -3
390
F
  0
LAYER
  5
68
330
2
100
AcDbSymbolTableRecord
100
AcDbLayerTableRecord
  2
DIMENSION_&_ANNOTATIONS
 70
     0
 62
     7
  6
Continuous
370
    -3
390
F
  0
ENDTAB
  0
TABLE
  2
STYLE
  5
3
330
0
100
AcDbSymbolTable
 70
     2
  0
STYLE
  5
11
330
3
100
AcDbSymbolTableRecord
100
AcDbTextStyleTableRecord
  2
Standard
 70
     0
 40
0.0
 41
1.0
 50
0.0
 71
     0
 42
0.2777777778
  3
txt
  4

  0
STYLE
  5
17E
330
3
100
AcDbSymbolTableRecord
100
AcDbTextStyleTableRecord
  2
SLDTEXTSTYLE0
 70
     0
 40
0.0
 41
0.605
 50
0.0
 71
     0
 42
0.2777777778
  3
TXT
  4

  0
ENDTAB
  0
TABLE
  2
VIEW
  5
6
330
0
100
AcDbSymbolTable
 70
     0
  0
ENDTAB
  0
TABLE
  2
UCS
  5
7
330
0
100
AcDbSymbolTable
 70
     0
  0
ENDTAB
  0
TABLE
  2
APPID
  5
9
330
0
100
AcDbSymbolTable
 70
     1
  0
APPID
  5
12
330
9
100
AcDbSymbolTableRecord
100
AcDbRegAppTableRecord
  2
ACAD
 70
     0
  0
ENDTAB
  0
TABLE
  2
DIMSTYLE
  5
A
330
0
100
AcDbSymbolTable
 70
     3
100
AcDbDimStyleTable
  0
DIMSTYLE
105
27
330
A
100
AcDbSymbolTableRecord
100
AcDbDimStyleTableRecord
  2
Standard
 70
     0
178
     0
340
11
  0
DIMSTYLE
105
17F
102
{ACAD_REACTORS
330
17D
102
}
330
A
100
AcDbSymbolTableRecord
100
AcDbDimStyleTableRecord
  2
SLDDIMSTYLE0
 70
     0
 41
0.26
 44
0.0
 45
0.000000001
 78
    12
 79
     3
140
0.2022298177
143
29.275
147
0.0505574544
148
0.000000001
170
     1
171
     1
173
     1
178
     0
271
     6
272
     0
274
     1
276
     2
277
     5
284
    12
340
17E
  0
DIMSTYLE
105
198
102
{ACAD_REACTORS
330
197
102
}
330
A
100
AcDbSymbolTableRecord
100
AcDbDimStyleTableRecord
  2
SLDDIMSTYLE1
 70
     0
 41
0.26
 44
0.0
 45
0.000000001
 78
    12
 79
     3
140
0.2022298177
147
0.0505574544
148
0.000000001
170
     1
171
     1
173
     1
178
     0
271
     6
272
     0
274
     1
276
     2
277
     5
284
    12
340
17E
  0
ENDTAB
  0
TABLE
  2
BLOCK_RECORD
  5
1
330
0
100
AcDbSymbolTable
 70
     2
  0
BLOCK_RECORD
  5
1F
330
1
100
AcDbSymbolTableRecord
100
AcDbBlockTableRecord
  2
*Model_Space
340
22
  0
BLOCK_RECORD
  5
1B
330
1
100
AcDbSymbolTableRecord
100
AcDbBlockTableRecord
  2
*Paper_Space
340
1E
  0
BLOCK_RECORD
  5
180
330
1
100
AcDbSymbolTableRecord
100
AcDbBlockTableRecord
  2
_D
340
0
  0
BLOCK_RECORD
  5
199
330
1
100
AcDbSymbolTableRecord
100
AcDbBlockTableRecord
  2
_D_1
340
0
  0
ENDTAB
  0
ENDSEC
  0
SECTION
  2
BLOCKS
  0
BLOCK
  5
20
330
1F
100
AcDbEntity
  8
0
100
AcDbBlockBegin
  2
*Model_Space
 70
     0
 10
0.0
 20
0.0
 30
0.0
  3
*Model_Space
  1

  0
ENDBLK
  5
21
330
1F
100
AcDbEntity
  8
0
100
AcDbBlockEnd
  0
BLOCK
  5
1C
330
1B
100
AcDbEntity
 67
     1
  8
0
100
AcDbBlockBegin
  2
*Paper_Space
 70
     0
 10
0.0
 20
0.0
 30
0.0
  3
*Paper_Space
  1

  0
ENDBLK
  5
1D
330
1B
100
AcDbEntity
 67
     1
  8
0
100
AcDbBlockEnd
  0
BLOCK
  5
181
330
180
100
AcDbEntity
  8
0
100
AcDbBlockBegin
  2
_D
 70
     0
 10
0.0
 20
0.0
 30
0.0
  3
_D
  1

  0
SOLID
  5
183
330
180
100
AcDbEntity
  8
DEFAULT
 62
     7
100
AcDbTrace
 10
5.3028906086
 20
9.1726260739
 30
0.0
 11
5.5628906086
 21
9.1326260739
 31
0.0
 12
5.5628906086
 22
9.2126260739
 32
0.0
 13
5.5628906086
 23
9.2126260739
 33
0.0
  0
SOLID
  5
184
330
180
100
AcDbEntity
  8
DEFAULT
 62
     7
100
AcDbTrace
 10
9.9128906086
 20
9.1726260739
 30
0.0
 11
9.6528906086
 21
9.2126260739
 31
0.0
 12
9.6528906086
 22
9.1326260739
 32
0.0
 13
9.6528906086
 23
9.1326260739
 33
0.0
  0
LINE
  5
185
330
180
100
AcDbEntity
  8
DEFAULT
 62
     7
100
AcDbLine
 10
7.5289940567
 20
9.3948676211
 30
0.0
 11
7.7423428254
 21
9.3948676211
 31
0.0
  0
LINE
  5
186
330
180
100
AcDbEntity
  8
DEFAULT
 62
     7
100
AcDbLine
 10
7.0291870005
 20
9.047182423
 30
0.0
 11
6.9597425569
 21
9.047182423
 31
0.0
  0
LINE
  5
187
330
180
100
AcDbEntity
  8
DEFAULT
 62
     7
100
AcDbLine
 10
6.9597425569
 20
9.047182423
 30
0.0
 11
6.9597425569
 21
8.7366114241
 31
0.0
  0
LINE
  5
188
330
180
100
AcDbEntity
  8
DEFAULT
 62
     7
100
AcDbLine
 10
6.9597425569
 20
8.7366114241
 30
0.0
 11
7.0291870005
 21
8.7366114241
 31
0.0
  0
LINE
  5
189
330
180
100
AcDbEntity
  8
DEFAULT
 62
     7
100
AcDbLine
 10
8.1865943634
 20
9.047182423
 30
0.0
 11
8.256038807
 21
9.047182423
 31
0.0
  0
LINE
  5
18A
330
180
100
AcDbEntity
  8
DEFAULT
 62
     7
100
AcDbLine
 10
8.256038807
 20
9.047182423
 30
0.0
 11
8.256038807
 21
8.7366114241
 31
0.0
  0
LINE
  5
18B
330
180
100
AcDbEntity
  8
DEFAULT
 62
     7
100
AcDbLine
 10
8.256038807
 20
8.7366114241
 30
0.0
 11
8.1865943634
 21
8.7366114241
 31
0.0
  0
LINE
  5
18C
330
180
100
AcDbEntity
  8
DEFAULT
 62
     7
100
AcDbLine
 10
5.3028906086
 20
10.0526821192
 30
0.0
 11
5.3028906086
 21
8.9226260739
 31
0.0
  0
LINE
  5
18D
330
180
100
AcDbEntity
  8
DEFAULT
 62
     7
100
AcDbLine
 10
9.9128906086
 20
10.0226821192
 30
0.0
 11
9.9128906086
 21
8.9226260739
 31
0.0
  0
LINE
  5
18E
330
180
100
AcDbEntity
  8
DEFAULT
 62
     7
100
AcDbLine
 10
5.3028906086
 20
9.1726260739
 30
0.0
 11
6.7686138068
 21
9.1726260739
 31
0.0
  0
LINE
  5
18F
330
180
100
AcDbEntity
  8
DEFAULT
 62
     7
100
AcDbLine
 10
9.9128906086
 20
9.1726260739
 30
0.0
 11
8.4471674104
 21
9.1726260739
 31
0.0
  0
MTEXT
  5
190
330
180
100
AcDbEntity
  8
DEFAULT
 62
     7
100
AcDbMText
 10
6.8912626163
 20
9.5037831153
 30
0.0
 40
0.2083333333
 41
0.0
 71
     1
 72
     1
  1

  7
SLDTEXTSTYLE0
 73
     1
 44
1.0
  0
MTEXT
  5
191
330
180
100
AcDbEntity
  8
DEFAULT
 62
     7
100
AcDbMText
 10
7.3451591754
 20
9.5037831153
 30
0.0
 40
0.2083333333
 41
0.0
 71
     1
 72
     1
  1
4
  7
SLDTEXTSTYLE0
 73
     1
 44
1.0
  0
MTEXT
  5
192
330
180
100
AcDbEntity
  8
DEFAULT
 62
     7
100
AcDbMText
 10
7.5585079441
 20
9.6457150623
 30
0.0
 40
0.2083333333
 41
0.0
 71
     1
 72
     1
  1
5
  7
SLDTEXTSTYLE0
 73
     1
 44
1.0
  0
MTEXT
  5
193
330
180
100
AcDbEntity
  8
DEFAULT
 62
     7
100
AcDbMText
 10
7.5585079441
 20
9.3620345103
 30
0.0
 40
0.2083333333
 41
0.0
 71
     1
 72
     1
  1
8
  7
SLDTEXTSTYLE0
 73
     1
 44
1.0
  0
MTEXT
  5
194
330
180
100
AcDbEntity
  8
DEFAULT
 62
     7
100
AcDbMText
 10
7.7718567128
 20
9.5037831153
 30
0.0
 40
0.2083333333
 41
0.0
 71
     1
 72
     1
  1
"
  7
SLDTEXTSTYLE0
 73
     1
 44
1.0
  0
MTEXT
  5
195
330
180
100
AcDbEntity
  8
DEFAULT
 62
     7
100
AcDbMText
 10
7.0291870005
 20
9.005167217
 30
0.0
 40
0.2083333333
 41
0.0
 71
     1
 72
     1
  1
117.1mm
  7
SLDTEXTSTYLE0
 73
     1
 44
1.0
  0
MTEXT
  5
196
330
180
100
AcDbEntity
  8
DEFAULT
 62
     7
100
AcDbMText
 10
8.4036081589
 20
9.5037831153
 30
0.0
 40
0.2083333333
 41
0.0
 71
     1
 72
     1
  1

  7
SLDTEXTSTYLE0
 73
     1
 44
1.0
  0
ENDBLK
  5
182
330
180
100
AcDbEntity
  8
0
100
AcDbBlockEnd
  0
BLOCK
  5
19A
330
199
100
AcDbEntity
  8
0
100
AcDbBlockBegin
  2
_D_1
 70
     0
 10
0.0
 20
0.0
 30
0.0
  3
_D_1
  1

  0
SOLID
  5
19C
330
199
100
AcDbEntity
  8
DEFAULT
 62
     7
100
AcDbTrace
 10
11.368856918
 20
12.3726821192
 30
0.0
 11
11.328856918
 21
12.1126821192
 31
0.0
 12
11.408856918
 22
12.1126821192
 32
0.0
 13
11.408856918
 23
12.1126821192
 33
0.0
  0
SOLID
  5
19D
330
199
100
AcDbEntity
  8
DEFAULT
 62
     7
100
AcDbTrace
 10
11.368856918
 20
10.1226821192
 30
0.0
 11
11.408856918
 21
10.3826821192
 31
0.0
 12
11.328856918
 22
10.3826821192
 32
0.0
 13
11.328856918
 23
10.3826821192
 33
0.0
  0
LINE
  5
19E
330
199
100
AcDbEntity
  8
DEFAULT
 62
     7
100
AcDbLine
 10
11.2899603661
 20
11.4699236664
 30
0.0
 11
11.5033091348
 21
11.4699236664
 31
0.0
  0
LINE
  5
19F
330
199
100
AcDbEntity
  8
DEFAULT
 62
     7
100
AcDbLine
 10
10.8673137519
 20
11.1222384683
 30
0.0
 11
10.7978693083
 21
11.1222384683
 31
0.0
  0
LINE
  5
1A0
330
199
100
AcDbEntity
  8
DEFAULT
 62
     7
100
AcDbLine
 10
10.7978693083
 20
11.1222384683
 30
0.0
 11
10.7978693083
 21
10.8116674694
 31
0.0
  0
LINE
  5
1A1
330
199
100
AcDbEntity
  8
DEFAULT
 62
     7
100
AcDbLine
 10
10.7978693083
 20
10.8116674694
 30
0.0
 11
10.8673137519
 21
10.8116674694
 31
0.0
  0
LINE
  5
1A2
330
199
100
AcDbEntity
  8
DEFAULT
 62
     7
100
AcDbLine
 10
11.8704002308
 20
11.1222384683
 30
0.0
 11
11.9398446744
 21
11.1222384683
 31
0.0
  0
LINE
  5
1A3
330
199
100
AcDbEntity
  8
DEFAULT
 62
     7
100
AcDbLine
 10
11.9398446744
 20
11.1222384683
 30
0.0
 11
11.9398446744
 21
10.8116674694
 31
0.0
  0
LINE
  5
1A4
330
199
100
AcDbEntity
  8
DEFAULT
 62
     7
100
AcDbLine
 10
11.9398446744
 20
10.8116674694
 30
0.0
 11
11.8704002308
 21
10.8116674694
 31
0.0
  0
LINE
  5
1A5
330
199
100
AcDbEntity
  8
DEFAULT
 62
     7
100
AcDbLine
 10
9.6588906086
 20
12.3726821192
 30
0.0
 11
11.618856918
 21
12.3726821192
 31
0.0
  0
LINE
  5
1A6
330
199
100
AcDbEntity
  8
DEFAULT
 62
     7
100
AcDbLine
 10
10.0128906086
 20
10.1226821192
 30
0.0
 11
11.618856918
 21
10.1226821192
 31
0.0
  0
LINE
  5
1A7
330
199
100
AcDbEntity
  8
DEFAULT
 62
     7
100
AcDbLine
 10
11.368856918
 20
12.3726821192
 30
0.0
 11
11.368856918
 21
11.7299931075
 31
0.0
  0
LINE
  5
1A8
330
199
100
AcDbEntity
  8
DEFAULT
 62
     7
100
AcDbLine
 10
11.368856918
 20
10.1226821192
 30
0.0
 11
11.368856918
 21
10.7653711309
 31
0.0
  0
MTEXT
  5
1A9
330
199
100
AcDbEntity
  8
DEFAULT
 62
     7
100
AcDbMText
 10
10.7293893677
 20
11.5788391606
 30
0.0
 40
0.2083333333
 41
0.0
 71
     1
 72
     1
  1

  7
SLDTEXTSTYLE0
 73
     1
 44
1.0
  0
MTEXT
  5
1AA
330
199
100
AcDbEntity
  8
DEFAULT
 62
     7
100
AcDbMText
 10
11.1061254848
 20
11.5788391606
 30
0.0
 40
0.2083333333
 41
0.0
 71
     1
 72
     1
  1
2
  7
SLDTEXTSTYLE0
 73
     1
 44
1.0
  0
MTEXT
  5
1AB
330
199
100
AcDbEntity
  8
DEFAULT
 62
     7
100
AcDbMText
 10
11.3194742535
 20
11.7207711076
 30
0.0
 40
0.2083333333
 41
0.0
 71
     1
 72
     1
  1
1
  7
SLDTEXTSTYLE0
 73
     1
 44
1.0
  0
MTEXT
  5
1AC
330
199
100
AcDbEntity
  8
DEFAULT
 62
     7
100
AcDbMText
 10
11.3194742535
 20
11.4370905556
 30
0.0
 40
0.2083333333
 41
0.0
 71
     1
 72
     1
  1
4
  7
SLDTEXTSTYLE0
 73
     1
 44
1.0
  0
MTEXT
  5
1AD
330
199
100
AcDbEntity
  8
DEFAULT
 62
     7
100
AcDbMText
 10
11.5328230222
 20
11.5788391606
 30
0.0
 40
0.2083333333
 41
0.0
 71
     1
 72
     1
  1
"
  7
SLDTEXTSTYLE0
 73
     1
 44
1.0
  0
MTEXT
  5
1AE
330
199
100
AcDbEntity
  8
DEFAULT
 62
     7
100
AcDbMText
 10
10.8673137519
 20
11.0802232623
 30
0.0
 40
0.2083333333
 41
0.0
 71
     1
 72
     1
  1
57.2mm
  7
SLDTEXTSTYLE0
 73
     1
 44
1.0
  0
MTEXT
  5
1AF
330
199
100
AcDbEntity
  8
DEFAULT
 62
     7
100
AcDbMText
 10
12.0874140264
 20
11.5788391606
 30
0.0
 40
0.2083333333
 41
0.0
 71
     1
 72
     1
  1

  7
SLDTEXTSTYLE0
 73
     1
 44
1.0
  0
ENDBLK
  5
19B
330
199
100
AcDbEntity
  8
0
100
AcDbBlockEnd
  0
ENDSEC
  0
SECTION
  2
ENTITIES
  0
VIEWPORT
  5
69
330
1B
100
AcDbEntity
 67
     1
  8
0
100
AcDbViewport
 10
8.5
 20
11.0
 30
0.0
 40
17.986
 41
23.276
 68
     1
 69
     1
 12
8.5
 22
11.0
 13
0.0
 23
0.0
 14
0.5
 24
0.5
 15
0.5
 25
0.5
 16
0.0
 26
0.0
 36
1.0
 17
0.0
 27
0.0
 37
0.0
 42
50.0
 43
0.0
 44
0.0
 45
23.276
 50
0.0
 51
0.0
 72
   100
 90
   557152
  1

281
     0
 71
     1
 74
     0
110
0.0
120
0.0
130
0.0
111
1.0
121
0.0
131
0.0
112
0.0
122
1.0
132
0.0
 79
     0
146
0.0
  0
CIRCLE
  5
6B
330
1B
100
AcDbEntity
 67
     1
  8
0
  6
Continuous
 62
     7
370
    25
100
AcDbCircle
 10
9.6291406086
 20
11.1851821192
 30
0.0
 40
0.1344999999999994
  0
CIRCLE
  5
6C
330
1B
100
AcDbEntity
 67
     1
  8
0
  6
Continuous
 62
     7
370
    25
100
AcDbCircle
 10
9.4368906086
 20
12.1906821192
 30
0.0
 40
0.134499999999997
  0
CIRCLE
  5
6D
330
1B
100
AcDbEntity
 67
     1
  8
0
  6
Continuous
 62
     7
370
    25
100
AcDbCircle
 10
5.8166406086
 20
11.1851821192
 30
0.0
 40
0.1345
  0
LINE
  5
6E
330
1B
100
AcDbEntity
 67
     1
  8
0
  6
Continuous
 62
     7
370
    25
100
AcDbLine
 10
8.5196406086
 20
10.9776821192
 30
0.0
 11
8.5196406086
 21
10.9765931901
 31
0.0
  0
LINE
  5
6F
330
1B
100
AcDbEntity
 67
     1
  8
0
  6
Continuous
 62
     7
370
    25
100
AcDbLine
 10
8.7176406086
 20
10.9776821192
 30
0.0
 11
8.7176406086
 21
10.9765931901
 31
0.0
  0
LINE
  5
70
330
1B
100
AcDbEntity
 67
     1
  8
0
  6
Continuous
 62
     7
370
    25
100
AcDbLine
 10
6.9776406086
 20
10.9776821192
 30
0.0
 11
6.9776406086
 21
10.9765931901
 31
0.0
  0
LINE
  5
71
330
1B
100
AcDbEntity
 67
     1
  8
0
  6
Continuous
 62
     7
370
    25
100
AcDbLine
 10
7.1756406086
 20
10.9776821192
 30
0.0
 11
7.1756406086
 21
10.9765931901
 31
0.0
  0
LINE
  5
72
330
1B
100
AcDbEntity
 67
     1
  8
0
  6
Continuous
 62
     7
370
    25
100
AcDbLine
 10
6.5136406086
 20
11.0958415855
 30
0.0
 11
6.5136406086
 21
11.0814321192
 31
0.0
  0
LINE
  5
73
330
1B
100
AcDbEntity
 67
     1
  8
0
  6
Continuous
 62
     7
370
    25
100
AcDbLine
 10
6.5136406086
 20
11.2889321192
 30
0.0
 11
6.5136406086
 21
11.2747536118
 31
0.0
  0
LINE
  5
74
330
1B
100
AcDbEntity
 67
     1
  8
0
  6
Continuous
 62
     7
370
    25
100
AcDbLine
 10
8.7176406086
 20
11.3926821192
 30
0.0
 11
8.7176406086
 21
11.3937710483
 31
0.0
  0
LINE
  5
75
330
1B
100
AcDbEntity
 67
     1
  8
0
  6
Continuous
 62
     7
370
    25
100
AcDbLine
 10
8.5196406086
 20
11.3926821192
 30
0.0
 11
8.5196406086
 21
11.3937710483
 31
0.0
  0
LINE
  5
76
330
1B
100
AcDbEntity
 67
     1
  8
0
  6
Continuous
 62
     7
370
    25
100
AcDbLine
 10
7.1756406086
 20
11.3926821192
 30
0.0
 11
7.1756406086
 21
11.3937710483
 31
0.0
  0
LINE
  5
77
330
1B
100
AcDbEntity
 67
     1
  8
0
  6
Continuous
 62
     7
370
    25
100
AcDbLine
 10
6.9776406086
 20
11.3926821192
 30
0.0
 11
6.9776406086
 21
11.3937710483
 31
0.0
  0
LINE
  5
78
330
1B
100
AcDbEntity
 67
     1
  8
0
  6
Continuous
 62
     7
370
    25
100
AcDbLine
 10
8.0553000749
 20
11.0901821192
 30
0.0
 11
8.0398906086
 21
11.0901821192
 31
0.0
  0
CIRCLE
  5
79
330
1B
100
AcDbEntity
 67
     1
  8
0
  6
Continuous
 62
     7
370
    25
100
AcDbCircle
 10
9.6291406086
 20
11.1851821192
 30
0.0
 40
0.1124086086241594
  0
SPLINE
  5
7A
330
1B
100
AcDbEntity
 67
     1
  8
0
  6
Continuous
 62
     7
370
    25
100
AcDbSpline
210
0.0
220
0.0
230
1.0
 70
    24
 71
     3
 72
     9
 73
     5
 74
     0
 42
0.00000001
 43
0.00000001
 40
0.0
 40
0.0
 40
0.0
 40
0.0
 40
0.2827554713265588
 40
1.0
 40
1.0
 40
1.0
 40
1.0
 10
9.606793347062746
 20
11.16240933057381
 30
0.0
 10
9.601033496269462
 20
11.1610430238808
 30
0.0
 10
9.580663065358749
 20
11.15621090980499
 30
0.0
 10
9.560806184784905
 20
11.15150061611788
 30
0.0
 10
9.546563945836793
 20
11.14812218374236
 30
0.0
  0
LINE
  5
7B
330
1B
100
AcDbEntity
 67
     1
  8
0
  6
Continuous
 62
     7
370
    25
100
AcDbLine
 10
9.618831415
 20
11.154987409
 30
0.0
 11
9.6067933471
 21
11.1624093306
 31
0.0
  0
SPLINE
  5
7C
330
1B
100
AcDbEntity
 67
     1
  8
0
  6
Continuous
 62
     7
370
    25
100
AcDbSpline
210
0.0
220
0.0
230
1.0
 70
    24
 71
     3
 72
     9
 73
     5
 74
     0
 42
0.00000001
 43
0.00000001
 40
0.0
 40
0.0
 40
0.0
 40
0.0
 40
0.717244528673474
 40
1.0
 40
1.0
 40
1.0
 40
1.0
 10
9.633118561822469
 20
11.09475800772645
 30
0.0
 10
9.629740129446946
 20
11.10900024667456
 30
0.0
 10
9.625029835759838
 20
11.1288571272484
 30
0.0
 10
9.620197721684029
 20
11.14922755815912
 30
0.0
 10
9.618831414991021
 20
11.15498740895241
 30
0.0
  0
LINE
  5
7D
330
1B
100
AcDbEntity
 67
     1
  8
0
  6
Continuous
 62
     7
370
    25
100
AcDbLine
 10
9.6662005441
 20
11.1026054564
 30
0.0
 11
9.6331185618
 21
11.0947580077
 31
0.0
  0
SPLINE
  5
7E
330
1B
100
AcDbEntity
 67
     1
  8
0
  6
Continuous
 62
     7
370
    25
100
AcDbSpline
210
0.0
220
0.0
230
1.0
 70
    24
 71
     3
 72
     9
 73
     5
 74
     0
 42
0.00000001
 43
0.00000001
 40
0.0
 40
0.0
 40
0.0
 40
0.0
 40
0.2827554713265849
 40
1.0
 40
1.0
 40
1.0
 40
1.0
 10
9.651913397225474
 20
11.1628348576741
 30
0.0
 10
9.65327970391848
 20
11.15707500688081
 30
0.0
 10
9.65811181799428
 20
11.1367045759701
 30
0.0
 10
9.662822111681393
 20
11.11684769539626
 30
0.0
 10
9.666200544056917
 20
11.10260545644815
 30
0.0
  0
LINE
  5
7F
330
1B
100
AcDbEntity
 67
     1
  8
0
  6
Continuous
 62
     7
370
    25
100
AcDbLine
 10
9.6593353188
 20
11.1748729256
 30
0.0
 11
9.6519133972
 21
11.1628348577
 31
0.0
  0
SPLINE
  5
80
330
1B
100
AcDbEntity
 67
     1
  8
0
  6
Continuous
 62
     7
370
    25
100
AcDbSpline
210
0.0
220
0.0
230
1.0
 70
    24
 71
     3
 72
     9
 73
     5
 74
     0
 42
0.00000001
 43
0.00000001
 40
0.0
 40
0.0
 40
0.0
 40
0.0
 40
0.717244528673498
 40
1.0
 40
1.0
 40
1.0
 40
1.0
 10
9.719564720072825
 20
11.18916007243382
 30
0.0
 10
9.705322481124714
 20
11.18578164005829
 30
0.0
 10
9.685465600550874
 20
11.18107134637119
 30
0.0
 10
9.665095169640155
 20
11.17623923229538
 30
0.0
 10
9.659335318846873
 20
11.17487292560237
 30
0.0
  0
LINE
  5
81
330
1B
100
AcDbEntity
 67
     1
  8
0
  6
Continuous
 62
     7
370
    25
100
AcDbLine
 10
9.7117172714
 20
11.2222420547
 30
0.0
 11
9.7195647201
 21
11.1891600724
 31
0.0
  0
SPLINE
  5
82
330
1B
100
AcDbEntity
 67
     1
  8
0
  6
Continuous
 62
     7
370
    25
100
AcDbSpline
210
0.0
220
0.0
230
1.0
 70
    24
 71
     3
 72
     9
 73
     5
 74
     0
 42
0.00000001
 43
0.00000001
 40
0.0
 40
0.0
 40
0.0
 40
0.0
 40
0.28275547132655
 40
1.0
 40
1.0
 40
1.0
 40
1.0
 10
9.65148787012518
 20
11.20795490783682
 30
0.0
 10
9.657247720918464
 20
11.20932121452983
 30
0.0
 10
9.677618151829178
 20
11.21415332860563
 30
0.0
 10
9.697475032403021
 20
11.21886362229274
 30
0.0
 10
9.711717271351134
 20
11.22224205466827
 30
0.0
  0
LINE
  5
83
330
1B
100
AcDbEntity
 67
     1
  8
0
  6
Continuous
 62
     7
370
    25
100
AcDbLine
 10
9.6394498022
 20
11.2153768295
 30
0.0
 11
9.6514878701
 21
11.2079549078
 31
0.0
  0
SPLINE
  5
84
330
1B
100
AcDbEntity
 67
     1
  8
0
  6
Continuous
 62
     7
370
    25
100
AcDbSpline
210
0.0
220
0.0
230
1.0
 70
    24
 71
     3
 72
     9
 73
     5
 74
     0
 42
0.00000001
 43
0.00000001
 40
0.0
 40
0.0
 40
0.0
 40
0.0
 40
0.7172445286734725
 40
1.0
 40
1.0
 40
1.0
 40
1.0
 10
9.625162655365461
 20
11.27560623068418
 30
0.0
 10
9.628541087740983
 20
11.26136399173607
 30
0.0
 10
9.633251381428092
 20
11.24150711116222
 30
0.0
 10
9.638083495503897
 20
11.22113668025151
 30
0.0
 10
9.639449802196905
 20
11.21537682945822
 30
0.0
  0
LINE
  5
85
330
1B
100
AcDbEntity
 67
     1
  8
0
  6
Continuous
 62
     7
370
    25
100
AcDbLine
 10
9.5920806731
 20
11.267758782
 30
0.0
 11
9.6251626554
 21
11.2756062307
 31
0.0
  0
SPLINE
  5
86
330
1B
100
AcDbEntity
 67
     1
  8
0
  6
Continuous
 62
     7
370
    25
100
AcDbSpline
210
0.0
220
0.0
230
1.0
 70
    24
 71
     3
 72
     9
 73
     5
 74
     0
 42
0.00000001
 43
0.00000001
 40
0.0
 40
0.0
 40
0.0
 40
0.0
 40
0.282755471332832
 40
0.9999999999999999
 40
0.9999999999999999
 40
0.9999999999999999
 40
0.9999999999999999
 10
9.606367819962038
 20
11.20752938073586
 30
0.0
 10
9.605001513269192
 20
11.21328923152937
 30
0.0
 10
9.600169399194076
 20
11.23365966244046
 30
0.0
 10
9.595459105506697
 20
11.25351654301442
 30
0.0
 10
9.592080673131012
 20
11.26775878196248
 30
0.0
  0
LINE
  5
87
330
1B
100
AcDbEntity
 67
     1
  8
0
  6
Continuous
 62
     7
370
    25
100
AcDbLine
 10
9.5989458983
 20
11.1954913128
 30
0.0
 11
9.60636782
 21
11.2075293807
 31
0.0
  0
SPLINE
  5
88
330
1B
100
AcDbEntity
 67
     1
  8
0
  6
Continuous
 62
     7
370
    25
100
AcDbSpline
210
0.0
220
0.0
230
1.0
 70
    24
 71
     3
 72
     9
 73
     5
 74
     0
 42
0.00000001
 43
0.00000001
 40
0.0
 40
0.0
 40
0.0
 40
0.0
 40
0.7172445286735254
 40
1.0
 40
1.0
 40
1.0
 40
1.0
 10
9.538716497115102
 20
11.18120416597681
 30
0.0
 10
9.552958736063212
 20
11.18458259835233
 30
0.0
 10
9.572815616637051
 20
11.18929289203944
 30
0.0
 10
9.59318604754777
 20
11.19412500611524
 30
0.0
 10
9.598945898341054
 20
11.19549131280826
 30
0.0
  0
LINE
  5
89
330
1B
100
AcDbEntity
 67
     1
  8
0
  6
Continuous
 62
     7
370
    25
100
AcDbLine
 10
9.5465639458
 20
11.1481221837
 30
0.0
 11
9.5387164971
 21
11.181204166
 31
0.0
  0
LINE
  5
8A
330
1B
100
AcDbEntity
 67
     1
  8
0
  6
Continuous
 62
     7
370
    25
100
AcDbLine
 10
9.6264480564
 20
11.1228784262
 30
0.0
 11
9.6595300386
 21
11.1307258749
 31
0.0
  0
LINE
  5
8B
330
1B
100
AcDbEntity
 67
     1
  8
0
  6
Continuous
 62
     7
370
    25
100
AcDbLine
 10
9.6318331608
 20
11.2474858122
 30
0.0
 11
9.5987511786
 21
11.2396383635
 31
0.0
  0
LINE
  5
8C
330
1B
100
AcDbEntity
 67
     1
  8
0
  6
Continuous
 62
     7
370
    25
100
AcDbLine
 10
9.5668369156
 20
11.1878746714
 30
0.0
 11
9.5746843643
 21
11.1547926892
 31
0.0
  0
LINE
  5
8D
330
1B
100
AcDbEntity
 67
     1
  8
0
  6
Continuous
 62
     7
370
    25
100
AcDbLine
 10
9.6914443016
 20
11.182489567
 30
0.0
 11
9.6835968529
 21
11.2155715492
 31
0.0
  0
CIRCLE
  5
8E
330
1B
100
AcDbEntity
 67
     1
  8
0
  6
Continuous
 62
     7
370
    25
100
AcDbCircle
 10
9.4368906086
 20
12.1906821192
 30
0.0
 40
0.1124086086241593
  0
SPLINE
  5
8F
330
1B
100
AcDbEntity
 67
     1
  8
0
  6
Continuous
 62
     7
370
    25
100
AcDbSpline
210
0.0
220
0.0
230
1.0
 70
    24
 71
     3
 72
     9
 73
     5
 74
     0
 42
0.00000001
 43
0.00000001
 40
0.0
 40
0.0
 40
0.0
 40
0.0
 40
0.2827554713265581
 40
1.0
 40
1.0
 40
1.0
 40
1.0
 10
9.41976626034636
 20
12.21760342484035
 30
0.0
 10
9.419738957647308
 20
12.22352304726943
 30
0.0
 10
9.419642398245905
 20
12.24445853050272
 30
0.0
 10
9.419548273162821
 20
12.26486621810352
 30
0.0
 10
9.419480762461967
 20
12.27950352037806
 30
0.0
  0
LINE
  5
90
330
1B
100
AcDbEntity
 67
     1
  8
0
  6
Continuous
 62
     7
370
    25
100
AcDbLine
 10
9.4098124886
 20
12.2075574093
 30
0.0
 11
9.4197662603
 21
12.2176034248
 31
0.0
  0
SPLINE
  5
91
330
1B
100
AcDbEntity
 67
     1
  8
0
  6
Continuous
 62
     7
370
    25
100
AcDbSpline
210
0.0
220
0.0
230
1.0
 70
    24
 71
     3
 72
     9
 73
     5
 74
     0
 42
0.00000001
 43
0.00000001
 40
0.0
 40
0.0
 40
0.0
 40
0.0
 40
0.7172445286734747
 40
1.0
 40
1.0
 40
1.0
 40
1.0
 10
9.347912393045725
 20
12.20727191144274
 30
0.0
 10
9.362549695320268
 20
12.20733942214359
 30
0.0
 10
9.382957382921058
 20
12.20743354722668
 30
0.0
 10
9.40389286615436
 20
12.20753010662808
 30
0.0
 10
9.40981248858344
 20
12.20755740932714
 30
0.0
  0
LINE
  5
92
330
1B
100
AcDbEntity
 67
     1
  8
0
  6
Continuous
 62
     7
370
    25
100
AcDbLine
 10
9.3480692074
 20
12.1732722731
 30
0.0
 11
9.347912393
 21
12.2072719114
 31
0.0
  0
SPLINE
  5
93
330
1B
100
AcDbEntity
 67
     1
  8
0
  6
Continuous
 62
     7
370
    25
100
AcDbSpline
210
0.0
220
0.0
230
1.0
 70
    24
 71
     3
 72
     9
 73
     5
 74
     0
 42
0.00000001
 43
0.00000001
 40
0.0
 40
0.0
 40
0.0
 40
0.0
 40
0.2827554713265844
 40
0.9999999999999999
 40
0.9999999999999999
 40
0.9999999999999999
 40
0.9999999999999999
 10
9.409969302958933
 20
12.17355777095771
 30
0.0
 10
9.404049680529852
 20
12.17353046825866
 30
0.0
 10
9.383114197296553
 20
12.17343390885726
 30
0.0
 10
9.362706509695764
 20
12.17333978377417
 30
0.0
 10
9.34806920742122
 20
12.17327227307331
 30
0.0
  0
LINE
  5
94
330
1B
100
AcDbEntity
 67
     1
  8
0
  6
Continuous
 62
     7
370
    25
100
AcDbLine
 10
9.4200153185
 20
12.1636039992
 30
0.0
 11
9.409969303
 21
12.173557771
 31
0.0
  0
SPLINE
  5
95
330
1B
100
AcDbEntity
 67
     1
  8
0
  6
Continuous
 62
     7
370
    25
100
AcDbSpline
210
0.0
220
0.0
230
1.0
 70
    24
 71
     3
 72
     9
 73
     5
 74
     0
 42
0.00000001
 43
0.00000001
 40
0.0
 40
0.0
 40
0.0
 40
0.0
 40
0.717244528673497
 40
0.9999999999999999
 40
0.9999999999999999
 40
0.9999999999999999
 40
0.9999999999999999
 10
9.420300816356537
 20
12.10170390365708
 30
0.0
 10
9.420233305655685
 20
12.11634120593162
 30
0.0
 10
9.420139180572603
 20
12.13674889353241
 30
0.0
 10
9.420042621171199
 20
12.15768437676571
 30
0.0
 10
9.420015318472144
 20
12.16360399919479
 30
0.0
  0
LINE
  5
96
330
1B
100
AcDbEntity
 67
     1
  8
0
  6
Continuous
 62
     7
370
    25
100
AcDbLine
 10
9.4543004547
 20
12.101860718
 30
0.0
 11
9.4203008164
 21
12.1017039037
 31
0.0
  0
SPLINE
  5
97
330
1B
100
AcDbEntity
 67
     1
  8
0
  6
Continuous
 62
     7
370
    25
100
AcDbSpline
210
0.0
220
0.0
230
1.0
 70
    24
 71
     3
 72
     9
 73
     5
 74
     0
 42
0.00000001
 43
0.00000001
 40
0.0
 40
0.0
 40
0.0
 40
0.0
 40
0.2827554713265499
 40
1.0
 40
1.0
 40
1.0
 40
1.0
 10
9.454014956841569
 20
12.16376081357028
 30
0.0
 10
9.454042259540623
 20
12.1578411911412
 30
0.0
 10
9.454138818942024
 20
12.1369057079079
 30
0.0
 10
9.454232944025108
 20
12.11649802030711
 30
0.0
 10
9.454300454725962
 20
12.10186071803257
 30
0.0
  0
LINE
  5
98
330
1B
100
AcDbEntity
 67
     1
  8
0
  6
Continuous
 62
     7
370
    25
100
AcDbLine
 10
9.4639687286
 20
12.1738068291
 30
0.0
 11
9.4540149568
 21
12.1637608136
 31
0.0
  0
SPLINE
  5
99
330
1B
100
AcDbEntity
 67
     1
  8
0
  6
Continuous
 62
     7
370
    25
100
AcDbSpline
210
0.0
220
0.0
230
1.0
 70
    24
 71
     3
 72
     9
 73
     5
 74
     0
 42
0.00000001
 43
0.00000001
 40
0.0
 40
0.0
 40
0.0
 40
0.0
 40
0.7172445286734731
 40
1.0
 40
1.0
 40
1.0
 40
1.0
 10
9.525868824142204
 20
12.17409232696789
 30
0.0
 10
9.51123152186766
 20
12.17402481626703
 30
0.0
 10
9.490823834266873
 20
12.17393069118395
 30
0.0
 10
9.469888351033571
 20
12.17383413178255
 30
0.0
 10
9.463968728604488
 20
12.17380682908349
 30
0.0
  0
LINE
  5
9A
330
1B
100
AcDbEntity
 67
     1
  8
0
  6
Continuous
 62
     7
370
    25
100
AcDbLine
 10
9.5257120098
 20
12.2080919653
 30
0.0
 11
9.5258688241
 21
12.174092327
 31
0.0
  0
SPLINE
  5
9B
330
1B
100
AcDbEntity
 67
     1
  8
0
  6
Continuous
 62
     7
370
    25
100
AcDbSpline
210
0.0
220
0.0
230
1.0
 70
    24
 71
     3
 72
     9
 73
     5
 74
     0
 42
0.00000001
 43
0.00000001
 40
0.0
 40
0.0
 40
0.0
 40
0.0
 40
0.2827554713328333
 40
0.9999999999999999
 40
0.9999999999999999
 40
0.9999999999999999
 40
0.9999999999999999
 10
9.463811914228435
 20
12.20780646745348
 30
0.0
 10
9.469731536657706
 20
12.20783377015232
 30
0.0
 10
9.490667019891209
 20
12.20793032955297
 30
0.0
 10
9.51107470749217
 20
12.20802445463629
 30
0.0
 10
9.52571200976671
 20
12.20809196533731
 30
0.0
  0
LINE
  5
9C
330
1B
100
AcDbEntity
 67
     1
  8
0
  6
Continuous
 62
     7
370
    25
100
AcDbLine
 10
9.4537658987
 20
12.2177602392
 30
0.0
 11
9.4638119142
 21
12.2078064675
 31
0.0
  0
SPLINE
  5
9D
330
1B
100
AcDbEntity
 67
     1
  8
0
  6
Continuous
 62
     7
370
    25
100
AcDbSpline
210
0.0
220
0.0
230
1.0
 70
    24
 71
     3
 72
     9
 73
     5
 74
     0
 42
0.00000001
 43
0.00000001
 40
0.0
 40
0.0
 40
0.0
 40
0.0
 40
0.7172445286735261
 40
1.0
 40
1.0
 40
1.0
 40
1.0
 10
9.453480400831394
 20
12.27966033475355
 30
0.0
 10
9.453547911532246
 20
12.26502303247901
 30
0.0
 10
9.453642036615328
 20
12.24461534487823
 30
0.0
 10
9.453738596016732
 20
12.22367986164492
 30
0.0
 10
9.453765898715787
 20
12.21776023921584
 30
0.0
  0
LINE
  5
9E
330
1B
100
AcDbEntity
 67
     1
  8
0
  6
Continuous
 62
     7
370
    25
100
AcDbLine
 10
9.4194807625
 20
12.2795035204
 30
0.0
 11
9.4534804008
 21
12.2796603348
 31
0.0
  0
LINE
  5
9F
330
1B
100
AcDbEntity
 67
     1
  8
0
  6
Continuous
 62
     7
370
    25
100
AcDbLine
 10
9.3768128396
 20
12.2074052071
 30
0.0
 11
9.376969654
 21
12.1734055688
 31
0.0
  0
LINE
  5
A0
330
1B
100
AcDbEntity
 67
     1
  8
0
  6
Continuous
 62
     7
370
    25
100
AcDbLine
 10
9.4969683776
 20
12.1739590313
 30
0.0
 11
9.4968115632
 21
12.2079586696
 31
0.0
  0
LINE
  5
A1
330
1B
100
AcDbEntity
 67
     1
  8
0
  6
Continuous
 62
     7
370
    25
100
AcDbLine
 10
9.4536136965
 20
12.2507598882
 30
0.0
 11
9.4196140582
 21
12.2506030738
 31
0.0
  0
LINE
  5
A2
330
1B
100
AcDbEntity
 67
     1
  8
0
  6
Continuous
 62
     7
370
    25
100
AcDbLine
 10
9.4201675207
 20
12.1306043502
 30
0.0
 11
9.454167159
 21
12.1307611646
 31
0.0
  0
CIRCLE
  5
A3
330
1B
100
AcDbEntity
 67
     1
  8
0
  6
Continuous
 62
     7
370
    25
100
AcDbCircle
 10
5.8166406086
 20
11.1851821192
 30
0.0
 40
0.1124086086241595
  0
SPLINE
  5
A4
330
1B
100
AcDbEntity
 67
     1
  8
0
  6
Continuous
 62
     7
370
    25
100
AcDbSpline
210
0.0
220
0.0
230
1.0
 70
    24
 71
     3
 72
     9
 73
     5
 74
     0
 42
0.00000001
 43
0.00000001
 40
0.0
 40
0.0
 40
0.0
 40
0.0
 40
0.2827554713265569
 40
0.9999999999999999
 40
0.9999999999999999
 40
0.9999999999999999
 40
0.9999999999999999
 10
5.784969553709666
 20
11.18904790276311
 30
0.0
 10
5.780379179835557
 20
11.19278570195999
 30
0.0
 10
5.764144749949645
 20
11.20600489513541
 30
0.0
 10
5.748319599424262
 20
11.21889082481051
 30
0.0
 10
5.736969096794495
 20
11.22813318736685
 30
0.0
  0
LINE
  5
A5
330
1B
100
AcDbEntity
 67
     1
  8
0
  6
Continuous
 62
     7
370
    25
100
AcDbLine
 10
5.7864097902
 20
11.1749792952
 30
0.0
 11
5.7849695537
 21
11.1890479028
 31
0.0
  0
SPLINE
  5
A6
330
1B
100
AcDbEntity
 67
     1
  8
0
  6
Continuous
 62
     7
370
    25
100
AcDbSpline
210
0.0
220
0.0
230
1.0
 70
    24
 71
     3
 72
     9
 73
     5
 74
     0
 42
0.00000001
 43
0.00000001
 40
0.0
 40
0.0
 40
0.0
 40
0.0
 40
0.7172445286734743
 40
1.0
 40
1.0
 40
1.0
 40
1.0
 10
5.747324505572532
 20
11.1269788382793
 30
0.0
 10
5.756566868128869
 20
11.13832934090907
 30
0.0
 10
5.769452797803969
 20
11.15415449143445
 30
0.0
 10
5.782671990979392
 20
11.17038892132037
 30
0.0
 10
5.786409790176265
 20
11.17497929519448
 30
0.0
  0
LINE
  5
A7
330
1B
100
AcDbEntity
 67
     1
  8
0
  6
Continuous
 62
     7
370
    25
100
AcDbLine
 10
5.7736895404
 20
11.1055106074
 30
0.0
 11
5.7473245056
 21
11.1269788383
 31
0.0
  0
SPLINE
  5
A8
330
1B
100
AcDbEntity
 67
     1
  8
0
  6
Continuous
 62
     7
370
    25
100
AcDbSpline
210
0.0
220
0.0
230
1.0
 70
    24
 71
     3
 72
     9
 73
     5
 74
     0
 42
0.00000001
 43
0.00000001
 40
0.0
 40
0.0
 40
0.0
 40
0.0
 40
0.2827554713265844
 40
1.0
 40
1.0
 40
1.0
 40
1.0
 10
5.812774825036168
 20
11.15351106432102
 30
0.0
 10
5.809037025839293
 20
11.14892069044691
 30
0.0
 10
5.795817832663869
 20
11.132686260561
 30
0.0
 10
5.782931902988769
 20
11.11686111003561
 30
0.0
 10
5.773689540432434
 20
11.10551060740584
 30
0.0
  0
LINE
  5
A9
330
1B
100
AcDbEntity
 67
     1
  8
0
  6
Continuous
 62
     7
370
    25
100
AcDbLine
 10
5.8268434326
 20
11.1549513008
 30
0.0
 11
5.812774825
 21
11.1535110643
 31
0.0
  0
SPLINE
  5
AA
330
1B
100
AcDbEntity
 67
     1
  8
0
  6
Continuous
 62
     7
370
    25
100
AcDbSpline
210
0.0
220
0.0
230
1.0
 70
    24
 71
     3
 72
     9
 73
     5
 74
     0
 42
0.00000001
 43
0.00000001
 40
0.0
 40
0.0
 40
0.0
 40
0.0
 40
0.7172445286734969
 40
0.9999999999999999
 40
0.9999999999999999
 40
0.9999999999999999
 40
0.9999999999999999
 10
5.874843889519973
 20
11.11586601618388
 30
0.0
 10
5.863493386890209
 20
11.12510837874022
 30
0.0
 10
5.847668236364829
 20
11.13799430841532
 30
0.0
 10
5.831433806478912
 20
11.15121350159074
 30
0.0
 10
5.826843432604802
 20
11.15495130078761
 30
0.0
  0
LINE
  5
AB
330
1B
100
AcDbEntity
 67
     1
  8
0
  6
Continuous
 62
     7
370
    25
100
AcDbLine
 10
5.8963121204
 20
11.142231051
 30
0.0
 11
5.8748438895
 21
11.1158660162
 31
0.0
  0
SPLINE
  5
AC
330
1B
100
AcDbEntity
 67
     1
  8
0
  6
Continuous
 62
     7
370
    25
100
AcDbSpline
210
0.0
220
0.0
230
1.0
 70
    24
 71
     3
 72
     9
 73
     5
 74
     0
 42
0.00000001
 43
0.00000001
 40
0.0
 40
0.0
 40
0.0
 40
0.0
 40
0.2827554713265488
 40
0.9999999999999999
 40
0.9999999999999999
 40
0.9999999999999999
 40
0.9999999999999999
 10
5.848311663478264
 20
11.18131633564752
 30
0.0
 10
5.852902037352373
 20
11.17757853645064
 30
0.0
 10
5.869136467238282
 20
11.16435934327522
 30
0.0
 10
5.884961617763668
 20
11.15147341360012
 30
0.0
 10
5.896312120393436
 20
11.14223105104378
 30
0.0
  0
LINE
  5
AD
330
1B
100
AcDbEntity
 67
     1
  8
0
  6
Continuous
 62
     7
370
    25
100
AcDbLine
 10
5.846871427
 20
11.1953849432
 30
0.0
 11
5.8483116635
 21
11.1813163356
 31
0.0
  0
SPLINE
  5
AE
330
1B
100
AcDbEntity
 67
     1
  8
0
  6
Continuous
 62
     7
370
    25
100
AcDbSpline
210
0.0
220
0.0
230
1.0
 70
    24
 71
     3
 72
     9
 73
     5
 74
     0
 42
0.00000001
 43
0.00000001
 40
0.0
 40
0.0
 40
0.0
 40
0.0
 40
0.7172445286734738
 40
0.9999999999999999
 40
0.9999999999999999
 40
0.9999999999999999
 40
0.9999999999999999
 10
5.885956711615399
 20
11.24338540013132
 30
0.0
 10
5.876714349059064
 20
11.23203489750156
 30
0.0
 10
5.863828419383966
 20
11.21620974697617
 30
0.0
 10
5.850609226208539
 20
11.19997531709026
 30
0.0
 10
5.846871427011664
 20
11.19538494321615
 30
0.0
  0
LINE
  5
AF
330
1B
100
AcDbEntity
 67
     1
  8
0
  6
Continuous
 62
     7
370
    25
100
AcDbLine
 10
5.8595916768
 20
11.264853631
 30
0.0
 11
5.8859567116
 21
11.2433854001
 31
0.0
  0
SPLINE
  5
B0
330
1B
100
AcDbEntity
 67
     1
  8
0
  6
Continuous
 62
     7
370
    25
100
AcDbSpline
210
0.0
220
0.0
230
1.0
 70
    24
 71
     3
 72
     9
 73
     5
 74
     0
 42
0.00000001
 43
0.00000001
 40
0.0
 40
0.0
 40
0.0
 40
0.0
 40
0.2827554713328324
 40
1.0
 40
1.0
 40
1.0
 40
1.0
 10
5.820506392150977
 20
11.21685317408953
 30
0.0
 10
5.824244191348133
 20
11.22144354796365
 30
0.0
 10
5.837463384524267
 20
11.23767797784925
 30
0.0
 10
5.850349314199294
 20
11.25350312837491
 30
0.0
 10
5.859591676755497
 20
11.26485363100478
 30
0.0
  0
LINE
  5
B1
330
1B
100
AcDbEntity
 67
     1
  8
0
  6
Continuous
 62
     7
370
    25
100
AcDbLine
 10
5.8064377846
 20
11.2154129376
 30
0.0
 11
5.8205063922
 21
11.2168531741
 31
0.0
  0
SPLINE
  5
B2
330
1B
100
AcDbEntity
 67
     1
  8
0
  6
Continuous
 62
     7
370
    25
100
AcDbSpline
210
0.0
220
0.0
230
1.0
 70
    24
 71
     3
 72
     9
 73
     5
 74
     0
 42
0.00000001
 43
0.00000001
 40
0.0
 40
0.0
 40
0.0
 40
0.0
 40
0.7172445286735258
 40
1.0
 40
1.0
 40
1.0
 40
1.0
 10
5.758437327667957
 20
11.25449822222675
 30
0.0
 10
5.769787830297721
 20
11.24525585967041
 30
0.0
 10
5.785612980823101
 20
11.23236992999531
 30
0.0
 10
5.801847410709018
 20
11.21915073681989
 30
0.0
 10
5.806437784583128
 20
11.21541293762301
 30
0.0
  0
LINE
  5
B3
330
1B
100
AcDbEntity
 67
     1
  8
0
  6
Continuous
 62
     7
370
    25
100
AcDbLine
 10
5.7369690968
 20
11.2281331874
 30
0.0
 11
5.7584373277
 21
11.2544982222
 31
0.0
  0
LINE
  5
B4
330
1B
100
AcDbEntity
 67
     1
  8
0
  6
Continuous
 62
     7
370
    25
100
AcDbLine
 10
5.7655729779
 20
11.1493897025
 30
0.0
 11
5.7919380127
 21
11.1279214717
 31
0.0
  0
LINE
  5
B5
330
1B
100
AcDbEntity
 67
     1
  8
0
  6
Continuous
 62
     7
370
    25
100
AcDbLine
 10
5.8677082393
 20
11.2209745359
 30
0.0
 11
5.8413432045
 21
11.2424427667
 31
0.0
  0
LINE
  5
B6
330
1B
100
AcDbEntity
 67
     1
  8
0
  6
Continuous
 62
     7
370
    25
100
AcDbLine
 10
5.7808481919
 20
11.2362497499
 30
0.0
 11
5.7593799611
 21
11.2098847151
 31
0.0
  0
LINE
  5
B7
330
1B
100
AcDbEntity
 67
     1
  8
0
  6
Continuous
 62
     7
370
    25
100
AcDbLine
 10
5.8524330253
 20
11.1341144885
 30
0.0
 11
5.8739012561
 21
11.1604795233
 31
0.0
  0
ARC
  5
B8
330
1B
100
AcDbEntity
 67
     1
  8
0
  6
Continuous
 62
     7
370
    25
100
AcDbCircle
 10
8.9746406086
 20
11.7771821192
 30
0.0
 40
0.060043594437861
100
AcDbArc
 50
0.0
 51
90.0
  0
LINE
  5
B9
330
1B
100
AcDbEntity
 67
     1
  8
0
  6
Continuous
 62
     7
370
    25
100
AcDbLine
 10
9.034684203
 20
11.7771821192
 30
0.0
 11
9.0036853834
 21
11.7771821192
 31
0.0
  0
ARC
  5
BA
330
1B
100
AcDbEntity
 67
     1
  8
0
  6
Continuous
 62
     7
370
    25
100
AcDbCircle
 10
8.9746406086
 20
11.7771821192
 30
0.0
 40
0.0290447748228715
100
AcDbArc
 50
0.0
 51
90.0
  0
LINE
  5
BB
330
1B
100
AcDbEntity
 67
     1
  8
0
  6
Continuous
 62
     7
370
    25
100
AcDbLine
 10
8.9746406086
 20
11.8372257136
 30
0.0
 11
8.9746406086
 21
11.806226894
 31
0.0
  0
ARC
  5
BC
330
1B
100
AcDbEntity
 67
     1
  8
0
  6
Continuous
 62
     7
370
    25
100
AcDbCircle
 10
6.4706406086
 20
10.5931821192
 30
0.0
 40
0.0290447748228715
100
AcDbArc
 50
180.0
 51
270.0
  0
LINE
  5
BD
330
1B
100
AcDbEntity
 67
     1
  8
0
  6
Continuous
 62
     7
370
    25
100
AcDbLine
 10
6.4415958338
 20
11.7771821192
 30
0.0
 11
6.4415958338
 21
10.5931821192
 31
0.0
  0
ARC
  5
BE
330
1B
100
AcDbEntity
 67
     1
  8
0
  6
Continuous
 62
     7
370
    25
100
AcDbCircle
 10
6.4706406086
 20
11.7771821192
 30
0.0
 40
0.0290447748228715
100
AcDbArc
 50
90.0
 51
180.0
  0
LINE
  5
BF
330
1B
100
AcDbEntity
 67
     1
  8
0
  6
Continuous
 62
     7
370
    25
100
AcDbLine
 10
8.9746406086
 20
11.806226894
 30
0.0
 11
6.4706406086
 21
11.806226894
 31
0.0
  0
LINE
  5
C0
330
1B
100
AcDbEntity
 67
     1
  8
0
  6
Continuous
 62
     7
370
    25
100
AcDbLine
 10
9.0036853834
 20
10.5931821192
 30
0.0
 11
9.0036853834
 21
11.7771821192
 31
0.0
  0
ARC
  5
C1
330
1B
100
AcDbEntity
 67
     1
  8
0
  6
Continuous
 62
     7
370
    25
100
AcDbCircle
 10
8.9746406086
 20
10.5931821192
 30
0.0
 40
0.0290447748228715
100
AcDbArc
 50
270.0
 51
0.0
  0
LINE
  5
C2
330
1B
100
AcDbEntity
 67
     1
  8
0
  6
Continuous
 62
     7
370
    25
100
AcDbLine
 10
6.4706406086
 20
10.5641373444
 30
0.0
 11
8.9746406086
 21
10.5641373444
 31
0.0
  0
LINE
  5
C3
330
1B
100
AcDbEntity
 67
     1
  8
0
  6
Continuous
 62
     7
370
    25
100
AcDbLine
 10
6.4888906086
 20
11.3089321193
 30
0.0
 11
6.6126406085
 21
11.3089321192
 31
0.0
  0
LINE
  5
C4
330
1B
100
AcDbEntity
 67
     1
  8
0
  6
Continuous
 62
     7
370
    25
100
AcDbLine
 10
6.4888906086
 20
11.0614321192
 30
0.0
 11
6.4888906086
 21
11.3089321193
 31
0.0
  0
LINE
  5
C5
330
1B
100
AcDbEntity
 67
     1
  8
0
  6
Continuous
 62
     7
370
    25
100
AcDbLine
 10
6.6126406086
 20
11.0614321192
 30
0.0
 11
6.4888906086
 21
11.0614321192
 31
0.0
  0
ARC
  5
C6
330
1B
100
AcDbEntity
 67
     1
  8
0
  6
Continuous
 62
     7
370
    25
100
AcDbCircle
 10
6.6126406086
 20
11.1851821192
 30
0.0
 40
0.1237500000000029
100
AcDbArc
 50
269.9999999856
 51
90.0000000408
  0
LINE
  5
C7
330
1B
100
AcDbEntity
 67
     1
  8
0
  6
Continuous
 62
     7
370
    25
100
AcDbLine
 10
6.9231406086
 20
10.8726821192
 30
0.0
 11
6.9231406086
 21
10.9976821192
 31
0.0
  0
LINE
  5
C8
330
1B
100
AcDbEntity
 67
     1
  8
0
  6
Continuous
 62
     7
370
    25
100
AcDbLine
 10
7.2381406086
 20
10.8726821192
 30
0.0
 11
6.9231406086
 21
10.8726821192
 31
0.0
  0
LINE
  5
C9
330
1B
100
AcDbEntity
 67
     1
  8
0
  6
Continuous
 62
     7
370
    25
100
AcDbLine
 10
7.2381406086
 20
10.9976821192
 30
0.0
 11
7.2381406086
 21
10.8726821192
 31
0.0
  0
LINE
  5
CA
330
1B
100
AcDbEntity
 67
     1
  8
0
  6
Continuous
 62
     7
370
    25
100
AcDbLine
 10
6.9231406086
 20
10.9976821192
 30
0.0
 11
7.2381406086
 21
10.9976821192
 31
0.0
  0
LINE
  5
CB
330
1B
100
AcDbEntity
 67
     1
  8
0
  6
Continuous
 62
     7
370
    25
100
AcDbLine
 10
7.2706406086
 20
11.4976821192
 30
0.0
 11
7.2706406086
 21
11.3726821192
 31
0.0
  0
LINE
  5
CC
330
1B
100
AcDbEntity
 67
     1
  8
0
  6
Continuous
 62
     7
370
    25
100
AcDbLine
 10
7.1431406086
 20
11.4976821192
 30
0.0
 11
7.2706406086
 21
11.4976821192
 31
0.0
  0
LINE
  5
CD
330
1B
100
AcDbEntity
 67
     1
  8
0
  6
Continuous
 62
     7
370
    25
100
AcDbLine
 10
7.1431406086
 20
11.6876821192
 30
0.0
 11
7.1431406086
 21
11.4976821192
 31
0.0
  0
LINE
  5
CE
330
1B
100
AcDbEntity
 67
     1
  8
0
  6
Continuous
 62
     7
370
    25
100
AcDbLine
 10
7.0181406086
 20
11.6876821192
 30
0.0
 11
7.1431406086
 21
11.6876821192
 31
0.0
  0
LINE
  5
CF
330
1B
100
AcDbEntity
 67
     1
  8
0
  6
Continuous
 62
     7
370
    25
100
AcDbLine
 10
7.0181406086
 20
11.4976821192
 30
0.0
 11
7.0181406086
 21
11.6876821192
 31
0.0
  0
LINE
  5
D0
330
1B
100
AcDbEntity
 67
     1
  8
0
  6
Continuous
 62
     7
370
    25
100
AcDbLine
 10
6.8906406086
 20
11.4976821192
 30
0.0
 11
7.0181406086
 21
11.4976821192
 31
0.0
  0
LINE
  5
D1
330
1B
100
AcDbEntity
 67
     1
  8
0
  6
Continuous
 62
     7
370
    25
100
AcDbLine
 10
6.8906406086
 20
11.3726821192
 30
0.0
 11
6.8906406086
 21
11.4976821192
 31
0.0
  0
LINE
  5
D2
330
1B
100
AcDbEntity
 67
     1
  8
0
  6
Continuous
 62
     7
370
    25
100
AcDbLine
 10
7.2706406086
 20
11.3726821192
 30
0.0
 11
6.8906406086
 21
11.3726821192
 31
0.0
  0
LINE
  5
D3
330
1B
100
AcDbEntity
 67
     1
  8
0
  6
Continuous
 62
     7
370
    25
100
AcDbLine
 10
8.0198906086
 20
11.3089321193
 30
0.0
 11
8.1436406085
 21
11.3089321192
 31
0.0
  0
LINE
  5
D4
330
1B
100
AcDbEntity
 67
     1
  8
0
  6
Continuous
 62
     7
370
    25
100
AcDbLine
 10
8.0198906086
 20
11.0614321192
 30
0.0
 11
8.0198906086
 21
11.3089321193
 31
0.0
  0
LINE
  5
D5
330
1B
100
AcDbEntity
 67
     1
  8
0
  6
Continuous
 62
     7
370
    25
100
AcDbLine
 10
8.1436406086
 20
11.0614321192
 30
0.0
 11
8.0198906086
 21
11.0614321192
 31
0.0
  0
ARC
  5
D6
330
1B
100
AcDbEntity
 67
     1
  8
0
  6
Continuous
 62
     7
370
    25
100
AcDbCircle
 10
8.1436406086
 20
11.1851821192
 30
0.0
 40
0.1237499999999994
100
AcDbArc
 50
269.9999999856
 51
90.0000000408
  0
LINE
  5
D7
330
1B
100
AcDbEntity
 67
     1
  8
0
  6
Continuous
 62
     7
370
    25
100
AcDbLine
 10
8.4541406086
 20
10.8726821192
 30
0.0
 11
8.4541406086
 21
10.9976821192
 31
0.0
  0
LINE
  5
D8
330
1B
100
AcDbEntity
 67
     1
  8
0
  6
Continuous
 62
     7
370
    25
100
AcDbLine
 10
8.7691406086
 20
10.8726821192
 30
0.0
 11
8.4541406086
 21
10.8726821192
 31
0.0
  0
LINE
  5
D9
330
1B
100
AcDbEntity
 67
     1
  8
0
  6
Continuous
 62
     7
370
    25
100
AcDbLine
 10
8.7691406086
 20
10.9976821192
 30
0.0
 11
8.7691406086
 21
10.8726821192
 31
0.0
  0
LINE
  5
DA
330
1B
100
AcDbEntity
 67
     1
  8
0
  6
Continuous
 62
     7
370
    25
100
AcDbLine
 10
8.4541406086
 20
10.9976821192
 30
0.0
 11
8.7691406086
 21
10.9976821192
 31
0.0
  0
LINE
  5
DB
330
1B
100
AcDbEntity
 67
     1
  8
0
  6
Continuous
 62
     7
370
    25
100
AcDbLine
 10
8.8016406086
 20
11.4976821192
 30
0.0
 11
8.8016406086
 21
11.3726821192
 31
0.0
  0
LINE
  5
DC
330
1B
100
AcDbEntity
 67
     1
  8
0
  6
Continuous
 62
     7
370
    25
100
AcDbLine
 10
8.6741406086
 20
11.4976821192
 30
0.0
 11
8.8016406086
 21
11.4976821192
 31
0.0
  0
LINE
  5
DD
330
1B
100
AcDbEntity
 67
     1
  8
0
  6
Continuous
 62
     7
370
    25
100
AcDbLine
 10
8.6741406086
 20
11.6876821192
 30
0.0
 11
8.6741406086
 21
11.4976821192
 31
0.0
  0
LINE
  5
DE
330
1B
100
AcDbEntity
 67
     1
  8
0
  6
Continuous
 62
     7
370
    25
100
AcDbLine
 10
8.5491406086
 20
11.6876821192
 30
0.0
 11
8.6741406086
 21
11.6876821192
 31
0.0
  0
LINE
  5
DF
330
1B
100
AcDbEntity
 67
     1
  8
0
  6
Continuous
 62
     7
370
    25
100
AcDbLine
 10
8.5491406086
 20
11.4976821192
 30
0.0
 11
8.5491406086
 21
11.6876821192
 31
0.0
  0
LINE
  5
E0
330
1B
100
AcDbEntity
 67
     1
  8
0
  6
Continuous
 62
     7
370
    25
100
AcDbLine
 10
8.4216406086
 20
11.4976821192
 30
0.0
 11
8.5491406086
 21
11.4976821192
 31
0.0
  0
LINE
  5
E1
330
1B
100
AcDbEntity
 67
     1
  8
0
  6
Continuous
 62
     7
370
    25
100
AcDbLine
 10
8.4216406086
 20
11.3726821192
 30
0.0
 11
8.4216406086
 21
11.4976821192
 31
0.0
  0
LINE
  5
E2
330
1B
100
AcDbEntity
 67
     1
  8
0
  6
Continuous
 62
     7
370
    25
100
AcDbLine
 10
8.8016406086
 20
11.3726821192
 30
0.0
 11
8.4216406086
 21
11.3726821192
 31
0.0
  0
LINE
  5
E3
330
1B
100
AcDbEntity
 67
     1
  8
0
  6
Continuous
 62
     7
370
    25
100
AcDbLine
 10
6.4706406086
 20
11.8372257136
 30
0.0
 11
8.9746406086
 21
11.8372257136
 31
0.0
  0
LINE
  5
E4
330
1B
100
AcDbEntity
 67
     1
  8
0
  6
Continuous
 62
     7
370
    25
100
AcDbLine
 10
6.4706406086
 20
11.8372257136
 30
0.0
 11
6.4706406086
 21
11.806226894
 31
0.0
  0
LINE
  5
E5
330
1B
100
AcDbEntity
 67
     1
  8
0
  6
Continuous
 62
     7
370
    25
100
AcDbLine
 10
9.034684203
 20
11.7771821192
 30
0.0
 11
9.034684203
 21
10.5931821192
 31
0.0
  0
LINE
  5
E6
330
1B
100
AcDbEntity
 67
     1
  8
0
  6
Continuous
 62
     7
370
    25
100
AcDbLine
 10
9.034684203
 20
10.5931821192
 30
0.0
 11
9.0036853834
 21
10.5931821192
 31
0.0
  0
LINE
  5
E7
330
1B
100
AcDbEntity
 67
     1
  8
0
  6
Continuous
 62
     7
370
    25
100
AcDbLine
 10
8.6541406086
 20
11.6676821192
 30
0.0
 11
8.5691406086
 21
11.6676821192
 31
0.0
  0
LINE
  5
E8
330
1B
100
AcDbEntity
 67
     1
  8
0
  6
Continuous
 62
     7
370
    25
100
AcDbLine
 10
8.5691406086
 20
11.6676821192
 30
0.0
 11
8.5491406086
 21
11.6876821192
 31
0.0
  0
LINE
  5
E9
330
1B
100
AcDbEntity
 67
     1
  8
0
  6
Continuous
 62
     7
370
    25
100
AcDbLine
 10
8.6541406086
 20
11.6676821192
 30
0.0
 11
8.6741406086
 21
11.6876821192
 31
0.0
  0
LINE
  5
EA
330
1B
100
AcDbEntity
 67
     1
  8
0
  6
Continuous
 62
     7
370
    25
100
AcDbLine
 10
8.6541406086
 20
11.4776821192
 30
0.0
 11
8.6541406086
 21
11.6676821192
 31
0.0
  0
LINE
  5
EB
330
1B
100
AcDbEntity
 67
     1
  8
0
  6
Continuous
 62
     7
370
    25
100
AcDbLine
 10
8.6741406086
 20
11.4976821192
 30
0.0
 11
8.6541406086
 21
11.4776821192
 31
0.0
  0
LINE
  5
EC
330
1B
100
AcDbEntity
 67
     1
  8
0
  6
Continuous
 62
     7
370
    25
100
AcDbLine
 10
7.0381406086
 20
11.6676821192
 30
0.0
 11
7.0381406086
 21
11.4776821192
 31
0.0
  0
LINE
  5
ED
330
1B
100
AcDbEntity
 67
     1
  8
0
  6
Continuous
 62
     7
370
    25
100
AcDbLine
 10
7.0381406086
 20
11.4776821192
 30
0.0
 11
7.0181406086
 21
11.4976821192
 31
0.0
  0
LINE
  5
EE
330
1B
100
AcDbEntity
 67
     1
  8
0
  6
Continuous
 62
     7
370
    25
100
AcDbLine
 10
7.0381406086
 20
11.6676821192
 30
0.0
 11
7.0181406086
 21
11.6876821192
 31
0.0
  0
LINE
  5
EF
330
1B
100
AcDbEntity
 67
     1
  8
0
  6
Continuous
 62
     7
370
    25
100
AcDbLine
 10
8.8016406086
 20
11.3726821192
 30
0.0
 11
8.7816406086
 21
11.3926821192
 31
0.0
  0
LINE
  5
F0
330
1B
100
AcDbEntity
 67
     1
  8
0
  6
Continuous
 62
     7
370
    25
100
AcDbLine
 10
8.7816406086
 20
11.3926821192
 30
0.0
 11
8.7816406086
 21
11.4776821192
 31
0.0
  0
LINE
  5
F1
330
1B
100
AcDbEntity
 67
     1
  8
0
  6
Continuous
 62
     7
370
    25
100
AcDbLine
 10
8.8016406086
 20
11.4976821192
 30
0.0
 11
8.7816406086
 21
11.4776821192
 31
0.0
  0
LINE
  5
F2
330
1B
100
AcDbEntity
 67
     1
  8
0
  6
Continuous
 62
     7
370
    25
100
AcDbLine
 10
7.1231406086
 20
11.4776821192
 30
0.0
 11
7.1231406086
 21
11.6676821192
 31
0.0
  0
LINE
  5
F3
330
1B
100
AcDbEntity
 67
     1
  8
0
  6
Continuous
 62
     7
370
    25
100
AcDbLine
 10
7.1231406086
 20
11.6676821192
 30
0.0
 11
7.1431406086
 21
11.6876821192
 31
0.0
  0
LINE
  5
F4
330
1B
100
AcDbEntity
 67
     1
  8
0
  6
Continuous
 62
     7
370
    25
100
AcDbLine
 10
7.1431406086
 20
11.4976821192
 30
0.0
 11
7.1231406086
 21
11.4776821192
 31
0.0
  0
LINE
  5
F5
330
1B
100
AcDbEntity
 67
     1
  8
0
  6
Continuous
 62
     7
370
    25
100
AcDbLine
 10
8.7816406086
 20
11.4776821192
 30
0.0
 11
8.6541406086
 21
11.4776821192
 31
0.0
  0
LINE
  5
F6
330
1B
100
AcDbEntity
 67
     1
  8
0
  6
Continuous
 62
     7
370
    25
100
AcDbLine
 10
7.1231406086
 20
11.6676821192
 30
0.0
 11
7.0381406086
 21
11.6676821192
 31
0.0
  0
LINE
  5
F7
330
1B
100
AcDbEntity
 67
     1
  8
0
  6
Continuous
 62
     7
370
    25
100
AcDbLine
 10
6.4415958338
 20
11.7771821192
 30
0.0
 11
6.4105970142
 21
11.7771821192
 31
0.0
  0
ARC
  5
F8
330
1B
100
AcDbEntity
 67
     1
  8
0
  6
Continuous
 62
     7
370
    25
100
AcDbCircle
 10
6.4706406086
 20
11.7771821192
 30
0.0
 40
0.060043594437861
100
AcDbArc
 50
90.0
 51
180.0
  0
LINE
  5
F9
330
1B
100
AcDbEntity
 67
     1
  8
0
  6
Continuous
 62
     7
370
    25
100
AcDbLine
 10
8.4216406086
 20
11.3726821192
 30
0.0
 11
8.4416406086
 21
11.3926821192
 31
0.0
  0
LINE
  5
FA
330
1B
100
AcDbEntity
 67
     1
  8
0
  6
Continuous
 62
     7
370
    25
100
AcDbLine
 10
8.4416406086
 20
11.3926821192
 30
0.0
 11
8.7816406086
 21
11.3926821192
 31
0.0
  0
LINE
  5
FB
330
1B
100
AcDbEntity
 67
     1
  8
0
  6
Continuous
 62
     7
370
    25
100
AcDbLine
 10
6.9106406086
 20
11.4776821192
 30
0.0
 11
6.9106406086
 21
11.3926821192
 31
0.0
  0
LINE
  5
FC
330
1B
100
AcDbEntity
 67
     1
  8
0
  6
Continuous
 62
     7
370
    25
100
AcDbLine
 10
6.8906406086
 20
11.3726821192
 30
0.0
 11
6.9106406086
 21
11.3926821192
 31
0.0
  0
LINE
  5
FD
330
1B
100
AcDbEntity
 67
     1
  8
0
  6
Continuous
 62
     7
370
    25
100
AcDbLine
 10
6.9106406086
 20
11.4776821192
 30
0.0
 11
6.8906406086
 21
11.4976821192
 31
0.0
  0
LINE
  5
FE
330
1B
100
AcDbEntity
 67
     1
  8
0
  6
Continuous
 62
     7
370
    25
100
AcDbLine
 10
7.0381406086
 20
11.4776821192
 30
0.0
 11
6.9106406086
 21
11.4776821192
 31
0.0
  0
LINE
  5
FF
330
1B
100
AcDbEntity
 67
     1
  8
0
  6
Continuous
 62
     7
370
    25
100
AcDbLine
 10
7.2706406086
 20
11.3726821192
 30
0.0
 11
7.2506406086
 21
11.3926821192
 31
0.0
  0
LINE
  5
100
330
1B
100
AcDbEntity
 67
     1
  8
0
  6
Continuous
 62
     7
370
    25
100
AcDbLine
 10
7.2506406086
 20
11.3926821192
 30
0.0
 11
7.2506406086
 21
11.4776821192
 31
0.0
  0
LINE
  5
101
330
1B
100
AcDbEntity
 67
     1
  8
0
  6
Continuous
 62
     7
370
    25
100
AcDbLine
 10
7.2706406086
 20
11.4976821192
 30
0.0
 11
7.2506406086
 21
11.4776821192
 31
0.0
  0
LINE
  5
102
330
1B
100
AcDbEntity
 67
     1
  8
0
  6
Continuous
 62
     7
370
    25
100
AcDbLine
 10
7.2506406086
 20
11.4776821192
 30
0.0
 11
7.1231406086
 21
11.4776821192
 31
0.0
  0
LINE
  5
103
330
1B
100
AcDbEntity
 67
     1
  8
0
  6
Continuous
 62
     7
370
    25
100
AcDbLine
 10
8.5691406086
 20
11.6676821192
 30
0.0
 11
8.5691406086
 21
11.4776821192
 31
0.0
  0
LINE
  5
104
330
1B
100
AcDbEntity
 67
     1
  8
0
  6
Continuous
 62
     7
370
    25
100
AcDbLine
 10
8.5691406086
 20
11.4776821192
 30
0.0
 11
8.5491406086
 21
11.4976821192
 31
0.0
  0
LINE
  5
105
330
1B
100
AcDbEntity
 67
     1
  8
0
  6
Continuous
 62
     7
370
    25
100
AcDbLine
 10
6.4415958338
 20
10.5931821192
 30
0.0
 11
6.4105970142
 21
10.5931821192
 31
0.0
  0
LINE
  5
106
330
1B
100
AcDbEntity
 67
     1
  8
0
  6
Continuous
 62
     7
370
    25
100
AcDbLine
 10
6.4105970142
 20
10.5931821192
 30
0.0
 11
6.4105970142
 21
11.7771821192
 31
0.0
  0
LINE
  5
107
330
1B
100
AcDbEntity
 67
     1
  8
0
  6
Continuous
 62
     7
370
    25
100
AcDbLine
 10
6.9106406086
 20
11.3926821192
 30
0.0
 11
7.2506406086
 21
11.3926821192
 31
0.0
  0
LINE
  5
108
330
1B
100
AcDbEntity
 67
     1
  8
0
  6
Continuous
 62
     7
370
    25
100
AcDbLine
 10
8.4416406086
 20
11.4776821192
 30
0.0
 11
8.4416406086
 21
11.3926821192
 31
0.0
  0
LINE
  5
109
330
1B
100
AcDbEntity
 67
     1
  8
0
  6
Continuous
 62
     7
370
    25
100
AcDbLine
 10
8.4416406086
 20
11.4776821192
 30
0.0
 11
8.4216406086
 21
11.4976821192
 31
0.0
  0
LINE
  5
10A
330
1B
100
AcDbEntity
 67
     1
  8
0
  6
Continuous
 62
     7
370
    25
100
AcDbLine
 10
8.5691406086
 20
11.4776821192
 30
0.0
 11
8.4416406086
 21
11.4776821192
 31
0.0
  0
LINE
  5
10B
330
1B
100
AcDbEntity
 67
     1
  8
0
  6
Continuous
 62
     7
370
    25
100
AcDbLine
 10
8.1436406085
 20
11.2889321192
 30
0.0
 11
8.0398906086
 21
11.2889321192
 31
0.0
  0
LINE
  5
10C
330
1B
100
AcDbEntity
 67
     1
  8
0
  6
Continuous
 62
     7
370
    25
100
AcDbLine
 10
8.0398906086
 20
11.2889321192
 30
0.0
 11
8.0198906086
 21
11.3089321193
 31
0.0
  0
LINE
  5
10D
330
1B
100
AcDbEntity
 67
     1
  8
0
  6
Continuous
 62
     7
370
    25
100
AcDbLine
 10
8.1436406085
 20
11.3089321192
 30
0.0
 11
8.1436406085
 21
11.2889321192
 31
0.0
  0
LINE
  5
10E
330
1B
100
AcDbEntity
 67
     1
  8
0
  6
Continuous
 62
     7
370
    25
100
AcDbLine
 10
8.7691406086
 20
10.9976821192
 30
0.0
 11
8.7491406086
 21
10.9776821192
 31
0.0
  0
LINE
  5
10F
330
1B
100
AcDbEntity
 67
     1
  8
0
  6
Continuous
 62
     7
370
    25
100
AcDbLine
 10
8.7491406086
 20
10.9776821192
 30
0.0
 11
8.4741406086
 21
10.9776821192
 31
0.0
  0
LINE
  5
110
330
1B
100
AcDbEntity
 67
     1
  8
0
  6
Continuous
 62
     7
370
    25
100
AcDbLine
 10
8.4541406086
 20
10.9976821192
 30
0.0
 11
8.4741406086
 21
10.9776821192
 31
0.0
  0
LINE
  5
111
330
1B
100
AcDbEntity
 67
     1
  8
0
  6
Continuous
 62
     7
370
    25
100
AcDbLine
 10
8.1436406086
 20
11.0614321192
 30
0.0
 11
8.1436406086
 21
11.0814321192
 31
0.0
  0
ARC
  5
112
330
1B
100
AcDbEntity
 67
     1
  8
0
  6
Continuous
 62
     7
370
    25
100
AcDbCircle
 10
8.1436406086
 20
11.1851821192
 30
0.0
 40
0.1037500000000016
100
AcDbArc
 50
269.9999999828
 51
90.0000000408
  0
LINE
  5
113
330
1B
100
AcDbEntity
 67
     1
  8
0
  6
Continuous
 62
     7
370
    25
100
AcDbLine
 10
8.0398906086
 20
11.2889321192
 30
0.0
 11
8.0398906086
 21
11.0814321192
 31
0.0
  0
LINE
  5
114
330
1B
100
AcDbEntity
 67
     1
  8
0
  6
Continuous
 62
     7
370
    25
100
AcDbLine
 10
8.0398906086
 20
11.0814321192
 30
0.0
 11
8.0198906086
 21
11.0614321192
 31
0.0
  0
LINE
  5
115
330
1B
100
AcDbEntity
 67
     1
  8
0
  6
Continuous
 62
     7
370
    25
100
AcDbLine
 10
8.7491406086
 20
10.8926821192
 30
0.0
 11
8.7491406086
 21
10.9776821192
 31
0.0
  0
LINE
  5
116
330
1B
100
AcDbEntity
 67
     1
  8
0
  6
Continuous
 62
     7
370
    25
100
AcDbLine
 10
8.7491406086
 20
10.8926821192
 30
0.0
 11
8.7691406086
 21
10.8726821192
 31
0.0
  0
LINE
  5
117
330
1B
100
AcDbEntity
 67
     1
  8
0
  6
Continuous
 62
     7
370
    25
100
AcDbLine
 10
6.5088906086
 20
11.2889321192
 30
0.0
 11
6.5088906086
 21
11.0814321192
 31
0.0
  0
LINE
  5
118
330
1B
100
AcDbEntity
 67
     1
  8
0
  6
Continuous
 62
     7
370
    25
100
AcDbLine
 10
6.5088906086
 20
11.0814321192
 30
0.0
 11
6.4888906086
 21
11.0614321192
 31
0.0
  0
LINE
  5
119
330
1B
100
AcDbEntity
 67
     1
  8
0
  6
Continuous
 62
     7
370
    25
100
AcDbLine
 10
6.5088906086
 20
11.2889321192
 30
0.0
 11
6.4888906086
 21
11.3089321193
 31
0.0
  0
LINE
  5
11A
330
1B
100
AcDbEntity
 67
     1
  8
0
  6
Continuous
 62
     7
370
    25
100
AcDbLine
 10
7.2381406086
 20
10.9976821192
 30
0.0
 11
7.2181406086
 21
10.9776821192
 31
0.0
  0
LINE
  5
11B
330
1B
100
AcDbEntity
 67
     1
  8
0
  6
Continuous
 62
     7
370
    25
100
AcDbLine
 10
7.2181406086
 20
10.9776821192
 30
0.0
 11
6.9431406086
 21
10.9776821192
 31
0.0
  0
LINE
  5
11C
330
1B
100
AcDbEntity
 67
     1
  8
0
  6
Continuous
 62
     7
370
    25
100
AcDbLine
 10
6.9231406086
 20
10.9976821192
 30
0.0
 11
6.9431406086
 21
10.9776821192
 31
0.0
  0
LINE
  5
11D
330
1B
100
AcDbEntity
 67
     1
  8
0
  6
Continuous
 62
     7
370
    25
100
AcDbLine
 10
6.9431406086
 20
10.9776821192
 30
0.0
 11
6.9431406086
 21
10.8926821192
 31
0.0
  0
LINE
  5
11E
330
1B
100
AcDbEntity
 67
     1
  8
0
  6
Continuous
 62
     7
370
    25
100
AcDbLine
 10
6.9431406086
 20
10.8926821192
 30
0.0
 11
6.9231406086
 21
10.8726821192
 31
0.0
  0
LINE
  5
11F
330
1B
100
AcDbEntity
 67
     1
  8
0
  6
Continuous
 62
     7
370
    25
100
AcDbLine
 10
6.6126406085
 20
11.2889321192
 30
0.0
 11
6.5088906086
 21
11.2889321192
 31
0.0
  0
LINE
  5
120
330
1B
100
AcDbEntity
 67
     1
  8
0
  6
Continuous
 62
     7
370
    25
100
AcDbLine
 10
6.6126406085
 20
11.3089321192
 30
0.0
 11
6.6126406085
 21
11.2889321192
 31
0.0
  0
LINE
  5
121
330
1B
100
AcDbEntity
 67
     1
  8
0
  6
Continuous
 62
     7
370
    25
100
AcDbLine
 10
8.4741406086
 20
10.8926821192
 30
0.0
 11
8.7491406086
 21
10.8926821192
 31
0.0
  0
LINE
  5
122
330
1B
100
AcDbEntity
 67
     1
  8
0
  6
Continuous
 62
     7
370
    25
100
AcDbLine
 10
8.4741406086
 20
10.8926821192
 30
0.0
 11
8.4541406086
 21
10.8726821192
 31
0.0
  0
LINE
  5
123
330
1B
100
AcDbEntity
 67
     1
  8
0
  6
Continuous
 62
     7
370
    25
100
AcDbLine
 10
6.6126406086
 20
11.0614321192
 30
0.0
 11
6.6126406086
 21
11.0814321192
 31
0.0
  0
ARC
  5
124
330
1B
100
AcDbEntity
 67
     1
  8
0
  6
Continuous
 62
     7
370
    25
100
AcDbCircle
 10
6.6126406086
 20
11.1851821192
 30
0.0
 40
0.1037500000000016
100
AcDbArc
 50
269.9999999828
 51
90.0000000408
  0
LINE
  5
125
330
1B
100
AcDbEntity
 67
     1
  8
0
  6
Continuous
 62
     7
370
    25
100
AcDbLine
 10
7.2181406086
 20
10.8926821192
 30
0.0
 11
7.2181406086
 21
10.9776821192
 31
0.0
  0
LINE
  5
126
330
1B
100
AcDbEntity
 67
     1
  8
0
  6
Continuous
 62
     7
370
    25
100
AcDbLine
 10
7.2181406086
 20
10.8926821192
 30
0.0
 11
7.2381406086
 21
10.8726821192
 31
0.0
  0
LINE
  5
127
330
1B
100
AcDbEntity
 67
     1
  8
0
  6
Continuous
 62
     7
370
    25
100
AcDbLine
 10
8.4741406086
 20
10.9776821192
 30
0.0
 11
8.4741406086
 21
10.8926821192
 31
0.0
  0
ARC
  5
128
330
1B
100
AcDbEntity
 67
     1
  8
0
  6
Continuous
 62
     7
370
    25
100
AcDbCircle
 10
8.9746406086
 20
10.5931821192
 30
0.0
 40
0.060043594437861
100
AcDbArc
 50
270.0
 51
0.0
  0
LINE
  5
129
330
1B
100
AcDbEntity
 67
     1
  8
0
  6
Continuous
 62
     7
370
    25
100
AcDbLine
 10
8.9746406086
 20
10.5641373444
 30
0.0
 11
8.9746406086
 21
10.5331385248
 31
0.0
  0
LINE
  5
12A
330
1B
100
AcDbEntity
 67
     1
  8
0
  6
Continuous
 62
     7
370
    25
100
AcDbLine
 10
6.9431406086
 20
10.8926821192
 30
0.0
 11
7.2181406086
 21
10.8926821192
 31
0.0
  0
LINE
  5
12B
330
1B
100
AcDbEntity
 67
     1
  8
0
  6
Continuous
 62
     7
370
    25
100
AcDbLine
 10
8.0398906086
 20
11.0814321192
 30
0.0
 11
8.1436406086
 21
11.0814321192
 31
0.0
  0
LINE
  5
12C
330
1B
100
AcDbEntity
 67
     1
  8
0
  6
Continuous
 62
     7
370
    25
100
AcDbLine
 10
6.5088906086
 20
11.0814321192
 30
0.0
 11
6.6126406086
 21
11.0814321192
 31
0.0
  0
LINE
  5
12D
330
1B
100
AcDbEntity
 67
     1
  8
0
  6
Continuous
 62
     7
370
    25
100
AcDbLine
 10
8.9746406086
 20
10.5331385248
 30
0.0
 11
6.4706406086
 21
10.5331385248
 31
0.0
  0
LINE
  5
12E
330
1B
100
AcDbEntity
 67
     1
  8
0
  6
Continuous
 62
     7
370
    25
100
AcDbLine
 10
6.4706406086
 20
10.5641373444
 30
0.0
 11
6.4706406086
 21
10.5331385248
 31
0.0
  0
ARC
  5
12F
330
1B
100
AcDbEntity
 67
     1
  8
0
  6
Continuous
 62
     7
370
    25
100
AcDbCircle
 10
6.4706406086
 20
10.5931821192
 30
0.0
 40
0.060043594437861
100
AcDbArc
 50
180.0
 51
270.0
  0
LINE
  5
130
330
1B
100
AcDbEntity
 67
     1
  8
0
  6
Continuous
 62
     7
370
    25
100
AcDbLine
 10
6.4706406086
 20
11.838873089
 30
0.0
 11
8.9746406086
 21
11.838873089
 31
0.0
  0
LINE
  5
131
330
1B
100
AcDbEntity
 67
     1
  8
0
  6
Continuous
 62
     7
370
    25
100
AcDbLine
 10
8.9746406086
 20
11.8372257136
 30
0.0
 11
8.9746406086
 21
11.838873089
 31
0.0
  0
LINE
  5
132
330
1B
100
AcDbEntity
 67
     1
  8
0
  6
Continuous
 62
     7
370
    25
100
AcDbLine
 10
6.4706406086
 20
11.838873089
 30
0.0
 11
6.4706406086
 21
11.8372257136
 31
0.0
  0
LINE
  5
133
330
1B
100
AcDbEntity
 67
     1
  8
0
  6
Continuous
 62
     7
370
    25
100
AcDbLine
 10
8.9746406086
 20
11.838873089
 30
0.0
 11
8.9862890671
 21
11.8377633801
 31
0.0
  0
LWPOLYLINE
  5
134
330
1B
100
AcDbEntity
 67
     1
  8
0
  6
Continuous
 62
     7
370
    25
100
AcDbPolyline
 90
        3
 70
   128
 43
0.0
 10
9.035101743
 20
11.7894388309
 10
9.0351462037
 20
11.7892174304
 10
9.0363315784
 20
11.7771821192
  0
LINE
  5
135
330
1B
100
AcDbEntity
 67
     1
  8
0
  6
Continuous
 62
     7
370
    25
100
AcDbLine
 10
9.0363315784
 20
11.7771821192
 30
0.0
 11
9.034684203
 21
11.7771821192
 31
0.0
  0
LINE
  5
136
330
1B
100
AcDbEntity
 67
     1
  8
0
  6
Continuous
 62
     7
370
    25
100
AcDbLine
 10
9.0363315784
 20
11.7771821192
 30
0.0
 11
9.0363315784
 21
10.5931821192
 31
0.0
  0
LINE
  5
137
330
1B
100
AcDbEntity
 67
     1
  8
0
  6
Continuous
 62
     7
370
    25
100
AcDbLine
 10
9.034684203
 20
10.5931821192
 30
0.0
 11
9.0363315784
 21
10.5931821192
 31
0.0
  0
LINE
  5
138
330
1B
100
AcDbEntity
 67
     1
  8
0
  6
Continuous
 62
     7
370
    25
100
AcDbLine
 10
6.4089496388
 20
11.7771821192
 30
0.0
 11
6.4097912547
 21
11.7873375066
 31
0.0
  0
LINE
  5
139
330
1B
100
AcDbEntity
 67
     1
  8
0
  6
Continuous
 62
     7
370
    25
100
AcDbLine
 10
6.4598802727
 20
11.8379274147
 30
0.0
 11
6.4706406086
 21
11.838873089
 31
0.0
  0
LINE
  5
13A
330
1B
100
AcDbEntity
 67
     1
  8
0
  6
Continuous
 62
     7
370
    25
100
AcDbLine
 10
6.4105970142
 20
11.7771821192
 30
0.0
 11
6.4089496388
 21
11.7771821192
 31
0.0
  0
LINE
  5
13B
330
1B
100
AcDbEntity
 67
     1
  8
0
  6
Continuous
 62
     7
370
    25
100
AcDbLine
 10
6.4089496388
 20
10.5931821192
 30
0.0
 11
6.4089496388
 21
11.7771821192
 31
0.0
  0
LINE
  5
13C
330
1B
100
AcDbEntity
 67
     1
  8
0
  6
Continuous
 62
     7
370
    25
100
AcDbLine
 10
6.4089496388
 20
10.5931821192
 30
0.0
 11
6.4105970142
 21
10.5931821192
 31
0.0
  0
LWPOLYLINE
  5
13D
330
1B
100
AcDbEntity
 67
     1
  8
0
  6
Continuous
 62
     7
370
    25
100
AcDbPolyline
 90
        3
 70
   128
 43
0.0
 10
9.0363315784
 20
10.5931821192
 10
9.0351462037
 20
10.581146808
 10
9.035101743
 20
10.5809254075
  0
LINE
  5
13E
330
1B
100
AcDbEntity
 67
     1
  8
0
  6
Continuous
 62
     7
370
    25
100
AcDbLine
 10
8.9862890671
 20
10.5326008583
 30
0.0
 11
8.9746406086
 21
10.5314911494
 31
0.0
  0
LINE
  5
13F
330
1B
100
AcDbEntity
 67
     1
  8
0
  6
Continuous
 62
     7
370
    25
100
AcDbLine
 10
8.9746406086
 20
10.5314911494
 30
0.0
 11
8.9746406086
 21
10.5331385248
 31
0.0
  0
LINE
  5
140
330
1B
100
AcDbEntity
 67
     1
  8
0
  6
Continuous
 62
     7
370
    25
100
AcDbLine
 10
8.9746406086
 20
10.5314911494
 30
0.0
 11
6.4706406086
 21
10.5314911494
 31
0.0
  0
LINE
  5
141
330
1B
100
AcDbEntity
 67
     1
  8
0
  6
Continuous
 62
     7
370
    25
100
AcDbLine
 10
6.4706406086
 20
10.5331385248
 30
0.0
 11
6.4706406086
 21
10.5314911494
 31
0.0
  0
LINE
  5
142
330
1B
100
AcDbEntity
 67
     1
  8
0
  6
Continuous
 62
     7
370
    25
100
AcDbLine
 10
6.4706406086
 20
10.5314911494
 30
0.0
 11
6.4598802727
 21
10.5324368237
 31
0.0
  0
LINE
  5
143
330
1B
100
AcDbEntity
 67
     1
  8
0
  6
Continuous
 62
     7
370
    25
100
AcDbLine
 10
6.4097912547
 20
10.5830267318
 30
0.0
 11
6.4089496388
 21
10.5931821192
 31
0.0
  0
LINE
  5
144
330
1B
100
AcDbEntity
 67
     1
  8
0
  6
Continuous
 62
     7
370
    25
100
AcDbLine
 10
6.4803417806
 20
10.5264911494
 30
0.0
 11
8.9654394366
 21
10.5264911494
 31
0.0
  0
LINE
  5
145
330
1B
100
AcDbEntity
 67
     1
  8
0
  6
Continuous
 62
     7
370
    25
100
AcDbLine
 10
8.9654394366
 20
11.843873089
 30
0.0
 11
6.4803417806
 21
11.843873089
 31
0.0
  0
LINE
  5
146
330
1B
100
AcDbEntity
 67
     1
  8
0
  6
Continuous
 62
     7
370
    25
100
AcDbLine
 10
9.5588906086
 20
12.3726821192
 30
0.0
 11
7.9728906086
 21
12.3726821192
 31
0.0
  0
LINE
  5
147
330
1B
100
AcDbEntity
 67
     1
  8
0
  6
Continuous
 62
     7
370
    25
100
AcDbLine
 10
9.5888906086
 20
12.3426821192
 30
0.0
 11
9.5588906086
 21
12.3726821192
 31
0.0
  0
LINE
  5
148
330
1B
100
AcDbEntity
 67
     1
  8
0
  6
Continuous
 62
     7
370
    25
100
AcDbLine
 10
9.5888906086
 20
11.9446821192
 30
0.0
 11
9.5888906086
 21
12.3426821192
 31
0.0
  0
LINE
  5
149
330
1B
100
AcDbEntity
 67
     1
  8
0
  6
Continuous
 62
     7
370
    25
100
AcDbLine
 10
9.9128906086
 20
11.9446821192
 30
0.0
 11
9.5888906086
 21
11.9446821192
 31
0.0
  0
LINE
  5
14A
330
1B
100
AcDbEntity
 67
     1
  8
0
  6
Continuous
 62
     7
370
    25
100
AcDbLine
 10
9.8428906086
 20
11.3726821192
 30
0.0
 11
9.8428906086
 21
11.7571821192
 31
0.0
  0
LINE
  5
14B
330
1B
100
AcDbEntity
 67
     1
  8
0
  6
Continuous
 62
     7
370
    25
100
AcDbLine
 10
9.9128906086
 20
10.9976821192
 30
0.0
 11
9.9128906086
 21
11.3726821192
 31
0.0
  0
LINE
  5
14C
330
1B
100
AcDbEntity
 67
     1
  8
0
  6
Continuous
 62
     7
370
    25
100
AcDbLine
 10
9.8428906086
 20
10.9976821192
 30
0.0
 11
9.9128906086
 21
10.9976821192
 31
0.0
  0
LINE
  5
14D
330
1B
100
AcDbEntity
 67
     1
  8
0
  6
Continuous
 62
     7
370
    25
100
AcDbLine
 10
9.8428906086
 20
10.3101821192
 30
0.0
 11
9.8428906086
 21
10.9976821192
 31
0.0
  0
LINE
  5
14E
330
1B
100
AcDbEntity
 67
     1
  8
0
  6
Continuous
 62
     7
370
    25
100
AcDbLine
 10
9.9128906086
 20
10.3101821192
 30
0.0
 11
9.8428906086
 21
10.3101821192
 31
0.0
  0
LINE
  5
14F
330
1B
100
AcDbEntity
 67
     1
  8
0
  6
Continuous
 62
     7
370
    25
100
AcDbLine
 10
9.9128906086
 20
10.1226821192
 30
0.0
 11
9.9128906086
 21
10.3101821192
 31
0.0
  0
LINE
  5
150
330
1B
100
AcDbEntity
 67
     1
  8
0
  6
Continuous
 62
     7
370
    25
100
AcDbLine
 10
9.3528906086
 20
10.1226821192
 30
0.0
 11
9.9128906086
 21
10.1226821192
 31
0.0
  0
LINE
  5
151
330
1B
100
AcDbEntity
 67
     1
  8
0
  6
Continuous
 62
     7
370
    25
100
AcDbLine
 10
6.3528906086
 20
10.1226821192
 30
0.0
 11
9.0928906086
 21
10.1226821192
 31
0.0
  0
LINE
  5
152
330
1B
100
AcDbEntity
 67
     1
  8
0
  6
Continuous
 62
     7
370
    25
100
AcDbLine
 10
6.3528906086
 20
10.2126821192
 30
0.0
 11
6.3528906086
 21
10.1226821192
 31
0.0
  0
LINE
  5
153
330
1B
100
AcDbEntity
 67
     1
  8
0
  6
Continuous
 62
     7
370
    25
100
AcDbLine
 10
6.0928906086
 20
10.2126821192
 30
0.0
 11
6.3528906086
 21
10.2126821192
 31
0.0
  0
LINE
  5
154
330
1B
100
AcDbEntity
 67
     1
  8
0
  6
Continuous
 62
     7
370
    25
100
AcDbLine
 10
5.3028906086
 20
10.1526821192
 30
0.0
 11
5.3328906086
 21
10.1226821192
 31
0.0
  0
LINE
  5
155
330
1B
100
AcDbEntity
 67
     1
  8
0
  6
Continuous
 62
     7
370
    25
100
AcDbLine
 10
5.3028906086
 20
10.8726821192
 30
0.0
 11
5.3028906086
 21
10.1526821192
 31
0.0
  0
LINE
  5
156
330
1B
100
AcDbEntity
 67
     1
  8
0
  6
Continuous
 62
     7
370
    25
100
AcDbLine
 10
5.2128906086
 20
10.8726821192
 30
0.0
 11
5.3028906086
 21
10.8726821192
 31
0.0
  0
LINE
  5
157
330
1B
100
AcDbEntity
 67
     1
  8
0
  6
Continuous
 62
     7
370
    25
100
AcDbLine
 10
5.1828906086
 20
10.9026821192
 30
0.0
 11
5.2128906086
 21
10.8726821192
 31
0.0
  0
LINE
  5
158
330
1B
100
AcDbEntity
 67
     1
  8
0
  6
Continuous
 62
     7
370
    25
100
AcDbLine
 10
5.1828906086
 20
11.1071821192
 30
0.0
 11
5.1828906086
 21
10.9026821192
 31
0.0
  0
LINE
  5
159
330
1B
100
AcDbEntity
 67
     1
  8
0
  6
Continuous
 62
     7
370
    25
100
AcDbLine
 10
5.2228906086
 20
11.1071821192
 30
0.0
 11
5.1828906086
 21
11.1071821192
 31
0.0
  0
ARC
  5
15A
330
1B
100
AcDbEntity
 67
     1
  8
0
  6
Continuous
 62
     7
370
    25
100
AcDbCircle
 10
5.2228906086
 20
11.1851821192
 30
0.0
 40
0.0780000000000012
100
AcDbArc
 50
270.0
 51
90.0
  0
LINE
  5
15B
330
1B
100
AcDbEntity
 67
     1
  8
0
  6
Continuous
 62
     7
370
    25
100
AcDbLine
 10
5.1828906086
 20
11.2631821192
 30
0.0
 11
5.2228906086
 21
11.2631821192
 31
0.0
  0
LINE
  5
15C
330
1B
100
AcDbEntity
 67
     1
  8
0
  6
Continuous
 62
     7
370
    25
100
AcDbLine
 10
5.1828906086
 20
11.4676821192
 30
0.0
 11
5.1828906086
 21
11.2631821192
 31
0.0
  0
LINE
  5
15D
330
1B
100
AcDbEntity
 67
     1
  8
0
  6
Continuous
 62
     7
370
    25
100
AcDbLine
 10
5.2128906086
 20
11.4976821192
 30
0.0
 11
5.1828906086
 21
11.4676821192
 31
0.0
  0
LINE
  5
15E
330
1B
100
AcDbEntity
 67
     1
  8
0
  6
Continuous
 62
     7
370
    25
100
AcDbLine
 10
5.3028906086
 20
11.4976821192
 30
0.0
 11
5.2128906086
 21
11.4976821192
 31
0.0
  0
LINE
  5
15F
330
1B
100
AcDbEntity
 67
     1
  8
0
  6
Continuous
 62
     7
370
    25
100
AcDbLine
 10
5.3328906086
 20
12.3726821192
 30
0.0
 11
5.3028906086
 21
12.3426821192
 31
0.0
  0
LINE
  5
160
330
1B
100
AcDbEntity
 67
     1
  8
0
  6
Continuous
 62
     7
370
    25
100
AcDbLine
 10
6.0928906086
 20
12.1846821192
 30
0.0
 11
6.0928906086
 21
12.3726821192
 31
0.0
  0
LINE
  5
161
330
1B
100
AcDbEntity
 67
     1
  8
0
  6
Continuous
 62
     7
370
    25
100
AcDbLine
 10
6.3528906086
 20
12.1846821192
 30
0.0
 11
6.0928906086
 21
12.1846821192
 31
0.0
  0
LINE
  5
162
330
1B
100
AcDbEntity
 67
     1
  8
0
  6
Continuous
 62
     7
370
    25
100
AcDbLine
 10
6.3528906086
 20
12.3726821192
 30
0.0
 11
6.3528906086
 21
12.1846821192
 31
0.0
  0
LINE
  5
163
330
1B
100
AcDbEntity
 67
     1
  8
0
  6
Continuous
 62
     7
370
    25
100
AcDbLine
 10
7.4728906086
 20
12.3726821192
 30
0.0
 11
6.3528906086
 21
12.3726821192
 31
0.0
  0
LINE
  5
164
330
1B
100
AcDbEntity
 67
     1
  8
0
  6
Continuous
 62
     7
370
    25
100
AcDbLine
 10
7.4728906086
 20
12.2826821192
 30
0.0
 11
7.4728906086
 21
12.3726821192
 31
0.0
  0
ARC
  5
165
330
1B
100
AcDbEntity
 67
     1
  8
0
  6
Continuous
 62
     7
370
    25
100
AcDbCircle
 10
6.4958906086
 20
11.7521821192
 30
0.0
 40
0.0930000000000017
100
AcDbArc
 50
90.0
 51
114.5715629635
  0
ARC
  5
166
330
1B
100
AcDbEntity
 67
     1
  8
0
  6
Continuous
 62
     7
370
    25
100
AcDbCircle
 10
6.4958906086
 20
11.7521821192
 30
0.0
 40
0.0930000000000009
100
AcDbArc
 50
155.9985395917
 51
180.0
  0
ARC
  5
167
330
1B
100
AcDbEntity
 67
     1
  8
0
  6
Continuous
 62
     7
370
    25
100
AcDbCircle
 10
6.4958906086
 20
10.6181821192
 30
0.0
 40
0.0930000000000009
100
AcDbArc
 50
180.0
 51
204.0014604083
  0
ARC
  5
168
330
1B
100
AcDbEntity
 67
     1
  8
0
  6
Continuous
 62
     7
370
    25
100
AcDbCircle
 10
6.4958906086
 20
10.6181821192
 30
0.0
 40
0.0930000000002737
100
AcDbArc
 50
245.4284370358
 51
270.0
  0
LINE
  5
169
330
1B
100
AcDbEntity
 67
     1
  8
0
  6
Continuous
 62
     7
370
    25
100
AcDbLine
 10
6.4958906086
 20
10.5251821192
 30
0.0
 11
8.9498906086
 21
10.5251821192
 31
0.0
  0
ARC
  5
16A
330
1B
100
AcDbEntity
 67
     1
  8
0
  6
Continuous
 62
     7
370
    25
100
AcDbCircle
 10
8.9498906086
 20
10.6181821192
 30
0.0
 40
0.093
100
AcDbArc
 50
270.0
 51
294.9221830663
  0
ARC
  5
16B
330
1B
100
AcDbEntity
 67
     1
  8
0
  6
Continuous
 62
     7
370
    25
100
AcDbCircle
 10
8.9498906086
 20
10.6181821192
 30
0.0
 40
0.093
100
AcDbArc
 50
334.5019848005
 51
0.0
  0
LINE
  5
16C
330
1B
100
AcDbEntity
 67
     1
  8
0
  6
Continuous
 62
     7
370
    25
100
AcDbLine
 10
9.0428906086
 20
10.6181821192
 30
0.0
 11
9.0428906086
 21
11.7521821192
 31
0.0
  0
ARC
  5
16D
330
1B
100
AcDbEntity
 67
     1
  8
0
  6
Continuous
 62
     7
370
    25
100
AcDbCircle
 10
8.9498906086
 20
11.7521821192
 30
0.0
 40
0.0930000000000008
100
AcDbArc
 50
0.0
 51
25.4980151995
  0
ARC
  5
16E
330
1B
100
AcDbEntity
 67
     1
  8
0
  6
Continuous
 62
     7
370
    25
100
AcDbCircle
 10
8.9498906086
 20
11.7521821192
 30
0.0
 40
0.0930000000000017
100
AcDbArc
 50
65.0778169336
 51
90.0
  0
LINE
  5
16F
330
1B
100
AcDbEntity
 67
     1
  8
0
  6
Continuous
 62
     7
370
    25
100
AcDbLine
 10
5.3328906086
 20
10.1226821192
 30
0.0
 11
6.0928906086
 21
10.1226821192
 31
0.0
  0
LINE
  5
170
330
1B
100
AcDbEntity
 67
     1
  8
0
  6
Continuous
 62
     7
370
    25
100
AcDbLine
 10
9.0928906086
 20
10.2126821192
 30
0.0
 11
9.3528906086
 21
10.2126821192
 31
0.0
  0
LINE
  5
171
330
1B
100
AcDbEntity
 67
     1
  8
0
  6
Continuous
 62
     7
370
    25
100
AcDbLine
 10
9.3528906086
 20
10.2126821192
 30
0.0
 11
9.3528906086
 21
10.1226821192
 31
0.0
  0
LINE
  5
172
330
1B
100
AcDbEntity
 67
     1
  8
0
  6
Continuous
 62
     7
370
    25
100
AcDbLine
 10
6.4028906086
 20
11.7521821192
 30
0.0
 11
6.4028906086
 21
10.6181821192
 31
0.0
  0
LINE
  5
173
330
1B
100
AcDbEntity
 67
     1
  8
0
  6
Continuous
 62
     7
370
    25
100
AcDbLine
 10
6.0928906086
 20
12.3726821192
 30
0.0
 11
5.3328906086
 21
12.3726821192
 31
0.0
  0
LINE
  5
174
330
1B
100
AcDbEntity
 67
     1
  8
0
  6
Continuous
 62
     7
370
    25
100
AcDbLine
 10
7.9728906086
 20
12.3726821192
 30
0.0
 11
7.9728906086
 21
12.2826821192
 31
0.0
  0
LINE
  5
175
330
1B
100
AcDbEntity
 67
     1
  8
0
  6
Continuous
 62
     7
370
    25
100
AcDbLine
 10
9.9128906086
 20
11.3726821192
 30
0.0
 11
9.8428906086
 21
11.3726821192
 31
0.0
  0
LINE
  5
176
330
1B
100
AcDbEntity
 67
     1
  8
0
  6
Continuous
 62
     7
370
    25
100
AcDbLine
 10
9.8428906086
 20
11.7571821192
 30
0.0
 11
9.9128906086
 21
11.7571821192
 31
0.0
  0
LINE
  5
177
330
1B
100
AcDbEntity
 67
     1
  8
0
  6
Continuous
 62
     7
370
    25
100
AcDbLine
 10
9.0928906086
 20
10.1226821192
 30
0.0
 11
9.0928906086
 21
10.2126821192
 31
0.0
  0
LINE
  5
178
330
1B
100
AcDbEntity
 67
     1
  8
0
  6
Continuous
 62
     7
370
    25
100
AcDbLine
 10
7.9728906086
 20
12.2826821192
 30
0.0
 11
7.4728906086
 21
12.2826821192
 31
0.0
  0
LINE
  5
179
330
1B
100
AcDbEntity
 67
     1
  8
0
  6
Continuous
 62
     7
370
    25
100
AcDbLine
 10
9.9128906086
 20
11.7571821192
 30
0.0
 11
9.9128906086
 21
11.9446821192
 31
0.0
  0
LINE
  5
17A
330
1B
100
AcDbEntity
 67
     1
  8
0
  6
Continuous
 62
     7
370
    25
100
AcDbLine
 10
8.9498906086
 20
11.8451821192
 30
0.0
 11
6.4958906086
 21
11.8451821192
 31
0.0
  0
LINE
  5
17B
330
1B
100
AcDbEntity
 67
     1
  8
0
  6
Continuous
 62
     7
370
    25
100
AcDbLine
 10
6.0928906086
 20
10.1226821192
 30
0.0
 11
6.0928906086
 21
10.2126821192
 31
0.0
  0
LINE
  5
17C
330
1B
100
AcDbEntity
 67
     1
  8
0
  6
Continuous
 62
     7
370
    25
100
AcDbLine
 10
5.3028906086
 20
12.3426821192
 30
0.0
 11
5.3028906086
 21
11.4976821192
 31
0.0
  0
DIMENSION
  5
17D
330
1B
100
AcDbEntity
 67
     1
  8
DEFAULT
 62
     7
100
AcDbDimension
  2
_D
 10
9.9128906086
 20
9.1726260739
 30
0.0
 11
7.6078906086
 21
9.1726260739
 31
0.0
 70
   160
  1
<>
 71
     2
 42
-1.0
  3
SLDDIMSTYLE0
100
AcDbAlignedDimension
 13
5.3028906086
 23
10.1526821192
 33
0.0
 14
9.9128906086
 24
10.1226821192
 34
0.0
100
AcDbRotatedDimension
  0
DIMENSION
  5
197
330
1B
100
AcDbEntity
 67
     1
  8
DEFAULT
 62
     7
100
AcDbDimension
  2
_D_1
 10
11.368856918
 20
10.1226821192
 30
0.0
 11
11.368856918
 21
11.2476821192
 31
0.0
 70
   160
  1
<>
 71
     2
 42
-1.0
  3
SLDDIMSTYLE1
100
AcDbAlignedDimension
 13
9.5588906086
 23
12.3726821192
 33
0.0
 14
9.9128906086
 24
10.1226821192
 34
0.0
 50
90.0
100
AcDbRotatedDimension
  0
ENDSEC
  0
SECTION
  2
OBJECTS
  0
DICTIONARY
  5
C
330
0
100
AcDbDictionary
281
     1
  3
ACAD_GROUP
350
D
  3
ACAD_LAYOUT
350
1A
  3
ACAD_MLINESTYLE
350
17
  3
ACAD_PLOTSETTINGS
350
19
  3
ACAD_PLOTSTYLENAME
350
E
  3
ACAD_SCALELIST
350
47
  3
DWGPROPS
350
1B0
  0
DICTIONARY
  5
D
102
{ACAD_REACTORS
330
C
102
}
330
C
100
AcDbDictionary
281
     1
  0
DICTIONARY
  5
1A
102
{ACAD_REACTORS
330
C
102
}
330
C
100
AcDbDictionary
281
     1
  3
Model
350
22
  3
Sheet2
350
1E
  0
DICTIONARY
  5
17
102
{ACAD_REACTORS
330
C
102
}
330
C
100
AcDbDictionary
281
     1
  3
Standard
350
18
  0
DICTIONARY
  5
19
102
{ACAD_REACTORS
330
C
102
}
330
C
100
AcDbDictionary
281
     1
  0
ACDBDICTIONARYWDFLT
  5
E
102
{ACAD_REACTORS
330
C
102
}
330
C
100
AcDbDictionary
281
     1
  3
Normal
350
F
100
AcDbDictionaryWithDefault
340
F
  0
DICTIONARY
  5
47
102
{ACAD_REACTORS
330
C
102
}
330
C
100
AcDbDictionary
281
     1
  3
A0
350
48
  3
A1
350
49
  3
A2
350
4A
  3
A3
350
4B
  3
A4
350
4C
  3
A5
350
4D
  3
A6
350
4E
  3
A7
350
4F
  3
A8
350
50
  3
A9
350
51
  3
B1
350
52
  3
B2
350
53
  3
B3
350
54
  3
B4
350
55
  3
B5
350
56
  3
B6
350
57
  3
B7
350
58
  0
XRECORD
  5
1B0
102
{ACAD_REACTORS
330
C
102
}
330
C
100
AcDbXrecord
280
     1
  1
DWGPROPS COOKIE
  2

  3

  4

  6

  7

  8
tbowman
  9

300
=
301
=
302
=
303
=
304
=
305
=
306
=
307
=
308
=
309
=
 40
0.0
 41
2460293.786356458
 42
2460293.786357338
  1

 90
        0
  0
LAYOUT
  5
22
102
{ACAD_REACTORS
330
1A
102
}
330
1A
100
AcDbPlotSettings
  1

  2
none_device
  4
Letter_(8.50_x_11.00_Inches)
  6

 40
6.35
 41
6.35
 42
6.35000508
 43
6.35000508
 44
215.9
 45
279.4
 46
0.0
 47
0.0
 48
0.0
 49
0.0
140
0.0
141
0.0
142
1.0
143
1.0
 70
  1712
 72
     0
 73
     0
 74
     0
  7

 75
     0
147
1.0
148
0.0
149
0.0
100
AcDbLayout
  1
Model
 70
     1
 71
     0
 10
0.0
 20
0.0
 11
12.0
 21
9.0
 12
0.0
 22
0.0
 32
0.0
 14
0.0
 24
0.0
 34
0.0
 15
17.0
 25
22.0
 35
0.0
146
0.0
 13
0.0
 23
0.0
 33
0.0
 16
1.0
 26
0.0
 36
0.0
 17
0.0
 27
1.0
 37
0.0
 76
     0
330
1F
331
29
  0
LAYOUT
  5
1E
102
{ACAD_REACTORS
330
1A
102
}
330
1A
100
AcDbPlotSettings
  1

  2
none_device
  4
Letter_(8.50_x_11.00_Inches)
  6

 40
6.35
 41
6.35
 42
6.35000508
 43
6.35000508
 44
215.9
 45
279.4
 46
0.0
 47
0.0
 48
0.0
 49
0.0
140
0.0
141
0.0
142
1.0
143
1.0
 70
  4832
 72
     0
 73
     0
 74
     1
  7

 75
     0
147
1.0
148
0.0
149
0.0
100
AcDbLayout
  1
Sheet2
 70
     1
 71
     0
 10
0.0
 20
0.0
 11
17.0
 21
22.0
 12
0.0
 22
0.0
 32
0.0
 14
0.0
 24
0.0
 34
0.0
 15
17.0
 25
22.0
 35
0.0
146
0.0
 13
0.0
 23
0.0
 33
0.0
 16
1.0
 26
0.0
 36
0.0
 17
0.0
 27
1.0
 37
0.0
 76
     0
330
1B
331
69
  0
MLINESTYLE
  5
18
102
{ACAD_REACTORS
330
17
102
}
330
17
100
AcDbMlineStyle
  2
Standard
 70
     0
  3

 62
   256
 51
90.0
 52
90.0
 71
     2
 49
0.5
 62
   256
  6
BYLAYER
 49
-0.5
 62
   256
  6
BYLAYER
  0
ACDBPLACEHOLDER
  5
F
102
{ACAD_REACTORS
330
E
102
}
330
E
  0
SCALE
  5
48
102
{ACAD_REACTORS
330
47
102
}
330
47
100
AcDbScale
 70
     0
300
1:1
140
1.0
141
1.0
290
     1
  0
SCALE
  5
49
102
{ACAD_REACTORS
330
47
102
}
330
47
100
AcDbScale
 70
     0
300
1/128" = 1'-0"
140
0.0078125
141
12.0
290
     0
  0
SCALE
  5
4A
102
{ACAD_REACTORS
330
47
102
}
330
47
100
AcDbScale
 70
     0
300
1/64" = 1'-0"
140
0.015625
141
12.0
290
     0
  0
SCALE
  5
4B
102
{ACAD_REACTORS
330
47
102
}
330
47
100
AcDbScale
 70
     0
300
1/32" = 1'-0"
140
0.03125
141
12.0
290
     0
  0
SCALE
  5
4C
102
{ACAD_REACTORS
330
47
102
}
330
47
100
AcDbScale
 70
     0
300
1/16" = 1'-0"
140
0.0625
141
12.0
290
     0
  0
SCALE
  5
4D
102
{ACAD_REACTORS
330
47
102
}
330
47
100
AcDbScale
 70
     0
300
3/32" = 1'-0"
140
0.09375
141
12.0
290
     0
  0
SCALE
  5
4E
102
{ACAD_REACTORS
330
47
102
}
330
47
100
AcDbScale
 70
     0
300
1/8" = 1'-0"
140
0.125
141
12.0
290
     0
  0
SCALE
  5
4F
102
{ACAD_REACTORS
330
47
102
}
330
47
100
AcDbScale
 70
     0
300
3/16" = 1'-0"
140
0.1875
141
12.0
290
     0
  0
SCALE
  5
50
102
{ACAD_REACTORS
330
47
102
}
330
47
100
AcDbScale
 70
     0
300
1/4" = 1'-0"
140
0.25
141
12.0
290
     0
  0
SCALE
  5
51
102
{ACAD_REACTORS
330
47
102
}
330
47
100
AcDbScale
 70
     0
300
3/8" = 1'-0"
140
0.375
141
12.0
290
     0
  0
SCALE
  5
52
102
{ACAD_REACTORS
330
47
102
}
330
47
100
AcDbScale
 70
     0
300
1/2" = 1'-0"
140
0.5
141
12.0
290
     0
  0
SCALE
  5
53
102
{ACAD_REACTORS
330
47
102
}
330
47
100
AcDbScale
 70
     0
300
3/4" = 1'-0"
140
0.75
141
12.0
290
     0
  0
SCALE
  5
54
102
{ACAD_REACTORS
330
47
102
}
330
47
100
AcDbScale
 70
     0
300
1" = 1'-0"
140
1.0
141
12.0
290
     0
  0
SCALE
  5
55
102
{ACAD_REACTORS
330
47
102
}
330
47
100
AcDbScale
 70
     0
300
1-1/2" = 1'-0"
140
1.5
141
12.0
290
     0
  0
SCALE
  5
56
102
{ACAD_REACTORS
330
47
102
}
330
47
100
AcDbScale
 70
     0
300
3" = 1'-0"
140
3.0
141
12.0
290
     0
  0
SCALE
  5
57
102
{ACAD_REACTORS
330
47
102
}
330
47
100
AcDbScale
 70
     0
300
6" = 1'-0"
140
6.0
141
12.0
290
     0
  0
SCALE
  5
58
102
{ACAD_REACTORS
330
47
102
}
330
47
100
AcDbScale
 70
     0
300
1'-0" = 1'-0"
140
12.0
141
12.0
290
     0
  0
ENDSEC
  0
EOF
