  0
SECTION
  2
HEADER
  9
$ACADVER
  1
AC1015
  9
$ACADMAINTVER
 70
     6
  9
$DWGCODEPAGE
  3
ANSI_1252
  9
$INSBASE
 10
0.0
 20
0.0
 30
0.0
  9
$EXTMIN
 10
0.0
 20
0.0
 30
0.0
  9
$EXTMAX
 10
22.0
 20
17.0
 30
0.0
  9
$LIMMIN
 10
0.0
 20
0.0
  9
$LIMMAX
 10
22.0
 20
17.0
  9
$ORTHOMODE
 70
     0
  9
$REGENMODE
 70
     1
  9
$FILLMODE
 70
     1
  9
$QTEXTMODE
 70
     0
  9
$MIRRTEXT
 70
     1
  9
$LTSCALE
 40
2.0
  9
$ATTMODE
 70
     1
  9
$TEXTSIZE
 40
0.25
  9
$TRACEWID
 40
0.05
  9
$TEXTSTYLE
  7
Standard
  9
$CLAYER
  8
0
  9
$CELTYPE
  6
ByLayer
  9
$CECOLOR
 62
   256
  9
$CELTSCALE
 40
1.0
  9
$DISPSILH
 70
     0
  9
$DIMSCALE
 40
1.0
  9
$DIMASZ
 40
0.26
  9
$DIMEXO
 40
0.1
  9
$DIMDLI
 40
0.38
  9
$DIMRND
 40
0.0
  9
$DIMDLE
 40
0.0
  9
$DIMEXE
 40
0.25
  9
$DIMTP
 40
0.0
  9
$DIMTM
 40
0.0
  9
$DIMTXT
 40
0.25
  9
$DIMCEN
 40
0.09
  9
$DIMTSZ
 40
0.0
  9
$DIMTOL
 70
     0
  9
$DIMLIM
 70
     0
  9
$DIMTIH
 70
     1
  9
$DIMTOH
 70
     1
  9
$DIMSE1
 70
     0
  9
$DIMSE2
 70
     0
  9
$DIMTAD
 70
     0
  9
$DIMZIN
 70
     0
  9
$DIMBLK
  1

  9
$DIMASO
 70
     1
  9
$DIMSHO
 70
     1
  9
$DIMPOST
  1

  9
$DIMAPOST
  1

  9
$DIMALT
 70
     0
  9
$DIMALTD
 70
     2
  9
$DIMALTF
 40
25.4
  9
$DIMLFAC
 40
1.0
  9
$DIMTOFL
 70
     0
  9
$DIMTVP
 40
0.0
  9
$DIMTIX
 70
     0
  9
$DIMSOXD
 70
     0
  9
$DIMSAH
 70
     0
  9
$DIMBLK1
  1

  9
$DIMBLK2
  1

  9
$DIMSTYLE
  2
Standard
  9
$DIMCLRD
 70
     0
  9
$DIMCLRE
 70
     0
  9
$DIMCLRT
 70
     0
  9
$DIMTFAC
 40
1.0
  9
$DIMGAP
 40
0.12
  9
$DIMJUST
 70
     0
  9
$DIMSD1
 70
     0
  9
$DIMSD2
 70
     0
  9
$DIMTOLJ
 70
     1
  9
$DIMTZIN
 70
     0
  9
$DIMALTZ
 70
     0
  9
$DIMALTTZ
 70
     0
  9
$DIMUPT
 70
     0
  9
$DIMDEC
 70
     0
  9
$DIMTDEC
 70
     0
  9
$DIMALTU
 70
     2
  9
$DIMALTTD
 70
     2
  9
$DIMTXSTY
  7
Standard
  9
$DIMAUNIT
 70
     0
  9
$DIMADEC
 70
     0
  9
$DIMALTRND
 40
0.0
  9
$DIMAZIN
 70
     0
  9
$DIMDSEP
 70
    46
  9
$DIMATFIT
 70
     3
  9
$DIMFRAC
 70
     0
  9
$DIMLDRBLK
  1

  9
$DIMLUNIT
 70
     2
  9
$DIMLWD
 70
    -2
  9
$DIMLWE
 70
    -2
  9
$DIMTMOVE
 70
     0
  9
$LUNITS
 70
     2
  9
$LUPREC
 70
     0
  9
$SKETCHINC
 40
0.1
  9
$FILLETRAD
 40
0.5
  9
$AUNITS
 70
     0
  9
$AUPREC
 70
     0
  9
$MENU
  1
.
  9
$ELEVATION
 40
0.0
  9
$PELEVATION
 40
0.0
  9
$THICKNESS
 40
0.0
  9
$LIMCHECK
 70
     0
  9
$CHAMFERA
 40
0.5
  9
$CHAMFERB
 40
0.5
  9
$CHAMFERC
 40
1.0
  9
$CHAMFERD
 40
0.0
  9
$SKPOLY
 70
     0
  9
$TDCREATE
 40
2456511.313889468
  9
$TDUCREATE
 40
2456511.480556134
  9
$TDUPDATE
 40
2456511.313891331
  9
$TDUUPDATE
 40
2456511.480557998
  9
$TDINDWG
 40
0.0000000116
  9
$TDUSRTIMER
 40
0.0000000116
  9
$USRTIMER
 70
     1
  9
$ANGBASE
 50
0.0
  9
$ANGDIR
 70
     0
  9
$PDMODE
 70
     0
  9
$PDSIZE
 40
-1.0
  9
$PLINEWID
 40
0.0
  9
$SPLFRAME
 70
     0
  9
$SPLINETYPE
 70
     6
  9
$SPLINESEGS
 70
     8
  9
$HANDSEED
  5
FB
  9
$SURFTAB1
 70
     6
  9
$SURFTAB2
 70
     6
  9
$SURFTYPE
 70
     6
  9
$SURFU
 70
     6
  9
$SURFV
 70
     6
  9
$UCSBASE
  2

  9
$UCSNAME
  2

  9
$UCSORG
 10
0.0
 20
0.0
 30
0.0
  9
$UCSXDIR
 10
1.0
 20
0.0
 30
0.0
  9
$UCSYDIR
 10
0.0
 20
1.0
 30
0.0
  9
$UCSORTHOREF
  2

  9
$UCSORTHOVIEW
 70
     0
  9
$UCSORGTOP
 10
0.0
 20
0.0
 30
0.0
  9
$UCSORGBOTTOM
 10
0.0
 20
0.0
 30
0.0
  9
$UCSORGLEFT
 10
0.0
 20
0.0
 30
0.0
  9
$UCSORGRIGHT
 10
0.0
 20
0.0
 30
0.0
  9
$UCSORGFRONT
 10
0.0
 20
0.0
 30
0.0
  9
$UCSORGBACK
 10
0.0
 20
0.0
 30
0.0
  9
$PUCSBASE
  2

  9
$PUCSNAME
  2

  9
$PUCSORG
 10
0.0
 20
0.0
 30
0.0
  9
$PUCSXDIR
 10
1.0
 20
0.0
 30
0.0
  9
$PUCSYDIR
 10
0.0
 20
1.0
 30
0.0
  9
$PUCSORTHOREF
  2

  9
$PUCSORTHOVIEW
 70
     0
  9
$PUCSORGTOP
 10
0.0
 20
0.0
 30
0.0
  9
$PUCSORGBOTTOM
 10
0.0
 20
0.0
 30
0.0
  9
$PUCSORGLEFT
 10
0.0
 20
0.0
 30
0.0
  9
$PUCSORGRIGHT
 10
0.0
 20
0.0
 30
0.0
  9
$PUCSORGFRONT
 10
0.0
 20
0.0
 30
0.0
  9
$PUCSORGBACK
 10
0.0
 20
0.0
 30
0.0
  9
$USERI1
 70
     0
  9
$USERI2
 70
     0
  9
$USERI3
 70
     0
  9
$USERI4
 70
     0
  9
$USERI5
 70
     0
  9
$USERR1
 40
0.0
  9
$USERR2
 40
0.0
  9
$USERR3
 40
0.0
  9
$USERR4
 40
0.0
  9
$USERR5
 40
0.0
  9
$WORLDVIEW
 70
     1
  9
$SHADEDGE
 70
     3
  9
$SHADEDIF
 70
    70
  9
$TILEMODE
 70
     1
  9
$MAXACTVP
 70
    64
  9
$PINSBASE
 10
0.0
 20
0.0
 30
0.0
  9
$PLIMCHECK
 70
     0
  9
$PEXTMIN
 10
1.0000000000E+20
 20
1.0000000000E+20
 30
1.0000000000E+20
  9
$PEXTMAX
 10
-1.0000000000E+20
 20
-1.0000000000E+20
 30
-1.0000000000E+20
  9
$PLIMMIN
 10
0.0
 20
0.0
  9
$PLIMMAX
 10
12.0
 20
9.0
  9
$UNITMODE
 70
     0
  9
$VISRETAIN
 70
     1
  9
$PLINEGEN
 70
     0
  9
$PSLTSCALE
 70
     1
  9
$TREEDEPTH
 70
  3020
  9
$CMLSTYLE
  2
Standard
  9
$CMLJUST
 70
     0
  9
$CMLSCALE
 40
1.0
  9
$PROXYGRAPHICS
 70
     1
  9
$MEASUREMENT
 70
     0
  9
$CELWEIGHT
370
    -1
  9
$ENDCAPS
280
     0
  9
$JOINSTYLE
280
     0
  9
$LWDISPLAY
290
     1
  9
$INSUNITS
 70
     1
  9
$HYPERLINKBASE
  1

  9
$STYLESHEET
  1

  9
$XEDIT
290
     1
  9
$CEPSNTYPE
380
     0
  9
$PSTYLEMODE
290
     1
  9
$FINGERPRINTGUID
  2
{C7CB1D69-D705-4439-B534-687119A65D75}
  9
$VERSIONGUID
  2
{FAEB1C32-E019-11D5-929B-00C0DF256EC4}
  9
$EXTNAMES
290
     1
  9
$PSVPSCALE
 40
0.0
  9
$OLESTARTUP
290
     0
  0
ENDSEC
  0
SECTION
  2
CLASSES
  0
CLASS
  1
ACDBDICTIONARYWDFLT
  2
AcDbDictionaryWithDefault
  3
ObjectDBX Classes
 90
        0
280
     0
281
     0
  0
CLASS
  1
VISUALSTYLE
  2
AcDbVisualStyle
  3
ObjectDBX Classes
 90
     4095
280
     0
281
     0
  0
CLASS
  1
MATERIAL
  2
AcDbMaterial
  3
ObjectDBX Classes
 90
     1153
280
     0
281
     0
  0
CLASS
  1
ACDBPLACEHOLDER
  2
AcDbPlaceHolder
  3
ObjectDBX Classes
 90
        0
280
     0
281
     0
  0
CLASS
  1
LAYOUT
  2
AcDbLayout
  3
ObjectDBX Classes
 90
        0
280
     0
281
     0
  0
ENDSEC
  0
SECTION
  2
TABLES
  0
TABLE
  2
VPORT
  5
8
330
0
100
AcDbSymbolTable
 70
     1
  0
VPORT
  5
29
330
8
100
AcDbSymbolTableRecord
100
AcDbViewportTableRecord
  2
*Active
 70
     0
 10
0.0
 20
0.0
 11
1.0
 21
1.0
 12
11.0
 22
8.5
 13
0.0
 23
0.0
 14
0.5
 24
0.5
 15
0.5
 25
0.5
 16
0.0
 26
0.0
 36
1.0
 17
0.0
 27
0.0
 37
0.0
 40
17.0
 41
1.2941176471
 42
50.0
 43
0.0
 44
0.0
 50
0.0
 51
0.0
 71
     0
 72
  2000
 73
     1
 74
     3
 75
     0
 76
     0
 77
     0
 78
     0
281
     0
 65
     1
110
0.0
120
0.0
130
0.0
111
1.0
121
0.0
131
0.0
112
0.0
122
1.0
132
0.0
 79
     0
146
0.0
  0
ENDTAB
  0
TABLE
  2
LTYPE
  5
5
330
0
100
AcDbSymbolTable
 70
     6
  0
LTYPE
  5
14
330
5
100
AcDbSymbolTableRecord
100
AcDbLinetypeTableRecord
  2
ByBlock
 70
     0
  3

 72
    65
 73
     0
 40
0.0
  0
LTYPE
  5
15
330
5
100
AcDbSymbolTableRecord
100
AcDbLinetypeTableRecord
  2
ByLayer
 70
     0
  3

 72
    65
 73
     0
 40
0.0
  0
LTYPE
  5
16
330
5
100
AcDbSymbolTableRecord
100
AcDbLinetypeTableRecord
  2
Continuous
 70
     0
  3
Solid line
 72
    65
 73
     0
 40
0.0
  0
LTYPE
  5
3F
330
5
100
AcDbSymbolTableRecord
100
AcDbLinetypeTableRecord
  2
HIDDEN
 70
     0
  3
Hidden __ __ __ __ __ __ __ __ __ __ __ __ __ __
 72
    65
 73
     2
 40
0.075
 49
0.05
 74
     0
 49
-0.025
 74
     0
  0
LTYPE
  5
40
330
5
100
AcDbSymbolTableRecord
100
AcDbLinetypeTableRecord
  2
PHANTOM
 70
     0
  3
Phantom ______  __  __  ______  __  __  ______
 72
    65
 73
     6
 40
0.5
 49
0.25
 74
     0
 49
-0.05
 74
     0
 49
0.05
 74
     0
 49
-0.05
 74
     0
 49
0.05
 74
     0
 49
-0.05
 74
     0
  0
LTYPE
  5
41
330
5
100
AcDbSymbolTableRecord
100
AcDbLinetypeTableRecord
  2
CENTER
 70
     0
  3
Center ____ _ ____ _ ____ _ ____ _ ____ _ ____
 72
    65
 73
     4
 40
0.4
 49
0.25
 74
     0
 49
-0.05
 74
     0
 49
0.05
 74
     0
 49
-0.05
 74
     0
  0
LTYPE
  5
42
330
5
100
AcDbSymbolTableRecord
100
AcDbLinetypeTableRecord
  2
CENTERX2
 70
     0
  3
Center (2x) ________  __  ________  __  _____
 72
    65
 73
     4
 40
0.8
 49
0.5
 74
     0
 49
-0.1
 74
     0
 49
0.1
 74
     0
 49
-0.1
 74
     0
  0
LTYPE
  5
43
330
5
100
AcDbSymbolTableRecord
100
AcDbLinetypeTableRecord
  2
DOT2
 70
     0
  3
Dot (.5x) ........................................
 72
    65
 73
     2
 40
0.025
 49
0.0
 74
     0
 49
-0.025
 74
     0
  0
ENDTAB
  0
TABLE
  2
LAYER
  5
2
330
0
100
AcDbSymbolTable
 70
     8
  0
LAYER
  5
10
330
2
100
AcDbSymbolTableRecord
100
AcDbLayerTableRecord
  2
0
 70
     0
 62
     7
  6
Continuous
370
    -3
390
F
  0
LAYER
  5
44
330
2
100
AcDbSymbolTableRecord
100
AcDbLayerTableRecord
  2
FORMAT
 70
     0
 62
     7
  6
Continuous
370
    -3
390
F
  0
LAYER
  5
45
330
2
100
AcDbSymbolTableRecord
100
AcDbLayerTableRecord
  2
DEFAULT
 70
     0
 62
   179
  6
Continuous
370
    -3
390
F
  0
LAYER
  5
46
330
2
100
AcDbSymbolTableRecord
100
AcDbLayerTableRecord
  2
INSPECTION_TAGS
 70
     0
 62
     7
  6
Continuous
370
    -3
390
F
  0
LAYER
  5
47
330
2
100
AcDbSymbolTableRecord
100
AcDbLayerTableRecord
  2
REVISIONS
 70
     0
 62
     7
  6
Continuous
370
    -3
390
F
  0
LAYER
  5
48
330
2
100
AcDbSymbolTableRecord
100
AcDbLayerTableRecord
  2
DIMENSIONS_&_ANNOTATIONS
 70
     0
 62
     7
  6
Continuous
370
    -3
390
F
  0
LAYER
  5
49
330
2
100
AcDbSymbolTableRecord
100
AcDbLayerTableRecord
  2
HIDDEN
 70
     0
 62
    -7
  6
Continuous
370
    -3
390
F
  0
LAYER
  5
4A
330
2
100
AcDbSymbolTableRecord
100
AcDbLayerTableRecord
  2
DIMENSION_&_ANNOTATIONS
 70
     0
 62
     7
  6
Continuous
370
    -3
390
F
  0
ENDTAB
  0
TABLE
  2
STYLE
  5
3
330
0
100
AcDbSymbolTable
 70
     2
  0
STYLE
  5
11
330
3
100
AcDbSymbolTableRecord
100
AcDbTextStyleTableRecord
  2
Standard
 70
     0
 40
0.0
 41
1.0
 50
0.0
 71
     0
 42
0.25
  3
txt
  4

  0
STYLE
  5
4E
330
3
100
AcDbSymbolTableRecord
100
AcDbTextStyleTableRecord
  2
SLDTEXTSTYLE0
 70
     0
 40
0.0
 41
0.75
 50
0.0
 71
     0
 42
0.2
  3
TXT
  4

  0
ENDTAB
  0
TABLE
  2
VIEW
  5
6
330
0
100
AcDbSymbolTable
 70
     0
  0
ENDTAB
  0
TABLE
  2
UCS
  5
7
330
0
100
AcDbSymbolTable
 70
     0
  0
ENDTAB
  0
TABLE
  2
APPID
  5
9
330
0
100
AcDbSymbolTable
 70
     1
  0
APPID
  5
12
330
9
100
AcDbSymbolTableRecord
100
AcDbRegAppTableRecord
  2
ACAD
 70
     0
  0
ENDTAB
  0
TABLE
  2
DIMSTYLE
  5
A
330
0
100
AcDbSymbolTable
 70
     2
100
AcDbDimStyleTable
  0
DIMSTYLE
105
27
330
A
100
AcDbSymbolTableRecord
100
AcDbDimStyleTableRecord
  2
Standard
 70
     0
178
     0
340
11
  0
DIMSTYLE
105
76
102
{ACAD_REACTORS
330
75
330
81
330
AC
102
}
330
A
100
AcDbSymbolTableRecord
100
AcDbDimStyleTableRecord
  2
SLDDIMSTYLE0
 70
     0
 41
0.26
 44
0.0
 45
0.000000001
 78
    12
 79
     3
140
0.25
147
0.0625
173
     1
178
     0
271
     0
272
     0
276
     2
277
     5
284
    12
340
4E
  0
ENDTAB
  0
TABLE
  2
BLOCK_RECORD
  5
1
330
0
100
AcDbSymbolTable
 70
     5
  0
BLOCK_RECORD
  5
1F
330
1
100
AcDbSymbolTableRecord
100
AcDbBlockTableRecord
  2
*Model_Space
340
22
  0
BLOCK_RECORD
  5
1B
330
1
100
AcDbSymbolTableRecord
100
AcDbBlockTableRecord
  2
*Paper_Space
340
1E
  0
BLOCK_RECORD
  5
23
330
1
100
AcDbSymbolTableRecord
100
AcDbBlockTableRecord
  2
*Paper_Space0
340
26
  0
BLOCK_RECORD
  5
4B
330
1
100
AcDbSymbolTableRecord
100
AcDbBlockTableRecord
  2
SW_NOTE_0
340
0
102
{BLKREFS
331
54
102
}
  0
BLOCK_RECORD
  5
77
330
1
100
AcDbSymbolTableRecord
100
AcDbBlockTableRecord
  2
_D
340
0
  0
BLOCK_RECORD
  5
82
330
1
100
AcDbSymbolTableRecord
100
AcDbBlockTableRecord
  2
_D_1
340
0
  0
BLOCK_RECORD
  5
AD
330
1
100
AcDbSymbolTableRecord
100
AcDbBlockTableRecord
  2
_D_2
340
0
  0
ENDTAB
  0
ENDSEC
  0
SECTION
  2
BLOCKS
  0
BLOCK
  5
20
330
1F
100
AcDbEntity
  8
0
100
AcDbBlockBegin
  2
*Model_Space
 70
     0
 10
0.0
 20
0.0
 30
0.0
  3
*Model_Space
  1

  0
ENDBLK
  5
21
330
1F
100
AcDbEntity
  8
0
100
AcDbBlockEnd
  0
BLOCK
  5
1C
330
1B
100
AcDbEntity
 67
     1
  8
0
100
AcDbBlockBegin
  2
*Paper_Space
 70
     0
 10
0.0
 20
0.0
 30
0.0
  3
*Paper_Space
  1

  0
ENDBLK
  5
1D
330
1B
100
AcDbEntity
 67
     1
  8
0
100
AcDbBlockEnd
  0
BLOCK
  5
24
330
23
100
AcDbEntity
  8
0
100
AcDbBlockBegin
  2
*Paper_Space0
 70
     0
 10
0.0
 20
0.0
 30
0.0
  3
*Paper_Space0
  1

  0
ENDBLK
  5
25
330
23
100
AcDbEntity
  8
0
100
AcDbBlockEnd
  0
BLOCK
  5
4C
330
4B
100
AcDbEntity
  8
0
100
AcDbBlockBegin
  2
SW_NOTE_0
 70
     0
 10
0.0
 20
0.0
 30
0.0
  3
SW_NOTE_0
  1

  0
MTEXT
  5
4F
330
4B
100
AcDbEntity
  8
DEFAULT
 62
     0
100
AcDbMText
 10
1.5234375
 20
0.6445338699
 30
0.0
 40
0.5
 41
0.0
 71
     2
 72
     1
  1
LEGRAND
  7
SLDTEXTSTYLE0
 73
     1
 44
1.0
  0
MTEXT
  5
50
330
4B
100
AcDbEntity
  8
DEFAULT
 62
     0
100
AcDbMText
 10
1.4982643407
 20
-0.001993928
 30
0.0
 40
0.5
 41
0.0
 71
     2
 72
     1
  1
SYSTEM: EVOLUTION WALL BOX
  7
SLDTEXTSTYLE0
 73
     1
 44
1.0
  0
MTEXT
  5
51
330
4B
100
AcDbEntity
  8
DEFAULT
 62
     0
100
AcDbMText
 10
1.4675348094
 20
-0.648521726
 30
0.0
 40
0.5
 41
0.0
 71
     2
 72
     1
  1
CATALOG NUMBER: EFS-DIV
  7
SLDTEXTSTYLE0
 73
     1
 44
1.0
  0
MTEXT
  5
52
330
4B
100
AcDbEntity
  8
DEFAULT
 62
     0
100
AcDbMText
 10
1.5199652068
 20
-1.2950495239
 30
0.0
 40
0.5
 41
0.0
 71
     2
 72
     1
  1
SCALE 1:2
  7
SLDTEXTSTYLE0
 73
     1
 44
1.0
  0
MTEXT
  5
53
330
4B
100
AcDbEntity
  8
DEFAULT
 62
     0
100
AcDbMText
 10
1.5260415547
 20
-1.9415773218
 30
0.0
 40
0.5
 41
0.0
 71
     2
 72
     1
  1
06/24/13
  7
SLDTEXTSTYLE0
 73
     1
 44
1.0
  0
ENDBLK
  5
4D
330
4B
100
AcDbEntity
  8
0
100
AcDbBlockEnd
  0
BLOCK
  5
78
330
77
100
AcDbEntity
  8
0
100
AcDbBlockBegin
  2
_D
 70
     0
 10
0.0
 20
0.0
 30
0.0
  3
_D
  1

  0
SOLID
  5
7A
330
77
100
AcDbEntity
  8
DEFAULT
 62
     7
100
AcDbTrace
 10
10.8957414368
 20
6.3629153605
 30
0.0
 11
10.9357414368
 21
6.6229153605
 31
0.0
 12
10.8557414368
 22
6.6229153605
 32
0.0
 13
10.8557414368
 23
6.6229153605
 33
0.0
  0
SOLID
  5
7B
330
77
100
AcDbEntity
  8
DEFAULT
 62
     7
100
AcDbTrace
 10
10.8957414368
 20
10.0029153605
 30
0.0
 11
10.8557414368
 21
9.7429153605
 31
0.0
 12
10.9357414368
 22
9.7429153605
 32
0.0
 13
10.9357414368
 23
9.7429153605
 33
0.0
  0
LINE
  5
7C
330
77
100
AcDbEntity
  8
DEFAULT
 62
     7
100
AcDbLine
 10
9.5758979329
 20
6.3629153605
 30
0.0
 11
11.1457414368
 21
6.3629153605
 31
0.0
  0
LINE
  5
7D
330
77
100
AcDbEntity
  8
DEFAULT
 62
     7
100
AcDbLine
 10
8.0458979329
 20
10.0029153605
 30
0.0
 11
11.1457414368
 21
10.0029153605
 31
0.0
  0
LINE
  5
7E
330
77
100
AcDbEntity
  8
DEFAULT
 62
     7
100
AcDbLine
 10
10.8957414368
 20
6.3629153605
 30
0.0
 11
10.8957414368
 21
7.9844778545
 31
0.0
  0
LINE
  5
7F
330
77
100
AcDbEntity
  8
DEFAULT
 62
     7
100
AcDbLine
 10
10.8957414368
 20
10.0029153605
 30
0.0
 11
10.8957414368
 21
8.3813528665
 31
0.0
  0
MTEXT
  5
80
330
77
100
AcDbEntity
  8
DEFAULT
 62
     7
100
AcDbMText
 10
10.3464359058
 20
8.306744817
 30
-0.6205620079
 40
0.25
 41
0.0
 71
     1
 72
     1
  1
3 5/8"
  7
SLDTEXTSTYLE0
 73
     1
 44
1.0
  0
ENDBLK
  5
79
330
77
100
AcDbEntity
  8
0
100
AcDbBlockEnd
  0
BLOCK
  5
83
330
82
100
AcDbEntity
  8
0
100
AcDbBlockBegin
  2
_D_1
 70
     0
 10
0.0
 20
0.0
 30
0.0
  3
_D_1
  1

  0
SOLID
  5
85
330
82
100
AcDbEntity
  8
DEFAULT
 62
     7
100
AcDbTrace
 10
9.5358979329
 20
5.5755137857
 30
0.0
 11
9.2758979329
 21
5.6155137857
 31
0.0
 12
9.2758979329
 22
5.5355137857
 32
0.0
 13
9.2758979329
 23
5.5355137857
 33
0.0
  0
SOLID
  5
86
330
82
100
AcDbEntity
  8
DEFAULT
 62
     7
100
AcDbTrace
 10
5.8049788258
 20
5.5755137857
 30
0.0
 11
6.0649788258
 21
5.5355137857
 31
0.0
 12
6.0649788258
 22
5.6155137857
 32
0.0
 13
6.0649788258
 23
5.6155137857
 33
0.0
  0
LINE
  5
87
330
82
100
AcDbEntity
  8
DEFAULT
 62
     7
100
AcDbLine
 10
9.5358979329
 20
6.3229153605
 30
0.0
 11
9.5358979329
 21
5.3255137857
 31
0.0
  0
LINE
  5
88
330
82
100
AcDbEntity
  8
DEFAULT
 62
     7
100
AcDbLine
 10
5.8049788258
 20
6.3038344675
 30
0.0
 11
5.8049788258
 21
5.3255137857
 31
0.0
  0
LINE
  5
89
330
82
100
AcDbEntity
  8
DEFAULT
 62
     7
100
AcDbLine
 10
9.5358979329
 20
5.5755137857
 30
0.0
 11
8.2197439104
 21
5.5755137857
 31
0.0
  0
LINE
  5
8A
330
82
100
AcDbEntity
  8
DEFAULT
 62
     7
100
AcDbLine
 10
5.8049788258
 20
5.5755137857
 30
0.0
 11
7.1211328483
 21
5.5755137857
 31
0.0
  0
MTEXT
  5
8B
330
82
100
AcDbEntity
  8
DEFAULT
 62
     7
100
AcDbMText
 10
7.1211328483
 20
5.6993432422
 30
-0.6205620079
 40
0.25
 41
0.0
 71
     1
 72
     1
  1
3 3/4"
  7
SLDTEXTSTYLE0
 73
     1
 44
1.0
  0
ENDBLK
  5
84
330
82
100
AcDbEntity
  8
0
100
AcDbBlockEnd
  0
BLOCK
  5
AE
330
AD
100
AcDbEntity
  8
0
100
AcDbBlockBegin
  2
_D_2
 70
     0
 10
0.0
 20
0.0
 30
0.0
  3
_D_2
  1

  0
SOLID
  5
B0
330
AD
100
AcDbEntity
  8
DEFAULT
 62
     7
100
AcDbTrace
 10
5.017577251
 20
14.4228657869
 30
0.0
 11
4.977577251
 21
14.1628657869
 31
0.0
 12
5.057577251
 22
14.1628657869
 32
0.0
 13
5.057577251
 23
14.1628657869
 33
0.0
  0
SOLID
  5
B1
330
AD
100
AcDbEntity
  8
DEFAULT
 62
     7
100
AcDbTrace
 10
5.017577251
 20
13.0318657869
 30
0.0
 11
5.057577251
 21
13.2918657869
 31
0.0
 12
4.977577251
 22
13.2918657869
 32
0.0
 13
4.977577251
 23
13.2918657869
 33
0.0
  0
LINE
  5
B2
330
AD
100
AcDbEntity
  8
DEFAULT
 62
     7
100
AcDbLine
 10
5.7049788258
 20
14.4228657869
 30
0.0
 11
4.767577251
 21
14.4228657869
 31
0.0
  0
LINE
  5
B3
330
AD
100
AcDbEntity
  8
DEFAULT
 62
     7
100
AcDbLine
 10
6.2158979329
 20
13.0318657869
 30
0.0
 11
4.767577251
 21
13.0318657869
 31
0.0
  0
LINE
  5
B4
330
AD
100
AcDbEntity
  8
DEFAULT
 62
     7
100
AcDbLine
 10
5.017577251
 20
14.4228657869
 30
0.0
 11
5.017577251
 21
13.9258032929
 31
0.0
  0
LINE
  5
B5
330
AD
100
AcDbEntity
  8
DEFAULT
 62
     7
100
AcDbLine
 10
5.017577251
 20
13.0318657869
 30
0.0
 11
5.017577251
 21
13.5289282809
 31
0.0
  0
MTEXT
  5
B6
330
AD
100
AcDbEntity
  8
DEFAULT
 62
     7
100
AcDbMText
 10
4.46827172
 20
13.8511952434
 30
-1.8160629921
 40
0.25
 41
0.0
 71
     1
 72
     1
  1
1 3/8"
  7
SLDTEXTSTYLE0
 73
     1
 44
1.0
  0
ENDBLK
  5
AF
330
AD
100
AcDbEntity
  8
0
100
AcDbBlockEnd
  0
ENDSEC
  0
SECTION
  2
ENTITIES
  0
INSERT
  5
54
330
1F
100
AcDbEntity
  8
DEFAULT
100
AcDbBlockReference
  2
SW_NOTE_0
 10
9.3982510661
 20
3.0871339545
 30
0.0
  0
LINE
  5
55
330
1F
100
AcDbEntity
  8
0
  6
Continuous
 62
     7
370
    15
100
AcDbLine
 10
6.3158979329
 20
6.4339153605
 30
0.0
 11
6.3158979329
 21
6.3629153605
 31
0.0
  0
LINE
  5
56
330
1F
100
AcDbEntity
  8
0
  6
Continuous
 62
     7
370
    15
100
AcDbLine
 10
6.3158979329
 20
6.4339153605
 30
0.0
 11
6.9458979329
 21
6.4339153605
 31
0.0
  0
LINE
  5
57
330
1F
100
AcDbEntity
  8
0
  6
Continuous
 62
     7
370
    15
100
AcDbLine
 10
6.9458979329
 20
6.3629153605
 30
0.0
 11
6.9458979329
 21
6.4339153605
 31
0.0
  0
LINE
  5
58
330
1F
100
AcDbEntity
  8
0
  6
Continuous
 62
     7
370
    15
100
AcDbLine
 10
6.3158979329
 20
6.3629153605
 30
0.0
 11
6.9458979329
 21
6.3629153605
 31
0.0
  0
LINE
  5
59
330
1F
100
AcDbEntity
  8
0
  6
Continuous
 62
     7
370
    15
100
AcDbLine
 10
6.9458979329
 20
6.4339153605
 30
0.0
 11
7.0058979329
 21
6.4339153605
 31
0.0
  0
LINE
  5
5A
330
1F
100
AcDbEntity
  8
0
  6
Continuous
 62
     7
370
    15
100
AcDbLine
 10
7.0058979329
 20
6.4339153605
 30
0.0
 11
7.0058979329
 21
6.3629153605
 31
0.0
  0
LINE
  5
5B
330
1F
100
AcDbEntity
  8
0
  6
Continuous
 62
     7
370
    15
100
AcDbLine
 10
7.0058979329
 20
6.3629153605
 30
0.0
 11
6.9458979329
 21
6.3629153605
 31
0.0
  0
LINE
  5
5C
330
1F
100
AcDbEntity
  8
0
  6
Continuous
 62
     7
370
    15
100
AcDbLine
 10
6.2558979329
 20
6.3629153605
 30
0.0
 11
6.2558979329
 21
6.4339153605
 31
0.0
  0
LINE
  5
5D
330
1F
100
AcDbEntity
  8
0
  6
Continuous
 62
     7
370
    15
100
AcDbLine
 10
6.2558979329
 20
6.4339153605
 30
0.0
 11
6.3158979329
 21
6.4339153605
 31
0.0
  0
LINE
  5
5E
330
1F
100
AcDbEntity
  8
0
  6
Continuous
 62
     7
370
    15
100
AcDbLine
 10
6.3158979329
 20
6.3629153605
 30
0.0
 11
6.2558979329
 21
6.3629153605
 31
0.0
  0
LINE
  5
5F
330
1F
100
AcDbEntity
  8
0
  6
Continuous
 62
     7
370
    15
100
AcDbLine
 10
6.2558979329
 20
6.4639153605
 30
0.0
 11
6.2558979329
 21
6.4339153605
 31
0.0
  0
LINE
  5
60
330
1F
100
AcDbEntity
  8
0
  6
Continuous
 62
     7
370
    15
100
AcDbLine
 10
7.0058979329
 20
6.4639153605
 30
0.0
 11
6.2558979329
 21
6.4639153605
 31
0.0
  0
LINE
  5
61
330
1F
100
AcDbEntity
  8
0
  6
Continuous
 62
     7
370
    15
100
AcDbLine
 10
7.0058979329
 20
6.4339153605
 30
0.0
 11
7.0058979329
 21
6.4639153605
 31
0.0
  0
LINE
  5
62
330
1F
100
AcDbEntity
  8
0
  6
Continuous
 62
     7
370
    15
100
AcDbLine
 10
7.0628979329
 20
6.3629153605
 30
0.0
 11
7.0628979329
 21
6.4639153605
 31
0.0
  0
LINE
  5
63
330
1F
100
AcDbEntity
  8
0
  6
Continuous
 62
     7
370
    15
100
AcDbLine
 10
7.0628979329
 20
6.4639153605
 30
0.0
 11
7.0058979329
 21
6.4639153605
 31
0.0
  0
LINE
  5
64
330
1F
100
AcDbEntity
  8
0
  6
Continuous
 62
     7
370
    15
100
AcDbLine
 10
6.2558979329
 20
6.4639153605
 30
0.0
 11
6.1988979329
 21
6.4639153605
 31
0.0
  0
LINE
  5
65
330
1F
100
AcDbEntity
  8
0
  6
Continuous
 62
     7
370
    15
100
AcDbLine
 10
6.1988979329
 20
6.4639153605
 30
0.0
 11
6.1988979329
 21
6.3629153605
 31
0.0
  0
LINE
  5
66
330
1F
100
AcDbEntity
  8
0
  6
Continuous
 62
     7
370
    15
100
AcDbLine
 10
5.8458979329
 20
6.3629153605
 30
0.0
 11
6.1988979329
 21
6.3629153605
 31
0.0
  0
LINE
  5
67
330
1F
100
AcDbEntity
  8
0
  6
Continuous
 62
     7
370
    15
100
AcDbLine
 10
5.8049788258
 20
6.4038344675
 30
0.0
 11
5.8458979329
 21
6.3629153605
 31
0.0
  0
LINE
  5
68
330
1F
100
AcDbEntity
  8
0
  6
Continuous
 62
     7
370
    15
100
AcDbLine
 10
7.4832578085
 20
10.0029153605
 30
0.0
 11
5.8049788258
 21
6.4038344675
 31
0.0
  0
LINE
  5
69
330
1F
100
AcDbEntity
  8
0
  6
Continuous
 62
     7
370
    15
100
AcDbLine
 10
7.9458979329
 20
10.0029153605
 30
0.0
 11
7.4832578085
 21
10.0029153605
 31
0.0
  0
LINE
  5
6A
330
1F
100
AcDbEntity
  8
0
  6
Continuous
 62
     7
370
    15
100
AcDbLine
 10
8.0058979329
 20
9.9429153605
 30
0.0
 11
7.9458979329
 21
10.0029153605
 31
0.0
  0
LINE
  5
6B
330
1F
100
AcDbEntity
  8
0
  6
Continuous
 62
     7
370
    15
100
AcDbLine
 10
8.0058979329
 20
9.5729153605
 30
0.0
 11
8.0058979329
 21
9.9429153605
 31
0.0
  0
LINE
  5
6C
330
1F
100
AcDbEntity
  8
0
  6
Continuous
 62
     7
370
    15
100
AcDbLine
 10
9.4758979329
 20
9.5729153605
 30
0.0
 11
8.0058979329
 21
9.5729153605
 31
0.0
  0
LINE
  5
6D
330
1F
100
AcDbEntity
  8
0
  6
Continuous
 62
     7
370
    15
100
AcDbLine
 10
9.5358979329
 20
9.5129153605
 30
0.0
 11
9.4758979329
 21
9.5729153605
 31
0.0
  0
LINE
  5
6E
330
1F
100
AcDbEntity
  8
0
  6
Continuous
 62
     7
370
    15
100
AcDbLine
 10
9.5358979329
 20
8.8329153605
 30
0.0
 11
9.5358979329
 21
9.5129153605
 31
0.0
  0
LINE
  5
6F
330
1F
100
AcDbEntity
  8
0
  6
Continuous
 62
     7
370
    15
100
AcDbLine
 10
9.5358979329
 20
8.8329153605
 30
0.0
 11
9.6358979329
 21
8.8329153605
 31
0.0
  0
LINE
  5
70
330
1F
100
AcDbEntity
  8
0
  6
Continuous
 62
     7
370
    15
100
AcDbLine
 10
9.6358979329
 20
8.8329153605
 30
0.0
 11
9.6358979329
 21
8.6029153605
 31
0.0
  0
LINE
  5
71
330
1F
100
AcDbEntity
  8
0
  6
Continuous
 62
     7
370
    15
100
AcDbLine
 10
9.6358979329
 20
8.6029153605
 30
0.0
 11
9.5358979329
 21
8.6029153605
 31
0.0
  0
LINE
  5
72
330
1F
100
AcDbEntity
  8
0
  6
Continuous
 62
     7
370
    15
100
AcDbLine
 10
9.5358979329
 20
6.4229153605
 30
0.0
 11
9.5358979329
 21
8.6029153605
 31
0.0
  0
LINE
  5
73
330
1F
100
AcDbEntity
  8
0
  6
Continuous
 62
     7
370
    15
100
AcDbLine
 10
9.4758979329
 20
6.3629153605
 30
0.0
 11
9.5358979329
 21
6.4229153605
 31
0.0
  0
LINE
  5
74
330
1F
100
AcDbEntity
  8
0
  6
Continuous
 62
     7
370
    15
100
AcDbLine
 10
7.0628979329
 20
6.3629153605
 30
0.0
 11
9.4758979329
 21
6.3629153605
 31
0.0
  0
DIMENSION
  5
75
330
1F
100
AcDbEntity
  8
DEFAULT
 62
     7
100
AcDbDimension
  2
_D
 10
10.8957414368
 20
10.0029153605
 30
0.0
 11
10.8957414368
 21
8.1829153605
 31
0.0
 70
   160
  1
<>
 71
     2
 42
-1.0
  3
SLDDIMSTYLE0
100
AcDbAlignedDimension
 13
9.4758979329
 23
6.3629153605
 33
0.0
 14
7.9458979329
 24
10.0029153605
 34
0.0
 50
90.0
100
AcDbRotatedDimension
  0
DIMENSION
  5
81
330
1F
100
AcDbEntity
  8
DEFAULT
 62
     7
100
AcDbDimension
  2
_D_1
 10
5.8049788258
 20
5.5755137857
 30
0.0
 11
7.6704383793
 21
5.5755137857
 31
0.0
 70
   160
  1
<>
 71
     2
 42
-1.0
  3
SLDDIMSTYLE0
100
AcDbAlignedDimension
 13
9.5358979329
 23
6.4229153605
 33
0.0
 14
5.8049788258
 24
6.4038344675
 34
0.0
100
AcDbRotatedDimension
  0
MTEXT
  5
8C
330
1F
100
AcDbEntity
  8
DEFAULT
 62
     7
100
AcDbMText
 10
7.2312225705
 20
4.9023572817
 30
0.0
 40
0.25
 41
0.0
 71
     1
 72
     1
  1
FRONT
  7
SLDTEXTSTYLE0
 73
     1
 44
1.0
  0
LINE
  5
8D
330
1F
100
AcDbEntity
  8
0
  6
Continuous
 62
     7
370
    15
100
AcDbLine
 10
8.0058978606
 20
14.4228657867
 30
0.0
 11
8.0058978606
 21
14.3518657869
 31
0.0
  0
LINE
  5
8E
330
1F
100
AcDbEntity
  8
0
  6
Continuous
 62
     7
370
    15
100
AcDbLine
 10
8.0058978606
 20
14.3518657869
 30
0.0
 11
7.9458979537
 21
14.3518657869
 31
0.0
  0
LINE
  5
8F
330
1F
100
AcDbEntity
  8
0
  6
Continuous
 62
     7
370
    15
100
AcDbLine
 10
7.9458979537
 20
14.3518657869
 30
0.0
 11
7.9458979537
 21
14.4228657867
 31
0.0
  0
LINE
  5
90
330
1F
100
AcDbEntity
  8
0
  6
Continuous
 62
     7
370
    15
100
AcDbLine
 10
7.9458979537
 20
14.4228657867
 30
0.0
 11
8.0058978606
 21
14.4228657867
 31
0.0
  0
LINE
  5
91
330
1F
100
AcDbEntity
  8
0
  6
Continuous
 62
     7
370
    15
100
AcDbLine
 10
7.4832578181
 20
14.4228657867
 30
0.0
 11
7.4832578181
 21
14.3518657869
 31
0.0
  0
LINE
  5
92
330
1F
100
AcDbEntity
  8
0
  6
Continuous
 62
     7
370
    15
100
AcDbLine
 10
7.9458979537
 20
14.3518657869
 30
0.0
 11
7.4832578181
 21
14.3518657869
 31
0.0
  0
LINE
  5
93
330
1F
100
AcDbEntity
  8
0
  6
Continuous
 62
     7
370
    15
100
AcDbLine
 10
7.9458979537
 20
14.4228657867
 30
0.0
 11
7.4832578181
 21
14.4228657867
 31
0.0
  0
LINE
  5
94
330
1F
100
AcDbEntity
  8
0
  6
Continuous
 62
     7
370
    15
100
AcDbLine
 10
5.8049788258
 20
14.4228657867
 30
0.0
 11
5.8049788258
 21
14.3518657869
 31
0.0
  0
LINE
  5
95
330
1F
100
AcDbEntity
  8
0
  6
Continuous
 62
     7
370
    15
100
AcDbLine
 10
7.4832578181
 20
14.3518657869
 30
0.0
 11
5.8049788258
 21
14.3518657869
 31
0.0
  0
LINE
  5
96
330
1F
100
AcDbEntity
  8
0
  6
Continuous
 62
     7
370
    15
100
AcDbLine
 10
7.4832578181
 20
14.4228657867
 30
0.0
 11
5.8049788258
 21
14.4228657867
 31
0.0
  0
LINE
  5
97
330
1F
100
AcDbEntity
  8
0
  6
Continuous
 62
     7
370
    15
100
AcDbLine
 10
9.475897999
 20
14.3518657869
 30
0.0
 11
9.475897999
 21
14.4228657867
 31
0.0
  0
LINE
  5
98
330
1F
100
AcDbEntity
  8
0
  6
Continuous
 62
     7
370
    15
100
AcDbLine
 10
9.475897999
 20
14.3518657869
 30
0.0
 11
8.0058978606
 21
14.3518657869
 31
0.0
  0
LINE
  5
99
330
1F
100
AcDbEntity
  8
0
  6
Continuous
 62
     7
370
    15
100
AcDbLine
 10
9.475897999
 20
14.4228657867
 30
0.0
 11
8.0058978606
 21
14.4228657867
 31
0.0
  0
LINE
  5
9A
330
1F
100
AcDbEntity
  8
0
  6
Continuous
 62
     7
370
    15
100
AcDbLine
 10
9.5358980525
 20
14.4228657867
 30
0.0
 11
9.5358980525
 21
14.3518657869
 31
0.0
  0
LINE
  5
9B
330
1F
100
AcDbEntity
  8
0
  6
Continuous
 62
     7
370
    15
100
AcDbLine
 10
9.5358980525
 20
14.3518657869
 30
0.0
 11
9.475897999
 21
14.3518657869
 31
0.0
  0
LINE
  5
9C
330
1F
100
AcDbEntity
  8
0
  6
Continuous
 62
     7
370
    15
100
AcDbLine
 10
9.475897999
 20
14.4228657867
 30
0.0
 11
9.5358980525
 21
14.4228657867
 31
0.0
  0
LINE
  5
9D
330
1F
100
AcDbEntity
  8
0
  6
Continuous
 62
     7
370
    15
100
AcDbLine
 10
9.635898044
 20
14.3518657869
 30
0.0
 11
9.635898044
 21
14.4228657867
 31
0.0
  0
LINE
  5
9E
330
1F
100
AcDbEntity
  8
0
  6
Continuous
 62
     7
370
    15
100
AcDbLine
 10
9.5358980525
 20
14.3518657869
 30
0.0
 11
9.635898044
 21
14.3518657869
 31
0.0
  0
LINE
  5
9F
330
1F
100
AcDbEntity
  8
0
  6
Continuous
 62
     7
370
    15
100
AcDbLine
 10
9.5358980525
 20
14.4228657867
 30
0.0
 11
9.635898044
 21
14.4228657867
 31
0.0
  0
LINE
  5
A0
330
1F
100
AcDbEntity
  8
0
  6
Continuous
 62
     7
370
    15
100
AcDbLine
 10
6.2558979367
 20
14.3218657876
 30
0.0
 11
7.005897946
 21
14.3218657876
 31
0.0
  0
LINE
  5
A1
330
1F
100
AcDbEntity
  8
0
  6
Continuous
 62
     7
370
    15
100
AcDbLine
 10
6.2558979367
 20
14.3518657869
 30
0.0
 11
6.2558979367
 21
14.3218657876
 31
0.0
  0
LINE
  5
A2
330
1F
100
AcDbEntity
  8
0
  6
Continuous
 62
     7
370
    15
100
AcDbLine
 10
7.005897946
 20
14.3218657876
 30
0.0
 11
7.005897946
 21
14.3518657869
 31
0.0
  0
LINE
  5
A3
330
1F
100
AcDbEntity
  8
0
  6
Continuous
 62
     7
370
    15
100
AcDbLine
 10
6.2558979367
 20
13.0918658359
 30
0.0
 11
6.3158979169
 21
13.0318657823
 31
0.0
  0
LINE
  5
A4
330
1F
100
AcDbEntity
  8
0
  6
Continuous
 62
     7
370
    15
100
AcDbLine
 10
6.2558979367
 20
14.3218657876
 30
0.0
 11
6.2558979367
 21
13.0918658359
 31
0.0
  0
LINE
  5
A5
330
1F
100
AcDbEntity
  8
0
  6
Continuous
 62
     7
370
    15
100
AcDbLine
 10
7.005897946
 20
13.0918658359
 30
0.0
 11
7.005897946
 21
14.3218657876
 31
0.0
  0
LINE
  5
A6
330
1F
100
AcDbEntity
  8
0
  6
Continuous
 62
     7
370
    15
100
AcDbLine
 10
6.9458979658
 20
13.0318657823
 30
0.0
 11
7.005897946
 21
13.0918658359
 31
0.0
  0
LINE
  5
A7
330
1F
100
AcDbEntity
  8
0
  6
Continuous
 62
     7
370
    15
100
AcDbLine
 10
6.3158979169
 20
13.0318657823
 30
0.0
 11
6.9458979658
 21
13.0318657823
 31
0.0
  0
ARC
  5
A8
330
1F
100
AcDbEntity
  8
0
  6
Continuous
 62
     7
370
    15
100
AcDbCircle
 10
6.6608979329
 20
13.3338657869
 30
0.0
 40
0.0900000000000016
100
AcDbArc
 50
270.0
 51
90.0
  0
LINE
  5
A9
330
1F
100
AcDbEntity
  8
0
  6
Continuous
 62
     7
370
    15
100
AcDbLine
 10
6.6608979315
 20
13.4238657606
 30
0.0
 11
6.6008979512
 21
13.4238657606
 31
0.0
  0
ARC
  5
AA
330
1F
100
AcDbEntity
  8
0
  6
Continuous
 62
     7
370
    15
100
AcDbCircle
 10
6.6008979329
 20
13.3338657869
 30
0.0
 40
0.0900000000000016
100
AcDbArc
 50
90.0
 51
270.0
  0
LINE
  5
AB
330
1F
100
AcDbEntity
  8
0
  6
Continuous
 62
     7
370
    15
100
AcDbLine
 10
6.6008979512
 20
13.24386582
 30
0.0
 11
6.6608979315
 21
13.24386582
 31
0.0
  0
DIMENSION
  5
AC
330
1F
100
AcDbEntity
  8
DEFAULT
 62
     7
100
AcDbDimension
  2
_D_2
 10
5.017577251
 20
13.0318657869
 30
0.0
 11
5.017577251
 21
13.7273657869
 31
0.0
 70
   160
  1
<>
 71
     2
 42
-1.0
  3
SLDDIMSTYLE0
100
AcDbAlignedDimension
 13
5.8049788258
 23
14.4228657869
 33
0.0
 14
6.3158979329
 24
13.0318657869
 34
0.0
 50
90.0
100
AcDbRotatedDimension
  0
MTEXT
  5
B7
330
1F
100
AcDbEntity
  8
DEFAULT
 62
     7
100
AcDbMText
 10
7.6298432602
 20
12.67546073
 30
0.0
 40
0.25
 41
0.0
 71
     1
 72
     1
  1
TOP
  7
SLDTEXTSTYLE0
 73
     1
 44
1.0
  0
LINE
  5
B8
330
1F
100
AcDbEntity
  8
0
  6
Continuous
 62
     7
370
    15
100
AcDbLine
 10
15.6241907157
 20
11.6865086143
 30
0.0
 11
15.6241907157
 21
11.7689792355
 31
0.0
  0
LINE
  5
B9
330
1F
100
AcDbEntity
  8
0
  6
Continuous
 62
     7
370
    15
100
AcDbLine
 10
15.6241907157
 20
11.7689792355
 30
0.0
 11
15.583885614
 21
11.7922468755
 31
0.0
  0
LINE
  5
BA
330
1F
100
AcDbEntity
  8
0
  6
Continuous
 62
     7
370
    15
100
AcDbLine
 10
15.583885614
 20
11.7922468755
 30
0.0
 11
15.0535555215
 21
12.0983999212
 31
0.0
  0
LINE
  5
BB
330
1F
100
AcDbEntity
  8
0
  6
Continuous
 62
     7
370
    15
100
AcDbLine
 10
15.0535555215
 20
12.0983999212
 30
0.0
 11
15.0132504198
 21
12.1216675612
 31
0.0
  0
LINE
  5
BC
330
1F
100
AcDbEntity
  8
0
  6
Continuous
 62
     7
370
    15
100
AcDbLine
 10
15.0132504198
 20
12.1216675612
 30
0.0
 11
15.0132504198
 21
12.0506360748
 31
0.0
  0
LINE
  5
BD
330
1F
100
AcDbEntity
  8
0
  6
Continuous
 62
     7
370
    15
100
AcDbLine
 10
14.7636417375
 20
12.1832929651
 30
0.0
 11
15.0033427732
 21
12.0449165026
 31
0.0
  0
LINE
  5
BE
330
1F
100
AcDbEntity
  8
0
  6
Continuous
 62
     7
370
    15
100
AcDbLine
 10
14.7347075604
 20
12.2334084297
 30
0.0
 11
14.7636417375
 21
12.1832929651
 31
0.0
  0
LINE
  5
BF
330
1F
100
AcDbEntity
  8
0
  6
Continuous
 62
     7
370
    15
100
AcDbLine
 10
15.9214300166
 20
14.4871245113
 30
0.0
 11
14.7347075604
 21
12.2334084297
 31
0.0
  0
LINE
  5
C0
330
1F
100
AcDbEntity
  8
0
  6
Continuous
 62
     7
370
    15
100
AcDbLine
 10
16.2485659937
 20
14.2982729316
 30
0.0
 11
15.9214300166
 21
14.4871245113
 31
0.0
  0
LINE
  5
C1
330
1F
100
AcDbEntity
  8
0
  6
Continuous
 62
     7
370
    15
100
AcDbLine
 10
16.2909923348
 20
14.2247882338
 30
0.0
 11
16.2485659937
 21
14.2982729316
 31
0.0
  0
LINE
  5
C2
330
1F
100
AcDbEntity
  8
0
  6
Continuous
 62
     7
370
    15
100
AcDbLine
 10
16.2909923348
 20
13.9226681832
 30
0.0
 11
16.2909923348
 21
14.2247882338
 31
0.0
  0
LINE
  5
C3
330
1F
100
AcDbEntity
  8
0
  6
Continuous
 62
     7
370
    15
100
AcDbLine
 10
17.330439401
 20
13.3226081645
 30
0.0
 11
16.2909923348
 21
13.9226681832
 31
0.0
  0
LINE
  5
C4
330
1F
100
AcDbEntity
  8
0
  6
Continuous
 62
     7
370
    15
100
AcDbLine
 10
17.3728658457
 20
13.2491234068
 30
0.0
 11
17.330439401
 21
13.3226081645
 31
0.0
  0
LINE
  5
C5
330
1F
100
AcDbEntity
  8
0
  6
Continuous
 62
     7
370
    15
100
AcDbLine
 10
17.3728658457
 20
12.693875798
 30
0.0
 11
17.3728658457
 21
13.2491234068
 31
0.0
  0
LINE
  5
C6
330
1F
100
AcDbEntity
  8
0
  6
Continuous
 62
     7
370
    15
100
AcDbLine
 10
17.3728658457
 20
12.693875798
 30
0.0
 11
17.4435765178
 21
12.6530553959
 31
0.0
  0
LINE
  5
C7
330
1F
100
AcDbEntity
  8
0
  6
Continuous
 62
     7
370
    15
100
AcDbLine
 10
17.4435765178
 20
12.6530553959
 30
0.0
 11
17.4435765178
 21
12.4652510012
 31
0.0
  0
LINE
  5
C8
330
1F
100
AcDbEntity
  8
0
  6
Continuous
 62
     7
370
    15
100
AcDbLine
 10
17.4435765178
 20
12.4652510012
 30
0.0
 11
17.3728658457
 21
12.5060714033
 31
0.0
  0
LINE
  5
C9
330
1F
100
AcDbEntity
  8
0
  6
Continuous
 62
     7
370
    15
100
AcDbLine
 10
17.3728658457
 20
10.7260123968
 30
0.0
 11
17.3728658457
 21
12.5060714033
 31
0.0
  0
LINE
  5
CA
330
1F
100
AcDbEntity
  8
0
  6
Continuous
 62
     7
370
    15
100
AcDbLine
 10
17.330439401
 20
10.7015122145
 30
0.0
 11
17.3728658457
 21
10.7260123968
 31
0.0
  0
LINE
  5
CB
330
1F
100
AcDbEntity
  8
0
  6
Continuous
 62
     7
370
    15
100
AcDbLine
 10
15.6241907157
 20
11.6865086143
 30
0.0
 11
17.330439401
 21
10.7015122145
 31
0.0
  0
LINE
  5
CC
330
1F
100
AcDbEntity
  8
0
  6
Continuous
 62
     7
370
    15
100
AcDbLine
 10
17.423070427
 20
13.2781058947
 30
0.0
 11
17.3728658457
 21
13.2491234068
 31
0.0
  0
LINE
  5
CD
330
1F
100
AcDbEntity
  8
0
  6
Continuous
 62
     7
370
    15
100
AcDbLine
 10
17.330439401
 20
13.3226081645
 30
0.0
 11
17.3806439823
 21
13.3515906523
 31
0.0
  0
LINE
  5
CE
330
1F
100
AcDbEntity
  8
0
  6
Continuous
 62
     7
370
    15
100
AcDbLine
 10
17.3806439823
 20
13.3515906523
 30
0.0
 11
17.423070427
 21
13.2781058947
 31
0.0
  0
LINE
  5
CF
330
1F
100
AcDbEntity
  8
0
  6
Continuous
 62
     7
370
    15
100
AcDbLine
 10
17.3728658457
 20
12.693875798
 30
0.0
 11
17.423070427
 21
12.7228582859
 31
0.0
  0
LINE
  5
D0
330
1F
100
AcDbEntity
  8
0
  6
Continuous
 62
     7
370
    15
100
AcDbLine
 10
17.423070427
 20
12.7228582859
 30
0.0
 11
17.423070427
 21
13.2781058947
 31
0.0
  0
LINE
  5
D1
330
1F
100
AcDbEntity
  8
0
  6
Continuous
 62
     7
370
    15
100
AcDbLine
 10
16.3411969161
 20
13.951650671
 30
0.0
 11
16.2909923348
 21
13.9226681832
 31
0.0
  0
LINE
  5
D2
330
1F
100
AcDbEntity
  8
0
  6
Continuous
 62
     7
370
    15
100
AcDbLine
 10
17.3806439823
 20
13.3515906523
 30
0.0
 11
16.3411969161
 21
13.951650671
 31
0.0
  0
LINE
  5
D3
330
1F
100
AcDbEntity
  8
0
  6
Continuous
 62
     7
370
    15
100
AcDbLine
 10
17.4435765178
 20
12.6530553959
 30
0.0
 11
17.4937810991
 21
12.6820378838
 31
0.0
  0
LINE
  5
D4
330
1F
100
AcDbEntity
  8
0
  6
Continuous
 62
     7
370
    15
100
AcDbLine
 10
17.423070427
 20
12.7228582859
 30
0.0
 11
17.4937810991
 21
12.6820378838
 31
0.0
  0
LINE
  5
D5
330
1F
100
AcDbEntity
  8
0
  6
Continuous
 62
     7
370
    15
100
AcDbLine
 10
17.4435765178
 20
12.4652510012
 30
0.0
 11
17.4937810991
 21
12.4942334891
 31
0.0
  0
LINE
  5
D6
330
1F
100
AcDbEntity
  8
0
  6
Continuous
 62
     7
370
    15
100
AcDbLine
 10
17.4937810991
 20
12.6820378838
 30
0.0
 11
17.4937810991
 21
12.4942334891
 31
0.0
  0
LINE
  5
D7
330
1F
100
AcDbEntity
  8
0
  6
Continuous
 62
     7
370
    15
100
AcDbLine
 10
17.3728658457
 20
10.7260123968
 30
0.0
 11
17.423070427
 21
10.7549948847
 31
0.0
  0
LINE
  5
D8
330
1F
100
AcDbEntity
  8
0
  6
Continuous
 62
     7
370
    15
100
AcDbLine
 10
17.423070427
 20
10.7549948847
 30
0.0
 11
17.423070427
 21
12.4770888947
 31
0.0
  0
LINE
  5
D9
330
1F
100
AcDbEntity
  8
0
  6
Continuous
 62
     7
370
    15
100
AcDbLine
 10
16.3411969161
 20
14.2537707217
 30
0.0
 11
16.2909923348
 21
14.2247882338
 31
0.0
  0
LINE
  5
DA
330
1F
100
AcDbEntity
  8
0
  6
Continuous
 62
     7
370
    15
100
AcDbLine
 10
16.2485659937
 20
14.2982729316
 30
0.0
 11
16.2987705751
 21
14.3272554195
 31
0.0
  0
LINE
  5
DB
330
1F
100
AcDbEntity
  8
0
  6
Continuous
 62
     7
370
    15
100
AcDbLine
 10
16.2987705751
 20
14.3272554195
 30
0.0
 11
16.3411969161
 21
14.2537707217
 31
0.0
  0
LINE
  5
DC
330
1F
100
AcDbEntity
  8
0
  6
Continuous
 62
     7
370
    15
100
AcDbLine
 10
16.3411969161
 20
13.951650671
 30
0.0
 11
16.3411969161
 21
14.2537707217
 31
0.0
  0
LINE
  5
DD
330
1F
100
AcDbEntity
  8
0
  6
Continuous
 62
     7
370
    15
100
AcDbLine
 10
15.971634598
 20
14.5161069992
 30
0.0
 11
15.9214300166
 21
14.4871245113
 31
0.0
  0
LINE
  5
DE
330
1F
100
AcDbEntity
  8
0
  6
Continuous
 62
     7
370
    15
100
AcDbLine
 10
16.2987705751
 20
14.3272554195
 30
0.0
 11
15.971634598
 21
14.5161069992
 31
0.0
  0
LINE
  5
DF
330
1F
100
AcDbEntity
  8
0
  6
Continuous
 62
     7
370
    15
100
AcDbLine
 10
17.3806439823
 20
10.7304947024
 30
0.0
 11
17.330439401
 21
10.7015122145
 31
0.0
  0
LINE
  5
E0
330
1F
100
AcDbEntity
  8
0
  6
Continuous
 62
     7
370
    15
100
AcDbLine
 10
17.423070427
 20
10.7549948847
 30
0.0
 11
17.3806439823
 21
10.7304947024
 31
0.0
  0
LINE
  5
E1
330
1F
100
AcDbEntity
  8
0
  6
Continuous
 62
     7
370
    15
100
AcDbLine
 10
14.1626010118
 20
11.559566607
 30
0.0
 11
14.16260096
 21
11.5105821065
 31
0.0
  0
LINE
  5
E2
330
1F
100
AcDbEntity
  8
0
  6
Continuous
 62
     7
370
    15
100
AcDbLine
 10
15.0323423186
 20
12.0616575761
 30
0.0
 11
14.1626010118
 21
11.559566607
 31
0.0
  0
LINE
  5
E3
330
1F
100
AcDbEntity
  8
0
  6
Continuous
 62
     7
370
    15
100
AcDbLine
 10
15.0323423186
 20
12.0616575761
 30
0.0
 11
15.562672411
 21
11.7555045304
 31
0.0
  0
LINE
  5
E4
330
1F
100
AcDbEntity
  8
0
  6
Continuous
 62
     7
370
    15
100
AcDbLine
 10
14.6929311043
 20
11.2534135613
 30
0.0
 11
15.562672411
 21
11.7555045304
 31
0.0
  0
LINE
  5
E5
330
1F
100
AcDbEntity
  8
0
  6
Continuous
 62
     7
370
    15
100
AcDbLine
 10
14.6080782667
 20
11.2534135314
 30
0.0
 11
14.6929311043
 21
11.2534135613
 31
0.0
  0
LINE
  5
E6
330
1F
100
AcDbEntity
  8
0
  6
Continuous
 62
     7
370
    15
100
AcDbLine
 10
14.16260096
 20
11.5105821065
 30
0.0
 11
14.6080782667
 21
11.2534135314
 31
0.0
  0
LWPOLYLINE
  5
E7
330
1F
100
AcDbEntity
  8
0
  6
Continuous
 62
     7
370
    15
100
AcDbPolyline
 90
       16
 70
   128
 43
0.0
 10
14.556459474
 20
11.4562909765
 10
14.5710815473
 20
11.4494554663
 10
14.5878459645
 20
11.4445243067
 10
14.6060199262
 20
11.4417130868
 10
14.6248092899
 20
11.4411446284
 10
14.6433927937
 20
11.4428437772
 10
14.660958198
 20
11.4467362954
 10
14.6767379097
 20
11.4526520046
 10
14.6900422199
 20
11.4603324194
 10
14.7002896391
 20
11.469441853
 10
14.7070324089
 20
11.4795821451
 10
14.7099757399
 20
11.4903101735
 10
14.7089909825
 20
11.5011570123
 10
14.7041213311
 20
11.511648647
 10
14.6955793866
 20
11.5213265391
 10
14.6837386526
 20
11.5297676823
  0
LINE
  5
E8
330
1F
100
AcDbEntity
  8
0
  6
Continuous
 62
     7
370
    15
100
AcDbLine
 10
14.6837386526
 20
11.5297676823
 30
0.0
 11
14.6413122597
 21
11.5542599176
 31
0.0
  0
LWPOLYLINE
  5
E9
330
1F
100
AcDbEntity
  8
0
  6
Continuous
 62
     7
370
    15
100
AcDbPolyline
 90
       16
 70
   128
 43
0.0
 10
14.6413122597
 20
11.5542599176
 10
14.6266901345
 20
11.5610954578
 10
14.6099257692
 20
11.5660265874
 10
14.5917517557
 20
11.5688377774
 10
14.5729624438
 20
11.5694062657
 10
14.55437894
 20
11.5677071169
 10
14.5368135357
 20
11.5638145988
 10
14.5210338241
 20
11.5578988896
 10
14.5077295138
 20
11.5502184747
 10
14.4974820946
 20
11.5411090411
 10
14.4907393248
 20
11.530968749
 10
14.4877959938
 20
11.5202407207
 10
14.4887806993
 20
11.5093938519
 10
14.4936504026
 20
11.4989022471
 10
14.5021922953
 20
11.489224385
 10
14.5140330811
 20
11.4807832118
  0
LINE
  5
EA
330
1F
100
AcDbEntity
  8
0
  6
Continuous
 62
     7
370
    15
100
AcDbLine
 10
14.5140330811
 20
11.4807832118
 30
0.0
 11
14.556459474
 21
11.4562909765
 31
0.0
  0
LINE
  5
EB
330
1F
100
AcDbEntity
  8
0
  6
Continuous
 62
     7
370
    15
100
AcDbLine
 10
14.6080782667
 20
11.1954391339
 30
0.0
 11
14.6080782667
 21
11.2534135314
 31
0.0
  0
LINE
  5
EC
330
1F
100
AcDbEntity
  8
0
  6
Continuous
 62
     7
370
    15
100
AcDbLine
 10
14.6929311043
 20
11.2534135613
 30
0.0
 11
14.6929311043
 21
11.1954391638
 31
0.0
  0
LINE
  5
ED
330
1F
100
AcDbEntity
  8
0
  6
Continuous
 62
     7
370
    15
100
AcDbLine
 10
14.6929311043
 20
11.1954391638
 30
0.0
 11
14.6080782667
 21
11.1954391339
 31
0.0
  0
LINE
  5
EE
330
1F
100
AcDbEntity
  8
0
  6
Continuous
 62
     7
370
    15
100
AcDbLine
 10
15.562672411
 20
11.7555045304
 30
0.0
 11
15.562672411
 21
11.6975301329
 31
0.0
  0
LINE
  5
EF
330
1F
100
AcDbEntity
  8
0
  6
Continuous
 62
     7
370
    15
100
AcDbLine
 10
14.6929311043
 20
11.1954391638
 30
0.0
 11
15.562672411
 21
11.6975301329
 31
0.0
  0
LINE
  5
F0
330
1F
100
AcDbEntity
  8
0
  6
Continuous
 62
     7
370
    15
100
AcDbLine
 10
14.16260096
 20
11.5105821065
 30
0.0
 11
14.16260096
 21
11.452607709
 31
0.0
  0
LINE
  5
F1
330
1F
100
AcDbEntity
  8
0
  6
Continuous
 62
     7
370
    15
100
AcDbLine
 10
14.16260096
 20
11.452607709
 30
0.0
 11
14.6080782667
 21
11.1954391339
 31
0.0
  0
LINE
  5
F2
330
1F
100
AcDbEntity
  8
0
  6
Continuous
 62
     7
370
    15
100
AcDbLine
 10
14.6837386526
 20
11.4717932849
 30
0.0
 11
14.6837386526
 21
11.5297676823
 31
0.0
  0
LINE
  5
F3
330
1F
100
AcDbEntity
  8
0
  6
Continuous
 62
     7
370
    15
100
AcDbLine
 10
14.6837386526
 20
11.4717932849
 30
0.0
 11
14.6947896517
 21
11.4640421345
 31
0.0
  0
LINE
  5
F4
330
1F
100
AcDbEntity
  8
0
  6
Continuous
 62
     7
370
    15
100
AcDbLine
 10
14.6413122597
 20
11.4962855201
 30
0.0
 11
14.6413122597
 21
11.5542599176
 31
0.0
  0
ARC
  5
F5
330
1F
100
AcDbEntity
  8
0
  6
Continuous
 62
     7
370
    15
100
AcDbCircle
 10
14.5784059885
 20
11.3807130471
 30
0.0
 40
0.1315834164589342
100
AcDbArc
 50
61.4404807766
 51
124.97380202
  0
LINE
  5
F6
330
1F
100
AcDbEntity
  8
0
  6
Continuous
 62
     7
370
    15
100
AcDbLine
 10
14.6413122597
 20
11.4962855201
 30
0.0
 11
14.6837386526
 21
11.4717932849
 31
0.0
  0
ARC
  5
F7
330
1F
100
AcDbEntity
  8
0
  6
Continuous
 62
     7
370
    15
100
AcDbCircle
 10
15.4792495583
 20
11.8277440458
 30
0.0
 40
0.1546448688783863
100
AcDbArc
 50
302.6460642375
 51
338.0210548891
  0
ARC
  5
F8
330
1F
100
AcDbEntity
  8
0
  6
Continuous
 62
     7
370
    15
100
AcDbCircle
 10
15.5378291267
 20
11.7943427041
 30
0.0
 40
0.0461041485848931
100
AcDbArc
 50
302.6054818683
 51
357.3945179861
  0
ARC
  5
F9
330
1F
100
AcDbEntity
  8
0
  6
Continuous
 62
     7
370
    15
100
AcDbCircle
 10
15.0074990343
 20
12.1004957498
 30
0.0
 40
0.0461041485849028
100
AcDbArc
 50
302.6054818683
 51
357.3945179861
  0
MTEXT
  5
FA
330
1F
100
AcDbEntity
  8
DEFAULT
 62
     7
100
AcDbMText
 10
15.4029467085
 20
10.3380939588
 30
0.0
 40
0.25
 41
0.0
 71
     1
 72
     1
  1
ISO
  7
SLDTEXTSTYLE0
 73
     1
 44
1.0
  0
ENDSEC
  0
SECTION
  2
OBJECTS
  0
DICTIONARY
  5
C
330
0
100
AcDbDictionary
281
     1
  3
ACAD_GROUP
350
D
  3
ACAD_LAYOUT
350
1A
  3
ACAD_MLINESTYLE
350
17
  3
ACAD_PLOTSETTINGS
350
19
  3
ACAD_PLOTSTYLENAME
350
E
  0
DICTIONARY
  5
D
102
{ACAD_REACTORS
330
C
102
}
330
C
100
AcDbDictionary
281
     1
  0
DICTIONARY
  5
1A
102
{ACAD_REACTORS
330
C
102
}
330
C
100
AcDbDictionary
281
     1
  3
Layout1
350
1E
  3
Layout2
350
26
  3
Model
350
22
  0
DICTIONARY
  5
17
102
{ACAD_REACTORS
330
C
102
}
330
C
100
AcDbDictionary
281
     1
  3
Standard
350
18
  0
DICTIONARY
  5
19
102
{ACAD_REACTORS
330
C
102
}
330
C
100
AcDbDictionary
281
     1
  0
ACDBDICTIONARYWDFLT
  5
E
102
{ACAD_REACTORS
330
C
102
}
330
C
100
AcDbDictionary
281
     1
  3
Normal
350
F
100
AcDbDictionaryWithDefault
340
F
  0
LAYOUT
  5
1E
102
{ACAD_REACTORS
330
1A
102
}
330
1A
100
AcDbPlotSettings
  1

  2
none_device
  4

  6

 40
0.0
 41
0.0
 42
0.0
 43
0.0
 44
0.0
 45
0.0
 46
0.0
 47
0.0
 48
0.0
 49
0.0
140
0.0
141
0.0
142
1.0
143
1.0
 70
   688
 72
     0
 73
     0
 74
     5
  7

 75
    16
147
1.0
148
0.0
149
0.0
100
AcDbLayout
  1
Layout1
 70
     1
 71
     1
 10
0.0
 20
0.0
 11
12.0
 21
9.0
 12
0.0
 22
0.0
 32
0.0
 14
1.0000000000E+20
 24
1.0000000000E+20
 34
1.0000000000E+20
 15
-1.0000000000E+20
 25
-1.0000000000E+20
 35
-1.0000000000E+20
146
0.0
 13
0.0
 23
0.0
 33
0.0
 16
1.0
 26
0.0
 36
0.0
 17
0.0
 27
1.0
 37
0.0
 76
     0
330
1B
  0
LAYOUT
  5
26
102
{ACAD_REACTORS
330
1A
102
}
330
1A
100
AcDbPlotSettings
  1

  2
none_device
  4

  6

 40
0.0
 41
0.0
 42
0.0
 43
0.0
 44
0.0
 45
0.0
 46
0.0
 47
0.0
 48
0.0
 49
0.0
140
0.0
141
0.0
142
1.0
143
1.0
 70
   688
 72
     0
 73
     0
 74
     5
  7

 75
    16
147
1.0
148
0.0
149
0.0
100
AcDbLayout
  1
Layout2
 70
     1
 71
     2
 10
0.0
 20
0.0
 11
0.0
 21
0.0
 12
0.0
 22
0.0
 32
0.0
 14
0.0
 24
0.0
 34
0.0
 15
0.0
 25
0.0
 35
0.0
146
0.0
 13
0.0
 23
0.0
 33
0.0
 16
1.0
 26
0.0
 36
0.0
 17
0.0
 27
1.0
 37
0.0
 76
     0
330
23
  0
LAYOUT
  5
22
102
{ACAD_REACTORS
330
1A
102
}
330
1A
100
AcDbPlotSettings
  1

  2
none_device
  4

  6

 40
0.0
 41
0.0
 42
0.0
 43
0.0
 44
0.0
 45
0.0
 46
0.0
 47
0.0
 48
0.0
 49
0.0
140
0.0
141
0.0
142
1.0
143
1.0
 70
  1712
 72
     0
 73
     0
 74
     0
  7

 75
     0
147
1.0
148
0.0
149
0.0
100
AcDbLayout
  1
Model
 70
     1
 71
     0
 10
0.0
 20
0.0
 11
22.0
 21
17.0
 12
0.0
 22
0.0
 32
0.0
 14
0.0
 24
0.0
 34
0.0
 15
22.0
 25
17.0
 35
0.0
146
0.0
 13
0.0
 23
0.0
 33
0.0
 16
1.0
 26
0.0
 36
0.0
 17
0.0
 27
1.0
 37
0.0
 76
     0
330
1F
331
29
  0
MLINESTYLE
  5
18
102
{ACAD_REACTORS
330
17
102
}
330
17
100
AcDbMlineStyle
  2
Standard
 70
     0
  3

 62
   256
 51
90.0
 52
90.0
 71
     2
 49
0.5
 62
   256
  6
BYLAYER
 49
-0.5
 62
   256
  6
BYLAYER
  0
ACDBPLACEHOLDER
  5
F
102
{ACAD_REACTORS
330
E
102
}
330
E
  0
ENDSEC
  0
EOF
