  0
SECTION
  2
HEADER
  9
$ACADVER
  1
AC1015
  9
$ACADMAINTVER
 70
     6
  9
$DWGCODEPAGE
  3
ANSI_1252
  9
$INSBASE
 10
0.0
 20
0.0
 30
0.0
  9
$EXTMIN
 10
0.0
 20
0.0
 30
0.0
  9
$EXTMAX
 10
44.0
 20
34.0
 30
0.0
  9
$LIMMIN
 10
0.0
 20
0.0
  9
$LIMMAX
 10
44.0
 20
34.0
  9
$ORTHOMODE
 70
     0
  9
$REGENMODE
 70
     1
  9
$FILLMODE
 70
     1
  9
$QTEXTMODE
 70
     0
  9
$MIRRTEXT
 70
     1
  9
$LTSCALE
 40
4.0
  9
$ATTMODE
 70
     1
  9
$TEXTSIZE
 40
0.5
  9
$TRACEWID
 40
0.05
  9
$TEXTSTYLE
  7
Standard
  9
$CLAYER
  8
0
  9
$CELTYPE
  6
ByLayer
  9
$CECOLOR
 62
   256
  9
$CELTSCALE
 40
1.0
  9
$DISPSILH
 70
     0
  9
$DIMSCALE
 40
1.0
  9
$DIMASZ
 40
0.52
  9
$DIMEXO
 40
0.2
  9
$DIMDLI
 40
0.38
  9
$DIMRND
 40
0.0
  9
$DIMDLE
 40
0.0
  9
$DIMEXE
 40
0.5
  9
$DIMTP
 40
0.0
  9
$DIMTM
 40
0.0
  9
$DIMTXT
 40
0.5
  9
$DIMCEN
 40
0.09
  9
$DIMTSZ
 40
0.0
  9
$DIMTOL
 70
     0
  9
$DIMLIM
 70
     0
  9
$DIMTIH
 70
     1
  9
$DIMTOH
 70
     1
  9
$DIMSE1
 70
     0
  9
$DIMSE2
 70
     0
  9
$DIMTAD
 70
     0
  9
$DIMZIN
 70
     0
  9
$DIMBLK
  1

  9
$DIMASO
 70
     1
  9
$DIMSHO
 70
     1
  9
$DIMPOST
  1

  9
$DIMAPOST
  1

  9
$DIMALT
 70
     0
  9
$DIMALTD
 70
     2
  9
$DIMALTF
 40
25.4
  9
$DIMLFAC
 40
1.0
  9
$DIMTOFL
 70
     0
  9
$DIMTVP
 40
0.0
  9
$DIMTIX
 70
     0
  9
$DIMSOXD
 70
     0
  9
$DIMSAH
 70
     0
  9
$DIMBLK1
  1

  9
$DIMBLK2
  1

  9
$DIMSTYLE
  2
Standard
  9
$DIMCLRD
 70
     0
  9
$DIMCLRE
 70
     0
  9
$DIMCLRT
 70
     0
  9
$DIMTFAC
 40
1.0
  9
$DIMGAP
 40
0.24
  9
$DIMJUST
 70
     0
  9
$DIMSD1
 70
     0
  9
$DIMSD2
 70
     0
  9
$DIMTOLJ
 70
     1
  9
$DIMTZIN
 70
     0
  9
$DIMALTZ
 70
     0
  9
$DIMALTTZ
 70
     0
  9
$DIMUPT
 70
     0
  9
$DIMDEC
 70
     0
  9
$DIMTDEC
 70
     0
  9
$DIMALTU
 70
     2
  9
$DIMALTTD
 70
     2
  9
$DIMTXSTY
  7
Standard
  9
$DIMAUNIT
 70
     0
  9
$DIMADEC
 70
     0
  9
$DIMALTRND
 40
0.0
  9
$DIMAZIN
 70
     0
  9
$DIMDSEP
 70
    46
  9
$DIMATFIT
 70
     3
  9
$DIMFRAC
 70
     0
  9
$DIMLDRBLK
  1

  9
$DIMLUNIT
 70
     2
  9
$DIMLWD
 70
    -2
  9
$DIMLWE
 70
    -2
  9
$DIMTMOVE
 70
     0
  9
$LUNITS
 70
     2
  9
$LUPREC
 70
     0
  9
$SKETCHINC
 40
0.1
  9
$FILLETRAD
 40
0.5
  9
$AUNITS
 70
     0
  9
$AUPREC
 70
     0
  9
$MENU
  1
.
  9
$ELEVATION
 40
0.0
  9
$PELEVATION
 40
0.0
  9
$THICKNESS
 40
0.0
  9
$LIMCHECK
 70
     0
  9
$CHAMFERA
 40
0.5
  9
$CHAMFERB
 40
0.5
  9
$CHAMFERC
 40
1.0
  9
$CHAMFERD
 40
0.0
  9
$SKPOLY
 70
     0
  9
$TDCREATE
 40
2456511.32078191
  9
$TDUCREATE
 40
2456511.487448576
  9
$TDUPDATE
 40
2456511.320782442
  9
$TDUUPDATE
 40
2456511.487449109
  9
$TDINDWG
 40
0.0000000116
  9
$TDUSRTIMER
 40
0.0000000116
  9
$USRTIMER
 70
     1
  9
$ANGBASE
 50
0.0
  9
$ANGDIR
 70
     0
  9
$PDMODE
 70
     0
  9
$PDSIZE
 40
-1.0
  9
$PLINEWID
 40
0.0
  9
$SPLFRAME
 70
     0
  9
$SPLINETYPE
 70
     6
  9
$SPLINESEGS
 70
     8
  9
$HANDSEED
  5
28C
  9
$SURFTAB1
 70
     6
  9
$SURFTAB2
 70
     6
  9
$SURFTYPE
 70
     6
  9
$SURFU
 70
     6
  9
$SURFV
 70
     6
  9
$UCSBASE
  2

  9
$UCSNAME
  2

  9
$UCSORG
 10
0.0
 20
0.0
 30
0.0
  9
$UCSXDIR
 10
1.0
 20
0.0
 30
0.0
  9
$UCSYDIR
 10
0.0
 20
1.0
 30
0.0
  9
$UCSORTHOREF
  2

  9
$UCSORTHOVIEW
 70
     0
  9
$UCSORGTOP
 10
0.0
 20
0.0
 30
0.0
  9
$UCSORGBOTTOM
 10
0.0
 20
0.0
 30
0.0
  9
$UCSORGLEFT
 10
0.0
 20
0.0
 30
0.0
  9
$UCSORGRIGHT
 10
0.0
 20
0.0
 30
0.0
  9
$UCSORGFRONT
 10
0.0
 20
0.0
 30
0.0
  9
$UCSORGBACK
 10
0.0
 20
0.0
 30
0.0
  9
$PUCSBASE
  2

  9
$PUCSNAME
  2

  9
$PUCSORG
 10
0.0
 20
0.0
 30
0.0
  9
$PUCSXDIR
 10
1.0
 20
0.0
 30
0.0
  9
$PUCSYDIR
 10
0.0
 20
1.0
 30
0.0
  9
$PUCSORTHOREF
  2

  9
$PUCSORTHOVIEW
 70
     0
  9
$PUCSORGTOP
 10
0.0
 20
0.0
 30
0.0
  9
$PUCSORGBOTTOM
 10
0.0
 20
0.0
 30
0.0
  9
$PUCSORGLEFT
 10
0.0
 20
0.0
 30
0.0
  9
$PUCSORGRIGHT
 10
0.0
 20
0.0
 30
0.0
  9
$PUCSORGFRONT
 10
0.0
 20
0.0
 30
0.0
  9
$PUCSORGBACK
 10
0.0
 20
0.0
 30
0.0
  9
$USERI1
 70
     0
  9
$USERI2
 70
     0
  9
$USERI3
 70
     0
  9
$USERI4
 70
     0
  9
$USERI5
 70
     0
  9
$USERR1
 40
0.0
  9
$USERR2
 40
0.0
  9
$USERR3
 40
0.0
  9
$USERR4
 40
0.0
  9
$USERR5
 40
0.0
  9
$WORLDVIEW
 70
     1
  9
$SHADEDGE
 70
     3
  9
$SHADEDIF
 70
    70
  9
$TILEMODE
 70
     1
  9
$MAXACTVP
 70
    64
  9
$PINSBASE
 10
0.0
 20
0.0
 30
0.0
  9
$PLIMCHECK
 70
     0
  9
$PEXTMIN
 10
1.0000000000E+20
 20
1.0000000000E+20
 30
1.0000000000E+20
  9
$PEXTMAX
 10
-1.0000000000E+20
 20
-1.0000000000E+20
 30
-1.0000000000E+20
  9
$PLIMMIN
 10
0.0
 20
0.0
  9
$PLIMMAX
 10
12.0
 20
9.0
  9
$UNITMODE
 70
     0
  9
$VISRETAIN
 70
     1
  9
$PLINEGEN
 70
     0
  9
$PSLTSCALE
 70
     1
  9
$TREEDEPTH
 70
  3020
  9
$CMLSTYLE
  2
Standard
  9
$CMLJUST
 70
     0
  9
$CMLSCALE
 40
1.0
  9
$PROXYGRAPHICS
 70
     1
  9
$MEASUREMENT
 70
     0
  9
$CELWEIGHT
370
    -1
  9
$ENDCAPS
280
     0
  9
$JOINSTYLE
280
     0
  9
$LWDISPLAY
290
     1
  9
$INSUNITS
 70
     1
  9
$HYPERLINKBASE
  1

  9
$STYLESHEET
  1

  9
$XEDIT
290
     1
  9
$CEPSNTYPE
380
     0
  9
$PSTYLEMODE
290
     1
  9
$FINGERPRINTGUID
  2
{E371D846-A86D-46E4-9D97-EA1688193E04}
  9
$VERSIONGUID
  2
{FAEB1C32-E019-11D5-929B-00C0DF256EC4}
  9
$EXTNAMES
290
     1
  9
$PSVPSCALE
 40
0.0
  9
$OLESTARTUP
290
     0
  0
ENDSEC
  0
SECTION
  2
CLASSES
  0
CLASS
  1
ACDBDICTIONARYWDFLT
  2
AcDbDictionaryWithDefault
  3
ObjectDBX Classes
 90
        0
280
     0
281
     0
  0
CLASS
  1
VISUALSTYLE
  2
AcDbVisualStyle
  3
ObjectDBX Classes
 90
     4095
280
     0
281
     0
  0
CLASS
  1
MATERIAL
  2
AcDbMaterial
  3
ObjectDBX Classes
 90
     1153
280
     0
281
     0
  0
CLASS
  1
ACDBPLACEHOLDER
  2
AcDbPlaceHolder
  3
ObjectDBX Classes
 90
        0
280
     0
281
     0
  0
CLASS
  1
LAYOUT
  2
AcDbLayout
  3
ObjectDBX Classes
 90
        0
280
     0
281
     0
  0
ENDSEC
  0
SECTION
  2
TABLES
  0
TABLE
  2
VPORT
  5
8
330
0
100
AcDbSymbolTable
 70
     1
  0
VPORT
  5
29
330
8
100
AcDbSymbolTableRecord
100
AcDbViewportTableRecord
  2
*Active
 70
     0
 10
0.0
 20
0.0
 11
1.0
 21
1.0
 12
22.0
 22
17.0
 13
0.0
 23
0.0
 14
0.5
 24
0.5
 15
0.5
 25
0.5
 16
0.0
 26
0.0
 36
1.0
 17
0.0
 27
0.0
 37
0.0
 40
34.0
 41
1.2941176471
 42
50.0
 43
0.0
 44
0.0
 50
0.0
 51
0.0
 71
     0
 72
  2000
 73
     1
 74
     3
 75
     0
 76
     0
 77
     0
 78
     0
281
     0
 65
     1
110
0.0
120
0.0
130
0.0
111
1.0
121
0.0
131
0.0
112
0.0
122
1.0
132
0.0
 79
     0
146
0.0
  0
ENDTAB
  0
TABLE
  2
LTYPE
  5
5
330
0
100
AcDbSymbolTable
 70
     6
  0
LTYPE
  5
14
330
5
100
AcDbSymbolTableRecord
100
AcDbLinetypeTableRecord
  2
ByBlock
 70
     0
  3

 72
    65
 73
     0
 40
0.0
  0
LTYPE
  5
15
330
5
100
AcDbSymbolTableRecord
100
AcDbLinetypeTableRecord
  2
ByLayer
 70
     0
  3

 72
    65
 73
     0
 40
0.0
  0
LTYPE
  5
16
330
5
100
AcDbSymbolTableRecord
100
AcDbLinetypeTableRecord
  2
Continuous
 70
     0
  3
Solid line
 72
    65
 73
     0
 40
0.0
  0
LTYPE
  5
3F
330
5
100
AcDbSymbolTableRecord
100
AcDbLinetypeTableRecord
  2
HIDDEN
 70
     0
  3
Hidden __ __ __ __ __ __ __ __ __ __ __ __ __ __
 72
    65
 73
     2
 40
0.075
 49
0.05
 74
     0
 49
-0.025
 74
     0
  0
LTYPE
  5
40
330
5
100
AcDbSymbolTableRecord
100
AcDbLinetypeTableRecord
  2
PHANTOM
 70
     0
  3
Phantom ______  __  __  ______  __  __  ______
 72
    65
 73
     6
 40
0.5
 49
0.25
 74
     0
 49
-0.05
 74
     0
 49
0.05
 74
     0
 49
-0.05
 74
     0
 49
0.05
 74
     0
 49
-0.05
 74
     0
  0
LTYPE
  5
41
330
5
100
AcDbSymbolTableRecord
100
AcDbLinetypeTableRecord
  2
CENTER
 70
     0
  3
Center ____ _ ____ _ ____ _ ____ _ ____ _ ____
 72
    65
 73
     4
 40
0.4
 49
0.25
 74
     0
 49
-0.05
 74
     0
 49
0.05
 74
     0
 49
-0.05
 74
     0
  0
LTYPE
  5
42
330
5
100
AcDbSymbolTableRecord
100
AcDbLinetypeTableRecord
  2
CENTERX2
 70
     0
  3
Center (2x) ________  __  ________  __  _____
 72
    65
 73
     4
 40
0.8
 49
0.5
 74
     0
 49
-0.1
 74
     0
 49
0.1
 74
     0
 49
-0.1
 74
     0
  0
LTYPE
  5
43
330
5
100
AcDbSymbolTableRecord
100
AcDbLinetypeTableRecord
  2
DOT2
 70
     0
  3
Dot (.5x) ........................................
 72
    65
 73
     2
 40
0.025
 49
0.0
 74
     0
 49
-0.025
 74
     0
  0
ENDTAB
  0
TABLE
  2
LAYER
  5
2
330
0
100
AcDbSymbolTable
 70
     8
  0
LAYER
  5
10
330
2
100
AcDbSymbolTableRecord
100
AcDbLayerTableRecord
  2
0
 70
     0
 62
     7
  6
Continuous
370
    -3
390
F
  0
LAYER
  5
44
330
2
100
AcDbSymbolTableRecord
100
AcDbLayerTableRecord
  2
FORMAT
 70
     0
 62
     7
  6
Continuous
370
    -3
390
F
  0
LAYER
  5
45
330
2
100
AcDbSymbolTableRecord
100
AcDbLayerTableRecord
  2
DEFAULT
 70
     0
 62
   179
  6
Continuous
370
    -3
390
F
  0
LAYER
  5
46
330
2
100
AcDbSymbolTableRecord
100
AcDbLayerTableRecord
  2
INSPECTION_TAGS
 70
     0
 62
     7
  6
Continuous
370
    -3
390
F
  0
LAYER
  5
47
330
2
100
AcDbSymbolTableRecord
100
AcDbLayerTableRecord
  2
REVISIONS
 70
     0
 62
     7
  6
Continuous
370
    -3
390
F
  0
LAYER
  5
48
330
2
100
AcDbSymbolTableRecord
100
AcDbLayerTableRecord
  2
DIMENSIONS_&_ANNOTATIONS
 70
     0
 62
     7
  6
Continuous
370
    -3
390
F
  0
LAYER
  5
49
330
2
100
AcDbSymbolTableRecord
100
AcDbLayerTableRecord
  2
HIDDEN
 70
     0
 62
    -7
  6
Continuous
370
    -3
390
F
  0
LAYER
  5
4A
330
2
100
AcDbSymbolTableRecord
100
AcDbLayerTableRecord
  2
DIMENSION_&_ANNOTATIONS
 70
     0
 62
     7
  6
Continuous
370
    -3
390
F
  0
ENDTAB
  0
TABLE
  2
STYLE
  5
3
330
0
100
AcDbSymbolTable
 70
     2
  0
STYLE
  5
11
330
3
100
AcDbSymbolTableRecord
100
AcDbTextStyleTableRecord
  2
Standard
 70
     0
 40
0.0
 41
1.0
 50
0.0
 71
     0
 42
0.5
  3
txt
  4

  0
STYLE
  5
4E
330
3
100
AcDbSymbolTableRecord
100
AcDbTextStyleTableRecord
  2
SLDTEXTSTYLE0
 70
     0
 40
0.0
 41
0.75
 50
0.0
 71
     0
 42
0.2
  3
TXT
  4

  0
ENDTAB
  0
TABLE
  2
VIEW
  5
6
330
0
100
AcDbSymbolTable
 70
     0
  0
ENDTAB
  0
TABLE
  2
UCS
  5
7
330
0
100
AcDbSymbolTable
 70
     0
  0
ENDTAB
  0
TABLE
  2
APPID
  5
9
330
0
100
AcDbSymbolTable
 70
     1
  0
APPID
  5
12
330
9
100
AcDbSymbolTableRecord
100
AcDbRegAppTableRecord
  2
ACAD
 70
     0
  0
ENDTAB
  0
TABLE
  2
DIMSTYLE
  5
A
330
0
100
AcDbSymbolTable
 70
     3
100
AcDbDimStyleTable
  0
DIMSTYLE
105
27
330
A
100
AcDbSymbolTableRecord
100
AcDbDimStyleTableRecord
  2
Standard
 70
     0
178
     0
340
11
  0
DIMSTYLE
105
FD
102
{ACAD_REACTORS
330
FC
330
16A
330
1B5
102
}
330
A
100
AcDbSymbolTableRecord
100
AcDbDimStyleTableRecord
  2
SLDDIMSTYLE0
 70
     0
 41
0.52
 44
0.0
 45
0.000000001
 78
    12
 79
     3
140
0.5
147
0.125
172
     1
173
     1
178
     0
271
     0
272
     0
276
     2
277
     5
284
    12
289
     0
340
4E
  0
DIMSTYLE
105
10A
102
{ACAD_REACTORS
330
109
330
115
330
120
330
15F
330
1AA
102
}
330
A
100
AcDbSymbolTableRecord
100
AcDbDimStyleTableRecord
  2
SLDDIMSTYLE1
 70
     0
 41
0.52
 44
0.0
 45
0.000000001
 78
    12
 79
     3
140
0.5
147
0.125
173
     1
178
     0
271
     0
272
     0
276
     2
277
     5
284
    12
340
4E
  0
ENDTAB
  0
TABLE
  2
BLOCK_RECORD
  5
1
330
0
100
AcDbSymbolTable
 70
    10
  0
BLOCK_RECORD
  5
1F
330
1
100
AcDbSymbolTableRecord
100
AcDbBlockTableRecord
  2
*Model_Space
340
22
  0
BLOCK_RECORD
  5
1B
330
1
100
AcDbSymbolTableRecord
100
AcDbBlockTableRecord
  2
*Paper_Space
340
1E
  0
BLOCK_RECORD
  5
23
330
1
100
AcDbSymbolTableRecord
100
AcDbBlockTableRecord
  2
*Paper_Space0
340
26
  0
BLOCK_RECORD
  5
4B
330
1
100
AcDbSymbolTableRecord
100
AcDbBlockTableRecord
  2
SW_NOTE_0
340
0
102
{BLKREFS
331
54
102
}
  0
BLOCK_RECORD
  5
FE
330
1
100
AcDbSymbolTableRecord
100
AcDbBlockTableRecord
  2
_D
340
0
  0
BLOCK_RECORD
  5
10B
330
1
100
AcDbSymbolTableRecord
100
AcDbBlockTableRecord
  2
_D_1
340
0
  0
BLOCK_RECORD
  5
116
330
1
100
AcDbSymbolTableRecord
100
AcDbBlockTableRecord
  2
_D_2
340
0
  0
BLOCK_RECORD
  5
121
330
1
100
AcDbSymbolTableRecord
100
AcDbBlockTableRecord
  2
_D_3
340
0
  0
BLOCK_RECORD
  5
160
330
1
100
AcDbSymbolTableRecord
100
AcDbBlockTableRecord
  2
_D_4
340
0
  0
BLOCK_RECORD
  5
16B
330
1
100
AcDbSymbolTableRecord
100
AcDbBlockTableRecord
  2
_D_5
340
0
  0
BLOCK_RECORD
  5
1AB
330
1
100
AcDbSymbolTableRecord
100
AcDbBlockTableRecord
  2
_D_6
340
0
  0
BLOCK_RECORD
  5
1B6
330
1
100
AcDbSymbolTableRecord
100
AcDbBlockTableRecord
  2
_D_7
340
0
  0
ENDTAB
  0
ENDSEC
  0
SECTION
  2
BLOCKS
  0
BLOCK
  5
20
330
1F
100
AcDbEntity
  8
0
100
AcDbBlockBegin
  2
*Model_Space
 70
     0
 10
0.0
 20
0.0
 30
0.0
  3
*Model_Space
  1

  0
ENDBLK
  5
21
330
1F
100
AcDbEntity
  8
0
100
AcDbBlockEnd
  0
BLOCK
  5
1C
330
1B
100
AcDbEntity
 67
     1
  8
0
100
AcDbBlockBegin
  2
*Paper_Space
 70
     0
 10
0.0
 20
0.0
 30
0.0
  3
*Paper_Space
  1

  0
ENDBLK
  5
1D
330
1B
100
AcDbEntity
 67
     1
  8
0
100
AcDbBlockEnd
  0
BLOCK
  5
24
330
23
100
AcDbEntity
  8
0
100
AcDbBlockBegin
  2
*Paper_Space0
 70
     0
 10
0.0
 20
0.0
 30
0.0
  3
*Paper_Space0
  1

  0
ENDBLK
  5
25
330
23
100
AcDbEntity
  8
0
100
AcDbBlockEnd
  0
BLOCK
  5
4C
330
4B
100
AcDbEntity
  8
0
100
AcDbBlockBegin
  2
SW_NOTE_0
 70
     0
 10
0.0
 20
0.0
 30
0.0
  3
SW_NOTE_0
  1

  0
MTEXT
  5
4F
330
4B
100
AcDbEntity
  8
DEFAULT
 62
     0
100
AcDbMText
 10
3.046875
 20
1.2890677398
 30
0.0
 40
1.0
 41
0.0
 71
     2
 72
     1
  1
LEGRAND
  7
SLDTEXTSTYLE0
 73
     1
 44
1.0
  0
MTEXT
  5
50
330
4B
100
AcDbEntity
  8
DEFAULT
 62
     0
100
AcDbMText
 10
2.9965286813
 20
-0.0039878561
 30
0.0
 40
1.0
 41
0.0
 71
     2
 72
     1
  1
SYSTEM: EVOLUTION WALL BOX
  7
SLDTEXTSTYLE0
 73
     1
 44
1.0
  0
MTEXT
  5
51
330
4B
100
AcDbEntity
  8
DEFAULT
 62
     0
100
AcDbMText
 10
2.9326388812
 20
-1.2970434519
 30
0.0
 40
1.0
 41
0.0
 71
     2
 72
     1
  1
CATALOG NUMBER: EFSC
  7
SLDTEXTSTYLE0
 73
     1
 44
1.0
  0
MTEXT
  5
52
330
4B
100
AcDbEntity
  8
DEFAULT
 62
     0
100
AcDbMText
 10
3.0399304136
 20
-2.5900990478
 30
0.0
 40
1.0
 41
0.0
 71
     2
 72
     1
  1
SCALE 1:4
  7
SLDTEXTSTYLE0
 73
     1
 44
1.0
  0
MTEXT
  5
53
330
4B
100
AcDbEntity
  8
DEFAULT
 62
     0
100
AcDbMText
 10
3.0520831093
 20
-3.8831546436
 30
0.0
 40
1.0
 41
0.0
 71
     2
 72
     1
  1
06/24/13
  7
SLDTEXTSTYLE0
 73
     1
 44
1.0
  0
ENDBLK
  5
4D
330
4B
100
AcDbEntity
  8
0
100
AcDbBlockEnd
  0
BLOCK
  5
FF
330
FE
100
AcDbEntity
  8
0
100
AcDbBlockBegin
  2
_D
 70
     0
 10
0.0
 20
0.0
 30
0.0
  3
_D
  1

  0
SOLID
  5
101
330
FE
100
AcDbEntity
  8
DEFAULT
 62
     7
100
AcDbTrace
 10
7.5835040604
 20
13.348354232
 30
0.0
 11
7.5035040604
 21
12.828354232
 31
0.0
 12
7.6635040604
 22
12.828354232
 32
0.0
 13
7.6635040604
 23
12.828354232
 33
0.0
  0
SOLID
  5
102
330
FE
100
AcDbEntity
  8
DEFAULT
 62
     7
100
AcDbTrace
 10
7.5835040604
 20
14.3263840808
 30
0.0
 11
7.6635040604
 21
14.8463840808
 31
0.0
 12
7.5035040604
 22
14.8463840808
 32
0.0
 13
7.5035040604
 23
14.8463840808
 33
0.0
  0
LINE
  5
103
330
FE
100
AcDbEntity
  8
DEFAULT
 62
     7
100
AcDbLine
 10
10.8209056352
 20
13.348354232
 30
0.0
 11
7.0835040604
 21
13.348354232
 31
0.0
  0
LINE
  5
104
330
FE
100
AcDbEntity
  8
DEFAULT
 62
     7
100
AcDbLine
 10
11.6536737664
 20
14.3263840808
 30
0.0
 11
7.0835040604
 21
14.3263840808
 31
0.0
  0
LINE
  5
105
330
FE
100
AcDbEntity
  8
DEFAULT
 62
     7
100
AcDbLine
 10
6.5835040604
 20
11.9523632308
 30
0.0
 11
7.5835040604
 21
11.9523632308
 31
0.0
  0
LINE
  5
106
330
FE
100
AcDbEntity
  8
DEFAULT
 62
     7
100
AcDbLine
 10
7.5835040604
 20
11.9523632308
 30
0.0
 11
7.5835040604
 21
13.348354232
 31
0.0
  0
LINE
  5
107
330
FE
100
AcDbEntity
  8
DEFAULT
 62
     7
100
AcDbLine
 10
7.5835040604
 20
14.3263840808
 30
0.0
 11
7.5835040604
 21
15.3263840808
 31
0.0
  0
MTEXT
  5
108
330
FE
100
AcDbEntity
  8
DEFAULT
 62
     7
100
AcDbMText
 10
5.6015596306
 20
12.2000221437
 30
0.364302428
 40
0.5
 41
0.0
 71
     1
 72
     1
  1
1"
  7
SLDTEXTSTYLE0
 73
     1
 44
1.0
  0
ENDBLK
  5
100
330
FE
100
AcDbEntity
  8
0
100
AcDbBlockEnd
  0
BLOCK
  5
10C
330
10B
100
AcDbEntity
  8
0
100
AcDbBlockBegin
  2
_D_1
 70
     0
 10
0.0
 20
0.0
 30
0.0
  3
_D_1
  1

  0
SOLID
  5
10E
330
10B
100
AcDbEntity
  8
DEFAULT
 62
     7
100
AcDbTrace
 10
12.04330721
 20
10.7854442047
 30
0.0
 11
12.56330721
 21
10.7054442047
 31
0.0
 12
12.56330721
 22
10.8654442047
 32
0.0
 13
12.56330721
 23
10.8654442047
 33
0.0
  0
SOLID
  5
10F
330
10B
100
AcDbEntity
  8
DEFAULT
 62
     7
100
AcDbTrace
 10
19.27330721
 20
10.7854442047
 30
0.0
 11
18.75330721
 21
10.8654442047
 31
0.0
 12
18.75330721
 22
10.7054442047
 32
0.0
 13
18.75330721
 23
10.7054442047
 33
0.0
  0
LINE
  5
110
330
10B
100
AcDbEntity
  8
DEFAULT
 62
     7
100
AcDbLine
 10
12.04330721
 20
13.173354232
 30
0.0
 11
12.04330721
 21
10.2854442047
 31
0.0
  0
LINE
  5
111
330
10B
100
AcDbEntity
  8
DEFAULT
 62
     7
100
AcDbLine
 10
19.27330721
 20
13.173354232
 30
0.0
 11
19.27330721
 21
10.2854442047
 31
0.0
  0
LINE
  5
112
330
10B
100
AcDbEntity
  8
DEFAULT
 62
     7
100
AcDbLine
 10
12.04330721
 20
10.7854442047
 30
0.0
 11
14.5596961479
 21
10.7854442047
 31
0.0
  0
LINE
  5
113
330
10B
100
AcDbEntity
  8
DEFAULT
 62
     7
100
AcDbLine
 10
19.27330721
 20
10.7854442047
 30
0.0
 11
16.7569182721
 21
10.7854442047
 31
0.0
  0
MTEXT
  5
114
330
10B
100
AcDbEntity
  8
DEFAULT
 62
     7
100
AcDbMText
 10
14.5596961479
 20
11.0331031176
 30
0.364302428
 40
0.5
 41
0.0
 71
     1
 72
     1
  1
7 1/4"
  7
SLDTEXTSTYLE0
 73
     1
 44
1.0
  0
ENDBLK
  5
10D
330
10B
100
AcDbEntity
  8
0
100
AcDbBlockEnd
  0
BLOCK
  5
117
330
116
100
AcDbEntity
  8
0
100
AcDbBlockBegin
  2
_D_2
 70
     0
 10
0.0
 20
0.0
 30
0.0
  3
_D_2
  1

  0
SOLID
  5
119
330
116
100
AcDbEntity
  8
DEFAULT
 62
     7
100
AcDbTrace
 10
5.6937402809
 20
13.348354232
 30
0.0
 11
5.7737402809
 21
13.868354232
 31
0.0
 12
5.6137402809
 22
13.868354232
 32
0.0
 13
5.6137402809
 23
13.868354232
 33
0.0
  0
SOLID
  5
11A
330
116
100
AcDbEntity
  8
DEFAULT
 62
     7
100
AcDbTrace
 10
5.6937402809
 20
19.238354232
 30
0.0
 11
5.6137402809
 21
18.718354232
 31
0.0
 12
5.7737402809
 22
18.718354232
 32
0.0
 13
5.7737402809
 23
18.718354232
 33
0.0
  0
LINE
  5
11B
330
116
100
AcDbEntity
  8
DEFAULT
 62
     7
100
AcDbLine
 10
10.8209056352
 20
13.348354232
 30
0.0
 11
5.1937402809
 21
13.348354232
 31
0.0
  0
LINE
  5
11C
330
116
100
AcDbEntity
  8
DEFAULT
 62
     7
100
AcDbLine
 10
10.8209056352
 20
19.238354232
 30
0.0
 11
5.1937402809
 21
19.238354232
 31
0.0
  0
LINE
  5
11D
330
116
100
AcDbEntity
  8
DEFAULT
 62
     7
100
AcDbLine
 10
5.6937402809
 20
13.348354232
 30
0.0
 11
5.6937402809
 21
15.89647922
 31
0.0
  0
LINE
  5
11E
330
116
100
AcDbEntity
  8
DEFAULT
 62
     7
100
AcDbLine
 10
5.6937402809
 20
19.238354232
 30
0.0
 11
5.6937402809
 21
16.6902292439
 31
0.0
  0
MTEXT
  5
11F
330
116
100
AcDbEntity
  8
DEFAULT
 62
     7
100
AcDbMText
 10
4.5951292188
 20
16.5410131449
 30
0.364302428
 40
0.5
 41
0.0
 71
     1
 72
     1
  1
5 7/8"
  7
SLDTEXTSTYLE0
 73
     1
 44
1.0
  0
ENDBLK
  5
118
330
116
100
AcDbEntity
  8
0
100
AcDbBlockEnd
  0
BLOCK
  5
122
330
121
100
AcDbEntity
  8
0
100
AcDbBlockBegin
  2
_D_3
 70
     0
 10
0.0
 20
0.0
 30
0.0
  3
_D_3
  1

  0
SOLID
  5
124
330
121
100
AcDbEntity
  8
DEFAULT
 62
     7
100
AcDbTrace
 10
10.95830721
 20
21.9780652511
 30
0.0
 11
11.47830721
 21
21.8980652511
 31
0.0
 12
11.47830721
 22
22.0580652511
 32
0.0
 13
11.47830721
 23
22.0580652511
 33
0.0
  0
SOLID
  5
125
330
121
100
AcDbEntity
  8
DEFAULT
 62
     7
100
AcDbTrace
 10
20.35830721
 20
21.9780652511
 30
0.0
 11
19.83830721
 21
22.0580652511
 31
0.0
 12
19.83830721
 22
21.8980652511
 32
0.0
 13
19.83830721
 23
21.8980652511
 33
0.0
  0
LINE
  5
126
330
121
100
AcDbEntity
  8
DEFAULT
 62
     7
100
AcDbLine
 10
10.95830721
 20
19.3757558068
 30
0.0
 11
10.95830721
 21
22.4780652511
 31
0.0
  0
LINE
  5
127
330
121
100
AcDbEntity
  8
DEFAULT
 62
     7
100
AcDbLine
 10
20.35830721
 20
19.3757558068
 30
0.0
 11
20.35830721
 21
22.4780652511
 31
0.0
  0
LINE
  5
128
330
121
100
AcDbEntity
  8
DEFAULT
 62
     7
100
AcDbLine
 10
10.95830721
 20
21.9780652511
 30
0.0
 11
14.5596961479
 21
21.9780652511
 31
0.0
  0
LINE
  5
129
330
121
100
AcDbEntity
  8
DEFAULT
 62
     7
100
AcDbLine
 10
20.35830721
 20
21.9780652511
 30
0.0
 11
16.7569182721
 21
21.9780652511
 31
0.0
  0
MTEXT
  5
12A
330
121
100
AcDbEntity
  8
DEFAULT
 62
     7
100
AcDbMText
 10
14.5596961479
 20
22.225724164
 30
0.364302428
 40
0.5
 41
0.0
 71
     1
 72
     1
  1
9 3/8"
  7
SLDTEXTSTYLE0
 73
     1
 44
1.0
  0
ENDBLK
  5
123
330
121
100
AcDbEntity
  8
0
100
AcDbBlockEnd
  0
BLOCK
  5
161
330
160
100
AcDbEntity
  8
0
100
AcDbBlockBegin
  2
_D_4
 70
     0
 10
0.0
 20
0.0
 30
0.0
  3
_D_4
  1

  0
SOLID
  5
163
330
160
100
AcDbEntity
  8
DEFAULT
 62
     7
100
AcDbTrace
 10
30.9078564142
 20
11.918354232
 30
0.0
 11
30.9878564142
 21
12.438354232
 31
0.0
 12
30.8278564142
 22
12.438354232
 32
0.0
 13
30.8278564142
 23
12.438354232
 33
0.0
  0
SOLID
  5
164
330
160
100
AcDbEntity
  8
DEFAULT
 62
     7
100
AcDbTrace
 10
30.9078564142
 20
20.668354232
 30
0.0
 11
30.8278564142
 21
20.148354232
 31
0.0
 12
30.9878564142
 22
20.148354232
 32
0.0
 13
30.9878564142
 23
20.148354232
 33
0.0
  0
LINE
  5
165
330
160
100
AcDbEntity
  8
DEFAULT
 62
     7
100
AcDbLine
 10
28.2188045413
 20
11.918354232
 30
0.0
 11
31.4078564142
 21
11.918354232
 31
0.0
  0
LINE
  5
166
330
160
100
AcDbEntity
  8
DEFAULT
 62
     7
100
AcDbLine
 10
28.2188045413
 20
20.668354232
 30
0.0
 11
31.4078564142
 21
20.668354232
 31
0.0
  0
LINE
  5
167
330
160
100
AcDbEntity
  8
DEFAULT
 62
     7
100
AcDbLine
 10
30.9078564142
 20
11.918354232
 30
0.0
 11
30.9078564142
 21
15.89647922
 31
0.0
  0
LINE
  5
168
330
160
100
AcDbEntity
  8
DEFAULT
 62
     7
100
AcDbLine
 10
30.9078564142
 20
20.668354232
 30
0.0
 11
30.9078564142
 21
16.6902292439
 31
0.0
  0
MTEXT
  5
169
330
160
100
AcDbEntity
  8
DEFAULT
 62
     7
100
AcDbMText
 10
29.8092453521
 20
16.5410131449
 30
0.0039370079
 40
0.5
 41
0.0
 71
     1
 72
     1
  1
8 3/4"
  7
SLDTEXTSTYLE0
 73
     1
 44
1.0
  0
ENDBLK
  5
162
330
160
100
AcDbEntity
  8
0
100
AcDbBlockEnd
  0
BLOCK
  5
16C
330
16B
100
AcDbEntity
  8
0
100
AcDbBlockBegin
  2
_D_5
 70
     0
 10
0.0
 20
0.0
 30
0.0
  3
_D_5
  1

  0
SOLID
  5
16E
330
16B
100
AcDbEntity
  8
DEFAULT
 62
     7
100
AcDbTrace
 10
27.868556467
 20
22.5645961641
 30
0.0
 11
27.348556467
 21
22.6445961641
 31
0.0
 12
27.348556467
 22
22.4845961641
 32
0.0
 13
27.348556467
 23
22.4845961641
 33
0.0
  0
SOLID
  5
16F
330
16B
100
AcDbEntity
  8
DEFAULT
 62
     7
100
AcDbTrace
 10
28.5992873073
 20
22.5645961641
 30
0.0
 11
29.1192873073
 21
22.4845961641
 31
0.0
 12
29.1192873073
 22
22.6445961641
 32
0.0
 13
29.1192873073
 23
22.6445961641
 33
0.0
  0
LINE
  5
170
330
16B
100
AcDbEntity
  8
DEFAULT
 62
     7
100
AcDbLine
 10
27.868556467
 20
20.168354232
 30
0.0
 11
27.868556467
 21
23.0645961641
 31
0.0
  0
LINE
  5
171
330
16B
100
AcDbEntity
  8
DEFAULT
 62
     7
100
AcDbLine
 10
28.5992873073
 20
19.1776628095
 30
0.0
 11
28.5992873073
 21
23.0645961641
 31
0.0
  0
LINE
  5
172
330
16B
100
AcDbEntity
  8
DEFAULT
 62
     7
100
AcDbLine
 10
27.868556467
 20
22.5645961641
 30
0.0
 11
26.868556467
 21
22.5645961641
 31
0.0
  0
LINE
  5
173
330
16B
100
AcDbEntity
  8
DEFAULT
 62
     7
100
AcDbLine
 10
28.5992873073
 20
22.5645961641
 30
0.0
 11
29.8076243696
 21
22.5645961641
 31
0.0
  0
MTEXT
  5
174
330
16B
100
AcDbEntity
  8
DEFAULT
 62
     7
100
AcDbMText
 10
29.8076243696
 20
22.812255077
 30
0.0039370079
 40
0.5
 41
0.0
 71
     1
 72
     1
  1
3/4"
  7
SLDTEXTSTYLE0
 73
     1
 44
1.0
  0
ENDBLK
  5
16D
330
16B
100
AcDbEntity
  8
0
100
AcDbBlockEnd
  0
BLOCK
  5
1AC
330
1AB
100
AcDbEntity
  8
0
100
AcDbBlockBegin
  2
_D_6
 70
     0
 10
0.0
 20
0.0
 30
0.0
  3
_D_6
  1

  0
SOLID
  5
1AE
330
1AB
100
AcDbEntity
  8
DEFAULT
 62
     7
100
AcDbTrace
 10
9.15830721
 20
30.0884287578
 30
0.0
 11
9.67830721
 21
30.0084287578
 31
0.0
 12
9.67830721
 22
30.1684287578
 32
0.0
 13
9.67830721
 23
30.1684287578
 33
0.0
  0
SOLID
  5
1AF
330
1AB
100
AcDbEntity
  8
DEFAULT
 62
     7
100
AcDbTrace
 10
22.15830721
 20
30.0884287578
 30
0.0
 11
21.63830721
 21
30.1684287578
 31
0.0
 12
21.63830721
 22
30.0084287578
 32
0.0
 13
21.63830721
 23
30.0084287578
 33
0.0
  0
LINE
  5
1B0
330
1AB
100
AcDbEntity
  8
DEFAULT
 62
     7
100
AcDbLine
 10
9.15830721
 20
28.1331428423
 30
0.0
 11
9.15830721
 21
30.5884287578
 31
0.0
  0
LINE
  5
1B1
330
1AB
100
AcDbEntity
  8
DEFAULT
 62
     7
100
AcDbLine
 10
22.15830721
 20
28.1331428423
 30
0.0
 11
22.15830721
 21
30.5884287578
 31
0.0
  0
LINE
  5
1B2
330
1AB
100
AcDbEntity
  8
DEFAULT
 62
     7
100
AcDbLine
 10
9.15830721
 20
30.0884287578
 30
0.0
 11
14.982612809
 21
30.0884287578
 31
0.0
  0
LINE
  5
1B3
330
1AB
100
AcDbEntity
  8
DEFAULT
 62
     7
100
AcDbLine
 10
22.15830721
 20
30.0884287578
 30
0.0
 11
16.334001611
 21
30.0884287578
 31
0.0
  0
MTEXT
  5
1B4
330
1AB
100
AcDbEntity
  8
DEFAULT
 62
     7
100
AcDbMText
 10
14.982612809
 20
30.3360876708
 30
-0.0460629921
 40
0.5
 41
0.0
 71
     1
 72
     1
  1
13"
  7
SLDTEXTSTYLE0
 73
     1
 44
1.0
  0
ENDBLK
  5
1AD
330
1AB
100
AcDbEntity
  8
0
100
AcDbBlockEnd
  0
BLOCK
  5
1B7
330
1B6
100
AcDbEntity
  8
0
100
AcDbBlockBegin
  2
_D_7
 70
     0
 10
0.0
 20
0.0
 30
0.0
  3
_D_7
  1

  0
SOLID
  5
1B9
330
1B6
100
AcDbEntity
  8
DEFAULT
 62
     7
100
AcDbTrace
 10
7.5835040604
 20
27.7828947679
 30
0.0
 11
7.5035040604
 21
27.2628947679
 31
0.0
 12
7.6635040604
 22
27.2628947679
 32
0.0
 13
7.6635040604
 23
27.2628947679
 33
0.0
  0
SOLID
  5
1BA
330
1B6
100
AcDbEntity
  8
DEFAULT
 62
     7
100
AcDbTrace
 10
7.5835040604
 20
27.9828947679
 30
0.0
 11
7.6635040604
 21
28.5028947679
 31
0.0
 12
7.5035040604
 22
28.5028947679
 32
0.0
 13
7.5035040604
 23
28.5028947679
 33
0.0
  0
LINE
  5
1BB
330
1B6
100
AcDbEntity
  8
DEFAULT
 62
     7
100
AcDbLine
 10
9.65830721
 20
27.7828947679
 30
0.0
 11
7.0835040604
 21
27.7828947679
 31
0.0
  0
LINE
  5
1BC
330
1B6
100
AcDbEntity
  8
DEFAULT
 62
     7
100
AcDbLine
 10
8.9695208576
 20
27.9828947679
 30
0.0
 11
7.0835040604
 21
27.9828947679
 31
0.0
  0
LINE
  5
1BD
330
1B6
100
AcDbEntity
  8
DEFAULT
 62
     7
100
AcDbLine
 10
6.5835040604
 20
26.5928310904
 30
0.0
 11
7.5835040604
 21
26.5928310904
 31
0.0
  0
LINE
  5
1BE
330
1B6
100
AcDbEntity
  8
DEFAULT
 62
     7
100
AcDbLine
 10
7.5835040604
 20
26.5928310904
 30
0.0
 11
7.5835040604
 21
27.7828947679
 31
0.0
  0
LINE
  5
1BF
330
1B6
100
AcDbEntity
  8
DEFAULT
 62
     7
100
AcDbLine
 10
7.5835040604
 20
27.9828947679
 30
0.0
 11
7.5835040604
 21
28.9828947679
 31
0.0
  0
MTEXT
  5
1C0
330
1B6
100
AcDbEntity
  8
DEFAULT
 62
     7
100
AcDbMText
 10
4.9404484945
 20
26.8404900033
 30
-0.0460629921
 40
0.5
 41
0.0
 71
     1
 72
     1
  1
1/4"
  7
SLDTEXTSTYLE0
 73
     1
 44
1.0
  0
ENDBLK
  5
1B8
330
1B6
100
AcDbEntity
  8
0
100
AcDbBlockEnd
  0
ENDSEC
  0
SECTION
  2
ENTITIES
  0
INSERT
  5
54
330
1F
100
AcDbEntity
  8
DEFAULT
100
AcDbBlockReference
  2
SW_NOTE_0
 10
18.7965021322
 20
6.1742679089
 30
0.0
  0
LINE
  5
55
330
1F
100
AcDbEntity
  8
0
  6
Continuous
 62
     7
370
    15
100
AcDbLine
 10
12.0433072108
 20
14.3263840836
 30
0.0
 11
19.2733072092
 21
14.3263840836
 31
0.0
  0
LINE
  5
56
330
1F
100
AcDbEntity
  8
0
  6
Continuous
 62
     7
370
    15
100
AcDbLine
 10
10.9983072561
 20
13.3733542131
 30
0.0
 11
12.0433072108
 21
13.3733542131
 31
0.0
  0
LINE
  5
57
330
1F
100
AcDbEntity
  8
0
  6
Continuous
 62
     7
370
    15
100
AcDbLine
 10
19.2733072092
 20
13.3733542131
 30
0.0
 11
20.318307164
 21
13.3733542131
 31
0.0
  0
LINE
  5
58
330
1F
100
AcDbEntity
  8
0
  6
Continuous
 62
     7
370
    15
100
AcDbLine
 10
10.1583073865
 20
20.0343169984
 30
0.0
 11
10.1583073865
 21
19.9683541338
 31
0.0
  0
LINE
  5
59
330
1F
100
AcDbEntity
  8
0
  6
Continuous
 62
     7
370
    15
100
AcDbLine
 10
10.1583073865
 20
20.0343169984
 30
0.0
 11
21.1583070336
 21
20.0343169984
 31
0.0
  0
LINE
  5
5A
330
1F
100
AcDbEntity
  8
0
  6
Continuous
 62
     7
370
    15
100
AcDbLine
 10
21.1583070336
 20
20.0343169984
 30
0.0
 11
21.1583070336
 21
19.9683541338
 31
0.0
  0
LINE
  5
5B
330
1F
100
AcDbEntity
  8
0
  6
Continuous
 62
     7
370
    15
100
AcDbLine
 10
21.1583070336
 20
19.9683541338
 30
0.0
 11
10.1583073865
 21
19.9683541338
 31
0.0
  0
LINE
  5
5C
330
1F
100
AcDbEntity
  8
0
  6
Continuous
 62
     7
370
    15
100
AcDbLine
 10
21.4583073013
 20
12.918354296
 30
0.0
 11
21.4583073013
 21
19.6683541594
 31
0.0
  0
LINE
  5
5D
330
1F
100
AcDbEntity
  8
0
  6
Continuous
 62
     7
370
    15
100
AcDbLine
 10
21.5242695793
 20
19.6683541594
 30
0.0
 11
21.4583073013
 21
19.6683541594
 31
0.0
  0
LINE
  5
5E
330
1F
100
AcDbEntity
  8
0
  6
Continuous
 62
     7
370
    15
100
AcDbLine
 10
21.5242695793
 20
12.918354296
 30
0.0
 11
21.5242695793
 21
19.6683541594
 31
0.0
  0
LINE
  5
5F
330
1F
100
AcDbEntity
  8
0
  6
Continuous
 62
     7
370
    15
100
AcDbLine
 10
21.5242695793
 20
12.918354296
 30
0.0
 11
21.4583073013
 21
12.918354296
 31
0.0
  0
LINE
  5
60
330
1F
100
AcDbEntity
  8
0
  6
Continuous
 62
     7
370
    15
100
AcDbLine
 10
10.1583073865
 20
12.6183543216
 30
0.0
 11
21.1583070336
 21
12.6183543216
 31
0.0
  0
LINE
  5
61
330
1F
100
AcDbEntity
  8
0
  6
Continuous
 62
     7
370
    15
100
AcDbLine
 10
21.1583070336
 20
12.552391457
 30
0.0
 11
21.1583070336
 21
12.6183543216
 31
0.0
  0
LINE
  5
62
330
1F
100
AcDbEntity
  8
0
  6
Continuous
 62
     7
370
    15
100
AcDbLine
 10
10.1583073865
 20
12.552391457
 30
0.0
 11
21.1583070336
 21
12.552391457
 31
0.0
  0
LINE
  5
63
330
1F
100
AcDbEntity
  8
0
  6
Continuous
 62
     7
370
    15
100
AcDbLine
 10
10.1583073865
 20
12.552391457
 30
0.0
 11
10.1583073865
 21
12.6183543216
 31
0.0
  0
LINE
  5
64
330
1F
100
AcDbEntity
  8
0
  6
Continuous
 62
     7
370
    15
100
AcDbLine
 10
9.8583071188
 20
19.6683541594
 30
0.0
 11
9.8583071188
 21
12.918354296
 31
0.0
  0
LINE
  5
65
330
1F
100
AcDbEntity
  8
0
  6
Continuous
 62
     7
370
    15
100
AcDbLine
 10
9.7923448408
 20
12.918354296
 30
0.0
 11
9.8583071188
 21
12.918354296
 31
0.0
  0
LINE
  5
66
330
1F
100
AcDbEntity
  8
0
  6
Continuous
 62
     7
370
    15
100
AcDbLine
 10
9.7923448408
 20
19.6683541594
 30
0.0
 11
9.7923448408
 21
12.918354296
 31
0.0
  0
LINE
  5
67
330
1F
100
AcDbEntity
  8
0
  6
Continuous
 62
     7
370
    15
100
AcDbLine
 10
9.7923448408
 20
19.6683541594
 30
0.0
 11
9.8583071188
 21
19.6683541594
 31
0.0
  0
ARC
  5
68
330
1F
100
AcDbEntity
  8
0
  6
Continuous
 62
     7
370
    15
100
AcDbCircle
 10
21.15830721
 20
19.668354232
 30
0.0
 40
0.2999999999999936
100
AcDbArc
 50
0.0
 51
90.0
  0
ARC
  5
69
330
1F
100
AcDbEntity
  8
0
  6
Continuous
 62
     7
370
    15
100
AcDbCircle
 10
21.15830721
 20
19.668354232
 30
0.0
 40
0.3659626329938774
100
AcDbArc
 50
0.0
 51
90.0
  0
ARC
  5
6A
330
1F
100
AcDbEntity
  8
0
  6
Continuous
 62
     7
370
    15
100
AcDbCircle
 10
10.15830721
 20
12.918354232
 30
0.0
 40
0.2999999999999989
100
AcDbArc
 50
180.0
 51
270.0
  0
ARC
  5
6B
330
1F
100
AcDbEntity
  8
0
  6
Continuous
 62
     7
370
    15
100
AcDbCircle
 10
10.15830721
 20
12.918354232
 30
0.0
 40
0.365962632993881
100
AcDbArc
 50
180.0
 51
270.0
  0
ARC
  5
6C
330
1F
100
AcDbEntity
  8
0
  6
Continuous
 62
     7
370
    15
100
AcDbCircle
 10
10.15830721
 20
19.668354232
 30
0.0
 40
0.2999999999999989
100
AcDbArc
 50
90.0
 51
180.0
  0
ARC
  5
6D
330
1F
100
AcDbEntity
  8
0
  6
Continuous
 62
     7
370
    15
100
AcDbCircle
 10
10.15830721
 20
19.668354232
 30
0.0
 40
0.365962632993881
100
AcDbArc
 50
90.0
 51
180.0
  0
ARC
  5
6E
330
1F
100
AcDbEntity
  8
0
  6
Continuous
 62
     7
370
    15
100
AcDbCircle
 10
21.15830721
 20
12.918354232
 30
0.0
 40
0.2999999999999989
100
AcDbArc
 50
270.0
 51
0.0
  0
ARC
  5
6F
330
1F
100
AcDbEntity
  8
0
  6
Continuous
 62
     7
370
    15
100
AcDbCircle
 10
21.15830721
 20
12.918354232
 30
0.0
 40
0.365962632993881
100
AcDbArc
 50
270.0
 51
0.0
  0
LINE
  5
70
330
1F
100
AcDbEntity
  8
0
  6
Continuous
 62
     7
370
    15
100
AcDbLine
 10
19.2343072331
 20
13.3483542886
 30
0.0
 11
20.2957087317
 21
13.3483542886
 31
0.0
  0
ARC
  5
71
330
1F
100
AcDbEntity
  8
0
  6
Continuous
 62
     7
370
    15
100
AcDbCircle
 10
20.2957087848
 20
13.4109526572
 30
0.0
 40
0.0625984251968497
100
AcDbArc
 50
270.0
 51
0.0
  0
LINE
  5
72
330
1F
100
AcDbEntity
  8
0
  6
Continuous
 62
     7
370
    15
100
AcDbLine
 10
20.3583071019
 20
13.4109526588
 30
0.0
 11
20.3583071019
 21
19.1757557966
 31
0.0
  0
ARC
  5
73
330
1F
100
AcDbEntity
  8
0
  6
Continuous
 62
     7
370
    15
100
AcDbCircle
 10
20.2957087848
 20
19.1757558068
 30
0.0
 40
0.0625984251968497
100
AcDbArc
 50
360.0
 51
90.0
  0
LINE
  5
74
330
1F
100
AcDbEntity
  8
0
  6
Continuous
 62
     7
370
    15
100
AcDbLine
 10
20.2957087317
 20
19.2383541668
 30
0.0
 11
19.2343072331
 21
19.2383541668
 31
0.0
  0
LINE
  5
75
330
1F
100
AcDbEntity
  8
0
  6
Continuous
 62
     7
370
    15
100
AcDbLine
 10
19.2343072331
 20
19.2383541668
 30
0.0
 11
19.2343072331
 21
19.313738496
 31
0.0
  0
LINE
  5
76
330
1F
100
AcDbEntity
  8
0
  6
Continuous
 62
     7
370
    15
100
AcDbLine
 10
19.2343072331
 20
19.313738496
 30
0.0
 11
19.2333072713
 21
19.313738496
 31
0.0
  0
LINE
  5
77
330
1F
100
AcDbEntity
  8
0
  6
Continuous
 62
     7
370
    15
100
AcDbLine
 10
12.0833071487
 20
19.313738496
 30
0.0
 11
19.2333072713
 21
19.313738496
 31
0.0
  0
LINE
  5
78
330
1F
100
AcDbEntity
  8
0
  6
Continuous
 62
     7
370
    15
100
AcDbLine
 10
12.0833071487
 20
19.313738496
 30
0.0
 11
12.082307187
 21
19.313738496
 31
0.0
  0
LINE
  5
79
330
1F
100
AcDbEntity
  8
0
  6
Continuous
 62
     7
370
    15
100
AcDbLine
 10
12.082307187
 20
19.313738496
 30
0.0
 11
12.082307187
 21
19.2383541668
 31
0.0
  0
LINE
  5
7A
330
1F
100
AcDbEntity
  8
0
  6
Continuous
 62
     7
370
    15
100
AcDbLine
 10
12.082307187
 20
19.2383541668
 30
0.0
 11
11.0209056884
 21
19.2383541668
 31
0.0
  0
ARC
  5
7B
330
1F
100
AcDbEntity
  8
0
  6
Continuous
 62
     7
370
    15
100
AcDbCircle
 10
11.0209056352
 20
19.1757558068
 30
0.0
 40
0.0625984251968532
100
AcDbArc
 50
90.0
 51
180.0
  0
LINE
  5
7C
330
1F
100
AcDbEntity
  8
0
  6
Continuous
 62
     7
370
    15
100
AcDbLine
 10
10.9583073182
 20
19.1757557966
 30
0.0
 11
10.9583073182
 21
13.4109526588
 31
0.0
  0
ARC
  5
7D
330
1F
100
AcDbEntity
  8
0
  6
Continuous
 62
     7
370
    15
100
AcDbCircle
 10
11.0209056352
 20
13.4109526572
 30
0.0
 40
0.0625984251968514
100
AcDbArc
 50
180.0
 51
270.0
  0
LINE
  5
7E
330
1F
100
AcDbEntity
  8
0
  6
Continuous
 62
     7
370
    15
100
AcDbLine
 10
11.0209056884
 20
13.3483542886
 30
0.0
 11
12.082307187
 21
13.3483542886
 31
0.0
  0
LINE
  5
7F
330
1F
100
AcDbEntity
  8
0
  6
Continuous
 62
     7
370
    15
100
AcDbLine
 10
12.082307187
 20
13.3483542886
 30
0.0
 11
12.082307187
 21
13.2729699594
 31
0.0
  0
LINE
  5
80
330
1F
100
AcDbEntity
  8
0
  6
Continuous
 62
     7
370
    15
100
AcDbLine
 10
12.082307187
 20
13.2729699594
 30
0.0
 11
12.0833071487
 21
13.2729699594
 31
0.0
  0
LINE
  5
81
330
1F
100
AcDbEntity
  8
0
  6
Continuous
 62
     7
370
    15
100
AcDbLine
 10
19.2333072713
 20
13.2729699594
 30
0.0
 11
12.0833071487
 21
13.2729699594
 31
0.0
  0
LINE
  5
82
330
1F
100
AcDbEntity
  8
0
  6
Continuous
 62
     7
370
    15
100
AcDbLine
 10
19.2333072713
 20
13.2729699594
 30
0.0
 11
19.2343072331
 21
13.2729699594
 31
0.0
  0
LINE
  5
83
330
1F
100
AcDbEntity
  8
0
  6
Continuous
 62
     7
370
    15
100
AcDbLine
 10
19.2343072331
 20
13.2729699594
 30
0.0
 11
19.2343072331
 21
13.3483542886
 31
0.0
  0
LINE
  5
84
330
1F
100
AcDbEntity
  8
0
  6
Continuous
 62
     7
370
    15
100
AcDbLine
 10
12.0833071487
 20
13.2729699594
 30
0.0
 11
12.0833071487
 21
13.3463807647
 31
0.0
  0
LINE
  5
85
330
1F
100
AcDbEntity
  8
0
  6
Continuous
 62
     7
370
    15
100
AcDbLine
 10
19.2333072713
 20
13.3463807647
 30
0.0
 11
12.0833071487
 21
13.3463807647
 31
0.0
  0
LINE
  5
86
330
1F
100
AcDbEntity
  8
0
  6
Continuous
 62
     7
370
    15
100
AcDbLine
 10
19.2333072713
 20
13.3463807647
 30
0.0
 11
19.2333072713
 21
13.2729699594
 31
0.0
  0
LINE
  5
87
330
1F
100
AcDbEntity
  8
0
  6
Continuous
 62
     7
370
    15
100
AcDbLine
 10
12.0833071487
 20
19.2403276907
 30
0.0
 11
19.2333072713
 21
19.2403276907
 31
0.0
  0
LINE
  5
88
330
1F
100
AcDbEntity
  8
0
  6
Continuous
 62
     7
370
    15
100
AcDbLine
 10
12.0833071487
 20
19.2403276907
 30
0.0
 11
12.0833071487
 21
19.313738496
 31
0.0
  0
LINE
  5
89
330
1F
100
AcDbEntity
  8
0
  6
Continuous
 62
     7
370
    15
100
AcDbLine
 10
19.2333072713
 20
19.313738496
 30
0.0
 11
19.2333072713
 21
19.2403276907
 31
0.0
  0
LINE
  5
8A
330
1F
100
AcDbEntity
  8
0
  6
Continuous
 62
     7
370
    15
100
AcDbLine
 10
9.1583074719
 20
19.6683541594
 30
0.0
 11
9.7923448408
 21
19.6683541594
 31
0.0
  0
ARC
  5
8B
330
1F
100
AcDbEntity
  8
0
  6
Continuous
 62
     7
370
    15
100
AcDbCircle
 10
10.15830721
 20
19.668354232
 30
0.0
 40
1.0
100
AcDbArc
 50
90.0
 51
180.0
  0
LINE
  5
8C
330
1F
100
AcDbEntity
  8
0
  6
Continuous
 62
     7
370
    15
100
AcDbLine
 10
10.1583073865
 20
20.6683543673
 30
0.0
 11
10.1583073865
 21
20.0343169984
 31
0.0
  0
LINE
  5
8D
330
1F
100
AcDbEntity
  8
0
  6
Continuous
 62
     7
370
    15
100
AcDbLine
 10
21.1583070336
 20
11.9183540881
 30
0.0
 11
21.1583070336
 21
12.552391457
 31
0.0
  0
LINE
  5
8E
330
1F
100
AcDbEntity
  8
0
  6
Continuous
 62
     7
370
    15
100
AcDbLine
 10
10.1583073865
 20
11.9183540881
 30
0.0
 11
21.1583070336
 21
11.9183540881
 31
0.0
  0
LINE
  5
8F
330
1F
100
AcDbEntity
  8
0
  6
Continuous
 62
     7
370
    15
100
AcDbLine
 10
10.1583073865
 20
11.9183540881
 30
0.0
 11
10.1583073865
 21
12.552391457
 31
0.0
  0
LINE
  5
90
330
1F
100
AcDbEntity
  8
0
  6
Continuous
 62
     7
370
    15
100
AcDbLine
 10
9.1583074719
 20
12.918354296
 30
0.0
 11
9.7923448408
 21
12.918354296
 31
0.0
  0
LINE
  5
91
330
1F
100
AcDbEntity
  8
0
  6
Continuous
 62
     7
370
    15
100
AcDbLine
 10
9.1583074719
 20
19.6683541594
 30
0.0
 11
9.1583074719
 21
12.918354296
 31
0.0
  0
LINE
  5
92
330
1F
100
AcDbEntity
  8
0
  6
Continuous
 62
     7
370
    15
100
AcDbLine
 10
21.1583070336
 20
20.6683543673
 30
0.0
 11
21.1583070336
 21
20.0343169984
 31
0.0
  0
ARC
  5
93
330
1F
100
AcDbEntity
  8
0
  6
Continuous
 62
     7
370
    15
100
AcDbCircle
 10
21.15830721
 20
19.668354232
 30
0.0
 40
1.0
100
AcDbArc
 50
0.0
 51
90.0
  0
LINE
  5
94
330
1F
100
AcDbEntity
  8
0
  6
Continuous
 62
     7
370
    15
100
AcDbLine
 10
22.1583069481
 20
19.6683541594
 30
0.0
 11
21.5242695793
 21
19.6683541594
 31
0.0
  0
LINE
  5
95
330
1F
100
AcDbEntity
  8
0
  6
Continuous
 62
     7
370
    15
100
AcDbLine
 10
22.1583069481
 20
12.918354296
 30
0.0
 11
22.1583069481
 21
19.6683541594
 31
0.0
  0
LINE
  5
96
330
1F
100
AcDbEntity
  8
0
  6
Continuous
 62
     7
370
    15
100
AcDbLine
 10
22.1583069481
 20
12.918354296
 30
0.0
 11
21.5242695793
 21
12.918354296
 31
0.0
  0
ARC
  5
97
330
1F
100
AcDbEntity
  8
0
  6
Continuous
 62
     7
370
    15
100
AcDbCircle
 10
21.15830721
 20
12.918354232
 30
0.0
 40
1.0
100
AcDbArc
 50
270.0
 51
0.0
  0
LINE
  5
98
330
1F
100
AcDbEntity
  8
0
  6
Continuous
 62
     7
370
    15
100
AcDbLine
 10
10.1583073865
 20
20.6683543673
 30
0.0
 11
21.1583070336
 21
20.6683543673
 31
0.0
  0
ARC
  5
99
330
1F
100
AcDbEntity
  8
0
  6
Continuous
 62
     7
370
    15
100
AcDbCircle
 10
10.15830721
 20
12.918354232
 30
0.0
 40
1.0
100
AcDbArc
 50
180.0
 51
270.0
  0
LINE
  5
9A
330
1F
100
AcDbEntity
  8
0
  6
Continuous
 62
     7
370
    15
100
AcDbLine
 10
12.0833071487
 20
19.2083482734
 30
0.0
 11
11.9979070686
 21
19.2083482734
 31
0.0
  0
LINE
  5
9B
330
1F
100
AcDbEntity
  8
0
  6
Continuous
 62
     7
370
    15
100
AcDbLine
 10
12.0833071487
 20
19.2403276907
 30
0.0
 11
12.0833071487
 21
19.2083482734
 31
0.0
  0
LINE
  5
9C
330
1F
100
AcDbEntity
  8
0
  6
Continuous
 62
     7
370
    15
100
AcDbLine
 10
19.2333072713
 20
19.2083482734
 30
0.0
 11
19.3187073514
 21
19.2083482734
 31
0.0
  0
LINE
  5
9D
330
1F
100
AcDbEntity
  8
0
  6
Continuous
 62
     7
370
    15
100
AcDbLine
 10
19.2333072713
 20
19.2083482734
 30
0.0
 11
19.2333072713
 21
19.2403276907
 31
0.0
  0
LINE
  5
9E
330
1F
100
AcDbEntity
  8
0
  6
Continuous
 62
     7
370
    15
100
AcDbLine
 10
18.8578071025
 20
13.5489145317
 30
0.0
 11
18.8578071025
 21
13.5426199644
 31
0.0
  0
LINE
  5
9F
330
1F
100
AcDbEntity
  8
0
  6
Continuous
 62
     7
370
    15
100
AcDbLine
 10
18.6588070813
 20
13.5426199644
 30
0.0
 11
18.6588070813
 21
13.5489145317
 31
0.0
  0
LINE
  5
A0
330
1F
100
AcDbEntity
  8
0
  6
Continuous
 62
     7
370
    15
100
AcDbLine
 10
19.2333072713
 20
13.378360182
 30
0.0
 11
19.2733072092
 21
13.378360182
 31
0.0
  0
LINE
  5
A1
330
1F
100
AcDbEntity
  8
0
  6
Continuous
 62
     7
370
    15
100
AcDbLine
 10
19.2333072713
 20
13.378360182
 30
0.0
 11
19.2333072713
 21
13.3463807647
 31
0.0
  0
LINE
  5
A2
330
1F
100
AcDbEntity
  8
0
  6
Continuous
 62
     7
370
    15
100
AcDbLine
 10
12.0833071487
 20
13.378360182
 30
0.0
 11
12.0433072108
 21
13.378360182
 31
0.0
  0
LINE
  5
A3
330
1F
100
AcDbEntity
  8
0
  6
Continuous
 62
     7
370
    15
100
AcDbLine
 10
13.0233073031
 20
13.6552674631
 30
0.0
 11
18.293307117
 21
13.6552674631
 31
0.0
  0
LINE
  5
A4
330
1F
100
AcDbEntity
  8
0
  6
Continuous
 62
     7
370
    15
100
AcDbLine
 10
12.6578073387
 20
13.5489145317
 30
0.0
 11
12.6578073387
 21
13.5426199644
 31
0.0
  0
LINE
  5
A5
330
1F
100
AcDbEntity
  8
0
  6
Continuous
 62
     7
370
    15
100
AcDbLine
 10
12.4588073176
 20
13.5426199644
 30
0.0
 11
12.4588073176
 21
13.5489145317
 31
0.0
  0
LINE
  5
A6
330
1F
100
AcDbEntity
  8
0
  6
Continuous
 62
     7
370
    15
100
AcDbLine
 10
12.0833071487
 20
13.3463807647
 30
0.0
 11
12.0833071487
 21
13.378360182
 31
0.0
  0
LINE
  5
A7
330
1F
100
AcDbEntity
  8
0
  6
Continuous
 62
     7
370
    15
100
AcDbLine
 10
20.1083072699
 20
13.3483542886
 30
0.0
 11
20.1083072699
 21
13.3733542131
 31
0.0
  0
LINE
  5
A8
330
1F
100
AcDbEntity
  8
0
  6
Continuous
 62
     7
370
    15
100
AcDbLine
 10
20.2058321433
 20
13.3733542131
 30
0.0
 11
20.1466771733
 21
13.3483542886
 31
0.0
  0
LINE
  5
A9
330
1F
100
AcDbEntity
  8
0
  6
Continuous
 62
     7
370
    15
100
AcDbLine
 10
19.2333072713
 20
13.3321384226
 30
0.0
 11
19.2343072331
 21
13.3321384226
 31
0.0
  0
LINE
  5
AA
330
1F
100
AcDbEntity
  8
0
  6
Continuous
 62
     7
370
    15
100
AcDbLine
 10
12.0833071487
 20
19.2545700328
 30
0.0
 11
12.082307187
 21
19.2545700328
 31
0.0
  0
LINE
  5
AB
330
1F
100
AcDbEntity
  8
0
  6
Continuous
 62
     7
370
    15
100
AcDbLine
 10
19.2333072713
 20
19.2545700328
 30
0.0
 11
19.2343072331
 21
19.2545700328
 31
0.0
  0
LINE
  5
AC
330
1F
100
AcDbEntity
  8
0
  6
Continuous
 62
     7
370
    15
100
AcDbLine
 10
11.2083071501
 20
13.3733542131
 30
0.0
 11
11.2083071501
 21
13.3483542886
 31
0.0
  0
LINE
  5
AD
330
1F
100
AcDbEntity
  8
0
  6
Continuous
 62
     7
370
    15
100
AcDbLine
 10
12.0833071487
 20
13.3321384226
 30
0.0
 11
12.082307187
 21
13.3321384226
 31
0.0
  0
LINE
  5
AE
330
1F
100
AcDbEntity
  8
0
  6
Continuous
 62
     7
370
    15
100
AcDbLine
 10
11.1699372467
 20
13.3483542886
 30
0.0
 11
11.1107822768
 21
13.3733542131
 31
0.0
  0
ARC
  5
AF
330
1F
100
AcDbEntity
  8
0
  6
Continuous
 62
     7
370
    15
100
AcDbCircle
 10
18.7583072386
 20
13.3739934108
 30
0.0
 40
0.1736106899529795
100
AcDbArc
 50
60.4457659972
 51
119.5542340028
  0
ARC
  5
B0
330
1F
100
AcDbEntity
  8
0
  6
Continuous
 62
     7
370
    15
100
AcDbCircle
 10
12.5583071815
 20
13.3739934108
 30
0.0
 40
0.173610689952974
100
AcDbArc
 50
60.4457659972
 51
119.5542340028
  0
LINE
  5
B1
330
1F
100
AcDbEntity
  8
0
  6
Continuous
 62
     7
370
    15
100
AcDbLine
 10
12.054546441
 20
14.7594549474
 30
0.0
 11
12.054546441
 21
14.4183840875
 31
0.0
  0
ELLIPSE
  5
B2
330
1F
100
AcDbEntity
  8
0
  6
Continuous
 62
     7
370
    15
100
AcDbEllipse
 10
12.0529406537
 20
14.4183840808
 30
0.0
 11
0.0
 21
0.09200000000000053
 31
0.0
210
0.0
220
0.0
230
1.0
 40
0.0174550649
 41
3.155481989049338
 42
4.71238898038469
  0
ELLIPSE
  5
B3
330
1F
100
AcDbEntity
  8
0
  6
Continuous
 62
     7
370
    15
100
AcDbEllipse
 10
12.0529581087
 20
14.3463910256
 30
0.0
 11
0.0
 21
0.02000000000000135
 31
0.0
210
0.0
220
0.0
230
1.0
 40
0.0174550649
 41
3.15548198904732
 42
4.71238898038469
  0
LINE
  5
B4
330
1F
100
AcDbEntity
  8
0
  6
Continuous
 62
     7
370
    15
100
AcDbLine
 10
12.053307122
 20
14.7593541886
 30
0.0
 11
12.053307122
 21
14.3463910925
 31
0.0
  0
LINE
  5
B5
330
1F
100
AcDbEntity
  8
0
  6
Continuous
 62
     7
370
    15
100
AcDbLine
 10
12.0543719097
 20
14.7594549474
 30
0.0
 11
12.054546441
 21
14.7594549474
 31
0.0
  0
LINE
  5
B6
330
1F
100
AcDbEntity
  8
0
  6
Continuous
 62
     7
370
    15
100
AcDbLine
 10
19.2620679791
 20
14.7594549474
 30
0.0
 11
19.2620679791
 21
14.4183840875
 31
0.0
  0
LINE
  5
B7
330
1F
100
AcDbEntity
  8
0
  6
Continuous
 62
     7
370
    15
100
AcDbLine
 10
12.054546441
 20
14.4183840875
 30
0.0
 11
19.2620679791
 21
14.4183840875
 31
0.0
  0
LINE
  5
B8
330
1F
100
AcDbEntity
  8
0
  6
Continuous
 62
     7
370
    15
100
AcDbLine
 10
12.054546441
 20
14.7594549474
 30
0.0
 11
19.2620679791
 21
14.7594549474
 31
0.0
  0
LINE
  5
B9
330
1F
100
AcDbEntity
  8
0
  6
Continuous
 62
     7
370
    15
100
AcDbLine
 10
19.2633072981
 20
14.7593541886
 30
0.0
 11
19.2633072981
 21
14.3463910925
 31
0.0
  0
ELLIPSE
  5
BA
330
1F
100
AcDbEntity
  8
0
  6
Continuous
 62
     7
370
    15
100
AcDbEllipse
 10
19.2636563113
 20
14.3463910256
 30
0.0
 11
0.0
 21
0.02000000000000135
 31
0.0
210
0.0
220
0.0
230
1.0
 40
0.0174550649
 41
1.570796326794897
 42
3.127703318133067
  0
ELLIPSE
  5
BB
330
1F
100
AcDbEntity
  8
0
  6
Continuous
 62
     7
370
    15
100
AcDbEllipse
 10
19.2636737664
 20
14.4183840808
 30
0.0
 11
0.0
 21
0.09200000000000053
 31
0.0
210
0.0
220
0.0
230
1.0
 40
0.0174550649
 41
1.570796326794897
 42
3.127703318132184
  0
LINE
  5
BC
330
1F
100
AcDbEntity
  8
0
  6
Continuous
 62
     7
370
    15
100
AcDbLine
 10
19.2620679791
 20
14.7594549474
 30
0.0
 11
19.2622425104
 21
14.7594549474
 31
0.0
  0
LINE
  5
BD
330
1F
100
AcDbEntity
  8
0
  6
Continuous
 62
     7
370
    15
100
AcDbLine
 10
10.9983072561
 20
13.3733542131
 30
0.0
 11
10.9983072561
 21
13.4523541272
 31
0.0
  0
LINE
  5
BE
330
1F
100
AcDbEntity
  8
0
  6
Continuous
 62
     7
370
    15
100
AcDbLine
 10
10.9983072561
 20
13.4523541272
 30
0.0
 11
12.0433072108
 21
13.4523541272
 31
0.0
  0
LINE
  5
BF
330
1F
100
AcDbEntity
  8
0
  6
Continuous
 62
     7
370
    15
100
AcDbLine
 10
12.0433072108
 20
13.4523541272
 30
0.0
 11
12.0433072108
 21
13.3733542131
 31
0.0
  0
LINE
  5
C0
330
1F
100
AcDbEntity
  8
0
  6
Continuous
 62
     7
370
    15
100
AcDbLine
 10
20.318307164
 20
13.4523541272
 30
0.0
 11
20.318307164
 21
13.3733542131
 31
0.0
  0
LINE
  5
C1
330
1F
100
AcDbEntity
  8
0
  6
Continuous
 62
     7
370
    15
100
AcDbLine
 10
19.2733072092
 20
13.3733542131
 30
0.0
 11
19.2733072092
 21
13.4523541272
 31
0.0
  0
LINE
  5
C2
330
1F
100
AcDbEntity
  8
0
  6
Continuous
 62
     7
370
    15
100
AcDbLine
 10
19.2733072092
 20
13.4523541272
 30
0.0
 11
20.318307164
 21
13.4523541272
 31
0.0
  0
LINE
  5
C3
330
1F
100
AcDbEntity
  8
0
  6
Continuous
 62
     7
370
    15
100
AcDbLine
 10
11.9979070686
 20
19.2280618057
 30
0.0
 11
10.9987070648
 21
19.2280618057
 31
0.0
  0
LINE
  5
C4
330
1F
100
AcDbEntity
  8
0
  6
Continuous
 62
     7
370
    15
100
AcDbLine
 10
11.9979070686
 20
19.1613541763
 30
0.0
 11
10.9987070648
 21
19.1613541763
 31
0.0
  0
LINE
  5
C5
330
1F
100
AcDbEntity
  8
0
  6
Continuous
 62
     7
370
    15
100
AcDbLine
 10
10.9987070648
 20
19.1613541763
 30
0.0
 11
10.9987070648
 21
19.2280618057
 31
0.0
  0
LINE
  5
C6
330
1F
100
AcDbEntity
  8
0
  6
Continuous
 62
     7
370
    15
100
AcDbLine
 10
11.9979070686
 20
19.2280618057
 30
0.0
 11
11.9979070686
 21
19.1613541763
 31
0.0
  0
LINE
  5
C7
330
1F
100
AcDbEntity
  8
0
  6
Continuous
 62
     7
370
    15
100
AcDbLine
 10
10.9983072561
 20
19.1613541763
 30
0.0
 11
10.9987070648
 21
19.1613541763
 31
0.0
  0
LINE
  5
C8
330
1F
100
AcDbEntity
  8
0
  6
Continuous
 62
     7
370
    15
100
AcDbLine
 10
11.9979070686
 20
19.1613541763
 30
0.0
 11
11.9983071707
 21
19.1613541763
 31
0.0
  0
LINE
  5
C9
330
1F
100
AcDbEntity
  8
0
  6
Continuous
 62
     7
370
    15
100
AcDbLine
 10
19.3183072494
 20
19.1613541763
 30
0.0
 11
19.3187073514
 21
19.1613541763
 31
0.0
  0
LINE
  5
CA
330
1F
100
AcDbEntity
  8
0
  6
Continuous
 62
     7
370
    15
100
AcDbLine
 10
19.3187073514
 20
19.1613541763
 30
0.0
 11
20.3179073553
 21
19.1613541763
 31
0.0
  0
LINE
  5
CB
330
1F
100
AcDbEntity
  8
0
  6
Continuous
 62
     7
370
    15
100
AcDbLine
 10
19.2733072092
 20
14.7593541886
 30
0.0
 11
19.2733072092
 21
13.4523541272
 31
0.0
  0
LINE
  5
CC
330
1F
100
AcDbEntity
  8
0
  6
Continuous
 62
     7
370
    15
100
AcDbLine
 10
12.0433072108
 20
14.7593541886
 30
0.0
 11
12.0543719097
 21
14.7593541886
 31
0.0
  0
LINE
  5
CD
330
1F
100
AcDbEntity
  8
0
  6
Continuous
 62
     7
370
    15
100
AcDbLine
 10
12.0433072108
 20
13.4523541272
 30
0.0
 11
12.0433072108
 21
14.7593541886
 31
0.0
  0
LINE
  5
CE
330
1F
100
AcDbEntity
  8
0
  6
Continuous
 62
     7
370
    15
100
AcDbLine
 10
20.318307164
 20
13.4523541272
 30
0.0
 11
20.318307164
 21
19.1613541763
 31
0.0
  0
LINE
  5
CF
330
1F
100
AcDbEntity
  8
0
  6
Continuous
 62
     7
370
    15
100
AcDbLine
 10
19.3183072494
 20
19.2013541142
 30
0.0
 11
19.3183072494
 21
19.1613541763
 31
0.0
  0
LINE
  5
D0
330
1F
100
AcDbEntity
  8
0
  6
Continuous
 62
     7
370
    15
100
AcDbLine
 10
20.3179073553
 20
19.1613541763
 30
0.0
 11
20.318307164
 21
19.1613541763
 31
0.0
  0
LINE
  5
D1
330
1F
100
AcDbEntity
  8
0
  6
Continuous
 62
     7
370
    15
100
AcDbLine
 10
11.9983071707
 20
19.1613541763
 30
0.0
 11
11.9983071707
 21
19.2013541142
 31
0.0
  0
LINE
  5
D2
330
1F
100
AcDbEntity
  8
0
  6
Continuous
 62
     7
370
    15
100
AcDbLine
 10
19.2622425104
 20
14.7593541886
 30
0.0
 11
19.2733072092
 21
14.7593541886
 31
0.0
  0
LINE
  5
D3
330
1F
100
AcDbEntity
  8
0
  6
Continuous
 62
     7
370
    15
100
AcDbLine
 10
19.3183072494
 20
19.2013541142
 30
0.0
 11
11.9983071707
 21
19.2013541142
 31
0.0
  0
LINE
  5
D4
330
1F
100
AcDbEntity
  8
0
  6
Continuous
 62
     7
370
    15
100
AcDbLine
 10
10.9983072561
 20
19.1613541763
 30
0.0
 11
10.9983072561
 21
13.4523541272
 31
0.0
  0
LINE
  5
D5
330
1F
100
AcDbEntity
  8
0
  6
Continuous
 62
     7
370
    15
100
AcDbLine
 10
19.3187073514
 20
19.2280618057
 30
0.0
 11
19.3187073514
 21
19.1613541763
 31
0.0
  0
LINE
  5
D6
330
1F
100
AcDbEntity
  8
0
  6
Continuous
 62
     7
370
    15
100
AcDbLine
 10
19.3187073514
 20
19.2280618057
 30
0.0
 11
20.3179073553
 21
19.2280618057
 31
0.0
  0
LINE
  5
D7
330
1F
100
AcDbEntity
  8
0
  6
Continuous
 62
     7
370
    15
100
AcDbLine
 10
20.3179073553
 20
19.1613541763
 30
0.0
 11
20.3179073553
 21
19.2280618057
 31
0.0
  0
LINE
  5
D8
330
1F
100
AcDbEntity
  8
0
  6
Continuous
 62
     7
370
    15
100
AcDbLine
 10
19.3187073514
 20
19.2383541668
 30
0.0
 11
19.3187073514
 21
19.2280618057
 31
0.0
  0
LINE
  5
D9
330
1F
100
AcDbEntity
  8
0
  6
Continuous
 62
     7
370
    15
100
AcDbLine
 10
20.3179073553
 20
19.2280618057
 30
0.0
 11
20.3179073553
 21
19.2342859738
 31
0.0
  0
LINE
  5
DA
330
1F
100
AcDbEntity
  8
0
  6
Continuous
 62
     7
370
    15
100
AcDbLine
 10
10.9987070648
 20
19.2280618057
 30
0.0
 11
10.9987070648
 21
19.2342859738
 31
0.0
  0
LINE
  5
DB
330
1F
100
AcDbEntity
  8
0
  6
Continuous
 62
     7
370
    15
100
AcDbLine
 10
11.9979070686
 20
19.2383541668
 30
0.0
 11
11.9979070686
 21
19.2280618057
 31
0.0
  0
LINE
  5
DC
330
1F
100
AcDbEntity
  8
0
  6
Continuous
 62
     7
370
    15
100
AcDbLine
 10
12.9233073117
 20
13.3807558076
 30
0.0
 11
12.9233073117
 21
13.4251650813
 31
0.0
  0
LINE
  5
DD
330
1F
100
AcDbEntity
  8
0
  6
Continuous
 62
     7
370
    15
100
AcDbLine
 10
12.9233073117
 20
13.4251650813
 30
0.0
 11
13.0233073031
 21
13.4674268864
 31
0.0
  0
LINE
  5
DE
330
1F
100
AcDbEntity
  8
0
  6
Continuous
 62
     7
370
    15
100
AcDbLine
 10
13.0233073031
 20
13.4674268864
 30
0.0
 11
13.0233073031
 21
13.4230176127
 31
0.0
  0
LINE
  5
DF
330
1F
100
AcDbEntity
  8
0
  6
Continuous
 62
     7
370
    15
100
AcDbLine
 10
13.0233073031
 20
13.4230176127
 30
0.0
 11
12.9233073117
 21
13.3807558076
 31
0.0
  0
LINE
  5
E0
330
1F
100
AcDbEntity
  8
0
  6
Continuous
 62
     7
370
    15
100
AcDbLine
 10
12.45830719
 20
13.5891024941
 30
0.0
 11
12.45830719
 21
13.546840689
 31
0.0
  0
LWPOLYLINE
  5
E1
330
1F
100
AcDbEntity
  8
0
  6
Continuous
 62
     7
370
    15
100
AcDbPolyline
 90
       10
 70
   128
 43
0.0
 10
12.45830719
 20
13.546840689
 10
12.4643380537
 20
13.5323862693
 10
12.4817028931
 20
13.5196754028
 10
12.5083073324
 20
13.5102410318
 10
12.5409423421
 20
13.5052209831
 10
12.5756720209
 20
13.5052209831
 10
12.6083073239
 20
13.5102410318
 10
12.6349117632
 20
13.5196754028
 10
12.6522766026
 20
13.5323862693
 10
12.658307173
 20
13.546840689
  0
LINE
  5
E2
330
1F
100
AcDbEntity
  8
0
  6
Continuous
 62
     7
370
    15
100
AcDbLine
 10
12.658307173
 20
13.546840689
 30
0.0
 11
12.658307173
 21
13.5891024941
 31
0.0
  0
LWPOLYLINE
  5
E3
330
1F
100
AcDbEntity
  8
0
  6
Continuous
 62
     7
370
    15
100
AcDbPolyline
 90
       10
 70
   128
 43
0.0
 10
12.658307173
 20
13.5891024941
 10
12.6522766026
 20
13.6035569138
 10
12.6349117632
 20
13.6162680736
 10
12.6083073239
 20
13.6257024446
 10
12.5756720209
 20
13.6307224933
 10
12.5409423421
 20
13.6307224933
 10
12.5083073324
 20
13.6257024446
 10
12.4817028931
 20
13.6162680736
 10
12.4643380537
 20
13.6035569138
 10
12.45830719
 20
13.5891024941
  0
LINE
  5
E4
330
1F
100
AcDbEntity
  8
0
  6
Continuous
 62
     7
370
    15
100
AcDbLine
 10
13.0233073031
 20
13.6588346486
 30
0.0
 11
12.9233073117
 21
13.7010964537
 31
0.0
  0
LINE
  5
E5
330
1F
100
AcDbEntity
  8
0
  6
Continuous
 62
     7
370
    15
100
AcDbLine
 10
13.0233073031
 20
13.4674268864
 30
0.0
 11
13.0233073031
 21
13.6588346486
 31
0.0
  0
LINE
  5
E6
330
1F
100
AcDbEntity
  8
0
  6
Continuous
 62
     7
370
    15
100
AcDbLine
 10
12.0433072108
 20
13.4251650813
 30
0.0
 11
12.9233073117
 21
13.4251650813
 31
0.0
  0
LINE
  5
E7
330
1F
100
AcDbEntity
  8
0
  6
Continuous
 62
     7
370
    15
100
AcDbLine
 10
12.0433072108
 20
13.7010964537
 30
0.0
 11
12.9233073117
 21
13.7010964537
 31
0.0
  0
LINE
  5
E8
330
1F
100
AcDbEntity
  8
0
  6
Continuous
 62
     7
370
    15
100
AcDbLine
 10
12.0433072108
 20
13.3807558076
 30
0.0
 11
12.9233073117
 21
13.3807558076
 31
0.0
  0
LINE
  5
E9
330
1F
100
AcDbEntity
  8
0
  6
Continuous
 62
     7
370
    15
100
AcDbLine
 10
18.293307117
 20
13.4230176127
 30
0.0
 11
18.293307117
 21
13.4674268864
 31
0.0
  0
LINE
  5
EA
330
1F
100
AcDbEntity
  8
0
  6
Continuous
 62
     7
370
    15
100
AcDbLine
 10
18.293307117
 20
13.4674268864
 30
0.0
 11
18.3933071084
 21
13.4251650813
 31
0.0
  0
LINE
  5
EB
330
1F
100
AcDbEntity
  8
0
  6
Continuous
 62
     7
370
    15
100
AcDbLine
 10
18.3933071084
 20
13.4251650813
 30
0.0
 11
18.3933071084
 21
13.3807558076
 31
0.0
  0
LINE
  5
EC
330
1F
100
AcDbEntity
  8
0
  6
Continuous
 62
     7
370
    15
100
AcDbLine
 10
18.3933071084
 20
13.3807558076
 30
0.0
 11
18.293307117
 21
13.4230176127
 31
0.0
  0
LINE
  5
ED
330
1F
100
AcDbEntity
  8
0
  6
Continuous
 62
     7
370
    15
100
AcDbLine
 10
18.6583072471
 20
13.5891024941
 30
0.0
 11
18.6583072471
 21
13.546840689
 31
0.0
  0
LWPOLYLINE
  5
EE
330
1F
100
AcDbEntity
  8
0
  6
Continuous
 62
     7
370
    15
100
AcDbPolyline
 90
       10
 70
   128
 43
0.0
 10
18.6583072471
 20
13.546840689
 10
18.6643378174
 20
13.5323862693
 10
18.6817026568
 20
13.5196754028
 10
18.7083070962
 20
13.5102410318
 10
18.7409423992
 20
13.5052209831
 10
18.775672078
 20
13.5052209831
 10
18.8083070876
 20
13.5102410318
 10
18.834911527
 20
13.5196754028
 10
18.8522763664
 20
13.5323862693
 10
18.85830723
 20
13.546840689
  0
LINE
  5
EF
330
1F
100
AcDbEntity
  8
0
  6
Continuous
 62
     7
370
    15
100
AcDbLine
 10
18.85830723
 20
13.546840689
 30
0.0
 11
18.85830723
 21
13.5891024941
 31
0.0
  0
LWPOLYLINE
  5
F0
330
1F
100
AcDbEntity
  8
0
  6
Continuous
 62
     7
370
    15
100
AcDbPolyline
 90
       10
 70
   128
 43
0.0
 10
18.85830723
 20
13.5891024941
 10
18.8522763664
 20
13.6035569138
 10
18.834911527
 20
13.6162680736
 10
18.8083070876
 20
13.6257024446
 10
18.775672078
 20
13.6307224933
 10
18.7409423992
 20
13.6307224933
 10
18.7083070962
 20
13.6257024446
 10
18.6817026568
 20
13.6162680736
 10
18.6643378174
 20
13.6035569138
 10
18.6583072471
 20
13.5891024941
  0
LINE
  5
F1
330
1F
100
AcDbEntity
  8
0
  6
Continuous
 62
     7
370
    15
100
AcDbLine
 10
18.3933071084
 20
13.4251650813
 30
0.0
 11
19.2733072092
 21
13.4251650813
 31
0.0
  0
LINE
  5
F2
330
1F
100
AcDbEntity
  8
0
  6
Continuous
 62
     7
370
    15
100
AcDbLine
 10
18.293307117
 20
13.6588346486
 30
0.0
 11
18.293307117
 21
13.4674268864
 31
0.0
  0
LINE
  5
F3
330
1F
100
AcDbEntity
  8
0
  6
Continuous
 62
     7
370
    15
100
AcDbLine
 10
18.3933071084
 20
13.7010964537
 30
0.0
 11
18.293307117
 21
13.6588346486
 31
0.0
  0
LINE
  5
F4
330
1F
100
AcDbEntity
  8
0
  6
Continuous
 62
     7
370
    15
100
AcDbLine
 10
18.3933071084
 20
13.7010964537
 30
0.0
 11
19.2733072092
 21
13.7010964537
 31
0.0
  0
LINE
  5
F5
330
1F
100
AcDbEntity
  8
0
  6
Continuous
 62
     7
370
    15
100
AcDbLine
 10
18.3933071084
 20
13.3807558076
 30
0.0
 11
19.2733072092
 21
13.3807558076
 31
0.0
  0
LWPOLYLINE
  5
F6
330
1F
100
AcDbEntity
  8
0
  6
Continuous
 62
     7
370
    15
100
AcDbPolyline
 90
       10
 70
   128
 43
0.0
 10
18.6583395134
 20
13.5457671014
 10
18.6643378174
 20
13.5591479335
 10
18.6817026568
 20
13.5718588
 10
18.7083070962
 20
13.5812934643
 10
18.7409423992
 20
13.5863132197
 10
18.775672078
 20
13.5863132197
 10
18.8083070876
 20
13.5812934643
 10
18.834911527
 20
13.5718588
 10
18.8522763664
 20
13.5591479335
 10
18.8582749637
 20
13.5457671014
  0
LWPOLYLINE
  5
F7
330
1F
100
AcDbEntity
  8
0
  6
Continuous
 62
     7
370
    15
100
AcDbPolyline
 90
       10
 70
   128
 43
0.0
 10
12.4583394563
 20
13.5457671014
 10
12.4643380537
 20
13.5591479335
 10
12.4817028931
 20
13.5718588
 10
12.5083073324
 20
13.5812934643
 10
12.5409423421
 20
13.5863132197
 10
12.5756720209
 20
13.5863132197
 10
12.6083073239
 20
13.5812934643
 10
12.6349117632
 20
13.5718588
 10
12.6522766026
 20
13.5591479335
 10
12.6582749067
 20
13.5457671014
  0
LINE
  5
F8
330
1F
100
AcDbEntity
  8
0
  6
Continuous
 62
     8
370
    15
100
AcDbLine
 10
12.0529630459
 20
14.3263928835
 30
0.0
 11
12.0433072108
 21
14.3263928835
 31
0.0
  0
LINE
  5
F9
330
1F
100
AcDbEntity
  8
0
  6
Continuous
 62
     8
370
    15
100
AcDbLine
 10
19.2733072092
 20
14.3263928835
 30
0.0
 11
19.2636513741
 21
14.3263928835
 31
0.0
  0
LINE
  5
FA
330
1F
100
AcDbEntity
  8
0
  6
Continuous
 62
     8
370
    15
100
AcDbLine
 10
19.2633072981
 20
14.3463910925
 30
0.0
 11
19.2733072092
 21
14.3463910925
 31
0.0
  0
LINE
  5
FB
330
1F
100
AcDbEntity
  8
0
  6
Continuous
 62
     8
370
    15
100
AcDbLine
 10
12.0433072108
 20
14.3463910925
 30
0.0
 11
12.053307122
 21
14.3463910925
 31
0.0
  0
DIMENSION
  5
FC
330
1F
100
AcDbEntity
  8
DEFAULT
 62
     7
100
AcDbDimension
  2
_D
 10
7.5835040604
 20
14.3263840808
 30
0.0
 11
7.5835040604
 21
11.9523632308
 31
0.0
 70
   160
  1
<>
 71
     2
 42
-1.0
  3
SLDDIMSTYLE0
100
AcDbAlignedDimension
 13
11.0209056352
 23
13.348354232
 33
0.0
 14
11.8536737664
 24
14.3263840808
 34
0.0
 50
90.0
100
AcDbRotatedDimension
  0
DIMENSION
  5
109
330
1F
100
AcDbEntity
  8
DEFAULT
 62
     7
100
AcDbDimension
  2
_D_1
 10
19.27330721
 20
10.7854442047
 30
0.0
 11
15.65830721
 21
10.7854442047
 31
0.0
 70
   160
  1
<>
 71
     2
 42
-1.0
  3
SLDDIMSTYLE1
100
AcDbAlignedDimension
 13
12.04330721
 23
13.373354232
 33
0.0
 14
19.27330721
 24
13.373354232
 34
0.0
100
AcDbRotatedDimension
  0
DIMENSION
  5
115
330
1F
100
AcDbEntity
  8
DEFAULT
 62
     7
100
AcDbDimension
  2
_D_2
 10
5.6937402809
 20
19.238354232
 30
0.0
 11
5.6937402809
 21
16.293354232
 31
0.0
 70
   160
  1
<>
 71
     2
 42
-1.0
  3
SLDDIMSTYLE1
100
AcDbAlignedDimension
 13
11.0209056352
 23
13.348354232
 33
0.0
 14
11.0209056352
 24
19.238354232
 34
0.0
 50
90.0
100
AcDbRotatedDimension
  0
DIMENSION
  5
120
330
1F
100
AcDbEntity
  8
DEFAULT
 62
     7
100
AcDbDimension
  2
_D_3
 10
20.35830721
 20
21.9780652511
 30
0.0
 11
15.65830721
 21
21.9780652511
 31
0.0
 70
   160
  1
<>
 71
     2
 42
-1.0
  3
SLDDIMSTYLE1
100
AcDbAlignedDimension
 13
10.95830721
 23
19.1757558068
 33
0.0
 14
20.35830721
 24
19.1757558068
 34
0.0
100
AcDbRotatedDimension
  0
MTEXT
  5
12B
330
1F
100
AcDbEntity
  8
DEFAULT
 62
     7
100
AcDbMText
 10
14.5603030622
 20
9.5770434229
 30
0.0
 40
0.5
 41
0.0
 71
     1
 72
     1
  1
FRONT
  7
SLDTEXTSTYLE0
 73
     1
 44
1.0
  0
LINE
  5
12C
330
1F
100
AcDbEntity
  8
0
  6
Continuous
 62
     7
370
    15
100
AcDbLine
 10
28.018804538
 20
12.918354296
 30
0.0
 11
28.018804538
 21
19.6683541594
 31
0.0
  0
LINE
  5
12D
330
1F
100
AcDbEntity
  8
0
  6
Continuous
 62
     7
370
    15
100
AcDbLine
 10
28.0685564682
 20
19.6683541594
 30
0.0
 11
28.018804538
 21
19.6683541594
 31
0.0
  0
LINE
  5
12E
330
1F
100
AcDbEntity
  8
0
  6
Continuous
 62
     7
370
    15
100
AcDbLine
 10
28.0685564682
 20
12.918354296
 30
0.0
 11
28.0685564682
 21
19.6683541594
 31
0.0
  0
LINE
  5
12F
330
1F
100
AcDbEntity
  8
0
  6
Continuous
 62
     7
370
    15
100
AcDbLine
 10
28.0685564682
 20
12.918354296
 30
0.0
 11
28.018804538
 21
12.918354296
 31
0.0
  0
LINE
  5
130
330
1F
100
AcDbEntity
  8
0
  6
Continuous
 62
     7
370
    15
100
AcDbLine
 10
28.018804538
 20
11.9183540881
 30
0.0
 11
28.018804538
 21
12.918354296
 31
0.0
  0
LINE
  5
131
330
1F
100
AcDbEntity
  8
0
  6
Continuous
 62
     7
370
    15
100
AcDbLine
 10
28.0685564682
 20
11.9295677985
 30
0.0
 11
28.0685564682
 21
12.918354296
 31
0.0
  0
LINE
  5
132
330
1F
100
AcDbEntity
  8
0
  6
Continuous
 62
     7
370
    15
100
AcDbLine
 10
28.0685564682
 20
11.9295677985
 30
0.0
 11
28.018804538
 21
11.9183540881
 31
0.0
  0
LINE
  5
133
330
1F
100
AcDbEntity
  8
0
  6
Continuous
 62
     7
370
    15
100
AcDbLine
 10
27.8758980807
 20
12.918354296
 30
0.0
 11
27.8758980807
 21
19.6683541594
 31
0.0
  0
LINE
  5
134
330
1F
100
AcDbEntity
  8
0
  6
Continuous
 62
     7
370
    15
100
AcDbLine
 10
28.018804538
 20
19.6683541594
 30
0.0
 11
27.8758980807
 21
19.6683541594
 31
0.0
  0
LINE
  5
135
330
1F
100
AcDbEntity
  8
0
  6
Continuous
 62
     7
370
    15
100
AcDbLine
 10
28.018804538
 20
12.918354296
 30
0.0
 11
27.8758980807
 21
12.918354296
 31
0.0
  0
LINE
  5
136
330
1F
100
AcDbEntity
  8
0
  6
Continuous
 62
     7
370
    15
100
AcDbLine
 10
27.8758980807
 20
12.552391457
 30
0.0
 11
27.8758980807
 21
12.918354296
 31
0.0
  0
LINE
  5
137
330
1F
100
AcDbEntity
  8
0
  6
Continuous
 62
     7
370
    15
100
AcDbLine
 10
28.018804538
 20
11.9183540881
 30
0.0
 11
27.8758980807
 21
12.552391457
 31
0.0
  0
LINE
  5
138
330
1F
100
AcDbEntity
  8
0
  6
Continuous
 62
     7
370
    15
100
AcDbLine
 10
28.018804538
 20
19.6683541594
 30
0.0
 11
28.018804538
 21
20.6683543673
 31
0.0
  0
LINE
  5
139
330
1F
100
AcDbEntity
  8
0
  6
Continuous
 62
     7
370
    15
100
AcDbLine
 10
28.0685564682
 20
20.6571406569
 30
0.0
 11
28.018804538
 21
20.6683543673
 31
0.0
  0
LINE
  5
13A
330
1F
100
AcDbEntity
  8
0
  6
Continuous
 62
     7
370
    15
100
AcDbLine
 10
28.0685564682
 20
19.6683541594
 30
0.0
 11
28.0685564682
 21
20.6571406569
 31
0.0
  0
LINE
  5
13B
330
1F
100
AcDbEntity
  8
0
  6
Continuous
 62
     7
370
    15
100
AcDbLine
 10
27.8758980807
 20
19.6683541594
 30
0.0
 11
27.8758980807
 21
20.0343169984
 31
0.0
  0
LINE
  5
13C
330
1F
100
AcDbEntity
  8
0
  6
Continuous
 62
     7
370
    15
100
AcDbLine
 10
28.018804538
 20
20.6683543673
 30
0.0
 11
27.8758980807
 21
20.0343169984
 31
0.0
  0
LINE
  5
13D
330
1F
100
AcDbEntity
  8
0
  6
Continuous
 62
     7
370
    15
100
AcDbLine
 10
27.868556467
 20
12.918354296
 30
0.0
 11
27.868556467
 21
19.6683541594
 31
0.0
  0
LINE
  5
13E
330
1F
100
AcDbEntity
  8
0
  6
Continuous
 62
     7
370
    15
100
AcDbLine
 10
27.8758980807
 20
19.6683541594
 30
0.0
 11
27.868556467
 21
19.6683541594
 31
0.0
  0
LINE
  5
13F
330
1F
100
AcDbEntity
  8
0
  6
Continuous
 62
     7
370
    15
100
AcDbLine
 10
27.8758980807
 20
12.918354296
 30
0.0
 11
27.868556467
 21
12.918354296
 31
0.0
  0
LINE
  5
140
330
1F
100
AcDbEntity
  8
0
  6
Continuous
 62
     7
370
    15
100
AcDbLine
 10
27.868556467
 20
12.6183543216
 30
0.0
 11
27.868556467
 21
12.918354296
 31
0.0
  0
ARC
  5
141
330
1F
100
AcDbEntity
  8
0
  6
Continuous
 62
     7
370
    15
100
AcDbCircle
 10
28.168556467
 20
12.618354232
 30
0.0
 40
0.3000000000000007
100
AcDbArc
 50
180.0
 51
192.7017172889
  0
LINE
  5
142
330
1F
100
AcDbEntity
  8
0
  6
Continuous
 62
     7
370
    15
100
AcDbLine
 10
27.868556467
 20
19.6683541594
 30
0.0
 11
27.868556467
 21
19.9683541338
 31
0.0
  0
ARC
  5
143
330
1F
100
AcDbEntity
  8
0
  6
Continuous
 62
     7
370
    15
100
AcDbCircle
 10
28.168556467
 20
19.968354232
 30
0.0
 40
0.3000000000000007
100
AcDbArc
 50
167.2982827111
 51
180.0
  0
LINE
  5
144
330
1F
100
AcDbEntity
  8
0
  6
Continuous
 62
     7
370
    15
100
AcDbLine
 10
28.0745351008
 20
13.4206219871
 30
0.0
 11
28.0960886369
 21
13.3744002277
 31
0.0
  0
LINE
  5
145
330
1F
100
AcDbEntity
  8
0
  6
Continuous
 62
     7
370
    15
100
AcDbLine
 10
28.5086565258
 20
13.5667838986
 30
0.0
 11
28.4871030082
 21
13.613005658
 31
0.0
  0
LINE
  5
146
330
1F
100
AcDbEntity
  8
0
  6
Continuous
 62
     7
370
    15
100
AcDbLine
 10
28.0745351008
 20
13.4206219871
 30
0.0
 11
28.4871030082
 21
13.613005658
 31
0.0
  0
LINE
  5
147
330
1F
100
AcDbEntity
  8
0
  6
Continuous
 62
     7
370
    15
100
AcDbLine
 10
28.0960886369
 20
13.3744002277
 30
0.0
 11
28.5086565258
 21
13.5667838986
 31
0.0
  0
LINE
  5
148
330
1F
100
AcDbEntity
  8
0
  6
Continuous
 62
     7
370
    15
100
AcDbLine
 10
28.0960886369
 20
19.2123082277
 30
0.0
 11
28.0745351008
 21
19.1660864683
 31
0.0
  0
LINE
  5
149
330
1F
100
AcDbEntity
  8
0
  6
Continuous
 62
     7
370
    15
100
AcDbLine
 10
28.4871030082
 20
18.9737027974
 30
0.0
 11
28.5086565258
 21
19.0199245568
 31
0.0
  0
LINE
  5
14A
330
1F
100
AcDbEntity
  8
0
  6
Continuous
 62
     7
370
    15
100
AcDbLine
 10
28.0960886369
 20
19.2123082277
 30
0.0
 11
28.5086565258
 21
19.0199245568
 31
0.0
  0
LINE
  5
14B
330
1F
100
AcDbEntity
  8
0
  6
Continuous
 62
     7
370
    15
100
AcDbLine
 10
28.0745351008
 20
19.1660864683
 30
0.0
 11
28.4871030082
 21
18.9737027974
 31
0.0
  0
LINE
  5
14C
330
1F
100
AcDbEntity
  8
0
  6
Continuous
 62
     7
370
    15
100
AcDbLine
 10
28.5992873389
 20
18.9776627517
 30
0.0
 11
28.5777337478
 21
18.9314409923
 31
0.0
  0
LINE
  5
14D
330
1F
100
AcDbEntity
  8
0
  6
Continuous
 62
     7
370
    15
100
AcDbLine
 10
28.5086565258
 20
19.0199245568
 30
0.0
 11
28.5992873389
 21
18.9776627517
 31
0.0
  0
LINE
  5
14E
330
1F
100
AcDbEntity
  8
0
  6
Continuous
 62
     7
370
    15
100
AcDbLine
 10
28.5777337478
 20
18.9314409923
 30
0.0
 11
28.4871030082
 21
18.9737027974
 31
0.0
  0
LINE
  5
14F
330
1F
100
AcDbEntity
  8
0
  6
Continuous
 62
     7
370
    15
100
AcDbLine
 10
28.5777337478
 20
13.6552674631
 30
0.0
 11
28.5992873389
 21
13.6090457037
 31
0.0
  0
LINE
  5
150
330
1F
100
AcDbEntity
  8
0
  6
Continuous
 62
     7
370
    15
100
AcDbLine
 10
28.4871030082
 20
13.613005658
 30
0.0
 11
28.5777337478
 21
13.6552674631
 31
0.0
  0
LINE
  5
151
330
1F
100
AcDbEntity
  8
0
  6
Continuous
 62
     7
370
    15
100
AcDbLine
 10
28.5992873389
 20
13.6090457037
 30
0.0
 11
28.5086565258
 21
13.5667838986
 31
0.0
  0
LINE
  5
152
330
1F
100
AcDbEntity
  8
0
  6
Continuous
 62
     7
370
    15
100
AcDbLine
 10
28.0685564682
 20
13.4178341793
 30
0.0
 11
28.0745351008
 21
13.4206219871
 31
0.0
  0
LINE
  5
153
330
1F
100
AcDbEntity
  8
0
  6
Continuous
 62
     7
370
    15
100
AcDbLine
 10
28.0960886369
 20
13.3744002277
 30
0.0
 11
28.0685564682
 21
13.3615617627
 31
0.0
  0
LINE
  5
154
330
1F
100
AcDbEntity
  8
0
  6
Continuous
 62
     7
370
    15
100
AcDbLine
 10
28.0685564682
 20
19.2251466927
 30
0.0
 11
28.0960886369
 21
19.2123082277
 31
0.0
  0
LINE
  5
155
330
1F
100
AcDbEntity
  8
0
  6
Continuous
 62
     7
370
    15
100
AcDbLine
 10
28.0745351008
 20
19.1660864683
 30
0.0
 11
28.0685564682
 21
19.1688742761
 31
0.0
  0
LINE
  5
156
330
1F
100
AcDbEntity
  8
0
  6
Continuous
 62
     7
370
    15
100
AcDbLine
 10
27.8585564665
 20
14.7594549474
 30
0.0
 11
27.868556467
 21
14.7594549474
 31
0.0
  0
LINE
  5
157
330
1F
100
AcDbEntity
  8
0
  6
Continuous
 62
     7
370
    15
100
AcDbLine
 10
27.8585564665
 20
14.7594549474
 30
0.0
 11
27.8585564665
 21
14.4183840875
 31
0.0
  0
ARC
  5
158
330
1F
100
AcDbEntity
  8
0
  6
Continuous
 62
     7
370
    15
100
AcDbCircle
 10
27.950556467
 20
14.4183840808
 30
0.0
 40
0.0919999999999987
100
AcDbArc
 50
180.0
 51
206.9623889975
  0
LINE
  5
159
330
1F
100
AcDbEntity
  8
0
  6
Continuous
 62
     7
370
    15
100
AcDbLine
 10
28.5519718988
 20
13.7010964537
 30
0.0
 11
28.5726801862
 21
13.6566874734
 31
0.0
  0
LINE
  5
15A
330
1F
100
AcDbEntity
  8
0
  6
Continuous
 62
     7
370
    15
100
AcDbLine
 10
28.4820494465
 20
13.6144256682
 30
0.0
 11
28.4613411224
 21
13.6588346486
 31
0.0
  0
LINE
  5
15B
330
1F
100
AcDbEntity
  8
0
  6
Continuous
 62
     7
370
    15
100
AcDbLine
 10
28.5726801862
 20
13.6566874734
 30
0.0
 11
28.4820494465
 21
13.6144256682
 31
0.0
  0
LINE
  5
15C
330
1F
100
AcDbEntity
  8
0
  6
Continuous
 62
     7
370
    15
100
AcDbLine
 10
28.4613411224
 20
13.6588346486
 30
0.0
 11
28.5519718988
 21
13.7010964537
 31
0.0
  0
LINE
  5
15D
330
1F
100
AcDbEntity
  8
0
  6
Continuous
 62
     7
370
    15
100
AcDbLine
 10
28.0685564682
 20
13.421610509
 30
0.0
 11
28.4820494465
 21
13.6144256682
 31
0.0
  0
LINE
  5
15E
330
1F
100
AcDbEntity
  8
0
  6
Continuous
 62
     7
370
    15
100
AcDbLine
 10
28.0685564682
 20
13.4756762044
 30
0.0
 11
28.4613411224
 21
13.6588346486
 31
0.0
  0
DIMENSION
  5
15F
330
1F
100
AcDbEntity
  8
DEFAULT
 62
     7
100
AcDbDimension
  2
_D_4
 10
30.9078564142
 20
20.668354232
 30
0.0
 11
30.9078564142
 21
16.293354232
 31
0.0
 70
   160
  1
<>
 71
     2
 42
-1.0
  3
SLDDIMSTYLE1
100
AcDbAlignedDimension
 13
28.0188045413
 23
11.918354232
 33
0.0
 14
28.0188045413
 24
20.668354232
 34
0.0
 50
90.0
100
AcDbRotatedDimension
  0
DIMENSION
  5
16A
330
1F
100
AcDbEntity
  8
DEFAULT
 62
     7
100
AcDbDimension
  2
_D_5
 10
28.5992873073
 20
22.5645961641
 30
0.0
 11
30.6291521525
 21
22.5645961641
 31
0.0
 70
   160
  1
<>
 71
     2
 42
-1.0
  3
SLDDIMSTYLE0
100
AcDbAlignedDimension
 13
27.868556467
 23
19.968354232
 33
0.0
 14
28.5992873073
 24
18.9776628095
 34
0.0
100
AcDbRotatedDimension
  0
MTEXT
  5
175
330
1F
100
AcDbEntity
  8
DEFAULT
 62
     7
100
AcDbMText
 10
27.2250006724
 20
9.6490119537
 30
0.0
 40
0.5
 41
0.0
 71
     1
 72
     1
  1
RIGHT SIDE
  7
SLDTEXTSTYLE0
 73
     1
 44
1.0
  0
LINE
  5
176
330
1F
100
AcDbEntity
  8
0
  6
Continuous
 62
     7
370
    15
100
AcDbLine
 10
10.1583073865
 20
27.9828947692
 30
0.0
 11
10.1583073865
 21
27.9331428389
 31
0.0
  0
LINE
  5
177
330
1F
100
AcDbEntity
  8
0
  6
Continuous
 62
     7
370
    15
100
AcDbLine
 10
10.1583073865
 20
27.9828947692
 30
0.0
 11
21.1583070336
 21
27.9828947692
 31
0.0
  0
LINE
  5
178
330
1F
100
AcDbEntity
  8
0
  6
Continuous
 62
     7
370
    15
100
AcDbLine
 10
21.1583070336
 20
27.9828947692
 30
0.0
 11
21.1583070336
 21
27.9331428389
 31
0.0
  0
LINE
  5
179
330
1F
100
AcDbEntity
  8
0
  6
Continuous
 62
     7
370
    15
100
AcDbLine
 10
10.1583073865
 20
27.9331428389
 30
0.0
 11
21.1583070336
 21
27.9331428389
 31
0.0
  0
LINE
  5
17A
330
1F
100
AcDbEntity
  8
0
  6
Continuous
 62
     7
370
    15
100
AcDbLine
 10
10.1583073865
 20
27.9331428389
 30
0.0
 11
10.1583073865
 21
27.7902363816
 31
0.0
  0
LINE
  5
17B
330
1F
100
AcDbEntity
  8
0
  6
Continuous
 62
     7
370
    15
100
AcDbLine
 10
21.1583070336
 20
27.9331428389
 30
0.0
 11
21.1583070336
 21
27.7902363816
 31
0.0
  0
LINE
  5
17C
330
1F
100
AcDbEntity
  8
0
  6
Continuous
 62
     7
370
    15
100
AcDbLine
 10
10.1583073865
 20
27.7902363816
 30
0.0
 11
21.1583070336
 21
27.7902363816
 31
0.0
  0
LINE
  5
17D
330
1F
100
AcDbEntity
  8
0
  6
Continuous
 62
     7
370
    15
100
AcDbLine
 10
10.1583073865
 20
27.9331428389
 30
0.0
 11
9.1583074719
 21
27.9331428389
 31
0.0
  0
LINE
  5
17E
330
1F
100
AcDbEntity
  8
0
  6
Continuous
 62
     7
370
    15
100
AcDbLine
 10
9.169520889
 20
27.9828947692
 30
0.0
 11
9.1583074719
 21
27.9331428389
 31
0.0
  0
LINE
  5
17F
330
1F
100
AcDbEntity
  8
0
  6
Continuous
 62
     7
370
    15
100
AcDbLine
 10
10.1583073865
 20
27.9828947692
 30
0.0
 11
9.169520889
 21
27.9828947692
 31
0.0
  0
LINE
  5
180
330
1F
100
AcDbEntity
  8
0
  6
Continuous
 62
     7
370
    15
100
AcDbLine
 10
10.1583073865
 20
27.7902363816
 30
0.0
 11
9.7923448408
 21
27.7902363816
 31
0.0
  0
LINE
  5
181
330
1F
100
AcDbEntity
  8
0
  6
Continuous
 62
     7
370
    15
100
AcDbLine
 10
9.1583074719
 20
27.9331428389
 30
0.0
 11
9.7923448408
 21
27.7902363816
 31
0.0
  0
LINE
  5
182
330
1F
100
AcDbEntity
  8
0
  6
Continuous
 62
     7
370
    15
100
AcDbLine
 10
22.1583069481
 20
27.9331428389
 30
0.0
 11
21.1583070336
 21
27.9331428389
 31
0.0
  0
LINE
  5
183
330
1F
100
AcDbEntity
  8
0
  6
Continuous
 62
     7
370
    15
100
AcDbLine
 10
22.147093531
 20
27.9828947692
 30
0.0
 11
21.1583070336
 21
27.9828947692
 31
0.0
  0
LINE
  5
184
330
1F
100
AcDbEntity
  8
0
  6
Continuous
 62
     7
370
    15
100
AcDbLine
 10
22.147093531
 20
27.9828947692
 30
0.0
 11
22.1583069481
 21
27.9331428389
 31
0.0
  0
LINE
  5
185
330
1F
100
AcDbEntity
  8
0
  6
Continuous
 62
     7
370
    15
100
AcDbLine
 10
21.5242695793
 20
27.7902363816
 30
0.0
 11
21.1583070336
 21
27.7902363816
 31
0.0
  0
LINE
  5
186
330
1F
100
AcDbEntity
  8
0
  6
Continuous
 62
     7
370
    15
100
AcDbLine
 10
22.1583069481
 20
27.9331428389
 30
0.0
 11
21.5242695793
 21
27.7902363816
 31
0.0
  0
LINE
  5
187
330
1F
100
AcDbEntity
  8
0
  6
Continuous
 62
     7
370
    15
100
AcDbLine
 10
10.1583073865
 20
27.7828947679
 30
0.0
 11
9.8583071188
 21
27.7828947679
 31
0.0
  0
ARC
  5
188
330
1F
100
AcDbEntity
  8
0
  6
Continuous
 62
     7
370
    15
100
AcDbCircle
 10
9.85830721
 20
28.0828947679
 30
0.0
 40
0.2999999999999995
100
AcDbArc
 50
257.2982827111
 51
270.0
  0
LINE
  5
189
330
1F
100
AcDbEntity
  8
0
  6
Continuous
 62
     7
370
    15
100
AcDbLine
 10
10.1583073865
 20
27.7902363816
 30
0.0
 11
10.1583073865
 21
27.7828947679
 31
0.0
  0
LINE
  5
18A
330
1F
100
AcDbEntity
  8
0
  6
Continuous
 62
     7
370
    15
100
AcDbLine
 10
21.1583070336
 20
27.7902363816
 30
0.0
 11
21.1583070336
 21
27.7828947679
 31
0.0
  0
LINE
  5
18B
330
1F
100
AcDbEntity
  8
0
  6
Continuous
 62
     7
370
    15
100
AcDbLine
 10
21.1583070336
 20
27.7828947679
 30
0.0
 11
10.1583073865
 21
27.7828947679
 31
0.0
  0
LINE
  5
18C
330
1F
100
AcDbEntity
  8
0
  6
Continuous
 62
     7
370
    15
100
AcDbLine
 10
21.4583073013
 20
27.7828947679
 30
0.0
 11
21.1583070336
 21
27.7828947679
 31
0.0
  0
ARC
  5
18D
330
1F
100
AcDbEntity
  8
0
  6
Continuous
 62
     7
370
    15
100
AcDbCircle
 10
21.45830721
 20
28.0828947679
 30
0.0
 40
0.2999999999999988
100
AcDbArc
 50
270.0
 51
282.7017172889
  0
LINE
  5
18E
330
1F
100
AcDbEntity
  8
0
  6
Continuous
 62
     7
370
    15
100
AcDbLine
 10
20.177928839
 20
27.9828947692
 30
0.0
 11
20.2083072614
 21
28.0104269378
 31
0.0
  0
LINE
  5
18F
330
1F
100
AcDbEntity
  8
0
  6
Continuous
 62
     7
370
    15
100
AcDbLine
 10
11.1083071587
 20
28.0104269378
 30
0.0
 11
11.1386855811
 21
27.9828947692
 31
0.0
  0
LINE
  5
190
330
1F
100
AcDbEntity
  8
0
  6
Continuous
 62
     7
370
    15
100
AcDbLine
 10
11.1083071587
 20
28.0104269378
 30
0.0
 11
11.1083071587
 21
28.4229948268
 31
0.0
  0
LINE
  5
191
330
1F
100
AcDbEntity
  8
0
  6
Continuous
 62
     7
370
    15
100
AcDbLine
 10
11.2083071501
 20
28.5136256398
 30
0.0
 11
11.1083071587
 21
28.4229948268
 31
0.0
  0
LINE
  5
192
330
1F
100
AcDbEntity
  8
0
  6
Continuous
 62
     7
370
    15
100
AcDbLine
 10
11.2083071501
 20
28.5136256398
 30
0.0
 11
20.1083072699
 21
28.5136256398
 31
0.0
  0
LINE
  5
193
330
1F
100
AcDbEntity
  8
0
  6
Continuous
 62
     7
370
    15
100
AcDbLine
 10
20.2083072614
 20
28.4229948268
 30
0.0
 11
20.1083072699
 21
28.5136256398
 31
0.0
  0
LINE
  5
194
330
1F
100
AcDbEntity
  8
0
  6
Continuous
 62
     7
370
    15
100
AcDbLine
 10
20.2083072614
 20
28.0104269378
 30
0.0
 11
20.2083072614
 21
28.4229948268
 31
0.0
  0
LINE
  5
195
330
1F
100
AcDbEntity
  8
0
  6
Continuous
 62
     7
370
    15
100
AcDbLine
 10
12.6578073387
 20
28.1959647461
 30
0.0
 11
12.6578073387
 21
28.287501802
 31
0.0
  0
ARC
  5
196
330
1F
100
AcDbEntity
  8
0
  6
Continuous
 62
     7
370
    15
100
AcDbCircle
 10
12.5583073282
 20
28.2800820778
 30
0.0
 40
0.0997762717825324
100
AcDbArc
 50
4.2646580128
 51
175.7353419872
  0
LINE
  5
197
330
1F
100
AcDbEntity
  8
0
  6
Continuous
 62
     7
370
    15
100
AcDbLine
 10
12.4588073176
 20
28.287501802
 30
0.0
 11
12.4588073176
 21
28.1959647461
 31
0.0
  0
ARC
  5
198
330
1F
100
AcDbEntity
  8
0
  6
Continuous
 62
     7
370
    15
100
AcDbCircle
 10
12.5583073282
 20
28.2033844758
 30
0.0
 40
0.0997762721894576
100
AcDbArc
 50
184.2646611465
 51
355.7353388535
  0
LINE
  5
199
330
1F
100
AcDbEntity
  8
0
  6
Continuous
 62
     7
370
    15
100
AcDbLine
 10
18.8578071025
 20
28.1959647461
 30
0.0
 11
18.8578071025
 21
28.287501802
 31
0.0
  0
ARC
  5
19A
330
1F
100
AcDbEntity
  8
0
  6
Continuous
 62
     7
370
    15
100
AcDbCircle
 10
18.7583070919
 20
28.2800820587
 30
0.0
 40
0.0997762731971541
100
AcDbArc
 50
4.2646689064
 51
175.7353310936
  0
LINE
  5
19B
330
1F
100
AcDbEntity
  8
0
  6
Continuous
 62
     7
370
    15
100
AcDbLine
 10
18.6588070813
 20
28.287501802
 30
0.0
 11
18.6588070813
 21
28.1959647461
 31
0.0
  0
ARC
  5
19C
330
1F
100
AcDbEntity
  8
0
  6
Continuous
 62
     7
370
    15
100
AcDbCircle
 10
18.7583070919
 20
28.2033844568
 30
0.0
 40
0.0997762707748428
100
AcDbArc
 50
184.2646502529
 51
355.7353497471
  0
LINE
  5
19D
330
1F
100
AcDbEntity
  8
0
  6
Continuous
 62
     7
370
    15
100
AcDbLine
 10
11.1149038558
 20
27.9828947692
 30
0.0
 11
11.1083071587
 21
27.9888734018
 31
0.0
  0
LINE
  5
19E
330
1F
100
AcDbEntity
  8
0
  6
Continuous
 62
     7
370
    15
100
AcDbLine
 10
11.1083071587
 20
27.9888734018
 30
0.0
 11
11.1083071587
 21
28.0104269378
 31
0.0
  0
LINE
  5
19F
330
1F
100
AcDbEntity
  8
0
  6
Continuous
 62
     7
370
    15
100
AcDbLine
 10
20.2083072614
 20
28.0104269378
 30
0.0
 11
20.2083072614
 21
27.9888734018
 31
0.0
  0
LINE
  5
1A0
330
1F
100
AcDbEntity
  8
0
  6
Continuous
 62
     7
370
    15
100
AcDbLine
 10
20.2083072614
 20
27.9888734018
 30
0.0
 11
20.2017105642
 21
27.9828947692
 31
0.0
  0
ARC
  5
1A1
330
1F
100
AcDbEntity
  8
0
  6
Continuous
 62
     7
370
    15
100
AcDbCircle
 10
12.5583073282
 20
28.2585285411
 30
0.0
 40
0.0997762731971523
100
AcDbArc
 50
4.2646689064
 51
175.7353310936
  0
ARC
  5
1A2
330
1F
100
AcDbEntity
  8
0
  6
Continuous
 62
     7
370
    15
100
AcDbCircle
 10
18.7583070919
 20
28.2585285601
 30
0.0
 40
0.0997762717825345
100
AcDbArc
 50
4.2646580129
 51
175.7353419871
  0
LINE
  5
1A3
330
1F
100
AcDbEntity
  8
0
  6
Continuous
 62
     7
370
    15
100
AcDbLine
 10
19.2620679791
 20
27.7728947674
 30
0.0
 11
19.2622425104
 21
27.7828947679
 31
0.0
  0
LINE
  5
1A4
330
1F
100
AcDbEntity
  8
0
  6
Continuous
 62
     7
370
    15
100
AcDbLine
 10
12.054546441
 20
27.7728947674
 30
0.0
 11
19.2620679791
 21
27.7728947674
 31
0.0
  0
LINE
  5
1A5
330
1F
100
AcDbEntity
  8
0
  6
Continuous
 62
     7
370
    15
100
AcDbLine
 10
12.0543719097
 20
27.7828947679
 30
0.0
 11
12.054546441
 21
27.7728947674
 31
0.0
  0
ARC
  5
1A6
330
1F
100
AcDbEntity
  8
0
  6
Continuous
 62
     7
370
    15
100
AcDbCircle
 10
18.7583070919
 20
28.2176974285
 30
0.0
 40
0.1010260177409274
100
AcDbArc
 50
9.971201494
 51
170.028798506
  0
LINE
  5
1A7
330
1F
100
AcDbEntity
  8
0
  6
Continuous
 62
     7
370
    15
100
AcDbLine
 10
20.2075522301
 20
27.9828947692
 30
0.0
 11
20.2075522301
 21
27.9881892464
 31
0.0
  0
ARC
  5
1A8
330
1F
100
AcDbEntity
  8
0
  6
Continuous
 62
     7
370
    15
100
AcDbCircle
 10
12.5583073282
 20
28.2176974496
 30
0.0
 40
0.1010260140752835
100
AcDbArc
 50
9.971189669
 51
170.028810331
  0
LINE
  5
1A9
330
1F
100
AcDbEntity
  8
0
  6
Continuous
 62
     7
370
    15
100
AcDbLine
 10
11.10906219
 20
27.9881892464
 30
0.0
 11
11.10906219
 21
27.9828947692
 31
0.0
  0
DIMENSION
  5
1AA
330
1F
100
AcDbEntity
  8
DEFAULT
 62
     7
100
AcDbDimension
  2
_D_6
 10
22.15830721
 20
30.0884287578
 30
0.0
 11
15.65830721
 21
30.0884287578
 31
0.0
 70
   160
  1
<>
 71
     2
 42
-1.0
  3
SLDDIMSTYLE1
100
AcDbAlignedDimension
 13
9.15830721
 23
27.9331428423
 33
0.0
 14
22.15830721
 24
27.9331428423
 34
0.0
100
AcDbRotatedDimension
  0
DIMENSION
  5
1B5
330
1F
100
AcDbEntity
  8
DEFAULT
 62
     7
100
AcDbDimension
  2
_D_7
 10
7.5835040604
 20
27.9828947679
 30
0.0
 11
7.5835040604
 21
26.5928310904
 31
0.0
 70
   160
  1
<>
 71
     2
 42
-1.0
  3
SLDDIMSTYLE0
100
AcDbAlignedDimension
 13
9.85830721
 23
27.7828947679
 33
0.0
 14
9.1695208576
 24
27.9828947679
 34
0.0
 50
90.0
100
AcDbRotatedDimension
  0
MTEXT
  5
1C1
330
1F
100
AcDbEntity
  8
DEFAULT
 62
     7
100
AcDbMText
 10
14.7885893417
 20
25.8944951277
 30
0.0
 40
0.5
 41
0.0
 71
     1
 72
     1
  1
TOP
  7
SLDTEXTSTYLE0
 73
     1
 44
1.0
  0
LINE
  5
1C2
330
1F
100
AcDbEntity
  8
0
  6
Continuous
 62
     7
370
    15
100
AcDbLine
 10
33.9286634732
 20
31.2504994023
 30
0.0
 11
38.9684052407
 21
28.3411184078
 31
0.0
  0
LINE
  5
1C3
330
1F
100
AcDbEntity
  8
0
  6
Continuous
 62
     7
370
    15
100
AcDbLine
 10
41.0083888253
 20
21.6134056214
 30
0.0
 11
41.0371401137
 21
21.6427861005
 31
0.0
  0
LINE
  5
1C4
330
1F
100
AcDbEntity
  8
0
  6
Continuous
 62
     7
370
    15
100
AcDbLine
 10
32.2828991016
 20
33.335460987
 30
0.0
 11
32.2430784578
 21
33.3252551098
 31
0.0
  0
LINE
  5
1C5
330
1F
100
AcDbEntity
  8
0
  6
Continuous
 62
     7
370
    15
100
AcDbLine
 10
33.9032014405
 20
27.2560566952
 30
0.0
 11
38.995982279
 21
24.3160568968
 31
0.0
  0
LINE
  5
1C6
330
1F
100
AcDbEntity
  8
0
  6
Continuous
 62
     7
370
    15
100
AcDbLine
 10
39.0123469779
 20
23.5303684425
 30
0.0
 11
39.7512735322
 21
23.1037952226
 31
0.0
  0
LINE
  5
1C7
330
1F
100
AcDbEntity
  8
0
  6
Continuous
 62
     7
370
    15
100
AcDbLine
 10
33.1610383967
 20
26.9082569861
 30
0.0
 11
33.899964951
 21
26.4816837661
 31
0.0
  0
ARC
  5
1C8
330
1F
100
AcDbEntity
  8
0
  6
Continuous
 62
     7
370
    15
100
AcDbCircle
 10
40.0310139558
 20
27.7007351747
 30
0.0
 40
0.5624118029374765
100
AcDbArc
 50
2.6053901485
 51
57.3945834813
  0
LINE
  5
1C9
330
1F
100
AcDbEntity
  8
0
  6
Continuous
 62
     7
370
    15
100
AcDbLine
 10
40.4351199198
 20
28.750564082
 30
0.0
 11
40.3340697947
 21
28.1745116986
 31
0.0
  0
ARC
  5
1CA
330
1F
100
AcDbEntity
  8
0
  6
Continuous
 62
     7
370
    15
100
AcDbCircle
 10
39.6113086224
 20
27.4584399095
 30
0.0
 40
1.532400055793683
100
AcDbArc
 50
2.5200906778
 51
57.4798997641
  0
LINE
  5
1CB
330
1F
100
AcDbEntity
  8
0
  6
Continuous
 62
     7
370
    15
100
AcDbLine
 10
41.1422266406
 20
27.5258190793
 30
0.0
 11
40.5928443925
 21
27.7263007094
 31
0.0
  0
LINE
  5
1CC
330
1F
100
AcDbEntity
  8
0
  6
Continuous
 62
     7
370
    15
100
AcDbLine
 10
40.4702998471
 20
28.7617165695
 30
0.0
 11
40.4351199198
 21
28.750564082
 31
0.0
  0
LINE
  5
1CD
330
1F
100
AcDbEntity
  8
0
  6
Continuous
 62
     7
370
    15
100
AcDbLine
 10
41.1694774845
 20
27.5507053814
 30
0.0
 11
41.1422266406
 21
27.5258190793
 31
0.0
  0
ARC
  5
1CE
330
1F
100
AcDbEntity
  8
0
  6
Continuous
 62
     7
370
    15
100
AcDbCircle
 10
39.6557265293
 20
27.4840816506
 30
0.0
 40
1.515216379290983
100
AcDbArc
 50
2.5200952984
 51
57.4799048473
  0
LINE
  5
1CF
330
1F
100
AcDbEntity
  8
0
  6
Continuous
 62
     7
370
    15
100
AcDbLine
 10
40.5928443925
 20
22.2146503407
 30
0.0
 11
40.5928443925
 21
27.7263007094
 31
0.0
  0
LINE
  5
1D0
330
1F
100
AcDbEntity
  8
0
  6
Continuous
 62
     7
370
    15
100
AcDbLine
 10
41.1422266406
 20
22.0141687106
 30
0.0
 11
41.1422266406
 21
27.5258190793
 31
0.0
  0
LINE
  5
1D1
330
1F
100
AcDbEntity
  8
0
  6
Continuous
 62
     7
370
    15
100
AcDbLine
 10
41.1422266406
 20
22.0141687106
 30
0.0
 11
40.5928443925
 21
22.2146503407
 31
0.0
  0
LINE
  5
1D2
330
1F
100
AcDbEntity
  8
0
  6
Continuous
 62
     7
370
    15
100
AcDbLine
 10
32.6569455763
 20
33.240808553
 30
0.0
 11
32.5558954513
 21
32.6647561695
 31
0.0
  0
LINE
  5
1D3
330
1F
100
AcDbEntity
  8
0
  6
Continuous
 62
     7
370
    15
100
AcDbLine
 10
32.6569455763
 20
33.240808553
 30
0.0
 11
40.4351199198
 21
28.750564082
 31
0.0
  0
LINE
  5
1D4
330
1F
100
AcDbEntity
  8
0
  6
Continuous
 62
     7
370
    15
100
AcDbLine
 10
32.5558954513
 20
32.6647561695
 30
0.0
 11
40.3340697947
 21
28.1745116986
 31
0.0
  0
LINE
  5
1D5
330
1F
100
AcDbEntity
  8
0
  6
Continuous
 62
     7
370
    15
100
AcDbLine
 10
41.1694774845
 20
22.0390550127
 30
0.0
 11
41.1422266406
 21
22.0141687106
 31
0.0
  0
LINE
  5
1D6
330
1F
100
AcDbEntity
  8
0
  6
Continuous
 62
     7
370
    15
100
AcDbLine
 10
41.1694774845
 20
22.0390550127
 30
0.0
 11
41.1694774845
 21
27.5507053814
 31
0.0
  0
LINE
  5
1D7
330
1F
100
AcDbEntity
  8
0
  6
Continuous
 62
     7
370
    15
100
AcDbLine
 10
32.6921255036
 20
33.2519610404
 30
0.0
 11
32.6569455763
 21
33.240808553
 31
0.0
  0
LINE
  5
1D8
330
1F
100
AcDbEntity
  8
0
  6
Continuous
 62
     7
370
    15
100
AcDbLine
 10
32.6921255036
 20
33.2519610404
 30
0.0
 11
40.4702998471
 21
28.7617165695
 31
0.0
  0
ARC
  5
1D9
330
1F
100
AcDbEntity
  8
0
  6
Continuous
 62
     7
370
    15
100
AcDbCircle
 10
40.080445814
 20
27.7292715721
 30
0.0
 40
0.4610415147231486
100
AcDbArc
 50
2.6054873457
 51
57.3945451459
  0
ARC
  5
1DA
330
1F
100
AcDbEntity
  8
0
  6
Continuous
 62
     7
370
    15
100
AcDbCircle
 10
40.6590240062
 20
28.1161764264
 30
0.0
 40
0.3301488202995221
100
AcDbArc
 50
169.8227541408
 51
179.7436684547
  0
ARC
  5
1DB
330
1F
100
AcDbEntity
  8
0
  6
Continuous
 62
     7
370
    15
100
AcDbCircle
 10
40.7047798334
 20
28.0368708984
 30
0.0
 40
0.3301263171419638
100
AcDbArc
 50
240.2589967174
 51
250.1798667076
  0
LINE
  5
1DC
330
1F
100
AcDbEntity
  8
0
  6
Continuous
 62
     7
370
    15
100
AcDbLine
 10
38.968405184
 20
23.4975379249
 30
0.0
 11
39.7189293812
 21
23.0642695282
 31
0.0
  0
ARC
  5
1DD
330
1F
100
AcDbEntity
  8
0
  6
Continuous
 62
     7
370
    15
100
AcDbCircle
 10
39.736208674
 20
23.0854532184
 30
0.0
 40
0.0273372034032317
100
AcDbArc
 50
230.7962698298
 51
9.2144819249
  0
LINE
  5
1DE
330
1F
100
AcDbEntity
  8
0
  6
Continuous
 62
     7
370
    15
100
AcDbLine
 10
39.7631931133
 20
23.0898307436
 30
0.0
 11
39.7631931133
 21
27.7970277781
 31
0.0
  0
ARC
  5
1DF
330
1F
100
AcDbEntity
  8
0
  6
Continuous
 62
     7
370
    15
100
AcDbCircle
 10
39.6670918896
 20
27.7926550657
 30
0.0
 40
0.096200653947876
100
AcDbArc
 50
2.6052246795
 51
57.3947754661
  0
LINE
  5
1E0
330
1F
100
AcDbEntity
  8
0
  6
Continuous
 62
     7
370
    15
100
AcDbLine
 10
39.7189293812
 20
27.8736948107
 30
0.0
 11
38.968405184
 21
28.3069632074
 31
0.0
  0
LINE
  5
1E1
330
1F
100
AcDbEntity
  8
0
  6
Continuous
 62
     7
370
    15
100
AcDbLine
 10
38.968405184
 20
28.3069632074
 30
0.0
 11
38.968405184
 21
28.3685175887
 31
0.0
  0
LINE
  5
1E2
330
1F
100
AcDbEntity
  8
0
  6
Continuous
 62
     7
370
    15
100
AcDbLine
 10
38.968405184
 20
28.3685175887
 30
0.0
 11
38.9676981043
 21
28.3689257772
 31
0.0
  0
LINE
  5
1E3
330
1F
100
AcDbEntity
  8
0
  6
Continuous
 62
     7
370
    15
100
AcDbLine
 10
33.9118845321
 20
31.287584827
 30
0.0
 11
38.9676981043
 21
28.3689257772
 31
0.0
  0
LINE
  5
1E4
330
1F
100
AcDbEntity
  8
0
  6
Continuous
 62
     7
370
    15
100
AcDbLine
 10
33.9118845321
 20
31.287584827
 30
0.0
 11
33.9111774523
 21
31.2879930155
 31
0.0
  0
LINE
  5
1E5
330
1F
100
AcDbEntity
  8
0
  6
Continuous
 62
     7
370
    15
100
AcDbLine
 10
33.9111774523
 20
31.2879930155
 30
0.0
 11
33.9111774523
 21
31.2264386341
 31
0.0
  0
LINE
  5
1E6
330
1F
100
AcDbEntity
  8
0
  6
Continuous
 62
     7
370
    15
100
AcDbLine
 10
33.9111774523
 20
31.2264386341
 30
0.0
 11
33.1606532551
 21
31.6597070308
 31
0.0
  0
ARC
  5
1E7
330
1F
100
AcDbEntity
  8
0
  6
Continuous
 62
     7
370
    15
100
AcDbCircle
 10
33.1433739623
 20
31.6385233406
 30
0.0
 40
0.0273372034032362
100
AcDbArc
 50
50.7962698298
 51
189.2144819249
  0
LINE
  5
1E8
330
1F
100
AcDbEntity
  8
0
  6
Continuous
 62
     7
370
    15
100
AcDbLine
 10
33.1163895231
 20
31.6341458154
 30
0.0
 11
33.1163895231
 21
26.9269487809
 31
0.0
  0
ARC
  5
1E9
330
1F
100
AcDbEntity
  8
0
  6
Continuous
 62
     7
370
    15
100
AcDbCircle
 10
33.2124907468
 20
26.9313214933
 30
0.0
 40
0.0962006539478683
100
AcDbArc
 50
182.6052246795
 51
237.3947754661
  0
LINE
  5
1EA
330
1F
100
AcDbEntity
  8
0
  6
Continuous
 62
     7
370
    15
100
AcDbLine
 10
33.1606532551
 20
26.8502817482
 30
0.0
 11
33.9111774523
 21
26.4170133516
 31
0.0
  0
LINE
  5
1EB
330
1F
100
AcDbEntity
  8
0
  6
Continuous
 62
     7
370
    15
100
AcDbLine
 10
33.9111774523
 20
26.4170133516
 30
0.0
 11
33.9111774523
 21
26.3554589702
 31
0.0
  0
LINE
  5
1EC
330
1F
100
AcDbEntity
  8
0
  6
Continuous
 62
     7
370
    15
100
AcDbLine
 10
33.9111774523
 20
26.3554589702
 30
0.0
 11
33.9118845321
 21
26.3550507818
 31
0.0
  0
LINE
  5
1ED
330
1F
100
AcDbEntity
  8
0
  6
Continuous
 62
     7
370
    15
100
AcDbLine
 10
38.9676981043
 20
23.436391732
 30
0.0
 11
33.9118845321
 21
26.3550507818
 31
0.0
  0
LINE
  5
1EE
330
1F
100
AcDbEntity
  8
0
  6
Continuous
 62
     7
370
    15
100
AcDbLine
 10
38.9676981043
 20
23.436391732
 30
0.0
 11
38.968405184
 21
23.4359835435
 31
0.0
  0
LINE
  5
1EF
330
1F
100
AcDbEntity
  8
0
  6
Continuous
 62
     7
370
    15
100
AcDbLine
 10
38.968405184
 20
23.4359835435
 30
0.0
 11
38.968405184
 21
23.4975379249
 31
0.0
  0
LINE
  5
1F0
330
1F
100
AcDbEntity
  8
0
  6
Continuous
 62
     7
370
    15
100
AcDbLine
 10
32.3385719228
 20
32.4853970254
 30
0.0
 11
32.3385719228
 21
26.9737466567
 31
0.0
  0
ARC
  5
1F1
330
1F
100
AcDbEntity
  8
0
  6
Continuous
 62
     7
370
    15
100
AcDbCircle
 10
32.467894278
 20
32.5063751266
 30
0.0
 40
0.1310127943745729
100
AcDbArc
 50
50.7966458605
 51
189.2140088668
  0
LINE
  5
1F2
330
1F
100
AcDbEntity
  8
0
  6
Continuous
 62
     7
370
    15
100
AcDbLine
 10
40.3288784899
 20
28.117653451
 30
0.0
 11
32.5507041464
 21
32.607897922
 31
0.0
  0
LINE
  5
1F3
330
1F
100
AcDbEntity
  8
0
  6
Continuous
 62
     7
370
    15
100
AcDbLine
 10
40.5410107136
 20
22.2385795336
 30
0.0
 11
40.5410107136
 21
27.7502299023
 31
0.0
  0
ARC
  5
1F4
330
1F
100
AcDbEntity
  8
0
  6
Continuous
 62
     7
370
    15
100
AcDbCircle
 10
40.4116883584
 20
22.2176014324
 30
0.0
 40
0.1310127943745799
100
AcDbArc
 50
230.7966458605
 51
9.2140088668
  0
LINE
  5
1F5
330
1F
100
AcDbEntity
  8
0
  6
Continuous
 62
     7
370
    15
100
AcDbLine
 10
32.5507041464
 20
26.606323108
 30
0.0
 11
40.3288784899
 21
22.116078637
 31
0.0
  0
ARC
  5
1F6
330
1F
100
AcDbEntity
  8
0
  6
Continuous
 62
     7
370
    15
100
AcDbCircle
 10
32.7991368223
 20
26.9947049869
 30
0.0
 40
0.4610415147230913
100
AcDbArc
 50
182.6054873457
 51
237.394545146
  0
ARC
  5
1F7
330
1F
100
AcDbEntity
  8
0
  6
Continuous
 62
     7
370
    15
100
AcDbCircle
 10
40.7047798334
 20
22.5252205297
 30
0.0
 40
0.3301263171418201
100
AcDbArc
 50
240.2589967174
 51
250.1798667076
  0
ARC
  5
1F8
330
1F
100
AcDbEntity
  8
0
  6
Continuous
 62
     7
370
    15
100
AcDbCircle
 10
32.8808496628
 20
32.6064208974
 30
0.0
 40
0.330148820299501
100
AcDbArc
 50
169.8227541408
 51
179.7436684547
  0
LWPOLYLINE
  5
1F9
330
1F
100
AcDbEntity
  8
0
  6
Continuous
 62
     7
370
    15
100
AcDbPolyline
 90
        3
 70
   128
 43
0.0
 10
38.9676981043
 20
28.3689257772
 10
38.9682730324
 20
28.3599100903
 10
38.9684052111
 20
28.3589732432
  0
ARC
  5
1FA
330
1F
100
AcDbEntity
  8
0
  6
Continuous
 62
     7
370
    15
100
AcDbCircle
 10
33.9520904117
 20
31.2834371406
 30
0.0
 40
0.0404192535163867
100
AcDbArc
 50
174.1101340234
 51
234.5776922098
  0
LWPOLYLINE
  5
1FB
330
1F
100
AcDbEntity
  8
0
  6
Continuous
 62
     7
370
    15
100
AcDbPolyline
 90
        9
 70
   128
 43
0.0
 10
40.3340697947
 20
22.0652141424
 10
40.3845543353
 20
22.0418119515
 10
40.4330987103
 20
22.0307925491
 10
40.4778374241
 20
22.0325797032
 10
40.5170514161
 20
22.0471045115
 10
40.5492331899
 20
22.0738090001
 10
40.5731465484
 20
22.1116667274
 10
40.5878722259
 20
22.1592230273
 10
40.5928443925
 20
22.2146503407
  0
LWPOLYLINE
  5
1FC
330
1F
100
AcDbEntity
  8
0
  6
Continuous
 62
     7
370
    15
100
AcDbPolyline
 90
       14
 70
   128
 43
0.0
 10
40.4351199198
 20
21.60583175
 10
40.5203523798
 20
21.5625817442
 10
40.6043415907
 20
21.531869559
 10
40.6858633857
 20
21.5141427348
 10
40.7637288587
 20
21.5096598371
 10
40.8368026166
 20
21.5184863868
 10
40.9040185434
 20
21.5404936637
 10
40.9643972225
 20
21.5753606248
 10
41.0170575526
 20
21.6225791741
 10
41.061232096
 20
21.6814603921
 10
41.0962762049
 20
21.7511460328
 10
41.1216796371
 20
21.8306193035
 10
41.1370711186
 20
21.9187218707
 10
41.1422266406
 20
22.0141687106
  0
LINE
  5
1FD
330
1F
100
AcDbEntity
  8
0
  6
Continuous
 62
     7
370
    15
100
AcDbLine
 10
40.4351199198
 20
21.60583175
 30
0.0
 11
40.3340697947
 21
22.0652141424
 31
0.0
  0
ARC
  5
1FE
330
1F
100
AcDbEntity
  8
0
  6
Continuous
 62
     7
370
    15
100
AcDbCircle
 10
40.6235477724
 20
22.0011408287
 30
0.0
 40
0.5472446765051435
100
AcDbArc
 50
319.0928932286
 51
3.9727464487
  0
ARC
  5
1FF
330
1F
100
AcDbEntity
  8
0
  6
Continuous
 62
     7
370
    15
100
AcDbCircle
 10
40.5661882432
 20
22.1146016546
 30
0.0
 40
0.2373143494520917
100
AcDbArc
 50
179.6434037666
 51
192.0116220313
  0
LINE
  5
200
330
1F
100
AcDbEntity
  8
0
  6
Continuous
 62
     7
370
    15
100
AcDbLine
 10
38.9030355412
 20
24.0941521881
 30
0.0
 11
38.908009419
 21
24.0993672465
 31
0.0
  0
LINE
  5
201
330
1F
100
AcDbEntity
  8
0
  6
Continuous
 62
     7
370
    15
100
AcDbLine
 10
38.8383090424
 20
24.0219327446
 30
0.0
 11
38.9030355412
 21
24.0941521881
 31
0.0
  0
ARC
  5
202
330
1F
100
AcDbEntity
  8
0
  6
Continuous
 62
     7
370
    15
100
AcDbCircle
 10
38.8852583916
 20
23.9677975554
 30
0.0
 40
0.0716579381582172
100
AcDbArc
 50
130.9338304701
 51
222.091031392
  0
LINE
  5
203
330
1F
100
AcDbEntity
  8
0
  6
Continuous
 62
     7
370
    15
100
AcDbLine
 10
39.0135421843
 20
23.5296785309
 30
0.0
 11
39.0022443996
 21
23.5170727555
 31
0.0
  0
LINE
  5
204
330
1F
100
AcDbEntity
  8
0
  6
Continuous
 62
     7
370
    15
100
AcDbLine
 10
33.9449544465
 20
26.4340845555
 30
0.0
 11
33.9931754152
 21
26.4878876044
 31
0.0
  0
LINE
  5
205
330
1F
100
AcDbEntity
  8
0
  6
Continuous
 62
     7
370
    15
100
AcDbLine
 10
35.0015008153
 20
26.6171682894
 30
0.0
 11
38.8366149237
 21
24.4032040402
 31
0.0
  0
LINE
  5
206
330
1F
100
AcDbEntity
  8
0
  6
Continuous
 62
     7
370
    15
100
AcDbLine
 10
34.518973665
 20
26.6250172383
 30
0.0
 11
34.5239475427
 21
26.6302322967
 31
0.0
  0
LINE
  5
207
330
1F
100
AcDbEntity
  8
0
  6
Continuous
 62
     7
370
    15
100
AcDbLine
 10
34.4542471661
 20
26.5527977948
 30
0.0
 11
34.518973665
 21
26.6250172383
 31
0.0
  0
ARC
  5
208
330
1F
100
AcDbEntity
  8
0
  6
Continuous
 62
     7
370
    15
100
AcDbCircle
 10
34.5011961596
 20
26.4986625756
 30
0.0
 40
0.0716577277361253
100
AcDbArc
 50
130.9335998823
 51
222.0910220493
  0
LINE
  5
209
330
1F
100
AcDbEntity
  8
0
  6
Continuous
 62
     7
370
    15
100
AcDbLine
 10
32.5558954513
 20
26.5554586134
 30
0.0
 11
40.3340697947
 21
22.0652141424
 31
0.0
  0
ARC
  5
20A
330
1F
100
AcDbEntity
  8
0
  6
Continuous
 62
     7
370
    15
100
AcDbCircle
 10
32.7880138997
 20
26.6048461256
 30
0.0
 40
0.2373143494520918
100
AcDbArc
 50
179.6434037666
 51
192.0116220313
  0
LINE
  5
20B
330
1F
100
AcDbEntity
  8
0
  6
Continuous
 62
     7
370
    15
100
AcDbLine
 10
39.7189293812
 20
23.0642695282
 30
0.0
 11
39.7549918262
 21
23.0850879345
 31
0.0
  0
LINE
  5
20C
330
1F
100
AcDbEntity
  8
0
  6
Continuous
 62
     7
370
    15
100
AcDbLine
 10
39.7549918262
 20
23.0850879345
 30
0.0
 11
39.7625429983
 21
23.0814779413
 31
0.0
  0
LINE
  5
20D
330
1F
100
AcDbEntity
  8
0
  6
Continuous
 62
     7
370
    15
100
AcDbLine
 10
32.6569455763
 20
26.0960762209
 30
0.0
 11
40.4351199198
 21
21.60583175
 31
0.0
  0
LINE
  5
20E
330
1F
100
AcDbEntity
  8
0
  6
Continuous
 62
     7
370
    15
100
AcDbLine
 10
32.6569455763
 20
26.0960762209
 30
0.0
 11
32.5558954513
 21
26.5554586134
 31
0.0
  0
LINE
  5
20F
330
1F
100
AcDbEntity
  8
0
  6
Continuous
 62
     7
370
    15
100
AcDbLine
 10
39.004467629
 20
23.5183563312
 30
0.0
 11
38.968405184
 21
23.4975379249
 31
0.0
  0
LINE
  5
210
330
1F
100
AcDbEntity
  8
0
  6
Continuous
 62
     7
370
    15
100
AcDbLine
 10
39.004467629
 20
23.5183563312
 30
0.0
 11
39.7549918262
 21
23.0850879345
 31
0.0
  0
ARC
  5
211
330
1F
100
AcDbEntity
  8
0
  6
Continuous
 62
     7
370
    15
100
AcDbCircle
 10
34.0375011693
 20
26.3489248802
 30
0.0
 40
0.125765918316815
100
AcDbArc
 50
137.3803482355
 51
177.2080890528
  0
LWPOLYLINE
  5
212
330
1F
100
AcDbEntity
  8
0
  6
Continuous
 62
     7
370
    15
100
AcDbPolyline
 90
        3
 70
   128
 43
0.0
 10
38.9684052111
 20
23.4471606741
 10
38.9682730324
 20
23.4460712169
 10
38.9676981043
 20
23.436391732
  0
LINE
  5
213
330
1F
100
AcDbEntity
  8
0
  6
Continuous
 62
     7
370
    15
100
AcDbLine
 10
38.9684052111
 20
23.436799936
 30
0.0
 11
38.9676981043
 21
23.436391732
 31
0.0
  0
LINE
  5
214
330
1F
100
AcDbEntity
  8
0
  6
Continuous
 62
     7
370
    15
100
AcDbLine
 10
39.0406817272
 20
23.5140111917
 30
0.0
 11
39.0309000921
 21
23.5030971804
 31
0.0
  0
LINE
  5
215
330
1F
100
AcDbEntity
  8
0
  6
Continuous
 62
     7
370
    15
100
AcDbLine
 10
38.8535497068
 20
23.9929890399
 30
0.0
 11
38.8383090424
 21
24.0219327446
 31
0.0
  0
ARC
  5
216
330
1F
100
AcDbEntity
  8
0
  6
Continuous
 62
     7
370
    15
100
AcDbCircle
 10
38.9099283597
 20
23.9351890926
 30
0.0
 40
0.080742717362846
100
AcDbArc
 50
134.2868193404
 51
190.6548965395
  0
LINE
  5
217
330
1F
100
AcDbEntity
  8
0
  6
Continuous
 62
     7
370
    15
100
AcDbLine
 10
38.9182761798
 20
24.0652084685
 30
0.0
 11
38.9030355412
 21
24.0941521881
 31
0.0
  0
ARC
  5
218
330
1F
100
AcDbEntity
  8
0
  6
Continuous
 62
     7
370
    15
100
AcDbCircle
 10
39.0118483772
 20
23.9804867132
 30
0.0
 40
0.1262280948828245
100
AcDbArc
 50
97.2207800484
 51
137.8418074973
  0
LINE
  5
219
330
1F
100
AcDbEntity
  8
0
  6
Continuous
 62
     7
370
    15
100
AcDbLine
 10
38.9182761798
 20
24.0652084685
 30
0.0
 11
38.8535497068
 21
23.9929890399
 31
0.0
  0
LINE
  5
21A
330
1F
100
AcDbEntity
  8
0
  6
Continuous
 62
     7
370
    15
100
AcDbLine
 10
33.9407599911
 20
31.2435162703
 30
0.0
 11
33.9111774523
 21
31.2264386341
 31
0.0
  0
LWPOLYLINE
  5
21B
330
1F
100
AcDbEntity
  8
0
  6
Continuous
 62
     7
370
    15
100
AcDbPolyline
 90
        9
 70
   128
 43
0.0
 10
32.5558954513
 20
32.6647561695
 10
32.5054109107
 20
32.6881583604
 10
32.4568665357
 20
32.6991777628
 10
32.4121278219
 20
32.6973906087
 10
32.3729138299
 20
32.6828658004
 10
32.3407320561
 20
32.6561613119
 10
32.3168186976
 20
32.6183035846
 10
32.3020930201
 20
32.5707472846
 10
32.2971208535
 20
32.5153199713
  0
LINE
  5
21C
330
1F
100
AcDbEntity
  8
0
  6
Continuous
 62
     7
370
    15
100
AcDbLine
 10
31.9498388555
 20
32.8324715923
 30
0.0
 11
32.2971208535
 21
32.5153199713
 31
0.0
  0
LWPOLYLINE
  5
21D
330
1F
100
AcDbEntity
  8
0
  6
Continuous
 62
     7
370
    15
100
AcDbPolyline
 90
       14
 70
   128
 43
0.0
 10
32.6569455763
 20
33.240808553
 10
32.5717131163
 20
33.2840585588
 10
32.4877239054
 20
33.3147707439
 10
32.4062021103
 20
33.3324975681
 10
32.3283366374
 20
33.3369804658
 10
32.2552628794
 20
33.3281539162
 10
32.1880469527
 20
33.3061466392
 10
32.1276682735
 20
33.2712796781
 10
32.0750079435
 20
33.2240611288
 10
32.0308334001
 20
33.1651799108
 10
31.9957892912
 20
33.0954945096
 10
31.970385859
 20
33.0160212389
 10
31.9549943775
 20
32.9279184322
 10
31.9498388555
 20
32.8324715923
  0
ARC
  5
21E
330
1F
100
AcDbEntity
  8
0
  6
Continuous
 62
     7
370
    15
100
AcDbCircle
 10
32.3864018345
 20
32.7981768878
 30
0.0
 40
0.5471626988518166
100
AcDbArc
 50
56.0310445991
 51
100.9039200469
  0
LINE
  5
21F
330
1F
100
AcDbEntity
  8
0
  6
Continuous
 62
     7
370
    15
100
AcDbLine
 10
33.152451968
 20
31.6549642217
 30
0.0
 11
33.1163895231
 21
31.6341458154
 31
0.0
  0
LINE
  5
220
330
1F
100
AcDbEntity
  8
0
  6
Continuous
 62
     7
370
    15
100
AcDbLine
 10
33.1531020085
 20
31.6633171592
 30
0.0
 11
33.152451968
 21
31.6549642217
 31
0.0
  0
ARC
  5
221
330
1F
100
AcDbEntity
  8
0
  6
Continuous
 62
     7
370
    15
100
AcDbCircle
 10
32.4559160203
 20
32.6916208795
 30
0.0
 40
0.2372718171972639
100
AcDbArc
 50
227.9904681956
 51
240.3595519664
  0
LINE
  5
222
330
1F
100
AcDbEntity
  8
0
  6
Continuous
 62
     7
370
    15
100
AcDbLine
 10
33.152451968
 20
31.6549642217
 30
0.0
 11
33.152451968
 21
31.6424978997
 31
0.0
  0
ARC
  5
223
330
1F
100
AcDbEntity
  8
0
  6
Continuous
 62
     7
370
    15
100
AcDbCircle
 10
32.4559160203
 20
27.1799705108
 30
0.0
 40
0.2372718171975443
100
AcDbArc
 50
227.9904681956
 51
240.3595519664
  0
LINE
  5
224
330
1F
100
AcDbEntity
  8
0
  6
Continuous
 62
     7
370
    15
100
AcDbLine
 10
32.2971208535
 20
32.5153199713
 30
0.0
 11
32.2971208535
 21
27.0036696026
 31
0.0
  0
LINE
  5
225
330
1F
100
AcDbEntity
  8
0
  6
Continuous
 62
     7
370
    15
100
AcDbLine
 10
31.9498388555
 20
27.3208212236
 30
0.0
 11
32.2971208535
 21
27.0036696026
 31
0.0
  0
LINE
  5
226
330
1F
100
AcDbEntity
  8
0
  6
Continuous
 62
     7
370
    15
100
AcDbLine
 10
31.9498388555
 20
32.8324715923
 30
0.0
 11
31.9498388555
 21
27.3208212236
 31
0.0
  0
LINE
  5
227
330
1F
100
AcDbEntity
  8
0
  6
Continuous
 62
     7
370
    15
100
AcDbLine
 10
34.4694878305
 20
26.5238540902
 30
0.0
 11
34.4542471661
 21
26.5527977948
 31
0.0
  0
ARC
  5
228
330
1F
100
AcDbEntity
  8
0
  6
Continuous
 62
     7
370
    15
100
AcDbCircle
 10
34.5258654088
 20
26.4660542805
 30
0.0
 40
0.0807418684897523
100
AcDbArc
 50
134.2863417079
 51
190.6550228295
  0
LINE
  5
229
330
1F
100
AcDbEntity
  8
0
  6
Continuous
 62
     7
370
    15
100
AcDbLine
 10
34.5342143035
 20
26.5960735187
 30
0.0
 11
34.518973665
 21
26.6250172383
 31
0.0
  0
ARC
  5
22A
330
1F
100
AcDbEntity
  8
0
  6
Continuous
 62
     7
370
    15
100
AcDbCircle
 10
34.6232622466
 20
26.5196769283
 30
0.0
 40
0.117328492709985
100
AcDbArc
 50
74.3341559041
 51
139.3728321331
  0
LINE
  5
22B
330
1F
100
AcDbEntity
  8
0
  6
Continuous
 62
     7
370
    15
100
AcDbLine
 10
34.5342143035
 20
26.5960735187
 30
0.0
 11
34.4694878305
 21
26.5238540902
 31
0.0
  0
LINE
  5
22C
330
1F
100
AcDbEntity
  8
0
  6
Continuous
 62
     7
370
    15
100
AcDbLine
 10
33.9118889227
 20
26.3558696933
 30
0.0
 11
33.9111774523
 21
26.3554589702
 31
0.0
  0
LINE
  5
22D
330
1F
100
AcDbEntity
  8
0
  6
Continuous
 62
     7
370
    15
100
AcDbLine
 10
33.9472398973
 20
26.4378317579
 30
0.0
 11
33.9111774523
 21
26.4170133516
 31
0.0
  0
LINE
  5
22E
330
1F
100
AcDbEntity
  8
0
  6
Continuous
 62
     7
370
    15
100
AcDbLine
 10
33.9472398973
 20
26.4366346576
 30
0.0
 11
33.9472398973
 21
26.4378317579
 31
0.0
  0
LINE
  5
22F
330
1F
100
AcDbEntity
  8
0
  6
Continuous
 62
     7
370
    15
100
AcDbLine
 10
33.1967157001
 20
26.8711001546
 30
0.0
 11
33.1606532551
 21
26.8502817482
 31
0.0
  0
LINE
  5
230
330
1F
100
AcDbEntity
  8
0
  6
Continuous
 62
     7
370
    15
100
AcDbLine
 10
33.1967157001
 20
26.8711001546
 30
0.0
 11
33.9472398973
 21
26.4378317579
 31
0.0
  0
LINE
  5
231
330
1F
100
AcDbEntity
  8
0
  6
Continuous
 62
     7
370
    15
100
AcDbLine
 10
33.9815489286
 20
26.4749152473
 30
0.0
 11
33.9502113363
 21
26.4930060543
 31
0.0
  0
ARC
  5
232
330
1F
100
AcDbEntity
  8
0
  6
Continuous
 62
     7
370
    15
100
AcDbCircle
 10
33.2457176227
 20
26.9489894239
 30
0.0
 40
0.09202133825561
100
AcDbArc
 50
207.5054371055
 51
237.8250621644
  0
ARC
  5
233
330
1F
100
AcDbEntity
  8
0
  6
Continuous
 62
     7
370
    15
100
AcDbCircle
 10
32.8589512902
 20
27.0292351373
 30
0.0
 40
0.5624118029375278
100
AcDbArc
 50
182.6053901485
 51
237.3945834813
  0
ARC
  5
234
330
1F
100
AcDbEntity
  8
0
  6
Continuous
 62
     7
370
    15
100
AcDbCircle
 10
33.4807570931
 20
27.3882005201
 30
0.0
 40
1.532400280531448
100
AcDbArc
 50
182.5200950483
 51
237.4798953936
  0
LINE
  5
235
330
1F
100
AcDbEntity
  8
0
  6
Continuous
 62
     7
370
    15
100
AcDbLine
 10
38.9809639276
 20
24.6343451126
 30
0.0
 11
38.988158408
 21
24.638355909
 31
0.0
  0
ELLIPSE
  5
236
330
1F
100
AcDbEntity
  8
0
  6
Continuous
 62
     7
370
    15
100
AcDbEllipse
 10
39.0471532149
 20
24.3927461147
 30
0.0
 11
0.04722018973147613
 21
0.07896559933124436
 31
0.0
210
0.0
220
0.0
230
1.0
 40
0.5873687163
 41
2.365149892935277
 42
3.052234455322287
  0
LINE
  5
237
330
1F
100
AcDbEntity
  8
0
  6
Continuous
 62
     7
370
    15
100
AcDbLine
 10
38.9809639276
 20
24.6343451126
 30
0.0
 11
38.9809639276
 21
24.3558468357
 31
0.0
  0
LINE
  5
238
330
1F
100
AcDbEntity
  8
0
  6
Continuous
 62
     7
370
    15
100
AcDbLine
 10
33.8844765724
 20
27.5764846375
 30
0.0
 11
38.9809639276
 21
24.6343451126
 31
0.0
  0
LINE
  5
239
330
1F
100
AcDbEntity
  8
0
  6
Continuous
 62
     7
370
    15
100
AcDbLine
 10
33.8914242283
 20
27.5806379227
 30
0.0
 11
33.8844765724
 21
27.5764846375
 31
0.0
  0
LINE
  5
23A
330
1F
100
AcDbEntity
  8
0
  6
Continuous
 62
     7
370
    15
100
AcDbLine
 10
33.8844765724
 20
27.2979863607
 30
0.0
 11
38.9809639276
 21
24.3558468357
 31
0.0
  0
LINE
  5
23B
330
1F
100
AcDbEntity
  8
0
  6
Continuous
 62
     7
370
    15
100
AcDbLine
 10
33.8844765724
 20
27.5764846375
 30
0.0
 11
33.8844765724
 21
27.2979863607
 31
0.0
  0
ELLIPSE
  5
23C
330
1F
100
AcDbEntity
  8
0
  6
Continuous
 62
     7
370
    15
100
AcDbEllipse
 10
33.9483949336
 20
27.3361966174
 30
0.0
 11
0.04481087536295546
 21
0.08035703218590838
 31
0.0
210
0.0
220
0.0
230
1.0
 40
0.5672183928
 41
2.347685967279873
 42
3.133165394739353
  0
ARC
  5
23D
330
1F
100
AcDbEntity
  8
0
  6
Continuous
 62
     7
370
    15
100
AcDbCircle
 10
39.1409077575
 20
28.2060071143
 30
0.0
 40
0.1128810584953068
100
AcDbArc
 50
149.3993007345
 51
178.1571855891
  0
ARC
  5
23E
330
1F
100
AcDbEntity
  8
0
  6
Continuous
 62
     7
370
    15
100
AcDbCircle
 10
39.8445548728
 20
27.7985371695
 30
0.0
 40
0.1099759153080865
100
AcDbArc
 50
153.6380223868
 51
178.3209183203
  0
LINE
  5
23F
330
1F
100
AcDbEntity
  8
0
  6
Continuous
 62
     7
370
    15
100
AcDbLine
 10
39.02808508
 20
28.209637102
 30
0.0
 11
39.7346261785
 21
27.8017596078
 31
0.0
  0
LINE
  5
240
330
1F
100
AcDbEntity
  8
0
  6
Continuous
 62
     7
370
    15
100
AcDbLine
 10
39.7603697658
 20
27.8166210644
 30
0.0
 11
39.7346261785
 21
27.8017596078
 31
0.0
  0
LINE
  5
241
330
1F
100
AcDbEntity
  8
0
  6
Continuous
 62
     7
370
    15
100
AcDbLine
 10
33.8836003048
 20
27.5850723039
 30
0.0
 11
33.8913543293
 21
27.5805960008
 31
0.0
  0
LINE
  5
242
330
1F
100
AcDbEntity
  8
0
  6
Continuous
 62
     7
370
    15
100
AcDbLine
 10
33.8836003048
 20
26.5178534126
 30
0.0
 11
33.8836003048
 21
27.5850723039
 31
0.0
  0
LINE
  5
243
330
1F
100
AcDbEntity
  8
0
  6
Continuous
 62
     7
370
    15
100
AcDbLine
 10
33.1446737504
 20
26.9444266326
 30
0.0
 11
33.8836003048
 21
26.5178534126
 31
0.0
  0
LINE
  5
244
330
1F
100
AcDbEntity
  8
0
  6
Continuous
 62
     7
370
    15
100
AcDbLine
 10
33.1446737504
 20
31.6060581678
 30
0.0
 11
33.1446737504
 21
26.9444266326
 31
0.0
  0
LINE
  5
245
330
1F
100
AcDbEntity
  8
0
  6
Continuous
 62
     7
370
    15
100
AcDbLine
 10
33.1446737504
 20
31.6060581678
 30
0.0
 11
33.1449564579
 21
31.6058949642
 31
0.0
  0
LINE
  5
246
330
1F
100
AcDbEntity
  8
0
  6
Continuous
 62
     7
370
    15
100
AcDbLine
 10
33.8514975563
 20
31.19801747
 30
0.0
 11
33.1449564579
 21
31.6058949642
 31
0.0
  0
LINE
  5
247
330
1F
100
AcDbEntity
  8
0
  6
Continuous
 62
     7
370
    15
100
AcDbLine
 10
33.8514975563
 20
31.19801747
 30
0.0
 11
33.8517804712
 21
31.1978541467
 31
0.0
  0
LINE
  5
248
330
1F
100
AcDbEntity
  8
0
  6
Continuous
 62
     7
370
    15
100
AcDbLine
 10
33.8517804712
 20
31.1978541467
 30
0.0
 11
33.8517804712
 21
31.2305157285
 31
0.0
  0
LINE
  5
249
330
1F
100
AcDbEntity
  8
0
  6
Continuous
 62
     7
370
    15
100
AcDbLine
 10
39.0278021652
 20
28.2424620071
 30
0.0
 11
33.8517804712
 21
31.2305157285
 31
0.0
  0
LINE
  5
24A
330
1F
100
AcDbEntity
  8
0
  6
Continuous
 62
     7
370
    15
100
AcDbLine
 10
39.0278021652
 20
28.2424620071
 30
0.0
 11
39.0278021652
 21
28.2098004253
 31
0.0
  0
LINE
  5
24B
330
1F
100
AcDbEntity
  8
0
  6
Continuous
 62
     7
370
    15
100
AcDbLine
 10
39.0278021652
 20
28.2098004253
 30
0.0
 11
39.02808508
 21
28.209637102
 31
0.0
  0
LINE
  5
24C
330
1F
100
AcDbEntity
  8
0
  6
Continuous
 62
     7
370
    15
100
AcDbLine
 10
39.7346261785
 20
27.8017596078
 30
0.0
 11
39.734908886
 21
27.8015964043
 31
0.0
  0
LINE
  5
24D
330
1F
100
AcDbEntity
  8
0
  6
Continuous
 62
     7
370
    15
100
AcDbLine
 10
39.734908886
 20
23.1399648691
 30
0.0
 11
39.734908886
 21
27.8015964043
 31
0.0
  0
LINE
  5
24E
330
1F
100
AcDbEntity
  8
0
  6
Continuous
 62
     7
370
    15
100
AcDbLine
 10
38.9959823316
 20
23.566538089
 30
0.0
 11
39.734908886
 21
23.1399648691
 31
0.0
  0
LINE
  5
24F
330
1F
100
AcDbEntity
  8
0
  6
Continuous
 62
     7
370
    15
100
AcDbLine
 10
38.9959823316
 20
24.6337569803
 30
0.0
 11
38.9959823316
 21
23.566538089
 31
0.0
  0
LINE
  5
250
330
1F
100
AcDbEntity
  8
0
  6
Continuous
 62
     7
370
    15
100
AcDbLine
 10
38.988158408
 20
24.6382736353
 30
0.0
 11
38.9959823316
 21
24.6337569803
 31
0.0
  0
LINE
  5
251
330
1F
100
AcDbEntity
  8
0
  6
Continuous
 62
     7
370
    15
100
AcDbLine
 10
39.7604463929
 20
27.8163388932
 30
0.0
 11
39.734908886
 21
27.8015964043
 31
0.0
  0
LINE
  5
252
330
1F
100
AcDbEntity
  8
0
  6
Continuous
 62
     7
370
    15
100
AcDbLine
 10
39.0280857237
 20
28.2099641202
 30
0.0
 11
39.0278021652
 21
28.2098004253
 31
0.0
  0
LINE
  5
253
330
1F
100
AcDbEntity
  8
0
  6
Continuous
 62
     7
370
    15
100
AcDbLine
 10
39.035942041
 20
28.2471610574
 30
0.0
 11
39.0278021652
 21
28.2424620071
 31
0.0
  0
LINE
  5
254
330
1F
100
AcDbEntity
  8
0
  6
Continuous
 62
     7
370
    15
100
AcDbLine
 10
33.877947674
 20
31.2456217332
 30
0.0
 11
33.8517804712
 21
31.2305157285
 31
0.0
  0
LINE
  5
255
330
1F
100
AcDbEntity
  8
0
  6
Continuous
 62
     7
370
    15
100
AcDbLine
 10
38.968405265
 20
28.3167551067
 30
0.0
 11
33.9196585496
 21
31.231334547
 31
0.0
  0
LINE
  5
256
330
1F
100
AcDbEntity
  8
0
  6
Continuous
 62
     7
370
    15
100
AcDbLine
 10
38.8745324386
 20
24.1101781386
 30
0.0
 11
38.810446802
 21
24.0386737994
 31
0.0
  0
LWPOLYLINE
  5
257
330
1F
100
AcDbEntity
  8
0
  6
Continuous
 62
     7
370
    15
100
AcDbPolyline
 90
        9
 70
   128
 43
0.0
 10
38.810446802
 20
24.0386737994
 10
38.7913047281
 20
24.008203181
 10
38.7858420755
 20
23.9761566221
 10
38.7948902177
 20
23.9474132935
 10
38.8170718376
 20
23.9263490582
 10
38.8490099239
 20
23.9161706521
 10
38.8858421109
 20
23.9184278305
 10
38.9219609955
 20
23.9327769233
 10
38.9518681462
 20
23.9570329952
  0
LINE
  5
258
330
1F
100
AcDbEntity
  8
0
  6
Continuous
 62
     7
370
    15
100
AcDbLine
 10
38.9518681462
 20
23.9570329952
 30
0.0
 11
38.9959823575
 21
24.0062540529
 31
0.0
  0
ARC
  5
259
330
1F
100
AcDbEntity
  8
0
  6
Continuous
 62
     7
370
    15
100
AcDbCircle
 10
38.9640133468
 20
24.0334238256
 30
0.0
 40
0.1178900228678574
100
AcDbArc
 50
74.2657614123
 51
139.3778964744
  0
LINE
  5
25A
330
1F
100
AcDbEntity
  8
0
  6
Continuous
 62
     7
370
    15
100
AcDbLine
 10
38.4385548179
 20
23.9409802901
 30
0.0
 11
38.9959823575
 21
23.6191842211
 31
0.0
  0
LINE
  5
25B
330
1F
100
AcDbEntity
  8
0
  6
Continuous
 62
     7
370
    15
100
AcDbLine
 10
38.4319297824
 20
24.0533050314
 30
0.0
 11
38.4385548179
 21
23.9409802901
 31
0.0
  0
LINE
  5
25C
330
1F
100
AcDbEntity
  8
0
  6
Continuous
 62
     7
370
    15
100
AcDbLine
 10
38.7221796704
 20
24.3771549747
 30
0.0
 11
38.4319297824
 21
24.0533050314
 31
0.0
  0
LINE
  5
25D
330
1F
100
AcDbEntity
  8
0
  6
Continuous
 62
     7
370
    15
100
AcDbLine
 10
38.8426450653
 20
24.4045765497
 30
0.0
 11
38.7221796704
 21
24.3771549747
 31
0.0
  0
LWPOLYLINE
  5
25E
330
1F
100
AcDbEntity
  8
0
  6
Continuous
 62
     7
370
    15
100
AcDbPolyline
 90
        6
 70
   128
 43
0.0
 10
39.734908886
 20
23.1399648691
 10
39.7366578193
 20
23.1249597571
 10
39.7417951063
 20
23.1129133135
 10
39.7499990671
 20
23.1045799363
 10
39.7607559947
 20
23.1004817338
 10
39.7631931587
 20
23.1001948224
  0
ARC
  5
25F
330
1F
100
AcDbEntity
  8
0
  6
Continuous
 62
     7
370
    15
100
AcDbCircle
 10
39.0337433387
 20
23.5618358876
 30
0.0
 40
0.0380526524178481
100
AcDbArc
 50
172.9017640343
 51
235.7861678157
  0
LINE
  5
260
330
1F
100
AcDbEntity
  8
0
  6
Continuous
 62
     7
370
    15
100
AcDbLine
 10
38.4385548179
 20
23.9409802901
 30
0.0
 11
38.4531977884
 21
23.9131715127
 31
0.0
  0
LINE
  5
261
330
1F
100
AcDbEntity
  8
0
  6
Continuous
 62
     7
370
    15
100
AcDbLine
 10
38.4531977884
 20
23.9131715127
 30
0.0
 11
38.9959824094
 21
23.5998286207
 31
0.0
  0
LINE
  5
262
330
1F
100
AcDbEntity
  8
0
  6
Continuous
 62
     7
370
    15
100
AcDbLine
 10
38.8250897725
 20
24.0108652615
 30
0.0
 11
38.810446802
 21
24.0386737994
 31
0.0
  0
ARC
  5
263
330
1F
100
AcDbEntity
  8
0
  6
Continuous
 62
     7
370
    15
100
AcDbCircle
 10
38.8818888044
 20
23.9527040836
 30
0.0
 40
0.0812948499635901
100
AcDbArc
 50
134.321142785
 51
190.1734661808
  0
LINE
  5
264
330
1F
100
AcDbEntity
  8
0
  6
Continuous
 62
     7
370
    15
100
AcDbLine
 10
38.889175435
 20
24.0823696156
 30
0.0
 11
38.8745324386
 21
24.1101781386
 31
0.0
  0
ARC
  5
265
330
1F
100
AcDbEntity
  8
0
  6
Continuous
 62
     7
370
    15
100
AcDbCircle
 10
38.9802351533
 20
24.0027901026
 30
0.0
 40
0.1209329202063157
100
AcDbArc
 50
82.5180445533
 51
138.8489248731
  0
LINE
  5
266
330
1F
100
AcDbEntity
  8
0
  6
Continuous
 62
     7
370
    15
100
AcDbLine
 10
38.8250897725
 20
24.0108652615
 30
0.0
 11
38.889175435
 21
24.0823696156
 31
0.0
  0
LINE
  5
267
330
1F
100
AcDbEntity
  8
0
  6
Continuous
 62
     7
370
    15
100
AcDbLine
 10
33.851780399
 20
31.1981807516
 30
0.0
 11
33.8514975563
 21
31.19801747
 31
0.0
  0
ARC
  5
268
330
1F
100
AcDbEntity
  8
0
  6
Continuous
 62
     7
370
    15
100
AcDbCircle
 10
33.9841629324
 20
31.1858401077
 30
0.0
 40
0.1343394630604445
100
AcDbArc
 50
150.5696692913
 51
158.6736481429
  0
LINE
  5
269
330
1F
100
AcDbEntity
  8
0
  6
Continuous
 62
     7
370
    15
100
AcDbLine
 10
33.851780399
 20
31.2046639672
 30
0.0
 11
33.8514975563
 21
31.19801747
 31
0.0
  0
ARC
  5
26A
330
1F
100
AcDbEntity
  8
0
  6
Continuous
 62
     7
370
    15
100
AcDbCircle
 10
33.2612505792
 20
31.6012550072
 30
0.0
 40
0.1163866481086754
100
AcDbArc
 50
149.8412987295
 51
177.7151981783
  0
LINE
  5
26B
330
1F
100
AcDbEntity
  8
0
  6
Continuous
 62
     7
370
    15
100
AcDbLine
 10
33.144957309
 20
31.6062218626
 30
0.0
 11
33.1446737504
 21
31.6060581678
 31
0.0
  0
LINE
  5
26C
330
1F
100
AcDbEntity
  8
0
  6
Continuous
 62
     7
370
    15
100
AcDbLine
 10
33.9182485383
 20
26.5378554121
 30
0.0
 11
33.8836003048
 21
26.5178534126
 31
0.0
  0
LINE
  5
26D
330
1F
100
AcDbEntity
  8
0
  6
Continuous
 62
     7
370
    15
100
AcDbLine
 10
33.9182485383
 20
26.5378554121
 30
0.0
 11
33.9182485383
 21
27.2473701638
 31
0.0
  0
LINE
  5
26E
330
1F
100
AcDbEntity
  8
0
  6
Continuous
 62
     7
370
    15
100
AcDbLine
 10
34.4904703549
 20
26.6410433085
 30
0.0
 11
34.4263847183
 21
26.5695389694
 31
0.0
  0
LWPOLYLINE
  5
26F
330
1F
100
AcDbEntity
  8
0
  6
Continuous
 62
     7
370
    15
100
AcDbPolyline
 90
        9
 70
   128
 43
0.0
 10
34.4263847183
 20
26.5695389694
 10
34.4072428518
 20
26.5390682312
 10
34.4017799918
 20
26.5070217921
 10
34.410828134
 20
26.4782784635
 10
34.4330097539
 20
26.4572142281
 10
34.4649478402
 20
26.4470358221
 10
34.5017800271
 20
26.4492930004
 10
34.5378991193
 20
26.4636419735
 10
34.5678060625
 20
26.4878981652
  0
LINE
  5
270
330
1F
100
AcDbEntity
  8
0
  6
Continuous
 62
     7
370
    15
100
AcDbLine
 10
34.5678060625
 20
26.4878981652
 30
0.0
 11
34.631891699
 21
26.5594025043
 31
0.0
  0
LWPOLYLINE
  5
271
330
1F
100
AcDbEntity
  8
0
  6
Continuous
 62
     7
370
    15
100
AcDbPolyline
 90
        9
 70
   128
 43
0.0
 10
34.631891699
 20
26.5594025043
 10
34.651033773
 20
26.5898733622
 10
34.6564964516
 20
26.6219199361
 10
34.6474483093
 20
26.6506630252
 10
34.6252666635
 20
26.6717272456
 10
34.5933286031
 20
26.6819056666
 10
34.5564964162
 20
26.6796487278
 10
34.5203775055
 20
26.66529962
 10
34.4904703549
 20
26.6410433085
  0
LINE
  5
272
330
1F
100
AcDbEntity
  8
0
  6
Continuous
 62
     7
370
    15
100
AcDbLine
 10
34.9957270652
 20
26.5283902734
 30
0.0
 11
34.9898062575
 21
26.6287730501
 31
0.0
  0
LINE
  5
273
330
1F
100
AcDbEntity
  8
0
  6
Continuous
 62
     7
370
    15
100
AcDbLine
 10
34.7054771772
 20
26.20454033
 30
0.0
 11
34.9957270652
 21
26.5283902734
 31
0.0
  0
LINE
  5
274
330
1F
100
AcDbEntity
  8
0
  6
Continuous
 62
     7
370
    15
100
AcDbLine
 10
34.5706808685
 20
26.173856393
 30
0.0
 11
34.7054771772
 21
26.20454033
 31
0.0
  0
LINE
  5
275
330
1F
100
AcDbEntity
  8
0
  6
Continuous
 62
     7
370
    15
100
AcDbLine
 10
33.9484268298
 20
26.5330760033
 30
0.0
 11
34.5706808685
 21
26.173856393
 31
0.0
  0
LINE
  5
276
330
1F
100
AcDbEntity
  8
0
  6
Continuous
 62
     7
370
    15
100
AcDbLine
 10
34.7054771772
 20
26.20454033
 30
0.0
 11
34.7201201476
 21
26.1767315526
 31
0.0
  0
LINE
  5
277
330
1F
100
AcDbEntity
  8
0
  6
Continuous
 62
     7
370
    15
100
AcDbLine
 10
35.0103700616
 20
26.5005817504
 30
0.0
 11
34.9957270652
 21
26.5283902734
 31
0.0
  0
LINE
  5
278
330
1F
100
AcDbEntity
  8
0
  6
Continuous
 62
     7
370
    15
100
AcDbLine
 10
34.7201201476
 20
26.1767315526
 30
0.0
 11
35.0103700616
 21
26.5005817504
 31
0.0
  0
LINE
  5
279
330
1F
100
AcDbEntity
  8
0
  6
Continuous
 62
     7
370
    15
100
AcDbLine
 10
34.585323839
 20
26.1460476156
 30
0.0
 11
34.5706808685
 21
26.173856393
 31
0.0
  0
LINE
  5
27A
330
1F
100
AcDbEntity
  8
0
  6
Continuous
 62
     7
370
    15
100
AcDbLine
 10
34.7201201476
 20
26.1767315526
 30
0.0
 11
34.585323839
 21
26.1460476156
 31
0.0
  0
LINE
  5
27B
330
1F
100
AcDbEntity
  8
0
  6
Continuous
 62
     7
370
    15
100
AcDbLine
 10
33.9484268298
 20
26.5330760033
 30
0.0
 11
33.9630698003
 21
26.5052672259
 31
0.0
  0
LINE
  5
27C
330
1F
100
AcDbEntity
  8
0
  6
Continuous
 62
     7
370
    15
100
AcDbLine
 10
33.9630698003
 20
26.5052672259
 30
0.0
 11
34.585323839
 21
26.1460476156
 31
0.0
  0
LINE
  5
27D
330
1F
100
AcDbEntity
  8
0
  6
Continuous
 62
     7
370
    15
100
AcDbLine
 10
34.9978289371
 20
26.6241416735
 30
0.0
 11
35.0037450002
 21
26.6129064767
 31
0.0
  0
LINE
  5
27E
330
1F
100
AcDbEntity
  8
0
  6
Continuous
 62
     7
370
    15
100
AcDbLine
 10
35.0037450002
 20
26.6129064767
 30
0.0
 11
35.0103700616
 21
26.5005817504
 31
0.0
  0
LINE
  5
27F
330
1F
100
AcDbEntity
  8
0
  6
Continuous
 62
     7
370
    15
100
AcDbLine
 10
34.4410276888
 20
26.5417304315
 30
0.0
 11
34.4263847183
 21
26.5695389694
 31
0.0
  0
ARC
  5
280
330
1F
100
AcDbEntity
  8
0
  6
Continuous
 62
     7
370
    15
100
AcDbCircle
 10
34.4978277886
 20
26.4835689116
 30
0.0
 40
0.081295840773756
100
AcDbArc
 50
134.3215129258
 51
190.17309604
  0
LINE
  5
281
330
1F
100
AcDbEntity
  8
0
  6
Continuous
 62
     7
370
    15
100
AcDbLine
 10
34.5051133513
 20
26.6132347856
 30
0.0
 11
34.4904703549
 21
26.6410433085
 31
0.0
  0
ARC
  5
282
330
1F
100
AcDbEntity
  8
0
  6
Continuous
 62
     7
370
    15
100
AcDbCircle
 10
34.5890387875
 20
26.5509237121
 30
0.0
 40
0.1045282197311617
100
AcDbArc
 50
50.7958394709
 51
143.4076815786
  0
LINE
  5
283
330
1F
100
AcDbEntity
  8
0
  6
Continuous
 62
     7
370
    15
100
AcDbLine
 10
34.4410276888
 20
26.5417304315
 30
0.0
 11
34.5051133513
 21
26.6132347856
 31
0.0
  0
LWPOLYLINE
  5
284
330
1F
100
AcDbEntity
  8
0
  6
Continuous
 62
     7
370
    15
100
AcDbPolyline
 90
        9
 70
   128
 43
0.0
 10
33.8836003048
 20
26.5178534126
 10
33.8853492381
 20
26.5028483007
 10
33.8904865251
 20
26.4908018571
 10
33.8986904859
 20
26.4824684798
 10
33.9094474135
 20
26.4783702774
 10
33.9220837434
 20
26.478763665
 10
33.935808229
 20
26.4836239525
 10
33.9497614843
 20
26.492646879
 10
33.9630698003
 20
26.5052672259
  0
ARC
  5
285
330
1F
100
AcDbEntity
  8
0
  6
Continuous
 62
     7
370
    15
100
AcDbCircle
 10
33.1824347575
 20
26.9397244312
 30
0.0
 40
0.0380526524178538
100
AcDbArc
 50
172.9017640343
 51
235.7861678157
  0
LWPOLYLINE
  5
286
330
1F
100
AcDbEntity
  8
0
  6
Continuous
 62
     7
370
    15
100
AcDbPolyline
 90
        9
 70
   128
 43
0.0
 10
33.9182485383
 20
26.5378554121
 10
33.9189126896
 20
26.532157271
 10
33.9208635564
 20
26.5275827652
 10
33.9239789839
 20
26.5244182549
 10
33.9280638947
 20
26.5228617762
 10
33.9328624998
 20
26.5230111693
 10
33.9380743286
 20
26.524856805
 10
33.9433730387
 20
26.5282833421
 10
33.9484268298
 20
26.5330760033
  0
LINE
  5
287
330
1F
100
AcDbEntity
  8
0
  6
Continuous
 62
     8
370
    15
100
AcDbLine
 10
39.0000793989
 20
23.5158230375
 30
0.0
 11
33.9449544465
 21
26.4340845555
 31
0.0
  0
LINE
  5
288
330
1F
100
AcDbEntity
  8
0
  6
Continuous
 62
     8
370
    15
100
AcDbLine
 10
33.1163895231
 20
26.9269487809
 30
0.0
 11
33.1446826693
 21
26.9432820665
 31
0.0
  0
LINE
  5
289
330
1F
100
AcDbEntity
  8
0
  6
Continuous
 62
     8
370
    15
100
AcDbLine
 10
39.7631931587
 20
23.1562930322
 30
0.0
 11
39.734908886
 21
23.1399648691
 31
0.0
  0
LINE
  5
28A
330
1F
100
AcDbEntity
  8
0
  6
Continuous
 62
     8
370
    15
100
AcDbLine
 10
33.9484268298
 20
26.5330760033
 30
0.0
 11
33.9182484833
 21
26.550497592
 31
0.0
  0
MTEXT
  5
28B
330
1F
100
AcDbEntity
  8
DEFAULT
 62
     7
100
AcDbMText
 10
35.2305424582
 20
22.1995462437
 30
0.0
 40
0.5
 41
0.0
 71
     1
 72
     1
  1
ISO
  7
SLDTEXTSTYLE0
 73
     1
 44
1.0
  0
ENDSEC
  0
SECTION
  2
OBJECTS
  0
DICTIONARY
  5
C
330
0
100
AcDbDictionary
281
     1
  3
ACAD_GROUP
350
D
  3
ACAD_LAYOUT
350
1A
  3
ACAD_MLINESTYLE
350
17
  3
ACAD_PLOTSETTINGS
350
19
  3
ACAD_PLOTSTYLENAME
350
E
  0
DICTIONARY
  5
D
102
{ACAD_REACTORS
330
C
102
}
330
C
100
AcDbDictionary
281
     1
  0
DICTIONARY
  5
1A
102
{ACAD_REACTORS
330
C
102
}
330
C
100
AcDbDictionary
281
     1
  3
Layout1
350
1E
  3
Layout2
350
26
  3
Model
350
22
  0
DICTIONARY
  5
17
102
{ACAD_REACTORS
330
C
102
}
330
C
100
AcDbDictionary
281
     1
  3
Standard
350
18
  0
DICTIONARY
  5
19
102
{ACAD_REACTORS
330
C
102
}
330
C
100
AcDbDictionary
281
     1
  0
ACDBDICTIONARYWDFLT
  5
E
102
{ACAD_REACTORS
330
C
102
}
330
C
100
AcDbDictionary
281
     1
  3
Normal
350
F
100
AcDbDictionaryWithDefault
340
F
  0
LAYOUT
  5
1E
102
{ACAD_REACTORS
330
1A
102
}
330
1A
100
AcDbPlotSettings
  1

  2
none_device
  4

  6

 40
0.0
 41
0.0
 42
0.0
 43
0.0
 44
0.0
 45
0.0
 46
0.0
 47
0.0
 48
0.0
 49
0.0
140
0.0
141
0.0
142
1.0
143
1.0
 70
   688
 72
     0
 73
     0
 74
     5
  7

 75
    16
147
1.0
148
0.0
149
0.0
100
AcDbLayout
  1
Layout1
 70
     1
 71
     1
 10
0.0
 20
0.0
 11
12.0
 21
9.0
 12
0.0
 22
0.0
 32
0.0
 14
1.0000000000E+20
 24
1.0000000000E+20
 34
1.0000000000E+20
 15
-1.0000000000E+20
 25
-1.0000000000E+20
 35
-1.0000000000E+20
146
0.0
 13
0.0
 23
0.0
 33
0.0
 16
1.0
 26
0.0
 36
0.0
 17
0.0
 27
1.0
 37
0.0
 76
     0
330
1B
  0
LAYOUT
  5
26
102
{ACAD_REACTORS
330
1A
102
}
330
1A
100
AcDbPlotSettings
  1

  2
none_device
  4

  6

 40
0.0
 41
0.0
 42
0.0
 43
0.0
 44
0.0
 45
0.0
 46
0.0
 47
0.0
 48
0.0
 49
0.0
140
0.0
141
0.0
142
1.0
143
1.0
 70
   688
 72
     0
 73
     0
 74
     5
  7

 75
    16
147
1.0
148
0.0
149
0.0
100
AcDbLayout
  1
Layout2
 70
     1
 71
     2
 10
0.0
 20
0.0
 11
0.0
 21
0.0
 12
0.0
 22
0.0
 32
0.0
 14
0.0
 24
0.0
 34
0.0
 15
0.0
 25
0.0
 35
0.0
146
0.0
 13
0.0
 23
0.0
 33
0.0
 16
1.0
 26
0.0
 36
0.0
 17
0.0
 27
1.0
 37
0.0
 76
     0
330
23
  0
LAYOUT
  5
22
102
{ACAD_REACTORS
330
1A
102
}
330
1A
100
AcDbPlotSettings
  1

  2
none_device
  4

  6

 40
0.0
 41
0.0
 42
0.0
 43
0.0
 44
0.0
 45
0.0
 46
0.0
 47
0.0
 48
0.0
 49
0.0
140
0.0
141
0.0
142
1.0
143
1.0
 70
  1712
 72
     0
 73
     0
 74
     0
  7

 75
     0
147
1.0
148
0.0
149
0.0
100
AcDbLayout
  1
Model
 70
     1
 71
     0
 10
0.0
 20
0.0
 11
44.0
 21
34.0
 12
0.0
 22
0.0
 32
0.0
 14
0.0
 24
0.0
 34
0.0
 15
44.0
 25
34.0
 35
0.0
146
0.0
 13
0.0
 23
0.0
 33
0.0
 16
1.0
 26
0.0
 36
0.0
 17
0.0
 27
1.0
 37
0.0
 76
     0
330
1F
331
29
  0
MLINESTYLE
  5
18
102
{ACAD_REACTORS
330
17
102
}
330
17
100
AcDbMlineStyle
  2
Standard
 70
     0
  3

 62
   256
 51
90.0
 52
90.0
 71
     2
 49
0.5
 62
   256
  6
BYLAYER
 49
-0.5
 62
   256
  6
BYLAYER
  0
ACDBPLACEHOLDER
  5
F
102
{ACAD_REACTORS
330
E
102
}
330
E
  0
ENDSEC
  0
EOF
