  0
SECTION
  2
HEADER
  9
$ACADVER
  1
AC1015
  9
$ACADMAINTVER
 70
     6
  9
$DWGCODEPAGE
  3
ANSI_1252
  9
$INSBASE
 10
0.0
 20
0.0
 30
0.0
  9
$EXTMIN
 10
0.0
 20
0.0
 30
0.0
  9
$EXTMAX
 10
10.999978
 20
8.499983
 30
0.0
  9
$LIMMIN
 10
0.0
 20
0.0
  9
$LIMMAX
 10
10.999978
 20
8.499983
  9
$ORTHOMODE
 70
     0
  9
$REGENMODE
 70
     1
  9
$FILLMODE
 70
     1
  9
$QTEXTMODE
 70
     0
  9
$MIRRTEXT
 70
     1
  9
$LTSCALE
 40
1.0
  9
$ATTMODE
 70
     1
  9
$TEXTSIZE
 40
0.2
  9
$TRACEWID
 40
0.05
  9
$TEXTSTYLE
  7
Standard
  9
$CLAYER
  8
0
  9
$CELTYPE
  6
ByLayer
  9
$CECOLOR
 62
   256
  9
$CELTSCALE
 40
1.0
  9
$DISPSILH
 70
     0
  9
$DIMSCALE
 40
1.0
  9
$DIMASZ
 40
0.18
  9
$DIMEXO
 40
0.0625
  9
$DIMDLI
 40
0.38
  9
$DIMRND
 40
0.0
  9
$DIMDLE
 40
0.0
  9
$DIMEXE
 40
0.18
  9
$DIMTP
 40
0.0
  9
$DIMTM
 40
0.0
  9
$DIMTXT
 40
0.18
  9
$DIMCEN
 40
0.09
  9
$DIMTSZ
 40
0.0
  9
$DIMTOL
 70
     0
  9
$DIMLIM
 70
     0
  9
$DIMTIH
 70
     1
  9
$DIMTOH
 70
     1
  9
$DIMSE1
 70
     0
  9
$DIMSE2
 70
     0
  9
$DIMTAD
 70
     0
  9
$DIMZIN
 70
     0
  9
$DIMBLK
  1

  9
$DIMASO
 70
     1
  9
$DIMSHO
 70
     1
  9
$DIMPOST
  1

  9
$DIMAPOST
  1

  9
$DIMALT
 70
     0
  9
$DIMALTD
 70
     2
  9
$DIMALTF
 40
25.4
  9
$DIMLFAC
 40
1.0
  9
$DIMTOFL
 70
     0
  9
$DIMTVP
 40
0.0
  9
$DIMTIX
 70
     0
  9
$DIMSOXD
 70
     0
  9
$DIMSAH
 70
     0
  9
$DIMBLK1
  1

  9
$DIMBLK2
  1

  9
$DIMSTYLE
  2
Standard
  9
$DIMCLRD
 70
     0
  9
$DIMCLRE
 70
     0
  9
$DIMCLRT
 70
     0
  9
$DIMTFAC
 40
1.0
  9
$DIMGAP
 40
0.09
  9
$DIMJUST
 70
     0
  9
$DIMSD1
 70
     0
  9
$DIMSD2
 70
     0
  9
$DIMTOLJ
 70
     1
  9
$DIMTZIN
 70
     0
  9
$DIMALTZ
 70
     0
  9
$DIMALTTZ
 70
     0
  9
$DIMUPT
 70
     0
  9
$DIMDEC
 70
     4
  9
$DIMTDEC
 70
     4
  9
$DIMALTU
 70
     2
  9
$DIMALTTD
 70
     2
  9
$DIMTXSTY
  7
Standard
  9
$DIMAUNIT
 70
     0
  9
$DIMADEC
 70
     0
  9
$DIMALTRND
 40
0.0
  9
$DIMAZIN
 70
     0
  9
$DIMDSEP
 70
    46
  9
$DIMATFIT
 70
     3
  9
$DIMFRAC
 70
     0
  9
$DIMLDRBLK
  1

  9
$DIMLUNIT
 70
     2
  9
$DIMLWD
 70
    -2
  9
$DIMLWE
 70
    -2
  9
$DIMTMOVE
 70
     0
  9
$LUNITS
 70
     2
  9
$LUPREC
 70
     4
  9
$SKETCHINC
 40
0.1
  9
$FILLETRAD
 40
0.5
  9
$AUNITS
 70
     0
  9
$AUPREC
 70
     0
  9
$MENU
  1
.
  9
$ELEVATION
 40
0.0
  9
$PELEVATION
 40
0.0
  9
$THICKNESS
 40
0.0
  9
$LIMCHECK
 70
     0
  9
$CHAMFERA
 40
0.5
  9
$CHAMFERB
 40
0.5
  9
$CHAMFERC
 40
1.0
  9
$CHAMFERD
 40
0.0
  9
$SKPOLY
 70
     0
  9
$TDCREATE
 40
2454594.650339792
  9
$TDUCREATE
 40
2454594.817006459
  9
$TDUPDATE
 40
2454594.650339803
  9
$TDUUPDATE
 40
2454594.81700647
  9
$TDINDWG
 40
0.0000000116
  9
$TDUSRTIMER
 40
0.0000000116
  9
$USRTIMER
 70
     1
  9
$ANGBASE
 50
0.0
  9
$ANGDIR
 70
     0
  9
$PDMODE
 70
     0
  9
$PDSIZE
 40
0.0
  9
$PLINEWID
 40
0.0
  9
$SPLFRAME
 70
     0
  9
$SPLINETYPE
 70
     6
  9
$SPLINESEGS
 70
     8
  9
$HANDSEED
  5
12E
  9
$SURFTAB1
 70
     6
  9
$SURFTAB2
 70
     6
  9
$SURFTYPE
 70
     6
  9
$SURFU
 70
     6
  9
$SURFV
 70
     6
  9
$UCSBASE
  2

  9
$UCSNAME
  2

  9
$UCSORG
 10
0.0
 20
0.0
 30
0.0
  9
$UCSXDIR
 10
1.0
 20
0.0
 30
0.0
  9
$UCSYDIR
 10
0.0
 20
1.0
 30
0.0
  9
$UCSORTHOREF
  2

  9
$UCSORTHOVIEW
 70
     0
  9
$UCSORGTOP
 10
0.0
 20
0.0
 30
0.0
  9
$UCSORGBOTTOM
 10
0.0
 20
0.0
 30
0.0
  9
$UCSORGLEFT
 10
0.0
 20
0.0
 30
0.0
  9
$UCSORGRIGHT
 10
0.0
 20
0.0
 30
0.0
  9
$UCSORGFRONT
 10
0.0
 20
0.0
 30
0.0
  9
$UCSORGBACK
 10
0.0
 20
0.0
 30
0.0
  9
$PUCSBASE
  2

  9
$PUCSNAME
  2

  9
$PUCSORG
 10
0.0
 20
0.0
 30
0.0
  9
$PUCSXDIR
 10
1.0
 20
0.0
 30
0.0
  9
$PUCSYDIR
 10
0.0
 20
1.0
 30
0.0
  9
$PUCSORTHOREF
  2

  9
$PUCSORTHOVIEW
 70
     0
  9
$PUCSORGTOP
 10
0.0
 20
0.0
 30
0.0
  9
$PUCSORGBOTTOM
 10
0.0
 20
0.0
 30
0.0
  9
$PUCSORGLEFT
 10
0.0
 20
0.0
 30
0.0
  9
$PUCSORGRIGHT
 10
0.0
 20
0.0
 30
0.0
  9
$PUCSORGFRONT
 10
0.0
 20
0.0
 30
0.0
  9
$PUCSORGBACK
 10
0.0
 20
0.0
 30
0.0
  9
$USERI1
 70
     0
  9
$USERI2
 70
     0
  9
$USERI3
 70
     0
  9
$USERI4
 70
     0
  9
$USERI5
 70
     0
  9
$USERR1
 40
0.0
  9
$USERR2
 40
0.0
  9
$USERR3
 40
0.0
  9
$USERR4
 40
0.0
  9
$USERR5
 40
0.0
  9
$WORLDVIEW
 70
     1
  9
$SHADEDGE
 70
     3
  9
$SHADEDIF
 70
    70
  9
$TILEMODE
 70
     1
  9
$MAXACTVP
 70
    64
  9
$PINSBASE
 10
0.0
 20
0.0
 30
0.0
  9
$PLIMCHECK
 70
     0
  9
$PEXTMIN
 10
0.0
 20
0.0
 30
0.0
  9
$PEXTMAX
 10
10.999978
 20
8.499983
 30
0.0
  9
$PLIMMIN
 10
0.0
 20
0.0
  9
$PLIMMAX
 10
10.999978
 20
8.499983
  9
$UNITMODE
 70
     0
  9
$VISRETAIN
 70
     1
  9
$PLINEGEN
 70
     0
  9
$PSLTSCALE
 70
     1
  9
$TREEDEPTH
 70
  3020
  9
$CMLSTYLE
  2
Standard
  9
$CMLJUST
 70
     0
  9
$CMLSCALE
 40
1.0
  9
$PROXYGRAPHICS
 70
     1
  9
$MEASUREMENT
 70
     0
  9
$CELWEIGHT
370
    -1
  9
$ENDCAPS
280
     0
  9
$JOINSTYLE
280
     0
  9
$LWDISPLAY
290
     0
  9
$INSUNITS
 70
     1
  9
$HYPERLINKBASE
  1

  9
$STYLESHEET
  1

  9
$XEDIT
290
     1
  9
$CEPSNTYPE
380
     0
  9
$PSTYLEMODE
290
     1
  9
$FINGERPRINTGUID
  2
{4A9AF35C-641E-44A4-BA36-FE2738B9B0F2}
  9
$VERSIONGUID
  2
{FAEB1C32-E019-11D5-929B-00C0DF256EC4}
  9
$EXTNAMES
290
     1
  9
$PSVPSCALE
 40
0.0
  9
$OLESTARTUP
290
     0
  0
ENDSEC
  0
SECTION
  2
CLASSES
  0
CLASS
  1
ACDBDICTIONARYWDFLT
  2
AcDbDictionaryWithDefault
  3
ObjectDBX Classes
 90
        0
280
     0
281
     0
  0
CLASS
  1
ACDBPLACEHOLDER
  2
AcDbPlaceHolder
  3
ObjectDBX Classes
 90
        0
280
     0
281
     0
  0
CLASS
  1
LAYOUT
  2
AcDbLayout
  3
ObjectDBX Classes
 90
        0
280
     0
281
     0
  0
ENDSEC
  0
SECTION
  2
TABLES
  0
TABLE
  2
VPORT
  5
8
330
0
100
AcDbSymbolTable
 70
     1
  0
VPORT
  5
29
330
8
100
AcDbSymbolTableRecord
100
AcDbViewportTableRecord
  2
*Active
 70
     0
 10
0.0
 20
0.0
 11
1.0
 21
1.0
 12
10.4299065421
 22
4.5
 13
0.0
 23
0.0
 14
0.5
 24
0.5
 15
0.5
 25
0.5
 16
0.0
 26
0.0
 36
1.0
 17
0.0
 27
0.0
 37
0.0
 40
9.0
 41
1.9729729729
 42
50.0
 43
0.0
 44
0.0
 50
0.0
 51
0.0
 71
     0
 72
   100
 73
     1
 74
     3
 75
     0
 76
     0
 77
     0
 78
     0
281
     0
 65
     1
110
0.0
120
0.0
130
0.0
111
1.0
121
0.0
131
0.0
112
0.0
122
1.0
132
0.0
 79
     0
146
0.0
  0
ENDTAB
  0
TABLE
  2
LTYPE
  5
5
330
0
100
AcDbSymbolTable
 70
     1
  0
LTYPE
  5
14
330
5
100
AcDbSymbolTableRecord
100
AcDbLinetypeTableRecord
  2
ByBlock
 70
     0
  3

 72
    65
 73
     0
 40
0.0
  0
LTYPE
  5
15
330
5
100
AcDbSymbolTableRecord
100
AcDbLinetypeTableRecord
  2
ByLayer
 70
     0
  3

 72
    65
 73
     0
 40
0.0
  0
LTYPE
  5
16
330
5
100
AcDbSymbolTableRecord
100
AcDbLinetypeTableRecord
  2
Continuous
 70
     0
  3
Solid line
 72
    65
 73
     0
 40
0.0
  0
ENDTAB
  0
TABLE
  2
LAYER
  5
2
330
0
100
AcDbSymbolTable
 70
     3
  0
LAYER
  5
10
330
2
100
AcDbSymbolTableRecord
100
AcDbLayerTableRecord
  2
0
 70
     0
 62
     7
  6
Continuous
370
    -3
390
F
  0
LAYER
  5
2A
330
2
100
AcDbSymbolTableRecord
100
AcDbLayerTableRecord
  2
Default
 70
     0
 62
     7
  6
Continuous
370
    -3
390
F
  0
LAYER
  5
2D
330
2
100
AcDbSymbolTableRecord
100
AcDbLayerTableRecord
  2
1006585_1GANG_MA
 70
     0
 62
     7
  6
Continuous
370
    -3
390
F
  0
ENDTAB
  0
TABLE
  2
STYLE
  5
3
330
0
100
AcDbSymbolTable
 70
     2
  0
STYLE
  5
11
330
3
100
AcDbSymbolTableRecord
100
AcDbTextStyleTableRecord
  2
Standard
 70
     0
 40
0.0
 41
1.0
 50
0.0
 71
     0
 42
0.2
  3
txt
  4

  0
STYLE
  5
10D
330
3
100
AcDbSymbolTableRecord
100
AcDbTextStyleTableRecord
  2
SEACAD_arial_ttf
 70
     0
 40
0.0
 41
1.0
 50
0.0
 71
     0
 42
0.2
  3
arial.ttf
  4

  0
ENDTAB
  0
TABLE
  2
VIEW
  5
6
330
0
100
AcDbSymbolTable
 70
     0
  0
ENDTAB
  0
TABLE
  2
UCS
  5
7
330
0
100
AcDbSymbolTable
 70
     0
  0
ENDTAB
  0
TABLE
  2
APPID
  5
9
330
0
100
AcDbSymbolTable
 70
     1
  0
APPID
  5
12
330
9
100
AcDbSymbolTableRecord
100
AcDbRegAppTableRecord
  2
ACAD
 70
     0
  0
ENDTAB
  0
TABLE
  2
DIMSTYLE
  5
A
330
0
100
AcDbSymbolTable
 70
     2
100
AcDbDimStyleTable
  0
DIMSTYLE
105
27
330
A
100
AcDbSymbolTableRecord
100
AcDbDimStyleTableRecord
  2
Standard
 70
     0
340
11
  0
DIMSTYLE
105
10E
102
{ACAD_REACTORS
330
118
330
123
102
}
330
A
100
AcDbSymbolTableRecord
100
AcDbDimStyleTableRecord
  2
Fraction
 70
     0
 41
0.1
 42
0.05
 44
0.05
 78
     4
140
0.1
141
0.05
147
0.05
173
     1
176
     7
177
     7
178
     7
277
     5
284
     4
340
10D
343
108
344
108
  0
ENDTAB
  0
TABLE
  2
BLOCK_RECORD
  5
1
330
0
100
AcDbSymbolTable
 70
     8
  0
BLOCK_RECORD
  5
1F
330
1
100
AcDbSymbolTableRecord
100
AcDbBlockTableRecord
  2
*Model_Space
340
22
  0
BLOCK_RECORD
  5
1B
330
1
100
AcDbSymbolTableRecord
100
AcDbBlockTableRecord
  2
*Paper_Space
340
1E
  0
BLOCK_RECORD
  5
2B
330
1
100
AcDbSymbolTableRecord
100
AcDbBlockTableRecord
  2
SE
340
0
102
{BLKREFS
331
2C
102
}
  0
BLOCK_RECORD
  5
6D
330
1
100
AcDbSymbolTableRecord
100
AcDbBlockTableRecord
  2
SE1
340
0
102
{BLKREFS
331
6E
102
}
  0
BLOCK_RECORD
  5
108
330
1
100
AcDbSymbolTableRecord
100
AcDbBlockTableRecord
  2
_SE_FILLED
340
0
  0
BLOCK_RECORD
  5
10F
330
1
100
AcDbSymbolTableRecord
100
AcDbBlockTableRecord
  2
_Oblique
340
0
  0
BLOCK_RECORD
  5
113
330
1
100
AcDbSymbolTableRecord
100
AcDbBlockTableRecord
  2
_Dot
340
0
  0
BLOCK_RECORD
  5
119
330
1
100
AcDbSymbolTableRecord
100
AcDbBlockTableRecord
  2
DMBLK7
340
0
  0
BLOCK_RECORD
  5
124
330
1
100
AcDbSymbolTableRecord
100
AcDbBlockTableRecord
  2
DMBLK8
340
0
  0
ENDTAB
  0
ENDSEC
  0
SECTION
  2
BLOCKS
  0
BLOCK
  5
20
330
1F
100
AcDbEntity
  8
0
100
AcDbBlockBegin
  2
*Model_Space
 70
     0
 71
     0
 10
0.0
 20
0.0
 30
0.0
  3
*Model_Space
  1

  0
ENDBLK
  5
21
330
1F
100
AcDbEntity
  8
0
100
AcDbBlockEnd
  0
BLOCK
  5
1C
330
1B
100
AcDbEntity
 67
     1
  8
0
100
AcDbBlockBegin
  2
*Paper_Space
 70
     0
 71
     0
 10
0.0
 20
0.0
 30
0.0
  3
*Paper_Space
  1

  0
ENDBLK
  5
1D
330
1B
100
AcDbEntity
 67
     1
  8
0
100
AcDbBlockEnd
  0
BLOCK
  5
6B
330
2B
100
AcDbEntity
  8
0
100
AcDbBlockBegin
  2
SE
 70
     0
 71
     0
 10
0.0
 20
0.0
 30
0.0
  3
SE
  1

  0
CIRCLE
  5
2E
330
2B
100
AcDbEntity
  8
1006585_1GANG_MA
  6
Continuous
 62
     7
100
AcDbCircle
 10
1.9299738521
 20
2.2857770215
 30
0.0
 40
0.0875
  0
CIRCLE
  5
2F
330
2B
100
AcDbEntity
  8
1006585_1GANG_MA
  6
Continuous
 62
     7
100
AcDbCircle
 10
1.9299738521
 20
5.5657770215
 30
0.0
 40
0.0875
  0
CIRCLE
  5
30
330
2B
100
AcDbEntity
  8
1006585_1GANG_MA
  6
Continuous
 62
     7
100
AcDbCircle
 10
4.1299738521
 20
5.5657770215
 30
0.0
 40
0.0875
  0
CIRCLE
  5
31
330
2B
100
AcDbEntity
  8
1006585_1GANG_MA
  6
Continuous
 62
     7
100
AcDbCircle
 10
4.1299738521
 20
2.2857770215
 30
0.0
 40
0.0875
  0
CIRCLE
  5
32
330
2B
100
AcDbEntity
  8
1006585_1GANG_MA
  6
Continuous
 62
     7
100
AcDbCircle
 10
1.5299738521
 20
3.5757770215
 30
0.0
 40
0.075
  0
CIRCLE
  5
33
330
2B
100
AcDbEntity
  8
1006585_1GANG_MA
  6
Continuous
 62
     7
100
AcDbCircle
 10
4.5299738521
 20
3.5757770215
 30
0.0
 40
0.075
  0
CIRCLE
  5
34
330
2B
100
AcDbEntity
  8
1006585_1GANG_MA
  6
Continuous
 62
     7
100
AcDbCircle
 10
4.5299738521
 20
4.2757770215
 30
0.0
 40
0.075
  0
CIRCLE
  5
35
330
2B
100
AcDbEntity
  8
1006585_1GANG_MA
  6
Continuous
 62
     7
100
AcDbCircle
 10
1.5299738521
 20
4.2757770215
 30
0.0
 40
0.075
  0
CIRCLE
  5
36
330
2B
100
AcDbEntity
  8
1006585_1GANG_MA
  6
Continuous
 62
     7
100
AcDbCircle
 10
1.5299738521
 20
2.8757770215
 30
0.0
 40
0.075
  0
CIRCLE
  5
37
330
2B
100
AcDbEntity
  8
1006585_1GANG_MA
  6
Continuous
 62
     7
100
AcDbCircle
 10
1.5299738521
 20
4.9757770215
 30
0.0
 40
0.075
  0
CIRCLE
  5
38
330
2B
100
AcDbEntity
  8
1006585_1GANG_MA
  6
Continuous
 62
     7
100
AcDbCircle
 10
4.5299738521
 20
2.8757770215
 30
0.0
 40
0.075
  0
CIRCLE
  5
39
330
2B
100
AcDbEntity
  8
1006585_1GANG_MA
  6
Continuous
 62
     7
100
AcDbCircle
 10
4.5299738521
 20
4.9757770215
 30
0.0
 40
0.075
  0
LINE
  5
3A
330
2B
100
AcDbEntity
  8
1006585_1GANG_MA
  6
Continuous
 62
     7
100
AcDbLine
 10
1.6624738521
 20
2.5257770215
 30
0.0
 11
4.3974738521
 21
2.5257770215
 31
0.0
  0
LINE
  5
3B
330
2B
100
AcDbEntity
  8
1006585_1GANG_MA
  6
Continuous
 62
     7
100
AcDbLine
 10
4.3974738521
 20
2.5257770215
 30
0.0
 11
4.3974738521
 21
5.3257770215
 31
0.0
  0
LINE
  5
3C
330
2B
100
AcDbEntity
  8
1006585_1GANG_MA
  6
Continuous
 62
     7
100
AcDbLine
 10
4.3974738521
 20
5.3257770215
 30
0.0
 11
1.6624738521
 21
5.3257770215
 31
0.0
  0
LINE
  5
3D
330
2B
100
AcDbEntity
  8
1006585_1GANG_MA
  6
Continuous
 62
     7
100
AcDbLine
 10
1.6624738521
 20
5.3257770215
 30
0.0
 11
1.6624738521
 21
2.5257770215
 31
0.0
  0
LINE
  5
3E
330
2B
100
AcDbEntity
  8
1006585_1GANG_MA
  6
Continuous
 62
     7
100
AcDbLine
 10
5.2299738521
 20
2.2382770215
 30
0.0
 11
5.2299738521
 21
5.6132770215
 31
0.0
  0
LINE
  5
3F
330
2B
100
AcDbEntity
  8
1006585_1GANG_MA
  6
Continuous
 62
     7
100
AcDbLine
 10
1.2049738521
 20
1.8632770215
 30
0.0
 11
4.8549738521
 21
1.8632770215
 31
0.0
  0
LINE
  5
40
330
2B
100
AcDbEntity
  8
1006585_1GANG_MA
  6
Continuous
 62
     7
100
AcDbLine
 10
4.8549738521
 20
5.9882770215
 30
0.0
 11
1.2049738521
 21
5.9882770215
 31
0.0
  0
LINE
  5
41
330
2B
100
AcDbEntity
  8
1006585_1GANG_MA
  6
Continuous
 62
     7
100
AcDbLine
 10
0.8299738521
 20
5.6132770215
 30
0.0
 11
0.8299738521
 21
2.2382770215
 31
0.0
  0
LINE
  5
42
330
2B
100
AcDbEntity
  8
1006585_1GANG_MA
  6
Continuous
 62
     7
100
AcDbLine
 10
0.8299738521
 20
2.2382770215
 30
0.0
 11
1.2049738521
 21
1.8632770215
 31
0.0
  0
LINE
  5
43
330
2B
100
AcDbEntity
  8
1006585_1GANG_MA
  6
Continuous
 62
     7
100
AcDbLine
 10
1.2049738521
 20
5.9882770215
 30
0.0
 11
0.8299738521
 21
5.6132770215
 31
0.0
  0
LINE
  5
44
330
2B
100
AcDbEntity
  8
1006585_1GANG_MA
  6
Continuous
 62
     7
100
AcDbLine
 10
5.2299738521
 20
5.6132770215
 30
0.0
 11
4.8549738521
 21
5.9882770215
 31
0.0
  0
LINE
  5
45
330
2B
100
AcDbEntity
  8
1006585_1GANG_MA
  6
Continuous
 62
     7
100
AcDbLine
 10
4.8549738521
 20
1.8632770215
 30
0.0
 11
5.2299738521
 21
2.2382770215
 31
0.0
  0
SPLINE
  5
46
330
2B
100
AcDbEntity
  8
1006585_1GANG_MA
  6
Continuous
 62
     7
100
AcDbSpline
210
0.0
220
0.0
230
1.0
 70
    11
 71
     3
 72
    27
 73
    23
 74
     0
 42
0.0000000491701755
 43
0.0000000001
 40
0.0
 40
0.0
 40
0.0
 40
0.0
 40
0.1659049182477912
 40
0.1659049182477912
 40
0.1659049182477912
 40
0.2501953104135883
 40
0.2501953104135883
 40
0.3334940509068461
 40
0.3334940509068461
 40
0.3334940509068461
 40
0.4991835971774387
 40
0.4991835971774387
 40
0.6655439513276695
 40
0.6655439513276695
 40
0.6655439513276695
 40
0.7498511330111907
 40
0.7498511330111907
 40
0.7498511330111907
 40
0.8285537239097139
 40
0.8285537239097139
 40
0.8285537239097139
 40
1.0
 40
1.0
 40
1.0
 40
1.0
 10
2.85360844244015
 20
2.013277021456493
 30
0.0
 10
2.85360844244015
 20
1.997152184005257
 30
0.0
 10
2.855494008109851
 20
1.986423965539718
 30
0.0
 10
2.859200119943401
 20
1.981157385565726
 30
0.0
 10
2.862958366683478
 20
1.975816719145616
 30
0.0
 10
2.867587636198278
 20
1.973225005851811
 30
0.0
 10
2.878575932687224
 20
1.973225005851811
 30
0.0
 10
2.883192317602699
 20
1.975890805591733
 30
0.0
 10
2.8869634489421
 20
1.981157385565726
 30
0.0
 10
2.890765357272786
 20
1.986466947199959
 30
0.0
 10
2.892620145951203
 20
1.997217203511109
 30
0.0
 10
2.892620145951203
 20
2.029401858907728
 30
0.0
 10
2.890734580281502
 20
2.040130077373268
 30
0.0
 10
2.8869634489421
 20
2.04539665734726
 30
0.0
 10
2.883183578457025
 20
2.050675441990209
 30
0.0
 10
2.878575932687224
 20
2.053329037061174
 30
0.0
 10
2.872984255183973
 20
2.053394056567026
 30
0.0
 10
2.867459100273704
 20
2.053458302554355
 30
0.0
 10
2.863036270788654
 20
2.050988334850511
 30
0.0
 10
2.859720275990215
 20
2.046371949935037
 30
0.0
 10
2.855491753442349
 20
2.040485183250752
 30
0.0
 10
2.85360844244015
 20
2.029336839401876
 30
0.0
 10
2.85360844244015
 20
2.013277021456493
 30
0.0
  0
SPLINE
  5
47
330
2B
100
AcDbEntity
  8
1006585_1GANG_MA
  6
Continuous
 62
     7
100
AcDbSpline
210
0.0
220
0.0
230
1.0
 70
    11
 71
     3
 72
    38
 73
    34
 74
     0
 42
0.0000000368159168
 43
0.0000000001
 40
0.0
 40
0.0
 40
0.0
 40
0.0
 40
0.1055989412516756
 40
0.1055989412516756
 40
0.1055989412516756
 40
0.1791618585201005
 40
0.1791618585201005
 40
0.1791618585201005
 40
0.2510178605276763
 40
0.2510178605276763
 40
0.3032767710786406
 40
0.3032767710786406
 40
0.3032767710786406
 40
0.3539682422751115
 40
0.3539682422751115
 40
0.3539682422751115
 40
0.4130293645210696
 40
0.4130293645210696
 40
0.4130293645210696
 40
0.5008223311933508
 40
0.5008223311933508
 40
0.6051133050255239
 40
0.6051133050255239
 40
0.6051133050255239
 40
0.6785658174314535
 40
0.6785658174314535
 40
0.6785658174314535
 40
0.749954980563362
 40
0.749954980563362
 40
0.8440588774190599
 40
0.8440588774190599
 40
0.8440588774190599
 40
1.0
 40
1.0
 40
1.0
 40
1.0
 10
2.841254736328316
 20
2.013277021456493
 30
0.0
 10
2.841254736328316
 20
2.024785473992254
 30
0.0
 10
2.842425087433647
 20
2.034148282834907
 30
0.0
 10
2.844830809150162
 20
2.041235408972747
 30
0.0
 10
2.847229813002262
 20
2.048302744645147
 30
0.0
 10
2.850747584182672
 20
2.053719154096285
 30
0.0
 10
2.855428988603999
 20
2.057555304941538
 30
0.0
 10
2.860078517334516
 20
2.061365335429045
 30
0.0
 10
2.865962148551983
 20
2.063277021456493
 30
0.0
 10
2.878315854663817
 20
2.063277021456493
 30
0.0
 10
2.882932239579291
 20
2.062236709362865
 30
0.0
 10
2.886898429436248
 20
2.060091065669757
 30
0.0
 10
2.890914918166651
 20
2.057918211110687
 30
0.0
 10
2.894180614091645
 20
2.054954524707468
 30
0.0
 10
2.896716374819864
 20
2.050923315344659
 30
0.0
 10
2.89922283132345
 20
2.046938692185111
 30
0.0
 10
2.901267740229487
 20
2.04208066254882
 30
0.0
 10
2.902763188864077
 20
2.036358946033866
 30
0.0
 10
2.904254479959854
 20
2.030653136623933
 30
0.0
 10
2.904973852063037
 20
2.022964927828404
 30
0.0
 10
2.904973852063037
 20
2.001768568920732
 30
0.0
 10
2.903803500957705
 20
1.992470779583931
 30
0.0
 10
2.90139777924119
 20
1.98538365344609
 30
0.0
 10
2.898998775389091
 20
1.97831631777369
 30
0.0
 10
2.895546023714532
 20
1.972834888816701
 30
0.0
 10
2.890864619293206
 20
1.969063757477299
 30
0.0
 10
2.886151450546138
 20
1.965267038208828
 30
0.0
 10
2.88026643983937
 20
1.963277021456493
 30
0.0
 10
2.863686465847172
 20
1.963277021456492
 30
0.0
 10
2.856274242180072
 20
1.966658035760784
 30
0.0
 10
2.850877623194376
 20
1.973355044863515
 30
0.0
 10
2.844340799591574
 20
1.981467006683859
 30
0.0
 10
2.841254736328316
 20
1.994876501300446
 30
0.0
 10
2.841254736328316
 20
2.013277021456493
 30
0.0
  0
SPLINE
  5
48
330
2B
100
AcDbEntity
  8
1006585_1GANG_MA
  6
Continuous
 62
     7
100
AcDbSpline
210
0.0
220
0.0
230
1.0
 70
    11
 71
     3
 72
    27
 73
    23
 74
     0
 42
0.000000049180022
 43
0.0000000001
 40
0.0
 40
0.0
 40
0.0
 40
0.0
 40
0.1660520995792141
 40
0.1660520995792141
 40
0.1660520995792141
 40
0.2497229164395806
 40
0.2497229164395806
 40
0.333393733299947
 40
0.333393733299947
 40
0.333393733299947
 40
0.4990342511100939
 40
0.4990342511100939
 40
0.6653453783040876
 40
0.6653453783040876
 40
0.6653453783040876
 40
0.7500204586940694
 40
0.7500204586940694
 40
0.7500204586940694
 40
0.8284560278373816
 40
0.8284560278373816
 40
0.8284560278373816
 40
1.0
 40
1.0
 40
1.0
 40
1.0
 10
2.929486205769148
 20
2.013277021456493
 30
0.0
 10
2.929486205769148
 20
1.997152184005257
 30
0.0
 10
2.93137177143885
 20
1.986423965539718
 30
0.0
 10
2.935142902778251
 20
1.981157385565726
 30
0.0
 10
2.938922773263326
 20
1.975878600922776
 30
0.0
 10
2.943465399527275
 20
1.973225005851811
 30
0.0
 10
2.954518715522074
 20
1.973225005851811
 30
0.0
 10
2.959135100437549
 20
1.975890805591733
 30
0.0
 10
2.962841212271099
 20
1.981157385565726
 30
0.0
 10
2.966599459011176
 20
1.986498051985835
 30
0.0
 10
2.968497909280202
 20
1.997217203511109
 30
0.0
 10
2.968497909280202
 20
2.029401858907728
 30
0.0
 10
2.966612343610501
 20
2.040130077373268
 30
0.0
 10
2.962906231776951
 20
2.04539665734726
 30
0.0
 10
2.959147985036874
 20
2.05073732376737
 30
0.0
 10
2.954453696016223
 20
2.053329037061174
 30
0.0
 10
2.948862018512972
 20
2.053394056567026
 30
0.0
 10
2.943336863602702
 20
2.053458302554355
 30
0.0
 10
2.938979053623505
 20
2.050988334850511
 30
0.0
 10
2.935663058825065
 20
2.046371949935037
 30
0.0
 10
2.931434536277199
 20
2.040485183250752
 30
0.0
 10
2.929486205769148
 20
2.029336839401876
 30
0.0
 10
2.929486205769148
 20
2.013277021456493
 30
0.0
  0
SPLINE
  5
49
330
2B
100
AcDbEntity
  8
1006585_1GANG_MA
  6
Continuous
 62
     7
100
AcDbSpline
210
0.0
220
0.0
230
1.0
 70
    11
 71
     3
 72
    36
 73
    32
 74
     0
 42
0.0000000368210194
 43
0.0000000001
 40
0.0
 40
0.0
 40
0.0
 40
0.0
 40
0.0895919022929795
 40
0.0895919022929795
 40
0.1791838045859594
 40
0.1791838045859594
 40
0.1791838045859594
 40
0.2505212467326733
 40
0.2505212467326733
 40
0.3035334743829838
 40
0.3035334743829838
 40
0.3035334743829838
 40
0.3540632581129297
 40
0.3540632581129297
 40
0.3540632581129297
 40
0.4328523552531159
 40
0.4328523552531159
 40
0.5116414523933025
 40
0.5116414523933025
 40
0.6052365543652017
 40
0.6052365543652017
 40
0.6052365543652017
 40
0.678697178286666
 40
0.678697178286666
 40
0.678697178286666
 40
0.7500133041033281
 40
0.7500133041033281
 40
0.8440209244980181
 40
0.8440209244980181
 40
0.8440209244980181
 40
1.0
 40
1.0
 40
1.0
 40
1.0
 10
2.917132499657315
 20
2.013277021456493
 30
0.0
 10
2.917132499657315
 20
2.024785473992254
 30
0.0
 10
2.918302850762646
 20
2.034148282834906
 30
0.0
 10
2.923114294195677
 20
2.048322535110589
 30
0.0
 10
2.926625347511671
 20
2.053719154096285
 30
0.0
 10
2.931306751932997
 20
2.057555304941538
 30
0.0
 10
2.935956280663515
 20
2.061365335429045
 30
0.0
 10
2.941904931386834
 20
2.063277021456493
 30
0.0
 10
2.954258637498667
 20
2.063277021456493
 30
0.0
 10
2.95881000290829
 20
2.062236709362865
 30
0.0
 10
2.962841212271099
 20
2.060091065669757
 30
0.0
 10
2.966821755714489
 20
2.057972389320856
 30
0.0
 10
2.970058377420644
 20
2.054954524707468
 30
0.0
 10
2.972594138148862
 20
2.050923315344659
 30
0.0
 10
2.975100594652449
 20
2.046938692185111
 30
0.0
 10
2.977145503558485
 20
2.04208066254882
 30
0.0
 10
2.980136400827666
 20
2.030637229518911
 30
0.0
 10
2.980851615392035
 20
2.022964927828404
 30
0.0
 10
2.980851615392035
 20
2.001768568920732
 30
0.0
 10
2.979681264286703
 20
1.992470779583931
 30
0.0
 10
2.977275542570189
 20
1.985383653446089
 30
0.0
 10
2.97487653871809
 20
1.97831631777369
 30
0.0
 10
2.97142378704353
 20
1.9728348888167
 30
0.0
 10
2.966742382622205
 20
1.969063757477299
 30
0.0
 10
2.962029213875137
 20
1.965267038208828
 30
0.0
 10
2.956144203168368
 20
1.963277021456493
 30
0.0
 10
2.93956422917617
 20
1.963277021456493
 30
0.0
 10
2.93215200550907
 20
1.966658035760784
 30
0.0
 10
2.926820406029226
 20
1.973355044863515
 30
0.0
 10
2.920331314548998
 20
1.981505976844777
 30
0.0
 10
2.917132499657315
 20
1.994876501300446
 30
0.0
 10
2.917132499657315
 20
2.013277021456493
 30
0.0
  0
SPLINE
  5
4A
330
2B
100
AcDbEntity
  8
1006585_1GANG_MA
  6
Continuous
 62
     7
100
AcDbSpline
210
0.0
220
0.0
230
1.0
 70
     8
 71
     3
 72
    36
 73
    32
 74
     0
 42
0.0000000320708165
 43
0.0000000001
 40
0.0
 40
0.0
 40
0.0
 40
0.0
 40
0.0462122140210965
 40
0.0462122140210965
 40
0.0924244280421931
 40
0.0924244280421931
 40
0.0924244280421931
 40
0.1735381598735861
 40
0.1735381598735861
 40
0.2546518917049795
 40
0.2546518917049795
 40
0.3076011333171388
 40
0.3076011333171388
 40
0.3076011333171388
 40
0.3720955031440953
 40
0.3720955031440953
 40
0.4365898729710523
 40
0.4365898729710523
 40
0.5450254618009917
 40
0.5450254618009917
 40
0.653461050630931
 40
0.653461050630931
 40
0.7743605002459207
 40
0.7743605002459207
 40
0.7743605002459207
 40
0.8649434422525404
 40
0.8649434422525404
 40
0.9331673036372725
 40
0.9331673036372725
 40
0.9331673036372725
 40
1.0
 40
1.0
 40
1.0
 40
1.0
 10
3.004453696016222
 20
2.015552704161304
 30
0.0
 10
3.0073145542737
 20
2.019909011053372
 30
0.0
 10
3.010890627095546
 20
2.023159986345959
 30
0.0
 10
3.019213123844571
 20
2.027451273732175
 30
0.0
 10
3.023569430736639
 20
2.028491585825803
 30
0.0
 10
3.028185815652113
 20
2.028556605331655
 30
0.0
 10
3.036180713129686
 20
2.02866920952148
 30
0.0
 10
3.043010262986313
 20
2.025565708062474
 30
0.0
 10
3.054193617992816
 20
2.013732157997455
 30
0.0
 10
3.057054476250293
 20
2.0061248758128
 30
0.0
 10
3.057054476250293
 20
1.990650233420082
 30
0.0
 10
3.055689066627405
 20
1.984928516905127
 30
0.0
 10
3.053088286393336
 20
1.979661936931135
 30
0.0
 10
3.050448945393633
 20
1.974317271406738
 30
0.0
 10
3.046781394325715
 20
1.970299128088482
 30
0.0
 10
3.037548624494766
 20
1.964707450585232
 30
0.0
 10
3.032347064026626
 20
1.963277021456493
 30
0.0
 10
3.016482304598798
 20
1.963277021456493
 30
0.0
 10
3.008354866367328
 20
1.966983133290043
 30
0.0
 10
2.995741082232088
 20
1.981677541612539
 30
0.0
 10
2.992555126445351
 20
1.993836189206818
 30
0.0
 10
2.992555126445351
 20
2.029726956436988
 30
0.0
 10
2.996066179761346
 20
2.043446072171708
 30
0.0
 10
3.003023266887484
 20
2.052028646944139
 30
0.0
 10
3.009104483418134
 20
2.059530708458586
 30
0.0
 10
3.01732755817487
 20
2.063277021456493
 30
0.0
 10
3.035337961295807
 20
2.063277021456493
 30
0.0
 10
3.041579833857575
 20
2.061131377763385
 30
0.0
 10
3.046521316302309
 20
2.056775070871317
 30
0.0
 10
3.051430545525045
 20
2.052447197740746
 30
0.0
 10
3.054388676510371
 20
2.04650198894674
 30
0.0
 10
3.055363969098147
 20
2.038894706762084
 30
0.0
  0
LINE
  5
4B
330
2B
100
AcDbEntity
  8
1006585_1GANG_MA
  6
Continuous
 62
     7
100
AcDbLine
 10
3.0553639691
 20
2.0388947068
 30
0.0
 11
3.0434653995
 21
2.0379844337
 31
0.0
  0
SPLINE
  5
4C
330
2B
100
AcDbEntity
  8
1006585_1GANG_MA
  6
Continuous
 62
     7
100
AcDbSpline
210
0.0
220
0.0
230
1.0
 70
    11
 71
     3
 72
    29
 73
    25
 74
     0
 42
0.0000000742769234
 43
0.0000000001
 40
0.0
 40
0.0
 40
0.0
 40
0.0
 40
0.0901319887620742
 40
0.0901319887620742
 40
0.180263977524148
 40
0.180263977524148
 40
0.180263977524148
 40
0.2575743236273981
 40
0.2575743236273981
 40
0.3728104998945053
 40
0.3728104998945053
 40
0.3728104998945053
 40
0.5090858651538156
 40
0.5090858651538156
 40
0.6403139946627808
 40
0.6403139946627808
 40
0.6403139946627808
 40
0.7560896290240547
 40
0.7560896290240547
 40
0.7560896290240547
 40
0.8726743803193201
 40
0.8726743803193201
 40
0.8726743803193201
 40
1.0
 40
1.0
 40
1.0
 40
1.0
 10
3.006469300697627
 20
1.996697047464295
 30
0.0
 10
3.006469300697627
 20
1.992535799089783
 30
0.0
 10
3.0073145542737
 20
1.988569609232825
 30
0.0
 10
3.010825607589694
 20
1.981027346554022
 30
0.0
 10
3.01323132930621
 20
1.978166488296545
 30
0.0
 10
3.016352265587094
 20
1.97615088361514
 30
0.0
 10
3.019443569701146
 20
1.974154416374815
 30
0.0
 10
3.022789196666417
 20
1.973225005851811
 30
0.0
 10
3.031371771438849
 20
1.973225005851811
 30
0.0
 10
3.035663058825065
 20
1.975240610533216
 30
0.0
 10
3.039304151152764
 20
1.979336839401876
 30
0.0
 10
3.04291654521581
 20
1.983400782722803
 30
0.0
 10
3.044700770138459
 20
1.989024745773788
 30
0.0
 10
3.044700770138459
 20
2.00280888101436
 30
0.0
 10
3.042945243480462
 20
2.008140480494204
 30
0.0
 10
3.039369170658615
 20
2.012041650845309
 30
0.0
 10
3.035825484911381
 20
2.015907489842292
 30
0.0
 10
3.031306751932998
 20
2.017828386866116
 30
0.0
 10
3.025780093935599
 20
2.017893406371967
 30
0.0
 10
3.020384986612923
 20
2.017956878222822
 30
0.0
 10
3.01583210954028
 20
2.015877801690563
 30
0.0
 10
3.012060978200878
 20
2.01204165084531
 30
0.0
 10
3.008289295929213
 20
2.008204939568961
 30
0.0
 10
3.006469300697627
 20
2.003003939531915
 30
0.0
 10
3.006469300697627
 20
1.996697047464295
 30
0.0
  0
SPLINE
  5
4D
330
2B
100
AcDbEntity
  8
1006585_1GANG_MA
  6
Continuous
 62
     7
100
AcDbSpline
210
0.0
220
0.0
230
1.0
 70
     8
 71
     3
 72
    20
 73
    16
 74
     0
 42
0.0000001337331896
 43
0.0000000001
 40
0.0
 40
0.0
 40
0.0
 40
0.0
 40
0.1539657833075846
 40
0.1539657833075846
 40
0.1539657833075846
 40
0.3367346576572164
 40
0.3367346576572164
 40
0.3367346576572164
 40
0.4838013840720933
 40
0.4838013840720933
 40
0.4838013840720933
 40
0.6888589653582204
 40
0.6888589653582204
 40
0.6888589653582204
 40
1.0
 40
1.0
 40
1.0
 40
1.0
 10
3.043465399527276
 20
2.03798443368016
 30
0.0
 10
3.042425087433648
 20
2.042665838101486
 30
0.0
 10
3.040864619293205
 20
2.046111871911629
 30
0.0
 10
3.038914034117653
 20
2.048257515604738
 30
0.0
 10
3.03576014677498
 20
2.051726791681678
 30
0.0
 10
3.031696868968108
 20
2.053329037061174
 30
0.0
 10
3.026885425535078
 20
2.053394056567026
 30
0.0
 10
3.023050853582335
 20
2.053445875106928
 30
0.0
 10
3.019668260385533
 20
2.052288724967546
 30
0.0
 10
3.016742382622204
 20
2.050143081274438
 30
0.0
 10
3.012987788035736
 20
2.047389711911028
 30
0.0
 10
3.010045373519473
 20
2.043381052665856
 30
0.0
 10
3.007899729826366
 20
2.038114472691863
 30
0.0
 10
3.005722111835086
 20
2.032769410349632
 30
0.0
 10
3.004583735027926
 20
2.025305630039067
 30
0.0
 10
3.004453696016222
 20
2.015552704161304
 30
0.0
  0
SPLINE
  5
4E
330
2B
100
AcDbEntity
  8
1006585_1GANG_MA
  6
Continuous
 62
     7
100
AcDbSpline
210
0.0
220
0.0
230
1.0
 70
     8
 71
     3
 72
    23
 73
    19
 74
     0
 42
0.0000000577352259
 43
0.0000000001
 40
0.0
 40
0.0
 40
0.0
 40
0.0
 40
0.110993899645326
 40
0.110993899645326
 40
0.2589857658390928
 40
0.2589857658390928
 40
0.2589857658390928
 40
0.4099397609170738
 40
0.4099397609170738
 40
0.5535043995926354
 40
0.5535043995926354
 40
0.5535043995926354
 40
0.7258425482730573
 40
0.7258425482730573
 40
0.866189783126577
 40
0.866189783126577
 40
0.866189783126577
 40
1.0
 40
1.0
 40
1.0
 40
1.0
 10
3.084817805248992
 20
2.02355010338107
 30
0.0
 10
3.090734580281502
 20
2.027711351755582
 30
0.0
 10
3.096846413831567
 20
2.029726956436988
 30
0.0
 10
3.111865919683323
 20
2.029726956436987
 30
0.0
 10
3.119018065327015
 20
2.026801078673658
 30
0.0
 10
3.124869820853674
 20
2.020884303641148
 30
0.0
 10
3.130753726920433
 20
2.014935020840314
 30
0.0
 10
3.133712473649513
 20
2.007360246423983
 30
0.0
 10
3.133712473649513
 20
1.989219804291343
 30
0.0
 10
3.131111693415442
 20
1.981612522106688
 30
0.0
 10
3.125975152453154
 20
1.975175591027364
 30
0.0
 10
3.119654216464091
 20
1.967254418079045
 30
0.0
 10
3.111150705118953
 20
1.963277021456493
 30
0.0
 10
3.091449794845872
 20
1.963277021456492
 30
0.0
 10
3.084167610190475
 20
1.965812782184711
 30
0.0
 10
3.078575932687224
 20
1.970754264629444
 30
0.0
 10
3.072915484173076
 20
1.9757565214559
 30
0.0
 10
3.069733279891385
 20
1.982327736671057
 30
0.0
 10
3.068888026315312
 20
1.99058521391423
 30
0.0
  0
LINE
  5
4F
330
2B
100
AcDbEntity
  8
1006585_1GANG_MA
  6
Continuous
 62
     7
100
AcDbLine
 10
3.0688880263
 20
1.9905852139
 30
0.0
 11
3.08156683
 21
1.991495487
 31
0.0
  0
SPLINE
  5
50
330
2B
100
AcDbEntity
  8
1006585_1GANG_MA
  6
Continuous
 62
     7
100
AcDbSpline
210
0.0
220
0.0
230
1.0
 70
     8
 71
     3
 72
    25
 73
    21
 74
     0
 42
0.0000000818795189
 43
0.0000000001
 40
0.0
 40
0.0
 40
0.0
 40
0.0
 40
0.118317151436567
 40
0.118317151436567
 40
0.2366343028731339
 40
0.2366343028731339
 40
0.3805335411067932
 40
0.3805335411067932
 40
0.3805335411067932
 40
0.5365832286616052
 40
0.5365832286616052
 40
0.684197797970211
 40
0.684197797970211
 40
0.684197797970211
 40
0.826364099379948
 40
0.826364099379948
 40
0.9152180377610318
 40
0.9152180377610318
 40
0.9152180377610318
 40
1.0
 40
1.0
 40
1.0
 40
1.0
 10
3.081566829956405
 20
1.991495486996155
 30
0.0
 10
3.082477103038329
 20
1.98538365344609
 30
0.0
 10
3.084622746731437
 20
1.980832288036466
 30
0.0
 10
3.09138477534002
 20
1.974720454486401
 30
0.0
 10
3.09548100420868
 20
1.973225005851811
 30
0.0
 10
3.106144203168368
 20
1.973225005851811
 30
0.0
 10
3.11102066610725
 20
1.975370649544919
 30
0.0
 10
3.114986855964207
 20
1.979726956436987
 30
0.0
 10
3.118923577175455
 20
1.984050896128029
 30
0.0
 10
3.120903630996717
 20
1.989804979844009
 30
0.0
 10
3.120903630996717
 20
2.003849193107988
 30
0.0
 10
3.119018065327015
 20
2.009180792587832
 30
0.0
 10
3.115181914481763
 20
2.013146982444789
 30
0.0
 10
3.111377190031936
 20
2.017080680604779
 30
0.0
 10
3.106339261685923
 20
2.019063757477299
 30
0.0
 10
3.096196218773049
 20
2.019063757477299
 30
0.0
 10
3.092685165457055
 20
2.018153484395374
 30
0.0
 10
3.089629248682022
 20
2.016397957737377
 30
0.0
 10
3.08652444555967
 20
2.014614347433047
 30
0.0
 10
3.084102590684623
 20
2.012301728868717
 30
0.0
 10
3.082347064026626
 20
2.009505890117091
 30
0.0
  0
LINE
  5
51
330
2B
100
AcDbEntity
  8
1006585_1GANG_MA
  6
Continuous
 62
     7
100
AcDbLine
 10
3.082347064
 20
2.0095058901
 30
0.0
 11
3.07103367
 21
2.0111313778
 31
0.0
  0
LINE
  5
52
330
2B
100
AcDbEntity
  8
1006585_1GANG_MA
  6
Continuous
 62
     7
100
AcDbLine
 10
3.07103367
 20
2.0111313778
 30
0.0
 11
3.0805265179
 21
2.0614564753
 31
0.0
  0
LINE
  5
53
330
2B
100
AcDbEntity
  8
1006585_1GANG_MA
  6
Continuous
 62
     7
100
AcDbLine
 10
3.0805265179
 20
2.0614564753
 30
0.0
 11
3.1290960887
 21
2.0614564753
 31
0.0
  0
LINE
  5
54
330
2B
100
AcDbEntity
  8
1006585_1GANG_MA
  6
Continuous
 62
     7
100
AcDbLine
 10
3.1290960887
 20
2.0614564753
 30
0.0
 11
3.1290960887
 21
2.0500130423
 31
0.0
  0
LINE
  5
55
330
2B
100
AcDbEntity
  8
1006585_1GANG_MA
  6
Continuous
 62
     7
100
AcDbLine
 10
3.1290960887
 20
2.0500130423
 30
0.0
 11
3.0900843852
 21
2.0500130423
 31
0.0
  0
LINE
  5
56
330
2B
100
AcDbEntity
  8
1006585_1GANG_MA
  6
Continuous
 62
     7
100
AcDbLine
 10
3.0900843852
 20
2.0500130423
 30
0.0
 11
3.0848178052
 21
2.0235501034
 31
0.0
  0
SPLINE
  5
57
330
2B
100
AcDbEntity
  8
1006585_1GANG_MA
  6
Continuous
 62
     7
100
AcDbSpline
210
0.0
220
0.0
230
1.0
 70
     8
 71
     3
 72
    24
 73
    20
 74
     0
 42
0.0000000590030941
 43
0.0000000001
 40
0.0
 40
0.0
 40
0.0
 40
0.0
 40
0.1023729104772002
 40
0.1023729104772002
 40
0.1023729104772002
 40
0.2037969462567626
 40
0.2037969462567626
 40
0.3444818991122848
 40
0.3444818991122848
 40
0.3444818991122848
 40
0.490276247527038
 40
0.490276247527038
 40
0.6360705959417935
 40
0.6360705959417935
 40
0.781864944356549
 40
0.781864944356549
 40
0.8909324721782748
 40
0.8909324721782748
 40
1.0
 40
1.0
 40
1.0
 40
1.0
 10
3.190734580281502
 20
2.018023445383671
 30
0.0
 10
3.196716374819864
 20
2.016072860208118
 30
0.0
 10
3.201267740229486
 20
2.012886904421382
 30
0.0
 10
3.204453696016222
 20
2.008530597529315
 30
0.0
 10
3.20761699406224
 20
2.004205271629658
 30
0.0
 10
3.209135100437549
 20
1.998972730169106
 30
0.0
 10
3.209135100437549
 20
1.984538399870017
 30
0.0
 10
3.206144203168368
 20
1.977516293238027
 30
0.0
 10
3.200227428135858
 20
1.971859596228924
 30
0.0
 10
3.194278176167839
 20
1.966171849841917
 30
0.0
 10
3.18657333190699
 20
1.963277021456493
 30
0.0
 10
3.167197519163166
 20
1.963277021456493
 30
0.0
 10
3.159460197966808
 20
1.96613787971397
 30
0.0
 10
3.147626647901788
 20
1.977581312743879
 30
0.0
 10
3.144635750632608
 20
1.984733458387572
 30
0.0
 10
3.144635750632608
 20
1.999622925227624
 30
0.0
 10
3.146261238278901
 20
2.004954524707469
 30
0.0
 10
3.152763188864077
 20
2.0135370994799
 30
0.0
 10
3.157379573779551
 20
2.016462977243228
 30
0.0
 10
3.163361368317913
 20
2.018023445383671
 30
0.0
  0
SPLINE
  5
58
330
2B
100
AcDbEntity
  8
1006585_1GANG_MA
  6
Continuous
 62
     7
100
AcDbSpline
210
0.0
220
0.0
230
1.0
 70
    11
 71
     3
 72
    27
 73
    23
 74
     0
 42
0.0000000982300681
 43
0.0000000001
 40
0.0
 40
0.0
 40
0.0
 40
0.0
 40
0.1264474217881241
 40
0.1264474217881241
 40
0.1264474217881241
 40
0.2558171125517339
 40
0.2558171125517339
 40
0.3816903251865996
 40
0.3816903251865996
 40
0.3816903251865996
 40
0.5034951643997455
 40
0.5034951643997455
 40
0.6271455314797575
 40
0.6271455314797575
 40
0.6271455314797575
 40
0.753886117055095
 40
0.753886117055095
 40
0.753886117055095
 40
0.8813531781834791
 40
0.8813531781834791
 40
0.8813531781834791
 40
1.0
 40
1.0
 40
1.0
 40
1.0
 10
3.160955646601398
 20
2.038374550715271
 30
0.0
 10
3.160955646601398
 20
2.033758165799795
 30
0.0
 10
3.162451095235988
 20
2.029922014954542
 30
0.0
 10
3.165376972999318
 20
2.026996137191213
 30
0.0
 10
3.168335360515572
 20
2.024037749674958
 30
0.0
 10
3.172204021113751
 20
2.022574810793293
 30
0.0
 10
3.181696868968108
 20
2.022574810793293
 30
0.0
 10
3.18546800030751
 20
2.024005239922033
 30
0.0
 10
3.188393878070839
 20
2.026931117685362
 30
0.0
 10
3.191352265587094
 20
2.029889505201617
 30
0.0
 10
3.192815204468758
 20
2.033433068270537
 30
0.0
 10
3.192815204468758
 20
2.04208066254882
 30
0.0
 10
3.191319755834168
 20
2.045851793888222
 30
0.0
 10
3.188263839059136
 20
2.048842691157403
 30
0.0
 10
3.185241131090676
 20
2.051801086190363
 30
0.0
 10
3.181436790944701
 20
2.053329037061174
 30
0.0
 10
3.176885425535078
 20
2.053394056567026
 30
0.0
 10
3.172270911207305
 20
2.05345997820028
 30
0.0
 10
3.16843288977435
 20
2.051898607932436
 30
0.0
 10
3.165441992505169
 20
2.048907710663255
 30
0.0
 10
3.162483604988914
 20
2.045949323147
 30
0.0
 10
3.160955646601398
 20
2.042470779583931
 30
0.0
 10
3.160955646601398
 20
2.038374550715271
 30
0.0
  0
SPLINE
  5
59
330
2B
100
AcDbEntity
  8
1006585_1GANG_MA
  6
Continuous
 62
     7
100
AcDbSpline
210
0.0
220
0.0
230
1.0
 70
    11
 71
     3
 72
    28
 73
    24
 74
     0
 42
0.0000000777381271
 43
0.0000000001
 40
0.0
 40
0.0
 40
0.0
 40
0.0
 40
0.0826218119511167
 40
0.0826218119511167
 40
0.0826218119511167
 40
0.1661696199749071
 40
0.1661696199749071
 40
0.1661696199749071
 40
0.2474544020519165
 40
0.2474544020519165
 40
0.3766391449957305
 40
0.3766391449957305
 40
0.3766391449957305
 40
0.5006934066722477
 40
0.5006934066722477
 40
0.6275994904562706
 40
0.6275994904562706
 40
0.7545055742402955
 40
0.7545055742402955
 40
0.8771814552315207
 40
0.8771814552315207
 40
0.8771814552315207
 40
1.0
 40
1.0
 40
1.0
 40
1.0
 10
3.156989456744441
 20
1.993251013654152
 30
0.0
 10
3.156989456744441
 20
1.989804979844009
 30
0.0
 10
3.157769690814662
 20
1.986488985045569
 30
0.0
 10
3.159395178460956
 20
1.983238009752982
 30
0.0
 10
3.160994658304909
 20
1.980039050065075
 30
0.0
 10
3.163426387823765
 20
1.977581312743879
 30
0.0
 10
3.166612343610501
 20
1.975825786085882
 30
0.0
 10
3.169848175382396
 20
1.974042776742184
 30
0.0
 10
3.173309352713232
 20
1.973225005851811
 30
0.0
 10
3.182737181061736
 20
1.973225005851811
 30
0.0
 10
3.187483604988914
 20
1.975045552015661
 30
0.0
 10
3.191189716822465
 20
1.97875166384921
 30
0.0
 10
3.194863318903088
 20
1.982425265929834
 30
0.0
 10
3.196781394325715
 20
1.987139180104087
 30
0.0
 10
3.196781394325715
 20
1.998582613133996
 30
0.0
 10
3.194895828656014
 20
2.003394056567026
 30
0.0
 10
3.187223526965508
 20
2.010936319245829
 30
0.0
 10
3.182412083532477
 20
2.01282188491553
 30
0.0
 10
3.170903630996716
 20
2.01282188491553
 30
0.0
 10
3.16622222657539
 20
2.010936319245829
 30
0.0
 10
3.16251611474184
 20
2.00723020741228
 30
0.0
 10
3.15881000290829
 20
2.003524095578729
 30
0.0
 10
3.156989456744441
 20
1.998842691157403
 30
0.0
 10
3.156989456744441
 20
1.993251013654152
 30
0.0
  0
SPLINE
  5
5A
330
2B
100
AcDbEntity
  8
1006585_1GANG_MA
  6
Continuous
 62
     7
100
AcDbSpline
210
0.0
220
0.0
230
1.0
 70
     8
 71
     3
 72
    25
 73
    21
 74
     0
 42
0.0000000708209952
 43
0.0000000001
 40
0.0
 40
0.0
 40
0.0
 40
0.0
 40
0.0967104154530404
 40
0.0967104154530404
 40
0.1934208309060807
 40
0.1934208309060807
 40
0.3391488541914839
 40
0.3391488541914839
 40
0.3391488541914839
 40
0.5000530106081889
 40
0.5000530106081889
 40
0.6634326155851519
 40
0.6634326155851519
 40
0.6634326155851519
 40
0.8092013697428284
 40
0.8092013697428284
 40
0.9019633042068038
 40
0.9019633042068038
 40
0.9019633042068038
 40
1.0
 40
1.0
 40
1.0
 40
1.0
 10
3.163361368317913
 20
2.018023445383671
 30
0.0
 10
3.158354866367328
 20
2.01984399154752
 30
0.0
 10
3.154648754533778
 20
2.022444771781591
 30
0.0
 10
3.149837311100748
 20
2.029206800390173
 30
0.0
 10
3.148601940489565
 20
2.033238009752982
 30
0.0
 10
3.148601940489565
 20
2.045136579323853
 30
0.0
 10
3.151202720723635
 20
2.051118373862214
 30
0.0
 10
3.156274242180072
 20
2.055994836801096
 30
0.0
 10
3.161347063027094
 20
2.060872549154003
 30
0.0
 10
3.168237831256794
 20
2.063277021456493
 30
0.0
 10
3.185272941789955
 20
2.063277021456493
 30
0.0
 10
3.192165009410241
 20
2.060806280234126
 30
0.0
 10
3.197366569878382
 20
2.055799778283541
 30
0.0
 10
3.202535644325267
 20
2.050824544128413
 30
0.0
 10
3.205168910580592
 20
2.044811481794594
 30
0.0
 10
3.205168910580592
 20
2.033107970741278
 30
0.0
 10
3.203933539969409
 20
2.029141780884321
 30
0.0
 10
3.201592837758745
 20
2.02576076658003
 30
0.0
 10
3.199261498356925
 20
2.022393276332956
 30
0.0
 10
3.195611043220384
 20
2.01984399154752
 30
0.0
 10
3.190734580281502
 20
2.018023445383671
 30
0.0
  0
SPLINE
  5
5B
330
2B
100
AcDbEntity
  8
1006585_1GANG_MA
  6
Continuous
 62
     7
100
AcDbSpline
210
0.0
220
0.0
230
1.0
 70
     8
 71
     3
 72
    23
 73
    19
 74
     0
 42
0.0000000577463693
 43
0.0000000001
 40
0.0
 40
0.0
 40
0.0
 40
0.0
 40
0.1114909842004431
 40
0.1114909842004431
 40
0.259019458243453
 40
0.259019458243453
 40
0.259019458243453
 40
0.4099616722575665
 40
0.4099616722575665
 40
0.5535151065646958
 40
0.5535151065646958
 40
0.5535151065646958
 40
0.7248603235675732
 40
0.7248603235675732
 40
0.8662717376000705
 40
0.8662717376000705
 40
0.8662717376000705
 40
1.0
 40
1.0
 40
1.0
 40
1.0
 10
3.236638351412842
 20
2.02355010338107
 30
0.0
 10
3.242490106939499
 20
2.027711351755582
 30
0.0
 10
3.248666959995416
 20
2.029726956436988
 30
0.0
 10
3.26362144634132
 20
2.029726956436987
 30
0.0
 10
3.270773591985013
 20
2.026801078673658
 30
0.0
 10
3.276690367017523
 20
2.020884303641148
 30
0.0
 10
3.282574632297107
 20
2.015000038361564
 30
0.0
 10
3.28546800030751
 20
2.007360246423983
 30
0.0
 10
3.28546800030751
 20
1.989219804291343
 30
0.0
 10
3.28286722007344
 20
1.981612522106688
 30
0.0
 10
3.277730679111151
 20
1.975175591027364
 30
0.0
 10
3.271435038393004
 20
1.967286117216015
 30
0.0
 10
3.262906231776951
 20
1.963277021456493
 30
0.0
 10
3.243205321503869
 20
1.963277021456493
 30
0.0
 10
3.235923136848472
 20
1.965812782184711
 30
0.0
 10
3.230331459345221
 20
1.970754264629444
 30
0.0
 10
3.224707518898587
 20
1.975724258512517
 30
0.0
 10
3.221488806549383
 20
1.982327736671057
 30
0.0
 10
3.220708572479161
 20
1.99058521391423
 30
0.0
  0
LINE
  5
5C
330
2B
100
AcDbEntity
  8
1006585_1GANG_MA
  6
Continuous
 62
     7
100
AcDbLine
 10
3.2207085725
 20
1.9905852139
 30
0.0
 11
3.2333223566
 21
1.991495487
 31
0.0
  0
SPLINE
  5
5D
330
2B
100
AcDbEntity
  8
1006585_1GANG_MA
  6
Continuous
 62
     7
100
AcDbSpline
210
0.0
220
0.0
230
1.0
 70
     8
 71
     3
 72
    24
 73
    20
 74
     0
 42
0.0000000818893262
 43
0.0000000001
 40
0.0
 40
0.0
 40
0.0
 40
0.0
 40
0.1292658944202325
 40
0.1292658944202325
 40
0.1292658944202325
 40
0.2503447901374086
 40
0.2503447901374086
 40
0.3976029065501858
 40
0.3976029065501858
 40
0.5448610229629622
 40
0.5448610229629622
 40
0.6841592411912648
 40
0.6841592411912648
 40
0.6841592411912648
 40
0.8253415158661409
 40
0.8253415158661409
 40
0.912670757933072
 40
0.912670757933072
 40
1.0
 40
1.0
 40
1.0
 40
1.0
 10
3.233322356614402
 20
1.991495486996155
 30
0.0
 10
3.234297649202178
 20
1.98538365344609
 30
0.0
 10
3.236443292895286
 20
1.980832288036467
 30
0.0
 10
3.239759287693726
 20
1.977776371261434
 30
0.0
 10
3.243110441688573
 20
1.974688052874026
 30
0.0
 10
3.247236530866678
 20
1.973225005851811
 30
0.0
 10
3.257899729826366
 20
1.973225005851811
 30
0.0
 10
3.262776192765247
 20
1.975370649544919
 30
0.0
 10
3.270708572479161
 20
1.984083263329055
 30
0.0
 10
3.272659157654714
 20
1.989804979844009
 30
0.0
 10
3.272659157654714
 20
2.003849193107988
 30
0.0
 10
3.270773591985013
 20
2.009180792587832
 30
0.0
 10
3.266937441139759
 20
2.013146982444789
 30
0.0
 10
3.263132716689933
 20
2.017080680604779
 30
0.0
 10
3.258159807849773
 20
2.019063757477299
 30
0.0
 10
3.247951745431047
 20
2.019063757477299
 30
0.0
 10
3.244440692115052
 20
2.018153484395374
 30
0.0
 10
3.238328858564987
 20
2.01464243107938
 30
0.0
 10
3.23585811734262
 20
2.012301728868716
 30
0.0
 10
3.234102590684623
 20
2.009505890117091
 30
0.0
  0
LINE
  5
5E
330
2B
100
AcDbEntity
  8
1006585_1GANG_MA
  6
Continuous
 62
     7
100
AcDbLine
 10
3.2341025907
 20
2.0095058901
 30
0.0
 11
3.2228542162
 21
2.0111313778
 31
0.0
  0
LINE
  5
5F
330
2B
100
AcDbEntity
  8
1006585_1GANG_MA
  6
Continuous
 62
     7
100
AcDbLine
 10
3.2228542162
 20
2.0111313778
 30
0.0
 11
3.2322820445
 21
2.0614564753
 31
0.0
  0
LINE
  5
60
330
2B
100
AcDbEntity
  8
1006585_1GANG_MA
  6
Continuous
 62
     7
100
AcDbLine
 10
3.2322820445
 20
2.0614564753
 30
0.0
 11
3.2809166349
 21
2.0614564753
 31
0.0
  0
LINE
  5
61
330
2B
100
AcDbEntity
  8
1006585_1GANG_MA
  6
Continuous
 62
     7
100
AcDbLine
 10
3.2809166349
 20
2.0614564753
 30
0.0
 11
3.2809166349
 21
2.0500130423
 31
0.0
  0
LINE
  5
62
330
2B
100
AcDbEntity
  8
1006585_1GANG_MA
  6
Continuous
 62
     7
100
AcDbLine
 10
3.2809166349
 20
2.0500130423
 30
0.0
 11
3.2419049314
 21
2.0500130423
 31
0.0
  0
LINE
  5
63
330
2B
100
AcDbEntity
  8
1006585_1GANG_MA
  6
Continuous
 62
     7
100
AcDbLine
 10
3.2419049314
 20
2.0500130423
 30
0.0
 11
3.2366383514
 21
2.0235501034
 31
0.0
  0
LINE
  5
64
330
2B
100
AcDbEntity
  8
1006585_1GANG_MA
  6
Continuous
 62
     7
100
AcDbLine
 10
2.8104354906
 20
2.0632770215
 30
0.0
 11
2.8104354906
 21
1.9649675286
 31
0.0
  0
LINE
  5
65
330
2B
100
AcDbEntity
  8
1006585_1GANG_MA
  6
Continuous
 62
     7
100
AcDbLine
 10
2.8104354906
 20
1.9649675286
 30
0.0
 11
2.798406882
 21
1.9649675286
 31
0.0
  0
LINE
  5
66
330
2B
100
AcDbEntity
  8
1006585_1GANG_MA
  6
Continuous
 62
     7
100
AcDbLine
 10
2.798406882
 20
1.9649675286
 30
0.0
 11
2.798406882
 21
2.0415605065
 31
0.0
  0
SPLINE
  5
67
330
2B
100
AcDbEntity
  8
1006585_1GANG_MA
  6
Continuous
 62
     7
100
AcDbSpline
210
0.0
220
0.0
230
1.0
 70
     8
 71
     3
 72
    11
 73
     7
 74
     0
 42
0.0000003547587563
 43
0.0000000001
 40
0.0
 40
0.0
 40
0.0
 40
0.0
 40
0.4990860166759875
 40
0.4990860166759875
 40
0.4990860166759875
 40
1.0
 40
1.0
 40
1.0
 40
1.0
 10
2.798406881972009
 20
2.041560506502007
 30
0.0
 10
2.795546023714532
 20
2.038764667750381
 30
0.0
 10
2.79177489237513
 20
2.036033848504608
 30
0.0
 10
2.787093487953804
 20
2.033303029258834
 30
0.0
 10
2.782383784887443
 20
2.030555702470124
 30
0.0
 10
2.778250835157965
 20
2.028426566319952
 30
0.0
 10
2.774479703818563
 20
2.027061156697065
 30
0.0
  0
LINE
  5
68
330
2B
100
AcDbEntity
  8
1006585_1GANG_MA
  6
Continuous
 62
     7
100
AcDbLine
 10
2.7744797038
 20
2.0270611567
 30
0.0
 11
2.7744797038
 21
2.0386996482
 31
0.0
  0
SPLINE
  5
69
330
2B
100
AcDbEntity
  8
1006585_1GANG_MA
  6
Continuous
 62
     7
100
AcDbSpline
210
0.0
220
0.0
230
1.0
 70
     8
 71
     3
 72
    11
 73
     7
 74
     0
 42
0.0000002616808823
 43
0.0000000001
 40
0.0
 40
0.0
 40
0.0
 40
0.0
 40
0.5540043768186624
 40
0.5540043768186624
 40
0.5540043768186624
 40
1.0
 40
1.0
 40
1.0
 40
1.0
 10
2.774479703818563
 20
2.038699648244529
 30
0.0
 10
2.781176712921294
 20
2.041820584525413
 30
0.0
 10
2.787028468447952
 20
2.045656735370667
 30
0.0
 10
2.792034970398537
 20
2.05020810078029
 30
0.0
 10
2.797044708614119
 20
2.054762408249001
 30
0.0
 10
2.800617545170969
 20
2.059050753576129
 30
0.0
 10
2.802698169358225
 20
2.063277021456493
 30
0.0
  0
LINE
  5
6A
330
2B
100
AcDbEntity
  8
1006585_1GANG_MA
  6
Continuous
 62
     7
100
AcDbLine
 10
2.8026981694
 20
2.0632770215
 30
0.0
 11
2.8104354906
 21
2.0632770215
 31
0.0
  0
ENDBLK
  5
6C
330
2B
100
AcDbEntity
  8
0
100
AcDbBlockEnd
  0
BLOCK
  5
106
330
6D
100
AcDbEntity
  8
0
100
AcDbBlockBegin
  2
SE1
 70
     0
 71
     0
 10
0.0
 20
0.0
 30
0.0
  3
SE1
  1

  0
ELLIPSE
  5
6F
330
6D
100
AcDbEntity
  8
1006585_1GANG_MA
  6
Continuous
 62
     7
100
AcDbEllipse
 10
7.6769193548
 20
2.8632282151
 30
0.0
 11
0.04374999999999628
 21
-0.07577722283114059
 31
0.0
210
0.0
220
0.0
230
1.0
 40
0.5773502692
 41
0.0
 42
6.283185307179586
  0
ELLIPSE
  5
70
330
6D
100
AcDbEntity
  8
1006585_1GANG_MA
  6
Continuous
 62
     7
100
AcDbEllipse
 10
7.6769193548
 20
5.5413370005
 30
0.0
 11
0.04374999999999628
 21
-0.07577722283114056
 31
0.0
210
0.0
220
0.0
230
1.0
 40
0.5773502692
 41
0.0
 42
6.283185307179586
  0
ELLIPSE
  5
71
330
6D
100
AcDbEntity
  8
1006585_1GANG_MA
  6
Continuous
 62
     7
100
AcDbEllipse
 10
9.2325542735
 20
4.6431907615
 30
0.0
 11
0.04374999999999637
 21
-0.07577722283114054
 31
0.0
210
0.0
220
0.0
230
1.0
 40
0.5773502692
 41
0.0
 42
6.283185307179586
  0
ELLIPSE
  5
72
330
6D
100
AcDbEntity
  8
1006585_1GANG_MA
  6
Continuous
 62
     7
100
AcDbEllipse
 10
9.2325542735
 20
1.9650819761
 30
0.0
 11
0.04374999999999619
 21
-0.07577722283114061
 31
0.0
210
0.0
220
0.0
230
0.9999999999999999
 40
0.5773502692
 41
0.0
 42
6.283185307179586
  0
ELLIPSE
  5
73
330
6D
100
AcDbEntity
  8
1006585_1GANG_MA
  6
Continuous
 62
     7
100
AcDbEllipse
 10
9.2827588549
 20
1.9940676047
 30
0.0
 11
0.04374999999999613
 21
-0.07577722283114065
 31
0.0
210
0.0
220
0.0
230
1.0
 40
0.5773502692
 41
3.752690112928001
 42
5.672087847841382
  0
ELLIPSE
  5
74
330
6D
100
AcDbEntity
  8
1006585_1GANG_MA
  6
Continuous
 62
     7
100
AcDbEllipse
 10
9.2827588549
 20
4.6721763901
 30
0.0
 11
0.04374999999999626
 21
-0.07577722283114059
 31
0.0
210
0.0
220
0.0
230
0.9999999999999999
 40
0.5773502692
 41
3.752690112929443
 42
5.672087847840269
  0
ELLIPSE
  5
75
330
6D
100
AcDbEntity
  8
1006585_1GANG_MA
  6
Continuous
 62
     7
100
AcDbEllipse
 10
7.7271239363
 20
5.5703226292
 30
0.0
 11
0.04374999999999617
 21
-0.07577722283114049
 31
0.0
210
0.0
220
0.0
230
1.0
 40
0.5773502692
 41
3.752690112939016
 42
5.672087847831774
  0
ELLIPSE
  5
76
330
6D
100
AcDbEntity
  8
1006585_1GANG_MA
  6
Continuous
 62
     7
100
AcDbEllipse
 10
7.7271239363
 20
2.8922138437
 30
0.0
 11
0.04374999999999622
 21
-0.07577722283114045
 31
0.0
210
0.0
220
0.0
230
1.0
 40
0.5773502692
 41
3.752690112928044
 42
5.672087847841372
  0
ELLIPSE
  5
77
330
6D
100
AcDbEntity
  8
1006585_1GANG_MA
  6
Continuous
 62
     7
100
AcDbEllipse
 10
7.4442812238
 20
4.1087937493
 30
0.0
 11
0.03749999999999681
 21
-0.06495190528383472
 31
0.0
210
0.0
220
0.0
230
1.0
 40
0.5773502692
 41
3.874985991816784
 42
5.549791968952581
  0
ELLIPSE
  5
78
330
6D
100
AcDbEntity
  8
1006585_1GANG_MA
  6
Continuous
 62
     7
100
AcDbEllipse
 10
7.3940766424
 20
4.0798081207
 30
0.0
 11
0.0374999999999969
 21
-0.06495190528383479
 31
0.0
210
0.0
220
0.0
230
1.0
 40
0.5773502692
 41
0.0
 42
6.283185307179586
  0
ELLIPSE
  5
79
330
6D
100
AcDbEntity
  8
1006585_1GANG_MA
  6
Continuous
 62
     7
100
AcDbEllipse
 10
9.5656015674
 20
2.8840488779
 30
0.0
 11
0.03749999999999681
 21
-0.06495190528383472
 31
0.0
210
0.0
220
0.0
230
1.0
 40
0.5773502692
 41
3.874985991812923
 42
5.549791968957377
  0
ELLIPSE
  5
7A
330
6D
100
AcDbEntity
  8
1006585_1GANG_MA
  6
Continuous
 62
     7
100
AcDbEllipse
 10
9.5153969859
 20
2.8550632493
 30
0.0
 11
0.03749999999999681
 21
-0.06495190528383472
 31
0.0
210
0.0
220
0.0
230
1.0
 40
0.5773502692
 41
0.0
 42
6.283185307179586
  0
ELLIPSE
  5
7B
330
6D
100
AcDbEntity
  8
1006585_1GANG_MA
  6
Continuous
 62
     7
100
AcDbEllipse
 10
9.5656015674
 20
3.4555964846
 30
0.0
 11
0.03749999999999691
 21
-0.06495190528383474
 31
0.0
210
0.0
220
0.0
230
1.0
 40
0.5773502692
 41
3.874985991816745
 42
5.549791968952603
  0
ELLIPSE
  5
7C
330
6D
100
AcDbEntity
  8
1006585_1GANG_MA
  6
Continuous
 62
     7
100
AcDbEllipse
 10
9.5153969859
 20
3.4266108559
 30
0.0
 11
0.03749999999999676
 21
-0.06495190528383482
 31
0.0
210
0.0
220
0.0
230
1.0
 40
0.5773502692
 41
0.0
 42
6.283185307179586
  0
ELLIPSE
  5
7D
330
6D
100
AcDbEntity
  8
1006585_1GANG_MA
  6
Continuous
 62
     7
100
AcDbEllipse
 10
7.4442812238
 20
4.6803413559
 30
0.0
 11
0.03749999999999676
 21
-0.06495190528383477
 31
0.0
210
0.0
220
0.0
230
1.0
 40
0.5773502692
 41
3.874985991821327
 42
5.549791968948946
  0
ELLIPSE
  5
7E
330
6D
100
AcDbEntity
  8
1006585_1GANG_MA
  6
Continuous
 62
     7
100
AcDbEllipse
 10
7.3940766424
 20
4.6513557273
 30
0.0
 11
0.03749999999999681
 21
-0.06495190528383472
 31
0.0
210
0.0
220
0.0
230
1.0
 40
0.5773502692
 41
0.0
 42
6.283185307179586
  0
ELLIPSE
  5
7F
330
6D
100
AcDbEntity
  8
1006585_1GANG_MA
  6
Continuous
 62
     7
100
AcDbEllipse
 10
7.4442812238
 20
3.5372461426
 30
0.0
 11
0.03749999999999686
 21
-0.06495190528383472
 31
0.0
210
0.0
220
0.0
230
1.0
 40
0.5773502692
 41
3.87498599181687
 42
5.549791968952522
  0
ELLIPSE
  5
80
330
6D
100
AcDbEntity
  8
1006585_1GANG_MA
  6
Continuous
 62
     7
100
AcDbEllipse
 10
7.3940766424
 20
3.508260514
 30
0.0
 11
0.03749999999999671
 21
-0.06495190528383475
 31
0.0
210
0.0
220
0.0
230
1.0
 40
0.5773502692
 41
0.0
 42
6.283185307179586
  0
ELLIPSE
  5
81
330
6D
100
AcDbEntity
  8
1006585_1GANG_MA
  6
Continuous
 62
     7
100
AcDbEllipse
 10
7.4442812238
 20
5.2518889626
 30
0.0
 11
0.03749999999999686
 21
-0.06495190528383482
 31
0.0
210
0.0
220
0.0
230
1.0
 40
0.5773502692
 41
3.874985991816826
 42
5.549791968952579
  0
ELLIPSE
  5
82
330
6D
100
AcDbEntity
  8
1006585_1GANG_MA
  6
Continuous
 62
     7
100
AcDbEllipse
 10
7.3940766424
 20
5.222903334
 30
0.0
 11
0.03749999999999686
 21
-0.06495190528383482
 31
0.0
210
0.0
220
0.0
230
1.0
 40
0.5773502692
 41
0.0
 42
6.283185307179586
  0
ELLIPSE
  5
83
330
6D
100
AcDbEntity
  8
1006585_1GANG_MA
  6
Continuous
 62
     7
100
AcDbEllipse
 10
9.5656015674
 20
2.3125012713
 30
0.0
 11
0.03749999999999676
 21
-0.06495190528383499
 31
0.0
210
0.0
220
0.0
230
0.9999999999999999
 40
0.5773502692
 41
3.874985991827462
 42
5.549791968940446
  0
ELLIPSE
  5
84
330
6D
100
AcDbEntity
  8
1006585_1GANG_MA
  6
Continuous
 62
     7
100
AcDbEllipse
 10
9.5153969859
 20
2.2835156426
 30
0.0
 11
0.03749999999999684
 21
-0.06495190528383461
 31
0.0
210
0.0
220
0.0
230
1.0
 40
0.5773502692
 41
0.0
 42
6.283185307179586
  0
ELLIPSE
  5
85
330
6D
100
AcDbEntity
  8
1006585_1GANG_MA
  6
Continuous
 62
     7
100
AcDbEllipse
 10
9.5656015674
 20
4.0271440912
 30
0.0
 11
0.03749999999999671
 21
-0.06495190528383475
 31
0.0
210
0.0
220
0.0
230
1.0
 40
0.5773502692
 41
3.874985991816793
 42
5.549791968952606
  0
ELLIPSE
  5
86
330
6D
100
AcDbEntity
  8
1006585_1GANG_MA
  6
Continuous
 62
     7
100
AcDbEllipse
 10
9.5153969859
 20
3.9981584626
 30
0.0
 11
0.03749999999999681
 21
-0.06495190528383471
 31
0.0
210
0.0
220
0.0
230
1.0
 40
0.5773502692
 41
0.0
 42
6.283185307179586
  0
LINE
  5
87
330
6D
100
AcDbEntity
  8
1006585_1GANG_MA
  6
Continuous
 62
     7
100
AcDbLine
 10
7.5379728723
 20
5.4255986102
 30
0.0
 11
7.5379728723
 21
3.1973794408
 31
0.0
  0
LINE
  5
88
330
6D
100
AcDbEntity
  8
1006585_1GANG_MA
  6
Continuous
 62
     7
100
AcDbLine
 10
7.5379728723
 20
3.1973794408
 30
0.0
 11
9.4217053374
 21
2.109805995
 31
0.0
  0
LINE
  5
89
330
6D
100
AcDbEntity
  8
1006585_1GANG_MA
  6
Continuous
 62
     7
100
AcDbLine
 10
7.5379728723
 20
3.1973794408
 30
0.0
 11
7.4877682909
 21
3.1683938122
 31
0.0
  0
LINE
  5
8A
330
6D
100
AcDbEntity
  8
1006585_1GANG_MA
  6
Continuous
 62
     7
100
AcDbLine
 10
7.4877682909
 20
3.1683938122
 30
0.0
 11
9.4217053374
 21
2.0518347378
 31
0.0
  0
LINE
  5
8B
330
6D
100
AcDbEntity
  8
1006585_1GANG_MA
  6
Continuous
 62
     7
100
AcDbLine
 10
9.4217053374
 20
2.0518347378
 30
0.0
 11
9.4217053374
 21
4.3380251644
 31
0.0
  0
LINE
  5
8C
330
6D
100
AcDbEntity
  8
1006585_1GANG_MA
  6
Continuous
 62
     7
100
AcDbLine
 10
9.4217053374
 20
4.3380251644
 30
0.0
 11
7.4877682909
 21
5.4545842388
 31
0.0
  0
LINE
  5
8D
330
6D
100
AcDbEntity
  8
1006585_1GANG_MA
  6
Continuous
 62
     7
100
AcDbLine
 10
7.4877682909
 20
5.4545842388
 30
0.0
 11
7.4877682909
 21
3.1683938122
 31
0.0
  0
LINE
  5
8E
330
6D
100
AcDbEntity
  8
1006585_1GANG_MA
  6
Continuous
 62
     7
100
AcDbLine
 10
10.0605763142
 20
1.5062108976
 30
0.0
 11
10.0605763142
 21
4.2618868582
 31
0.0
  0
LINE
  5
8F
330
6D
100
AcDbEntity
  8
1006585_1GANG_MA
  6
Continuous
 62
     7
100
AcDbLine
 10
10.0103717328
 20
1.477225269
 30
0.0
 11
10.0103717328
 21
4.2329012296
 31
0.0
  0
LINE
  5
90
330
6D
100
AcDbEntity
  8
1006585_1GANG_MA
  6
Continuous
 62
     7
100
AcDbLine
 10
10.0605763142
 20
4.2618868582
 30
0.0
 11
10.0103717328
 21
4.2329012296
 31
0.0
  0
LINE
  5
91
330
6D
100
AcDbEntity
  8
1006585_1GANG_MA
  6
Continuous
 62
     7
100
AcDbLine
 10
10.0103717328
 20
1.477225269
 30
0.0
 11
10.0605763142
 21
1.5062108976
 31
0.0
  0
LINE
  5
92
330
6D
100
AcDbEntity
  8
1006585_1GANG_MA
  6
Continuous
 62
     7
100
AcDbLine
 10
9.7954112713
 20
4.721166185
 30
0.0
 11
7.2144715199
 21
6.2112724452
 31
0.0
  0
LINE
  5
93
330
6D
100
AcDbEntity
  8
1006585_1GANG_MA
  6
Continuous
 62
     7
100
AcDbLine
 10
9.7954112713
 20
4.721166185
 30
0.0
 11
10.0605763142
 21
4.2618868582
 31
0.0
  0
LINE
  5
94
330
6D
100
AcDbEntity
  8
1006585_1GANG_MA
  6
Continuous
 62
     7
100
AcDbLine
 10
7.1642669385
 20
2.8142384202
 30
0.0
 11
9.7452066898
 21
1.32413216
 31
0.0
  0
LINE
  5
95
330
6D
100
AcDbEntity
  8
1006585_1GANG_MA
  6
Continuous
 62
     7
100
AcDbLine
 10
9.7452066898
 20
4.6921805564
 30
0.0
 11
7.1642669385
 21
6.1822868166
 31
0.0
  0
LINE
  5
96
330
6D
100
AcDbEntity
  8
1006585_1GANG_MA
  6
Continuous
 62
     7
100
AcDbLine
 10
6.8991018955
 20
6.0291937076
 30
0.0
 11
6.8991018955
 21
3.273517747
 31
0.0
  0
LINE
  5
97
330
6D
100
AcDbEntity
  8
1006585_1GANG_MA
  6
Continuous
 62
     7
100
AcDbLine
 10
6.8991018955
 20
3.273517747
 30
0.0
 11
7.1642669385
 21
2.8142384202
 31
0.0
  0
LINE
  5
98
330
6D
100
AcDbEntity
  8
1006585_1GANG_MA
  6
Continuous
 62
     7
100
AcDbLine
 10
7.1642669385
 20
6.1822868166
 30
0.0
 11
6.8991018955
 21
6.0291937076
 31
0.0
  0
LINE
  5
99
330
6D
100
AcDbEntity
  8
1006585_1GANG_MA
  6
Continuous
 62
     7
100
AcDbLine
 10
10.0103717328
 20
4.2329012296
 30
0.0
 11
9.7452066898
 21
4.6921805564
 31
0.0
  0
LINE
  5
9A
330
6D
100
AcDbEntity
  8
1006585_1GANG_MA
  6
Continuous
 62
     7
100
AcDbLine
 10
9.7452066898
 20
1.32413216
 30
0.0
 11
10.0103717328
 21
1.477225269
 31
0.0
  0
LINE
  5
9B
330
6D
100
AcDbEntity
  8
1006585_1GANG_MA
  6
Continuous
 62
     7
100
AcDbLine
 10
7.2144715199
 20
6.2112724452
 30
0.0
 11
7.1642669385
 21
6.1822868166
 31
0.0
  0
LINE
  5
9C
330
6D
100
AcDbEntity
  8
1006585_1GANG_MA
  6
Continuous
 62
     7
100
AcDbLine
 10
9.7452066898
 20
4.6921805564
 30
0.0
 11
9.7954112713
 21
4.721166185
 31
0.0
  0
SPLINE
  5
9D
330
6D
100
AcDbEntity
  8
1006585_1GANG_MA
  6
Continuous
 62
     7
100
AcDbSpline
210
0.0
220
0.0
230
1.0
 70
    11
 71
     3
 72
    27
 73
    23
 74
     0
 42
0.0000000608586575
 43
0.0000000001
 40
0.0
 40
0.0
 40
0.0
 40
0.0
 40
0.1659049182477912
 40
0.1659049182477912
 40
0.1659049182477912
 40
0.2501953104135883
 40
0.2501953104135883
 40
0.3334940509068461
 40
0.3334940509068461
 40
0.3334940509068461
 40
0.4991835971774387
 40
0.4991835971774387
 40
0.6655439513276695
 40
0.6655439513276695
 40
0.6655439513276695
 40
0.7498511330111907
 40
0.7498511330111907
 40
0.7498511330111907
 40
0.8285537239097139
 40
0.8285537239097139
 40
0.8285537239097139
 40
1.0
 40
1.0
 40
1.0
 40
1.0
 10
8.330027637034064
 20
2.263660654255089
 30
0.0
 10
8.330027637034064
 20
2.250494779608138
 30
0.0
 10
8.331360933305483
 20
2.240965446950367
 30
0.0
 10
8.333981550114821
 20
2.235152288588105
 30
0.0
 10
8.336639031870101
 20
2.229257354909432
 30
0.0
 10
8.339912419735956
 20
2.225251338500782
 30
0.0
 10
8.347682318696979
 20
2.22076538524406
 30
0.0
 10
8.350946595775278
 20
2.221057370367279
 30
0.0
 10
8.353613188318114
 20
2.223817956986801
 30
0.0
 10
8.356301543480193
 20
2.226601073330876
 30
0.0
 10
8.357613077132369
 20
2.234621406545891
 30
0.0
 10
8.357613077132369
 20
2.260900067635569
 30
0.0
 10
8.35627978086095
 20
2.270429400293342
 30
0.0
 10
8.353613188318114
 20
2.276269102757714
 30
0.0
 10
8.350940416266111
 20
2.282122338033843
 30
0.0
 10
8.347682318696979
 20
2.286170052845037
 30
0.0
 10
8.343728405616222
 20
2.288505933830785
 30
0.0
 10
8.339821531112065
 20
2.290814025506443
 30
0.0
 10
8.336694118391154
 20
2.290602917897537
 30
0.0
 10
8.334349355982798
 20
2.288187404605455
 30
0.0
 10
8.331359339014801
 20
2.285107166836371
 30
0.0
 10
8.330027637034064
 20
2.276773440697817
 30
0.0
 10
8.330027637034064
 20
2.263660654255089
 30
0.0
  0
SPLINE
  5
9E
330
6D
100
AcDbEntity
  8
1006585_1GANG_MA
  6
Continuous
 62
     7
100
AcDbSpline
210
0.0
220
0.0
230
1.0
 70
    11
 71
     3
 72
    38
 73
    34
 74
     0
 42
0.0000000457100025
 43
0.0000000001
 40
0.0
 40
0.0
 40
0.0
 40
0.0
 40
0.1055989412516756
 40
0.1055989412516756
 40
0.1055989412516756
 40
0.1791618585201005
 40
0.1791618585201005
 40
0.1791618585201005
 40
0.2510178605276763
 40
0.2510178605276763
 40
0.3032767710786406
 40
0.3032767710786406
 40
0.3032767710786406
 40
0.3539682422751115
 40
0.3539682422751115
 40
0.3539682422751115
 40
0.4130293645210696
 40
0.4130293645210696
 40
0.4130293645210696
 40
0.5008223311933508
 40
0.5008223311933508
 40
0.6051133050255239
 40
0.6051133050255239
 40
0.6051133050255239
 40
0.6785658174314535
 40
0.6785658174314535
 40
0.6785658174314535
 40
0.749954980563362
 40
0.749954980563362
 40
0.8440588774190599
 40
0.8440588774190599
 40
0.8440588774190599
 40
1.0
 40
1.0
 40
1.0
 40
1.0
 10
8.321292247669602
 20
2.268704033656137
 30
0.0
 10
8.321292247669602
 20
2.278100645803355
 30
0.0
 10
8.32211981087255
 20
2.285267553373267
 30
0.0
 10
8.323820913011945
 20
2.290072035855319
 30
0.0
 10
8.325517264903857
 20
2.294863102046667
 30
0.0
 10
8.328004704760188
 20
2.29784945777378
 30
0.0
 10
8.331314957571985
 20
2.299070486470877
 30
0.0
 10
8.334602670866655
 20
2.300283201181461
 30
0.0
 10
8.338763026398528
 20
2.299442103900429
 30
0.0
 10
8.34749841576299
 20
2.29439872449938
 30
0.0
 10
8.35076269284129
 20
2.29166468198197
 30
0.0
 10
8.353567212584617
 20
2.2882935810139
 30
0.0
 10
8.356407299002445
 20
2.284879728037712
 30
0.0
 10
8.358716494736301
 20
2.281126673443988
 30
0.0
 10
8.36050954834269
 20
2.276799984799931
 30
0.0
 10
8.362281880733127
 20
2.272523297031163
 30
0.0
 10
8.363727849687493
 20
2.267721901878042
 30
0.0
 10
8.364785291557927
 20
2.262439625557996
 30
0.0
 10
8.365839793604476
 20
2.257172034642925
 30
0.0
 10
8.36634846649683
 20
2.250600956016586
 30
0.0
 10
8.36634846649683
 20
2.233294201440353
 30
0.0
 10
8.365520903293882
 20
2.226180382074662
 30
0.0
 10
8.363819801154486
 20
2.22137589959261
 30
0.0
 10
8.362123449262576
 20
2.216584833401262
 30
0.0
 10
8.35968198513974
 20
2.213518845367817
 30
0.0
 10
8.356371732327945
 20
2.212350904874942
 30
0.0
 10
8.353039018746017
 20
2.21117503965715
 30
0.0
 10
8.348877687767905
 20
2.21195274334328
 30
0.0
 10
8.337153875726125
 20
2.218721489381529
 30
0.0
 10
8.331912642107449
 20
2.22450810364168
 30
0.0
 10
8.328096656227183
 20
2.232179349151696
 30
0.0
 10
8.323474423930222
 20
2.241471385303531
 30
0.0
 10
8.321292247669602
 20
2.253680071861432
 30
0.0
 10
8.321292247669602
 20
2.268704033656137
 30
0.0
  0
SPLINE
  5
9F
330
6D
100
AcDbEntity
  8
1006585_1GANG_MA
  6
Continuous
 62
     7
100
AcDbSpline
210
0.0
220
0.0
230
1.0
 70
     8
 71
     3
 72
    13
 73
     9
 74
     0
 42
0.0000000617790998
 43
0.0000000001
 40
0.3154220056351282
 40
0.3154220056351282
 40
0.3154220056351282
 40
0.3154220056351282
 40
0.3334940509068461
 40
0.3334940509068461
 40
0.3334940509068461
 40
0.4991835971774387
 40
0.4991835971774387
 40
0.665158803329305
 40
0.665158803329305
 40
0.665158803329305
 40
0.665158803329305
 10
8.35745005620015
 20
2.225636305545298
 30
0.0
 10
8.358084850915503
 20
2.226002294700951
 30
0.0
 10
8.358691513037988
 20
2.226485021333191
 30
0.0
 10
8.359270042567607
 20
2.227083943310511
 30
0.0
 10
8.361958397729685
 20
2.229867059654587
 30
0.0
 10
8.363269931381861
 20
2.237887392869602
 30
0.0
 10
8.363269931381861
 20
2.264135573077625
 30
0.0
 10
8.36194280150701
 20
2.273651243591267
 30
0.0
 10
8.359288541757303
 20
2.279494470516397
 30
0.0
  0
SPLINE
  5
A0
330
6D
100
AcDbEntity
  8
1006585_1GANG_MA
  6
Continuous
 62
     7
100
AcDbSpline
210
0.0
220
0.0
230
1.0
 70
     8
 71
     3
 72
    11
 73
     7
 74
     0
 42
0.0000000684741329
 43
0.0000000001
 40
0.727553034920373
 40
0.727553034920373
 40
0.727553034920373
 40
0.727553034920373
 40
0.7498511330111907
 40
0.7498511330111907
 40
0.7498511330111907
 40
0.8129960084121551
 40
0.8129960084121551
 40
0.8129960084121551
 40
0.8129960084121551
 10
8.352378548932048
 20
2.289557517084068
 30
0.0
 10
8.351428097480662
 20
2.290416554965194
 30
0.0
 10
8.350431015873172
 20
2.291154111537145
 30
0.0
 10
8.349385259865715
 20
2.291771920154496
 30
0.0
 10
8.346250685756326
 20
2.293623754504667
 30
0.0
 10
8.343617868125548
 20
2.293853925562165
 30
0.0
 10
8.341488453761233
 20
2.292625015580597
 30
0.0
  0
SPLINE
  5
A1
330
6D
100
AcDbEntity
  8
1006585_1GANG_MA
  6
Continuous
 62
     7
100
AcDbSpline
210
0.0
220
0.0
230
1.0
 70
     8
 71
     3
 72
    11
 73
     7
 74
     0
 42
0.0000000518135808
 43
0.0000000001
 40
0.0
 40
0.0
 40
0.0
 40
0.0
 40
0.1055989412516756
 40
0.1055989412516756
 40
0.1055989412516756
 40
0.168202155364363
 40
0.168202155364363
 40
0.168202155364363
 40
0.168202155364363
 10
8.326949101919094
 20
2.271970019979848
 30
0.0
 10
8.326949101919094
 20
2.281366632127066
 30
0.0
 10
8.327776665122043
 20
2.288533539696978
 30
0.0
 10
8.329477767261437
 20
2.29333802217903
 30
0.0
 10
8.3309213897365
 20
2.297415295807407
 30
0.0
 10
8.332937940349117
 20
2.300185547395752
 30
0.0
 10
8.335546972151953
 20
2.301673050122338
 30
0.0
  0
SPLINE
  5
A2
330
6D
100
AcDbEntity
  8
1006585_1GANG_MA
  6
Continuous
 62
     7
100
AcDbSpline
210
0.0
220
0.0
230
1.0
 70
     8
 71
     3
 72
    10
 73
     6
 74
     0
 42
0.0000000438698936
 43
0.0000000001
 40
0.6970555101656045
 40
0.6970555101656045
 40
0.6970555101656045
 40
0.6970555101656045
 40
0.749954980563362
 40
0.749954980563362
 40
0.8201737838775186
 40
0.8201737838775186
 40
0.8201737838775186
 40
0.8201737838775186
 10
8.359271159884454
 20
2.215099662991697
 30
0.0
 10
8.356480211364461
 20
2.214987570137401
 30
0.0
 10
8.35322470049086
 20
2.215974967024932
 30
0.0
 10
8.344502790943627
 20
2.221010563849874
 30
0.0
 10
8.340321934617378
 20
2.224961450124656
 30
0.0
 10
8.336934642353961
 20
2.229969183280184
 30
0.0
  0
SPLINE
  5
A3
330
6D
100
AcDbEntity
  8
1006585_1GANG_MA
  6
Continuous
 62
     7
100
AcDbSpline
210
0.0
220
0.0
230
1.0
 70
     8
 71
     3
 72
    11
 73
     7
 74
     0
 42
0.0000000411405598
 43
0.0000000001
 40
0.8405884130491825
 40
0.8405884130491825
 40
0.8405884130491825
 40
0.8405884130491825
 40
0.8440588774190599
 40
0.8440588774190599
 40
0.8440588774190599
 40
1.0
 40
1.0
 40
1.0
 40
1.0
 10
8.33418151582131
 20
2.234604302564366
 30
0.0
 10
8.334036908942197
 20
2.234882081870081
 30
0.0
 10
8.333894240493985
 20
2.23516242706136
 30
0.0
 10
8.333753510476676
 20
2.235445335475407
 30
0.0
 10
8.329131278179714
 20
2.244737371627241
 30
0.0
 10
8.326949101919094
 20
2.256946058185143
 30
0.0
 10
8.326949101919094
 20
2.271970019979848
 30
0.0
  0
SPLINE
  5
A4
330
6D
100
AcDbEntity
  8
1006585_1GANG_MA
  6
Continuous
 62
     7
100
AcDbSpline
210
0.0
220
0.0
230
1.0
 70
    11
 71
     3
 72
    27
 73
    23
 74
     0
 42
0.0000000608770174
 43
0.0000000001
 40
0.0
 40
0.0
 40
0.0
 40
0.0
 40
0.1660520995792141
 40
0.1660520995792141
 40
0.1660520995792141
 40
0.2497229164395806
 40
0.2497229164395806
 40
0.333393733299947
 40
0.333393733299947
 40
0.333393733299947
 40
0.4990342511100939
 40
0.4990342511100939
 40
0.6653453783040876
 40
0.6653453783040876
 40
0.6653453783040876
 40
0.7500204586940694
 40
0.7500204586940694
 40
0.7500204586940694
 40
0.8284560278373816
 40
0.8284560278373816
 40
0.8284560278373816
 40
1.0
 40
1.0
 40
1.0
 40
1.0
 10
8.383681318025268
 20
2.232683687091806
 30
0.0
 10
8.383681318025268
 20
2.219517812444857
 30
0.0
 10
8.385014614296685
 20
2.209988479787085
 30
0.0
 10
8.387681206839522
 20
2.204148777322712
 30
0.0
 10
8.390353978891524
 20
2.198295542046583
 30
0.0
 10
8.39356610072716
 20
2.1942743713375
 30
0.0
 10
8.401381975421678
 20
2.189761873978668
 30
0.0
 10
8.40464625249998
 20
2.190053859101886
 30
0.0
 10
8.407266869309318
 20
2.192840989823519
 30
0.0
 10
8.409924351064598
 20
2.195667327888636
 30
0.0
 10
8.411266758123572
 20
2.20364443938261
 30
0.0
 10
8.411266758123572
 20
2.229923100472288
 30
0.0
 10
8.409933461852154
 20
2.23945243313006
 30
0.0
 10
8.407312845042815
 20
2.245265591492322
 30
0.0
 10
8.404655363287533
 20
2.251160525170994
 30
0.0
 10
8.401335999688182
 20
2.255193085681755
 30
0.0
 10
8.397382086607424
 20
2.257528966667504
 30
0.0
 10
8.393475212103267
 20
2.259837058343161
 30
0.0
 10
8.390393775115854
 20
2.259599406632144
 30
0.0
 10
8.388049012707498
 20
2.257183893340063
 30
0.0
 10
8.385058995739502
 20
2.254103655570979
 30
0.0
 10
8.383681318025268
 20
2.245796473534535
 30
0.0
 10
8.383681318025268
 20
2.232683687091806
 30
0.0
  0
SPLINE
  5
A5
330
6D
100
AcDbEntity
  8
1006585_1GANG_MA
  6
Continuous
 62
     7
100
AcDbSpline
210
0.0
220
0.0
230
1.0
 70
    11
 71
     3
 72
    36
 73
    32
 74
     0
 42
0.0000000457132473
 43
0.0000000001
 40
0.0
 40
0.0
 40
0.0
 40
0.0
 40
0.0895919022929795
 40
0.0895919022929795
 40
0.1791838045859594
 40
0.1791838045859594
 40
0.1791838045859594
 40
0.2505212467326733
 40
0.2505212467326733
 40
0.3035334743829838
 40
0.3035334743829838
 40
0.3035334743829838
 40
0.3540632581129297
 40
0.3540632581129297
 40
0.3540632581129297
 40
0.4328523552531159
 40
0.4328523552531159
 40
0.5116414523933025
 40
0.5116414523933025
 40
0.6052365543652017
 40
0.6052365543652017
 40
0.6052365543652017
 40
0.678697178286666
 40
0.678697178286666
 40
0.678697178286666
 40
0.7500133041033281
 40
0.7500133041033281
 40
0.8440209244980181
 40
0.8440209244980181
 40
0.8440209244980181
 40
1.0
 40
1.0
 40
1.0
 40
1.0
 10
8.374945928660804
 20
2.237727066492855
 30
0.0
 10
8.374945928660804
 20
2.247123678640073
 30
0.0
 10
8.375773491863752
 20
2.254290586209986
 30
0.0
 10
8.379175696142543
 20
2.26389955117409
 30
0.0
 10
8.381658385751392
 20
2.266872490610499
 30
0.0
 10
8.384968638563187
 20
2.268093519307595
 30
0.0
 10
8.388256351857859
 20
2.269306234018179
 30
0.0
 10
8.392462683123227
 20
2.268438592635036
 30
0.0
 10
8.40119807248769
 20
2.263395213233988
 30
0.0
 10
8.404416373832493
 20
2.260687714818688
 30
0.0
 10
8.407266869309318
 20
2.257290069748508
 30
0.0
 10
8.410081538570946
 20
2.253935127697657
 30
0.0
 10
8.412370175727505
 20
2.250149706280707
 30
0.0
 10
8.414163229333894
 20
2.245823017636649
 30
0.0
 10
8.415935561724329
 20
2.241546329867881
 30
0.0
 10
8.417381530678696
 20
2.23674493471476
 30
0.0
 10
8.419496414419566
 20
2.226180382074667
 30
0.0
 10
8.420002147488034
 20
2.219623988853304
 30
0.0
 10
8.420002147488034
 20
2.202317234277071
 30
0.0
 10
8.419174584285086
 20
2.195203414911381
 30
0.0
 10
8.41747348214569
 20
2.190398932429328
 30
0.0
 10
8.41577713025378
 20
2.18560786623798
 30
0.0
 10
8.413335666130944
 20
2.182541878204535
 30
0.0
 10
8.410025413319149
 20
2.18137393771166
 30
0.0
 10
8.40669269973722
 20
2.180198072493869
 30
0.0
 10
8.402531368759108
 20
2.180975776179998
 30
0.0
 10
8.390807556717329
 20
2.187744522218247
 30
0.0
 10
8.38556632309865
 20
2.193531136478398
 30
0.0
 10
8.381796312951883
 20
2.201175837886304
 30
0.0
 10
8.377207832362473
 20
2.210480206483845
 30
0.0
 10
8.374945928660804
 20
2.22270310469815
 30
0.0
 10
8.374945928660804
 20
2.237727066492855
 30
0.0
  0
SPLINE
  5
A6
330
6D
100
AcDbEntity
  8
1006585_1GANG_MA
  6
Continuous
 62
     7
100
AcDbSpline
210
0.0
220
0.0
230
1.0
 70
     8
 71
     3
 72
    13
 73
     9
 74
     0
 42
0.0000000617176993
 43
0.0000000001
 40
0.314807642469261
 40
0.314807642469261
 40
0.314807642469261
 40
0.314807642469261
 40
0.333393733299947
 40
0.333393733299947
 40
0.333393733299947
 40
0.4990342511100939
 40
0.4990342511100939
 40
0.6612412717719449
 40
0.6612412717719449
 40
0.6612412717719449
 40
0.6612412717719449
 10
8.411082062316325
 20
2.194619568856096
 30
0.0
 10
8.411727709711704
 20
2.194991864670552
 30
0.0
 10
8.412341596792531
 20
2.195487861063942
 30
0.0
 10
8.41292372355881
 20
2.19610697614723
 30
0.0
 10
8.41558120531409
 20
2.198933314212348
 30
0.0
 10
8.416923612373065
 20
2.206910425706321
 30
0.0
 10
8.416923612373065
 20
2.232864188798783
 30
0.0
 10
8.415655308421877
 20
2.242245888862808
 30
0.0
 10
8.413161355886997
 20
2.248094431077407
 30
0.0
  0
SPLINE
  5
A7
330
6D
100
AcDbEntity
  8
1006585_1GANG_MA
  6
Continuous
 62
     7
100
AcDbSpline
210
0.0
220
0.0
230
1.0
 70
     8
 71
     3
 72
    11
 73
     7
 74
     0
 42
0.0000000637695177
 43
0.0000000001
 40
0.6954707506974609
 40
0.6954707506974609
 40
0.6954707506974609
 40
0.6954707506974609
 40
0.7500204586940694
 40
0.7500204586940694
 40
0.7500204586940694
 40
0.812710601874642
 40
0.812710601874642
 40
0.812710601874642
 40
0.812710601874642
 10
8.409883188058815
 20
2.25412367066383
 30
0.0
 10
8.407869997716837
 20
2.257081129020155
 30
0.0
 10
8.405586146044158
 20
2.259290122702296
 30
0.0
 10
8.403038940856916
 20
2.260794952991214
 30
0.0
 10
8.3999163457801
 20
2.262639710404225
 30
0.0
 10
8.397321049309088
 20
2.262858218814383
 30
0.0
 10
8.395207731402705
 20
2.261638309077794
 30
0.0
  0
SPLINE
  5
A8
330
6D
100
AcDbEntity
  8
1006585_1GANG_MA
  6
Continuous
 62
     7
100
AcDbSpline
210
0.0
220
0.0
230
1.0
 70
     8
 71
     3
 72
    10
 73
     6
 74
     0
 42
0.0000000477461888
 43
0.0000000001
 40
0.0
 40
0.0
 40
0.0
 40
0.0
 40
0.0895919022929795
 40
0.0895919022929795
 40
0.1378327191254299
 40
0.1378327191254299
 40
0.1378327191254299
 40
0.1378327191254299
 10
8.380602782910296
 20
2.240993052816565
 30
0.0
 10
8.380602782910296
 20
2.250389664963784
 30
0.0
 10
8.381430346113245
 20
2.257556572533696
 30
0.0
 10
8.384047407782683
 20
2.264948031667204
 30
0.0
 10
8.38518997225506
 20
2.267003990713513
 30
0.0
 10
8.386566319056563
 20
2.268541363753267
 30
0.0
  0
SPLINE
  5
A9
330
6D
100
AcDbEntity
  8
1006585_1GANG_MA
  6
Continuous
 62
     7
100
AcDbSpline
210
0.0
220
0.0
230
1.0
 70
     8
 71
     3
 72
    10
 73
     6
 74
     0
 42
0.0000000438360384
 43
0.0000000001
 40
0.6971578317065315
 40
0.6971578317065315
 40
0.6971578317065315
 40
0.6971578317065315
 40
0.7500133041033281
 40
0.7500133041033281
 40
0.8205328541266226
 40
0.8205328541266226
 40
0.8205328541266226
 40
0.8205328541266226
 10
8.412926444678854
 20
2.184122760365041
 30
0.0
 10
8.410135139551642
 20
2.184010224737094
 30
0.0
 10
8.40687909932962
 20
2.18499758541217
 30
0.0
 10
8.39813005022657
 20
2.190048851266969
 30
0.0
 10
8.393931224635008
 20
2.194026483782622
 30
0.0
 10
8.390553822981769
 20
2.199060896623642
 30
0.0
  0
SPLINE
  5
AA
330
6D
100
AcDbEntity
  8
1006585_1GANG_MA
  6
Continuous
 62
     7
100
AcDbSpline
210
0.0
220
0.0
230
1.0
 70
     8
 71
     3
 72
    11
 73
     7
 74
     0
 42
0.0000000411208257
 43
0.0000000001
 40
0.8402744749196288
 40
0.8402744749196288
 40
0.8402744749196288
 40
0.8402744749196288
 40
0.8440209244980181
 40
0.8440209244980181
 40
0.8440209244980181
 40
1.0
 40
1.0
 40
1.0
 40
1.0
 10
8.38791090851734
 20
2.203536698420632
 30
0.0
 10
8.387755993376006
 20
2.203835452585282
 30
0.0
 10
8.387603411967337
 20
2.204137162861857
 30
0.0
 10
8.387453167201375
 20
2.204441824210015
 30
0.0
 10
8.382864686611965
 20
2.213746192807556
 30
0.0
 10
8.380602782910296
 20
2.22596909102186
 30
0.0
 10
8.380602782910296
 20
2.240993052816565
 30
0.0
  0
SPLINE
  5
AB
330
6D
100
AcDbEntity
  8
1006585_1GANG_MA
  6
Continuous
 62
     7
100
AcDbSpline
210
0.0
220
0.0
230
1.0
 70
     8
 71
     3
 72
    36
 73
    32
 74
     0
 42
0.0000000398591585
 43
0.0000000001
 40
0.0
 40
0.0
 40
0.0
 40
0.0
 40
0.0462122140210965
 40
0.0462122140210965
 40
0.0924244280421931
 40
0.0924244280421931
 40
0.0924244280421931
 40
0.1735381598735861
 40
0.1735381598735861
 40
0.2546518917049795
 40
0.2546518917049795
 40
0.3076011333171388
 40
0.3076011333171388
 40
0.3076011333171388
 40
0.3720955031440953
 40
0.3720955031440953
 40
0.4365898729710523
 40
0.4365898729710523
 40
0.5450254618009917
 40
0.5450254618009917
 40
0.653461050630931
 40
0.653461050630931
 40
0.7743605002459207
 40
0.7743605002459207
 40
0.7743605002459207
 40
0.8649434422525404
 40
0.8649434422525404
 40
0.9331673036372725
 40
0.9331673036372725
 40
0.9331673036372725
 40
1.0
 40
1.0
 40
1.0
 40
1.0
 10
8.43669133874751
 20
2.203936424505831
 30
0.0
 10
8.438714271021386
 20
2.206325393695802
 30
0.0
 10
8.441242936363729
 20
2.207519878290787
 30
0.0
 10
8.447127830251368
 20
2.207626054699231
 30
0.0
 10
8.450208204395679
 20
2.206697011125354
 30
0.0
 10
8.453472481473979
 20
2.20486546807971
 30
0.0
 10
8.45912572769526
 20
2.201693505788048
 30
0.0
 10
8.463954948711335
 20
2.19637135540426
 30
0.0
 10
8.471862774872848
 20
2.182143716672879
 30
0.0
 10
8.473885707146724
 20
2.174764456286081
 30
0.0
 10
8.473885707146724
 20
2.162129463681347
 30
0.0
 10
8.472920216743283
 20
2.158015127854175
 30
0.0
 10
8.471081187403396
 20
2.154776747396659
 30
0.0
 10
8.469214891484642
 20
2.151490352720865
 30
0.0
 10
8.46662154125417
 20
2.149706823893498
 30
0.0
 10
8.460092987097571
 20
2.148910500830175
 30
0.0
 10
8.456414928417798
 20
2.149866088506162
 30
0.0
 10
8.445196849444487
 20
2.156342849421192
 30
0.0
 10
8.43944988275734
 20
2.16268688982567
 30
0.0
 10
8.430530590458888
 20
2.179834379789236
 30
0.0
 10
8.428277779517526
 20
2.191062534982099
 30
0.0
 10
8.428277779517526
 20
2.220367223712407
 30
0.0
 10
8.430760469126374
 20
2.230135453289176
 30
0.0
 10
8.43567987261057
 20
2.23430287732057
 30
0.0
 10
8.439979942057258
 20
2.237945638644447
 30
0.0
 10
8.44579453397995
 20
2.23764743418653
 30
0.0
 10
8.458529812158668
 20
2.230294717901844
 30
0.0
 10
8.462943482574396
 20
2.225994573359896
 30
0.0
 10
8.466437638320182
 20
2.220420311916632
 30
0.0
 10
8.469908987593978
 20
2.214882433865155
 30
0.0
 10
8.47200070207334
 20
2.208820539294219
 30
0.0
 10
8.472690338075797
 20
2.202211057868633
 30
0.0
  0
LINE
  5
AC
330
6D
100
AcDbEntity
  8
1006585_1GANG_MA
  6
Continuous
 62
     7
100
AcDbLine
 10
8.442348193
 20
2.2072024108
 30
0.0
 11
8.4366913387
 21
2.2039364245
 31
0.0
  0
LINE
  5
AD
330
6D
100
AcDbEntity
  8
1006585_1GANG_MA
  6
Continuous
 62
     7
100
AcDbLine
 10
8.4726903381
 20
2.2022110579
 30
0.0
 11
8.4642767788
 21
2.2063253937
 31
0.0
  0
SPLINE
  5
AE
330
6D
100
AcDbEntity
  8
1006585_1GANG_MA
  6
Continuous
 62
     7
100
AcDbSpline
210
0.0
220
0.0
230
1.0
 70
    11
 71
     3
 72
    29
 73
    25
 74
     0
 42
0.0000000920700474
 43
0.0000000001
 40
0.0
 40
0.0
 40
0.0
 40
0.0
 40
0.0901319887620742
 40
0.0901319887620742
 40
0.180263977524148
 40
0.180263977524148
 40
0.180263977524148
 40
0.2575743236273981
 40
0.2575743236273981
 40
0.3728104998945053
 40
0.3728104998945053
 40
0.3728104998945053
 40
0.5090858651538156
 40
0.5090858651538156
 40
0.6403139946627808
 40
0.6403139946627808
 40
0.6403139946627808
 40
0.7560896290240547
 40
0.7560896290240547
 40
0.7560896290240547
 40
0.8726743803193201
 40
0.8726743803193201
 40
0.8726743803193201
 40
1.0
 40
1.0
 40
1.0
 40
1.0
 10
8.438116586485922
 20
2.187717978116141
 30
0.0
 10
8.438116586485922
 20
2.18432033304596
 30
0.0
 10
8.438714271021386
 20
2.180736879261004
 30
0.0
 10
8.441196960630233
 20
2.17314526605732
 30
0.0
 10
8.442898062769627
 20
2.169827253293472
 30
0.0
 10
8.445104897977492
 20
2.166907402061285
 30
0.0
 10
8.447290780079248
 20
2.16401527376576
 30
0.0
 10
8.449656495593713
 20
2.161890566762347
 30
0.0
 10
8.45572529241534
 20
2.158386745283724
 30
0.0
 10
8.458759690826154
 20
2.158280568875282
 30
0.0
 10
8.461334331901995
 20
2.160138656023037
 30
0.0
 10
8.463888680240293
 20
2.161982098148937
 30
0.0
 10
8.46515031778226
 20
2.165845637976856
 30
0.0
 10
8.46515031778226
 20
2.177100337271829
 30
0.0
 10
8.463908972977837
 20
2.182170260774989
 30
0.0
 10
8.461380307635492
 20
2.186815478644376
 30
0.0
 10
8.458874543413229
 20
2.191418626616079
 30
0.0
 10
8.455679316681843
 20
2.194831797481834
 30
0.0
 10
8.451771379334582
 20
2.197141134365471
 30
0.0
 10
8.44795646236149
 20
2.199395502256031
 30
0.0
 10
8.444737092109515
 20
2.199556647657552
 30
0.0
 10
8.442070499566679
 20
2.197964001530905
 30
0.0
 10
8.439403517455904
 20
2.196371122731338
 30
0.0
 10
8.438116586485922
 20
2.192867533925634
 30
0.0
 10
8.438116586485922
 20
2.187717978116141
 30
0.0
  0
SPLINE
  5
AF
330
6D
100
AcDbEntity
  8
1006585_1GANG_MA
  6
Continuous
 62
     7
100
AcDbSpline
210
0.0
220
0.0
230
1.0
 70
     8
 71
     3
 72
    20
 73
    16
 74
     0
 42
0.0000001719482718
 43
0.0000000001
 40
0.0
 40
0.0
 40
0.0
 40
0.0
 40
0.1539657833075846
 40
0.1539657833075846
 40
0.1539657833075846
 40
0.3367346576572164
 40
0.3367346576572164
 40
0.3367346576572164
 40
0.4838013840720933
 40
0.4838013840720933
 40
0.4838013840720933
 40
0.6888589653582204
 40
0.6888589653582204
 40
0.6888589653582204
 40
1.0
 40
1.0
 40
1.0
 40
1.0
 10
8.464276778845814
 20
2.206325393695804
 30
0.0
 10
8.46354116710986
 20
2.21057245003353
 30
0.0
 10
8.462437749505927
 20
2.214023183307932
 30
0.0
 10
8.461058477501012
 20
2.216571417110567
 30
0.0
 10
8.45882834237391
 20
2.220691638281646
 30
0.0
 10
8.455955171082826
 20
2.223658692374146
 30
0.0
 10
8.452552966804035
 20
2.225676044134566
 30
0.0
 10
8.449841514973302
 20
2.227283811239593
 30
0.0
 10
8.447449660385848
 20
2.227719939997096
 30
0.0
 10
8.445380752378476
 20
2.22716251385277
 30
0.0
 10
8.442725853085777
 20
2.226447204002824
 30
0.0
 10
8.440645251828267
 20
2.224375383131136
 30
0.0
 10
8.43912805262286
 20
2.220951193958845
 30
0.0
 10
8.437588244174393
 20
2.21747597765379
 30
0.0
 10
8.436783290214503
 20
2.211846566934845
 30
0.0
 10
8.43669133874751
 20
2.203936424505831
 30
0.0
  0
LINE
  5
B0
330
6D
100
AcDbEntity
  8
1006585_1GANG_MA
  6
Continuous
 62
     7
100
AcDbLine
 10
8.4699336331
 20
2.20959138
 30
0.0
 11
8.4642767788
 21
2.2063253937
 31
0.0
  0
SPLINE
  5
B1
330
6D
100
AcDbEntity
  8
1006585_1GANG_MA
  6
Continuous
 62
     7
100
AcDbSpline
210
0.0
220
0.0
230
1.0
 70
     8
 71
     3
 72
    19
 73
    15
 74
     0
 42
0.000000092628195
 43
0.0000000001
 40
0.3634890534093958
 40
0.3634890534093958
 40
0.3634890534093958
 40
0.3634890534093958
 40
0.3728104998945053
 40
0.3728104998945053
 40
0.3728104998945053
 40
0.5090858651538156
 40
0.5090858651538156
 40
0.6403139946627808
 40
0.6403139946627808
 40
0.6403139946627808
 40
0.7560896290240547
 40
0.7560896290240547
 40
0.7560896290240547
 40
0.8712976855511538
 40
0.8712976855511538
 40
0.8712976855511538
 40
0.8712976855511538
 10
8.466357300696986
 20
2.16299231236245
 30
0.0
 10
8.466571652791846
 20
2.163116893792181
 30
0.0
 10
8.466782923609427
 20
2.163254341803345
 30
0.0
 10
8.466991186151487
 20
2.163404642346747
 30
0.0
 10
8.469545534489786
 20
2.165248084472648
 30
0.0
 10
8.470807172031753
 20
2.169111624300566
 30
0.0
 10
8.470807172031753
 20
2.18036632359554
 30
0.0
 10
8.46956582722733
 20
2.1854362470987
 30
0.0
 10
8.467037161884985
 20
2.190081464968087
 30
0.0
 10
8.464531397662721
 20
2.19468461293979
 30
0.0
 10
8.461336170931336
 20
2.198097783805544
 30
0.0
 10
8.457428233584075
 20
2.200407120689182
 30
0.0
 10
8.453658365180194
 20
2.202634867804331
 30
0.0
 10
8.450470061476272
 20
2.202818536318063
 30
0.0
 10
8.447822050757177
 20
2.201285674080448
 30
0.0
  0
SPLINE
  5
B2
330
6D
100
AcDbEntity
  8
1006585_1GANG_MA
  6
Continuous
 62
     7
100
AcDbSpline
210
0.0
220
0.0
230
1.0
 70
     8
 71
     3
 72
    12
 73
     8
 74
     0
 42
0.0000000491489383
 43
0.0000000001
 40
0.3643437976155373
 40
0.3643437976155373
 40
0.3643437976155373
 40
0.3643437976155373
 40
0.3720955031440953
 40
0.3720955031440953
 40
0.4365898729710523
 40
0.4365898729710523
 40
0.4958652314515842
 40
0.4958652314515842
 40
0.4958652314515842
 40
0.4958652314515842
 10
8.470161963824282
 20
2.152778459664857
 30
0.0
 10
8.469789105944189
 20
2.152690373494039
 30
0.0
 10
8.469406458326388
 20
2.152622504505435
 30
0.0
 10
8.465749841347064
 20
2.152176487153885
 30
0.0
 10
8.46207178266729
 20
2.153132074829872
 30
0.0
 10
8.454042759833754
 20
2.157767633324143
 30
0.0
 10
8.45058220147177
 20
2.160669814863129
 30
0.0
 10
8.447506315833094
 20
2.164245461022315
 30
0.0
  0
SPLINE
  5
B3
330
6D
100
AcDbEntity
  8
1006585_1GANG_MA
  6
Continuous
 62
     7
100
AcDbSpline
210
0.0
220
0.0
230
1.0
 70
     8
 71
     3
 72
    12
 73
     8
 74
     0
 42
0.0000000339779072
 43
0.0000000001
 40
0.5396077138725432
 40
0.5396077138725432
 40
0.5396077138725432
 40
0.5396077138725432
 40
0.5450254618009917
 40
0.5450254618009917
 40
0.653461050630931
 40
0.653461050630931
 40
0.7673413593486325
 40
0.7673413593486325
 40
0.7673413593486325
 40
0.7673413593486325
 10
8.441325180917163
 20
2.173258220215876
 30
0.0
 10
8.441095937380299
 20
2.173675450132082
 30
0.0
 10
8.440869907360447
 20
2.174098252644255
 30
0.0
 10
8.43618744470838
 20
2.183100366112947
 30
0.0
 10
8.433934633767018
 20
2.194328521305809
 30
0.0
 10
8.433934633767018
 20
2.222736296330545
 30
0.0
 10
8.436137413391206
 20
2.232248051210415
 30
0.0
 10
8.440504548725475
 20
2.236786359418708
 30
0.0
  0
LINE
  5
B4
330
6D
100
AcDbEntity
  8
1006585_1GANG_MA
  6
Continuous
 62
     7
100
AcDbLine
 10
8.4711625166
 20
2.2089904406
 30
0.0
 11
8.4699336331
 21
2.20959138
 31
0.0
  0
SPLINE
  5
B5
330
6D
100
AcDbEntity
  8
1006585_1GANG_MA
  6
Continuous
 62
     7
100
AcDbSpline
210
0.0
220
0.0
230
1.0
 70
     8
 71
     3
 72
     8
 73
     4
 74
     0
 42
0.0000001362723136
 43
0.0000000001
 40
0.0
 40
0.0
 40
0.0
 40
0.0
 40
0.1182538861957124
 40
0.1182538861957124
 40
0.1182538861957124
 40
0.1182538861957124
 10
8.469933633095307
 20
2.209591380019515
 30
0.0
 10
8.46936864427351
 20
2.212853344503045
 30
0.0
 10
8.468586684763816
 20
2.21564555366758
 30
0.0
 10
8.467629415814718
 20
2.217919901247051
 30
0.0
  0
SPLINE
  5
B6
330
6D
100
AcDbEntity
  8
1006585_1GANG_MA
  6
Continuous
 62
     7
100
AcDbSpline
210
0.0
220
0.0
230
1.0
 70
     8
 71
     3
 72
    14
 73
    10
 74
     0
 42
0.0000001864331926
 43
0.0000000001
 40
0.2676024226961072
 40
0.2676024226961072
 40
0.2676024226961072
 40
0.2676024226961072
 40
0.3367346576572164
 40
0.3367346576572164
 40
0.3367346576572164
 40
0.4838013840720933
 40
0.4838013840720933
 40
0.4838013840720933
 40
0.5334527170617781
 40
0.5334527170617781
 40
0.5334527170617781
 40
0.5334527170617781
 10
8.461837227198851
 20
2.226234203269083
 30
0.0
 10
8.460707895005402
 20
2.227280029416791
 30
0.0
 10
8.459496703113857
 20
2.228178968167737
 30
0.0
 10
8.458209821053527
 20
2.228942030458276
 30
0.0
 10
8.455498369222795
 20
2.230549797563303
 30
0.0
 10
8.45310651463534
 20
2.230985926320807
 30
0.0
 10
8.451037606627969
 20
2.23042850017648
 30
0.0
 10
8.450394766270595
 20
2.230255299618238
 30
0.0
 10
8.449785596252656
 20
2.230002568600638
 30
0.0
 10
8.449209941895042
 20
2.229670365933646
 30
0.0
  0
SPLINE
  5
B7
330
6D
100
AcDbEntity
  8
1006585_1GANG_MA
  6
Continuous
 62
     7
100
AcDbSpline
210
0.0
220
0.0
230
1.0
 70
     8
 71
     3
 72
    23
 73
    19
 74
     0
 42
0.0000000703530028
 43
0.0000000001
 40
0.0
 40
0.0
 40
0.0
 40
0.0
 40
0.110993899645326
 40
0.110993899645326
 40
0.2589857658390928
 40
0.2589857658390928
 40
0.2589857658390928
 40
0.4099397609170738
 40
0.4099397609170738
 40
0.5535043995926354
 40
0.5535043995926354
 40
0.5535043995926354
 40
0.7258425482730573
 40
0.7258425482730573
 40
0.866189783126577
 40
0.866189783126577
 40
0.866189783126577
 40
1.0
 40
1.0
 40
1.0
 40
1.0
 10
8.493517345350018
 20
2.177657763416159
 30
0.0
 10
8.497701137098261
 20
2.178639895194258
 30
0.0
 10
8.502022856046995
 20
2.177790483926714
 30
0.0
 10
8.512643250484842
 20
2.171658796339123
 30
0.0
 10
8.517700581169532
 20
2.166349975916966
 30
0.0
 10
8.521838397184277
 20
2.159129980142833
 30
0.0
 10
8.525998947063949
 20
2.151870316483975
 30
0.0
 10
8.528091096939892
 20
2.14447763577768
 30
0.0
 10
8.528091096939894
 20
2.129666026799861
 30
0.0
 10
8.526252067600005
 20
2.124516470990368
 30
0.0
 10
8.52261998465373
 20
2.121357722839185
 30
0.0
 10
8.518150407952417
 20
2.11747062352161
 30
0.0
 10
8.512137517416374
 20
2.117694636747895
 30
0.0
 10
8.49820687016673
 20
2.125737499687462
 30
0.0
 10
8.493057588015047
 20
2.130780879088511
 30
0.0
 10
8.489103674934288
 20
2.137098375390877
 30
0.0
 10
8.485101133405378
 20
2.14349356941576
 30
0.0
 10
8.482850975178673
 20
2.150158073629383
 30
0.0
 10
8.482253290643209
 20
2.157245348892963
 30
0.0
  0
LINE
  5
B8
330
6D
100
AcDbEntity
  8
1006585_1GANG_MA
  6
Continuous
 62
     7
100
AcDbLine
 10
8.4822532906
 20
2.1572453489
 30
0.0
 11
8.4912185587
 21
2.1528124838
 31
0.0
  0
SPLINE
  5
B9
330
6D
100
AcDbEntity
  8
1006585_1GANG_MA
  6
Continuous
 62
     7
100
AcDbSpline
210
0.0
220
0.0
230
1.0
 70
     8
 71
     3
 72
    25
 73
    21
 74
     0
 42
0.0000001014611364
 43
0.0000000001
 40
0.0
 40
0.0
 40
0.0
 40
0.0
 40
0.118317151436567
 40
0.118317151436567
 40
0.2366343028731339
 40
0.2366343028731339
 40
0.3805335411067932
 40
0.3805335411067932
 40
0.3805335411067932
 40
0.5365832286616052
 40
0.5365832286616052
 40
0.684197797970211
 40
0.684197797970211
 40
0.684197797970211
 40
0.826364099379948
 40
0.826364099379948
 40
0.9152180377610318
 40
0.9152180377610318
 40
0.9152180377610318
 40
1.0
 40
1.0
 40
1.0
 40
1.0
 10
8.49121855867516
 20
2.152812483840463
 30
0.0
 10
8.491862218944119
 20
2.147450575214084
 30
0.0
 10
8.493379418149527
 20
2.142858445548918
 30
0.0
 10
8.498160894433232
 20
2.135107567732569
 30
0.0
 10
8.501057365643554
 20
2.132214260602494
 30
0.0
 10
8.50859738593709
 20
2.127861027856325
 30
0.0
 10
8.512045565949379
 20
2.127622130937329
 30
0.0
 10
8.514850085692707
 20
2.129559850391416
 30
0.0
 10
8.517633767956822
 20
2.131483172660766
 30
0.0
 10
8.519033877440949
 20
2.135373008753679
 30
0.0
 10
8.519033877440949
 20
2.146840060865539
 30
0.0
 10
8.517700581169532
 20
2.15196307257292
 30
0.0
 10
8.514988012893198
 20
2.156767555054972
 30
0.0
 10
8.51229766643418
 20
2.161532678405333
 30
0.0
 10
8.508735313137583
 20
2.165208579526201
 30
0.0
 10
8.501563098712023
 20
2.169349459455483
 30
0.0
 10
8.499080409103176
 20
2.170039606110363
 30
0.0
 10
8.496919549628808
 20
2.169853797395588
 30
0.0
 10
8.494724122286744
 20
2.169665016247322
 30
0.0
 10
8.493011612281547
 20
2.168765489209045
 30
0.0
 10
8.491770267477126
 20
2.167199387184509
 30
0.0
  0
LINE
  5
BA
330
6D
100
AcDbEntity
  8
1006585_1GANG_MA
  6
Continuous
 62
     7
100
AcDbLine
 10
8.4917702675
 20
2.1671993872
 30
0.0
 11
8.4837704898
 21
2.1731452661
 31
0.0
  0
LINE
  5
BB
330
6D
100
AcDbEntity
  8
1006585_1GANG_MA
  6
Continuous
 62
     7
100
AcDbLine
 10
8.4837704898
 20
2.1731452661
 30
0.0
 11
8.4904829469
 21
2.2103600972
 31
0.0
  0
LINE
  5
BC
330
6D
100
AcDbEntity
  8
1006585_1GANG_MA
  6
Continuous
 62
     7
100
AcDbLine
 10
8.4894273441
 20
2.1764112524
 30
0.0
 11
8.4837704898
 21
2.1731452661
 31
0.0
  0
LINE
  5
BD
330
6D
100
AcDbEntity
  8
1006585_1GANG_MA
  6
Continuous
 62
     7
100
AcDbLine
 10
8.4904829469
 20
2.2103600972
 30
0.0
 11
8.5248268199
 21
2.1905316529
 31
0.0
  0
LINE
  5
BE
330
6D
100
AcDbEntity
  8
1006585_1GANG_MA
  6
Continuous
 62
     7
100
AcDbLine
 10
8.5248268199
 20
2.1905316529
 30
0.0
 11
8.5248268199
 21
2.181188129
 31
0.0
  0
LINE
  5
BF
330
6D
100
AcDbEntity
  8
1006585_1GANG_MA
  6
Continuous
 62
     7
100
AcDbLine
 10
8.5248268199
 20
2.181188129
 30
0.0
 11
8.4972413798
 21
2.1971145903
 31
0.0
  0
LINE
  5
C0
330
6D
100
AcDbEntity
  8
1006585_1GANG_MA
  6
Continuous
 62
     7
100
AcDbLine
 10
8.4972413798
 20
2.1971145903
 30
0.0
 11
8.4935173454
 21
2.1776577634
 31
0.0
  0
LINE
  5
C1
330
6D
100
AcDbEntity
  8
1006585_1GANG_MA
  6
Continuous
 62
     7
100
AcDbLine
 10
8.502898234
 20
2.2003805766
 30
0.0
 11
8.4972413798
 21
2.1971145903
 31
0.0
  0
SPLINE
  5
C2
330
6D
100
AcDbEntity
  8
1006585_1GANG_MA
  6
Continuous
 62
     7
100
AcDbSpline
210
0.0
220
0.0
230
1.0
 70
     8
 71
     3
 72
    10
 73
     6
 74
     0
 42
0.00000007242351
 43
0.0000000001
 40
0.6101287848947995
 40
0.6101287848947995
 40
0.6101287848947995
 40
0.6101287848947995
 40
0.7258425482730573
 40
0.7258425482730573
 40
0.8314956443133017
 40
0.8314956443133017
 40
0.8314956443133017
 40
0.8314956443133017
 10
8.523367046384335
 20
2.12212712452044
 30
0.0
 10
8.5196762525623
 20
2.121338183976428
 30
0.0
 10
8.515271662326347
 20
2.122417109987864
 30
0.0
 10
8.505409405266333
 20
2.12811108675628
 30
0.0
 10
8.501327698188737
 20
2.131640989280838
 30
0.0
 10
8.497910530722125
 20
2.135915251184424
 30
0.0
  0
SPLINE
  5
C3
330
6D
100
AcDbEntity
  8
1006585_1GANG_MA
  6
Continuous
 62
     7
100
AcDbSpline
210
0.0
220
0.0
230
1.0
 70
     8
 71
     3
 72
    11
 73
     7
 74
     0
 42
0.0000000617087595
 43
0.0000000001
 40
0.8567881774911956
 40
0.8567881774911956
 40
0.8567881774911956
 40
0.8567881774911956
 40
0.866189783126577
 40
0.866189783126577
 40
0.866189783126577
 40
0.9572058105641392
 40
0.9572058105641392
 40
0.9572058105641392
 40
0.9572058105641392
 10
8.495571190204917
 20
2.139111969356168
 30
0.0
 10
8.495295624173464
 20
2.139523684065944
 30
0.0
 10
8.495025394619432
 20
2.139941164143935
 30
0.0
 10
8.49476052918378
 20
2.140364361714588
 30
0.0
 10
8.492038050750315
 20
2.144714292298647
 30
0.0
 10
8.490126321106745
 20
2.149188820571666
 30
0.0
 10
8.488993899490417
 20
2.153836239450292
 30
0.0
  0
SPLINE
  5
C4
330
6D
100
AcDbEntity
  8
1006585_1GANG_MA
  6
Continuous
 62
     7
100
AcDbSpline
210
0.0
220
0.0
230
1.0
 70
     8
 71
     3
 72
    21
 73
    17
 74
     0
 42
0.000000102850766
 43
0.0000000001
 40
0.3710717654269505
 40
0.3710717654269505
 40
0.3710717654269505
 40
0.3710717654269505
 40
0.3805335411067932
 40
0.3805335411067932
 40
0.3805335411067932
 40
0.5365832286616052
 40
0.5365832286616052
 40
0.684197797970211
 40
0.684197797970211
 40
0.684197797970211
 40
0.826364099379948
 40
0.826364099379948
 40
0.9152180377610318
 40
0.9152180377610318
 40
0.9152180377610318
 40
0.9624338484708321
 40
0.9624338484708321
 40
0.9624338484708321
 40
0.9624338484708321
 10
8.519945363462893
 20
2.132471829154364
 30
0.0
 10
8.520135347155213
 20
2.132580426259425
 30
0.0
 10
8.520322534958359
 20
2.132698426264383
 30
0.0
 10
8.5205069399422
 20
2.132825836715127
 30
0.0
 10
8.523290622206313
 20
2.134749158984477
 30
0.0
 10
8.524690731690441
 20
2.13863899507739
 30
0.0
 10
8.524690731690441
 20
2.150106047189249
 30
0.0
 10
8.523357435419024
 20
2.155229058896631
 30
0.0
 10
8.52064486714269
 20
2.160033541378683
 30
0.0
 10
8.517954520683672
 20
2.164798664729043
 30
0.0
 10
8.514392167387074
 20
2.168474565849912
 30
0.0
 10
8.507219952961515
 20
2.172615445779194
 30
0.0
 10
8.504737263352668
 20
2.173305592434074
 30
0.0
 10
8.502576403878301
 20
2.173119783719298
 30
0.0
 10
8.50135375133438
 20
2.173014649859138
 30
0.0
 10
8.500280874288121
 20
2.172689080095648
 30
0.0
 10
8.499355742866957
 20
2.172150703791262
 30
0.0
  0
LINE
  5
C5
330
6D
100
AcDbEntity
  8
1006585_1GANG_MA
  6
Continuous
 62
     7
100
AcDbLine
 10
8.4969940736
 20
2.1707872389
 30
0.0
 11
8.4894273441
 21
2.1764112524
 31
0.0
  0
LINE
  5
C6
330
6D
100
AcDbEntity
  8
1006585_1GANG_MA
  6
Continuous
 62
     7
100
AcDbLine
 10
8.4894273441
 20
2.1764112524
 30
0.0
 11
8.495072746
 21
2.2077101755
 31
0.0
  0
LINE
  5
C7
330
6D
100
AcDbEntity
  8
1006585_1GANG_MA
  6
Continuous
 62
     7
100
AcDbLine
 10
8.5248268199
 20
2.1877201016
 30
0.0
 11
8.502898234
 21
2.2003805766
 31
0.0
  0
SPLINE
  5
C8
330
6D
100
AcDbEntity
  8
1006585_1GANG_MA
  6
Continuous
 62
     7
100
AcDbSpline
210
0.0
220
0.0
230
1.0
 70
     8
 71
     3
 72
    24
 73
    20
 74
     0
 42
0.0000000734054781
 43
0.0000000001
 40
0.0
 40
0.0
 40
0.0
 40
0.0
 40
0.1023729104772002
 40
0.1023729104772002
 40
0.1023729104772002
 40
0.2037969462567626
 40
0.2037969462567626
 40
0.3444818991122848
 40
0.3444818991122848
 40
0.3444818991122848
 40
0.490276247527038
 40
0.490276247527038
 40
0.6360705959417935
 40
0.6360705959417935
 40
0.781864944356549
 40
0.781864944356549
 40
0.8909324721782748
 40
0.8909324721782748
 40
1.0
 40
1.0
 40
1.0
 40
1.0
 10
8.568411815216916
 20
2.129904923718863
 30
0.0
 10
8.572641582698655
 20
2.125870220198023
 30
0.0
 10
8.575859884043458
 20
2.121410811043412
 30
0.0
 10
8.578112694984819
 20
2.116553240357138
 30
0.0
 10
8.580349484484072
 20
2.111730215529156
 30
0.0
 10
8.581422947796614
 20
2.106838098984591
 30
0.0
 10
8.581422947796614
 20
2.095052517647402
 30
0.0
 10
8.579308064055745
 20
2.090540020288568
 30
0.0
 10
8.575124272307503
 20
2.088336859813372
 30
0.0
 10
8.570917515897928
 20
2.086121606280678
 30
0.0
 10
8.565469368273096
 20
2.086903478299389
 30
0.0
 10
8.551768599690938
 20
2.094813620728401
 30
0.0
 10
8.546297487404773
 20
2.100308249865334
 30
0.0
 10
8.537929903908289
 20
2.114482800392493
 30
0.0
 10
8.535815020167417
 20
2.121543531553961
 30
0.0
 10
8.53581502016742
 20
2.133700730320701
 30
0.0
 10
8.536964413504847
 20
2.137390360514101
 30
0.0
 10
8.541561986854566
 20
2.141743593260271
 30
0.0
 10
8.544826263932865
 20
2.142247931200375
 30
0.0
 10
8.549056031414604
 20
2.141079990707501
 30
0.0
  0
LINE
  5
C9
330
6D
100
AcDbEntity
  8
1006585_1GANG_MA
  6
Continuous
 62
     7
100
AcDbLine
 10
8.5740686695
 20
2.13317091
 30
0.0
 11
8.5684118152
 21
2.1299049237
 31
0.0
  0
SPLINE
  5
CA
330
6D
100
AcDbEntity
  8
1006585_1GANG_MA
  6
Continuous
 62
     7
100
AcDbSpline
210
0.0
220
0.0
230
1.0
 70
    11
 71
     3
 72
    27
 73
    23
 74
     0
 42
0.00000012215264
 43
0.0000000001
 40
0.0
 40
0.0
 40
0.0
 40
0.0
 40
0.1264474217881241
 40
0.1264474217881241
 40
0.1264474217881241
 40
0.2558171125517339
 40
0.2558171125517339
 40
0.3816903251865996
 40
0.3816903251865996
 40
0.3816903251865996
 40
0.5034951643997455
 40
0.5034951643997455
 40
0.6271455314797575
 40
0.6271455314797575
 40
0.6271455314797575
 40
0.753886117055095
 40
0.753886117055095
 40
0.753886117055095
 40
0.8813531781834791
 40
0.8813531781834791
 40
0.8813531781834791
 40
1.0
 40
1.0
 40
1.0
 40
1.0
 10
8.54735492927521
 20
2.158678730406952
 30
0.0
 10
8.54735492927521
 20
2.15490946790722
 30
0.0
 10
8.548412371145645
 20
2.1511667495096
 30
0.0
 10
8.550481279153017
 20
2.147583295724644
 30
0.0
 10
8.552573175027138
 20
2.143960025786522
 30
0.0
 10
8.555308731170221
 20
2.141186167115944
 30
0.0
 10
8.562021188260807
 20
2.137310728207771
 30
0.0
 10
8.564687780803643
 20
2.13693911077822
 30
0.0
 10
8.566756688811017
 20
2.138133595373206
 30
0.0
 10
8.568848584685139
 20
2.139341352019247
 30
0.0
 10
8.569883038688824
 20
2.141637416851829
 30
0.0
 10
8.569883038688824
 20
2.148698148013299
 30
0.0
 10
8.568825596818389
 20
2.152387778206698
 30
0.0
 10
8.566664737344022
 20
2.156077408400097
 30
0.0
 10
8.564527360041978
 20
2.159726943190238
 30
0.0
 10
8.561837285326819
 20
2.162527625213017
 30
0.0
 10
8.558618983982017
 20
2.164438800564993
 30
0.0
 10
8.555356029608966
 20
2.166376492938789
 30
0.0
 10
8.552642138627384
 20
2.166668505142299
 30
0.0
 10
8.550527254886514
 20
2.165447476445203
 30
0.0
 10
8.548435359012393
 20
2.164239719799161
 30
0.0
 10
8.54735492927521
 20
2.162023287272911
 30
0.0
 10
8.54735492927521
 20
2.158678730406952
 30
0.0
  0
SPLINE
  5
CB
330
6D
100
AcDbEntity
  8
1006585_1GANG_MA
  6
Continuous
 62
     7
100
AcDbSpline
210
0.0
220
0.0
230
1.0
 70
    11
 71
     3
 72
    28
 73
    24
 74
     0
 42
0.0000000964494471
 43
0.0000000001
 40
0.0
 40
0.0
 40
0.0
 40
0.0
 40
0.0826218119511167
 40
0.0826218119511167
 40
0.0826218119511167
 40
0.1661696199749071
 40
0.1661696199749071
 40
0.1661696199749071
 40
0.2474544020519165
 40
0.2474544020519165
 40
0.3766391449957305
 40
0.3766391449957305
 40
0.3766391449957305
 40
0.5006934066722477
 40
0.5006934066722477
 40
0.6275994904562706
 40
0.6275994904562706
 40
0.7545055742402955
 40
0.7545055742402955
 40
0.8771814552315207
 40
0.8771814552315207
 40
0.8771814552315207
 40
1.0
 40
1.0
 40
1.0
 40
1.0
 10
8.544550409531881
 20
2.123454706905939
 30
0.0
 10
8.544550409531881
 20
2.120641032082195
 30
0.0
 10
8.545102118333848
 20
2.117615004441566
 30
0.0
 10
8.546251511671276
 20
2.114296991677718
 30
0.0
 10
8.547382514715308
 20
2.111032067118091
 30
0.0
 10
8.549102007148102
 20
2.108032583579573
 30
0.0
 10
8.551354818089463
 20
2.105298541062162
 30
0.0
 10
8.55364289667815
 20
2.102521697240165
 30
0.0
 10
8.556090318639672
 20
2.100440970375888
 30
0.0
 10
8.562756799996762
 20
2.096592075569825
 30
0.0
 10
8.566113028542057
 20
2.096140825833943
 30
0.0
 10
8.568733645351395
 20
2.097653839654257
 30
0.0
 10
8.571331274293986
 20
2.099153581423517
 30
0.0
 10
8.572687558432152
 20
2.102219425217313
 30
0.0
 10
8.572687558432152
 20
2.11156294916031
 30
0.0
 10
8.571354262160733
 20
2.116261255233919
 30
0.0
 10
8.565929125608067
 20
2.125551690972693
 30
0.0
 10
8.562526921329278
 20
2.129055512451316
 30
0.0
 10
8.554389216500276
 20
2.133753818524925
 30
0.0
 10
8.55107896368848
 20
2.134125435954475
 30
0.0
 10
8.54845834687914
 20
2.13261242213416
 30
0.0
 10
8.545837730069803
 20
2.131099408313845
 30
0.0
 10
8.544550409531881
 20
2.128020292468994
 30
0.0
 10
8.544550409531881
 20
2.123454706905939
 30
0.0
  0
SPLINE
  5
CC
330
6D
100
AcDbEntity
  8
1006585_1GANG_MA
  6
Continuous
 62
     7
100
AcDbSpline
210
0.0
220
0.0
230
1.0
 70
     8
 71
     3
 72
    25
 73
    21
 74
     0
 42
0.0000000880988749
 43
0.0000000001
 40
0.0
 40
0.0
 40
0.0
 40
0.0
 40
0.0967104154530404
 40
0.0967104154530404
 40
0.1934208309060807
 40
0.1934208309060807
 40
0.3391488541914839
 40
0.3391488541914839
 40
0.3391488541914839
 40
0.5000530106081889
 40
0.5000530106081889
 40
0.6634326155851519
 40
0.6634326155851519
 40
0.6634326155851519
 40
0.8092013697428284
 40
0.8092013697428284
 40
0.9019633042068038
 40
0.9019633042068038
 40
0.9019633042068038
 40
1.0
 40
1.0
 40
1.0
 40
1.0
 10
8.549056031414604
 20
2.141079990707501
 30
0.0
 10
8.545515899935321
 20
2.144610356288235
 30
0.0
 10
8.542895283125983
 20
2.148246898277413
 30
0.0
 10
8.539493078847192
 20
2.155732335072654
 30
0.0
 10
8.538619539910746
 20
2.159528141674496
 30
0.0
 10
8.538619539910746
 20
2.169243283047044
 30
0.0
 10
8.540458569250633
 20
2.173065633750997
 30
0.0
 10
8.544044676463413
 20
2.174976809102974
 30
0.0
 10
8.547631702484086
 20
2.176888474123245
 30
0.0
 10
8.552504211426893
 20
2.176038573187407
 30
0.0
 10
8.564549853603152
 20
2.169084018434382
 30
0.0
 10
8.569423281353853
 20
2.164252991850219
 30
0.0
 10
8.573101340033627
 20
2.158041671956296
 30
0.0
 10
8.576756427627478
 20
2.151869144473098
 30
0.0
 10
8.578618428053288
 20
2.145884473189556
 30
0.0
 10
8.578618428053288
 20
2.136328596429673
 30
0.0
 10
8.577744889116842
 20
2.133594553912262
 30
0.0
 10
8.576089762710943
 20
2.131789554968729
 30
0.0
 10
8.574441256810669
 20
2.12999177602097
 30
0.0
 10
8.571859995229204
 20
2.129400585778758
 30
0.0
 10
8.568411815216916
 20
2.129904923718863
 30
0.0
  0
LINE
  5
CD
330
6D
100
AcDbEntity
  8
1006585_1GANG_MA
  6
Continuous
 62
     7
100
AcDbLine
 10
8.5547128857
 20
2.144345977
 30
0.0
 11
8.5490560314
 21
2.1410799907
 31
0.0
  0
SPLINE
  5
CE
330
6D
100
AcDbEntity
  8
1006585_1GANG_MA
  6
Continuous
 62
     7
100
AcDbSpline
210
0.0
220
0.0
230
1.0
 70
     8
 71
     3
 72
    13
 73
     9
 74
     0
 42
0.0000001010561808
 43
0.0000000001
 40
0.3765793247359771
 40
0.3765793247359771
 40
0.3765793247359771
 40
0.3765793247359771
 40
0.3766391449957305
 40
0.3766391449957305
 40
0.3766391449957305
 40
0.5006934066722477
 40
0.5006934066722477
 40
0.5850392627184203
 40
0.5850392627184203
 40
0.5850392627184203
 40
0.5850392627184203
 10
8.57438685862089
 20
2.100917725393941
 30
0.0
 10
8.574388072438623
 20
2.100918425167434
 30
0.0
 10
8.574389286098622
 20
2.100919125362108
 30
0.0
 10
8.574390499600888
 20
2.100919825977968
 30
0.0
 10
8.576988128543478
 20
2.102419567747228
 30
0.0
 10
8.578344412681645
 20
2.105485411541023
 30
0.0
 10
8.578344412681645
 20
2.113244372368448
 30
0.0
 10
8.57775544796163
 20
2.116372933947919
 30
0.0
 10
8.57656402042317
 20
2.119481976915951
 30
0.0
  0
SPLINE
  5
CF
330
6D
100
AcDbEntity
  8
1006585_1GANG_MA
  6
Continuous
 62
     7
100
AcDbSpline
210
0.0
220
0.0
230
1.0
 70
     8
 71
     3
 72
    10
 73
     6
 74
     0
 42
0.0000001015153907
 43
0.0000000001
 40
0.6842163037666299
 40
0.6842163037666299
 40
0.6842163037666299
 40
0.6842163037666299
 40
0.7545055742402955
 40
0.7545055742402955
 40
0.8771006900005097
 40
0.8771006900005097
 40
0.8771006900005097
 40
0.8771006900005097
 10
8.570252196705248
 20
2.129710423748465
 30
0.0
 10
8.56840390692529
 20
2.131722115372058
 30
0.0
 10
8.566337765128882
 20
2.133387293405195
 30
0.0
 10
8.56004870412759
 20
2.137018284467242
 30
0.0
 10
8.556740176931214
 20
2.137390932120148
 30
0.0
 10
8.554120377974893
 20
2.135881394343066
 30
0.0
  0
SPLINE
  5
D0
330
6D
100
AcDbEntity
  8
1006585_1GANG_MA
  6
Continuous
 62
     7
100
AcDbSpline
210
0.0
220
0.0
230
1.0
 70
     8
 71
     3
 72
    13
 73
     9
 74
     0
 42
0.0000001244414305
 43
0.0000000001
 40
0.3815152401879276
 40
0.3815152401879276
 40
0.3815152401879276
 40
0.3815152401879276
 40
0.3816903251865996
 40
0.3816903251865996
 40
0.3816903251865996
 40
0.5034951643997455
 40
0.5034951643997455
 40
0.6116139237407293
 40
0.6116139237407293
 40
0.6116139237407293
 40
0.6116139237407293
 10
8.57240490626691
 20
2.141394606334909
 30
0.0
 10
8.57240778635458
 20
2.141396261758898
 30
0.0
 10
8.572410665285737
 20
2.141397920212877
 30
0.0
 10
8.57241354306051
 20
2.141399581696916
 30
0.0
 10
8.574505438934631
 20
2.142607338342958
 30
0.0
 10
8.575539892938316
 20
2.14490340317554
 30
0.0
 10
8.575539892938316
 20
2.151517354216078
 30
0.0
 10
8.57473141571407
 20
2.154728956504744
 30
0.0
 10
8.573083725389434
 20
2.15795330468835
 30
0.0
  0
SPLINE
  5
D1
330
6D
100
AcDbEntity
  8
1006585_1GANG_MA
  6
Continuous
 62
     7
100
AcDbSpline
210
0.0
220
0.0
230
1.0
 70
     8
 71
     3
 72
    11
 73
     7
 74
     0
 42
0.0000001319107272
 43
0.0000000001
 40
0.7028857473346939
 40
0.7028857473346939
 40
0.7028857473346939
 40
0.7028857473346939
 40
0.753886117055095
 40
0.753886117055095
 40
0.753886117055095
 40
0.8811925743490517
 40
0.8811925743490517
 40
0.8811925743490517
 40
0.8811925743490517
 10
8.567902773862299
 20
2.164968165437282
 30
0.0
 10
8.566780391667255
 20
2.166022640422602
 30
0.0
 10
8.565570881628314
 20
2.166935730559125
 30
0.0
 10
8.56427583823151
 20
2.167704786888704
 30
0.0
 10
8.561016995061614
 20
2.169640037840987
 30
0.0
 10
8.55830583255525
 20
2.16993375300409
 30
0.0
 10
8.556192106017154
 20
2.168718070917239
 30
0.0
  0
SPLINE
  5
D2
330
6D
100
AcDbEntity
  8
1006585_1GANG_MA
  6
Continuous
 62
     7
100
AcDbSpline
210
0.0
220
0.0
230
1.0
 70
     8
 71
     3
 72
    10
 73
     6
 74
     0
 42
0.0000000703443161
 43
0.0000000001
 40
0.3758603221179465
 40
0.3758603221179465
 40
0.3758603221179465
 40
0.3758603221179465
 40
0.490276247527038
 40
0.490276247527038
 40
0.5753108496095025
 40
0.5753108496095025
 40
0.5753108496095025
 40
0.5753108496095025
 10
8.57789083130082
 20
2.090590767579842
 30
0.0
 10
8.574164273939651
 20
2.089871134387067
 30
0.0
 10
8.569651856346024
 20
2.091020690332022
 30
0.0
 10
8.560280349321015
 20
2.096431332435623
 30
0.0
 10
8.556754062470779
 20
2.099261857309509
 30
0.0
 10
8.553678733530312
 20
2.102626643724459
 30
0.0
  0
SPLINE
  5
D3
330
6D
100
AcDbEntity
  8
1006585_1GANG_MA
  6
Continuous
 62
     7
100
AcDbSpline
210
0.0
220
0.0
230
1.0
 70
     8
 71
     3
 72
    12
 73
     8
 74
     0
 42
0.0000000713675528
 43
0.0000000001
 40
0.6339721312638812
 40
0.6339721312638812
 40
0.6339721312638812
 40
0.6339721312638812
 40
0.6360705959417935
 40
0.6360705959417935
 40
0.781864944356549
 40
0.781864944356549
 40
0.8707374636763436
 40
0.8707374636763436
 40
0.8707374636763436
 40
0.8707374636763436
 10
8.547952006211231
 20
2.110356472871033
 30
0.0
 10
8.547891253902195
 20
2.110457822559002
 30
0.0
 10
8.547830768558523
 20
2.110559502033432
 30
0.0
 10
8.543586758157781
 20
2.117748786716203
 30
0.0
 10
8.54147187441691
 20
2.124809517877672
 30
0.0
 10
8.54147187441691
 20
2.136003391975852
 30
0.0
 10
8.54223502935692
 20
2.139238125742098
 30
0.0
 10
8.543761339236939
 20
2.141468273929434
 30
0.0
  0
SPLINE
  5
D4
330
6D
100
AcDbEntity
  8
1006585_1GANG_MA
  6
Continuous
 62
     7
100
AcDbSpline
210
0.0
220
0.0
230
1.0
 70
     8
 71
     3
 72
    12
 73
     8
 74
     0
 42
0.0000000875199825
 43
0.0000000001
 40
0.0553563356940601
 40
0.0553563356940601
 40
0.0553563356940601
 40
0.0553563356940601
 40
0.0967104154530404
 40
0.0967104154530404
 40
0.1934208309060807
 40
0.1934208309060807
 40
0.2959699294755332
 40
0.2959699294755332
 40
0.2959699294755332
 40
0.2959699294755332
 10
8.549537640587719
 20
2.15051260429131
 30
0.0
 10
8.548473974048347
 20
2.152074189716086
 30
0.0
 10
8.547578438931135
 20
2.153655189285231
 30
0.0
 10
8.545149933096685
 20
2.158998321396365
 30
0.0
 10
8.544276394160237
 20
2.162794127998207
 30
0.0
 10
8.544276394160237
 20
2.170778977094856
 30
0.0
 10
8.545187075010563
 20
2.173889401798576
 30
0.0
 10
8.546976394315326
 20
2.176037840389326
 30
0.0
  0
SPLINE
  5
D5
330
6D
100
AcDbEntity
  8
1006585_1GANG_MA
  6
Continuous
 62
     7
100
AcDbSpline
210
0.0
220
0.0
230
1.0
 70
     8
 71
     3
 72
     8
 73
     4
 74
     0
 42
0.0000001030705399
 43
0.0000000001
 40
0.9669928645565239
 40
0.9669928645565239
 40
0.9669928645565239
 40
0.9669928645565239
 40
1.0
 40
1.0
 40
1.0
 40
1.0
 10
8.577254164392242
 20
2.133038293709831
 30
0.0
 10
8.576292276848365
 20
2.132955490527097
 30
0.0
 10
8.575229607661827
 20
2.133001108821065
 30
0.0
 10
8.574068669466408
 20
2.133170910042573
 30
0.0
  0
SPLINE
  5
D6
330
6D
100
AcDbEntity
  8
1006585_1GANG_MA
  6
Continuous
 62
     7
100
AcDbSpline
210
0.0
220
0.0
230
1.0
 70
     8
 71
     3
 72
    23
 73
    19
 74
     0
 42
0.0000000703857283
 43
0.0000000001
 40
0.0
 40
0.0
 40
0.0
 40
0.0
 40
0.1114909842004431
 40
0.1114909842004431
 40
0.259019458243453
 40
0.259019458243453
 40
0.259019458243453
 40
0.4099616722575665
 40
0.4099616722575665
 40
0.5535151065646958
 40
0.5535151065646958
 40
0.5535151065646958
 40
0.7248603235675732
 40
0.7248603235675732
 40
0.8662717376000705
 40
0.8662717376000705
 40
0.8662717376000705
 40
1.0
 40
1.0
 40
1.0
 40
1.0
 10
8.60087068306592
 20
2.115677284987484
 30
0.0
 10
8.605008499080666
 20
2.116685960867694
 30
0.0
 10
8.609376193762898
 20
2.115810005498039
 30
0.0
 10
8.619950612467248
 20
2.109704862012559
 30
0.0
 10
8.625007943151937
 20
2.104396041590403
 30
0.0
 10
8.62919173490018
 20
2.097149501714158
 30
0.0
 10
8.633352538781676
 20
2.08994277799108
 30
0.0
 10
8.635398458922298
 20
2.082523701451116
 30
0.0
 10
8.635398458922298
 20
2.067712092473297
 30
0.0
 10
8.633559429582412
 20
2.062562536663805
 30
0.0
 10
8.629927346636135
 20
2.059403788512621
 30
0.0
 10
8.62547565639242
 20
2.055532244680894
 30
0.0
 10
8.61944487939878
 20
2.055740702421332
 30
0.0
 10
8.605514232149135
 20
2.063783565360898
 30
0.0
 10
8.60036494999745
 20
2.068826944761947
 30
0.0
 10
8.596411036916695
 20
2.075144441064313
 30
0.0
 10
8.59243431048989
 20
2.081498388150083
 30
0.0
 10
8.590158337161078
 20
2.08820413930282
 30
0.0
 10
8.589606628359112
 20
2.095264870464288
 30
0.0
  0
LINE
  5
D7
330
6D
100
AcDbEntity
  8
1006585_1GANG_MA
  6
Continuous
 62
     7
100
AcDbLine
 10
8.5896066284
 20
2.0952648705
 30
0.0
 11
8.5985259207
 21
2.0908585495
 31
0.0
  0
SPLINE
  5
D8
330
6D
100
AcDbEntity
  8
1006585_1GANG_MA
  6
Continuous
 62
     7
100
AcDbSpline
210
0.0
220
0.0
230
1.0
 70
     8
 71
     3
 72
    24
 73
    20
 74
     0
 42
0.0000001014657294
 43
0.0000000001
 40
0.0
 40
0.0
 40
0.0
 40
0.0
 40
0.1292658944202325
 40
0.1292658944202325
 40
0.1292658944202325
 40
0.2503447901374086
 40
0.2503447901374086
 40
0.3976029065501858
 40
0.3976029065501858
 40
0.5448610229629622
 40
0.5448610229629622
 40
0.6841592411912648
 40
0.6841592411912648
 40
0.6841592411912648
 40
0.8253415158661409
 40
0.8253415158661409
 40
0.912670757933072
 40
0.912670757933072
 40
1.0
 40
1.0
 40
1.0
 40
1.0
 10
8.598525920657565
 20
2.0908585495139
 30
0.0
 10
8.599215556660022
 20
2.08547009678541
 30
0.0
 10
8.60073275586543
 20
2.080877967120244
 30
0.0
 10
8.603077518273786
 20
2.07702907231418
 30
0.0
 10
8.605447141988341
 20
2.073139368020568
 30
0.0
 10
8.608364727625961
 20
2.07026032627593
 30
0.0
 10
8.615904747919497
 20
2.065907093529763
 30
0.0
 10
8.619352927931784
 20
2.065668196610766
 30
0.0
 10
8.62496196741844
 20
2.06954363551894
 30
0.0
 10
8.626341239423356
 20
2.073419074427115
 30
0.0
 10
8.626341239423356
 20
2.084886126538975
 30
0.0
 10
8.625007943151937
 20
2.090009138246357
 30
0.0
 10
8.622295374875604
 20
2.094813620728409
 30
0.0
 10
8.619605028416585
 20
2.099578744078769
 30
0.0
 10
8.616088650853486
 20
2.103228101097527
 30
0.0
 10
8.60887046069443
 20
2.10739552512892
 30
0.0
 10
8.606387771085581
 20
2.1080856717838
 30
0.0
 10
8.602066052136847
 20
2.107714054354248
 30
0.0
 10
8.600318974263955
 20
2.106811554882482
 30
0.0
 10
8.599077629459531
 20
2.105245452857945
 30
0.0
  0
LINE
  5
D9
330
6D
100
AcDbEntity
  8
1006585_1GANG_MA
  6
Continuous
 62
     7
100
AcDbLine
 10
8.5990776295
 20
2.1052454529
 30
0.0
 11
8.5911238276
 21
2.1111647876
 31
0.0
  0
LINE
  5
DA
330
6D
100
AcDbEntity
  8
1006585_1GANG_MA
  6
Continuous
 62
     7
100
AcDbLine
 10
8.5911238276
 20
2.1111647876
 30
0.0
 11
8.5977903089
 21
2.1484061629
 31
0.0
  0
LINE
  5
DB
330
6D
100
AcDbEntity
  8
1006585_1GANG_MA
  6
Continuous
 62
     7
100
AcDbLine
 10
8.5967806818
 20
2.114430774
 30
0.0
 11
8.5911238276
 21
2.1111647876
 31
0.0
  0
LINE
  5
DC
330
6D
100
AcDbEntity
  8
1006585_1GANG_MA
  6
Continuous
 62
     7
100
AcDbLine
 10
8.5977903089
 20
2.1484061629
 30
0.0
 11
8.6321801576
 21
2.1285511745
 31
0.0
  0
LINE
  5
DD
330
6D
100
AcDbEntity
  8
1006585_1GANG_MA
  6
Continuous
 62
     7
100
AcDbLine
 10
8.6321801576
 20
2.1285511745
 30
0.0
 11
8.6321801576
 21
2.1192076506
 31
0.0
  0
LINE
  5
DE
330
6D
100
AcDbEntity
  8
1006585_1GANG_MA
  6
Continuous
 62
     7
100
AcDbLine
 10
8.6321801576
 20
2.1192076506
 30
0.0
 11
8.6045947175
 21
2.1351341118
 31
0.0
  0
LINE
  5
DF
330
6D
100
AcDbEntity
  8
1006585_1GANG_MA
  6
Continuous
 62
     7
100
AcDbLine
 10
8.6045947175
 20
2.1351341118
 30
0.0
 11
8.6008706831
 21
2.115677285
 31
0.0
  0
LINE
  5
E0
330
6D
100
AcDbEntity
  8
1006585_1GANG_MA
  6
Continuous
 62
     7
100
AcDbLine
 10
8.6102515717
 20
2.1384000982
 30
0.0
 11
8.6045947175
 21
2.1351341118
 31
0.0
  0
SPLINE
  5
E1
330
6D
100
AcDbEntity
  8
1006585_1GANG_MA
  6
Continuous
 62
     7
100
AcDbSpline
210
0.0
220
0.0
230
1.0
 70
     8
 71
     3
 72
    10
 73
     6
 74
     0
 42
0.0000000728033679
 43
0.0000000001
 40
0.6097704132086593
 40
0.6097704132086593
 40
0.6097704132086593
 40
0.6097704132086593
 40
0.7248603235675732
 40
0.7248603235675732
 40
0.8235470524746031
 40
0.8235470524746031
 40
0.8235470524746031
 40
0.8235470524746031
 10
8.630688105887147
 20
2.060180045195074
 30
0.0
 10
8.62699991979216
 20
2.059387603273225
 30
0.0
 10
8.622596038308789
 20
2.0604533526238
 30
0.0
 10
8.613074107656288
 20
2.065950841849225
 30
0.0
 10
8.60923823326447
 20
2.069173834770147
 30
0.0
 10
8.605977764845907
 20
2.073036879695937
 30
0.0
  0
SPLINE
  5
E2
330
6D
100
AcDbEntity
  8
1006585_1GANG_MA
  6
Continuous
 62
     7
100
AcDbSpline
210
0.0
220
0.0
230
1.0
 70
     8
 71
     3
 72
    11
 73
     7
 74
     0
 42
0.0000000617316358
 43
0.0000000001
 40
0.8607171106831348
 40
0.8607171106831348
 40
0.8607171106831348
 40
0.8607171106831348
 40
0.8662717376000705
 40
0.8662717376000705
 40
0.8662717376000705
 40
0.9572736896092086
 40
0.9572736896092086
 40
0.9572736896092086
 40
0.9572736896092086
 10
8.602539349415093
 20
2.077671881013492
 30
0.0
 10
8.602380354175024
 20
2.077916091927043
 30
0.0
 10
8.602223200496596
 20
2.07816227673308
 30
0.0
 10
8.602067891166188
 20
2.078410427388024
 30
0.0
 10
8.59936173271508
 20
2.082734282176764
 30
0.0
 10
8.597443157173998
 20
2.087221050013346
 30
0.0
 10
8.596319573576176
 20
2.091871731715638
 30
0.0
  0
SPLINE
  5
E3
330
6D
100
AcDbEntity
  8
1006585_1GANG_MA
  6
Continuous
 62
     7
100
AcDbSpline
210
0.0
220
0.0
230
1.0
 70
     8
 71
     3
 72
    19
 73
    15
 74
     0
 42
0.0000000997208055
 43
0.0000000001
 40
0.3883049423808365
 40
0.3883049423808365
 40
0.3883049423808365
 40
0.3883049423808365
 40
0.3976029065501858
 40
0.3976029065501858
 40
0.5448610229629622
 40
0.5448610229629622
 40
0.6841592411912648
 40
0.6841592411912648
 40
0.6841592411912648
 40
0.8253415158661409
 40
0.8253415158661409
 40
0.912670757933072
 40
0.912670757933072
 40
0.9614718709763775
 40
0.9614718709763775
 40
0.9614718709763775
 40
0.9614718709763775
 10
8.627275354961327
 20
2.070530882236395
 30
0.0
 10
8.627457577766819
 20
2.070635882484602
 30
0.0
 10
8.627637222896835
 20
2.070749553641389
 30
0.0
 10
8.630618821667932
 20
2.072809621842651
 30
0.0
 10
8.631998093672848
 20
2.076685060750826
 30
0.0
 10
8.631998093672848
 20
2.088152112862686
 30
0.0
 10
8.63066479740143
 20
2.093275124570067
 30
0.0
 10
8.627952229125096
 20
2.098079607052119
 30
0.0
 10
8.625261882666079
 20
2.10284473040248
 30
0.0
 10
8.621745505102979
 20
2.106494087421237
 30
0.0
 10
8.61452731494392
 20
2.11066151145263
 30
0.0
 10
8.612044625335074
 20
2.111351658107511
 30
0.0
 10
8.60867623966463
 20
2.111062016222085
 30
0.0
 10
8.607597927967866
 20
2.110734376973555
 30
0.0
 10
8.60666487684371
 20
2.110192195851884
 30
0.0
  0
LINE
  5
E4
330
6D
100
AcDbEntity
  8
1006585_1GANG_MA
  6
Continuous
 62
     7
100
AcDbLine
 10
8.6043059961
 20
2.1088303259
 30
0.0
 11
8.5967806818
 21
2.114430774
 31
0.0
  0
LINE
  5
E5
330
6D
100
AcDbEntity
  8
1006585_1GANG_MA
  6
Continuous
 62
     7
100
AcDbLine
 10
8.5967806818
 20
2.114430774
 30
0.0
 11
8.6023874166
 21
2.1457520215
 31
0.0
  0
LINE
  5
E6
330
6D
100
AcDbEntity
  8
1006585_1GANG_MA
  6
Continuous
 62
     7
100
AcDbLine
 10
8.6321801576
 20
2.1257396232
 30
0.0
 11
8.6102515717
 21
2.1384000982
 31
0.0
  0
LINE
  5
E7
330
6D
100
AcDbEntity
  8
1006585_1GANG_MA
  6
Continuous
 62
     7
100
AcDbLine
 10
8.29949975
 20
2.3221107671
 30
0.0
 11
8.29949975
 21
2.2418414023
 31
0.0
  0
LINE
  5
E8
330
6D
100
AcDbEntity
  8
1006585_1GANG_MA
  6
Continuous
 62
     7
100
AcDbLine
 10
8.29949975
 20
2.2418414023
 30
0.0
 11
8.2909942393
 21
2.2467520612
 31
0.0
  0
LINE
  5
E9
330
6D
100
AcDbEntity
  8
1006585_1GANG_MA
  6
Continuous
 62
     7
100
AcDbLine
 10
8.2909942393
 20
2.2467520612
 30
0.0
 11
8.2909942393
 21
2.3092899658
 31
0.0
  0
LINE
  5
EA
330
6D
100
AcDbEntity
  8
1006585_1GANG_MA
  6
Continuous
 62
     7
100
AcDbLine
 10
8.2966510935
 20
2.2500180475
 30
0.0
 11
8.2909942393
 21
2.2467520612
 31
0.0
  0
ARC
  5
EB
330
6D
100
AcDbEntity
  8
1006585_1GANG_MA
  6
Continuous
 62
     7
100
AcDbCircle
 10
8.2787263676
 20
2.3393754339
 30
0.0
 40
0.0324905534905389
100
AcDbArc
 50
261.7695229498
 51
292.1840312682
  0
LINE
  5
EC
330
6D
100
AcDbEntity
  8
1006585_1GANG_MA
  6
Continuous
 62
     7
100
AcDbLine
 10
8.2966510935
 20
2.3125559521
 30
0.0
 11
8.2909942393
 21
2.3092899658
 31
0.0
  0
LINE
  5
ED
330
6D
100
AcDbEntity
  8
1006585_1GANG_MA
  6
Continuous
 62
     7
100
AcDbLine
 10
8.2740751694
 20
2.3072195258
 30
0.0
 11
8.2740751694
 21
2.3167223144
 31
0.0
  0
LINE
  5
EE
330
6D
100
AcDbEntity
  8
1006585_1GANG_MA
  6
Continuous
 62
     7
100
AcDbLine
 10
8.2797320236
 20
2.3104855121
 30
0.0
 11
8.2740751694
 21
2.3072195258
 31
0.0
  0
ARC
  5
EF
330
6D
100
AcDbEntity
  8
1006585_1GANG_MA
  6
Continuous
 62
     7
100
AcDbCircle
 10
8.2765823641
 20
2.3384335791
 30
0.0
 40
0.0218555494105867
100
AcDbArc
 50
263.4127197487
 51
322.9636670537
  0
LINE
  5
F0
330
6D
100
AcDbEntity
  8
1006585_1GANG_MA
  6
Continuous
 62
     7
100
AcDbLine
 10
8.2940286377
 20
2.3252695153
 30
0.0
 11
8.29949975
 21
2.3221107671
 31
0.0
  0
LINE
  5
F1
330
6D
100
AcDbEntity
  8
1006585_1GANG_MA
  6
Continuous
 62
     7
100
AcDbLine
 10
8.29949975
 20
2.248373375
 30
0.0
 11
8.2966510935
 21
2.2500180475
 31
0.0
  0
LINE
  5
F2
330
6D
100
AcDbEntity
  8
1006585_1GANG_MA
  6
Continuous
 62
     7
100
AcDbLine
 10
8.2966510935
 20
2.2500180475
 30
0.0
 11
8.2966510935
 21
2.3125559521
 31
0.0
  0
ARC
  5
F3
330
6D
100
AcDbEntity
  8
1006585_1GANG_MA
  6
Continuous
 62
     7
100
AcDbCircle
 10
8.2843832218
 20
2.3426414202
 30
0.0
 40
0.0324905534905343
100
AcDbArc
 50
261.7695229498
 51
292.1840312682
  0
LINE
  5
F4
330
6D
100
AcDbEntity
  8
1006585_1GANG_MA
  6
Continuous
 62
     7
100
AcDbLine
 10
8.2797320236
 20
2.3104855121
 30
0.0
 11
8.2797320236
 21
2.3170466825
 31
0.0
  0
ARC
  5
F5
330
6D
100
AcDbEntity
  8
1006585_1GANG_MA
  6
Continuous
 62
     7
100
AcDbCircle
 10
8.2822392183
 20
2.3416995654
 30
0.0
 40
0.0218555494105868
100
AcDbArc
 50
302.5282623876
 51
306.8531876241
  0
LINE
  5
F6
330
6D
100
AcDbEntity
  8
1006585_1GANG_MA
  6
Continuous
 62
     7
100
AcDbLine
 10
8.3421946333
 20
2.2930327286
 30
0.0
 11
8.3351235654
 21
2.2889502457
 31
0.0
  0
LINE
  5
F7
330
6D
100
AcDbEntity
  8
1006585_1GANG_MA
  6
Continuous
 62
     7
100
AcDbLine
 10
8.3510897449
 20
2.2219641766
 30
0.0
 11
8.3581608127
 21
2.2260466595
 31
0.0
  0
LINE
  5
F8
330
6D
100
AcDbEntity
  8
1006585_1GANG_MA
  6
Continuous
 62
     7
100
AcDbLine
 10
8.3959144413
 20
2.2620463283
 30
0.0
 11
8.3888433735
 21
2.2579638454
 31
0.0
  0
LINE
  5
F9
330
6D
100
AcDbEntity
  8
1006585_1GANG_MA
  6
Continuous
 62
     7
100
AcDbLine
 10
8.4047212981
 20
2.1909471788
 30
0.0
 11
8.4117923659
 21
2.1950296617
 31
0.0
  0
LINE
  5
FA
330
6D
100
AcDbEntity
  8
1006585_1GANG_MA
  6
Continuous
 62
     7
100
AcDbLine
 10
8.4485370547
 20
2.2016984878
 30
0.0
 11
8.4414659869
 21
2.1976160049
 31
0.0
  0
LINE
  5
FB
330
6D
100
AcDbEntity
  8
1006585_1GANG_MA
  6
Continuous
 62
     7
100
AcDbLine
 10
8.4599752171
 20
2.1593075798
 30
0.0
 11
8.4670462849
 21
2.1633900627
 31
0.0
  0
LINE
  5
FC
330
6D
100
AcDbEntity
  8
1006585_1GANG_MA
  6
Continuous
 62
     7
100
AcDbLine
 10
8.4499157247
 20
2.23007785
 30
0.0
 11
8.4428446569
 21
2.2259953671
 31
0.0
  0
LINE
  5
FD
330
6D
100
AcDbEntity
  8
1006585_1GANG_MA
  6
Continuous
 62
     7
100
AcDbLine
 10
8.5000826606
 20
2.1725704354
 30
0.0
 11
8.4930115928
 21
2.1684879525
 31
0.0
  0
LINE
  5
FE
330
6D
100
AcDbEntity
  8
1006585_1GANG_MA
  6
Continuous
 62
     7
100
AcDbLine
 10
8.5136095773
 20
2.1288137804
 30
0.0
 11
8.5206806452
 21
2.1328962634
 31
0.0
  0
LINE
  5
FF
330
6D
100
AcDbEntity
  8
1006585_1GANG_MA
  6
Continuous
 62
     7
100
AcDbLine
 10
8.5568912159
 20
2.1691217111
 30
0.0
 11
8.5498201481
 21
2.1650392282
 31
0.0
  0
LINE
  5
100
330
6D
100
AcDbEntity
  8
1006585_1GANG_MA
  6
Continuous
 62
     7
100
AcDbLine
 10
8.566049582
 20
2.1377253471
 30
0.0
 11
8.5731206499
 21
2.14180783
 31
0.0
  0
LINE
  5
101
330
6D
100
AcDbEntity
  8
1006585_1GANG_MA
  6
Continuous
 62
     7
100
AcDbLine
 10
8.5548223079
 20
2.1362866568
 30
0.0
 11
8.5477512401
 21
2.1322041738
 31
0.0
  0
LINE
  5
102
330
6D
100
AcDbEntity
  8
1006585_1GANG_MA
  6
Continuous
 62
     7
100
AcDbLine
 10
8.5680265384
 20
2.0972455913
 30
0.0
 11
8.5750976062
 21
2.1013280742
 31
0.0
  0
LINE
  5
103
330
6D
100
AcDbEntity
  8
1006585_1GANG_MA
  6
Continuous
 62
     7
100
AcDbLine
 10
8.607388338
 20
2.1106099169
 30
0.0
 11
8.6003172702
 21
2.106527434
 31
0.0
  0
LINE
  5
104
330
6D
100
AcDbEntity
  8
1006585_1GANG_MA
  6
Continuous
 62
     7
100
AcDbLine
 10
8.6209169393
 20
2.0668598461
 30
0.0
 11
8.6279880071
 21
2.070942329
 31
0.0
  0
LINE
  5
105
330
6D
100
AcDbEntity
  8
1006585_1GANG_MA
  6
Continuous
 62
     7
100
AcDbLine
 10
8.2876947147
 20
2.3195413938
 30
0.0
 11
8.2947657825
 21
2.3236238767
 31
0.0
  0
ENDBLK
  5
107
330
6D
100
AcDbEntity
  8
0
100
AcDbBlockEnd
  0
BLOCK
  5
10B
330
108
100
AcDbEntity
  8
0
100
AcDbBlockBegin
  2
_SE_FILLED
 70
     0
 71
     0
 10
0.0
 20
0.0
 30
0.0
  3
_SE_FILLED
  1

  0
SOLID
  5
109
330
108
100
AcDbEntity
  8
0
100
AcDbTrace
 10
0.0
 20
0.0
 30
0.0
 11
-1.0
 21
-0.1665
 31
0.0
 12
-1.0
 22
0.1665
 32
0.0
 13
0.0
 23
0.0
 33
0.0
  0
LINE
  5
10A
330
108
100
AcDbEntity
  8
0
100
AcDbLine
 10
0.0
 20
0.0
 30
0.0
 11
-1.0
 21
0.0
 31
0.0
  0
ENDBLK
  5
10C
330
108
100
AcDbEntity
  8
0
100
AcDbBlockEnd
  0
BLOCK
  5
110
330
10F
100
AcDbEntity
  8
0
100
AcDbBlockBegin
  2
_Oblique
 70
     0
 71
     0
 10
0.0
 20
0.0
 30
0.0
  3
_Oblique
  1

  0
LINE
  5
112
330
10F
100
AcDbEntity
  8
0
  6
ByBlock
 62
     0
370
    -2
100
AcDbLine
 10
-0.5
 20
-0.5
 30
0.0
 11
0.5
 21
0.5
 31
0.0
  0
ENDBLK
  5
111
330
10F
100
AcDbEntity
  8
0
100
AcDbBlockEnd
  0
BLOCK
  5
114
330
113
100
AcDbEntity
  8
0
100
AcDbBlockBegin
  2
_Dot
 70
     0
 71
     0
 10
0.0
 20
0.0
 30
0.0
  3
_Dot
  1

  0
LWPOLYLINE
  5
116
330
113
100
AcDbEntity
  8
0
  6
ByBlock
 62
     0
100
AcDbPolyline
 90
        2
 70
     1
 43
0.5
 10
-0.25
 20
0.0
 42
1.0
 10
0.25
 20
0.0
 42
1.0
  0
LINE
  5
117
330
113
100
AcDbEntity
  8
0
  6
ByBlock
 62
     0
370
    -2
100
AcDbLine
 10
-0.5
 20
0.0
 30
0.0
 11
-1.0
 21
0.0
 31
0.0
  0
ENDBLK
  5
115
330
113
100
AcDbEntity
  8
0
100
AcDbBlockEnd
  0
BLOCK
  5
121
330
119
100
AcDbEntity
  8
0
100
AcDbBlockBegin
  2
DMBLK7
 70
     0
 71
     0
 10
0.0
 20
0.0
 30
0.0
  3
DMBLK7
  1

  0
HATCH
  5
11A
330
119
100
AcDbEntity
  8
Default
  6
Continuous
 62
   136
100
AcDbHatch
 10
0.0
 20
0.0
 30
0.0
210
0.0
220
0.0
230
1.0
  2
SOLID
 70
     1
 71
     0
 91
        1
 92
        1
 93
        3
 72
     1
 10
0.9299738526878288
 20
6.534117476467866
 11
0.829973852063036
 21
6.517450809697067
 72
     1
 10
0.829973852063036
 20
6.517450809697067
 11
0.9299738526878287
 21
6.500784142926268
 72
     1
 10
0.9299738526878288
 20
6.500784142926268
 11
0.9299738526878288
 21
6.534117476467867
 97
        0
 75
     0
 76
     1
 98
        0
  0
HATCH
  5
11B
330
119
100
AcDbEntity
  8
Default
  6
Continuous
 62
   136
100
AcDbHatch
 10
0.0
 20
0.0
 30
0.0
210
0.0
220
0.0
230
1.0
  2
SOLID
 70
     1
 71
     0
 91
        1
 92
        1
 93
        3
 72
     1
 10
5.129973851438243
 20
6.534117476467866
 11
5.129973851438243
 21
6.500784142926268
 72
     1
 10
5.129973851438243
 20
6.500784142926268
 11
5.229973852063036
 21
6.517450809697068
 72
     1
 10
5.229973852063035
 20
6.517450809697067
 11
5.129973851438242
 21
6.534117476467866
 97
        0
 75
     0
 76
     1
 98
        0
  0
LINE
  5
11C
330
119
100
AcDbEntity
  8
Default
  6
Continuous
 62
     7
100
AcDbLine
 10
0.8299738521
 20
5.6632770218
 30
0.0
 11
0.8299738521
 21
6.56745081
 31
0.0
  0
LINE
  5
11D
330
119
100
AcDbEntity
  8
Default
  6
Continuous
 62
     7
100
AcDbLine
 10
5.2299738521
 20
5.6632770218
 30
0.0
 11
5.2299738521
 21
6.56745081
 31
0.0
  0
LINE
  5
11E
330
119
100
AcDbEntity
  8
Default
  6
Continuous
 62
     7
100
AcDbLine
 10
0.8299738521
 20
6.5174508097
 30
0.0
 11
2.83845209
 21
6.5174508097
 31
0.0
  0
LINE
  5
11F
330
119
100
AcDbEntity
  8
Default
  6
Continuous
 62
     7
100
AcDbLine
 10
3.2214956142
 20
6.5174508097
 30
0.0
 11
5.2299738521
 21
6.5174508097
 31
0.0
  0
TEXT
  5
120
330
119
100
AcDbEntity
  8
Default
  6
Continuous
 62
     7
100
AcDbText
 10
2.8734520717
 20
6.4674508097
 30
0.0
 40
0.1
  1
4 3/8
  7
SEACAD_arial_ttf
 11
2.8734520717
 21
6.5674508097
 31
0.0
100
AcDbText
 73
     3
  0
ENDBLK
  5
122
330
119
100
AcDbEntity
  8
0
100
AcDbBlockEnd
  0
BLOCK
  5
12C
330
124
100
AcDbEntity
  8
0
100
AcDbBlockBegin
  2
DMBLK8
 70
     0
 71
     0
 10
0.0
 20
0.0
 30
0.0
  3
DMBLK8
  1

  0
HATCH
  5
125
330
124
100
AcDbEntity
  8
Default
  6
Continuous
 62
   136
100
AcDbHatch
 10
0.0
 20
0.0
 30
0.0
210
0.0
220
0.0
230
1.0
  2
SOLID
 70
     1
 71
     0
 91
        1
 92
        1
 93
        3
 72
     1
 10
5.704461064686488
 20
5.888277020831699
 11
5.687794397915689
 21
5.988277021456493
 72
     1
 10
5.687794397915689
 20
5.988277021456492
 11
5.67112773114489
 21
5.888277020831699
 72
     1
 10
5.67112773114489
 20
5.888277020831699
 11
5.704461064686488
 21
5.888277020831699
 97
        0
 75
     0
 76
     1
 98
        0
  0
HATCH
  5
126
330
124
100
AcDbEntity
  8
Default
  6
Continuous
 62
   136
100
AcDbHatch
 10
0.0
 20
0.0
 30
0.0
210
0.0
220
0.0
230
1.0
  2
SOLID
 70
     1
 71
     0
 91
        1
 92
        1
 93
        3
 72
     1
 10
5.704461064686488
 20
1.963277022081286
 11
5.67112773114489
 21
1.963277022081286
 72
     1
 10
5.67112773114489
 20
1.963277022081286
 11
5.687794397915689
 21
1.863277021456493
 72
     1
 10
5.687794397915689
 20
1.863277021456493
 11
5.704461064686488
 21
1.963277022081286
 97
        0
 75
     0
 76
     1
 98
        0
  0
LINE
  5
127
330
124
100
AcDbEntity
  8
Default
  6
Continuous
 62
     7
100
AcDbLine
 10
4.9049738524
 20
5.9882770215
 30
0.0
 11
5.7377943982
 21
5.9882770215
 31
0.0
  0
LINE
  5
128
330
124
100
AcDbEntity
  8
Default
  6
Continuous
 62
     7
100
AcDbLine
 10
4.9049738524
 20
1.8632770215
 30
0.0
 11
5.7377943982
 21
1.8632770215
 31
0.0
  0
LINE
  5
129
330
124
100
AcDbEntity
  8
Default
  6
Continuous
 62
     7
100
AcDbLine
 10
5.6877943979
 20
5.9882770215
 30
0.0
 11
5.6877943979
 21
4.0107770657
 31
0.0
  0
LINE
  5
12A
330
124
100
AcDbEntity
  8
Default
  6
Continuous
 62
     7
100
AcDbLine
 10
5.6877943979
 20
3.8407771239
 30
0.0
 11
5.6877943979
 21
1.8632770215
 31
0.0
  0
TEXT
  5
12B
330
124
100
AcDbEntity
  8
Default
  6
Continuous
 62
     7
100
AcDbText
 10
5.5312726588
 20
3.8757770876
 30
0.0
 40
0.1
  1
4 1/8
  7
SEACAD_arial_ttf
 11
5.5312726588
 21
3.9757770876
 31
0.0
100
AcDbText
 73
     3
  0
ENDBLK
  5
12D
330
124
100
AcDbEntity
  8
0
100
AcDbBlockEnd
  0
ENDSEC
  0
SECTION
  2
ENTITIES
  0
INSERT
  5
2C
330
1F
100
AcDbEntity
  8
Default
100
AcDbBlockReference
  2
SE
 10
0.0
 20
0.0
 30
0.0
  0
INSERT
  5
6E
330
1F
100
AcDbEntity
  8
Default
100
AcDbBlockReference
  2
SE1
 10
0.0
 20
0.0
 30
0.0
  0
DIMENSION
  5
118
330
1F
100
AcDbEntity
  8
Default
  6
Continuous
 62
     7
100
AcDbDimension
  2
DMBLK7
 10
0.8299738521
 20
6.5174508097
 30
0.0
 11
3.0299738108
 21
6.5174508097
 31
0.0
 70
   161
  1
\A1;<>
 71
     5
 42
-1.0
  3
Fraction
100
AcDbAlignedDimension
 13
0.8299738521
 23
5.6132770215
 33
0.0
 14
5.2299738521
 24
5.6132770215
 34
0.0
  0
DIMENSION
  5
123
330
1F
100
AcDbEntity
  8
Default
  6
Continuous
 62
     7
100
AcDbDimension
  2
DMBLK8
 10
5.6877943979
 20
5.9882770215
 30
0.0
 11
5.6877943979
 21
3.9257770876
 31
0.0
 70
   161
  1
\A1;<>
 71
     5
 42
-1.0
  3
Fraction
100
AcDbAlignedDimension
 13
4.8549738521
 23
5.9882770215
 33
0.0
 14
4.8549738521
 24
1.8632770215
 34
0.0
  0
ENDSEC
  0
SECTION
  2
OBJECTS
  0
DICTIONARY
  5
C
330
0
100
AcDbDictionary
281
     1
  3
ACAD_GROUP
350
D
  3
ACAD_LAYOUT
350
1A
  3
ACAD_MLINESTYLE
350
17
  3
ACAD_PLOTSETTINGS
350
19
  3
ACAD_PLOTSTYLENAME
350
E
  0
DICTIONARY
  5
D
102
{ACAD_REACTORS
330
C
102
}
330
C
100
AcDbDictionary
281
     1
  0
DICTIONARY
  5
1A
102
{ACAD_REACTORS
330
C
102
}
330
C
100
AcDbDictionary
281
     1
  3
Layout1
350
1E
  3
Model
350
22
  0
DICTIONARY
  5
17
102
{ACAD_REACTORS
330
C
102
}
330
C
100
AcDbDictionary
281
     1
  3
Standard
350
18
  0
DICTIONARY
  5
19
102
{ACAD_REACTORS
330
C
102
}
330
C
100
AcDbDictionary
281
     1
  0
ACDBDICTIONARYWDFLT
  5
E
102
{ACAD_REACTORS
330
C
102
}
330
C
100
AcDbDictionary
281
     1
  3
Normal
350
F
100
AcDbDictionaryWithDefault
340
F
  0
LAYOUT
  5
1E
102
{ACAD_REACTORS
330
1A
102
}
330
1A
100
AcDbPlotSettings
  1

  2

  4

  6

 40
0.0
 41
0.0
 42
0.0
 43
0.0
 44
0.0
 45
0.0
 46
0.0
 47
0.0
 48
0.0
 49
0.0
140
0.0
141
0.0
142
1.0
143
1.0
 70
   688
 72
     0
 73
     0
 74
     5
  7

 75
    16
147
1.0
148
0.0
149
0.0
100
AcDbLayout
  1
Layout1
 70
     1
 71
     1
 10
0.0
 20
0.0
 11
10.999978
 21
8.499983
 12
0.0
 22
0.0
 32
0.0
 14
0.0
 24
0.0
 34
0.0
 15
10.999978
 25
8.499983
 35
0.0
146
0.0
 13
0.0
 23
0.0
 33
0.0
 16
1.0
 26
0.0
 36
0.0
 17
0.0
 27
1.0
 37
0.0
 76
     0
330
1B
  0
LAYOUT
  5
22
102
{ACAD_REACTORS
330
1A
102
}
330
1A
100
AcDbPlotSettings
  1

  2

  4

  6

 40
0.0
 41
0.0
 42
0.0
 43
0.0
 44
0.0
 45
0.0
 46
0.0
 47
0.0
 48
0.0
 49
0.0
140
0.0
141
0.0
142
1.0
143
1.0
 70
  1712
 72
     0
 73
     0
 74
     0
  7

 75
     0
147
1.0
148
0.0
149
0.0
100
AcDbLayout
  1
Model
 70
     1
 71
     0
 10
0.0
 20
0.0
 11
10.999978
 21
8.499983
 12
0.0
 22
0.0
 32
0.0
 14
0.0
 24
0.0
 34
0.0
 15
10.999978
 25
8.499983
 35
0.0
146
0.0
 13
0.0
 23
0.0
 33
0.0
 16
1.0
 26
0.0
 36
0.0
 17
0.0
 27
1.0
 37
0.0
 76
     0
330
1F
  0
MLINESTYLE
  5
18
102
{ACAD_REACTORS
330
17
102
}
330
17
100
AcDbMlineStyle
  2
Standard
 70
     0
  3

 62
   256
 51
90.0
 52
90.0
 71
     2
 49
0.5
 62
   256
  6
BYLAYER
 49
-0.5
 62
   256
  6
BYLAYER
  0
ACDBPLACEHOLDER
  5
F
102
{ACAD_REACTORS
330
E
102
}
330
E
  0
ENDSEC
  0
EOF
