  0
SECTION
  2
HEADER
  9
$ACADVER
  1
AC1024
  9
$ACADMAINTVER
 70
     6
  9
$DWGCODEPAGE
  3
ANSI_1252
  9
$INSBASE
 10
0.0
 20
0.0
 30
0.0
  9
$EXTMIN
 10
0.0
 20
0.0
 30
0.0
  9
$EXTMAX
 10
34.0
 20
22.0
 30
0.0
  9
$LIMMIN
 10
0.0
 20
0.0
  9
$LIMMAX
 10
34.0
 20
22.0
  9
$ORTHOMODE
 70
     0
  9
$REGENMODE
 70
     1
  9
$FILLMODE
 70
     1
  9
$QTEXTMODE
 70
     0
  9
$MIRRTEXT
 70
     1
  9
$LTSCALE
 40
1.0
  9
$ATTMODE
 70
     1
  9
$TEXTSIZE
 40
0.25
  9
$TRACEWID
 40
0.05
  9
$TEXTSTYLE
  7
Standard
  9
$CLAYER
  8
0
  9
$CELTYPE
  6
ByLayer
  9
$CECOLOR
 62
   256
  9
$CELTSCALE
 40
1.0
  9
$DISPSILH
 70
     0
  9
$DIMSCALE
 40
1.0
  9
$DIMASZ
 40
0.25
  9
$DIMEXO
 40
0.25
  9
$DIMDLI
 40
0.38
  9
$DIMRND
 40
0.0
  9
$DIMDLE
 40
0.0
  9
$DIMEXE
 40
0.125
  9
$DIMTP
 40
0.0
  9
$DIMTM
 40
0.0
  9
$DIMTXT
 40
0.25
  9
$DIMCEN
 40
0.09
  9
$DIMTSZ
 40
0.0
  9
$DIMTOL
 70
     0
  9
$DIMLIM
 70
     0
  9
$DIMTIH
 70
     1
  9
$DIMTOH
 70
     1
  9
$DIMSE1
 70
     0
  9
$DIMSE2
 70
     0
  9
$DIMTAD
 70
     0
  9
$DIMZIN
 70
     0
  9
$DIMBLK
  1

  9
$DIMASO
 70
     1
  9
$DIMSHO
 70
     1
  9
$DIMPOST
  1

  9
$DIMAPOST
  1

  9
$DIMALT
 70
     0
  9
$DIMALTD
 70
     2
  9
$DIMALTF
 40
25.4
  9
$DIMLFAC
 40
1.0
  9
$DIMTOFL
 70
     0
  9
$DIMTVP
 40
0.0
  9
$DIMTIX
 70
     0
  9
$DIMSOXD
 70
     0
  9
$DIMSAH
 70
     0
  9
$DIMBLK1
  1

  9
$DIMBLK2
  1

  9
$DIMSTYLE
  2
Standard
  9
$DIMCLRD
 70
     0
  9
$DIMCLRE
 70
     0
  9
$DIMCLRT
 70
     0
  9
$DIMTFAC
 40
1.0
  9
$DIMGAP
 40
0.25
  9
$DIMJUST
 70
     0
  9
$DIMSD1
 70
     0
  9
$DIMSD2
 70
     0
  9
$DIMTOLJ
 70
     1
  9
$DIMTZIN
 70
     0
  9
$DIMALTZ
 70
     0
  9
$DIMALTTZ
 70
     0
  9
$DIMUPT
 70
     0
  9
$DIMDEC
 70
     0
  9
$DIMTDEC
 70
     0
  9
$DIMALTU
 70
     2
  9
$DIMALTTD
 70
     2
  9
$DIMTXSTY
  7
Standard
  9
$DIMAUNIT
 70
     0
  9
$DIMADEC
 70
     0
  9
$DIMALTRND
 40
0.0
  9
$DIMAZIN
 70
     0
  9
$DIMDSEP
 70
    46
  9
$DIMATFIT
 70
     3
  9
$DIMFRAC
 70
     0
  9
$DIMLDRBLK
  1

  9
$DIMLUNIT
 70
     2
  9
$DIMLWD
 70
    -2
  9
$DIMLWE
 70
    -2
  9
$DIMTMOVE
 70
     0
  9
$DIMFXL
 40
1.0
  9
$DIMFXLON
 70
     0
  9
$DIMJOGANG
 40
0.7853981634
  9
$DIMTFILL
 70
     0
  9
$DIMTFILLCLR
 70
     0
  9
$DIMARCSYM
 70
     0
  9
$DIMLTYPE
  6

  9
$DIMLTEX1
  6

  9
$DIMLTEX2
  6

  9
$DIMTXTDIRECTION
 70
     0
  9
$LUNITS
 70
     2
  9
$LUPREC
 70
     0
  9
$SKETCHINC
 40
0.1
  9
$FILLETRAD
 40
0.5
  9
$AUNITS
 70
     0
  9
$AUPREC
 70
     0
  9
$MENU
  1
.
  9
$ELEVATION
 40
0.0
  9
$PELEVATION
 40
0.0
  9
$THICKNESS
 40
0.0
  9
$LIMCHECK
 70
     0
  9
$CHAMFERA
 40
0.5
  9
$CHAMFERB
 40
0.5
  9
$CHAMFERC
 40
1.0
  9
$CHAMFERD
 40
0.0
  9
$SKPOLY
 70
     0
  9
$TDCREATE
 40
2456204.402208808
  9
$TDUCREATE
 40
2456204.568875474
  9
$TDUPDATE
 40
2456204.402209491
  9
$TDUUPDATE
 40
2456204.568876158
  9
$TDINDWG
 40
0.0000000116
  9
$TDUSRTIMER
 40
0.0000000116
  9
$USRTIMER
 70
     1
  9
$ANGBASE
 50
0.0
  9
$ANGDIR
 70
     0
  9
$PDMODE
 70
     0
  9
$PDSIZE
 40
-1.0
  9
$PLINEWID
 40
0.0
  9
$SPLFRAME
 70
     0
  9
$SPLINETYPE
 70
     6
  9
$SPLINESEGS
 70
     8
  9
$HANDSEED
  5
38A
  9
$SURFTAB1
 70
     6
  9
$SURFTAB2
 70
     6
  9
$SURFTYPE
 70
     6
  9
$SURFU
 70
     6
  9
$SURFV
 70
     6
  9
$UCSBASE
  2

  9
$UCSNAME
  2

  9
$UCSORG
 10
0.0
 20
0.0
 30
0.0
  9
$UCSXDIR
 10
1.0
 20
0.0
 30
0.0
  9
$UCSYDIR
 10
0.0
 20
1.0
 30
0.0
  9
$UCSORTHOREF
  2

  9
$UCSORTHOVIEW
 70
     0
  9
$UCSORGTOP
 10
0.0
 20
0.0
 30
0.0
  9
$UCSORGBOTTOM
 10
0.0
 20
0.0
 30
0.0
  9
$UCSORGLEFT
 10
0.0
 20
0.0
 30
0.0
  9
$UCSORGRIGHT
 10
0.0
 20
0.0
 30
0.0
  9
$UCSORGFRONT
 10
0.0
 20
0.0
 30
0.0
  9
$UCSORGBACK
 10
0.0
 20
0.0
 30
0.0
  9
$PUCSBASE
  2

  9
$PUCSNAME
  2

  9
$PUCSORG
 10
0.0
 20
0.0
 30
0.0
  9
$PUCSXDIR
 10
1.0
 20
0.0
 30
0.0
  9
$PUCSYDIR
 10
0.0
 20
1.0
 30
0.0
  9
$PUCSORTHOREF
  2

  9
$PUCSORTHOVIEW
 70
     0
  9
$PUCSORGTOP
 10
0.0
 20
0.0
 30
0.0
  9
$PUCSORGBOTTOM
 10
0.0
 20
0.0
 30
0.0
  9
$PUCSORGLEFT
 10
0.0
 20
0.0
 30
0.0
  9
$PUCSORGRIGHT
 10
0.0
 20
0.0
 30
0.0
  9
$PUCSORGFRONT
 10
0.0
 20
0.0
 30
0.0
  9
$PUCSORGBACK
 10
0.0
 20
0.0
 30
0.0
  9
$USERI1
 70
     0
  9
$USERI2
 70
     0
  9
$USERI3
 70
     0
  9
$USERI4
 70
     0
  9
$USERI5
 70
     0
  9
$USERR1
 40
0.0
  9
$USERR2
 40
0.0
  9
$USERR3
 40
0.0
  9
$USERR4
 40
0.0
  9
$USERR5
 40
0.0
  9
$WORLDVIEW
 70
     1
  9
$SHADEDGE
 70
     3
  9
$SHADEDIF
 70
    70
  9
$TILEMODE
 70
     1
  9
$MAXACTVP
 70
    64
  9
$PINSBASE
 10
0.0
 20
0.0
 30
0.0
  9
$PLIMCHECK
 70
     0
  9
$PEXTMIN
 10
1.0000000000E+20
 20
1.0000000000E+20
 30
1.0000000000E+20
  9
$PEXTMAX
 10
-1.0000000000E+20
 20
-1.0000000000E+20
 30
-1.0000000000E+20
  9
$PLIMMIN
 10
0.0
 20
0.0
  9
$PLIMMAX
 10
12.0
 20
9.0
  9
$UNITMODE
 70
     0
  9
$VISRETAIN
 70
     1
  9
$PLINEGEN
 70
     0
  9
$PSLTSCALE
 70
     1
  9
$TREEDEPTH
 70
  3020
  9
$CMLSTYLE
  2
Standard
  9
$CMLJUST
 70
     0
  9
$CMLSCALE
 40
1.0
  9
$PROXYGRAPHICS
 70
     1
  9
$MEASUREMENT
 70
     0
  9
$CELWEIGHT
370
    -1
  9
$ENDCAPS
280
     0
  9
$JOINSTYLE
280
     0
  9
$LWDISPLAY
290
     1
  9
$INSUNITS
 70
     1
  9
$HYPERLINKBASE
  1

  9
$STYLESHEET
  1

  9
$XEDIT
290
     1
  9
$CEPSNTYPE
380
     0
  9
$PSTYLEMODE
290
     1
  9
$FINGERPRINTGUID
  2
{0C6DD822-486D-42E4-BEB9-9C73F2517A11}
  9
$VERSIONGUID
  2
{FAEB1C32-E019-11D5-929B-00C0DF256EC4}
  9
$EXTNAMES
290
     1
  9
$PSVPSCALE
 40
0.0
  9
$OLESTARTUP
290
     0
  9
$SORTENTS
280
   127
  9
$INDEXCTL
280
     0
  9
$HIDETEXT
280
     1
  9
$XCLIPFRAME
280
     2
  9
$HALOGAP
280
     0
  9
$OBSCOLOR
 70
   257
  9
$OBSLTYPE
280
     0
  9
$INTERSECTIONDISPLAY
280
     0
  9
$INTERSECTIONCOLOR
 70
   257
  9
$DIMASSOC
280
     2
  9
$PROJECTNAME
  1

  9
$CAMERADISPLAY
290
     0
  9
$LENSLENGTH
 40
50.0
  9
$CAMERAHEIGHT
 40
0.0
  9
$STEPSPERSEC
 40
2.0
  9
$STEPSIZE
 40
6.0
  9
$3DDWFPREC
 40
2.0
  9
$PSOLWIDTH
 40
0.25
  9
$PSOLHEIGHT
 40
4.0
  9
$LOFTANG1
 40
1.5707963268
  9
$LOFTANG2
 40
1.5707963268
  9
$LOFTMAG1
 40
0.0
  9
$LOFTMAG2
 40
0.0
  9
$LOFTPARAM
 70
     7
  9
$LOFTNORMALS
280
     1
  9
$LATITUDE
 40
37.795
  9
$LONGITUDE
 40
-122.394
  9
$NORTHDIRECTION
 40
0.0
  9
$TIMEZONE
 70
 -8000
  9
$LIGHTGLYPHDISPLAY
280
     1
  9
$TILEMODELIGHTSYNCH
280
     1
  9
$SOLIDHIST
280
     1
  9
$SHOWHIST
280
     1
  9
$DWFFRAME
280
     2
  9
$DGNFRAME
280
     2
  9
$REALWORLDSCALE
290
     1
  9
$INTERFERECOLOR
 62
   256
  9
$CSHADOW
280
     0
  9
$SHADOWPLANELOCATION
 40
0.0
  0
ENDSEC
  0
SECTION
  2
CLASSES
  0
CLASS
  1
ACDBDICTIONARYWDFLT
  2
AcDbDictionaryWithDefault
  3
ObjectDBX Classes
 90
        0
 91
        4
280
     0
281
     0
  0
CLASS
  1
VISUALSTYLE
  2
AcDbVisualStyle
  3
ObjectDBX Classes
 90
     4095
 91
        4
280
     0
281
     0
  0
CLASS
  1
MATERIAL
  2
AcDbMaterial
  3
ObjectDBX Classes
 90
     1153
 91
        4
280
     0
281
     0
  0
ENDSEC
  0
SECTION
  2
TABLES
  0
TABLE
  2
VPORT
  5
8
330
0
100
AcDbSymbolTable
 70
     1
  0
VPORT
  5
29
330
8
100
AcDbSymbolTableRecord
100
AcDbViewportTableRecord
  2
*Active
 70
     0
 10
0.0
 20
0.0
 11
1.0
 21
1.0
 12
17.0
 22
11.0
 13
0.0
 23
0.0
 14
0.5
 24
0.5
 15
0.5
 25
0.5
 16
0.0
 26
0.0
 36
1.0
 17
0.0
 27
0.0
 37
0.0
 40
22.0
 41
1.5454545455
 42
50.0
 43
0.0
 44
0.0
 50
0.0
 51
0.0
 71
     0
 72
  2000
 73
     1
 74
     3
 75
     0
 76
     0
 77
     0
 78
     0
281
     0
 65
     1
110
0.0
120
0.0
130
0.0
111
1.0
121
0.0
131
0.0
112
0.0
122
1.0
132
0.0
 79
     0
146
0.0
 60
     3
 61
     5
292
     1
282
     1
141
0.0
142
0.0
 63
   250
  0
ENDTAB
  0
TABLE
  2
LTYPE
  5
5
330
0
100
AcDbSymbolTable
 70
     6
  0
LTYPE
  5
14
330
5
100
AcDbSymbolTableRecord
100
AcDbLinetypeTableRecord
  2
ByBlock
 70
     0
  3

 72
    65
 73
     0
 40
0.0
  0
LTYPE
  5
15
330
5
100
AcDbSymbolTableRecord
100
AcDbLinetypeTableRecord
  2
ByLayer
 70
     0
  3

 72
    65
 73
     0
 40
0.0
  0
LTYPE
  5
16
330
5
100
AcDbSymbolTableRecord
100
AcDbLinetypeTableRecord
  2
Continuous
 70
     0
  3
Solid line
 72
    65
 73
     0
 40
0.0
  0
LTYPE
  5
3F
330
5
100
AcDbSymbolTableRecord
100
AcDbLinetypeTableRecord
  2
HIDDEN
 70
     0
  3
Hidden __ __ __ __ __ __ __ __ __ __ __ __ __ __
 72
    65
 73
     2
 40
0.075
 49
0.05
 74
     0
 49
-0.025
 74
     0
  0
LTYPE
  5
40
330
5
100
AcDbSymbolTableRecord
100
AcDbLinetypeTableRecord
  2
PHANTOM
 70
     0
  3
Phantom ______  __  __  ______  __  __  ______
 72
    65
 73
     6
 40
0.5
 49
0.25
 74
     0
 49
-0.05
 74
     0
 49
0.05
 74
     0
 49
-0.05
 74
     0
 49
0.05
 74
     0
 49
-0.05
 74
     0
  0
LTYPE
  5
41
330
5
100
AcDbSymbolTableRecord
100
AcDbLinetypeTableRecord
  2
CENTER
 70
     0
  3
Center ____ _ ____ _ ____ _ ____ _ ____ _ ____
 72
    65
 73
     4
 40
0.4
 49
0.25
 74
     0
 49
-0.05
 74
     0
 49
0.05
 74
     0
 49
-0.05
 74
     0
  0
LTYPE
  5
42
330
5
100
AcDbSymbolTableRecord
100
AcDbLinetypeTableRecord
  2
CENTERX2
 70
     0
  3
Center (2x) ________  __  ________  __  _____
 72
    65
 73
     4
 40
0.8
 49
0.5
 74
     0
 49
-0.1
 74
     0
 49
0.1
 74
     0
 49
-0.1
 74
     0
  0
LTYPE
  5
43
330
5
100
AcDbSymbolTableRecord
100
AcDbLinetypeTableRecord
  2
DOT2
 70
     0
  3
Dot (.5x) ........................................
 72
    65
 73
     2
 40
0.025
 49
0.0
 74
     0
 49
-0.025
 74
     0
  0
ENDTAB
  0
TABLE
  2
LAYER
  5
2
330
0
100
AcDbSymbolTable
 70
     7
  0
LAYER
  5
10
330
2
100
AcDbSymbolTableRecord
100
AcDbLayerTableRecord
  2
0
 70
     0
 62
     7
  6
Continuous
370
    -3
390
F
347
3E
  0
LAYER
  5
44
330
2
100
AcDbSymbolTableRecord
100
AcDbLayerTableRecord
  2
FORMAT
 70
     0
 62
     7
  6
Continuous
370
    -3
390
F
347
3E
  0
LAYER
  5
45
330
2
100
AcDbSymbolTableRecord
100
AcDbLayerTableRecord
  2
DEFAULT
 70
     0
 62
   179
  6
Continuous
370
    -3
390
F
347
3E
  0
LAYER
  5
46
330
2
100
AcDbSymbolTableRecord
100
AcDbLayerTableRecord
  2
INSPECTION_TAGS
 70
     0
 62
     7
  6
Continuous
370
    -3
390
F
347
3E
  0
LAYER
  5
47
330
2
100
AcDbSymbolTableRecord
100
AcDbLayerTableRecord
  2
REVISIONS
 70
     0
 62
     7
  6
Continuous
370
    -3
390
F
347
3E
  0
LAYER
  5
48
330
2
100
AcDbSymbolTableRecord
100
AcDbLayerTableRecord
  2
DIMENSIONS_&_ANNOTATIONS
 70
     0
 62
     7
  6
Continuous
370
    -3
390
F
347
3E
  0
LAYER
  5
49
330
2
100
AcDbSymbolTableRecord
100
AcDbLayerTableRecord
  2
DIMENSION_&_ANNOTATIONS
 70
     0
 62
     7
  6
Continuous
370
    -3
390
F
347
3E
  0
ENDTAB
  0
TABLE
  2
STYLE
  5
3
330
0
100
AcDbSymbolTable
 70
     2
  0
STYLE
  5
11
330
3
100
AcDbSymbolTableRecord
100
AcDbTextStyleTableRecord
  2
Standard
 70
     0
 40
0.0
 41
1.0
 50
0.0
 71
     0
 42
0.25
  3
txt
  4

  0
STYLE
  5
4D
330
3
100
AcDbSymbolTableRecord
100
AcDbTextStyleTableRecord
  2
SLDTEXTSTYLE0
 70
     0
 40
0.0
 41
0.75
 50
0.0
 71
     0
 42
0.2
  3
TXT
  4

  0
ENDTAB
  0
TABLE
  2
VIEW
  5
6
330
0
100
AcDbSymbolTable
 70
     0
  0
ENDTAB
  0
TABLE
  2
UCS
  5
7
330
0
100
AcDbSymbolTable
 70
     0
  0
ENDTAB
  0
TABLE
  2
APPID
  5
9
330
0
100
AcDbSymbolTable
 70
     1
  0
APPID
  5
12
330
9
100
AcDbSymbolTableRecord
100
AcDbRegAppTableRecord
  2
ACAD
 70
     0
  0
ENDTAB
  0
TABLE
  2
DIMSTYLE
  5
A
330
0
100
AcDbSymbolTable
 70
     2
100
AcDbDimStyleTable
  0
DIMSTYLE
105
27
330
A
100
AcDbSymbolTableRecord
100
AcDbDimStyleTableRecord
  2
Standard
 70
     0
178
     0
340
11
  0
DIMSTYLE
105
129
102
{ACAD_REACTORS
330
128
330
2A1
102
}
330
A
100
AcDbSymbolTableRecord
100
AcDbDimStyleTableRecord
  2
SLDDIMSTYLE0
 70
     0
 41
0.25
 44
0.0
 45
0.000000001
 78
    12
 79
     3
140
0.25
147
0.0625
148
0.000000001
170
     1
171
     0
173
     1
178
     0
271
     0
272
     0
274
     0
276
     2
277
     5
284
    12
340
4D
  0
ENDTAB
  0
TABLE
  2
BLOCK_RECORD
  5
1
330
0
100
AcDbSymbolTable
 70
     4
  0
BLOCK_RECORD
  5
1F
330
1
100
AcDbSymbolTableRecord
100
AcDbBlockTableRecord
  2
*Model_Space
340
22
 70
     0
280
     1
281
     0
  0
BLOCK_RECORD
  5
1B
330
1
100
AcDbSymbolTableRecord
100
AcDbBlockTableRecord
  2
*Paper_Space
340
1E
 70
     0
280
     1
281
     0
  0
BLOCK_RECORD
  5
23
330
1
100
AcDbSymbolTableRecord
100
AcDbBlockTableRecord
  2
*Paper_Space0
340
26
 70
     0
280
     1
281
     0
  0
BLOCK_RECORD
  5
4A
330
1
100
AcDbSymbolTableRecord
100
AcDbBlockTableRecord
  2
SW_NOTE_8
340
0
102
{BLKREFS
331
52
102
}
 70
     0
280
     1
281
     0
  0
BLOCK_RECORD
  5
12A
330
1
100
AcDbSymbolTableRecord
100
AcDbBlockTableRecord
  2
_D
340
0
 70
     0
280
     1
281
     0
  0
BLOCK_RECORD
  5
2A2
330
1
100
AcDbSymbolTableRecord
100
AcDbBlockTableRecord
  2
_D_1
340
0
 70
     0
280
     1
281
     0
  0
ENDTAB
  0
ENDSEC
  0
SECTION
  2
BLOCKS
  0
BLOCK
  5
20
330
1F
100
AcDbEntity
  8
0
100
AcDbBlockBegin
  2
*Model_Space
 70
     0
 10
0.0
 20
0.0
 30
0.0
  3
*Model_Space
  1

  0
ENDBLK
  5
21
330
1F
100
AcDbEntity
  8
0
100
AcDbBlockEnd
  0
BLOCK
  5
1C
330
1B
100
AcDbEntity
 67
     1
  8
0
100
AcDbBlockBegin
  2
*Paper_Space
 70
     0
 10
0.0
 20
0.0
 30
0.0
  3
*Paper_Space
  1

  0
ENDBLK
  5
1D
330
1B
100
AcDbEntity
 67
     1
  8
0
100
AcDbBlockEnd
  0
BLOCK
  5
24
330
23
100
AcDbEntity
  8
0
100
AcDbBlockBegin
  2
*Paper_Space0
 70
     0
 10
0.0
 20
0.0
 30
0.0
  3
*Paper_Space0
  1

  0
ENDBLK
  5
25
330
23
100
AcDbEntity
  8
0
100
AcDbBlockEnd
  0
BLOCK
  5
4B
330
4A
100
AcDbEntity
  8
0
100
AcDbBlockBegin
  2
SW_NOTE_8
 70
     0
 10
0.0
 20
0.0
 30
0.0
  3
SW_NOTE_8
  1

  0
MTEXT
  5
4E
330
4A
100
AcDbEntity
  8
DEFAULT
 62
     0
100
AcDbMText
 10
1.5234375
 20
0.6445338699
 30
0.0
 40
0.5
 41
0.0
 46
0.0
 71
     2
 72
     1
  1
LEGRAND
  7
SLDTEXTSTYLE0
 73
     1
 44
1.0
  0
MTEXT
  5
4F
330
4A
100
AcDbEntity
  8
DEFAULT
 62
     0
100
AcDbMText
 10
1.5223954217
 20
-0.001993928
 30
0.0
 40
0.5
 41
0.0
 46
0.0
 71
     2
 72
     1
  1
SYSTEM: Floor Boxes
  7
SLDTEXTSTYLE0
 73
     1
 44
1.0
  0
MTEXT
  5
50
330
4A
100
AcDbEntity
  8
DEFAULT
 62
     0
100
AcDbMText
 10
1.4968751242
 20
-0.648521726
 30
0.0
 40
0.5
 41
0.0
 46
0.0
 71
     2
 72
     1
  1
Catalog Number: RP4FFCTC
  7
SLDTEXTSTYLE0
 73
     1
 44
1.0
  0
MTEXT
  5
51
330
4A
100
AcDbEntity
  8
DEFAULT
 62
     0
100
AcDbMText
 10
1.5260417013
 20
-1.2950495239
 30
0.0
 40
0.5
 41
0.0
 46
0.0
 71
     2
 72
     1
  1
10/03/12
  7
SLDTEXTSTYLE0
 73
     1
 44
1.0
  0
ENDBLK
  5
4C
330
4A
100
AcDbEntity
  8
0
100
AcDbBlockEnd
  0
BLOCK
  5
12B
330
12A
100
AcDbEntity
  8
0
100
AcDbBlockBegin
  2
_D
 70
     0
 10
0.0
 20
0.0
 30
0.0
  3
_D
  1

  0
SOLID
  5
12D
330
12A
100
AcDbEntity
  8
DEFAULT
 62
     7
100
AcDbTrace
 10
15.2728103589
 20
9.0064295437
 30
0.0
 11
15.2103103589
 21
8.7564295437
 31
0.0
 12
15.3353103589
 22
8.7564295437
 32
0.0
 13
15.3353103589
 23
8.7564295437
 33
0.0
  0
SOLID
  5
12E
330
12A
100
AcDbEntity
  8
DEFAULT
 62
     7
100
AcDbTrace
 10
15.2728103589
 20
5.1544295437
 30
0.0
 11
15.3353103589
 21
5.4044295437
 31
0.0
 12
15.2103103589
 22
5.4044295437
 32
0.0
 13
15.2103103589
 23
5.4044295437
 33
0.0
  0
LINE
  5
12F
330
12A
100
AcDbEntity
  8
DEFAULT
 62
     7
100
AcDbLine
 10
15.3620464724
 20
7.5796483083
 30
0.0
 11
15.062046476
 21
7.0796483144
 31
0.0
  0
LINE
  5
130
330
12A
100
AcDbEntity
  8
DEFAULT
 62
     7
100
AcDbLine
 10
14.7121115881
 20
6.955603169
 30
0.0
 11
14.6613303355
 21
6.955603169
 31
0.0
  0
LINE
  5
131
330
12A
100
AcDbEntity
  8
DEFAULT
 62
     7
100
AcDbLine
 10
14.6613303355
 20
6.955603169
 30
0.0
 11
14.6613303355
 21
6.5587281571
 31
0.0
  0
LINE
  5
132
330
12A
100
AcDbEntity
  8
DEFAULT
 62
     7
100
AcDbLine
 10
14.6613303355
 20
6.5587281571
 30
0.0
 11
14.7121115881
 21
6.5587281571
 31
0.0
  0
LINE
  5
133
330
12A
100
AcDbEntity
  8
DEFAULT
 62
     7
100
AcDbLine
 10
15.8335091848
 20
6.955603169
 30
0.0
 11
15.8842904374
 21
6.955603169
 31
0.0
  0
LINE
  5
134
330
12A
100
AcDbEntity
  8
DEFAULT
 62
     7
100
AcDbLine
 10
15.8842904374
 20
6.955603169
 30
0.0
 11
15.8842904374
 21
6.5587281571
 31
0.0
  0
LINE
  5
135
330
12A
100
AcDbEntity
  8
DEFAULT
 62
     7
100
AcDbLine
 10
15.8842904374
 20
6.5587281571
 30
0.0
 11
15.8335091848
 21
6.5587281571
 31
0.0
  0
LINE
  5
136
330
12A
100
AcDbEntity
  8
DEFAULT
 62
     7
100
AcDbLine
 10
12.6742264036
 20
9.0064295437
 30
0.0
 11
15.3978103589
 21
9.0064295437
 31
0.0
  0
LINE
  5
137
330
12A
100
AcDbEntity
  8
DEFAULT
 62
     7
100
AcDbLine
 10
12.9783172755
 20
5.1544295437
 30
0.0
 11
15.3978103589
 21
5.1544295437
 31
0.0
  0
LINE
  5
138
330
12A
100
AcDbEntity
  8
DEFAULT
 62
     7
100
AcDbLine
 10
15.2728103589
 20
9.0064295437
 30
0.0
 11
15.2728103589
 21
7.6529122103
 31
0.0
  0
LINE
  5
139
330
12A
100
AcDbEntity
  8
DEFAULT
 62
     7
100
AcDbLine
 10
15.2728103589
 20
5.1544295437
 30
0.0
 11
15.2728103589
 21
6.507946877
 31
0.0
  0
MTEXT
  5
13A
330
12A
100
AcDbEntity
  8
DEFAULT
 62
     7
100
AcDbMText
 10
14.8426020287
 20
7.5019463062
 30
0.0039370079
 40
0.25
 41
0.0
 46
0.0
 71
     1
 72
     1
  1
3
  7
SLDTEXTSTYLE0
 73
     1
 44
1.0
  0
MTEXT
  5
13B
330
12A
100
AcDbEntity
  8
DEFAULT
 62
     7
100
AcDbMText
 10
15.0273242515
 20
7.6519152555
 30
0.0039370079
 40
0.25
 41
0.0
 46
0.0
 71
     1
 72
     1
  1
7
  7
SLDTEXTSTYLE0
 73
     1
 44
1.0
  0
MTEXT
  5
13C
330
12A
100
AcDbEntity
  8
DEFAULT
 62
     7
100
AcDbMText
 10
15.2120464742
 20
7.3286513565
 30
0.0039370079
 40
0.25
 41
0.0
 46
0.0
 71
     1
 72
     1
  1
8
  7
SLDTEXTSTYLE0
 73
     1
 44
1.0
  0
MTEXT
  5
13D
330
12A
100
AcDbEntity
  8
DEFAULT
 62
     7
100
AcDbMText
 10
15.396768697
 20
7.5057657509
 30
0.0039370079
 40
0.25
 41
0.0
 46
0.0
 71
     1
 72
     1
  1
"
  7
SLDTEXTSTYLE0
 73
     1
 44
1.0
  0
MTEXT
  5
13E
330
12A
100
AcDbEntity
  8
DEFAULT
 62
     7
100
AcDbMText
 10
14.7755881537
 20
6.8809950783
 30
0.0039370079
 40
0.25
 41
0.0
 46
0.0
 71
     1
 72
     1
  1
98mm
  7
SLDTEXTSTYLE0
 73
     1
 44
1.0
  0
ENDBLK
  5
12C
330
12A
100
AcDbEntity
  8
0
100
AcDbBlockEnd
  0
BLOCK
  5
2A3
330
2A2
100
AcDbEntity
  8
0
100
AcDbBlockBegin
  2
_D_1
 70
     0
 10
0.0
 20
0.0
 30
0.0
  3
_D_1
  1

  0
SOLID
  5
2A5
330
2A2
100
AcDbEntity
  8
DEFAULT
 62
     7
100
AcDbTrace
 10
6.2395432904
 20
10.7100423283
 30
0.0
 11
6.4895432904
 21
10.6475423283
 31
0.0
 12
6.4895432904
 22
10.7725423283
 32
0.0
 13
6.4895432904
 23
10.7725423283
 33
0.0
  0
SOLID
  5
2A6
330
2A2
100
AcDbEntity
  8
DEFAULT
 62
     7
100
AcDbTrace
 10
13.7370912607
 20
10.7100423283
 30
0.0
 11
13.4870912607
 21
10.7725423283
 31
0.0
 12
13.4870912607
 22
10.6475423283
 32
0.0
 13
13.4870912607
 23
10.6475423283
 33
0.0
  0
LINE
  5
2A7
330
2A2
100
AcDbEntity
  8
DEFAULT
 62
     7
100
AcDbLine
 10
10.2660690279
 20
11.209261093
 30
0.0
 11
9.9660690315
 21
10.709261099
 31
0.0
  0
LINE
  5
2A8
330
2A2
100
AcDbEntity
  8
DEFAULT
 62
     7
100
AcDbLine
 10
9.3352574116
 20
10.5852159537
 30
0.0
 11
9.2844761591
 21
10.5852159537
 31
0.0
  0
LINE
  5
2A9
330
2A2
100
AcDbEntity
  8
DEFAULT
 62
     7
100
AcDbLine
 10
9.2844761591
 20
10.5852159537
 30
0.0
 11
9.2844761591
 21
10.1883409417
 31
0.0
  0
LINE
  5
2AA
330
2A2
100
AcDbEntity
  8
DEFAULT
 62
     7
100
AcDbLine
 10
9.2844761591
 20
10.1883409417
 30
0.0
 11
9.3352574116
 21
10.1883409417
 31
0.0
  0
LINE
  5
2AB
330
2A2
100
AcDbEntity
  8
DEFAULT
 62
     7
100
AcDbLine
 10
10.6413771944
 20
10.5852159537
 30
0.0
 11
10.692158447
 21
10.5852159537
 31
0.0
  0
LINE
  5
2AC
330
2A2
100
AcDbEntity
  8
DEFAULT
 62
     7
100
AcDbLine
 10
10.692158447
 20
10.5852159537
 30
0.0
 11
10.692158447
 21
10.1883409417
 31
0.0
  0
LINE
  5
2AD
330
2A2
100
AcDbEntity
  8
DEFAULT
 62
     7
100
AcDbLine
 10
10.692158447
 20
10.1883409417
 30
0.0
 11
10.6413771944
 21
10.1883409417
 31
0.0
  0
LINE
  5
2AE
330
2A2
100
AcDbEntity
  8
DEFAULT
 62
     7
100
AcDbLine
 10
6.2395432904
 20
15.4780796879
 30
0.0
 11
6.2395432904
 21
10.5850423283
 31
0.0
  0
LINE
  5
2AF
330
2A2
100
AcDbEntity
  8
DEFAULT
 62
     7
100
AcDbLine
 10
13.7370912607
 20
15.4780796879
 30
0.0
 11
13.7370912607
 21
10.5850423283
 31
0.0
  0
LINE
  5
2B0
330
2A2
100
AcDbEntity
  8
DEFAULT
 62
     7
100
AcDbLine
 10
6.2395432904
 20
10.7100423283
 30
0.0
 11
9.2016665645
 21
10.7100423283
 31
0.0
  0
LINE
  5
2B1
330
2A2
100
AcDbEntity
  8
DEFAULT
 62
     7
100
AcDbLine
 10
13.7370912607
 20
10.7100423283
 30
0.0
 11
10.7749679865
 21
10.7100423283
 31
0.0
  0
MTEXT
  5
2B2
330
2A2
100
AcDbEntity
  8
DEFAULT
 62
     7
100
AcDbMText
 10
9.3695933431
 20
11.1315590909
 30
-3.6513666463
 40
0.25
 41
0.0
 46
0.0
 71
     1
 72
     1
  1
%%c
  7
SLDTEXTSTYLE0
 73
     1
 44
1.0
  0
MTEXT
  5
2B3
330
2A2
100
AcDbEntity
  8
DEFAULT
 62
     7
100
AcDbMText
 10
9.7466245842
 20
11.1315590909
 30
-3.6513666463
 40
0.25
 41
0.0
 46
0.0
 71
     1
 72
     1
  1
7
  7
SLDTEXTSTYLE0
 73
     1
 44
1.0
  0
MTEXT
  5
2B4
330
2A2
100
AcDbEntity
  8
DEFAULT
 62
     7
100
AcDbMText
 10
9.931346807
 20
11.2815280401
 30
-3.6513666463
 40
0.25
 41
0.0
 46
0.0
 71
     1
 72
     1
  1
1
  7
SLDTEXTSTYLE0
 73
     1
 44
1.0
  0
MTEXT
  5
2B5
330
2A2
100
AcDbEntity
  8
DEFAULT
 62
     7
100
AcDbMText
 10
10.1160690297
 20
10.9582641412
 30
-3.6513666463
 40
0.25
 41
0.0
 46
0.0
 71
     1
 72
     1
  1
2
  7
SLDTEXTSTYLE0
 73
     1
 44
1.0
  0
MTEXT
  5
2B6
330
2A2
100
AcDbEntity
  8
DEFAULT
 62
     7
100
AcDbMText
 10
10.3007912525
 20
11.1353785355
 30
-3.6513666463
 40
0.25
 41
0.0
 46
0.0
 71
     1
 72
     1
  1
"
  7
SLDTEXTSTYLE0
 73
     1
 44
1.0
  0
MTEXT
  5
2B7
330
2A2
100
AcDbEntity
  8
DEFAULT
 62
     7
100
AcDbMText
 10
9.3987339773
 20
10.5106078629
 30
-3.6513666463
 40
0.25
 41
0.0
 46
0.0
 71
     1
 72
     1
  1
190mm
  7
SLDTEXTSTYLE0
 73
     1
 44
1.0
  0
ENDBLK
  5
2A4
330
2A2
100
AcDbEntity
  8
0
100
AcDbBlockEnd
  0
ENDSEC
  0
SECTION
  2
ENTITIES
  0
INSERT
  5
52
330
1F
100
AcDbEntity
  8
DEFAULT
 62
     7
100
AcDbBlockReference
  2
SW_NOTE_8
 10
13.7983317563
 20
3.3290312689
 30
0.0
  0
LINE
  5
53
330
1F
100
AcDbEntity
  8
0
  6
Continuous
 62
     7
370
    15
100
AcDbLine
 10
13.7383173952
 20
8.7184296837
 30
0.0
 11
13.737091276
 21
8.7886681256
 31
0.0
  0
LINE
  5
54
330
1F
100
AcDbEntity
  8
0
  6
Continuous
 62
     7
370
    15
100
AcDbLine
 10
6.239543275
 20
8.7886681256
 30
0.0
 11
6.2383171558
 21
8.7184296837
 31
0.0
  0
LINE
  5
55
330
1F
100
AcDbEntity
  8
0
  6
Continuous
 62
     7
370
    15
100
AcDbLine
 10
13.737091276
 20
8.7886681256
 30
0.0
 11
12.8058443805
 21
8.9696837945
 31
0.0
  0
LINE
  5
56
330
1F
100
AcDbEntity
  8
0
  6
Continuous
 62
     7
370
    15
100
AcDbLine
 10
7.1707901705
 20
8.9696837945
 30
0.0
 11
6.239543275
 21
8.7886681256
 31
0.0
  0
ARC
  5
57
330
1F
100
AcDbEntity
  8
0
  6
Continuous
 62
     7
370
    15
100
AcDbCircle
 10
12.4242264036
 20
7.0064295437
 30
0.0
 40
2.0
100
AcDbArc
 50
79.0
 51
90.0
  0
ARC
  5
58
330
1F
100
AcDbEntity
  8
0
  6
Continuous
 62
     7
370
    15
100
AcDbCircle
 10
7.5524081474
 20
7.0064295437
 30
0.0
 40
2.0
100
AcDbArc
 50
90.0
 51
101.0
  0
ARC
  5
59
330
1F
100
AcDbEntity
  8
0
  6
Continuous
 62
     7
370
    15
100
AcDbCircle
 10
12.6483371871
 20
8.6884295437
 30
0.0
 40
0.0299999999999996
100
AcDbArc
 50
90.0
 51
123.5573097619
  0
ARC
  5
5A
330
1F
100
AcDbEntity
  8
0
  6
Continuous
 62
     7
370
    15
100
AcDbCircle
 10
7.3282973639
 20
8.6884295437
 30
0.0
 40
0.0300000000000001
100
AcDbArc
 50
56.4426902381
 51
90.0
  0
LINE
  5
5B
330
1F
100
AcDbEntity
  8
0
  6
Continuous
 62
     7
370
    15
100
AcDbLine
 10
11.468899585
 20
8.0934479969
 30
0.0
 11
11.4627095899
 21
8.4009293515
 31
0.0
  0
LINE
  5
5C
330
1F
100
AcDbEntity
  8
0
  6
Continuous
 62
     7
370
    15
100
AcDbLine
 10
8.5139218812
 20
8.4009293515
 30
0.0
 11
8.5077417126
 21
8.0934362637
 31
0.0
  0
LINE
  5
5D
330
1F
100
AcDbEntity
  8
0
  6
Continuous
 62
     7
370
    15
100
AcDbLine
 10
6.9570673328
 20
8.5884293722
 30
0.0
 11
6.9570673328
 21
8.4009293515
 31
0.0
  0
LINE
  5
5E
330
1F
100
AcDbEntity
  8
0
  6
Continuous
 62
     7
370
    15
100
AcDbLine
 10
13.0195672183
 20
8.4009293515
 30
0.0
 11
13.0195672183
 21
8.5884293722
 31
0.0
  0
LINE
  5
5F
330
1F
100
AcDbEntity
  8
0
  6
Continuous
 62
     7
370
    15
100
AcDbLine
 10
6.3008172605
 20
8.7134295815
 30
0.0
 11
6.3008172605
 21
8.5884293722
 31
0.0
  0
LINE
  5
60
330
1F
100
AcDbEntity
  8
0
  6
Continuous
 62
     7
370
    15
100
AcDbLine
 10
13.6758172905
 20
8.5884293722
 30
0.0
 11
13.6758172905
 21
8.7134295815
 31
0.0
  0
LINE
  5
61
330
1F
100
AcDbEntity
  8
0
  6
Continuous
 62
     7
370
    15
100
AcDbLine
 10
13.737091276
 20
8.7886681256
 30
0.0
 11
6.239543275
 21
8.7886681256
 31
0.0
  0
LINE
  5
62
330
1F
100
AcDbEntity
  8
0
  6
Continuous
 62
     7
370
    15
100
AcDbLine
 10
13.7383173952
 20
8.7184296837
 30
0.0
 11
6.2383171558
 21
8.7184296837
 31
0.0
  0
LINE
  5
63
330
1F
100
AcDbEntity
  8
0
  6
Continuous
 62
     7
370
    15
100
AcDbLine
 10
12.4242263757
 20
9.0064298234
 30
0.0
 11
7.5524081753
 21
9.0064298234
 31
0.0
  0
ELLIPSE
  5
64
330
1F
100
AcDbEntity
  8
0
  6
Continuous
 62
     7
370
    15
100
AcDbEllipse
 10
11.0836517519
 20
5.7957775725
 30
0.0
 11
0.2499999999999982
 21
0.0
 31
0.0
210
0.0
220
0.0
230
1.0
 40
0.0419262234
 41
1.0220853795111
 42
2.801746708655194
  0
LWPOLYLINE
  5
65
330
1F
100
AcDbEntity
  8
0
  6
Continuous
 62
     7
370
    15
100
AcDbPolyline
 90
        9
 70
   128
 43
0.0
 10
11.2140487358
 20
5.8047202765
 10
11.2133545704
 20
5.7952433726
 10
11.2117394224
 20
5.7861102514
 10
11.2092618844
 20
5.7776523758
 10
11.2060117886
 20
5.7701762755
 10
11.202107127
 20
5.7639538674
 10
11.1976895047
 20
5.7592101355
 10
11.1929192265
 20
5.7561178513
 10
11.187969357
 20
5.7547890666
  0
ELLIPSE
  5
66
330
1F
100
AcDbEntity
  8
0
  6
Continuous
 62
     7
370
    15
100
AcDbEllipse
 10
11.0836517519
 20
5.7458460958
 30
0.0
 11
0.1999999999999993
 21
-8.881784197001252E-16
 31
0.0
210
0.0
220
0.0
230
1.0
 40
0.0524077793
 41
1.022085379511073
 42
2.801746708655347
  0
ARC
  5
67
330
1F
100
AcDbEntity
  8
0
  6
Continuous
 62
     7
370
    15
100
AcDbCircle
 10
10.8975627714
 20
5.7988925234
 30
0.0
 40
0.0496139863037156
100
AcDbArc
 50
179.562481062
 51
267.1438230766
  0
ELLIPSE
  5
68
330
1F
100
AcDbEntity
  8
0
  6
Continuous
 62
     7
370
    15
100
AcDbEllipse
 10
9.9883172755
 20
5.701877772
 30
0.0
 11
2.35
 21
-3.552713678800501E-15
 31
0.0
210
0.0
220
0.0
230
1.0
 40
0.0512927201
 41
0.3218979369549445
 42
1.022085379511058
  0
ARC
  5
69
330
1F
100
AcDbEntity
  8
0
  6
Continuous
 62
     7
370
    15
100
AcDbCircle
 10
12.1679170791
 20
5.7397260172
 30
0.0
 40
0.0496971594944719
100
AcDbArc
 50
272.611748287
 51
0.3296924527
  0
ELLIPSE
  5
6A
330
1F
100
AcDbEntity
  8
0
  6
Continuous
 62
     7
370
    15
100
AcDbEllipse
 10
9.9883172755
 20
5.6519462953
 30
0.0
 11
2.299999999999999
 21
-1.776356839400250E-15
 31
0.0
210
0.0
220
0.0
230
1.0
 40
0.0524077793
 41
0.321897936954931
 42
1.02208537951106
  0
LINE
  5
6B
330
1F
100
AcDbEntity
  8
0
  6
Continuous
 62
     7
370
    15
100
AcDbLine
 10
11.4086990405
 20
8.0934298104
 30
0.0
 11
11.4086990405
 21
7.5814294318
 31
0.0
  0
LINE
  5
6C
330
1F
100
AcDbEntity
  8
0
  6
Continuous
 62
     7
370
    15
100
AcDbLine
 10
11.4086990405
 20
7.5814294318
 30
0.0
 11
11.8171643618
 21
7.5814294318
 31
0.0
  0
LINE
  5
6D
330
1F
100
AcDbEntity
  8
0
  6
Continuous
 62
     7
370
    15
100
AcDbLine
 10
11.8171643618
 20
7.5814294318
 30
0.0
 11
11.8171643618
 21
7.5934295598
 31
0.0
  0
LINE
  5
6E
330
1F
100
AcDbEntity
  8
0
  6
Continuous
 62
     7
370
    15
100
AcDbLine
 10
12.2176134158
 20
5.740011984
 30
0.0
 11
12.2176134158
 21
8.0934298104
 31
0.0
  0
ELLIPSE
  5
6F
330
1F
100
AcDbEntity
  8
0
  6
Continuous
 62
     7
370
    15
100
AcDbEllipse
 10
12.1227498084
 20
5.6892515707
 30
0.0
 11
0.05000000000000249
 21
0.0
 31
0.0
210
0.0
220
0.0
230
1.0
 40
0.0524077793
 41
0.017453292519929
 42
0.321897936954649
  0
LINE
  5
70
330
1F
100
AcDbEntity
  8
0
  6
Continuous
 62
     7
370
    15
100
AcDbLine
 10
12.1835283296
 20
5.6569127839
 30
0.0
 11
12.1727421475
 21
5.6892972898
 31
0.0
  0
LINE
  5
71
330
1F
100
AcDbEntity
  8
0
  6
Continuous
 62
     7
370
    15
100
AcDbLine
 10
8.9374574685
 20
5.6569127839
 30
0.0
 11
12.1835283296
 21
5.6569127839
 31
0.0
  0
LINE
  5
72
330
1F
100
AcDbEntity
  8
0
  6
Continuous
 62
     7
370
    15
100
AcDbLine
 10
10.5497669229
 20
5.7056973671
 30
0.0
 11
8.9374574685
 21
5.6569127839
 31
0.0
  0
ELLIPSE
  5
73
330
1F
100
AcDbEntity
  8
0
  6
Continuous
 62
     7
370
    15
100
AcDbEllipse
 10
10.4497669228
 20
5.7147747725
 30
0.0
 11
0.2000000000000011
 21
0.0
 31
0.0
210
0.0
220
0.0
230
1.0
 40
0.0524077793
 41
5.235987755983163
 42
5.943339362245452
  0
LINE
  5
74
330
1F
100
AcDbEntity
  8
0
  6
Continuous
 62
     7
370
    15
100
AcDbLine
 10
10.8950905537
 20
5.7493401696
 30
0.0
 11
10.6383281465
 21
5.7112809025
 31
0.0
  0
ARC
  5
75
330
1F
100
AcDbEntity
  8
0
  6
Continuous
 62
     7
370
    15
100
AcDbCircle
 10
10.6408004045
 20
5.7608332967
 30
0.0
 40
0.0496140284928701
100
AcDbArc
 50
179.5621891417
 51
267.1437789595
  0
LINE
  5
76
330
1F
100
AcDbEntity
  8
0
  6
Continuous
 62
     7
370
    15
100
AcDbLine
 10
10.5911878244
 20
5.7612124057
 30
0.0
 11
10.8479502316
 21
5.7992713794
 31
0.0
  0
LWPOLYLINE
  5
77
330
1F
100
AcDbEntity
  8
0
  6
Continuous
 62
     7
370
    15
100
AcDbPolyline
 90
        9
 70
   128
 43
0.0
 10
10.5497669229
 20
5.7056973671
 10
10.5450238144
 20
5.707031725
 10
10.5404526705
 20
5.7101278225
 10
10.5362191494
 20
5.7148733144
 10
10.532476736
 20
5.7210960158
 10
10.5293610953
 20
5.7285706495
 10
10.5269851228
 20
5.7370258851
 10
10.5254350207
 20
5.7461557797
 10
10.5247669251
 20
5.7556288702
  0
ELLIPSE
  5
78
330
1F
100
AcDbEntity
  8
0
  6
Continuous
 62
     7
370
    15
100
AcDbEllipse
 10
10.4497669228
 20
5.7647062493
 30
0.0
 11
0.1500000000000004
 21
-8.881784197001252E-16
 31
0.0
210
0.0
220
0.0
230
1.0
 40
0.069877039
 41
5.235987755983031
 42
5.94333936224531
  0
ELLIPSE
  5
79
330
1F
100
AcDbEntity
  8
0
  6
Continuous
 62
     7
370
    15
100
AcDbEllipse
 10
8.9465223563
 20
5.7071185499
 30
0.0
 11
0.1749971424182135
 21
0.005295001494724616
 31
0.0
210
0.0
220
0.0
230
1.0
 40
0.2855882495
 41
3.126470175123305
 42
4.651926701724862
  0
LINE
  5
7A
330
1F
100
AcDbEntity
  8
0
  6
Continuous
 62
     7
370
    15
100
AcDbLine
 10
8.771522332
 20
5.7025798564
 30
0.0
 11
10.5247669251
 21
5.7556288702
 31
0.0
  0
ELLIPSE
  5
7B
330
1F
100
AcDbEntity
  8
0
  6
Continuous
 62
     7
370
    15
100
AcDbEllipse
 10
12.1227498084
 20
5.7391830474
 30
0.0
 11
0.1000000000000014
 21
0.0
 31
0.0
210
0.0
220
0.0
230
1.0
 40
0.0262038896
 41
0.0174532925199293
 42
0.3218979369549655
  0
ARC
  5
7C
330
1F
100
AcDbEntity
  8
0
  6
Continuous
 62
     7
370
    15
100
AcDbCircle
 10
12.1727193759
 20
5.7393124955
 30
0.0
 40
0.0500152108433973
100
AcDbArc
 50
270.0260864572
 51
359.9041131575
  0
LINE
  5
7D
330
1F
100
AcDbEntity
  8
0
  6
Continuous
 62
     7
370
    15
100
AcDbLine
 10
12.2227345167
 20
8.0934298104
 30
0.0
 11
12.2227345167
 21
5.739228793
 31
0.0
  0
LINE
  5
7E
330
1F
100
AcDbEntity
  8
0
  6
Continuous
 62
     7
370
    15
100
AcDbLine
 10
12.2227345167
 20
5.739228793
 30
0.0
 11
12.2334596861
 21
5.7070270317
 31
0.0
  0
ELLIPSE
  5
7F
330
1F
100
AcDbEntity
  8
0
  6
Continuous
 62
     7
370
    15
100
AcDbEllipse
 10
12.1834369059
 20
5.7071185499
 30
0.0
 11
-0.01587204613905158
 21
0.04765486088114467
 31
0.0
210
0.0
220
0.0
230
1.0
 40
0.9954497242
 41
2.820542303065753
 42
4.390425241354102
  0
LINE
  5
80
330
1F
100
AcDbEntity
  8
0
  6
Continuous
 62
     7
370
    15
100
AcDbLine
 10
12.2305299066
 20
7.7234292847
 30
0.0
 11
12.2305299066
 21
8.0934298104
 31
0.0
  0
ARC
  5
81
330
1F
100
AcDbEntity
  8
0
  6
Continuous
 62
     7
370
    15
100
AcDbCircle
 10
13.4184150571
 20
7.7447481887
 30
0.0
 40
1.188076439617415
100
AcDbArc
 50
181.0281735581
 51
183.4414634516
  0
ELLIPSE
  5
82
330
1F
100
AcDbEntity
  8
0
  6
Continuous
 62
     7
370
    15
100
AcDbEllipse
 10
12.2334445223
 20
7.6234295437
 30
0.0
 11
0.0
 21
0.04999999999999982
 31
0.0
210
0.0
220
0.0
230
1.0
 40
0.0174550649
 41
6.265732014662299
 42
6.283185307179586
  0
LINE
  5
83
330
1F
100
AcDbEntity
  8
0
  6
Continuous
 62
     7
370
    15
100
AcDbLine
 10
12.2334596861
 20
5.7070270317
 30
0.0
 11
12.2334596861
 21
7.6734218091
 31
0.0
  0
LINE
  5
84
330
1F
100
AcDbEntity
  8
0
  6
Continuous
 62
     7
370
    15
100
AcDbLine
 10
12.2305299066
 20
7.7234292847
 30
0.0
 11
12.320811877
 21
7.7234292847
 31
0.0
  0
ARC
  5
85
330
1F
100
AcDbEntity
  8
0
  6
Continuous
 62
     7
370
    15
100
AcDbCircle
 10
12.1883438211
 20
7.711047107
 30
0.0
 40
0.133045496602005
100
AcDbArc
 50
343.5760211878
 51
5.3400881614
  0
LINE
  5
86
330
1F
100
AcDbEntity
  8
0
  6
Continuous
 62
     7
370
    15
100
AcDbLine
 10
12.315960493
 20
7.6734294356
 30
0.0
 11
12.2324811374
 21
7.6734294356
 31
0.0
  0
LINE
  5
87
330
1F
100
AcDbEntity
  8
0
  6
Continuous
 62
     7
370
    15
100
AcDbLine
 10
12.320811877
 20
8.0934298104
 30
0.0
 11
12.320811877
 21
7.7234292847
 31
0.0
  0
LINE
  5
88
330
1F
100
AcDbEntity
  8
0
  6
Continuous
 62
     7
370
    15
100
AcDbLine
 10
12.4557401316
 20
7.7234292847
 30
0.0
 11
12.4557401316
 21
8.0934298104
 31
0.0
  0
LINE
  5
89
330
1F
100
AcDbEntity
  8
0
  6
Continuous
 62
     7
370
    15
100
AcDbLine
 10
12.320811877
 20
7.7234292847
 30
0.0
 11
12.4557401316
 21
7.7234292847
 31
0.0
  0
LINE
  5
8A
330
1F
100
AcDbEntity
  8
0
  6
Continuous
 62
     7
370
    15
100
AcDbLine
 10
7.5098364671
 20
7.7234292847
 30
0.0
 11
7.8347980865
 21
7.7234292847
 31
0.0
  0
ARC
  5
8B
330
1F
100
AcDbEntity
  8
0
  6
Continuous
 62
     7
370
    15
100
AcDbCircle
 10
7.783183381
 20
7.7250385713
 30
0.0
 40
0.0516397872021804
100
AcDbArc
 50
268.0257915164
 51
358.2141626361
  0
LINE
  5
8C
330
1F
100
AcDbEntity
  8
0
  6
Continuous
 62
     7
370
    15
100
AcDbLine
 10
7.78140441
 20
7.6734294356
 30
0.0
 11
7.5632301437
 21
7.6734294356
 31
0.0
  0
ARC
  5
8D
330
1F
100
AcDbEntity
  8
0
  6
Continuous
 62
     7
370
    15
100
AcDbCircle
 10
7.5609939778
 20
7.7245503437
 30
0.0
 40
0.0511697926098508
100
AcDbArc
 50
181.2553712611
 51
272.5046745864
  0
LINE
  5
8E
330
1F
100
AcDbEntity
  8
0
  6
Continuous
 62
     7
370
    15
100
AcDbLine
 10
7.8347980865
 20
7.7234292847
 30
0.0
 11
7.8347980865
 21
8.0934298104
 31
0.0
  0
LINE
  5
8F
330
1F
100
AcDbEntity
  8
0
  6
Continuous
 62
     7
370
    15
100
AcDbLine
 10
7.5098364671
 20
8.0934298104
 30
0.0
 11
7.5098364671
 21
7.7234292847
 31
0.0
  0
LWPOLYLINE
  5
90
330
1F
100
AcDbEntity
  8
0
  6
Continuous
 62
     7
370
    15
100
AcDbPolyline
 90
        6
 70
   128
 43
0.0
 10
12.4557401316
 20
7.7234292847
 10
12.4528352852
 20
7.708403165
 10
12.4444570486
 20
7.6950877454
 10
12.4310012708
 20
7.6844885612
 10
12.411819839
 20
7.6771523793
 10
12.3706498079
 20
7.6734294356
  0
LINE
  5
91
330
1F
100
AcDbEntity
  8
0
  6
Continuous
 62
     7
370
    15
100
AcDbLine
 10
12.3706498079
 20
7.6734294356
 30
0.0
 11
12.315960493
 21
7.6734294356
 31
0.0
  0
ARC
  5
92
330
1F
100
AcDbEntity
  8
0
  6
Continuous
 62
     7
370
    15
100
AcDbCircle
 10
12.3847187671
 20
7.7392078086
 30
0.0
 40
0.1166298945896713
100
AcDbArc
 50
263.0715889432
 51
352.2247763477
  0
LINE
  5
93
330
1F
100
AcDbEntity
  8
0
  6
Continuous
 62
     7
370
    15
100
AcDbLine
 10
12.3706498079
 20
7.6234295866
 30
0.0
 11
12.3706498079
 21
7.6734294356
 31
0.0
  0
LINE
  5
94
330
1F
100
AcDbEntity
  8
0
  6
Continuous
 62
     7
370
    15
100
AcDbLine
 10
12.5002764171
 20
7.7234292847
 30
0.0
 11
12.4557401316
 21
7.7234292847
 31
0.0
  0
LINE
  5
95
330
1F
100
AcDbEntity
  8
0
  6
Continuous
 62
     7
370
    15
100
AcDbLine
 10
12.3706498079
 20
7.6234295866
 30
0.0
 11
12.2834522019
 21
7.6234295866
 31
0.0
  0
LWPOLYLINE
  5
96
330
1F
100
AcDbEntity
  8
0
  6
Continuous
 62
     7
370
    15
100
AcDbPolyline
 90
        9
 70
   128
 43
0.0
 10
12.2834522019
 20
7.6234295866
 10
12.27380458
 20
7.6330772085
 10
12.2645196606
 20
7.6423616879
 10
12.2559463597
 20
7.6509351355
 10
12.2484066068
 20
7.6584748884
 10
12.2421841986
 20
7.6646975898
 10
12.2375126259
 20
7.6693691625
 10
12.2345675933
 20
7.6723141952
 10
12.2334596861
 20
7.6734218091
  0
LINE
  5
97
330
1F
100
AcDbEntity
  8
0
  6
Continuous
 62
     7
370
    15
100
AcDbLine
 10
12.2334596861
 20
5.7070270317
 30
0.0
 11
12.2834522019
 21
5.7070270317
 31
0.0
  0
ELLIPSE
  5
98
330
1F
100
AcDbEntity
  8
0
  6
Continuous
 62
     7
370
    15
100
AcDbEllipse
 10
12.1834369059
 20
5.7071185499
 30
0.0
 11
-0.03164782046944836
 21
0.09502067146544402
 31
-9.020562075079396E-17
210
-2.187792283109413E-16
220
8.764591296437192E-16
230
1.0
 40
0.9984778551
 41
2.820542303065834
 42
4.390425241354119
  0
LINE
  5
99
330
1F
100
AcDbEntity
  8
0
  6
Continuous
 62
     7
370
    15
100
AcDbLine
 10
12.1835283296
 20
5.6569127839
 30
0.0
 11
12.1835283296
 21
5.6069812808
 31
0.0
  0
LINE
  5
9A
330
1F
100
AcDbEntity
  8
0
  6
Continuous
 62
     7
370
    15
100
AcDbLine
 10
12.2834522019
 20
7.6234295866
 30
0.0
 11
12.2834522019
 21
5.7070270317
 31
0.0
  0
LINE
  5
9B
330
1F
100
AcDbEntity
  8
0
  6
Continuous
 62
     7
370
    15
100
AcDbLine
 10
12.1835283296
 20
5.6069812808
 30
0.0
 11
8.9374574685
 21
5.6069812808
 31
0.0
  0
LINE
  5
9C
330
1F
100
AcDbEntity
  8
0
  6
Continuous
 62
     7
370
    15
100
AcDbLine
 10
8.9374574685
 20
5.6569127839
 30
0.0
 11
8.9374574685
 21
5.6069812808
 31
0.0
  0
ELLIPSE
  5
9D
330
1F
100
AcDbEntity
  8
0
  6
Continuous
 62
     7
370
    15
100
AcDbEllipse
 10
8.9465223563
 20
5.7071185499
 30
0.0
 11
0.1999771315003187
 21
0.006050837148381839
 31
4.857225732735060E-17
210
-2.426668915460893E-16
220
-7.342528773331683E-18
230
1.0
 40
0.4998284274
 41
3.126470175123301
 42
4.651926701724866
  0
LINE
  5
9E
330
1F
100
AcDbEntity
  8
0
  6
Continuous
 62
     7
370
    15
100
AcDbLine
 10
8.771522332
 20
5.7025798564
 30
0.0
 11
8.7465224075
 21
5.7025798564
 31
0.0
  0
LINE
  5
9F
330
1F
100
AcDbEntity
  8
0
  6
Continuous
 62
     7
370
    15
100
AcDbLine
 10
12.5002764171
 20
8.0934298104
 30
0.0
 11
12.5002764171
 21
7.7234292847
 31
0.0
  0
LINE
  5
A0
330
1F
100
AcDbEntity
  8
0
  6
Continuous
 62
     7
370
    15
100
AcDbLine
 10
12.7283172761
 20
5.1544294953
 30
0.0
 11
12.7283172761
 21
8.0934298104
 31
0.0
  0
LINE
  5
A1
330
1F
100
AcDbEntity
  8
0
  6
Continuous
 62
     7
370
    15
100
AcDbLine
 10
12.7283172761
 20
5.1544294953
 30
0.0
 11
7.2483172749
 21
5.1544294953
 31
0.0
  0
LINE
  5
A2
330
1F
100
AcDbEntity
  8
0
  6
Continuous
 62
     7
370
    15
100
AcDbLine
 10
7.2483172749
 20
5.1544294953
 30
0.0
 11
7.2483172749
 21
8.0934298104
 31
0.0
  0
LINE
  5
A3
330
1F
100
AcDbEntity
  8
0
  6
Continuous
 62
     7
370
    15
100
AcDbLine
 10
8.5524177698
 20
8.0934298104
 30
0.0
 11
11.4242167812
 21
8.0934298104
 31
0.0
  0
LINE
  5
A4
330
1F
100
AcDbEntity
  8
0
  6
Continuous
 62
     7
370
    15
100
AcDbLine
 10
11.4242167812
 20
8.0934298104
 30
0.0
 11
11.468671081
 21
8.0934298104
 31
0.0
  0
LINE
  5
A5
330
1F
100
AcDbEntity
  8
0
  6
Continuous
 62
     7
370
    15
100
AcDbLine
 10
8.5524177698
 20
8.0934298104
 30
0.0
 11
8.5080555756
 21
8.0934298104
 31
0.0
  0
LINE
  5
A6
330
1F
100
AcDbEntity
  8
0
  6
Continuous
 62
     7
370
    15
100
AcDbLine
 10
8.4598177595
 20
7.5934295598
 30
0.0
 11
8.5173824412
 21
7.6741340142
 31
0.0
  0
LINE
  5
A7
330
1F
100
AcDbEntity
  8
0
  6
Continuous
 62
     7
370
    15
100
AcDbLine
 10
8.3602571763
 20
7.5934295598
 30
0.0
 11
8.4598177595
 21
7.5934295598
 31
0.0
  0
LINE
  5
A8
330
1F
100
AcDbEntity
  8
0
  6
Continuous
 62
     7
370
    15
100
AcDbLine
 10
8.3041823174
 20
7.6734294356
 30
0.0
 11
8.3602571763
 21
7.5934295598
 31
0.0
  0
LINE
  5
A9
330
1F
100
AcDbEntity
  8
0
  6
Continuous
 62
     7
370
    15
100
AcDbLine
 10
8.3047500576
 20
7.7654294395
 30
0.0
 11
8.3041823174
 21
7.6734294356
 31
0.0
  0
LINE
  5
AA
330
1F
100
AcDbEntity
  8
0
  6
Continuous
 62
     7
370
    15
100
AcDbLine
 10
8.2699191799
 20
7.8504294176
 30
0.0
 11
8.3047500576
 21
7.7654294395
 31
0.0
  0
LINE
  5
AB
330
1F
100
AcDbEntity
  8
0
  6
Continuous
 62
     7
370
    15
100
AcDbLine
 10
8.3052745315
 20
7.8504294176
 30
0.0
 11
8.2699191799
 21
7.8504294176
 31
0.0
  0
LINE
  5
AC
330
1F
100
AcDbEntity
  8
0
  6
Continuous
 62
     7
370
    15
100
AcDbLine
 10
8.2704438005
 20
7.9354293957
 30
0.0
 11
8.3052745315
 21
7.8504294176
 31
0.0
  0
LINE
  5
AD
330
1F
100
AcDbEntity
  8
0
  6
Continuous
 62
     7
370
    15
100
AcDbLine
 10
8.3057990054
 20
7.9354293957
 30
0.0
 11
8.2704438005
 21
7.9354293957
 31
0.0
  0
LINE
  5
AE
330
1F
100
AcDbEntity
  8
0
  6
Continuous
 62
     7
370
    15
100
AcDbLine
 10
8.2709682745
 20
8.0204293737
 30
0.0
 11
8.3057990054
 21
7.9354293957
 31
0.0
  0
LINE
  5
AF
330
1F
100
AcDbEntity
  8
0
  6
Continuous
 62
     7
370
    15
100
AcDbLine
 10
8.306323626
 20
8.0204293737
 30
0.0
 11
8.2709682745
 21
8.0204293737
 31
0.0
  0
LINE
  5
B0
330
1F
100
AcDbEntity
  8
0
  6
Continuous
 62
     7
370
    15
100
AcDbLine
 10
8.2714927484
 20
8.1054293518
 30
0.0
 11
8.306323626
 21
8.0204293737
 31
0.0
  0
LINE
  5
B1
330
1F
100
AcDbEntity
  8
0
  6
Continuous
 62
     7
370
    15
100
AcDbLine
 10
8.3068481
 20
8.1054293518
 30
0.0
 11
8.2714927484
 21
8.1054293518
 31
0.0
  0
LINE
  5
B2
330
1F
100
AcDbEntity
  8
0
  6
Continuous
 62
     7
370
    15
100
AcDbLine
 10
8.272017369
 20
8.1904293299
 30
0.0
 11
8.3068481
 21
8.1054293518
 31
0.0
  0
LINE
  5
B3
330
1F
100
AcDbEntity
  8
0
  6
Continuous
 62
     7
370
    15
100
AcDbLine
 10
8.3073725739
 20
8.1904293299
 30
0.0
 11
8.272017369
 21
8.1904293299
 31
0.0
  0
LINE
  5
B4
330
1F
100
AcDbEntity
  8
0
  6
Continuous
 62
     7
370
    15
100
AcDbLine
 10
8.272541843
 20
8.275429308
 30
0.0
 11
8.3073725739
 21
8.1904293299
 31
0.0
  0
LINE
  5
B5
330
1F
100
AcDbEntity
  8
0
  6
Continuous
 62
     7
370
    15
100
AcDbLine
 10
8.3078971945
 20
8.275429308
 30
0.0
 11
8.272541843
 21
8.275429308
 31
0.0
  0
LINE
  5
B6
330
1F
100
AcDbEntity
  8
0
  6
Continuous
 62
     7
370
    15
100
AcDbLine
 10
8.2730663169
 20
8.360429286
 30
0.0
 11
8.3078971945
 21
8.275429308
 31
0.0
  0
LINE
  5
B7
330
1F
100
AcDbEntity
  8
0
  6
Continuous
 62
     7
370
    15
100
AcDbLine
 10
8.3084216685
 20
8.360429286
 30
0.0
 11
8.2730663169
 21
8.360429286
 31
0.0
  0
LINE
  5
B8
330
1F
100
AcDbEntity
  8
0
  6
Continuous
 62
     7
370
    15
100
AcDbLine
 10
8.3086715856
 20
8.4009293515
 30
0.0
 11
8.3084216685
 21
8.360429286
 31
0.0
  0
LINE
  5
B9
330
1F
100
AcDbEntity
  8
0
  6
Continuous
 62
     7
370
    15
100
AcDbLine
 10
8.3679453542
 20
8.4009293515
 30
0.0
 11
8.3679453542
 21
7.7256456858
 31
0.0
  0
ELLIPSE
  5
BA
330
1F
100
AcDbEntity
  8
0
  6
Continuous
 62
     7
370
    15
100
AcDbEllipse
 10
8.3909271936
 20
7.7259295437
 30
0.0
 11
0.0004010579732067754
 21
0.03249876287643261
 31
0.0
210
0.0
220
0.0
230
1.0
 40
0.7070529374
 41
1.588248290474143
 42
3.150317971009168
  0
LINE
  5
BB
330
1F
100
AcDbEntity
  8
0
  6
Continuous
 62
     7
370
    15
100
AcDbLine
 10
8.4122160294
 20
7.6934292579
 30
0.0
 11
8.3907266777
 21
7.6934292579
 31
0.0
  0
LWPOLYLINE
  5
BC
330
1F
100
AcDbEntity
  8
0
  6
Continuous
 62
     7
370
    15
100
AcDbPolyline
 90
        6
 70
   128
 43
0.0
 10
8.4354861873
 20
7.725362329
 10
8.4339874179
 20
7.7146604793
 10
8.4300742498
 20
7.7052322683
 10
8.4241786112
 20
7.6981178438
 10
8.4169453881
 20
7.69411917
 10
8.4122160294
 20
7.6934292579
  0
LINE
  5
BD
330
1F
100
AcDbEntity
  8
0
  6
Continuous
 62
     7
370
    15
100
AcDbLine
 10
8.4354861873
 20
7.725362329
 30
0.0
 11
8.4425085062
 21
8.0934298104
 31
0.0
  0
LINE
  5
BE
330
1F
100
AcDbEntity
  8
0
  6
Continuous
 62
     7
370
    15
100
AcDbLine
 10
8.5173824412
 20
7.6741340142
 30
0.0
 11
8.5225572214
 21
8.0934298104
 31
0.0
  0
LINE
  5
BF
330
1F
100
AcDbEntity
  8
0
  6
Continuous
 62
     7
370
    15
100
AcDbLine
 10
11.5411483637
 20
7.725362329
 30
0.0
 11
11.5341260449
 21
8.0934298104
 31
0.0
  0
LWPOLYLINE
  5
C0
330
1F
100
AcDbEntity
  8
0
  6
Continuous
 62
     7
370
    15
100
AcDbPolyline
 90
        6
 70
   128
 43
0.0
 10
11.5644185216
 20
7.6934292579
 10
11.5567508768
 20
7.6952725433
 10
11.5499249424
 20
7.7005970685
 10
11.5447200958
 20
7.7087974004
 10
11.541730477
 20
7.7189213901
 10
11.5411483637
 20
7.725362329
  0
LINE
  5
C1
330
1F
100
AcDbEntity
  8
0
  6
Continuous
 62
     7
370
    15
100
AcDbLine
 10
11.5859078733
 20
7.6934292579
 30
0.0
 11
11.5644185216
 21
7.6934292579
 31
0.0
  0
ELLIPSE
  5
C2
330
1F
100
AcDbEntity
  8
0
  6
Continuous
 62
     7
370
    15
100
AcDbEllipse
 10
11.5857073575
 20
7.7259295437
 30
0.0
 11
-0.000401057973204999
 21
0.03249876287643173
 31
0.0
210
0.0
220
0.0
230
1.0
 40
0.7070529374
 41
3.132867336170515
 42
4.694937016705409
  0
LINE
  5
C3
330
1F
100
AcDbEntity
  8
0
  6
Continuous
 62
     7
370
    15
100
AcDbLine
 10
11.6086891968
 20
8.4009293515
 30
0.0
 11
11.6086891968
 21
7.7256456858
 31
0.0
  0
LINE
  5
C4
330
1F
100
AcDbEntity
  8
0
  6
Continuous
 62
     7
370
    15
100
AcDbLine
 10
11.6679629654
 20
8.4009293515
 30
0.0
 11
11.6682128825
 21
8.360429286
 31
0.0
  0
LINE
  5
C5
330
1F
100
AcDbEntity
  8
0
  6
Continuous
 62
     7
370
    15
100
AcDbLine
 10
11.6682128825
 20
8.360429286
 30
0.0
 11
11.7035682341
 21
8.360429286
 31
0.0
  0
LINE
  5
C6
330
1F
100
AcDbEntity
  8
0
  6
Continuous
 62
     7
370
    15
100
AcDbLine
 10
11.7035682341
 20
8.360429286
 30
0.0
 11
11.6687373565
 21
8.275429308
 31
0.0
  0
LINE
  5
C7
330
1F
100
AcDbEntity
  8
0
  6
Continuous
 62
     7
370
    15
100
AcDbLine
 10
11.6687373565
 20
8.275429308
 30
0.0
 11
11.7040927081
 21
8.275429308
 31
0.0
  0
LINE
  5
C8
330
1F
100
AcDbEntity
  8
0
  6
Continuous
 62
     7
370
    15
100
AcDbLine
 10
11.7040927081
 20
8.275429308
 30
0.0
 11
11.6692619771
 21
8.1904293299
 31
0.0
  0
LINE
  5
C9
330
1F
100
AcDbEntity
  8
0
  6
Continuous
 62
     7
370
    15
100
AcDbLine
 10
11.6692619771
 20
8.1904293299
 30
0.0
 11
11.704617182
 21
8.1904293299
 31
0.0
  0
LINE
  5
CA
330
1F
100
AcDbEntity
  8
0
  6
Continuous
 62
     7
370
    15
100
AcDbLine
 10
11.704617182
 20
8.1904293299
 30
0.0
 11
11.669786451
 21
8.1054293518
 31
0.0
  0
LINE
  5
CB
330
1F
100
AcDbEntity
  8
0
  6
Continuous
 62
     7
370
    15
100
AcDbLine
 10
11.669786451
 20
8.1054293518
 30
0.0
 11
11.7051418026
 21
8.1054293518
 31
0.0
  0
LINE
  5
CC
330
1F
100
AcDbEntity
  8
0
  6
Continuous
 62
     7
370
    15
100
AcDbLine
 10
11.7051418026
 20
8.1054293518
 30
0.0
 11
11.670310925
 21
8.0204293737
 31
0.0
  0
LINE
  5
CD
330
1F
100
AcDbEntity
  8
0
  6
Continuous
 62
     7
370
    15
100
AcDbLine
 10
11.670310925
 20
8.0204293737
 30
0.0
 11
11.7056662765
 21
8.0204293737
 31
0.0
  0
LINE
  5
CE
330
1F
100
AcDbEntity
  8
0
  6
Continuous
 62
     7
370
    15
100
AcDbLine
 10
11.7056662765
 20
8.0204293737
 30
0.0
 11
11.6708355456
 21
7.9354293957
 31
0.0
  0
LINE
  5
CF
330
1F
100
AcDbEntity
  8
0
  6
Continuous
 62
     7
370
    15
100
AcDbLine
 10
11.6708355456
 20
7.9354293957
 30
0.0
 11
11.7061907505
 21
7.9354293957
 31
0.0
  0
LINE
  5
D0
330
1F
100
AcDbEntity
  8
0
  6
Continuous
 62
     7
370
    15
100
AcDbLine
 10
11.7061907505
 20
7.9354293957
 30
0.0
 11
11.6713600195
 21
7.8504294176
 31
0.0
  0
LINE
  5
D1
330
1F
100
AcDbEntity
  8
0
  6
Continuous
 62
     7
370
    15
100
AcDbLine
 10
11.6713600195
 20
7.8504294176
 30
0.0
 11
11.7067153711
 21
7.8504294176
 31
0.0
  0
LINE
  5
D2
330
1F
100
AcDbEntity
  8
0
  6
Continuous
 62
     7
370
    15
100
AcDbLine
 10
11.7067153711
 20
7.8504294176
 30
0.0
 11
11.6718844935
 21
7.7654294395
 31
0.0
  0
LINE
  5
D3
330
1F
100
AcDbEntity
  8
0
  6
Continuous
 62
     7
370
    15
100
AcDbLine
 10
11.6718844935
 20
7.7654294395
 30
0.0
 11
11.6724522336
 21
7.6734294356
 31
0.0
  0
LINE
  5
D4
330
1F
100
AcDbEntity
  8
0
  6
Continuous
 62
     7
370
    15
100
AcDbLine
 10
11.6163773747
 20
7.5934295598
 30
0.0
 11
11.6724522336
 21
7.6734294356
 31
0.0
  0
LINE
  5
D5
330
1F
100
AcDbEntity
  8
0
  6
Continuous
 62
     7
370
    15
100
AcDbLine
 10
11.5168167915
 20
7.5934295598
 30
0.0
 11
11.6163773747
 21
7.5934295598
 31
0.0
  0
LINE
  5
D6
330
1F
100
AcDbEntity
  8
0
  6
Continuous
 62
     7
370
    15
100
AcDbLine
 10
11.4592521098
 20
7.6741340142
 30
0.0
 11
11.5168167915
 21
7.5934295598
 31
0.0
  0
LINE
  5
D7
330
1F
100
AcDbEntity
  8
0
  6
Continuous
 62
     7
370
    15
100
AcDbLine
 10
11.4592521098
 20
7.6741340142
 30
0.0
 11
11.4540773296
 21
8.0934298104
 31
0.0
  0
LINE
  5
D8
330
1F
100
AcDbEntity
  8
0
  6
Continuous
 62
     7
370
    15
100
AcDbLine
 10
7.9813580467
 20
8.360429286
 30
0.0
 11
8.0172380189
 21
8.275429308
 31
0.0
  0
LINE
  5
D9
330
1F
100
AcDbEntity
  8
0
  6
Continuous
 62
     7
370
    15
100
AcDbLine
 10
7.9813580467
 20
8.360429286
 30
0.0
 11
8.2730663169
 21
8.360429286
 31
0.0
  0
LINE
  5
DA
330
1F
100
AcDbEntity
  8
0
  6
Continuous
 62
     7
370
    15
100
AcDbLine
 10
11.7035682341
 20
8.360429286
 30
0.0
 11
11.9952765043
 21
8.360429286
 31
0.0
  0
LINE
  5
DB
330
1F
100
AcDbEntity
  8
0
  6
Continuous
 62
     7
370
    15
100
AcDbLine
 10
11.9952765043
 20
8.360429286
 30
0.0
 11
11.9593965321
 21
8.275429308
 31
0.0
  0
LINE
  5
DC
330
1F
100
AcDbEntity
  8
0
  6
Continuous
 62
     7
370
    15
100
AcDbLine
 10
7.9818826673
 20
8.275429308
 30
0.0
 11
8.0177624929
 21
8.1904293299
 31
0.0
  0
LINE
  5
DD
330
1F
100
AcDbEntity
  8
0
  6
Continuous
 62
     7
370
    15
100
AcDbLine
 10
7.9818826673
 20
8.275429308
 30
0.0
 11
8.272541843
 21
8.275429308
 31
0.0
  0
LINE
  5
DE
330
1F
100
AcDbEntity
  8
0
  6
Continuous
 62
     7
370
    15
100
AcDbLine
 10
11.9947518837
 20
8.275429308
 30
0.0
 11
11.9588720582
 21
8.1904293299
 31
0.0
  0
LINE
  5
DF
330
1F
100
AcDbEntity
  8
0
  6
Continuous
 62
     7
370
    15
100
AcDbLine
 10
11.7040927081
 20
8.275429308
 30
0.0
 11
11.9947518837
 21
8.275429308
 31
0.0
  0
LINE
  5
E0
330
1F
100
AcDbEntity
  8
0
  6
Continuous
 62
     7
370
    15
100
AcDbLine
 10
7.9824071413
 20
8.1904293299
 30
0.0
 11
8.0182869668
 21
8.1054293518
 31
0.0
  0
LINE
  5
E1
330
1F
100
AcDbEntity
  8
0
  6
Continuous
 62
     7
370
    15
100
AcDbLine
 10
7.9824071413
 20
8.1904293299
 30
0.0
 11
8.272017369
 21
8.1904293299
 31
0.0
  0
LINE
  5
E2
330
1F
100
AcDbEntity
  8
0
  6
Continuous
 62
     7
370
    15
100
AcDbLine
 10
11.9942274097
 20
8.1904293299
 30
0.0
 11
11.9583475842
 21
8.1054293518
 31
0.0
  0
LINE
  5
E3
330
1F
100
AcDbEntity
  8
0
  6
Continuous
 62
     7
370
    15
100
AcDbLine
 10
11.704617182
 20
8.1904293299
 30
0.0
 11
11.9942274097
 21
8.1904293299
 31
0.0
  0
LINE
  5
E4
330
1F
100
AcDbEntity
  8
0
  6
Continuous
 62
     7
370
    15
100
AcDbLine
 10
7.9829316152
 20
8.1054293518
 30
0.0
 11
8.0188115874
 21
8.0204293737
 31
0.0
  0
LINE
  5
E5
330
1F
100
AcDbEntity
  8
0
  6
Continuous
 62
     7
370
    15
100
AcDbLine
 10
7.9829316152
 20
8.1054293518
 30
0.0
 11
8.2714927484
 21
8.1054293518
 31
0.0
  0
LINE
  5
E6
330
1F
100
AcDbEntity
  8
0
  6
Continuous
 62
     7
370
    15
100
AcDbLine
 10
11.7051418026
 20
8.1054293518
 30
0.0
 11
11.9937029358
 21
8.1054293518
 31
0.0
  0
LINE
  5
E7
330
1F
100
AcDbEntity
  8
0
  6
Continuous
 62
     7
370
    15
100
AcDbLine
 10
11.9937029358
 20
8.1054293518
 30
0.0
 11
11.9578229636
 21
8.0204293737
 31
0.0
  0
LINE
  5
E8
330
1F
100
AcDbEntity
  8
0
  6
Continuous
 62
     7
370
    15
100
AcDbLine
 10
7.9834562358
 20
8.0204293737
 30
0.0
 11
8.0193360614
 21
7.9354293957
 31
0.0
  0
LINE
  5
E9
330
1F
100
AcDbEntity
  8
0
  6
Continuous
 62
     7
370
    15
100
AcDbLine
 10
7.9834562358
 20
8.0204293737
 30
0.0
 11
8.2709682745
 21
8.0204293737
 31
0.0
  0
LINE
  5
EA
330
1F
100
AcDbEntity
  8
0
  6
Continuous
 62
     7
370
    15
100
AcDbLine
 10
11.7056662765
 20
8.0204293737
 30
0.0
 11
11.9931783152
 21
8.0204293737
 31
0.0
  0
LINE
  5
EB
330
1F
100
AcDbEntity
  8
0
  6
Continuous
 62
     7
370
    15
100
AcDbLine
 10
11.9931783152
 20
8.0204293737
 30
0.0
 11
11.9572984897
 21
7.9354293957
 31
0.0
  0
LINE
  5
EC
330
1F
100
AcDbEntity
  8
0
  6
Continuous
 62
     7
370
    15
100
AcDbLine
 10
7.9839807098
 20
7.9354293957
 30
0.0
 11
8.0198605353
 21
7.8504294176
 31
0.0
  0
LINE
  5
ED
330
1F
100
AcDbEntity
  8
0
  6
Continuous
 62
     7
370
    15
100
AcDbLine
 10
7.9839807098
 20
7.9354293957
 30
0.0
 11
8.2704438005
 21
7.9354293957
 31
0.0
  0
LINE
  5
EE
330
1F
100
AcDbEntity
  8
0
  6
Continuous
 62
     7
370
    15
100
AcDbLine
 10
11.7061907505
 20
7.9354293957
 30
0.0
 11
11.9926538412
 21
7.9354293957
 31
0.0
  0
LINE
  5
EF
330
1F
100
AcDbEntity
  8
0
  6
Continuous
 62
     7
370
    15
100
AcDbLine
 10
11.9926538412
 20
7.9354293957
 30
0.0
 11
11.9567740157
 21
7.8504294176
 31
0.0
  0
LINE
  5
F0
330
1F
100
AcDbEntity
  8
0
  6
Continuous
 62
     7
370
    15
100
AcDbLine
 10
7.9845051837
 20
7.8504294176
 30
0.0
 11
8.0203851559
 21
7.7654294395
 31
0.0
  0
LINE
  5
F1
330
1F
100
AcDbEntity
  8
0
  6
Continuous
 62
     7
370
    15
100
AcDbLine
 10
8.0203851559
 20
7.7654294395
 30
0.0
 11
8.3047500576
 21
7.7654294395
 31
0.0
  0
LINE
  5
F2
330
1F
100
AcDbEntity
  8
0
  6
Continuous
 62
     7
370
    15
100
AcDbLine
 10
7.9845051837
 20
7.8504294176
 30
0.0
 11
8.2699191799
 21
7.8504294176
 31
0.0
  0
LINE
  5
F3
330
1F
100
AcDbEntity
  8
0
  6
Continuous
 62
     7
370
    15
100
AcDbLine
 10
11.9921293673
 20
7.8504294176
 30
0.0
 11
11.9562493951
 21
7.7654294395
 31
0.0
  0
LINE
  5
F4
330
1F
100
AcDbEntity
  8
0
  6
Continuous
 62
     7
370
    15
100
AcDbLine
 10
11.6718844935
 20
7.7654294395
 30
0.0
 11
11.9562493951
 21
7.7654294395
 31
0.0
  0
LINE
  5
F5
330
1F
100
AcDbEntity
  8
0
  6
Continuous
 62
     7
370
    15
100
AcDbLine
 10
11.7067153711
 20
7.8504294176
 30
0.0
 11
11.9921293673
 21
7.8504294176
 31
0.0
  0
LINE
  5
F6
330
1F
100
AcDbEntity
  8
0
  6
Continuous
 62
     7
370
    15
100
AcDbLine
 10
8.0164634812
 20
8.4009293515
 30
0.0
 11
8.0167133983
 21
8.360429286
 31
0.0
  0
LINE
  5
F7
330
1F
100
AcDbEntity
  8
0
  6
Continuous
 62
     7
370
    15
100
AcDbLine
 10
11.9601710698
 20
8.4009293515
 30
0.0
 11
11.9599211527
 21
8.360429286
 31
0.0
  0
LINE
  5
F8
330
1F
100
AcDbEntity
  8
0
  6
Continuous
 62
     7
370
    15
100
AcDbLine
 10
8.0209527493
 20
7.6734294356
 30
0.0
 11
8.3041823174
 21
7.6734294356
 31
0.0
  0
LINE
  5
F9
330
1F
100
AcDbEntity
  8
0
  6
Continuous
 62
     7
370
    15
100
AcDbLine
 10
8.0203851559
 20
7.7654294395
 30
0.0
 11
8.0209527493
 21
7.6734294356
 31
0.0
  0
LINE
  5
FA
330
1F
100
AcDbEntity
  8
0
  6
Continuous
 62
     7
370
    15
100
AcDbLine
 10
11.9562493951
 20
7.7654294395
 30
0.0
 11
11.9556818017
 21
7.6734294356
 31
0.0
  0
LINE
  5
FB
330
1F
100
AcDbEntity
  8
0
  6
Continuous
 62
     7
370
    15
100
AcDbLine
 10
11.6724522336
 20
7.6734294356
 30
0.0
 11
11.9556818017
 21
7.6734294356
 31
0.0
  0
LINE
  5
FC
330
1F
100
AcDbEntity
  8
0
  6
Continuous
 62
     7
370
    15
100
AcDbLine
 10
8.3602571763
 20
7.5934295598
 30
0.0
 11
8.0780149568
 21
7.5934295598
 31
0.0
  0
LINE
  5
FD
330
1F
100
AcDbEntity
  8
0
  6
Continuous
 62
     7
370
    15
100
AcDbLine
 10
8.0780149568
 20
7.5934295598
 30
0.0
 11
8.0209527493
 21
7.6734294356
 31
0.0
  0
LINE
  5
FE
330
1F
100
AcDbEntity
  8
0
  6
Continuous
 62
     7
370
    15
100
AcDbLine
 10
11.8986195942
 20
7.5934295598
 30
0.0
 11
11.6163773747
 21
7.5934295598
 31
0.0
  0
LINE
  5
FF
330
1F
100
AcDbEntity
  8
0
  6
Continuous
 62
     7
370
    15
100
AcDbLine
 10
11.9556818017
 20
7.6734294356
 30
0.0
 11
11.8986195942
 21
7.5934295598
 31
0.0
  0
LINE
  5
100
330
1F
100
AcDbEntity
  8
0
  6
Continuous
 62
     7
370
    15
100
AcDbLine
 10
11.5341260449
 20
8.0934298104
 30
0.0
 11
11.4656484626
 21
8.0934298104
 31
0.0
  0
LINE
  5
101
330
1F
100
AcDbEntity
  8
0
  6
Continuous
 62
     7
370
    15
100
AcDbLine
 10
8.5109767019
 20
8.0934298104
 30
0.0
 11
8.4425085062
 21
8.0934298104
 31
0.0
  0
LINE
  5
102
330
1F
100
AcDbEntity
  8
0
  6
Continuous
 62
     7
370
    15
100
AcDbLine
 10
7.9315262757
 20
8.0934298104
 30
0.0
 11
7.8223123507
 21
8.0934298104
 31
0.0
  0
LINE
  5
103
330
1F
100
AcDbEntity
  8
0
  6
Continuous
 62
     7
370
    15
100
AcDbLine
 10
12.0451082753
 20
8.0934298104
 30
0.0
 11
11.988637421
 21
8.0934298104
 31
0.0
  0
LINE
  5
104
330
1F
100
AcDbEntity
  8
0
  6
Continuous
 62
     7
370
    15
100
AcDbLine
 10
7.98799713
 20
8.0934298104
 30
0.0
 11
7.9315262757
 21
8.0934298104
 31
0.0
  0
LINE
  5
105
330
1F
100
AcDbEntity
  8
0
  6
Continuous
 62
     7
370
    15
100
AcDbLine
 10
12.1543222003
 20
8.0934298104
 30
0.0
 11
12.0451082753
 21
8.0934298104
 31
0.0
  0
LINE
  5
106
330
1F
100
AcDbEntity
  8
0
  6
Continuous
 62
     7
370
    15
100
AcDbLine
 10
12.1543222003
 20
8.0934298104
 30
0.0
 11
12.5857213767
 21
8.0934298104
 31
0.0
  0
LINE
  5
107
330
1F
100
AcDbEntity
  8
0
  6
Continuous
 62
     7
370
    15
100
AcDbLine
 10
7.3909131743
 20
8.0934298104
 30
0.0
 11
7.8223123507
 21
8.0934298104
 31
0.0
  0
LINE
  5
108
330
1F
100
AcDbEntity
  8
0
  6
Continuous
 62
     7
370
    15
100
AcDbLine
 10
7.2342708772
 20
8.0934298104
 30
0.0
 11
7.3659296762
 21
8.0934298104
 31
0.0
  0
LINE
  5
109
330
1F
100
AcDbEntity
  8
0
  6
Continuous
 62
     7
370
    15
100
AcDbLine
 10
12.6107048748
 20
8.0934298104
 30
0.0
 11
12.7423636739
 21
8.0934298104
 31
0.0
  0
LINE
  5
10A
330
1F
100
AcDbEntity
  8
0
  6
Continuous
 62
     7
370
    15
100
AcDbLine
 10
7.3909131743
 20
8.0934298104
 30
0.0
 11
7.3659296762
 21
8.0934298104
 31
0.0
  0
LINE
  5
10B
330
1F
100
AcDbEntity
  8
0
  6
Continuous
 62
     7
370
    15
100
AcDbLine
 10
12.6107048748
 20
8.0934298104
 30
0.0
 11
12.5857213767
 21
8.0934298104
 31
0.0
  0
LINE
  5
10C
330
1F
100
AcDbEntity
  8
0
  6
Continuous
 62
     7
370
    15
100
AcDbLine
 10
7.2092747659
 20
8.0934298104
 30
0.0
 11
7.2146421172
 21
8.4009293515
 31
0.0
  0
LINE
  5
10D
330
1F
100
AcDbEntity
  8
0
  6
Continuous
 62
     7
370
    15
100
AcDbLine
 10
7.2342708772
 20
8.0934298104
 30
0.0
 11
7.2092747659
 21
8.0934298104
 31
0.0
  0
LINE
  5
10E
330
1F
100
AcDbEntity
  8
0
  6
Continuous
 62
     7
370
    15
100
AcDbLine
 10
12.7619924338
 20
8.4009293515
 30
0.0
 11
12.7673597851
 21
8.0934298104
 31
0.0
  0
LINE
  5
10F
330
1F
100
AcDbEntity
  8
0
  6
Continuous
 62
     7
370
    15
100
AcDbLine
 10
12.7673597851
 20
8.0934298104
 30
0.0
 11
12.7423636739
 21
8.0934298104
 31
0.0
  0
LINE
  5
110
330
1F
100
AcDbEntity
  8
0
  6
Continuous
 62
     7
370
    15
100
AcDbLine
 10
6.9570673328
 20
8.4009293515
 30
0.0
 11
13.0195672183
 21
8.4009293515
 31
0.0
  0
LINE
  5
111
330
1F
100
AcDbEntity
  8
0
  6
Continuous
 62
     7
370
    15
100
AcDbLine
 10
6.3008172605
 20
8.7134295815
 30
0.0
 11
13.6758172905
 21
8.7134295815
 31
0.0
  0
LINE
  5
112
330
1F
100
AcDbEntity
  8
0
  6
Continuous
 62
     7
370
    15
100
AcDbLine
 10
6.3008172605
 20
8.5884293722
 30
0.0
 11
13.6758172905
 21
8.5884293722
 31
0.0
  0
LINE
  5
113
330
1F
100
AcDbEntity
  8
0
  6
Continuous
 62
     8
370
    15
100
AcDbLine
 10
12.8058443805
 20
8.9696837945
 30
0.0
 11
7.1707901705
 21
8.9696837945
 31
0.0
  0
LINE
  5
114
330
1F
100
AcDbEntity
  8
0
  6
Continuous
 62
     8
370
    15
100
AcDbLine
 10
11.2140487358
 20
8.0934298104
 30
0.0
 11
11.2140487358
 21
5.8047202765
 31
0.0
  0
LINE
  5
115
330
1F
100
AcDbEntity
  8
0
  6
Continuous
 62
     8
370
    15
100
AcDbLine
 10
10.8479502316
 20
5.7992713794
 30
0.0
 11
10.8479502316
 21
8.0934298104
 31
0.0
  0
LINE
  5
116
330
1F
100
AcDbEntity
  8
0
  6
Continuous
 62
     8
370
    15
100
AcDbLine
 10
10.5911878244
 20
8.0934298104
 30
0.0
 11
10.5911878244
 21
5.7612124057
 31
0.0
  0
LINE
  5
117
330
1F
100
AcDbEntity
  8
0
  6
Continuous
 62
     8
370
    15
100
AcDbLine
 10
10.5247669251
 20
5.7556288702
 30
0.0
 11
10.5247669251
 21
8.0934298104
 31
0.0
  0
LINE
  5
118
330
1F
100
AcDbEntity
  8
0
  6
Continuous
 62
     8
370
    15
100
AcDbLine
 10
8.771522332
 20
8.0934298104
 30
0.0
 11
8.771522332
 21
5.7025798564
 31
0.0
  0
LINE
  5
119
330
1F
100
AcDbEntity
  8
0
  6
Continuous
 62
     8
370
    15
100
AcDbLine
 10
8.7465224075
 20
5.7025798564
 30
0.0
 11
8.7465224075
 21
8.0934298104
 31
0.0
  0
LWPOLYLINE
  5
11A
330
1F
100
AcDbEntity
  8
0
  6
Continuous
 62
     8
370
    15
100
AcDbPolyline
 90
        3
 70
   128
 43
0.0
 10
8.5587315502
 20
8.4009293515
 10
8.558578432
 20
8.3934770109
 10
8.5524177698
 20
8.0934298104
  0
LWPOLYLINE
  5
11B
330
1F
100
AcDbEntity
  8
0
  6
Continuous
 62
     8
370
    15
100
AcDbPolyline
 90
        3
 70
   128
 43
0.0
 10
11.4242167812
 20
8.0934298104
 10
11.420111482
 20
8.2933822739
 10
11.4179028542
 20
8.4009293515
  0
LINE
  5
11C
330
1F
100
AcDbEntity
  8
0
  6
Continuous
 62
     8
370
    15
100
AcDbLine
 10
11.5411483637
 20
7.725362329
 30
0.0
 11
11.6086883168
 21
7.725362329
 31
0.0
  0
LINE
  5
11D
330
1F
100
AcDbEntity
  8
0
  6
Continuous
 62
     8
370
    15
100
AcDbLine
 10
8.3679462342
 20
7.725362329
 30
0.0
 11
8.4354861873
 21
7.725362329
 31
0.0
  0
LWPOLYLINE
  5
11E
330
1F
100
AcDbEntity
  8
0
  6
Continuous
 62
     8
370
    15
100
AcDbPolyline
 90
        3
 70
   128
 43
0.0
 10
7.8223123507
 20
8.0934298104
 10
7.8237798804
 20
8.2933822739
 10
7.8245708446
 20
8.4009293515
  0
LWPOLYLINE
  5
11F
330
1F
100
AcDbEntity
  8
0
  6
Continuous
 62
     8
370
    15
100
AcDbPolyline
 90
        3
 70
   128
 43
0.0
 10
7.933869982
 20
8.4009293515
 10
7.9334242671
 20
8.3425596258
 10
7.9315262757
 20
8.0934298104
  0
LWPOLYLINE
  5
120
330
1F
100
AcDbEntity
  8
0
  6
Continuous
 62
     8
370
    15
100
AcDbPolyline
 90
        3
 70
   128
 43
0.0
 10
12.0451082753
 20
8.0934298104
 10
12.0432102839
 20
8.3425596258
 10
12.042764569
 20
8.4009293515
  0
LWPOLYLINE
  5
121
330
1F
100
AcDbEntity
  8
0
  6
Continuous
 62
     8
370
    15
100
AcDbPolyline
 90
        3
 70
   128
 43
0.0
 10
12.1520642931
 20
8.4009293515
 10
12.1521191458
 20
8.3934770109
 10
12.1543222003
 20
8.0934298104
  0
LWPOLYLINE
  5
122
330
1F
100
AcDbEntity
  8
0
  6
Continuous
 62
     8
370
    15
100
AcDbPolyline
 90
        4
 70
   128
 43
0.0
 10
12.5857213767
 20
8.0934298104
 10
12.5848759998
 20
8.143414993
 10
12.5814912656
 20
8.3433563099
 10
12.5805156502
 20
8.4009293515
  0
LWPOLYLINE
  5
123
330
1F
100
AcDbEntity
  8
0
  6
Continuous
 62
     8
370
    15
100
AcDbPolyline
 90
        4
 70
   128
 43
0.0
 10
7.3961186075
 20
8.4009293515
 10
7.3959918889
 20
8.393444158
 10
7.3926062747
 20
8.193502841
 10
7.3909131743
 20
8.0934298104
  0
LINE
  5
124
330
1F
100
AcDbEntity
  8
0
  6
Continuous
 62
     8
370
    15
100
AcDbLine
 10
7.2396385218
 20
8.4009293515
 30
0.0
 11
7.2342708772
 21
8.0934298104
 31
0.0
  0
LWPOLYLINE
  5
125
330
1F
100
AcDbEntity
  8
0
  6
Continuous
 62
     8
370
    15
100
AcDbPolyline
 90
        3
 70
   128
 43
0.0
 10
7.3659296762
 20
8.0934298104
 10
7.3688970019
 20
8.268845224
 10
7.3711339361
 20
8.4009293515
  0
LINE
  5
126
330
1F
100
AcDbEntity
  8
0
  6
Continuous
 62
     8
370
    15
100
AcDbLine
 10
12.7423636739
 20
8.0934298104
 30
0.0
 11
12.7369960292
 21
8.4009293515
 31
0.0
  0
LWPOLYLINE
  5
127
330
1F
100
AcDbEntity
  8
0
  6
Continuous
 62
     8
370
    15
100
AcDbPolyline
 90
        3
 70
   128
 43
0.0
 10
12.6055006149
 20
8.4009293515
 10
12.6077375491
 20
8.268845224
 10
12.6107048748
 20
8.0934298104
  0
DIMENSION
  5
128
330
1F
100
AcDbEntity
  8
DEFAULT
 62
     7
100
AcDbDimension
280
     0
  2
_D
 10
15.2728103589
 20
5.1544295437
 30
0.0
 11
15.2728103589
 21
7.0804295437
 31
0.0
 70
   160
  1
<>
 71
     2
 42
-1.0
 73
     0
 74
     0
 75
     0
  3
SLDDIMSTYLE0
100
AcDbAlignedDimension
 13
12.4242264036
 23
9.0064295437
 33
0.0
 14
12.7283172755
 24
5.1544295437
 34
0.0
 50
90.0
100
AcDbRotatedDimension
  0
LINE
  5
13F
330
1F
100
AcDbEntity
  8
0
  6
Continuous
 62
     7
370
    15
100
AcDbLine
 10
26.7985404694
 20
8.7184296837
 30
0.0
 11
26.7973143502
 21
8.7886681256
 31
0.0
  0
LINE
  5
140
330
1F
100
AcDbEntity
  8
0
  6
Continuous
 62
     7
370
    15
100
AcDbLine
 10
19.2997663492
 20
8.7886681256
 30
0.0
 11
19.2985402301
 21
8.7184296837
 31
0.0
  0
LINE
  5
141
330
1F
100
AcDbEntity
  8
0
  6
Continuous
 62
     7
370
    15
100
AcDbLine
 10
26.7973143502
 20
8.7886681256
 30
0.0
 11
25.8660674548
 21
8.9696837945
 31
0.0
  0
LINE
  5
142
330
1F
100
AcDbEntity
  8
0
  6
Continuous
 62
     7
370
    15
100
AcDbLine
 10
20.2310132447
 20
8.9696837945
 30
0.0
 11
19.2997663492
 21
8.7886681256
 31
0.0
  0
ARC
  5
143
330
1F
100
AcDbEntity
  8
0
  6
Continuous
 62
     7
370
    15
100
AcDbCircle
 10
25.4844494779
 20
7.0064295437
 30
0.0
 40
2.0
100
AcDbArc
 50
79.0
 51
90.0
  0
ARC
  5
144
330
1F
100
AcDbEntity
  8
0
  6
Continuous
 62
     7
370
    15
100
AcDbCircle
 10
20.6126312216
 20
7.0064295437
 30
0.0
 40
2.0
100
AcDbArc
 50
90.0
 51
101.0
  0
ARC
  5
145
330
1F
100
AcDbEntity
  8
0
  6
Continuous
 62
     7
370
    15
100
AcDbCircle
 10
25.7085602613
 20
8.6884295437
 30
0.0
 40
0.0300000000000016
100
AcDbArc
 50
90.0
 51
123.5573097619
  0
ARC
  5
146
330
1F
100
AcDbEntity
  8
0
  6
Continuous
 62
     7
370
    15
100
AcDbCircle
 10
20.3885204382
 20
8.6884295437
 30
0.0
 40
0.0299999999999994
100
AcDbArc
 50
56.4426902381
 51
90.0
  0
LINE
  5
147
330
1F
100
AcDbEntity
  8
0
  6
Continuous
 62
     7
370
    15
100
AcDbLine
 10
23.2185403426
 20
7.7234292847
 30
0.0
 11
23.2185403426
 21
8.0934298104
 31
0.0
  0
ARC
  5
148
330
1F
100
AcDbEntity
  8
0
  6
Continuous
 62
     7
370
    15
100
AcDbCircle
 10
23.1685403497
 20
7.7234295437
 30
0.0
 40
0.0499999999999998
100
AcDbArc
 50
270.0
 51
0.0
  0
LINE
  5
149
330
1F
100
AcDbEntity
  8
0
  6
Continuous
 62
     7
370
    15
100
AcDbLine
 10
21.0068254825
 20
8.0934298104
 30
0.0
 11
21.0068254825
 21
5.8062590854
 31
0.0
  0
ARC
  5
14A
330
1F
100
AcDbEntity
  8
0
  6
Continuous
 62
     7
370
    15
100
AcDbCircle
 10
21.0568254213
 20
5.8062591284
 30
0.0
 40
0.0500000000000006
100
AcDbArc
 50
180.4302244898
 51
267.0
  0
LINE
  5
14B
330
1F
100
AcDbEntity
  8
0
  6
Continuous
 62
     7
370
    15
100
AcDbLine
 10
24.5291226593
 20
8.0934479969
 30
0.0
 11
24.5229326641
 21
8.4009293515
 31
0.0
  0
LINE
  5
14C
330
1F
100
AcDbEntity
  8
0
  6
Continuous
 62
     7
370
    15
100
AcDbLine
 10
21.5741449554
 20
8.4009293515
 30
0.0
 11
21.5679647868
 21
8.0934362637
 31
0.0
  0
LINE
  5
14D
330
1F
100
AcDbEntity
  8
0
  6
Continuous
 62
     7
370
    15
100
AcDbLine
 10
25.6472679557
 20
8.0934298104
 30
0.0
 11
25.641900311
 21
8.4009293515
 31
0.0
  0
LINE
  5
14E
330
1F
100
AcDbEntity
  8
0
  6
Continuous
 62
     7
370
    15
100
AcDbLine
 10
20.4551803885
 20
8.4009293515
 30
0.0
 11
20.4498127438
 21
8.0934298104
 31
0.0
  0
LINE
  5
14F
330
1F
100
AcDbEntity
  8
0
  6
Continuous
 62
     7
370
    15
100
AcDbLine
 10
20.017290407
 20
8.5884293722
 30
0.0
 11
20.017290407
 21
8.4009293515
 31
0.0
  0
LINE
  5
150
330
1F
100
AcDbEntity
  8
0
  6
Continuous
 62
     7
370
    15
100
AcDbLine
 10
26.0797902925
 20
8.4009293515
 30
0.0
 11
26.0797902925
 21
8.5884293722
 31
0.0
  0
LINE
  5
151
330
1F
100
AcDbEntity
  8
0
  6
Continuous
 62
     7
370
    15
100
AcDbLine
 10
19.3610403347
 20
8.7134295815
 30
0.0
 11
19.3610403347
 21
8.5884293722
 31
0.0
  0
LINE
  5
152
330
1F
100
AcDbEntity
  8
0
  6
Continuous
 62
     7
370
    15
100
AcDbLine
 10
26.7360403648
 20
8.5884293722
 30
0.0
 11
26.7360403648
 21
8.7134295815
 31
0.0
  0
LINE
  5
153
330
1F
100
AcDbEntity
  8
0
  6
Continuous
 62
     7
370
    15
100
AcDbLine
 10
26.7973143502
 20
8.7886681256
 30
0.0
 11
19.2997663492
 21
8.7886681256
 31
0.0
  0
LINE
  5
154
330
1F
100
AcDbEntity
  8
0
  6
Continuous
 62
     7
370
    15
100
AcDbLine
 10
26.7985404694
 20
8.7184296837
 30
0.0
 11
19.2985402301
 21
8.7184296837
 31
0.0
  0
LINE
  5
155
330
1F
100
AcDbEntity
  8
0
  6
Continuous
 62
     7
370
    15
100
AcDbLine
 10
25.4844494499
 20
9.0064298234
 30
0.0
 11
20.6126312496
 21
9.0064298234
 31
0.0
  0
LINE
  5
156
330
1F
100
AcDbEntity
  8
0
  6
Continuous
 62
     7
370
    15
100
AcDbLine
 10
23.0985403501
 20
5.1544294953
 30
0.0
 11
22.9985403494
 21
5.1544294953
 31
0.0
  0
LINE
  5
157
330
1F
100
AcDbEntity
  8
0
  6
Continuous
 62
     7
370
    15
100
AcDbLine
 10
22.9985403494
 20
5.1544294953
 30
0.0
 11
22.9985403494
 21
8.0934298104
 31
0.0
  0
LINE
  5
158
330
1F
100
AcDbEntity
  8
0
  6
Continuous
 62
     7
370
    15
100
AcDbLine
 10
23.0985403501
 20
5.1544294953
 30
0.0
 11
23.0985403501
 21
8.0934298104
 31
0.0
  0
ARC
  5
159
330
1F
100
AcDbEntity
  8
0
  6
Continuous
 62
     7
370
    15
100
AcDbCircle
 10
22.9485403497
 20
7.6234295437
 30
0.0
 40
0.0500000000000007
100
AcDbArc
 50
0.0
 51
90.0
  0
LWPOLYLINE
  5
15A
330
1F
100
AcDbEntity
  8
0
  6
Continuous
 62
     7
370
    15
100
AcDbPolyline
 90
        6
 70
   128
 43
0.0
 10
22.9712676266
 20
7.7234292847
 10
22.9706822867
 20
7.708403165
 10
22.9688936432
 20
7.6950877454
 10
22.9657041842
 20
7.6844885612
 10
22.9605329697
 20
7.6771523793
 10
22.9485403491
 20
7.6734294356
  0
LINE
  5
15B
330
1F
100
AcDbEntity
  8
0
  6
Continuous
 62
     7
370
    15
100
AcDbLine
 10
22.9985403494
 20
7.7234292847
 30
0.0
 11
22.9712676266
 21
7.7234292847
 31
0.0
  0
LINE
  5
15C
330
1F
100
AcDbEntity
  8
0
  6
Continuous
 62
     7
370
    15
100
AcDbLine
 10
22.9712676266
 20
7.7234292847
 30
0.0
 11
22.9712676266
 21
8.0934298104
 31
0.0
  0
LINE
  5
15D
330
1F
100
AcDbEntity
  8
0
  6
Continuous
 62
     7
370
    15
100
AcDbLine
 10
22.8793424493
 20
7.7234292847
 30
0.0
 11
22.9712676266
 21
7.7234292847
 31
0.0
  0
LINE
  5
15E
330
1F
100
AcDbEntity
  8
0
  6
Continuous
 62
     7
370
    15
100
AcDbLine
 10
22.8793424493
 20
8.0934298104
 30
0.0
 11
22.8793424493
 21
7.7234292847
 31
0.0
  0
LINE
  5
15F
330
1F
100
AcDbEntity
  8
0
  6
Continuous
 62
     7
370
    15
100
AcDbLine
 10
23.1685403468
 20
7.6734294356
 30
0.0
 11
23.0985403501
 21
7.6734294356
 31
0.0
  0
LINE
  5
160
330
1F
100
AcDbEntity
  8
0
  6
Continuous
 62
     7
370
    15
100
AcDbLine
 10
22.9485403491
 20
7.6734294356
 30
0.0
 11
22.9291065436
 21
7.6734294356
 31
0.0
  0
ARC
  5
161
330
1F
100
AcDbEntity
  8
0
  6
Continuous
 62
     7
370
    15
100
AcDbCircle
 10
22.9292251361
 20
7.723312119
 30
0.0
 40
0.04988282432748
100
AcDbArc
 50
179.8654224798
 51
269.8637837224
  0
LINE
  5
162
330
1F
100
AcDbEntity
  8
0
  6
Continuous
 62
     7
370
    15
100
AcDbLine
 10
22.7815595189
 20
7.7234292847
 30
0.0
 11
22.8793424493
 21
7.7234292847
 31
0.0
  0
LINE
  5
163
330
1F
100
AcDbEntity
  8
0
  6
Continuous
 62
     7
370
    15
100
AcDbLine
 10
22.7815595189
 20
7.7234292847
 30
0.0
 11
22.7815595189
 21
8.0934298104
 31
0.0
  0
ARC
  5
164
330
1F
100
AcDbEntity
  8
0
  6
Continuous
 62
     7
370
    15
100
AcDbCircle
 10
22.9408899856
 20
7.9296876265
 30
0.0
 40
0.2606313510781575
100
AcDbArc
 50
232.314627471
 51
259.4893123662
  0
LINE
  5
165
330
1F
100
AcDbEntity
  8
0
  6
Continuous
 62
     7
370
    15
100
AcDbLine
 10
22.9291065436
 20
7.6734294356
 30
0.0
 11
22.8933458926
 21
7.6734294356
 31
0.0
  0
LINE
  5
166
330
1F
100
AcDbEntity
  8
0
  6
Continuous
 62
     7
370
    15
100
AcDbLine
 10
22.949412969
 20
5.7070270317
 30
0.0
 11
22.9985403494
 21
5.7070270317
 31
0.0
  0
LINE
  5
167
330
1F
100
AcDbEntity
  8
0
  6
Continuous
 62
     7
370
    15
100
AcDbLine
 10
22.949412969
 20
5.7070270317
 30
0.0
 11
22.949412969
 21
7.6734218091
 31
0.0
  0
ELLIPSE
  5
168
330
1F
100
AcDbEntity
  8
0
  6
Continuous
 62
     7
370
    15
100
AcDbEllipse
 10
22.9485403497
 20
5.7071185499
 30
0.0
 11
-0.002618366444849585
 21
0.05020575828565211
 31
0.0
210
0.0
220
0.0
230
1.0
 40
0.0172390455
 41
3.139785192316168
 42
4.70966813060732
  0
ARC
  5
169
330
1F
100
AcDbEntity
  8
0
  6
Continuous
 62
     7
370
    15
100
AcDbCircle
 10
22.9485403497
 20
5.6069813153
 30
0.0
 40
0.0500000000000007
100
AcDbArc
 50
0.0
 51
87.0
  0
LINE
  5
16A
330
1F
100
AcDbEntity
  8
0
  6
Continuous
 62
     7
370
    15
100
AcDbLine
 10
22.334968033
 20
5.739228793
 30
0.0
 11
22.949412969
 21
5.7070270317
 31
0.0
  0
LINE
  5
16B
330
1F
100
AcDbEntity
  8
0
  6
Continuous
 62
     7
370
    15
100
AcDbLine
 10
22.334968033
 20
8.0934298104
 30
0.0
 11
22.334968033
 21
5.739228793
 31
0.0
  0
LINE
  5
16C
330
1F
100
AcDbEntity
  8
0
  6
Continuous
 62
     7
370
    15
100
AcDbLine
 10
22.9511571456
 20
5.6569127839
 30
0.0
 11
22.3332238931
 21
5.6892972898
 31
0.0
  0
ARC
  5
16D
330
1F
100
AcDbEntity
  8
0
  6
Continuous
 62
     7
370
    15
100
AcDbCircle
 10
23.0502955006
 20
5.6892457262
 30
0.0
 40
0.7170716093383275
100
AcDbArc
 50
176.002989241
 51
179.9958799391
  0
LWPOLYLINE
  5
16E
330
1F
100
AcDbEntity
  8
0
  6
Continuous
 62
     7
370
    15
100
AcDbPolyline
 90
        4
 70
   128
 43
0.0
 10
22.3050765383
 20
5.740011984
 10
22.3148497054
 20
5.7397559069
 10
22.3248478566
 20
5.7394939633
 10
22.334968033
 20
5.739228793
  0
LINE
  5
16F
330
1F
100
AcDbEntity
  8
0
  6
Continuous
 62
     7
370
    15
100
AcDbLine
 10
22.3050765383
 20
5.740011984
 30
0.0
 11
22.3050765383
 21
8.0934298104
 31
0.0
  0
LINE
  5
170
330
1F
100
AcDbEntity
  8
0
  6
Continuous
 62
     7
370
    15
100
AcDbLine
 10
22.3332238931
 20
5.6892972898
 30
0.0
 11
22.3182781458
 21
5.6900804808
 31
0.0
  0
LWPOLYLINE
  5
171
330
1F
100
AcDbEntity
  8
0
  6
Continuous
 62
     7
370
    15
100
AcDbPolyline
 90
        9
 70
   128
 43
0.0
 10
22.3050765383
 20
5.740011984
 10
22.3049194601
 20
5.7303711087
 10
22.305363415
 20
5.7210924959
 10
22.3063918298
 20
5.7125260882
 10
22.3079658383
 20
5.7049939618
 10
22.3100264078
 20
5.6987791803
 10
22.3124958793
 20
5.6941158208
 10
22.3152814137
 20
5.6911795881
 10
22.3182781458
 20
5.6900804808
  0
LINE
  5
172
330
1F
100
AcDbEntity
  8
0
  6
Continuous
 62
     7
370
    15
100
AcDbLine
 10
21.1763716572
 20
7.5934295598
 30
0.0
 11
21.1763716572
 21
7.5814294318
 31
0.0
  0
LINE
  5
173
330
1F
100
AcDbEntity
  8
0
  6
Continuous
 62
     7
370
    15
100
AcDbLine
 10
21.1763716572
 20
7.5814294318
 30
0.0
 11
21.5727969577
 21
7.5814294318
 31
0.0
  0
LINE
  5
174
330
1F
100
AcDbEntity
  8
0
  6
Continuous
 62
     7
370
    15
100
AcDbLine
 10
21.5727969577
 20
7.5814294318
 30
0.0
 11
21.5727969577
 21
8.0934298104
 31
0.0
  0
LWPOLYLINE
  5
175
330
1F
100
AcDbEntity
  8
0
  6
Continuous
 62
     7
370
    15
100
AcDbPolyline
 90
       11
 70
   128
 43
0.0
 10
21.0435260452
 20
5.8047202765
 10
21.1341930111
 20
5.8000698235
 10
21.234241402
 20
5.7949380161
 10
21.3431810635
 20
5.789350374
 10
21.4604781352
 20
5.7833338835
 10
21.5855575436
 20
5.776918171
 10
21.7178065225
 20
5.7701346227
 10
21.8565770327
 20
5.7630166782
 10
22.0011887688
 20
5.7555992439
 10
22.1509332656
 20
5.7479183993
 10
22.3050765383
 20
5.740011984
  0
LWPOLYLINE
  5
176
330
1F
100
AcDbEntity
  8
0
  6
Continuous
 62
     7
370
    15
100
AcDbPolyline
 90
       10
 70
   128
 43
0.0
 10
22.3182781458
 20
5.6900804808
 10
22.1509042993
 20
5.6988522195
 10
21.9889448836
 20
5.7073403081
 10
21.8333797674
 20
5.7154931206
 10
21.6851500997
 20
5.7232613775
 10
21.5451523703
 20
5.7305984394
 10
21.4142337894
 20
5.7374594268
 10
21.2931862011
 20
5.7438032735
 10
21.1827419036
 20
5.7495915533
 10
21.0835691026
 20
5.7547890666
  0
ARC
  5
177
330
1F
100
AcDbEntity
  8
0
  6
Continuous
 62
     7
370
    15
100
AcDbCircle
 10
21.0897394944
 20
5.8007596618
 30
0.0
 40
0.0463828563303841
100
AcDbArc
 50
175.1015699045
 51
262.3551799811
  0
LINE
  5
178
330
1F
100
AcDbEntity
  8
0
  6
Continuous
 62
     7
370
    15
100
AcDbLine
 10
21.3035430948
 20
7.5814294318
 30
0.0
 11
21.3035430948
 21
7.5934295598
 31
0.0
  0
LWPOLYLINE
  5
179
330
1F
100
AcDbEntity
  8
0
  6
Continuous
 62
     7
370
    15
100
AcDbPolyline
 90
        5
 70
   128
 43
0.0
 10
21.0835691026
 20
5.7547890666
 10
21.0677970448
 20
5.7556153771
 10
21.057913439
 20
5.7561333977
 10
21.0542305348
 20
5.7563264088
 10
21.0542086818
 20
5.7563275822
  0
LINE
  5
17A
330
1F
100
AcDbEntity
  8
0
  6
Continuous
 62
     7
370
    15
100
AcDbLine
 10
23.1085403483
 20
7.1924680584
 30
0.0
 11
23.0985403501
 21
7.1924680584
 31
0.0
  0
LINE
  5
17B
330
1F
100
AcDbEntity
  8
0
  6
Continuous
 62
     7
370
    15
100
AcDbLine
 10
23.1085403483
 20
7.1506761679
 30
0.0
 11
23.0985403501
 21
7.1506761679
 31
0.0
  0
LINE
  5
17C
330
1F
100
AcDbEntity
  8
0
  6
Continuous
 62
     7
370
    15
100
AcDbLine
 10
23.1085403483
 20
7.1506761679
 30
0.0
 11
23.1085403483
 21
7.1924680584
 31
0.0
  0
LINE
  5
17D
330
1F
100
AcDbEntity
  8
0
  6
Continuous
 62
     7
370
    15
100
AcDbLine
 10
23.1085403483
 20
7.00016036
 30
0.0
 11
23.0985403501
 21
7.00016036
 31
0.0
  0
LINE
  5
17E
330
1F
100
AcDbEntity
  8
0
  6
Continuous
 62
     7
370
    15
100
AcDbLine
 10
23.1085403483
 20
6.9583684694
 30
0.0
 11
23.1085403483
 21
7.00016036
 31
0.0
  0
LINE
  5
17F
330
1F
100
AcDbEntity
  8
0
  6
Continuous
 62
     7
370
    15
100
AcDbLine
 10
23.1085403483
 20
6.9583684694
 30
0.0
 11
23.0985403501
 21
6.9583684694
 31
0.0
  0
LINE
  5
180
330
1F
100
AcDbEntity
  8
0
  6
Continuous
 62
     7
370
    15
100
AcDbLine
 10
23.1085403483
 20
6.9152243278
 30
0.0
 11
23.1085403483
 21
6.9583684694
 31
0.0
  0
LINE
  5
181
330
1F
100
AcDbEntity
  8
0
  6
Continuous
 62
     7
370
    15
100
AcDbLine
 10
23.1085403483
 20
6.9152243278
 30
0.0
 11
23.0985403501
 21
6.9152243278
 31
0.0
  0
LINE
  5
182
330
1F
100
AcDbEntity
  8
0
  6
Continuous
 62
     7
370
    15
100
AcDbLine
 10
23.1085403483
 20
7.1075320263
 30
0.0
 11
23.0985403501
 21
7.1075320263
 31
0.0
  0
LINE
  5
183
330
1F
100
AcDbEntity
  8
0
  6
Continuous
 62
     7
370
    15
100
AcDbLine
 10
23.1085403483
 20
7.1075320263
 30
0.0
 11
23.1085403483
 21
7.1506761679
 31
0.0
  0
LINE
  5
184
330
1F
100
AcDbEntity
  8
0
  6
Continuous
 62
     7
370
    15
100
AcDbLine
 10
23.1085403483
 20
6.8078526615
 30
0.0
 11
23.0985403501
 21
6.8078526615
 31
0.0
  0
LINE
  5
185
330
1F
100
AcDbEntity
  8
0
  6
Continuous
 62
     7
370
    15
100
AcDbLine
 10
23.1085403483
 20
6.7655597634
 30
0.0
 11
23.1085403483
 21
6.8078526615
 31
0.0
  0
LINE
  5
186
330
1F
100
AcDbEntity
  8
0
  6
Continuous
 62
     7
370
    15
100
AcDbLine
 10
23.1085403483
 20
6.7655597634
 30
0.0
 11
23.0985403501
 21
6.7655597634
 31
0.0
  0
LINE
  5
187
330
1F
100
AcDbEntity
  8
0
  6
Continuous
 62
     7
370
    15
100
AcDbLine
 10
23.1085403483
 20
6.711698519
 30
0.0
 11
23.0985403501
 21
6.711698519
 31
0.0
  0
LINE
  5
188
330
1F
100
AcDbEntity
  8
0
  6
Continuous
 62
     7
370
    15
100
AcDbLine
 10
23.1085403483
 20
6.6694062075
 30
0.0
 11
23.1085403483
 21
6.711698519
 31
0.0
  0
LINE
  5
189
330
1F
100
AcDbEntity
  8
0
  6
Continuous
 62
     7
370
    15
100
AcDbLine
 10
23.1085403483
 20
6.6694062075
 30
0.0
 11
23.0985403501
 21
6.6694062075
 31
0.0
  0
LINE
  5
18A
330
1F
100
AcDbEntity
  8
0
  6
Continuous
 62
     7
370
    15
100
AcDbLine
 10
23.1085403483
 20
6.7323818
 30
0.0
 11
23.0985403501
 21
6.7323818
 31
0.0
  0
LINE
  5
18B
330
1F
100
AcDbEntity
  8
0
  6
Continuous
 62
     7
370
    15
100
AcDbLine
 10
23.1085403483
 20
6.7323818
 30
0.0
 11
23.1085403483
 21
6.7655597634
 31
0.0
  0
LINE
  5
18C
330
1F
100
AcDbEntity
  8
0
  6
Continuous
 62
     7
370
    15
100
AcDbLine
 10
23.1085403483
 20
6.6362282441
 30
0.0
 11
23.0985403501
 21
6.6362282441
 31
0.0
  0
LINE
  5
18D
330
1F
100
AcDbEntity
  8
0
  6
Continuous
 62
     7
370
    15
100
AcDbLine
 10
23.1085403483
 20
6.6362282441
 30
0.0
 11
23.1085403483
 21
6.6694062075
 31
0.0
  0
LINE
  5
18E
330
1F
100
AcDbEntity
  8
0
  6
Continuous
 62
     7
370
    15
100
AcDbLine
 10
23.1085403483
 20
7.2389420815
 30
0.0
 11
23.1085403483
 21
7.250160192
 31
0.0
  0
LINE
  5
18F
330
1F
100
AcDbEntity
  8
0
  6
Continuous
 62
     7
370
    15
100
AcDbLine
 10
23.1085403483
 20
7.250160192
 30
0.0
 11
23.0985403501
 21
7.250160192
 31
0.0
  0
LINE
  5
190
330
1F
100
AcDbEntity
  8
0
  6
Continuous
 62
     7
370
    15
100
AcDbLine
 10
23.1085403483
 20
7.2389420815
 30
0.0
 11
23.0985403501
 21
7.2389420815
 31
0.0
  0
LINE
  5
191
330
1F
100
AcDbEntity
  8
0
  6
Continuous
 62
     7
370
    15
100
AcDbLine
 10
23.1085403483
 20
7.0578524935
 30
0.0
 11
23.0985403501
 21
7.0578524935
 31
0.0
  0
LINE
  5
192
330
1F
100
AcDbEntity
  8
0
  6
Continuous
 62
     7
370
    15
100
AcDbLine
 10
23.1085403483
 20
7.0466343831
 30
0.0
 11
23.1085403483
 21
7.0578524935
 31
0.0
  0
LINE
  5
193
330
1F
100
AcDbEntity
  8
0
  6
Continuous
 62
     7
370
    15
100
AcDbLine
 10
23.1085403483
 20
7.0466343831
 30
0.0
 11
23.0985403501
 21
7.0466343831
 31
0.0
  0
LINE
  5
194
330
1F
100
AcDbEntity
  8
0
  6
Continuous
 62
     7
370
    15
100
AcDbLine
 10
23.1085403483
 20
6.8447113291
 30
0.0
 11
23.0985403501
 21
6.8447113291
 31
0.0
  0
LINE
  5
195
330
1F
100
AcDbEntity
  8
0
  6
Continuous
 62
     7
370
    15
100
AcDbLine
 10
23.1085403483
 20
6.8334938053
 30
0.0
 11
23.0985403501
 21
6.8334938053
 31
0.0
  0
LINE
  5
196
330
1F
100
AcDbEntity
  8
0
  6
Continuous
 62
     7
370
    15
100
AcDbLine
 10
23.1085403483
 20
6.8334938053
 30
0.0
 11
23.1085403483
 21
6.8447113291
 31
0.0
  0
LINE
  5
197
330
1F
100
AcDbEntity
  8
0
  6
Continuous
 62
     7
370
    15
100
AcDbLine
 10
23.1085403483
 20
6.7229166294
 30
0.0
 11
23.0985403501
 21
6.7229166294
 31
0.0
  0
LINE
  5
198
330
1F
100
AcDbEntity
  8
0
  6
Continuous
 62
     7
370
    15
100
AcDbLine
 10
23.1085403483
 20
6.7229166294
 30
0.0
 11
23.1085403483
 21
6.7323818
 31
0.0
  0
LINE
  5
199
330
1F
100
AcDbEntity
  8
0
  6
Continuous
 62
     7
370
    15
100
AcDbLine
 10
23.1085403483
 20
6.6267630735
 30
0.0
 11
23.0985403501
 21
6.6267630735
 31
0.0
  0
LINE
  5
19A
330
1F
100
AcDbEntity
  8
0
  6
Continuous
 62
     7
370
    15
100
AcDbLine
 10
23.1085403483
 20
6.6267630735
 30
0.0
 11
23.1085403483
 21
6.6362282441
 31
0.0
  0
LINE
  5
19B
330
1F
100
AcDbEntity
  8
0
  6
Continuous
 62
     7
370
    15
100
AcDbLine
 10
23.1085403483
 20
6.9040062174
 30
0.0
 11
23.0985403501
 21
6.9040062174
 31
0.0
  0
LINE
  5
19C
330
1F
100
AcDbEntity
  8
0
  6
Continuous
 62
     7
370
    15
100
AcDbLine
 10
23.1085403483
 20
6.8447113291
 30
0.0
 11
23.1085403483
 21
6.9040062174
 31
0.0
  0
LINE
  5
19D
330
1F
100
AcDbEntity
  8
0
  6
Continuous
 62
     7
370
    15
100
AcDbLine
 10
23.1085403483
 20
6.8190707719
 30
0.0
 11
23.0985403501
 21
6.8190707719
 31
0.0
  0
LINE
  5
19E
330
1F
100
AcDbEntity
  8
0
  6
Continuous
 62
     7
370
    15
100
AcDbLine
 10
23.1085403483
 20
6.8190707719
 30
0.0
 11
23.1085403483
 21
6.8334938053
 31
0.0
  0
LINE
  5
19F
330
1F
100
AcDbEntity
  8
0
  6
Continuous
 62
     7
370
    15
100
AcDbLine
 10
23.1085403483
 20
7.2693909031
 30
0.0
 11
23.0985403501
 21
7.2693909031
 31
0.0
  0
LINE
  5
1A0
330
1F
100
AcDbEntity
  8
0
  6
Continuous
 62
     7
370
    15
100
AcDbLine
 10
23.1085403483
 20
7.250160192
 30
0.0
 11
23.1085403483
 21
7.2693909031
 31
0.0
  0
LINE
  5
1A1
330
1F
100
AcDbEntity
  8
0
  6
Continuous
 62
     7
370
    15
100
AcDbLine
 10
23.1085403483
 20
7.0770832047
 30
0.0
 11
23.0985403501
 21
7.0770832047
 31
0.0
  0
LINE
  5
1A2
330
1F
100
AcDbEntity
  8
0
  6
Continuous
 62
     7
370
    15
100
AcDbLine
 10
23.1085403483
 20
7.0578524935
 30
0.0
 11
23.1085403483
 21
7.0770832047
 31
0.0
  0
LINE
  5
1A3
330
1F
100
AcDbEntity
  8
0
  6
Continuous
 62
     7
370
    15
100
AcDbLine
 10
21.612640844
 20
8.0934298104
 30
0.0
 11
22.9656142602
 21
8.0934298104
 31
0.0
  0
LINE
  5
1A4
330
1F
100
AcDbEntity
  8
0
  6
Continuous
 62
     7
370
    15
100
AcDbLine
 10
23.1314664393
 20
8.0934298104
 30
0.0
 11
24.4844398554
 21
8.0934298104
 31
0.0
  0
LINE
  5
1A5
330
1F
100
AcDbEntity
  8
0
  6
Continuous
 62
     7
370
    15
100
AcDbLine
 10
23.0148090102
 20
8.0934298104
 30
0.0
 11
23.0822716892
 21
8.0934298104
 31
0.0
  0
LINE
  5
1A6
330
1F
100
AcDbEntity
  8
0
  6
Continuous
 62
     7
370
    15
100
AcDbLine
 10
22.9898128165
 20
8.0934298104
 30
0.0
 11
22.9951802503
 21
8.4009293515
 31
0.0
  0
LINE
  5
1A7
330
1F
100
AcDbEntity
  8
0
  6
Continuous
 62
     7
370
    15
100
AcDbLine
 10
23.0148090102
 20
8.0934298104
 30
0.0
 11
22.9898128165
 21
8.0934298104
 31
0.0
  0
LINE
  5
1A8
330
1F
100
AcDbEntity
  8
0
  6
Continuous
 62
     7
370
    15
100
AcDbLine
 10
23.1019004492
 20
8.4009293515
 30
0.0
 11
23.107267883
 21
8.0934298104
 31
0.0
  0
LINE
  5
1A9
330
1F
100
AcDbEntity
  8
0
  6
Continuous
 62
     7
370
    15
100
AcDbLine
 10
23.107267883
 20
8.0934298104
 30
0.0
 11
23.0822716892
 21
8.0934298104
 31
0.0
  0
LINE
  5
1AA
330
1F
100
AcDbEntity
  8
0
  6
Continuous
 62
     7
370
    15
100
AcDbLine
 10
23.1314664393
 20
8.0934298104
 30
0.0
 11
23.107267883
 21
8.0934298104
 31
0.0
  0
LINE
  5
1AB
330
1F
100
AcDbEntity
  8
0
  6
Continuous
 62
     7
370
    15
100
AcDbLine
 10
22.9898128165
 20
8.0934298104
 30
0.0
 11
22.9656142602
 21
8.0934298104
 31
0.0
  0
LINE
  5
1AC
330
1F
100
AcDbEntity
  8
0
  6
Continuous
 62
     7
370
    15
100
AcDbLine
 10
24.4844398554
 20
8.0934298104
 30
0.0
 11
24.5288941552
 21
8.0934298104
 31
0.0
  0
LINE
  5
1AD
330
1F
100
AcDbEntity
  8
0
  6
Continuous
 62
     7
370
    15
100
AcDbLine
 10
21.612640844
 20
8.0934298104
 30
0.0
 11
21.5682786498
 21
8.0934298104
 31
0.0
  0
LINE
  5
1AE
330
1F
100
AcDbEntity
  8
0
  6
Continuous
 62
     7
370
    15
100
AcDbLine
 10
24.601371438
 20
7.725362329
 30
0.0
 11
24.5943491191
 21
8.0934298104
 31
0.0
  0
LWPOLYLINE
  5
1AF
330
1F
100
AcDbEntity
  8
0
  6
Continuous
 62
     7
370
    15
100
AcDbPolyline
 90
        6
 70
   128
 43
0.0
 10
24.6246415958
 20
7.6934292579
 10
24.6169739511
 20
7.6952725433
 10
24.6101480166
 20
7.7005970685
 10
24.60494317
 20
7.7087974004
 10
24.6019535512
 20
7.7189213901
 10
24.601371438
 20
7.725362329
  0
LINE
  5
1B0
330
1F
100
AcDbEntity
  8
0
  6
Continuous
 62
     7
370
    15
100
AcDbLine
 10
24.6461309476
 20
7.6934292579
 30
0.0
 11
24.6246415958
 21
7.6934292579
 31
0.0
  0
ELLIPSE
  5
1B1
330
1F
100
AcDbEntity
  8
0
  6
Continuous
 62
     7
370
    15
100
AcDbEllipse
 10
24.6459304317
 20
7.7259295437
 30
0.0
 11
-0.0004010579732103281
 21
0.03249876287643172
 31
0.0
210
0.0
220
0.0
230
1.0
 40
0.7070529374
 41
3.132867336170281
 42
4.694937016705294
  0
LINE
  5
1B2
330
1F
100
AcDbEntity
  8
0
  6
Continuous
 62
     7
370
    15
100
AcDbLine
 10
24.6689122711
 20
8.4009293515
 30
0.0
 11
24.6689122711
 21
7.7256456858
 31
0.0
  0
LINE
  5
1B3
330
1F
100
AcDbEntity
  8
0
  6
Continuous
 62
     7
370
    15
100
AcDbLine
 10
24.7281860397
 20
8.4009293515
 30
0.0
 11
24.7284359568
 21
8.360429286
 31
0.0
  0
LINE
  5
1B4
330
1F
100
AcDbEntity
  8
0
  6
Continuous
 62
     7
370
    15
100
AcDbLine
 10
24.7284359568
 20
8.360429286
 30
0.0
 11
24.7637913083
 21
8.360429286
 31
0.0
  0
LINE
  5
1B5
330
1F
100
AcDbEntity
  8
0
  6
Continuous
 62
     7
370
    15
100
AcDbLine
 10
24.7637913083
 20
8.360429286
 30
0.0
 11
24.7289604307
 21
8.275429308
 31
0.0
  0
LINE
  5
1B6
330
1F
100
AcDbEntity
  8
0
  6
Continuous
 62
     7
370
    15
100
AcDbLine
 10
24.7289604307
 20
8.275429308
 30
0.0
 11
24.7643157823
 21
8.275429308
 31
0.0
  0
LINE
  5
1B7
330
1F
100
AcDbEntity
  8
0
  6
Continuous
 62
     7
370
    15
100
AcDbLine
 10
24.7643157823
 20
8.275429308
 30
0.0
 11
24.7294850513
 21
8.1904293299
 31
0.0
  0
LINE
  5
1B8
330
1F
100
AcDbEntity
  8
0
  6
Continuous
 62
     7
370
    15
100
AcDbLine
 10
24.7294850513
 20
8.1904293299
 30
0.0
 11
24.7648402562
 21
8.1904293299
 31
0.0
  0
LINE
  5
1B9
330
1F
100
AcDbEntity
  8
0
  6
Continuous
 62
     7
370
    15
100
AcDbLine
 10
24.7648402562
 20
8.1904293299
 30
0.0
 11
24.7300095253
 21
8.1054293518
 31
0.0
  0
LINE
  5
1BA
330
1F
100
AcDbEntity
  8
0
  6
Continuous
 62
     7
370
    15
100
AcDbLine
 10
24.7300095253
 20
8.1054293518
 30
0.0
 11
24.7653648768
 21
8.1054293518
 31
0.0
  0
LINE
  5
1BB
330
1F
100
AcDbEntity
  8
0
  6
Continuous
 62
     7
370
    15
100
AcDbLine
 10
24.7653648768
 20
8.1054293518
 30
0.0
 11
24.7305339992
 21
8.0204293737
 31
0.0
  0
LINE
  5
1BC
330
1F
100
AcDbEntity
  8
0
  6
Continuous
 62
     7
370
    15
100
AcDbLine
 10
24.7305339992
 20
8.0204293737
 30
0.0
 11
24.7658893508
 21
8.0204293737
 31
0.0
  0
LINE
  5
1BD
330
1F
100
AcDbEntity
  8
0
  6
Continuous
 62
     7
370
    15
100
AcDbLine
 10
24.7658893508
 20
8.0204293737
 30
0.0
 11
24.7310586198
 21
7.9354293957
 31
0.0
  0
LINE
  5
1BE
330
1F
100
AcDbEntity
  8
0
  6
Continuous
 62
     7
370
    15
100
AcDbLine
 10
24.7310586198
 20
7.9354293957
 30
0.0
 11
24.7664138247
 21
7.9354293957
 31
0.0
  0
LINE
  5
1BF
330
1F
100
AcDbEntity
  8
0
  6
Continuous
 62
     7
370
    15
100
AcDbLine
 10
24.7664138247
 20
7.9354293957
 30
0.0
 11
24.7315830938
 21
7.8504294176
 31
0.0
  0
LINE
  5
1C0
330
1F
100
AcDbEntity
  8
0
  6
Continuous
 62
     7
370
    15
100
AcDbLine
 10
24.7315830938
 20
7.8504294176
 30
0.0
 11
24.7669384453
 21
7.8504294176
 31
0.0
  0
LINE
  5
1C1
330
1F
100
AcDbEntity
  8
0
  6
Continuous
 62
     7
370
    15
100
AcDbLine
 10
24.7669384453
 20
7.8504294176
 30
0.0
 11
24.7321075677
 21
7.7654294395
 31
0.0
  0
LINE
  5
1C2
330
1F
100
AcDbEntity
  8
0
  6
Continuous
 62
     7
370
    15
100
AcDbLine
 10
24.7321075677
 20
7.7654294395
 30
0.0
 11
24.7326753078
 21
7.6734294356
 31
0.0
  0
LINE
  5
1C3
330
1F
100
AcDbEntity
  8
0
  6
Continuous
 62
     7
370
    15
100
AcDbLine
 10
24.6766004489
 20
7.5934295598
 30
0.0
 11
24.7326753078
 21
7.6734294356
 31
0.0
  0
LINE
  5
1C4
330
1F
100
AcDbEntity
  8
0
  6
Continuous
 62
     7
370
    15
100
AcDbLine
 10
24.5770398657
 20
7.5934295598
 30
0.0
 11
24.6766004489
 21
7.5934295598
 31
0.0
  0
LINE
  5
1C5
330
1F
100
AcDbEntity
  8
0
  6
Continuous
 62
     7
370
    15
100
AcDbLine
 10
24.519475184
 20
7.6741340142
 30
0.0
 11
24.5770398657
 21
7.5934295598
 31
0.0
  0
LINE
  5
1C6
330
1F
100
AcDbEntity
  8
0
  6
Continuous
 62
     7
370
    15
100
AcDbLine
 10
24.519475184
 20
7.6741340142
 30
0.0
 11
24.5143004038
 21
8.0934298104
 31
0.0
  0
LINE
  5
1C7
330
1F
100
AcDbEntity
  8
0
  6
Continuous
 62
     7
370
    15
100
AcDbLine
 10
21.5200408338
 20
7.5934295598
 30
0.0
 11
21.5727969577
 21
7.6673927054
 31
0.0
  0
LINE
  5
1C8
330
1F
100
AcDbEntity
  8
0
  6
Continuous
 62
     7
370
    15
100
AcDbLine
 10
21.4204802506
 20
7.5934295598
 30
0.0
 11
21.5200408338
 21
7.5934295598
 31
0.0
  0
LINE
  5
1C9
330
1F
100
AcDbEntity
  8
0
  6
Continuous
 62
     7
370
    15
100
AcDbLine
 10
21.3644053917
 20
7.6734294356
 30
0.0
 11
21.4204802506
 21
7.5934295598
 31
0.0
  0
LINE
  5
1CA
330
1F
100
AcDbEntity
  8
0
  6
Continuous
 62
     7
370
    15
100
AcDbLine
 10
21.3649731318
 20
7.7654294395
 30
0.0
 11
21.3644053917
 21
7.6734294356
 31
0.0
  0
LINE
  5
1CB
330
1F
100
AcDbEntity
  8
0
  6
Continuous
 62
     7
370
    15
100
AcDbLine
 10
21.3301422542
 20
7.8504294176
 30
0.0
 11
21.3649731318
 21
7.7654294395
 31
0.0
  0
LINE
  5
1CC
330
1F
100
AcDbEntity
  8
0
  6
Continuous
 62
     7
370
    15
100
AcDbLine
 10
21.3654976057
 20
7.8504294176
 30
0.0
 11
21.3301422542
 21
7.8504294176
 31
0.0
  0
LINE
  5
1CD
330
1F
100
AcDbEntity
  8
0
  6
Continuous
 62
     7
370
    15
100
AcDbLine
 10
21.3306668748
 20
7.9354293957
 30
0.0
 11
21.3654976057
 21
7.8504294176
 31
0.0
  0
LINE
  5
1CE
330
1F
100
AcDbEntity
  8
0
  6
Continuous
 62
     7
370
    15
100
AcDbLine
 10
21.3660220797
 20
7.9354293957
 30
0.0
 11
21.3306668748
 21
7.9354293957
 31
0.0
  0
LINE
  5
1CF
330
1F
100
AcDbEntity
  8
0
  6
Continuous
 62
     7
370
    15
100
AcDbLine
 10
21.3311913487
 20
8.0204293737
 30
0.0
 11
21.3660220797
 21
7.9354293957
 31
0.0
  0
LINE
  5
1D0
330
1F
100
AcDbEntity
  8
0
  6
Continuous
 62
     7
370
    15
100
AcDbLine
 10
21.3665467003
 20
8.0204293737
 30
0.0
 11
21.3311913487
 21
8.0204293737
 31
0.0
  0
LINE
  5
1D1
330
1F
100
AcDbEntity
  8
0
  6
Continuous
 62
     7
370
    15
100
AcDbLine
 10
21.3317158226
 20
8.1054293518
 30
0.0
 11
21.3665467003
 21
8.0204293737
 31
0.0
  0
LINE
  5
1D2
330
1F
100
AcDbEntity
  8
0
  6
Continuous
 62
     7
370
    15
100
AcDbLine
 10
21.3670711742
 20
8.1054293518
 30
0.0
 11
21.3317158226
 21
8.1054293518
 31
0.0
  0
LINE
  5
1D3
330
1F
100
AcDbEntity
  8
0
  6
Continuous
 62
     7
370
    15
100
AcDbLine
 10
21.3322404432
 20
8.1904293299
 30
0.0
 11
21.3670711742
 21
8.1054293518
 31
0.0
  0
LINE
  5
1D4
330
1F
100
AcDbEntity
  8
0
  6
Continuous
 62
     7
370
    15
100
AcDbLine
 10
21.3675956482
 20
8.1904293299
 30
0.0
 11
21.3322404432
 21
8.1904293299
 31
0.0
  0
LINE
  5
1D5
330
1F
100
AcDbEntity
  8
0
  6
Continuous
 62
     7
370
    15
100
AcDbLine
 10
21.3327649172
 20
8.275429308
 30
0.0
 11
21.3675956482
 21
8.1904293299
 31
0.0
  0
LINE
  5
1D6
330
1F
100
AcDbEntity
  8
0
  6
Continuous
 62
     7
370
    15
100
AcDbLine
 10
21.3681202688
 20
8.275429308
 30
0.0
 11
21.3327649172
 21
8.275429308
 31
0.0
  0
LINE
  5
1D7
330
1F
100
AcDbEntity
  8
0
  6
Continuous
 62
     7
370
    15
100
AcDbLine
 10
21.3332893911
 20
8.360429286
 30
0.0
 11
21.3681202688
 21
8.275429308
 31
0.0
  0
LINE
  5
1D8
330
1F
100
AcDbEntity
  8
0
  6
Continuous
 62
     7
370
    15
100
AcDbLine
 10
21.3686447427
 20
8.360429286
 30
0.0
 11
21.3332893911
 21
8.360429286
 31
0.0
  0
LINE
  5
1D9
330
1F
100
AcDbEntity
  8
0
  6
Continuous
 62
     7
370
    15
100
AcDbLine
 10
21.3688946598
 20
8.4009293515
 30
0.0
 11
21.3686447427
 21
8.360429286
 31
0.0
  0
LINE
  5
1DA
330
1F
100
AcDbEntity
  8
0
  6
Continuous
 62
     7
370
    15
100
AcDbLine
 10
21.4281684284
 20
8.4009293515
 30
0.0
 11
21.4281684284
 21
7.7256456858
 31
0.0
  0
ELLIPSE
  5
1DB
330
1F
100
AcDbEntity
  8
0
  6
Continuous
 62
     7
370
    15
100
AcDbEllipse
 10
21.4511502678
 20
7.7259295437
 30
0.0
 11
0.0004010579732067754
 21
0.03249876287643172
 31
0.0
210
0.0
220
0.0
230
1.0
 40
0.7070529374
 41
1.588248290474228
 42
3.150317971009168
  0
LINE
  5
1DC
330
1F
100
AcDbEntity
  8
0
  6
Continuous
 62
     7
370
    15
100
AcDbLine
 10
21.4724391037
 20
7.6934292579
 30
0.0
 11
21.4509497519
 21
7.6934292579
 31
0.0
  0
LWPOLYLINE
  5
1DD
330
1F
100
AcDbEntity
  8
0
  6
Continuous
 62
     7
370
    15
100
AcDbPolyline
 90
        6
 70
   128
 43
0.0
 10
21.4957092615
 20
7.725362329
 10
21.4942104922
 20
7.7146604793
 10
21.490297324
 20
7.7052322683
 10
21.4844016855
 20
7.6981178438
 10
21.4771684624
 20
7.69411917
 10
21.4724391037
 20
7.6934292579
  0
LINE
  5
1DE
330
1F
100
AcDbEntity
  8
0
  6
Continuous
 62
     7
370
    15
100
AcDbLine
 10
21.4957092615
 20
7.725362329
 30
0.0
 11
21.5027315804
 21
8.0934298104
 31
0.0
  0
LINE
  5
1DF
330
1F
100
AcDbEntity
  8
0
  6
Continuous
 62
     7
370
    15
100
AcDbLine
 10
24.7637913083
 20
8.360429286
 30
0.0
 11
25.0554995785
 21
8.360429286
 31
0.0
  0
LINE
  5
1E0
330
1F
100
AcDbEntity
  8
0
  6
Continuous
 62
     7
370
    15
100
AcDbLine
 10
25.0554995785
 20
8.360429286
 30
0.0
 11
25.0196196063
 21
8.275429308
 31
0.0
  0
LINE
  5
1E1
330
1F
100
AcDbEntity
  8
0
  6
Continuous
 62
     7
370
    15
100
AcDbLine
 10
21.041581121
 20
8.360429286
 30
0.0
 11
21.0774610931
 21
8.275429308
 31
0.0
  0
LINE
  5
1E2
330
1F
100
AcDbEntity
  8
0
  6
Continuous
 62
     7
370
    15
100
AcDbLine
 10
21.041581121
 20
8.360429286
 30
0.0
 11
21.3332893911
 21
8.360429286
 31
0.0
  0
LINE
  5
1E3
330
1F
100
AcDbEntity
  8
0
  6
Continuous
 62
     7
370
    15
100
AcDbLine
 10
25.0549749579
 20
8.275429308
 30
0.0
 11
25.0190951324
 21
8.1904293299
 31
0.0
  0
LINE
  5
1E4
330
1F
100
AcDbEntity
  8
0
  6
Continuous
 62
     7
370
    15
100
AcDbLine
 10
24.7643157823
 20
8.275429308
 30
0.0
 11
25.0549749579
 21
8.275429308
 31
0.0
  0
LINE
  5
1E5
330
1F
100
AcDbEntity
  8
0
  6
Continuous
 62
     7
370
    15
100
AcDbLine
 10
21.0421057416
 20
8.275429308
 30
0.0
 11
21.0779855671
 21
8.1904293299
 31
0.0
  0
LINE
  5
1E6
330
1F
100
AcDbEntity
  8
0
  6
Continuous
 62
     7
370
    15
100
AcDbLine
 10
21.0421057416
 20
8.275429308
 30
0.0
 11
21.3327649172
 21
8.275429308
 31
0.0
  0
LINE
  5
1E7
330
1F
100
AcDbEntity
  8
0
  6
Continuous
 62
     7
370
    15
100
AcDbLine
 10
25.054450484
 20
8.1904293299
 30
0.0
 11
25.0185706584
 21
8.1054293518
 31
0.0
  0
LINE
  5
1E8
330
1F
100
AcDbEntity
  8
0
  6
Continuous
 62
     7
370
    15
100
AcDbLine
 10
24.7648402562
 20
8.1904293299
 30
0.0
 11
25.054450484
 21
8.1904293299
 31
0.0
  0
LINE
  5
1E9
330
1F
100
AcDbEntity
  8
0
  6
Continuous
 62
     7
370
    15
100
AcDbLine
 10
21.0426302155
 20
8.1904293299
 30
0.0
 11
21.078510041
 21
8.1054293518
 31
0.0
  0
LINE
  5
1EA
330
1F
100
AcDbEntity
  8
0
  6
Continuous
 62
     7
370
    15
100
AcDbLine
 10
21.0426302155
 20
8.1904293299
 30
0.0
 11
21.3322404432
 21
8.1904293299
 31
0.0
  0
LINE
  5
1EB
330
1F
100
AcDbEntity
  8
0
  6
Continuous
 62
     7
370
    15
100
AcDbLine
 10
24.7653648768
 20
8.1054293518
 30
0.0
 11
25.05392601
 21
8.1054293518
 31
0.0
  0
LINE
  5
1EC
330
1F
100
AcDbEntity
  8
0
  6
Continuous
 62
     7
370
    15
100
AcDbLine
 10
25.05392601
 20
8.1054293518
 30
0.0
 11
25.0180460378
 21
8.0204293737
 31
0.0
  0
LINE
  5
1ED
330
1F
100
AcDbEntity
  8
0
  6
Continuous
 62
     7
370
    15
100
AcDbLine
 10
21.0431546895
 20
8.1054293518
 30
0.0
 11
21.0790346616
 21
8.0204293737
 31
0.0
  0
LINE
  5
1EE
330
1F
100
AcDbEntity
  8
0
  6
Continuous
 62
     7
370
    15
100
AcDbLine
 10
21.0431546895
 20
8.1054293518
 30
0.0
 11
21.3317158226
 21
8.1054293518
 31
0.0
  0
LINE
  5
1EF
330
1F
100
AcDbEntity
  8
0
  6
Continuous
 62
     7
370
    15
100
AcDbLine
 10
24.7658893508
 20
8.0204293737
 30
0.0
 11
25.0534013894
 21
8.0204293737
 31
0.0
  0
LINE
  5
1F0
330
1F
100
AcDbEntity
  8
0
  6
Continuous
 62
     7
370
    15
100
AcDbLine
 10
25.0534013894
 20
8.0204293737
 30
0.0
 11
25.0175215639
 21
7.9354293957
 31
0.0
  0
LINE
  5
1F1
330
1F
100
AcDbEntity
  8
0
  6
Continuous
 62
     7
370
    15
100
AcDbLine
 10
21.0436793101
 20
8.0204293737
 30
0.0
 11
21.0795591356
 21
7.9354293957
 31
0.0
  0
LINE
  5
1F2
330
1F
100
AcDbEntity
  8
0
  6
Continuous
 62
     7
370
    15
100
AcDbLine
 10
21.0436793101
 20
8.0204293737
 30
0.0
 11
21.3311913487
 21
8.0204293737
 31
0.0
  0
LINE
  5
1F3
330
1F
100
AcDbEntity
  8
0
  6
Continuous
 62
     7
370
    15
100
AcDbLine
 10
24.7664138247
 20
7.9354293957
 30
0.0
 11
25.0528769155
 21
7.9354293957
 31
0.0
  0
LINE
  5
1F4
330
1F
100
AcDbEntity
  8
0
  6
Continuous
 62
     7
370
    15
100
AcDbLine
 10
25.0528769155
 20
7.9354293957
 30
0.0
 11
25.01699709
 21
7.8504294176
 31
0.0
  0
LINE
  5
1F5
330
1F
100
AcDbEntity
  8
0
  6
Continuous
 62
     7
370
    15
100
AcDbLine
 10
21.044203784
 20
7.9354293957
 30
0.0
 11
21.0800836095
 21
7.8504294176
 31
0.0
  0
LINE
  5
1F6
330
1F
100
AcDbEntity
  8
0
  6
Continuous
 62
     7
370
    15
100
AcDbLine
 10
21.044203784
 20
7.9354293957
 30
0.0
 11
21.3306668748
 21
7.9354293957
 31
0.0
  0
LINE
  5
1F7
330
1F
100
AcDbEntity
  8
0
  6
Continuous
 62
     7
370
    15
100
AcDbLine
 10
25.0523524415
 20
7.8504294176
 30
0.0
 11
25.0164724694
 21
7.7654294395
 31
0.0
  0
LINE
  5
1F8
330
1F
100
AcDbEntity
  8
0
  6
Continuous
 62
     7
370
    15
100
AcDbLine
 10
24.7321075677
 20
7.7654294395
 30
0.0
 11
25.0164724694
 21
7.7654294395
 31
0.0
  0
LINE
  5
1F9
330
1F
100
AcDbEntity
  8
0
  6
Continuous
 62
     7
370
    15
100
AcDbLine
 10
24.7669384453
 20
7.8504294176
 30
0.0
 11
25.0523524415
 21
7.8504294176
 31
0.0
  0
LINE
  5
1FA
330
1F
100
AcDbEntity
  8
0
  6
Continuous
 62
     7
370
    15
100
AcDbLine
 10
21.0447282579
 20
7.8504294176
 30
0.0
 11
21.0806082301
 21
7.7654294395
 31
0.0
  0
LINE
  5
1FB
330
1F
100
AcDbEntity
  8
0
  6
Continuous
 62
     7
370
    15
100
AcDbLine
 10
21.0447282579
 20
7.8504294176
 30
0.0
 11
21.3301422542
 21
7.8504294176
 31
0.0
  0
LINE
  5
1FC
330
1F
100
AcDbEntity
  8
0
  6
Continuous
 62
     7
370
    15
100
AcDbLine
 10
21.0806082301
 20
7.7654294395
 30
0.0
 11
21.3649731318
 21
7.7654294395
 31
0.0
  0
LINE
  5
1FD
330
1F
100
AcDbEntity
  8
0
  6
Continuous
 62
     7
370
    15
100
AcDbLine
 10
25.020394144
 20
8.4009293515
 30
0.0
 11
25.0201442269
 21
8.360429286
 31
0.0
  0
LINE
  5
1FE
330
1F
100
AcDbEntity
  8
0
  6
Continuous
 62
     7
370
    15
100
AcDbLine
 10
21.0766865554
 20
8.4009293515
 30
0.0
 11
21.0769364725
 21
8.360429286
 31
0.0
  0
LINE
  5
1FF
330
1F
100
AcDbEntity
  8
0
  6
Continuous
 62
     7
370
    15
100
AcDbLine
 10
25.0164724694
 20
7.7654294395
 30
0.0
 11
25.0159048759
 21
7.6734294356
 31
0.0
  0
LINE
  5
200
330
1F
100
AcDbEntity
  8
0
  6
Continuous
 62
     7
370
    15
100
AcDbLine
 10
24.7326753078
 20
7.6734294356
 30
0.0
 11
25.0159048759
 21
7.6734294356
 31
0.0
  0
LINE
  5
201
330
1F
100
AcDbEntity
  8
0
  6
Continuous
 62
     7
370
    15
100
AcDbLine
 10
21.0811758236
 20
7.6734294356
 30
0.0
 11
21.3644053917
 21
7.6734294356
 31
0.0
  0
LINE
  5
202
330
1F
100
AcDbEntity
  8
0
  6
Continuous
 62
     7
370
    15
100
AcDbLine
 10
21.0806082301
 20
7.7654294395
 30
0.0
 11
21.0811758236
 21
7.6734294356
 31
0.0
  0
LINE
  5
203
330
1F
100
AcDbEntity
  8
0
  6
Continuous
 62
     7
370
    15
100
AcDbLine
 10
24.9588426684
 20
7.5934295598
 30
0.0
 11
24.6766004489
 21
7.5934295598
 31
0.0
  0
LINE
  5
204
330
1F
100
AcDbEntity
  8
0
  6
Continuous
 62
     7
370
    15
100
AcDbLine
 10
25.0159048759
 20
7.6734294356
 30
0.0
 11
24.9588426684
 21
7.5934295598
 31
0.0
  0
LINE
  5
205
330
1F
100
AcDbEntity
  8
0
  6
Continuous
 62
     7
370
    15
100
AcDbLine
 10
21.4204802506
 20
7.5934295598
 30
0.0
 11
21.138238031
 21
7.5934295598
 31
0.0
  0
LINE
  5
206
330
1F
100
AcDbEntity
  8
0
  6
Continuous
 62
     7
370
    15
100
AcDbLine
 10
21.138238031
 20
7.5934295598
 30
0.0
 11
21.0811758236
 21
7.6734294356
 31
0.0
  0
LINE
  5
207
330
1F
100
AcDbEntity
  8
0
  6
Continuous
 62
     7
370
    15
100
AcDbLine
 10
24.5943491191
 20
8.0934298104
 30
0.0
 11
24.5258715368
 21
8.0934298104
 31
0.0
  0
LINE
  5
208
330
1F
100
AcDbEntity
  8
0
  6
Continuous
 62
     7
370
    15
100
AcDbLine
 10
21.5711997761
 20
8.0934298104
 30
0.0
 11
21.5027315804
 21
8.0934298104
 31
0.0
  0
LINE
  5
209
330
1F
100
AcDbEntity
  8
0
  6
Continuous
 62
     7
370
    15
100
AcDbLine
 10
20.99174935
 20
8.0934298104
 30
0.0
 11
20.8825354249
 21
8.0934298104
 31
0.0
  0
LINE
  5
20A
330
1F
100
AcDbEntity
  8
0
  6
Continuous
 62
     7
370
    15
100
AcDbLine
 10
25.1053313495
 20
8.0934298104
 30
0.0
 11
25.0488604952
 21
8.0934298104
 31
0.0
  0
LINE
  5
20B
330
1F
100
AcDbEntity
  8
0
  6
Continuous
 62
     7
370
    15
100
AcDbLine
 10
21.0482202043
 20
8.0934298104
 30
0.0
 11
20.99174935
 21
8.0934298104
 31
0.0
  0
LINE
  5
20C
330
1F
100
AcDbEntity
  8
0
  6
Continuous
 62
     7
370
    15
100
AcDbLine
 10
25.2145452745
 20
8.0934298104
 30
0.0
 11
25.1053313495
 21
8.0934298104
 31
0.0
  0
LINE
  5
20D
330
1F
100
AcDbEntity
  8
0
  6
Continuous
 62
     7
370
    15
100
AcDbLine
 10
25.2145452745
 20
8.0934298104
 30
0.0
 11
25.6472679557
 21
8.0934298104
 31
0.0
  0
LINE
  5
20E
330
1F
100
AcDbEntity
  8
0
  6
Continuous
 62
     7
370
    15
100
AcDbLine
 10
20.4498127438
 20
8.0934298104
 30
0.0
 11
20.8825354249
 21
8.0934298104
 31
0.0
  0
LINE
  5
20F
330
1F
100
AcDbEntity
  8
0
  6
Continuous
 62
     7
370
    15
100
AcDbLine
 10
23.0485403497
 20
8.4009293515
 30
0.0
 11
26.0797902925
 21
8.4009293515
 31
0.0
  0
LINE
  5
210
330
1F
100
AcDbEntity
  8
0
  6
Continuous
 62
     7
370
    15
100
AcDbLine
 10
20.017290407
 20
8.4009293515
 30
0.0
 11
23.0485403497
 21
8.4009293515
 31
0.0
  0
LINE
  5
211
330
1F
100
AcDbEntity
  8
0
  6
Continuous
 62
     7
370
    15
100
AcDbLine
 10
23.0485403497
 20
8.7134295815
 30
0.0
 11
26.7360403648
 21
8.7134295815
 31
0.0
  0
LINE
  5
212
330
1F
100
AcDbEntity
  8
0
  6
Continuous
 62
     7
370
    15
100
AcDbLine
 10
19.3610403347
 20
8.7134295815
 30
0.0
 11
23.0485403497
 21
8.7134295815
 31
0.0
  0
LINE
  5
213
330
1F
100
AcDbEntity
  8
0
  6
Continuous
 62
     7
370
    15
100
AcDbLine
 10
23.0485403497
 20
8.5884293722
 30
0.0
 11
26.7360403648
 21
8.5884293722
 31
0.0
  0
LINE
  5
214
330
1F
100
AcDbEntity
  8
0
  6
Continuous
 62
     7
370
    15
100
AcDbLine
 10
19.3610403347
 20
8.5884293722
 30
0.0
 11
23.0485403497
 21
8.5884293722
 31
0.0
  0
LINE
  5
215
330
1F
100
AcDbEntity
  8
0
  6
Continuous
 62
     8
370
    15
100
AcDbLine
 10
25.8660674548
 20
8.9696837945
 30
0.0
 11
20.2310132447
 21
8.9696837945
 31
0.0
  0
LINE
  5
216
330
1F
100
AcDbEntity
  8
0
  6
Continuous
 62
     8
370
    15
100
AcDbLine
 10
23.0985403501
 20
7.7234292847
 30
0.0
 11
23.2185403426
 21
7.7234292847
 31
0.0
  0
LINE
  5
217
330
1F
100
AcDbEntity
  8
0
  6
Continuous
 62
     8
370
    15
100
AcDbLine
 10
21.0435260452
 20
8.0934298104
 30
0.0
 11
21.0435260452
 21
5.8047202765
 31
0.0
  0
LWPOLYLINE
  5
218
330
1F
100
AcDbEntity
  8
0
  6
Continuous
 62
     8
370
    15
100
AcDbPolyline
 90
        5
 70
   128
 43
0.0
 10
21.0068254825
 20
5.8062590854
 10
21.0068529088
 20
5.806257912
 10
21.0114565756
 20
5.8060649009
 10
21.0238110463
 20
5.8055468802
 10
21.0435260452
 20
5.8047202765
  0
LWPOLYLINE
  5
219
330
1F
100
AcDbEntity
  8
0
  6
Continuous
 62
     8
370
    15
100
AcDbPolyline
 90
        4
 70
   128
 43
0.0
 10
23.1261486149
 20
8.4009293515
 10
23.1262780559
 20
8.393444158
 10
23.1297357743
 20
8.193502841
 10
23.1314664393
 20
8.0934298104
  0
LWPOLYLINE
  5
21A
330
1F
100
AcDbEntity
  8
0
  6
Continuous
 62
     8
370
    15
100
AcDbPolyline
 90
        4
 70
   128
 43
0.0
 10
22.9656142602
 20
8.0934298104
 10
22.9664787127
 20
8.143414993
 10
22.9699364494
 20
8.3433563099
 10
22.9709320846
 20
8.4009293515
  0
LWPOLYLINE
  5
21B
330
1F
100
AcDbEntity
  8
0
  6
Continuous
 62
     8
370
    15
100
AcDbPolyline
 90
        3
 70
   128
 43
0.0
 10
21.6189546244
 20
8.4009293515
 10
21.6188015062
 20
8.3934770109
 10
21.612640844
 20
8.0934298104
  0
LWPOLYLINE
  5
21C
330
1F
100
AcDbEntity
  8
0
  6
Continuous
 62
     8
370
    15
100
AcDbPolyline
 90
        3
 70
   128
 43
0.0
 10
24.4844398554
 20
8.0934298104
 10
24.4803345562
 20
8.2933822739
 10
24.4781259284
 20
8.4009293515
  0
LINE
  5
21D
330
1F
100
AcDbEntity
  8
0
  6
Continuous
 62
     8
370
    15
100
AcDbLine
 10
23.0822716892
 20
8.0934298104
 30
0.0
 11
23.0769042577
 21
8.4009293515
 31
0.0
  0
LINE
  5
21E
330
1F
100
AcDbEntity
  8
0
  6
Continuous
 62
     8
370
    15
100
AcDbLine
 10
23.0201764418
 20
8.4009293515
 30
0.0
 11
23.0148090102
 21
8.0934298104
 31
0.0
  0
LINE
  5
21F
330
1F
100
AcDbEntity
  8
0
  6
Continuous
 62
     8
370
    15
100
AcDbLine
 10
24.601371438
 20
7.725362329
 30
0.0
 11
24.6689113911
 21
7.725362329
 31
0.0
  0
LINE
  5
220
330
1F
100
AcDbEntity
  8
0
  6
Continuous
 62
     8
370
    15
100
AcDbLine
 10
21.4281693084
 20
7.725362329
 30
0.0
 11
21.4957092615
 21
7.725362329
 31
0.0
  0
LWPOLYLINE
  5
221
330
1F
100
AcDbEntity
  8
0
  6
Continuous
 62
     8
370
    15
100
AcDbPolyline
 90
        3
 70
   128
 43
0.0
 10
20.8825354249
 20
8.0934298104
 10
20.8840029547
 20
8.2933822739
 10
20.8847939189
 20
8.4009293515
  0
LWPOLYLINE
  5
222
330
1F
100
AcDbEntity
  8
0
  6
Continuous
 62
     8
370
    15
100
AcDbPolyline
 90
        3
 70
   128
 43
0.0
 10
20.9940930562
 20
8.4009293515
 10
20.9936473414
 20
8.3425596258
 10
20.99174935
 20
8.0934298104
  0
LWPOLYLINE
  5
223
330
1F
100
AcDbEntity
  8
0
  6
Continuous
 62
     8
370
    15
100
AcDbPolyline
 90
        3
 70
   128
 43
0.0
 10
25.1053313495
 20
8.0934298104
 10
25.1034333581
 20
8.3425596258
 10
25.1029876433
 20
8.4009293515
  0
LWPOLYLINE
  5
224
330
1F
100
AcDbEntity
  8
0
  6
Continuous
 62
     8
370
    15
100
AcDbPolyline
 90
        3
 70
   128
 43
0.0
 10
25.2122873673
 20
8.4009293515
 10
25.21234222
 20
8.3934770109
 10
25.2145452745
 20
8.0934298104
  0
CIRCLE
  5
225
330
1F
100
AcDbEntity
  8
0
  6
Continuous
 62
     7
370
    15
100
AcDbCircle
 10
9.3663172755
 20
14.6507440856
 30
0.0
 40
0.5350000000000004
  0
LINE
  5
226
330
1F
100
AcDbEntity
  8
0
  6
Continuous
 62
     7
370
    15
100
AcDbLine
 10
9.8737348992
 20
14.7897228412
 30
0.0
 11
9.868941732
 21
14.8242286359
 31
0.0
  0
ARC
  5
227
330
1F
100
AcDbEntity
  8
0
  6
Continuous
 62
     7
370
    15
100
AcDbCircle
 10
9.399233027
 20
14.6323718554
 30
0.0
 40
0.4940855055456504
100
AcDbArc
 50
295.5120938024
 51
334.6049290004
  0
ARC
  5
228
330
1F
100
AcDbEntity
  8
0
  6
Continuous
 62
     7
370
    15
100
AcDbCircle
 10
9.3682323121
 20
14.6506548792
 30
0.0
 40
0.5299412913756562
100
AcDbArc
 50
334.2566284629
 51
19.1191635861
  0
ARC
  5
229
330
1F
100
AcDbEntity
  8
0
  6
Continuous
 62
     7
370
    15
100
AcDbCircle
 10
10.3637542854
 20
16.1475466244
 30
0.0
 40
0.7071450645633467
100
AcDbArc
 50
323.644173645
 51
347.6212078977
  0
ARC
  5
22A
330
1F
100
AcDbEntity
  8
0
  6
Continuous
 62
     7
370
    15
100
AcDbCircle
 10
10.2358709204
 20
16.1614303695
 30
0.0
 40
0.8351465850945371
100
AcDbArc
 50
307.3386920739
 51
348.5717054214
  0
CIRCLE
  5
22B
330
1F
100
AcDbEntity
  8
0
  6
Continuous
 62
     7
370
    15
100
AcDbCircle
 10
10.2378172755
 20
16.1602263644
 30
0.0
 40
0.854999999999999
  0
ARC
  5
22C
330
1F
100
AcDbEntity
  8
0
  6
Continuous
 62
     7
370
    15
100
AcDbCircle
 10
10.2529448454
 20
16.1309196794
 30
0.0
 40
0.8005480458359409
100
AcDbArc
 50
243.6622173765
 51
307.6915840394
  0
CIRCLE
  5
22D
330
1F
100
AcDbEntity
  8
0
  6
Continuous
 62
     7
370
    15
100
AcDbCircle
 10
9.9883172755
 20
15.7280796879
 30
0.0
 40
2.817527118876485
  0
CIRCLE
  5
22E
330
1F
100
AcDbEntity
  8
0
  6
Continuous
 62
     7
370
    15
100
AcDbCircle
 10
9.9883172755
 20
15.7280796879
 30
0.0
 40
2.435909128123394
  0
CIRCLE
  5
22F
330
1F
100
AcDbEntity
  8
0
  6
Continuous
 62
     7
370
    15
100
AcDbCircle
 10
11.0093172755
 20
13.9596558134
 30
0.0
 40
0.1406000000000006
  0
CIRCLE
  5
230
330
1F
100
AcDbEntity
  8
0
  6
Continuous
 62
     7
370
    15
100
AcDbCircle
 10
7.9773398439
 20
15.3734901091
 30
0.0
 40
0.1405999999999999
  0
CIRCLE
  5
231
330
1F
100
AcDbEntity
  8
0
  6
Continuous
 62
     7
370
    15
100
AcDbCircle
 10
11.0090455212
 20
17.4960328702
 30
0.0
 40
0.1406000000000006
  0
CIRCLE
  5
232
330
1F
100
AcDbEntity
  8
0
  6
Continuous
 62
     7
370
    15
100
AcDbCircle
 10
9.9883172755
 20
15.7280796879
 30
0.0
 40
3.74877398515808
  0
CIRCLE
  5
233
330
1F
100
AcDbEntity
  8
0
  6
Continuous
 62
     7
370
    15
100
AcDbCircle
 10
9.9883172755
 20
15.7280796879
 30
0.0
 40
3.750000000000001
  0
LINE
  5
234
330
1F
100
AcDbEntity
  8
0
  6
Continuous
 62
     7
370
    15
100
AcDbLine
 10
10.7334813006
 20
15.8197837035
 30
0.0
 11
9.6951532822
 21
16.4192626433
 31
0.0
  0
LINE
  5
235
330
1F
100
AcDbEntity
  8
0
  6
Continuous
 62
     7
370
    15
100
AcDbLine
 10
10.7804812644
 20
15.9011900965
 30
0.0
 11
10.7334813006
 21
15.8197837035
 31
0.0
  0
LINE
  5
236
330
1F
100
AcDbEntity
  8
0
  6
Continuous
 62
     7
370
    15
100
AcDbLine
 10
10.7804812644
 20
15.9011900965
 30
0.0
 11
9.7421532826
 21
16.5006690362
 31
0.0
  0
LINE
  5
237
330
1F
100
AcDbEntity
  8
0
  6
Continuous
 62
     7
370
    15
100
AcDbLine
 10
9.7421532826
 20
16.5006690362
 30
0.0
 11
9.6951532822
 21
16.4192626433
 31
0.0
  0
CIRCLE
  5
238
330
1F
100
AcDbEntity
  8
0
  6
Continuous
 62
     7
370
    15
100
AcDbCircle
 10
10.2378172755
 20
16.1602263644
 30
0.0
 40
0.8217999999999996
  0
LINE
  5
239
330
1F
100
AcDbEntity
  8
0
  6
Continuous
 62
     7
370
    15
100
AcDbLine
 10
9.6945984486
 20
14.4069399498
 30
0.0
 11
8.9910360895
 21
14.813141864
 31
0.0
  0
LINE
  5
23A
330
1F
100
AcDbEntity
  8
0
  6
Continuous
 62
     7
370
    15
100
AcDbLine
 10
9.6945984486
 20
14.4069399498
 30
0.0
 11
9.741598449
 21
14.4883463427
 31
0.0
  0
LINE
  5
23B
330
1F
100
AcDbEntity
  8
0
  6
Continuous
 62
     7
370
    15
100
AcDbLine
 10
9.741598449
 20
14.4883463427
 30
0.0
 11
9.0380361266
 21
14.8945482569
 31
0.0
  0
LINE
  5
23C
330
1F
100
AcDbEntity
  8
0
  6
Continuous
 62
     7
370
    15
100
AcDbLine
 10
8.9910360895
 20
14.813141864
 30
0.0
 11
9.0380361266
 21
14.8945482569
 31
0.0
  0
CIRCLE
  5
23D
330
1F
100
AcDbEntity
  8
0
  6
Continuous
 62
     7
370
    15
100
AcDbCircle
 10
9.3663172755
 20
14.6507440856
 30
0.0
 40
0.5309999999999999
  0
LINE
  5
23E
330
1F
100
AcDbEntity
  8
0
  6
Continuous
 62
     7
370
    15
100
AcDbLine
 10
11.0662235701
 20
17.4986635273
 30
0.0
 11
11.0581344836
 21
17.525469631
 31
0.0
  0
LINE
  5
23F
330
1F
100
AcDbEntity
  8
0
  6
Continuous
 62
     7
370
    15
100
AcDbLine
 10
11.099216149
 20
17.508619439
 30
0.0
 11
11.0911270624
 21
17.5354255426
 31
0.0
  0
LINE
  5
240
330
1F
100
AcDbEntity
  8
0
  6
Continuous
 62
     7
370
    15
100
AcDbLine
 10
10.9970569558
 20
17.5842217123
 30
0.0
 11
10.9964589294
 21
17.5862034494
 31
0.0
  0
LINE
  5
241
330
1F
100
AcDbEntity
  8
0
  6
Continuous
 62
     7
370
    15
100
AcDbLine
 10
11.006414841
 20
17.5532108705
 30
0.0
 11
10.9796088107
 21
17.5451218573
 31
0.0
  0
LINE
  5
242
330
1F
100
AcDbEntity
  8
0
  6
Continuous
 62
     7
370
    15
100
AcDbLine
 10
10.9964589294
 20
17.5862034494
 30
0.0
 11
10.9696528257
 21
17.5781144361
 31
0.0
  0
LINE
  5
243
330
1F
100
AcDbEntity
  8
0
  6
Continuous
 62
     7
370
    15
100
AcDbLine
 10
10.9518674978
 20
17.4934022147
 30
0.0
 11
10.9599565111
 21
17.4665961111
 31
0.0
  0
LINE
  5
244
330
1F
100
AcDbEntity
  8
0
  6
Continuous
 62
     7
370
    15
100
AcDbLine
 10
10.918874919
 20
17.4834463031
 30
0.0
 11
10.9269639322
 21
17.4566401994
 31
0.0
  0
CIRCLE
  5
245
330
1F
100
AcDbEntity
  8
0
  6
Continuous
 62
     7
370
    15
100
AcDbCircle
 10
11.0090455212
 20
17.4960328702
 30
0.0
 40
0.1350000000000005
  0
LINE
  5
246
330
1F
100
AcDbEntity
  8
0
  6
Continuous
 62
     7
370
    15
100
AcDbLine
 10
11.099216149
 20
17.508619439
 30
0.0
 11
11.0972344119
 21
17.5080213392
 31
0.0
  0
LINE
  5
247
330
1F
100
AcDbEntity
  8
0
  6
Continuous
 62
     7
370
    15
100
AcDbLine
 10
11.0911270624
 20
17.5354255426
 30
0.0
 11
11.0891453253
 21
17.5348274429
 31
0.0
  0
ARC
  5
248
330
1F
100
AcDbEntity
  8
0
  6
Continuous
 62
     7
370
    15
100
AcDbCircle
 10
11.0090455212
 20
17.4960328702
 30
0.0
 40
0.0889999999999987
100
AcDbArc
 50
25.842245478
 51
97.7414280332
  0
LINE
  5
249
330
1F
100
AcDbEntity
  8
0
  6
Continuous
 62
     7
370
    15
100
AcDbLine
 10
10.9696528257
 20
17.5781144361
 30
0.0
 11
10.9702508521
 21
17.576132699
 31
0.0
  0
ARC
  5
24A
330
1F
100
AcDbEntity
  8
0
  6
Continuous
 62
     7
370
    15
100
AcDbCircle
 10
11.0090455212
 20
17.4960328702
 30
0.0
 40
0.089
100
AcDbArc
 50
115.842245478
 51
187.7414280332
  0
LINE
  5
24B
330
1F
100
AcDbEntity
  8
0
  6
Continuous
 62
     7
370
    15
100
AcDbLine
 10
10.9208566561
 20
17.4840444029
 30
0.0
 11
10.918874919
 21
17.4834463031
 31
0.0
  0
LINE
  5
24C
330
1F
100
AcDbEntity
  8
0
  6
Continuous
 62
     7
370
    15
100
AcDbLine
 10
10.9289457426
 20
17.4572382992
 30
0.0
 11
10.9269639322
 21
17.4566401994
 31
0.0
  0
ARC
  5
24D
330
1F
100
AcDbEntity
  8
0
  6
Continuous
 62
     7
370
    15
100
AcDbCircle
 10
11.0090455212
 20
17.4960328702
 30
0.0
 40
0.0890000000000019
100
AcDbArc
 50
205.842245478
 51
277.7414280332
  0
LINE
  5
24E
330
1F
100
AcDbEntity
  8
0
  6
Continuous
 62
     7
370
    15
100
AcDbLine
 10
11.0210340388
 20
17.4078440298
 30
0.0
 11
11.0216320652
 21
17.4058622927
 31
0.0
  0
LINE
  5
24F
330
1F
100
AcDbEntity
  8
0
  6
Continuous
 62
     7
370
    15
100
AcDbLine
 10
11.0216320652
 20
17.4058622927
 30
0.0
 11
11.0484381689
 21
17.4139513059
 31
0.0
  0
LINE
  5
250
330
1F
100
AcDbEntity
  8
0
  6
Continuous
 62
     7
370
    15
100
AcDbLine
 10
11.0478401425
 20
17.415933043
 30
0.0
 11
11.0484381689
 21
17.4139513059
 31
0.0
  0
ARC
  5
251
330
1F
100
AcDbEntity
  8
0
  6
Continuous
 62
     7
370
    15
100
AcDbCircle
 10
11.0090455212
 20
17.4960328702
 30
0.0
 40
0.0890000000000011
100
AcDbArc
 50
295.842245478
 51
7.7414280332
  0
LINE
  5
252
330
1F
100
AcDbEntity
  8
0
  6
Continuous
 62
     7
370
    15
100
AcDbLine
 10
11.0116761536
 20
17.4388548716
 30
0.0
 11
11.0384822572
 21
17.4469438848
 31
0.0
  0
ARC
  5
253
330
1F
100
AcDbEntity
  8
0
  6
Continuous
 62
     7
370
    15
100
AcDbCircle
 10
10.9398783095
 20
17.5331326926
 30
0.0
 40
0.0415000000000016
100
AcDbArc
 50
286.7918367556
 51
16.7918367556
  0
LINE
  5
254
330
1F
100
AcDbEntity
  8
0
  6
Continuous
 62
     7
370
    15
100
AcDbLine
 10
10.9518674978
 20
17.4934022147
 30
0.0
 11
10.9208566561
 21
17.4840444029
 31
0.0
  0
LINE
  5
255
330
1F
100
AcDbEntity
  8
0
  6
Continuous
 62
     7
370
    15
100
AcDbLine
 10
10.9702508521
 20
17.576132699
 30
0.0
 11
10.9796088107
 21
17.5451218573
 31
0.0
  0
ARC
  5
256
330
1F
100
AcDbEntity
  8
0
  6
Continuous
 62
     7
370
    15
100
AcDbCircle
 10
10.9719456988
 20
17.4268656585
 30
0.0
 40
0.0414999999999987
100
AcDbArc
 50
16.7918367556
 51
106.7918367556
  0
LINE
  5
257
330
1F
100
AcDbEntity
  8
0
  6
Continuous
 62
     7
370
    15
100
AcDbLine
 10
11.0116761536
 20
17.4388548716
 30
0.0
 11
11.0210340388
 21
17.4078440298
 31
0.0
  0
LINE
  5
258
330
1F
100
AcDbEntity
  8
0
  6
Continuous
 62
     7
370
    15
100
AcDbLine
 10
10.9599565111
 20
17.4665961111
 30
0.0
 11
10.9289457426
 21
17.4572382992
 31
0.0
  0
ARC
  5
259
330
1F
100
AcDbEntity
  8
0
  6
Continuous
 62
     7
370
    15
100
AcDbCircle
 10
11.0461453436
 20
17.5652000819
 30
0.0
 40
0.0414999999999994
100
AcDbArc
 50
196.7918367556
 51
286.7918367556
  0
LINE
  5
25A
330
1F
100
AcDbEntity
  8
0
  6
Continuous
 62
     7
370
    15
100
AcDbLine
 10
11.0891453253
 20
17.5348274429
 30
0.0
 11
11.0581344836
 21
17.525469631
 31
0.0
  0
LINE
  5
25B
330
1F
100
AcDbEntity
  8
0
  6
Continuous
 62
     7
370
    15
100
AcDbLine
 10
10.9970569558
 20
17.5842217123
 30
0.0
 11
11.006414841
 21
17.5532108705
 31
0.0
  0
ARC
  5
25C
330
1F
100
AcDbEntity
  8
0
  6
Continuous
 62
     7
370
    15
100
AcDbCircle
 10
11.078212733
 20
17.4589330478
 30
0.0
 40
0.0414999999999987
100
AcDbArc
 50
106.7918367556
 51
196.7918367556
  0
LINE
  5
25D
330
1F
100
AcDbEntity
  8
0
  6
Continuous
 62
     7
370
    15
100
AcDbLine
 10
11.0384822572
 20
17.4469438848
 30
0.0
 11
11.0478401425
 21
17.415933043
 31
0.0
  0
LINE
  5
25E
330
1F
100
AcDbEntity
  8
0
  6
Continuous
 62
     7
370
    15
100
AcDbLine
 10
11.0972344119
 20
17.5080213392
 30
0.0
 11
11.0662235701
 21
17.4986635273
 31
0.0
  0
LINE
  5
25F
330
1F
100
AcDbEntity
  8
0
  6
Continuous
 62
     7
370
    15
100
AcDbLine
 10
8.0269993062
 20
15.3450263463
 30
0.0
 11
8.0345585655
 21
15.3719866315
 31
0.0
  0
LINE
  5
260
330
1F
100
AcDbEntity
  8
0
  6
Continuous
 62
     7
370
    15
100
AcDbLine
 10
8.0601816695
 20
15.3357224705
 30
0.0
 11
8.0677409288
 21
15.3626827557
 31
0.0
  0
LINE
  5
261
330
1F
100
AcDbEntity
  8
0
  6
Continuous
 62
     7
370
    15
100
AcDbLine
 10
8.0145486233
 20
15.4543387752
 30
0.0
 11
8.0151074169
 21
15.4563319522
 31
0.0
  0
LINE
  5
262
330
1F
100
AcDbEntity
  8
0
  6
Continuous
 62
     7
370
    15
100
AcDbLine
 10
8.0058035777
 20
15.4231495888
 30
0.0
 11
7.9788433291
 21
15.4307089032
 31
0.0
  0
LINE
  5
263
330
1F
100
AcDbEntity
  8
0
  6
Continuous
 62
     7
370
    15
100
AcDbLine
 10
8.0151074169
 20
15.4563319522
 30
0.0
 11
7.9881471683
 21
15.4638912482
 31
0.0
  0
LINE
  5
264
330
1F
100
AcDbEntity
  8
0
  6
Continuous
 62
     7
370
    15
100
AcDbLine
 10
7.9395721695
 20
15.2906482545
 30
0.0
 11
7.9401311097
 21
15.2926414315
 31
0.0
  0
LINE
  5
265
330
1F
100
AcDbEntity
  8
0
  6
Continuous
 62
     7
370
    15
100
AcDbLine
 10
7.9488761553
 20
15.3238306178
 30
0.0
 11
7.9758364039
 21
15.3162713218
 31
0.0
  0
LINE
  5
266
330
1F
100
AcDbEntity
  8
0
  6
Continuous
 62
     7
370
    15
100
AcDbLine
 10
7.9395721695
 20
15.2906482545
 30
0.0
 11
7.966532418
 21
15.2830889585
 31
0.0
  0
CIRCLE
  5
267
330
1F
100
AcDbEntity
  8
0
  6
Continuous
 62
     7
370
    15
100
AcDbCircle
 10
7.9773398439
 20
15.3734901091
 30
0.0
 40
0.1350000000000015
  0
LINE
  5
268
330
1F
100
AcDbEntity
  8
0
  6
Continuous
 62
     7
370
    15
100
AcDbLine
 10
8.0601816695
 20
15.3357224705
 30
0.0
 11
8.0581884925
 21
15.3362813373
 31
0.0
  0
LINE
  5
269
330
1F
100
AcDbEntity
  8
0
  6
Continuous
 62
     7
370
    15
100
AcDbLine
 10
8.0677409288
 20
15.3626827557
 30
0.0
 11
8.0657477519
 21
15.3632416225
 31
0.0
  0
ARC
  5
26A
330
1F
100
AcDbEntity
  8
0
  6
Continuous
 62
     7
370
    15
100
AcDbCircle
 10
7.9773398439
 20
15.3734901091
 30
0.0
 40
0.0889999999999996
100
AcDbArc
 50
353.3876286429
 51
65.2868111981
  0
LINE
  5
26B
330
1F
100
AcDbEntity
  8
0
  6
Continuous
 62
     7
370
    15
100
AcDbLine
 10
7.9881471683
 20
15.4638912482
 30
0.0
 11
7.9875883748
 21
15.4618980712
 31
0.0
  0
ARC
  5
26C
330
1F
100
AcDbEntity
  8
0
  6
Continuous
 62
     7
370
    15
100
AcDbCircle
 10
7.9773398439
 20
15.3734901091
 30
0.0
 40
0.0889999999999994
100
AcDbArc
 50
83.3876286429
 51
155.2868111981
  0
LINE
  5
26D
330
1F
100
AcDbEntity
  8
0
  6
Continuous
 62
     7
370
    15
100
AcDbLine
 10
7.8964912405
 20
15.4106988876
 30
0.0
 11
7.8944980635
 21
15.4112577545
 31
0.0
  0
LINE
  5
26E
330
1F
100
AcDbEntity
  8
0
  6
Continuous
 62
     7
370
    15
100
AcDbLine
 10
7.8944980635
 20
15.4112577545
 30
0.0
 11
7.8869386575
 21
15.3842974693
 31
0.0
  0
LINE
  5
26F
330
1F
100
AcDbEntity
  8
0
  6
Continuous
 62
     7
370
    15
100
AcDbLine
 10
7.8889318345
 20
15.3837386024
 30
0.0
 11
7.8869386575
 21
15.3842974693
 31
0.0
  0
ARC
  5
270
330
1F
100
AcDbEntity
  8
0
  6
Continuous
 62
     7
370
    15
100
AcDbCircle
 10
7.9773398439
 20
15.3734901091
 30
0.0
 40
0.0890000000000002
100
AcDbArc
 50
173.3876286429
 51
245.2868111981
  0
LINE
  5
271
330
1F
100
AcDbEntity
  8
0
  6
Continuous
 62
     7
370
    15
100
AcDbLine
 10
7.9670913582
 20
15.2850821355
 30
0.0
 11
7.966532418
 21
15.2830889585
 31
0.0
  0
ARC
  5
272
330
1F
100
AcDbEntity
  8
0
  6
Continuous
 62
     7
370
    15
100
AcDbCircle
 10
7.9773398439
 20
15.3734901091
 30
0.0
 40
0.0890000000000018
100
AcDbArc
 50
263.3876286429
 51
335.2868111981
  0
LINE
  5
273
330
1F
100
AcDbEntity
  8
0
  6
Continuous
 62
     7
370
    15
100
AcDbLine
 10
7.9276804268
 20
15.4019538787
 30
0.0
 11
7.9201210208
 21
15.3749935935
 31
0.0
  0
ARC
  5
274
330
1F
100
AcDbEntity
  8
0
  6
Continuous
 62
     7
370
    15
100
AcDbCircle
 10
7.9089170938
 20
15.3350345857
 30
0.0
 40
0.0414999999999995
100
AcDbArc
 50
344.3372199205
 51
74.3372199205
  0
LINE
  5
275
330
1F
100
AcDbEntity
  8
0
  6
Continuous
 62
     7
370
    15
100
AcDbLine
 10
7.9201210208
 20
15.3749935935
 30
0.0
 11
7.8889318345
 21
15.3837386024
 31
0.0
  0
LINE
  5
276
330
1F
100
AcDbEntity
  8
0
  6
Continuous
 62
     7
370
    15
100
AcDbLine
 10
7.9488761553
 20
15.3238306178
 30
0.0
 11
7.9401311097
 21
15.2926414315
 31
0.0
  0
ARC
  5
277
330
1F
100
AcDbEntity
  8
0
  6
Continuous
 62
     7
370
    15
100
AcDbCircle
 10
8.0157953673
 20
15.3050673591
 30
0.0
 40
0.0415000000000003
100
AcDbArc
 50
74.3372199205
 51
164.3372199205
  0
LINE
  5
278
330
1F
100
AcDbEntity
  8
0
  6
Continuous
 62
     7
370
    15
100
AcDbLine
 10
7.9758364039
 20
15.3162713218
 30
0.0
 11
7.9670913582
 21
15.2850821355
 31
0.0
  0
LINE
  5
279
330
1F
100
AcDbEntity
  8
0
  6
Continuous
 62
     7
370
    15
100
AcDbLine
 10
8.0581884925
 20
15.3362813373
 30
0.0
 11
8.0269993062
 21
15.3450263463
 31
0.0
  0
ARC
  5
27A
330
1F
100
AcDbEntity
  8
0
  6
Continuous
 62
     7
370
    15
100
AcDbCircle
 10
7.9388843205
 20
15.4419128591
 30
0.0
 40
0.0414999999999999
100
AcDbArc
 50
254.3372199205
 51
344.3372199205
  0
LINE
  5
27B
330
1F
100
AcDbEntity
  8
0
  6
Continuous
 62
     7
370
    15
100
AcDbLine
 10
7.9276804268
 20
15.4019538787
 30
0.0
 11
7.8964912405
 21
15.4106988876
 31
0.0
  0
LINE
  5
27C
330
1F
100
AcDbEntity
  8
0
  6
Continuous
 62
     7
370
    15
100
AcDbLine
 10
7.9875883748
 20
15.4618980712
 30
0.0
 11
7.9788433291
 21
15.4307089032
 31
0.0
  0
ARC
  5
27D
330
1F
100
AcDbEntity
  8
0
  6
Continuous
 62
     7
370
    15
100
AcDbCircle
 10
8.0457625939
 20
15.4119456325
 30
0.0
 40
0.0414999999999999
100
AcDbArc
 50
164.3372199205
 51
254.3372199205
  0
LINE
  5
27E
330
1F
100
AcDbEntity
  8
0
  6
Continuous
 62
     7
370
    15
100
AcDbLine
 10
8.0657477519
 20
15.3632416225
 30
0.0
 11
8.0345585655
 21
15.3719866315
 31
0.0
  0
LINE
  5
27F
330
1F
100
AcDbEntity
  8
0
  6
Continuous
 62
     7
370
    15
100
AcDbLine
 10
8.0145486233
 20
15.4543387752
 30
0.0
 11
8.0058035777
 21
15.4231495888
 31
0.0
  0
LINE
  5
280
330
1F
100
AcDbEntity
  8
0
  6
Continuous
 62
     7
370
    15
100
AcDbLine
 10
11.0477421703
 20
14.0020795068
 30
0.0
 11
11.0230221558
 21
14.0152294882
 31
0.0
  0
LINE
  5
281
330
1F
100
AcDbEntity
  8
0
  6
Continuous
 62
     7
370
    15
100
AcDbLine
 10
11.06392687
 20
14.0325047153
 30
0.0
 11
11.0392067822
 21
14.0456545501
 31
0.0
  0
LINE
  5
282
330
1F
100
AcDbEntity
  8
0
  6
Continuous
 62
     7
370
    15
100
AcDbLine
 10
10.9364684091
 20
14.0142654594
 30
0.0
 11
10.9382959279
 21
14.0132932173
 31
0.0
  0
LINE
  5
283
330
1F
100
AcDbEntity
  8
0
  6
Continuous
 62
     7
370
    15
100
AcDbLine
 10
10.9668935442
 20
13.9980806863
 30
0.0
 11
10.9537436362
 21
13.9733607452
 31
0.0
  0
LINE
  5
284
330
1F
100
AcDbEntity
  8
0
  6
Continuous
 62
     7
370
    15
100
AcDbLine
 10
10.9364684091
 20
14.0142654594
 30
0.0
 11
10.9233185743
 21
13.9895453716
 31
0.0
  0
CIRCLE
  5
285
330
1F
100
AcDbEntity
  8
0
  6
Continuous
 62
     7
370
    15
100
AcDbCircle
 10
11.0093172755
 20
13.9596558134
 30
0.0
 40
0.1349999999999994
  0
LINE
  5
286
330
1F
100
AcDbEntity
  8
0
  6
Continuous
 62
     7
370
    15
100
AcDbLine
 10
10.954707665
 20
13.8868069984
 30
0.0
 11
10.9556798338
 21
13.888634444
 31
0.0
  0
LINE
  5
287
330
1F
100
AcDbEntity
  8
0
  6
Continuous
 62
     7
370
    15
100
AcDbLine
 10
10.954707665
 20
13.8868069984
 30
0.0
 11
10.9794277528
 21
13.873657017
 31
0.0
  0
LINE
  5
288
330
1F
100
AcDbEntity
  8
0
  6
Continuous
 62
     7
370
    15
100
AcDbLine
 10
10.9794277528
 20
13.873657017
 30
0.0
 11
10.9803999216
 21
13.8754846092
 31
0.0
  0
ARC
  5
289
330
1F
100
AcDbEntity
  8
0
  6
Continuous
 62
     7
370
    15
100
AcDbCircle
 10
11.0093172755
 20
13.9596558134
 30
0.0
 40
0.089000000000002
100
AcDbArc
 50
251.0396247589
 51
322.9388073141
  0
LINE
  5
28A
330
1F
100
AcDbEntity
  8
0
  6
Continuous
 62
     7
370
    15
100
AcDbLine
 10
11.0821661259
 20
13.9050462544
 30
0.0
 11
11.0803386071
 21
13.9060183498
 31
0.0
  0
LINE
  5
28B
330
1F
100
AcDbEntity
  8
0
  6
Continuous
 62
     7
370
    15
100
AcDbLine
 10
11.0821661259
 20
13.9050462544
 30
0.0
 11
11.095316034
 21
13.9297663422
 31
0.0
  0
LINE
  5
28C
330
1F
100
AcDbEntity
  8
0
  6
Continuous
 62
     7
370
    15
100
AcDbLine
 10
11.095316034
 20
13.9297663422
 30
0.0
 11
11.0934884418
 21
13.9307384376
 31
0.0
  0
ARC
  5
28D
330
1F
100
AcDbEntity
  8
0
  6
Continuous
 62
     7
370
    15
100
AcDbCircle
 10
11.0093172755
 20
13.9596558134
 30
0.0
 40
0.0890000000000003
100
AcDbArc
 50
341.0396247589
 51
52.9388073141
  0
LINE
  5
28E
330
1F
100
AcDbEntity
  8
0
  6
Continuous
 62
     7
370
    15
100
AcDbLine
 10
11.0629547012
 20
14.0306771231
 30
0.0
 11
11.06392687
 21
14.0325047153
 31
0.0
  0
LINE
  5
28F
330
1F
100
AcDbEntity
  8
0
  6
Continuous
 62
     7
370
    15
100
AcDbLine
 10
11.0382346134
 20
14.0438269579
 30
0.0
 11
11.0392067822
 21
14.0456545501
 31
0.0
  0
ARC
  5
290
330
1F
100
AcDbEntity
  8
0
  6
Continuous
 62
     7
370
    15
100
AcDbCircle
 10
11.0093172755
 20
13.9596558134
 30
0.0
 40
0.0890000000000014
100
AcDbArc
 50
71.0396247589
 51
142.9388073141
  0
LINE
  5
291
330
1F
100
AcDbEntity
  8
0
  6
Continuous
 62
     7
370
    15
100
AcDbLine
 10
10.9251460932
 20
13.9885731295
 30
0.0
 11
10.9233185743
 21
13.9895453716
 31
0.0
  0
ARC
  5
292
330
1F
100
AcDbEntity
  8
0
  6
Continuous
 62
     7
370
    15
100
AcDbCircle
 10
11.0093172755
 20
13.9596558134
 30
0.0
 40
0.0890000000000024
100
AcDbArc
 50
161.0396247589
 51
232.9388073141
  0
LINE
  5
293
330
1F
100
AcDbEntity
  8
0
  6
Continuous
 62
     7
370
    15
100
AcDbLine
 10
11.0517410641
 20
13.9212308808
 30
0.0
 11
11.0648908988
 21
13.9459509685
 31
0.0
  0
LINE
  5
294
330
1F
100
AcDbEntity
  8
0
  6
Continuous
 62
     7
370
    15
100
AcDbLine
 10
10.9708923647
 20
13.9172320603
 30
0.0
 11
10.9956123792
 21
13.9040822255
 31
0.0
  0
ARC
  5
295
330
1F
100
AcDbEntity
  8
0
  6
Continuous
 62
     7
370
    15
100
AcDbCircle
 10
10.9863834836
 20
14.0347193943
 30
0.0
 40
0.0414999999999989
100
AcDbArc
 50
241.9892160365
 51
331.9892160365
  0
LINE
  5
296
330
1F
100
AcDbEntity
  8
0
  6
Continuous
 62
     7
370
    15
100
AcDbLine
 10
10.9668935442
 20
13.9980806863
 30
0.0
 11
10.9382959279
 21
14.0132932173
 31
0.0
  0
LINE
  5
297
330
1F
100
AcDbEntity
  8
0
  6
Continuous
 62
     7
370
    15
100
AcDbLine
 10
11.0230221558
 20
14.0152294882
 30
0.0
 11
11.0382346134
 21
14.0438269579
 31
0.0
  0
ARC
  5
298
330
1F
100
AcDbEntity
  8
0
  6
Continuous
 62
     7
370
    15
100
AcDbCircle
 10
11.0843808565
 20
13.9825896053
 30
0.0
 40
0.0415000000000004
100
AcDbArc
 50
151.9892160365
 51
241.9892160365
  0
LINE
  5
299
330
1F
100
AcDbEntity
  8
0
  6
Continuous
 62
     7
370
    15
100
AcDbLine
 10
11.0477421703
 20
14.0020795068
 30
0.0
 11
11.0629547012
 21
14.0306771231
 31
0.0
  0
LINE
  5
29A
330
1F
100
AcDbEntity
  8
0
  6
Continuous
 62
     7
370
    15
100
AcDbLine
 10
11.0934884418
 20
13.9307384376
 30
0.0
 11
11.0648908988
 21
13.9459509685
 31
0.0
  0
ARC
  5
29B
330
1F
100
AcDbEntity
  8
0
  6
Continuous
 62
     7
370
    15
100
AcDbCircle
 10
10.9342536945
 20
13.9367220214
 30
0.0
 40
0.0415000000000005
100
AcDbArc
 50
331.9892160365
 51
61.9892160365
  0
LINE
  5
29C
330
1F
100
AcDbEntity
  8
0
  6
Continuous
 62
     7
370
    15
100
AcDbLine
 10
10.9537436362
 20
13.9733607452
 30
0.0
 11
10.9251460932
 21
13.9885731295
 31
0.0
  0
LINE
  5
29D
330
1F
100
AcDbEntity
  8
0
  6
Continuous
 62
     7
370
    15
100
AcDbLine
 10
10.9556798338
 20
13.888634444
 30
0.0
 11
10.9708923647
 21
13.9172320603
 31
0.0
  0
ARC
  5
29E
330
1F
100
AcDbEntity
  8
0
  6
Continuous
 62
     7
370
    15
100
AcDbCircle
 10
11.0322510674
 20
13.8845922324
 30
0.0
 40
0.0414999999999997
100
AcDbArc
 50
61.9892160365
 51
151.9892160365
  0
LINE
  5
29F
330
1F
100
AcDbEntity
  8
0
  6
Continuous
 62
     7
370
    15
100
AcDbLine
 10
10.9803999216
 20
13.8754846092
 30
0.0
 11
10.9956123792
 21
13.9040822255
 31
0.0
  0
LINE
  5
2A0
330
1F
100
AcDbEntity
  8
0
  6
Continuous
 62
     7
370
    15
100
AcDbLine
 10
11.0803386071
 20
13.9060183498
 30
0.0
 11
11.0517410641
 21
13.9212308808
 31
0.0
  0
DIMENSION
  5
2A1
330
1F
100
AcDbEntity
  8
DEFAULT
 62
     7
100
AcDbDimension
280
     0
  2
_D_1
 10
13.7370912607
 20
10.7100423283
 30
0.0
 11
9.9883172755
 21
10.7100423283
 31
0.0
 70
   160
  1
%%c<>
 71
     2
 42
-1.0
 73
     0
 74
     0
 75
     0
  3
SLDDIMSTYLE0
100
AcDbAlignedDimension
 13
6.2395432904
 23
15.7280796879
 33
0.0
 14
13.7370912607
 24
15.7280796879
 34
0.0
100
AcDbRotatedDimension
  0
LINE
  5
2B8
330
1F
100
AcDbEntity
  8
0
  6
Continuous
 62
     7
370
    15
100
AcDbLine
 10
25.1265462676
 20
17.5881419001
 30
0.0
 11
25.1253204415
 21
17.6454858334
 31
0.0
  0
LINE
  5
2B9
330
1F
100
AcDbEntity
  8
0
  6
Continuous
 62
     7
370
    15
100
AcDbLine
 10
17.628343151
 20
17.6454858334
 30
0.0
 11
17.6271173248
 21
17.5881419001
 31
0.0
  0
LINE
  5
2BA
330
1F
100
AcDbEntity
  8
0
  6
Continuous
 62
     7
370
    15
100
AcDbLine
 10
21.0370287933
 20
17.8711476641
 30
0.0
 11
21.0370287933
 21
17.8466514179
 31
0.0
  0
LINE
  5
2BB
330
1F
100
AcDbEntity
  8
0
  6
Continuous
 62
     7
370
    15
100
AcDbLine
 10
22.6806287913
 20
17.8466514478
 30
0.0
 11
22.6806287913
 21
17.871147694
 31
0.0
  0
LINE
  5
2BC
330
1F
100
AcDbEntity
  8
0
  6
Continuous
 62
     7
370
    15
100
AcDbLine
 10
21.2776340184
 20
17.5112438534
 30
0.0
 11
21.3086666968
 21
17.4933231569
 31
0.0
  0
LINE
  5
2BD
330
1F
100
AcDbEntity
  8
0
  6
Continuous
 62
     7
370
    15
100
AcDbLine
 10
22.4089908489
 20
17.4933231643
 30
0.0
 11
22.4400235662
 21
17.5112438534
 31
0.0
  0
LINE
  5
2BE
330
1F
100
AcDbEntity
  8
0
  6
Continuous
 62
     7
370
    15
100
AcDbLine
 10
19.799685369
 20
17.3939996072
 30
0.0
 11
19.8438867208
 21
17.3684740569
 31
0.0
  0
LINE
  5
2BF
330
1F
100
AcDbEntity
  8
0
  6
Continuous
 62
     7
370
    15
100
AcDbLine
 10
20.5065533998
 20
17.3684740607
 30
0.0
 11
20.550754784
 21
17.3939995922
 31
0.0
  0
LWPOLYLINE
  5
2C0
330
1F
100
AcDbEntity
  8
0
  6
Continuous
 62
     7
370
    15
100
AcDbPolyline
 90
       11
 70
   128
 43
0.0
 10
23.4789912691
 20
18.0746872352
 10
23.4786655748
 20
18.0766871471
 10
23.4637997881
 20
18.1016307803
 10
23.4409784726
 20
18.1216211022
 10
23.4096483473
 20
18.1368492698
 10
23.3711414869
 20
18.1454656242
 10
23.3302853856
 20
18.1458762179
 10
23.2904642881
 20
18.1377457493
 10
23.2546161326
 20
18.1203706516
 10
23.2308899667
 20
18.0982036514
 10
23.2185706731
 20
18.0746304401
  0
LINE
  5
2C1
330
1F
100
AcDbEntity
  8
0
  6
Continuous
 62
     7
370
    15
100
AcDbLine
 10
23.315085245
 20
18.0383599177
 30
0.0
 11
23.315085245
 21
18.0738226376
 31
0.0
  0
LINE
  5
2C2
330
1F
100
AcDbEntity
  8
0
  6
Continuous
 62
     7
370
    15
100
AcDbLine
 10
23.3823694633
 20
18.1000027064
 30
0.0
 11
23.3823694633
 21
18.0666400617
 31
0.0
  0
LWPOLYLINE
  5
2C3
330
1F
100
AcDbEntity
  8
0
  6
Continuous
 62
     7
370
    15
100
AcDbPolyline
 90
       11
 70
   128
 43
0.0
 10
19.8336836626
 20
18.4449365897
 10
19.830899536
 20
18.4550481976
 10
19.8138867387
 20
18.4785316815
 10
19.78885471
 20
18.4973281701
 10
19.755298095
 20
18.5110192327
 10
19.7157477267
 20
18.5175164479
 10
19.6748823566
 20
18.5156889898
 10
19.6358592258
 20
18.5052197304
 10
19.6015437419
 20
18.4850960357
 10
19.5809469327
 20
18.4615636656
 10
19.5745545916
 20
18.4450149007
  0
LINE
  5
2C4
330
1F
100
AcDbEntity
  8
0
  6
Continuous
 62
     7
370
    15
100
AcDbLine
 10
19.7381977164
 20
18.4458038996
 30
0.0
 11
19.7381977164
 21
18.4094808387
 31
0.0
  0
LINE
  5
2C5
330
1F
100
AcDbEntity
  8
0
  6
Continuous
 62
     7
370
    15
100
AcDbLine
 10
19.670048964
 20
18.4371822167
 30
0.0
 11
19.670048964
 21
18.4702694182
 31
0.0
  0
LWPOLYLINE
  5
2C6
330
1F
100
AcDbEntity
  8
0
  6
Continuous
 62
     7
370
    15
100
AcDbPolyline
 90
       11
 70
   128
 43
0.0
 10
20.9778932077
 20
16.6301503381
 10
20.9712845839
 20
16.6471153089
 10
20.9521519992
 20
16.6692413565
 10
20.9248214688
 20
16.6868016011
 10
20.8891933294
 20
16.6987676497
 10
20.8489255624
 20
16.7030552973
 10
20.8143283304
 20
16.700114744
 10
20.792964265
 20
16.6949934151
 10
20.7567993859
 20
16.6784221651
 10
20.7321784809
 20
16.6566662414
 10
20.7178896207
 20
16.6313043806
  0
LINE
  5
2C7
330
1F
100
AcDbEntity
  8
0
  6
Continuous
 62
     7
370
    15
100
AcDbLine
 10
20.8761178504
 20
16.6219586868
 30
0.0
 11
20.8761178504
 21
16.5937997638
 31
0.0
  0
LINE
  5
2C8
330
1F
100
AcDbEntity
  8
0
  6
Continuous
 62
     7
370
    15
100
AcDbLine
 10
20.8205287084
 20
16.6266140054
 30
0.0
 11
20.8205287084
 21
16.6645178711
 31
0.0
  0
LINE
  5
2C9
330
1F
100
AcDbEntity
  8
0
  6
Continuous
 62
     7
370
    15
100
AcDbLine
 10
20.6344164598
 20
15.3701184717
 30
0.0
 11
20.6344164598
 21
14.0025084751
 31
0.0
  0
ARC
  5
2CA
330
1F
100
AcDbEntity
  8
0
  6
Continuous
 62
     7
370
    15
100
AcDbCircle
 10
21.4948172645
 20
17.8641372588
 30
0.0
 40
4.076626936106647
100
AcDbArc
 50
260.6073481229
 51
283.0732091954
  0
LWPOLYLINE
  5
2CB
330
1F
100
AcDbEntity
  8
0
  6
Continuous
 62
     7
370
    15
100
AcDbPolyline
 90
        8
 70
   128
 43
0.0
 10
20.6358533313
 20
14.0025093689
 10
20.6350461217
 20
13.9907469117
 10
20.6447269852
 20
13.9554191305
 10
20.6644982544
 20
13.9239913301
 10
20.6942124048
 20
13.8958085337
 10
20.7341366397
 20
13.871501647
 10
20.7824473092
 20
13.8528634503
 10
20.8295140556
 20
13.8421652529
  0
LINE
  5
2CC
330
1F
100
AcDbEntity
  8
0
  6
Continuous
 62
     7
370
    15
100
AcDbLine
 10
22.4172268554
 20
13.8932464948
 30
0.0
 11
22.4397918052
 21
13.9014145837
 31
0.0
  0
LINE
  5
2CD
330
1F
100
AcDbEntity
  8
0
  6
Continuous
 62
     7
370
    15
100
AcDbLine
 10
22.4397877606
 20
13.9014124876
 30
0.0
 11
22.8842048171
 21
14.1227320109
 31
0.0
  0
LWPOLYLINE
  5
2CE
330
1F
100
AcDbEntity
  8
0
  6
Continuous
 62
     7
370
    15
100
AcDbPolyline
 90
        3
 70
   128
 43
0.0
 10
22.8842558543
 20
14.1220348117
 10
22.8888129564
 20
14.1241861025
 10
22.8893818974
 20
14.1243016375
  0
LINE
  5
2CF
330
1F
100
AcDbEntity
  8
0
  6
Continuous
 62
     7
370
    15
100
AcDbLine
 10
20.5662727112
 20
15.3785925573
 30
0.0
 11
20.6344164338
 21
15.2374124884
 31
0.0
  0
LWPOLYLINE
  5
2D0
330
1F
100
AcDbEntity
  8
0
  6
Continuous
 62
     7
370
    15
100
AcDbPolyline
 90
      104
 70
   128
 43
0.0
 10
20.4065776385
 20
19.7091597991
 10
20.6291351921
 20
19.7394185495
 10
20.8544742925
 20
19.7617882706
 10
21.0817565659
 20
19.7761858641
 10
21.3101364826
 20
19.7825578667
 10
21.5387644684
 20
19.7808803307
 10
21.7667900156
 20
19.7711597819
 10
21.9933650018
 20
19.7534322614
 10
22.2176464901
 20
19.7277636256
 10
22.4387999439
 20
19.6942493658
 10
22.6560030639
 20
19.6530143093
 10
22.8684473443
 20
19.6042117215
 10
23.0753427909
 20
19.5480232157
 10
23.2759195808
 20
19.4846577953
 10
23.4694317437
 20
19.4143511655
 10
23.655159366
 20
19.33736494
 10
23.8324112224
 20
19.253985361
 10
24.0005282481
 20
19.1645227318
 10
24.1588851937
 20
19.0693099823
 10
24.3068923459
 20
18.9687009576
 10
24.4439998346
 20
18.8630703258
 10
24.569696899
 20
18.7528106495
 10
24.6835166724
 20
18.638332497
 10
24.7850351455
 20
18.5200614487
 10
24.87387477
 20
18.3984374538
 10
24.9497053923
 20
18.2739133332
 10
25.012244616
 20
18.146951936
 10
25.0612598244
 20
18.0180256903
 10
25.0965686994
 20
17.8876141487
 10
25.1180399468
 20
17.7562026113
 10
25.1255938152
 20
17.6242799103
 10
25.1192018889
 20
17.4923366143
 10
25.0988880205
 20
17.3608637707
 10
25.0647278132
 20
17.2303504515
 10
25.0168485162
 20
17.1012820163
 10
24.9554281959
 20
16.9741386765
 10
24.880695217
 20
16.8493935187
 10
24.7929276199
 20
16.7275104696
 10
24.692451825
 20
16.6089430686
 10
24.5796417507
 20
16.4941322826
 10
24.4549170507
 20
16.3835052487
 10
24.3187417395
 20
16.2774735229
 10
24.1716220927
 20
16.1764316286
 10
24.0141059337
 20
16.0807552078
 10
23.8467787449
 20
15.9908004525
 10
23.6702633695
 20
15.9069017773
 10
23.4852161222
 20
15.8293714901
 10
23.2923255838
 20
15.7584978987
 10
23.0923093346
 20
15.6945446223
 10
22.8859112187
 20
15.6377497309
 10
22.6738993998
 20
15.5883243833
 10
22.4570623683
 20
15.5464524379
 10
22.2362067633
 20
15.5122896745
 10
22.0121544693
 20
15.4859630758
 10
21.7857384671
 20
15.4675708272
 10
21.5578012789
 20
15.4571811797
 10
21.3291911309
 20
15.4548328688
 10
21.1007579084
 20
15.4605344557
 10
20.8733518079
 20
15.4742649861
 10
20.6478186702
 20
15.4959732121
 10
20.4249976988
 20
15.5255784299
 10
20.2057174152
 20
15.5629704201
 10
19.9907937925
 20
15.6080102863
 10
19.7810264178
 20
15.6605302747
 10
19.5771954847
 20
15.7203350322
 10
19.380059201
 20
15.7872021443
 10
19.1903510142
 20
15.8608827797
 10
19.0087768891
 20
15.9411030217
 10
18.8360120348
 20
16.027564321
 10
18.6726991318
 20
16.1199449983
 10
18.5194458073
 20
16.2179014623
 10
18.376822049
 20
16.3210692234
 10
18.2453587534
 20
16.42906469
 10
18.1255445138
 20
16.5414858254
 10
18.0178254552
 20
16.6579146373
 10
17.9226019935
 20
16.7779178523
 10
17.8402285501
 20
16.9010492348
 10
17.7710114777
 20
17.0268505458
 10
17.7152082828
 20
17.1548539073
 10
17.6730265885
 20
17.2845831191
 10
17.6446233046
 20
17.4155555756
 10
17.6301041094
 20
17.5472840009
 10
17.6295229309
 20
17.6792784253
 10
17.6428820507
 20
17.8110476814
 10
17.6701316891
 20
17.9421017995
 10
17.7111704198
 20
18.0719530848
 10
17.7658456886
 20
18.2001185721
 10
17.8339541247
 20
18.3261214029
 10
17.9152421624
 20
18.4494928611
 10
18.009407649
 20
18.569774019
 10
18.1161002596
 20
18.6865174139
 10
18.2349228452
 20
18.7992887842
 10
18.3654335847
 20
18.9076685515
 10
18.5071469441
 20
19.0112535713
 10
18.6595356794
 20
19.1096585288
 10
18.8220330665
 20
19.2025172264
 10
18.9940343591
 20
19.2894843833
 10
19.174899797
 20
19.3702364138
 10
19.3639564914
 20
19.4444729949
 10
19.5605012777
 20
19.5119177554
 10
19.7638030417
 20
19.5723198581
 10
19.973105287
 20
19.6254547635
 10
20.187629531
 20
19.6711247534
 10
20.4065776385
 20
19.7091597991
  0
LWPOLYLINE
  5
2D1
330
1F
100
AcDbEntity
  8
0
  6
Continuous
 62
     7
370
    15
100
AcDbPolyline
 90
       90
 70
   128
 43
0.0
 10
20.6476021283
 20
19.3376872443
 10
20.8413919688
 20
19.3634688534
 10
21.0378492775
 20
19.3812948587
 10
21.2359954678
 20
19.3910764143
 10
21.4348432412
 20
19.3927649064
 10
21.6334020847
 20
19.3863518934
 10
21.8306827297
 20
19.3718691659
 10
22.0257022335
 20
19.3493890458
 10
22.2174891654
 20
19.3190235486
 10
22.4050877541
 20
19.2809237842
 10
22.5875637482
 20
19.2352796878
 10
22.764007993
 20
19.1823186726
 10
22.9335415392
 20
19.1223045974
 10
23.0953194275
 20
19.0555362994
 10
23.2485358871
 20
18.9823465094
 10
23.3924276871
 20
18.9030999171
 10
23.526277876
 20
18.8181912517
 10
23.6494196321
 20
18.7280435378
 10
23.7612395562
 20
18.6331059558
 10
23.8611803744
 20
18.5338513228
 10
23.9487441857
 20
18.4307742187
 10
24.0234951579
 20
18.3243882317
 10
24.0850604098
 20
18.2152232943
 10
24.1331333293
 20
18.103823169
 10
24.1674746105
 20
17.9907430529
 10
24.1879130319
 20
17.8765461362
 10
24.1943467525
 20
17.7618014159
 10
24.1867438302
 20
17.6470805236
 10
24.165141911
 20
17.5329550308
 10
24.129648851
 20
17.4199934559
 10
24.080441472
 20
17.3087585097
 10
24.0177648355
 20
17.1998045216
 10
23.941931102
 20
17.093674266
 10
23.8533182864
 20
16.9908963285
 10
23.7523676394
 20
16.8919828754
 10
23.6395821957
 20
16.7974266604
 10
23.5155239738
 20
16.7076986897
 10
23.38081074
 20
16.6232461147
 10
23.236113871
 20
16.5444895605
 10
23.0821541635
 20
16.4718214261
 10
22.9196985707
 20
16.4056037605
 10
22.7495563634
 20
16.3461665253
 10
22.5725755863
 20
16.2938055496
 10
22.389637574
 20
16.2487819978
 10
22.2016538145
 20
16.2113200803
 10
22.0095607373
 20
16.1816064393
 10
21.8143155652
 20
16.1597890717
 10
21.6168907665
 20
16.1459766401
 10
21.4182700094
 20
16.1402380541
 10
21.2194428738
 20
16.1426018113
 10
21.0213998728
 20
16.1530562372
 10
20.8251274751
 20
16.171549126
 10
20.6316037488
 20
16.1979884585
 10
20.4417926579
 20
16.2322423429
 10
20.2566399656
 20
16.2741404212
 10
20.0770678418
 20
16.32347363
 10
19.9039712327
 20
16.3799964158
 10
19.7382124689
 20
16.4434272134
 10
19.5806169086
 20
16.5134497636
 10
19.4319701483
 20
16.5897154423
 10
19.2930125935
 20
16.6718442387
 10
19.1644366915
 20
16.7594270722
 10
19.0468825559
 20
16.8520273592
 10
18.9409361747
 20
16.9491839646
 10
18.8471255243
 20
17.0504129652
 10
18.7659173935
 20
17.1552097234
 10
18.6977169687
 20
17.2630524786
 10
18.6428636335
 20
17.3734036949
 10
18.6016308655
 20
17.4857138327
 10
18.5742239024
 20
17.5994231744
 10
18.5607795348
 20
17.7139652972
 10
18.5613645505
 20
17.8287696472
 10
18.5759760456
 20
17.9432641141
 10
18.6045412174
 20
18.0568785032
 10
18.6469178824
 20
18.1690465114
 10
18.7028947878
 20
18.2792096186
 10
18.7721931153
 20
18.386818794
 10
18.8544677252
 20
18.4913379684
 10
18.9493084533
 20
18.5922465788
 10
19.0562431438
 20
18.6890416787
 10
19.1747387647
 20
18.7812412161
 10
19.304205212
 20
18.8683857506
 10
19.4439972354
 20
18.9500412415
 10
19.5934186509
 20
19.0258007613
 10
19.7517249206
 20
19.095286943
 10
19.9181275025
 20
19.1581535329
 10
20.0917970971
 20
19.2140875047
 10
20.2718687296
 20
19.2628100773
 10
20.4574452756
 20
19.3040785108
 10
20.6476021283
 20
19.3376872443
  0
LWPOLYLINE
  5
2D2
330
1F
100
AcDbEntity
  8
0
  6
Continuous
 62
     7
370
    15
100
AcDbPolyline
 90
       54
 70
   128
 43
0.0
 10
25.1265462676
 20
17.5881419001
 10
25.1268196414
 20
17.5669290322
 10
25.1204258483
 20
17.4349427501
 10
25.1001051352
 20
17.3034269205
 10
25.0659339348
 20
17.1728708545
 10
25.0180390817
 20
17.0437601517
 10
24.9565984347
 20
16.9165753824
 10
24.8818410844
 20
16.7917893339
 10
24.7940447603
 20
16.6698664717
 10
24.6935361419
 20
16.5512602456
 10
24.5806892513
 20
16.4364119216
 10
24.4559237941
 20
16.3257486668
 10
24.3197038367
 20
16.2196823066
 10
24.1725363028
 20
16.1186072597
 10
24.0149683167
 20
16.0228997224
 10
23.8475866287
 20
15.9329154211
 10
23.6710134361
 20
15.8489893558
 10
23.4859056753
 20
15.771433714
 10
23.2929521345
 20
15.7005369232
 10
23.0928703419
 20
15.6365628123
 10
22.8864047641
 20
15.5797493315
 10
22.6743236684
 20
15.5303076994
 10
22.4574157007
 20
15.4884221039
 10
22.2364879152
 20
15.4542480851
 10
22.0123620923
 20
15.4279130447
 10
21.7858721464
 20
15.4095147494
 10
21.5578605998
 20
15.3991216894
 10
21.3291753673
 20
15.39677266
 10
21.1006675789
 20
15.4024761028
 10
20.8731873273
 20
15.4162111235
 10
20.6475802459
 20
15.4379263542
 10
20.424686368
 20
15.4675413306
 10
20.2053343186
 20
15.5049455342
 10
19.9903404858
 20
15.5500000683
 10
19.7805044564
 20
15.6025371794
 10
19.5766067874
 20
15.662361544
 10
19.3794061011
 20
15.7292505084
 10
19.1896360526
 20
15.8029553609
 10
19.0080024511
 20
15.8832017957
 10
18.835181115
 20
15.9696913906
 10
18.6718147149
 20
16.0621022327
 10
18.5185112833
 20
16.1600907361
 10
18.3758409991
 20
16.2632923008
 10
18.2443345352
 20
16.3713229856
 10
18.1244813015
 20
16.4837810004
 10
18.0167269823
 20
16.6002478892
 10
17.9214724082
 20
16.7202903783
 10
17.8390720007
 20
16.843461993
 10
17.7698322163
 20
16.9693044342
 10
17.7140107689
 20
17.0973497041
 10
17.6718153851
 20
17.2271213034
 10
17.6434027675
 20
17.3581365065
 10
17.6288786981
 20
17.4899079778
 10
17.6271173248
 20
17.5881419001
  0
LWPOLYLINE
  5
2D3
330
1F
100
AcDbEntity
  8
0
  6
Continuous
 62
     7
370
    15
100
AcDbPolyline
 90
       84
 70
   128
 43
0.0
 10
20.7463721374
 20
19.1548951466
 10
20.9261251795
 20
19.1785305932
 10
21.1084598716
 20
19.1942504587
 10
21.2923317207
 20
19.2019646098
 10
21.4766875741
 20
19.201628923
 10
21.660471479
 20
19.1932453141
 10
21.8426308012
 20
19.1768617981
 10
22.0221219811
 20
19.1525721603
 10
22.1979169633
 20
19.1205155967
 10
22.3690089525
 20
19.080875786
 10
22.5344177545
 20
19.0338796027
 10
22.6931960243
 20
18.9797963836
 10
22.8444342707
 20
18.9189358771
 10
22.9872662743
 20
18.8516466718
 10
23.1208738064
 20
18.778314191
 10
23.244491659
 20
18.6993585071
 10
23.3574117413
 20
18.6152318573
 10
23.45898715
 20
18.5264160544
 10
23.5486362399
 20
18.433419897
 10
23.6258454499
 20
18.3367761016
 10
23.6901723885
 20
18.2370380844
 10
23.7412488413
 20
18.1347772674
 10
23.7787820411
 20
18.0305793513
 10
23.8025572608
 20
17.9250411426
 10
23.8124380212
 20
17.8187672009
 10
23.8083678013
 20
17.7123662167
 10
23.7903700391
 20
17.6064476587
 10
23.7585477166
 20
17.5016183018
 10
23.713083152
 20
17.3984783948
 10
23.6542367555
 20
17.2976189071
 10
23.5823456295
 20
17.199617487
 10
23.4978214419
 20
17.1050354384
 10
23.4011483785
 20
17.0144146229
 10
23.2928803816
 20
16.9282739496
 10
23.1736372479
 20
16.8471070029
 10
23.0441023048
 20
16.7713785458
 10
22.905017345
 20
16.701522434
 10
22.7571790161
 20
16.6379388126
 10
22.601434303
 20
16.5809917486
 10
22.4386750797
 20
16.5310076414
 10
22.2698337571
 20
16.4882725912
 10
22.0958773586
 20
16.453031493
 10
21.9178024642
 20
16.4254861961
 10
21.7366287808
 20
16.4057944259
 10
21.5533943198
 20
16.3940690359
 10
21.3691485004
 20
16.3903771396
 10
21.1849466531
 20
16.3947399306
 10
21.001843901
 20
16.4071323836
 10
20.8208890411
 20
16.4274835536
 10
20.643118581
 20
16.4556767853
 10
20.4695508274
 20
16.4915507312
 10
20.3011798197
 20
16.5348997405
 10
20.1389701181
 20
16.58547567
 10
19.983850763
 20
16.6429887379
 10
19.8367101931
 20
16.7071094985
 10
19.6983913357
 20
16.7774707196
 10
19.5696864698
 20
16.8536693896
 10
19.451332799
 20
16.9352690337
 10
19.3440081153
 20
17.0218022173
 10
19.24832738
 20
17.1127733576
 10
19.1648384555
 20
17.2076613081
 10
19.0940196161
 20
17.3059225906
 10
19.0362764632
 20
17.4069943747
 10
18.9919399283
 20
17.5102977845
 10
18.9612637843
 20
17.6152410127
 10
18.9444237123
 20
17.7212229722
 10
18.9415164717
 20
17.8276366487
 10
18.9525582408
 20
17.9338724537
 10
18.9774861727
 20
18.0393219961
 10
19.0161573581
 20
18.1433811951
 10
19.0683501735
 20
18.2454539329
 10
19.1337658366
 20
18.3449557061
 10
19.2120295475
 20
18.4413164398
 10
19.3026930552
 20
18.5339842443
 10
19.4052370428
 20
18.6224283491
 10
19.5190742132
 20
18.7061420807
 10
19.643552326
 20
18.7846460536
 10
19.7779586115
 20
18.8574904781
 10
19.9215229995
 20
18.9242582223
 10
20.0734233165
 20
18.9845667344
 10
20.2327895059
 20
19.038070599
 10
20.398708602
 20
19.08446345
 10
20.5702302526
 20
19.1234794831
 10
20.7463721374
 20
19.1548951466
  0
LWPOLYLINE
  5
2D4
330
1F
100
AcDbEntity
  8
0
  6
Continuous
 62
     7
370
    15
100
AcDbPolyline
 90
       20
 70
   128
 43
0.0
 10
20.8847132044
 20
16.5795354294
 10
20.8386443863
 20
16.5769623394
 10
20.7936243651
 20
16.5831639841
 10
20.7545318149
 20
16.5974683612
 10
20.7256030436
 20
16.6183254262
 10
20.7099729305
 20
16.6434749958
 10
20.7093351794
 20
16.6701916127
 10
20.7237590153
 20
16.69558027
 10
20.7516812506
 20
16.7168895573
 10
20.7900762103
 20
16.731810378
 10
20.8347830858
 20
16.7387258137
 10
20.8809573747
 20
16.7368864811
 10
20.9235951241
 20
16.7264916549
 10
20.958075996
 20
16.7086678049
 10
20.980663554
 20
16.6853464622
 10
20.9889099832
 20
16.6590547672
 10
20.9819216852
 20
16.6326419268
 10
20.9604558306
 20
16.6089701096
 10
20.9268386891
 20
16.5906045328
 10
20.8847132044
 20
16.5795354294
  0
LWPOLYLINE
  5
2D5
330
1F
100
AcDbEntity
  8
0
  6
Continuous
 62
     7
370
    15
100
AcDbPolyline
 90
       20
 70
   128
 43
0.0
 10
19.7405133041
 20
18.3943338318
 10
19.6944443564
 20
18.3917607269
 10
19.649424413
 20
18.3979623566
 10
19.6103318887
 20
18.4122667487
 10
19.5814031174
 20
18.4331238137
 10
19.5657729783
 20
18.4582733683
 10
19.5651352013
 20
18.4849900301
 10
19.5795590372
 20
18.5103786276
 10
19.6074812466
 20
18.5316879598
 10
19.6458762452
 20
18.546608743
 10
19.6905831336
 20
18.5535241862
 10
19.7367573188
 20
18.5516848536
 10
19.779395146
 20
18.5412900125
 10
19.8138760697
 20
18.5234661924
 10
19.836463576
 20
18.5001448197
 10
19.8447100181
 20
18.4738531322
 10
19.8377216164
 20
18.4474402919
 10
19.8162558007
 20
18.4237684971
 10
19.7826387629
 20
18.4054029203
 10
19.7405133041
 20
18.3943338318
  0
LWPOLYLINE
  5
2D6
330
1F
100
AcDbEntity
  8
0
  6
Continuous
 62
     7
370
    15
100
AcDbPolyline
 90
       20
 70
   128
 43
0.0
 10
23.3851173051
 20
18.0232098674
 10
23.3390484351
 20
18.0206366876
 10
23.2940283621
 20
18.0268383622
 10
23.2549359156
 20
18.0411427992
 10
23.2260071443
 20
18.0619998642
 10
23.2103769275
 20
18.0871493739
 10
23.2097392801
 20
18.1138660506
 10
23.2241630641
 20
18.1392546182
 10
23.2520852476
 20
18.1605639354
 10
23.2904802073
 20
18.1754847561
 10
23.3351870827
 20
18.1824001918
 10
23.3813613717
 20
18.1805608592
 10
23.423999121
 20
18.170166033
 10
23.4584801485
 20
18.1523422129
 10
23.4810676029
 20
18.1290208104
 10
23.4893139802
 20
18.1027291453
 10
23.4823256822
 20
18.0763163049
 10
23.4608598276
 20
18.0526444877
 10
23.4272427898
 20
18.0342789708
 10
23.3851173051
 20
18.0232098674
  0
LWPOLYLINE
  5
2D7
330
1F
100
AcDbEntity
  8
0
  6
Continuous
 62
     7
370
    15
100
AcDbPolyline
 90
       50
 70
   128
 43
0.0
 10
21.6375384961
 20
18.3479102978
 10
21.7449647357
 20
18.3603321466
 10
21.8542606713
 20
18.3647216094
 10
21.9636316006
 20
18.361006626
 10
22.0712816416
 20
18.3492481283
 10
22.1754432116
 20
18.329639247
 10
22.2744060394
 20
18.3025019739
 10
22.3665449914
 20
18.2682818147
 10
22.4503473533
 20
18.2275407804
 10
22.5244370198
 20
18.180947794
 10
22.5875973236
 20
18.1292678458
 10
22.6387913032
 20
18.0733495747
 10
22.6771783292
 20
18.0141111803
 10
22.7021280917
 20
17.952525343
 10
22.7132308409
 20
17.8896032543
 10
22.7103044662
 20
17.8263781375
 10
22.6933967767
 20
17.7638881251
 10
22.662785502
 20
17.7031593159
 10
22.6189733137
 20
17.645188892
 10
22.562679555
 20
17.5909286695
 10
22.4948285735
 20
17.5412696822
 10
22.4165345281
 20
17.4970272443
 10
22.3290829546
 20
17.4589278541
 10
22.2339098171
 20
17.4275971002
 10
22.1325778333
 20
17.403549467
 10
22.0267509365
 20
17.3871797584
 10
21.9181667572
 20
17.378756791
 10
21.80860824
 20
17.3784188629
 10
21.6998743747
 20
17.3861715249
 10
21.5937504977
 20
17.4018874989
 10
21.4919792109
 20
17.4253087184
 10
21.3962315841
 20
17.4560505686
 10
21.3080798015
 20
17.4936083368
 10
21.2289712739
 20
17.5373652725
 10
21.1602050063
 20
17.5866029076
 10
21.1029101281
 20
17.6405127617
 10
21.0580273924
 20
17.6982096268
 10
21.0262938178
 20
17.7587461359
 10
21.0082304346
 20
17.821128279
 10
21.0041338599
 20
17.8843317306
 10
21.0140713354
 20
17.9473187101
 10
21.0378797206
 20
18.0090549566
 10
21.075168055
 20
18.0685267747
 10
21.1253240816
 20
18.1247576268
 10
21.1875242326
 20
18.1768242255
 10
21.2607472001
 20
18.223871612
 10
21.3437906219
 20
18.2651272784
 10
21.4352909737
 20
18.2999137894
 10
21.5337458407
 20
18.3276600225
 10
21.6375384961
 20
18.3479102978
  0
LWPOLYLINE
  5
2D8
330
1F
100
AcDbEntity
  8
0
  6
Continuous
 62
     7
370
    15
100
AcDbPolyline
 90
       40
 70
   128
 43
0.0
 10
20.0367519026
 20
17.9090458787
 10
20.1214407781
 20
17.91800528
 10
20.2075225531
 20
17.919006144
 10
20.2927677173
 20
17.9120226071
 10
20.3749684355
 20
17.8972355343
 10
20.4519957939
 20
17.8750278492
 10
20.5218548175
 20
17.8459747455
 10
20.5827361684
 20
17.8108286898
 10
20.6330630471
 20
17.7704999488
 10
20.6715320542
 20
17.7260330013
 10
20.6971468169
 20
17.6785795219
 10
20.7092439684
 20
17.6293685361
 10
20.7075102074
 20
17.5796746001
 10
20.6919904004
 20
17.5307847454
 10
20.6630864866
 20
17.4839651651
 10
20.6215470806
 20
17.4404284808
 10
20.568448086
 20
17.401302307
 10
20.5051646551
 20
17.367599938
 10
20.4333358575
 20
17.3401942861
 10
20.3548220293
 20
17.3197951459
 10
20.2716565175
 20
17.3069307736
 10
20.1859933461
 20
17.301934394
 10
20.1000512136
 20
17.3049354592
 10
20.0160559747
 20
17.3158562141
 10
19.9361829003
 20
17.3344137766
 10
19.8625007406
 20
17.3601275239
 10
19.7969179783
 20
17.3923315605
 10
19.7411328804
 20
17.4301916982
 10
19.6965905374
 20
17.4727275036
 10
19.6644444391
 20
17.5188372331
 10
19.6455270481
 20
17.5673266748
 10
19.6403284873
 20
17.6169400118
 10
19.6489834215
 20
17.6663923006
 10
19.6712675824
 20
17.7144027286
 10
19.7066037844
 20
17.7597277819
 10
19.7540769098
 20
17.8011936642
 10
19.8124574508
 20
17.8377264111
 10
19.8802332959
 20
17.8683798195
 10
19.9556492426
 20
17.8923599932
 10
20.0367519026
 20
17.9090458787
  0
LWPOLYLINE
  5
2D9
330
1F
100
AcDbEntity
  8
0
  6
Continuous
 62
     7
370
    15
100
AcDbPolyline
 90
        3
 70
   128
 43
0.0
 10
20.5437372922
 20
17.3878579834
 10
20.5630160012
 20
17.3983057312
 10
20.6533013319
 20
17.4736876443
  0
ARC
  5
2DA
330
1F
100
AcDbEntity
  8
0
  6
Continuous
 62
     7
370
    15
100
AcDbCircle
 10
20.3910487204
 20
17.6933763171
 30
0.0
 40
0.3421104283807356
100
AcDbArc
 50
297.9520085947
 51
320.0471352394
  0
ARC
  5
2DB
330
1F
100
AcDbEntity
  8
0
  6
Continuous
 62
     7
370
    15
100
AcDbCircle
 10
19.9274061605
 20
17.6387118542
 30
0.0
 40
0.2781119511615462
100
AcDbArc
 50
215.0500676645
 51
244.1300025391
  0
LINE
  5
2DC
330
1F
100
AcDbEntity
  8
0
  6
Continuous
 62
     7
370
    15
100
AcDbLine
 10
20.5797178696
 20
17.4145191806
 30
0.0
 11
20.5461006244
 21
17.3914774206
 31
0.0
  0
LWPOLYLINE
  5
2DD
330
1F
100
AcDbEntity
  8
0
  6
Continuous
 62
     7
370
    15
100
AcDbPolyline
 90
        3
 70
   128
 43
0.0
 10
19.7061299953
 20
17.561139661
 10
19.7032760086
 20
17.556322461
 10
19.6991894029
 20
17.5319882075
  0
LINE
  5
2DE
330
1F
100
AcDbEntity
  8
0
  6
Continuous
 62
     7
370
    15
100
AcDbLine
 10
19.7867227241
 20
17.4040179424
 30
0.0
 11
19.8007068908
 21
17.3927871491
 31
0.0
  0
LINE
  5
2DF
330
1F
100
AcDbEntity
  8
0
  6
Continuous
 62
     7
370
    15
100
AcDbLine
 10
21.2605724007
 20
17.521394322
 30
0.0
 11
21.2837363407
 21
17.5059043993
 31
0.0
  0
LWPOLYLINE
  5
2E0
330
1F
100
AcDbEntity
  8
0
  6
Continuous
 62
     7
370
    15
100
AcDbPolyline
 90
        7
 70
   128
 43
0.0
 10
21.2743683377
 20
17.5113054564
 10
21.2650690411
 20
17.5159630108
 10
21.1794624033
 20
17.5763176651
 10
21.1109476871
 20
17.6460887758
 10
21.0650057604
 20
17.7199541817
 10
21.0410961612
 20
17.7994518925
 10
21.0411794516
 20
17.8327698023
  0
LWPOLYLINE
  5
2E1
330
1F
100
AcDbEntity
  8
0
  6
Continuous
 62
     7
370
    15
100
AcDbPolyline
 90
        8
 70
   128
 43
0.0
 10
21.0370287933
 20
17.8466514179
 10
21.0440593911
 20
17.7847278358
 10
21.0650309355
 20
17.7238637746
 10
21.0995845746
 20
17.6651006427
 10
21.1471290963
 20
17.6094438991
 10
21.2068510166
 20
17.5578458539
 10
21.2777284185
 20
17.5111893275
 10
21.3327320262
 20
17.4821924411
  0
LWPOLYLINE
  5
2E2
330
1F
100
AcDbEntity
  8
0
  6
Continuous
 62
     7
370
    15
100
AcDbPolyline
 90
        8
 70
   128
 43
0.0
 10
22.3807925953
 20
17.4802173849
 10
22.4399291403
 20
17.5111893425
 10
22.5108065486
 20
17.5578458427
 10
22.5705284462
 20
17.6094439048
 10
22.6180730263
 20
17.6651006521
 10
22.6526266492
 20
17.7238637746
 10
22.6735981805
 20
17.7847278283
 10
22.6806287913
 20
17.8466514478
  0
LWPOLYLINE
  5
2E3
330
1F
100
AcDbEntity
  8
0
  6
Continuous
 62
     7
370
    15
100
AcDbPolyline
 90
       49
 70
   128
 43
0.0
 10
21.6461313093
 20
18.3293974127
 10
21.5443395662
 20
18.3094500308
 10
21.4479287799
 20
18.282003144
 10
21.3585486302
 20
18.2475264263
 10
21.2777284444
 20
18.2066097694
 10
21.2068510102
 20
18.1599532543
 10
21.1471291125
 20
18.1083551922
 10
21.0995845843
 20
18.0526984449
 10
21.0650309484
 20
17.9939353149
 10
21.0440594074
 20
17.9330712555
 10
21.0370287933
 20
17.8711476641
 10
21.0440593911
 20
17.809224082
 10
21.0650309355
 20
17.7483600208
 10
21.0995845746
 20
17.6895968889
 10
21.1471290963
 20
17.6339401454
 10
21.2068510166
 20
17.5823421001
 10
21.2777284185
 20
17.5356855737
 10
21.3585486562
 20
17.4947689169
 10
21.4479287799
 20
17.4602921842
 10
21.5443395403
 20
17.4328453123
 10
21.6461313093
 20
17.4128979154
 10
21.7515623665
 20
17.4007913081
 10
21.8588287664
 20
17.3967326378
 10
21.9660952214
 20
17.40079131
 10
22.0715262883
 20
17.4128979229
 10
22.1733180444
 20
17.4328453123
 10
22.2697287789
 20
17.4602921992
 10
22.3591089285
 20
17.4947689169
 10
22.4399291403
 20
17.5356855887
 10
22.5108065486
 20
17.5823420889
 10
22.5705284462
 20
17.633940151
 10
22.6180730263
 20
17.6895968983
 10
22.6526266492
 20
17.7483600208
 10
22.6735981805
 20
17.8092240745
 10
22.6806287913
 20
17.871147694
 10
22.6735981805
 20
17.9330712537
 10
22.6526266492
 20
17.9939353074
 10
22.6180730003
 20
18.0526984449
 10
22.5705284462
 20
18.1083551772
 10
22.5108066004
 20
18.1599532692
 10
22.4399291143
 20
18.2066097545
 10
22.3591089609
 20
18.2475264525
 10
22.2697287627
 20
18.2820031383
 10
22.1733180347
 20
18.3094500215
 10
22.0715262753
 20
18.3293974127
 10
21.9660952052
 20
18.3415040276
 10
21.8588288183
 20
18.3455627203
 10
21.7515623665
 20
18.3415040201
 10
21.6461313093
 20
18.3293974127
  0
LINE
  5
2E4
330
1F
100
AcDbEntity
  8
0
  6
Continuous
 62
     7
370
    15
100
AcDbLine
 10
21.9685868628
 20
17.5298455318
 30
0.0
 11
21.6582737033
 21
18.1984049749
 31
0.0
  0
LINE
  5
2E5
330
1F
100
AcDbEntity
  8
0
  6
Continuous
 62
     7
370
    15
100
AcDbLine
 10
22.0593838683
 20
17.5438903757
 30
0.0
 11
21.9685868628
 21
17.5298455318
 31
0.0
  0
LINE
  5
2E6
330
1F
100
AcDbEntity
  8
0
  6
Continuous
 62
     7
370
    15
100
AcDbLine
 10
22.0593838683
 20
17.5438903757
 30
0.0
 11
21.7490707348
 21
18.2124498039
 31
0.0
  0
LINE
  5
2E7
330
1F
100
AcDbEntity
  8
0
  6
Continuous
 62
     7
370
    15
100
AcDbLine
 10
21.7490707348
 20
18.2124498039
 30
0.0
 11
21.6582737033
 21
18.1984049749
 31
0.0
  0
LWPOLYLINE
  5
2E8
330
1F
100
AcDbEntity
  8
0
  6
Continuous
 62
     7
370
    15
100
AcDbPolyline
 90
        9
 70
   128
 43
0.0
 10
21.7490707348
 20
18.2124498039
 10
21.7864037526
 20
18.0877180568
 10
21.824980489
 20
17.9726251916
 10
21.864393649
 20
17.8683866286
 10
21.9042273081
 20
17.7761023212
 10
21.9440609412
 20
17.6967461074
 10
21.98347413
 20
17.6311558387
 10
22.0220507987
 20
17.580024244
 10
22.0593838683
 20
17.5438903757
  0
LWPOLYLINE
  5
2E9
330
1F
100
AcDbEntity
  8
0
  6
Continuous
 62
     7
370
    15
100
AcDbPolyline
 90
       39
 70
   128
 43
0.0
 10
20.3126529873
 20
17.314626036
 10
20.3952002126
 20
17.3317230323
 10
20.4717469956
 20
17.356430374
 10
20.540205251
 20
17.388074072
 10
20.5987076876
 20
17.42579101
 10
20.6456585146
 20
17.4685523578
 10
20.6797769666
 20
17.515191668
 10
20.7001324088
 20
17.5644367568
 10
20.7061696545
 20
17.6149443606
 10
20.6977239508
 20
17.6653367461
 10
20.6750257365
 20
17.7142393754
 10
20.6386940953
 20
17.7603182722
 10
20.5897200847
 20
17.8023165267
 10
20.5294396169
 20
17.839088541
 10
20.4594969788
 20
17.8696312961
 10
20.3817999273
 20
17.8931116514
 10
20.2984680164
 20
17.9088891111
 10
20.211774158
 20
17.916533305
 10
20.1240832009
 20
17.9158357087
 10
20.0377871656
 20
17.9068154204
 10
19.9552399079
 20
17.8897183829
 10
19.8786931833
 20
17.8650110673
 10
19.8102348371
 20
17.833367362
 10
19.7517324395
 20
17.7956504015
 10
19.7047815865
 20
17.7528890687
 10
19.6706631215
 20
17.7062497659
 10
19.6503077701
 20
17.6570046846
 10
19.6442705244
 20
17.6064970808
 10
19.6527162281
 20
17.5561046953
 10
19.6754143905
 20
17.5072020361
 10
19.7117460318
 20
17.4611231393
 10
19.7607200682
 20
17.4191249297
 10
19.8210004842
 20
17.3823528555
 10
19.8909432001
 20
17.3518101453
 10
19.9686402256
 20
17.3283298049
 10
20.0519721366
 20
17.3125523453
 10
20.138665995
 20
17.3049081513
 10
20.226356965
 20
17.3056057402
 10
20.3126529873
 20
17.314626036
  0
LINE
  5
2EA
330
1F
100
AcDbEntity
  8
0
  6
Continuous
 62
     7
370
    15
100
AcDbLine
 10
20.2349543543
 20
17.377193175
 30
0.0
 11
20.0246887672
 21
17.8302034524
 31
0.0
  0
LINE
  5
2EB
330
1F
100
AcDbEntity
  8
0
  6
Continuous
 62
     7
370
    15
100
AcDbLine
 10
20.2349543543
 20
17.377193175
 30
0.0
 11
20.3257513857
 21
17.391238004
 31
0.0
  0
LINE
  5
2EC
330
1F
100
AcDbEntity
  8
0
  6
Continuous
 62
     7
370
    15
100
AcDbLine
 10
20.3257513857
 20
17.391238004
 30
0.0
 11
20.1154858246
 21
17.8442482664
 31
0.0
  0
LINE
  5
2ED
330
1F
100
AcDbEntity
  8
0
  6
Continuous
 62
     7
370
    15
100
AcDbLine
 10
20.0246887672
 20
17.8302034524
 30
0.0
 11
20.1154858246
 21
17.8442482664
 31
0.0
  0
LWPOLYLINE
  5
2EE
330
1F
100
AcDbEntity
  8
0
  6
Continuous
 62
     7
370
    15
100
AcDbPolyline
 90
        9
 70
   128
 43
0.0
 10
20.1154858246
 20
17.8442482664
 10
20.1404007412
 20
17.7552389119
 10
20.1664827335
 20
17.6734366094
 10
20.1933522828
 20
17.6000306319
 10
20.2206185663
 20
17.536088814
 10
20.2478848497
 20
17.4825419848
 10
20.2747544768
 20
17.4401686567
 10
20.3008364691
 20
17.4095853862
 10
20.3257513857
 20
17.391238004
  0
LINE
  5
2EF
330
1F
100
AcDbEntity
  8
0
  6
Continuous
 62
     7
370
    15
100
AcDbLine
 10
23.421387655
 20
18.0552056639
 30
0.0
 11
23.4195634349
 21
18.0558073557
 31
0.0
  0
LINE
  5
2F0
330
1F
100
AcDbEntity
  8
0
  6
Continuous
 62
     7
370
    15
100
AcDbLine
 10
23.421387655
 20
18.0552056639
 30
0.0
 11
23.4346225847
 21
18.069450022
 31
0.0
  0
LINE
  5
2F1
330
1F
100
AcDbEntity
  8
0
  6
Continuous
 62
     7
370
    15
100
AcDbLine
 10
23.4346225847
 20
18.069450022
 30
0.0
 11
23.4327983646
 21
18.0700517139
 31
0.0
  0
LWPOLYLINE
  5
2F2
330
1F
100
AcDbEntity
  8
0
  6
Continuous
 62
     7
370
    15
100
AcDbPolyline
 90
        9
 70
   128
 43
0.0
 10
23.4327983646
 20
18.0700517139
 10
23.436328941
 20
18.077840492
 10
23.4377084102
 20
18.0858519837
 10
23.4369029118
 20
18.0938894886
 10
23.4339324612
 20
18.1017557375
 10
23.4288698096
 20
18.1092575025
 10
23.4218392506
 20
18.1162105959
 10
23.413013406
 20
18.1224442407
 10
23.4026090769
 20
18.1278055009
  0
LINE
  5
2F3
330
1F
100
AcDbEntity
  8
0
  6
Continuous
 62
     7
370
    15
100
AcDbLine
 10
23.4035875081
 20
18.1288216854
 30
0.0
 11
23.4026090769
 21
18.1278055009
 31
0.0
  0
LINE
  5
2F4
330
1F
100
AcDbEntity
  8
0
  6
Continuous
 62
     7
370
    15
100
AcDbLine
 10
23.4035875081
 20
18.1288216854
 30
0.0
 11
23.3789129343
 21
18.1364620776
 31
0.0
  0
LINE
  5
2F5
330
1F
100
AcDbEntity
  8
0
  6
Continuous
 62
     7
370
    15
100
AcDbLine
 10
23.3789129343
 20
18.1364620776
 30
0.0
 11
23.3779345031
 21
18.1354458931
 31
0.0
  0
ARC
  5
2F6
330
1F
100
AcDbEntity
  8
0
  6
Continuous
 62
     7
370
    15
100
AcDbCircle
 10
23.3486968818
 20
18.0074234033
 30
0.0
 40
0.1313186826666299
100
AcDbArc
 50
77.1354882421
 51
122.6284575449
  0
LINE
  5
2F7
330
1F
100
AcDbEntity
  8
0
  6
Continuous
 62
     7
370
    15
100
AcDbLine
 10
23.2778912734
 20
18.1180179883
 30
0.0
 11
23.2760670533
 21
18.1185459092
 31
0.0
  0
LINE
  5
2F8
330
1F
100
AcDbEntity
  8
0
  6
Continuous
 62
     7
370
    15
100
AcDbLine
 10
23.2760670533
 20
18.1185459092
 30
0.0
 11
23.2628320717
 21
18.104301581
 31
0.0
  0
LINE
  5
2F9
330
1F
100
AcDbEntity
  8
0
  6
Continuous
 62
     7
370
    15
100
AcDbLine
 10
23.2646563437
 20
18.1037736301
 30
0.0
 11
23.2628320717
 21
18.104301581
 31
0.0
  0
LWPOLYLINE
  5
2FA
330
1F
100
AcDbEntity
  8
0
  6
Continuous
 62
     7
370
    15
100
AcDbPolyline
 90
        9
 70
   128
 43
0.0
 10
23.2646563437
 20
18.1037736301
 10
23.2611257673
 20
18.095984852
 10
23.2597462981
 20
18.0879733603
 10
23.2605517447
 20
18.0799358853
 10
23.2635222471
 20
18.0720696065
 10
23.2685848987
 20
18.0645678415
 10
23.2756154577
 20
18.0576147481
 10
23.2844413023
 20
18.0513811033
 10
23.2948455796
 20
18.046019873
  0
LINE
  5
2FB
330
1F
100
AcDbEntity
  8
0
  6
Continuous
 62
     7
370
    15
100
AcDbLine
 10
23.2948455796
 20
18.046019873
 30
0.0
 11
23.2938671483
 21
18.0449299176
 31
0.0
  0
LINE
  5
2FC
330
1F
100
AcDbEntity
  8
0
  6
Continuous
 62
     7
370
    15
100
AcDbLine
 10
23.2938671483
 20
18.0449299176
 30
0.0
 11
23.3185417221
 21
18.0372895254
 31
0.0
  0
LINE
  5
2FD
330
1F
100
AcDbEntity
  8
0
  6
Continuous
 62
     7
370
    15
100
AcDbLine
 10
23.3195201533
 20
18.0383794808
 30
0.0
 11
23.3185417221
 21
18.0372895254
 31
0.0
  0
ARC
  5
2FE
330
1F
100
AcDbEntity
  8
0
  6
Continuous
 62
     7
370
    15
100
AcDbCircle
 10
23.3487578281
 20
18.1664020648
 30
0.0
 40
0.1313187863288404
100
AcDbArc
 50
257.135474676
 51
302.6284277912
  0
LINE
  5
2FF
330
1F
100
AcDbEntity
  8
0
  6
Continuous
 62
     7
370
    15
100
AcDbLine
 10
23.4195634349
 20
18.0558073557
 30
0.0
 11
23.3910184861
 21
18.0646462103
 31
0.0
  0
LINE
  5
300
330
1F
100
AcDbEntity
  8
0
  6
Continuous
 62
     7
370
    15
100
AcDbLine
 10
23.3348311057
 20
18.0548581589
 30
0.0
 11
23.3195201533
 21
18.0383794808
 31
0.0
  0
ARC
  5
301
330
1F
100
AcDbEntity
  8
0
  6
Continuous
 62
     7
370
    15
100
AcDbCircle
 10
23.3717369356
 20
18.0091669328
 30
0.0
 40
0.0587343887749876
100
AcDbArc
 50
70.8353555819
 51
128.9285893796
  0
LINE
  5
302
330
1F
100
AcDbEntity
  8
0
  6
Continuous
 62
     7
370
    15
100
AcDbLine
 10
23.310156532
 20
18.0624985511
 30
0.0
 11
23.2948455796
 21
18.046019873
 31
0.0
  0
LINE
  5
303
330
1F
100
AcDbEntity
  8
0
  6
Continuous
 62
     7
370
    15
100
AcDbLine
 10
23.2932012406
 20
18.0949348055
 30
0.0
 11
23.2646563437
 21
18.1037736301
 31
0.0
  0
LWPOLYLINE
  5
304
330
1F
100
AcDbEntity
  8
0
  6
Continuous
 62
     7
370
    15
100
AcDbPolyline
 90
        9
 70
   128
 43
0.0
 10
23.310156532
 20
18.0624985511
 10
23.3132806775
 20
18.06683485
 10
23.314879385
 20
18.0714397821
 10
23.3148912077
 20
18.0761362842
 10
23.3133156788
 20
18.0807438207
 10
23.310213312
 20
18.0850854479
 10
23.3057033192
 20
18.0889941607
 10
23.2999590999
 20
18.0923199267
 10
23.2932012406
 20
18.0949348055
  0
LINE
  5
305
330
1F
100
AcDbEntity
  8
0
  6
Continuous
 62
     7
370
    15
100
AcDbLine
 10
23.4181232966
 20
18.0562536635
 30
0.0
 11
23.4346225847
 21
18.069450022
 31
0.0
  0
LINE
  5
306
330
1F
100
AcDbEntity
  8
0
  6
Continuous
 62
     7
370
    15
100
AcDbLine
 10
23.4327983646
 20
18.0700517139
 30
0.0
 11
23.4042534159
 21
18.0788905685
 31
0.0
  0
LWPOLYLINE
  5
307
330
1F
100
AcDbEntity
  8
0
  6
Continuous
 62
     7
370
    15
100
AcDbPolyline
 90
        9
 70
   128
 43
0.0
 10
23.3872981245
 20
18.1113268228
 10
23.3841740308
 20
18.106990494
 10
23.3825753233
 20
18.1023855619
 10
23.3825634487
 20
18.0976890897
 10
23.3841390294
 20
18.0930815233
 10
23.3872413445
 20
18.088739926
 10
23.3917513891
 20
18.0848311833
 10
23.3974956084
 20
18.0815054173
 10
23.4042534159
 20
18.0788905685
  0
LINE
  5
308
330
1F
100
AcDbEntity
  8
0
  6
Continuous
 62
     7
370
    15
100
AcDbLine
 10
23.4026090769
 20
18.1278055009
 30
0.0
 11
23.3872981245
 21
18.1113268228
 31
0.0
  0
LINE
  5
309
330
1F
100
AcDbEntity
  8
0
  6
Continuous
 62
     7
370
    15
100
AcDbLine
 10
23.3150851413
 20
18.0402293652
 30
0.0
 11
23.3206377604
 21
18.0395824781
 31
0.0
  0
LINE
  5
30A
330
1F
100
AcDbEntity
  8
0
  6
Continuous
 62
     7
370
    15
100
AcDbLine
 10
23.2760670533
 20
18.1185459092
 30
0.0
 11
23.2925663415
 21
18.0951317878
 31
0.0
  0
ARC
  5
30B
330
1F
100
AcDbEntity
  8
0
  6
Continuous
 62
     7
370
    15
100
AcDbCircle
 10
23.3257177537
 20
18.16465852
 30
0.0
 40
0.0587344853160859
100
AcDbArc
 50
250.8354078849
 51
308.9285370766
  0
LINE
  5
30C
330
1F
100
AcDbEntity
  8
0
  6
Continuous
 62
     7
370
    15
100
AcDbLine
 10
23.3626236026
 20
18.085236644
 30
0.0
 11
23.3626236026
 21
18.1189671851
 31
0.0
  0
LINE
  5
30D
330
1F
100
AcDbEntity
  8
0
  6
Continuous
 62
     7
370
    15
100
AcDbLine
 10
23.3626236026
 20
18.0669496072
 30
0.0
 11
23.3626236026
 21
18.085236644
 31
0.0
  0
LINE
  5
30E
330
1F
100
AcDbEntity
  8
0
  6
Continuous
 62
     7
370
    15
100
AcDbLine
 10
23.3064362222
 20
18.1091791337
 30
0.0
 11
23.2778912734
 21
18.1180179883
 31
0.0
  0
LINE
  5
30F
330
1F
100
AcDbEntity
  8
0
  6
Continuous
 62
     7
370
    15
100
AcDbLine
 10
23.3779345031
 20
18.1354458931
 30
0.0
 11
23.3626236026
 21
18.1189671851
 31
0.0
  0
LINE
  5
310
330
1F
100
AcDbEntity
  8
0
  6
Continuous
 62
     7
370
    15
100
AcDbLine
 10
23.3823695152
 20
18.0791224683
 30
0.0
 11
23.3626236026
 21
18.085236644
 31
0.0
  0
LINE
  5
311
330
1F
100
AcDbEntity
  8
0
  6
Continuous
 62
     7
370
    15
100
AcDbLine
 10
23.3626236026
 20
18.085236644
 30
0.0
 11
23.3789129343
 21
18.1364620776
 31
0.0
  0
LINE
  5
312
330
1F
100
AcDbEntity
  8
0
  6
Continuous
 62
     7
370
    15
100
AcDbLine
 10
19.7359955851
 20
18.4087665088
 30
0.0
 11
19.7349813747
 21
18.4098451489
 31
0.0
  0
LINE
  5
313
330
1F
100
AcDbEntity
  8
0
  6
Continuous
 62
     7
370
    15
100
AcDbLine
 10
19.7359955851
 20
18.4087665088
 30
0.0
 11
19.7604045891
 21
18.4166860863
 31
0.0
  0
LINE
  5
314
330
1F
100
AcDbEntity
  8
0
  6
Continuous
 62
     7
370
    15
100
AcDbLine
 10
19.7604045891
 20
18.4166860863
 30
0.0
 11
19.7593903787
 21
18.4177647264
 31
0.0
  0
LWPOLYLINE
  5
315
330
1F
100
AcDbEntity
  8
0
  6
Continuous
 62
     7
370
    15
100
AcDbPolyline
 90
        9
 70
   128
 43
0.0
 10
19.7593903787
 20
18.4177647264
 10
19.7696097191
 20
18.4232432255
 10
19.7782210441
 20
18.4295761035
 10
19.7850128418
 20
18.4366078502
 10
19.7898184796
 20
18.4441657575
 10
19.792519938
 20
18.4520642311
 10
19.793050909
 20
18.4601093319
 10
19.7913982475
 20
18.4681035663
 10
19.7876025421
 20
18.4758506455
  0
LINE
  5
316
330
1F
100
AcDbEntity
  8
0
  6
Continuous
 62
     7
370
    15
100
AcDbLine
 10
19.7894070578
 20
18.4763992812
 30
0.0
 11
19.7876025421
 21
18.4758506455
 31
0.0
  0
LINE
  5
317
330
1F
100
AcDbEntity
  8
0
  6
Continuous
 62
     7
370
    15
100
AcDbLine
 10
19.7894070578
 20
18.4763992812
 30
0.0
 11
19.7756885127
 21
18.4904902993
 31
0.0
  0
LINE
  5
318
330
1F
100
AcDbEntity
  8
0
  6
Continuous
 62
     7
370
    15
100
AcDbLine
 10
19.7756885127
 20
18.4904902993
 30
0.0
 11
19.773883997
 21
18.4899416636
 31
0.0
  0
ARC
  5
319
330
1F
100
AcDbEntity
  8
0
  6
Continuous
 62
     7
370
    15
100
AcDbCircle
 10
19.703988028
 20
18.3770779616
 30
0.0
 40
0.132754140099435
100
AcDbArc
 50
58.2302583615
 51
103.381024294
  0
LINE
  5
31A
330
1F
100
AcDbEntity
  8
0
  6
Continuous
 62
     7
370
    15
100
AcDbLine
 10
19.6732653057
 20
18.5062281689
 30
0.0
 11
19.6722510953
 21
18.5072330381
 31
0.0
  0
LINE
  5
31B
330
1F
100
AcDbEntity
  8
0
  6
Continuous
 62
     7
370
    15
100
AcDbLine
 10
19.6722510953
 20
18.5072330381
 30
0.0
 11
19.6478419876
 21
18.4993135205
 31
0.0
  0
LINE
  5
31C
330
1F
100
AcDbEntity
  8
0
  6
Continuous
 62
     7
370
    15
100
AcDbLine
 10
19.648856198
 20
18.4983086513
 30
0.0
 11
19.6478419876
 21
18.4993135205
 31
0.0
  0
LWPOLYLINE
  5
31D
330
1F
100
AcDbEntity
  8
0
  6
Continuous
 62
     7
370
    15
100
AcDbPolyline
 90
        9
 70
   128
 43
0.0
 10
19.648856198
 20
18.4983086513
 10
19.6386369613
 20
18.4928300923
 10
19.6300256363
 20
18.4864972143
 10
19.6232337349
 20
18.4794655275
 10
19.6184280971
 20
18.4719076201
 10
19.6157266387
 20
18.4640091466
 10
19.6151957584
 20
18.4559639785
 10
19.61684842
 20
18.4479697441
 10
19.6206441253
 20
18.4402226649
  0
LINE
  5
31E
330
1F
100
AcDbEntity
  8
0
  6
Continuous
 62
     7
370
    15
100
AcDbLine
 10
19.6206441253
 20
18.4402226649
 30
0.0
 11
19.6188395059
 21
18.4396003181
 31
0.0
  0
LINE
  5
31F
330
1F
100
AcDbEntity
  8
0
  6
Continuous
 62
     7
370
    15
100
AcDbLine
 10
19.6188395059
 20
18.4396003181
 30
0.0
 11
19.6325580511
 21
18.4255093
 31
0.0
  0
LINE
  5
320
330
1F
100
AcDbEntity
  8
0
  6
Continuous
 62
     7
370
    15
100
AcDbLine
 10
19.6343626704
 20
18.4261316468
 30
0.0
 11
19.6325580511
 21
18.4255093
 31
0.0
  0
ARC
  5
321
330
1F
100
AcDbEntity
  8
0
  6
Continuous
 62
     7
370
    15
100
AcDbCircle
 10
19.7042586356
 20
18.53899536
 30
0.0
 40
0.1327541476262743
100
AcDbArc
 50
238.2302623178
 51
283.3810309716
  0
LINE
  5
322
330
1F
100
AcDbEntity
  8
0
  6
Continuous
 62
     7
370
    15
100
AcDbLine
 10
19.7349813747
 20
18.4098451489
 30
0.0
 11
19.7191109446
 21
18.4261464494
 31
0.0
  0
LINE
  5
323
330
1F
100
AcDbEntity
  8
0
  6
Continuous
 62
     7
370
    15
100
AcDbLine
 10
19.6626004367
 20
18.435293436
 30
0.0
 11
19.6343626704
 21
18.4261316468
 31
0.0
  0
ARC
  5
324
330
1F
100
AcDbEntity
  8
0
  6
Continuous
 62
     7
370
    15
100
AcDbCircle
 10
19.682545718
 20
18.3793805456
 30
0.0
 40
0.0593638405631741
100
AcDbArc
 50
51.9789339063
 51
109.6323657818
  0
LINE
  5
325
330
1F
100
AcDbEntity
  8
0
  6
Continuous
 62
     7
370
    15
100
AcDbLine
 10
19.7593903787
 20
18.4177647264
 30
0.0
 11
19.7435199487
 21
18.4340660269
 31
0.0
  0
LWPOLYLINE
  5
326
330
1F
100
AcDbEntity
  8
0
  6
Continuous
 62
     7
370
    15
100
AcDbPolyline
 90
        9
 70
   128
 43
0.0
 10
19.7593647759
 20
18.4666888562
 10
19.7526975701
 20
18.4639975918
 10
19.7470678961
 20
18.460607197
 10
19.7426923086
 20
18.4566478348
 10
19.7397386587
 20
18.4522718426
 10
19.7383206879
 20
18.4476472584
 10
19.738492817
 20
18.442951819
 10
19.7402484085
 20
18.4383659702
 10
19.7435199487
 20
18.4340660269
  0
LINE
  5
327
330
1F
100
AcDbEntity
  8
0
  6
Continuous
 62
     7
370
    15
100
AcDbLine
 10
19.7876025421
 20
18.4758506455
 30
0.0
 11
19.7593647759
 21
18.4666888562
 31
0.0
  0
LINE
  5
328
330
1F
100
AcDbEntity
  8
0
  6
Continuous
 62
     7
370
    15
100
AcDbLine
 10
19.6188395059
 20
18.4396003181
 30
0.0
 11
19.6353391312
 21
18.4264486644
 31
0.0
  0
LINE
  5
329
330
1F
100
AcDbEntity
  8
0
  6
Continuous
 62
     7
370
    15
100
AcDbLine
 10
19.6488818916
 20
18.4493844541
 30
0.0
 11
19.6206441253
 21
18.4402226649
 31
0.0
  0
LINE
  5
32A
330
1F
100
AcDbEntity
  8
0
  6
Continuous
 62
     7
370
    15
100
AcDbLine
 10
19.664726628
 20
18.4820073508
 30
0.0
 11
19.648856198
 21
18.4983086513
 31
0.0
  0
LWPOLYLINE
  5
32B
330
1F
100
AcDbEntity
  8
0
  6
Continuous
 62
     7
370
    15
100
AcDbPolyline
 90
        9
 70
   128
 43
0.0
 10
19.6488818916
 20
18.4493844541
 10
19.6555491102
 20
18.452075726
 10
19.6611786806
 20
18.4554661807
 10
19.6655543718
 20
18.459425483
 10
19.6685080217
 20
18.4638014752
 10
19.6699259924
 20
18.4684260594
 10
19.6697538634
 20
18.4731214989
 10
19.667998246
 20
18.4777073327
 10
19.664726628
 20
18.4820073508
  0
LINE
  5
32C
330
1F
100
AcDbEntity
  8
0
  6
Continuous
 62
     7
370
    15
100
AcDbLine
 10
19.7336266397
 20
18.4112368241
 30
0.0
 11
19.7381976646
 21
18.4119350192
 31
0.0
  0
LINE
  5
32D
330
1F
100
AcDbEntity
  8
0
  6
Continuous
 62
     7
370
    15
100
AcDbLine
 10
19.759188667
 20
18.4666313543
 30
0.0
 11
19.7756885127
 21
18.4904902993
 31
0.0
  0
ARC
  5
32E
330
1F
100
AcDbEntity
  8
0
  6
Continuous
 62
     7
370
    15
100
AcDbCircle
 10
19.7257009624
 20
18.5366927723
 30
0.0
 40
0.0593638405631985
100
AcDbArc
 50
231.9789339063
 51
289.6323657818
  0
LINE
  5
32F
330
1F
100
AcDbEntity
  8
0
  6
Continuous
 62
     7
370
    15
100
AcDbLine
 10
19.6891357357
 20
18.4899268684
 30
0.0
 11
19.6732653057
 21
18.5062281689
 31
0.0
  0
LINE
  5
330
330
1F
100
AcDbEntity
  8
0
  6
Continuous
 62
     7
370
    15
100
AcDbLine
 10
19.773883997
 20
18.4899416636
 30
0.0
 11
19.7456462437
 21
18.4807798818
 31
0.0
  0
LINE
  5
331
330
1F
100
AcDbEntity
  8
0
  6
Continuous
 62
     7
370
    15
100
AcDbLine
 10
19.6891357357
 20
18.438097071
 30
0.0
 11
19.6891357357
 21
18.4561963273
 31
0.0
  0
LINE
  5
332
330
1F
100
AcDbEntity
  8
0
  6
Continuous
 62
     7
370
    15
100
AcDbLine
 10
19.6891357357
 20
18.4561963273
 30
0.0
 11
19.6891357357
 21
18.4899268684
 31
0.0
  0
LINE
  5
333
330
1F
100
AcDbEntity
  8
0
  6
Continuous
 62
     7
370
    15
100
AcDbLine
 10
19.6722510953
 20
18.5072330381
 30
0.0
 11
19.6891357357
 21
18.4561963273
 31
0.0
  0
LINE
  5
334
330
1F
100
AcDbEntity
  8
0
  6
Continuous
 62
     7
370
    15
100
AcDbLine
 10
19.6891357357
 20
18.4561963273
 30
0.0
 11
19.6700489899
 21
18.4500036031
 31
0.0
  0
LINE
  5
335
330
1F
100
AcDbEntity
  8
0
  6
Continuous
 62
     7
370
    15
100
AcDbLine
 10
20.7581965892
 20
16.6357560852
 30
0.0
 11
20.7601762155
 21
16.6361420981
 31
0.0
  0
LINE
  5
336
330
1F
100
AcDbEntity
  8
0
  6
Continuous
 62
     7
370
    15
100
AcDbLine
 10
20.7581965892
 20
16.6357560852
 30
0.0
 11
20.7663778899
 21
16.6202973693
 31
0.0
  0
LINE
  5
337
330
1F
100
AcDbEntity
  8
0
  6
Continuous
 62
     7
370
    15
100
AcDbLine
 10
20.7663778899
 20
16.6202973693
 30
0.0
 11
20.7683576198
 21
16.6206834421
 31
0.0
  0
ARC
  5
338
330
1F
100
AcDbEntity
  8
0
  6
Continuous
 62
     7
370
    15
100
AcDbCircle
 10
20.8445774374
 20
16.7045052011
 30
0.0
 40
0.1132940769258358
100
AcDbArc
 50
227.7194935049
 51
278.1382341534
  0
LINE
  5
339
330
1F
100
AcDbEntity
  8
0
  6
Continuous
 62
     7
370
    15
100
AcDbLine
 10
20.8612204328
 20
16.5911723627
 30
0.0
 11
20.8606155571
 21
16.5923520621
 31
0.0
  0
LINE
  5
33A
330
1F
100
AcDbEntity
  8
0
  6
Continuous
 62
     7
370
    15
100
AcDbLine
 10
20.8612204328
 20
16.5911723627
 30
0.0
 11
20.8879985637
 21
16.595895357
 31
0.0
  0
LINE
  5
33B
330
1F
100
AcDbEntity
  8
0
  6
Continuous
 62
     7
370
    15
100
AcDbLine
 10
20.8879985637
 20
16.595895357
 30
0.0
 11
20.8873936361
 21
16.5970750863
 31
0.0
  0
LWPOLYLINE
  5
33C
330
1F
100
AcDbEntity
  8
0
  6
Continuous
 62
     7
370
    15
100
AcDbPolyline
 90
        9
 70
   128
 43
0.0
 10
20.8873936361
 20
16.5970750863
 10
20.8994060065
 20
16.6011652927
 10
20.9101639792
 20
16.6062885726
 10
20.9194035661
 20
16.6123191709
 10
20.9268977507
 20
16.6191089111
 10
20.9324626074
 20
16.6264912071
 10
20.935961501
 20
16.6342847448
 10
20.937308406
 20
16.6422980326
 10
20.9364703433
 20
16.6503344598
  0
LINE
  5
33D
330
1F
100
AcDbEntity
  8
0
  6
Continuous
 62
     7
370
    15
100
AcDbLine
 10
20.9364703433
 20
16.6503344598
 30
0.0
 11
20.9384500733
 21
16.6506467617
 31
0.0
  0
LINE
  5
33E
330
1F
100
AcDbEntity
  8
0
  6
Continuous
 62
     7
370
    15
100
AcDbLine
 10
20.9384500733
 20
16.6506467617
 30
0.0
 11
20.9302686689
 21
16.6661054177
 31
0.0
  0
LINE
  5
33F
330
1F
100
AcDbEntity
  8
0
  6
Continuous
 62
     7
370
    15
100
AcDbLine
 10
20.9282889389
 20
16.6657931158
 30
0.0
 11
20.9302686689
 21
16.6661054177
 31
0.0
  0
ARC
  5
340
330
1F
100
AcDbEntity
  8
0
  6
Continuous
 62
     7
370
    15
100
AcDbCircle
 10
20.8520693571
 20
16.5819721243
 30
0.0
 40
0.1132933505463075
100
AcDbArc
 50
47.7193205689
 51
98.1384070894
  0
LINE
  5
341
330
1F
100
AcDbEntity
  8
0
  6
Continuous
 62
     7
370
    15
100
AcDbLine
 10
20.8360310017
 20
16.6941244958
 30
0.0
 11
20.8354262297
 21
16.6952304841
 31
0.0
  0
LINE
  5
342
330
1F
100
AcDbEntity
  8
0
  6
Continuous
 62
     7
370
    15
100
AcDbLine
 10
20.8354262297
 20
16.6952304841
 30
0.0
 11
20.8086481506
 21
16.6905074599
 31
0.0
  0
LINE
  5
343
330
1F
100
AcDbEntity
  8
0
  6
Continuous
 62
     7
370
    15
100
AcDbLine
 10
20.8092529227
 20
16.6894014716
 30
0.0
 11
20.8086481506
 21
16.6905074599
 31
0.0
  0
LWPOLYLINE
  5
344
330
1F
100
AcDbEntity
  8
0
  6
Continuous
 62
     7
370
    15
100
AcDbPolyline
 90
        9
 70
   128
 43
0.0
 10
20.8092529227
 20
16.6894014716
 10
20.7972406041
 20
16.6853112353
 10
20.7864825796
 20
16.6801879852
 10
20.7772429927
 20
16.674157387
 10
20.7697488599
 20
16.6673676168
 10
20.7641839514
 20
16.6599853508
 10
20.7606851615
 20
16.6521918729
 10
20.7593381528
 20
16.6441785253
 10
20.7601762155
 20
16.6361420981
  0
LINE
  5
345
330
1F
100
AcDbEntity
  8
0
  6
Continuous
 62
     7
370
    15
100
AcDbLine
 10
20.7683576198
 20
16.6206834421
 30
0.0
 11
20.7993360202
 21
16.6261473182
 31
0.0
  0
ARC
  5
346
330
1F
100
AcDbEntity
  8
0
  6
Continuous
 62
     7
370
    15
100
AcDbCircle
 10
20.8126092749
 20
16.5770496544
 30
0.0
 40
0.0508601993811683
100
AcDbArc
 50
40.7297293023
 51
105.1279396246
  0
LINE
  5
347
330
1F
100
AcDbEntity
  8
0
  6
Continuous
 62
     7
370
    15
100
AcDbLine
 10
20.8606155571
 20
16.5923520621
 30
0.0
 11
20.8511509243
 21
16.6102355119
 31
0.0
  0
LINE
  5
348
330
1F
100
AcDbEntity
  8
0
  6
Continuous
 62
     7
370
    15
100
AcDbLine
 10
20.8873936361
 20
16.5970750863
 30
0.0
 11
20.8779290033
 21
16.6149585361
 31
0.0
  0
LWPOLYLINE
  5
349
330
1F
100
AcDbEntity
  8
0
  6
Continuous
 62
     7
370
    15
100
AcDbPolyline
 90
        9
 70
   128
 43
0.0
 10
20.9054918911
 20
16.6448706137
 10
20.8979819947
 20
16.643064718
 10
20.8912266763
 20
16.6404477139
 10
20.8854855682
 20
16.6371202117
 10
20.880979257
 20
16.6332100321
 10
20.8778809348
 20
16.628867447
 10
20.8763097616
 20
16.6242594316
 10
20.8763259401
 20
16.6195629295
 10
20.8779290033
 20
16.6149585361
  0
LINE
  5
34A
330
1F
100
AcDbEntity
  8
0
  6
Continuous
 62
     7
370
    15
100
AcDbLine
 10
20.9054918911
 20
16.6448706137
 30
0.0
 11
20.9364703433
 21
16.6503344598
 31
0.0
  0
LINE
  5
34B
330
1F
100
AcDbEntity
  8
0
  6
Continuous
 62
     7
370
    15
100
AcDbLine
 10
20.7746929736
 20
16.6218008188
 30
0.0
 11
20.7581965892
 21
16.6357560852
 31
0.0
  0
LINE
  5
34C
330
1F
100
AcDbEntity
  8
0
  6
Continuous
 62
     7
370
    15
100
AcDbLine
 10
20.7601762155
 20
16.6361420981
 30
0.0
 11
20.7911546677
 21
16.6416059442
 31
0.0
  0
LINE
  5
34D
330
1F
100
AcDbEntity
  8
0
  6
Continuous
 62
     7
370
    15
100
AcDbLine
 10
20.8187176591
 20
16.6715180816
 30
0.0
 11
20.8092529227
 21
16.6894014716
 31
0.0
  0
LWPOLYLINE
  5
34E
330
1F
100
AcDbEntity
  8
0
  6
Continuous
 62
     7
370
    15
100
AcDbPolyline
 90
        9
 70
   128
 43
0.0
 10
20.7911546677
 20
16.6416059442
 10
20.798664564
 20
16.6434118398
 10
20.8054198825
 20
16.6460288439
 10
20.8111610943
 20
16.649356406
 10
20.8156674054
 20
16.6532665856
 10
20.818765624
 20
16.6576091109
 10
20.8203369008
 20
16.6622171861
 10
20.8203206187
 20
16.6669136284
 10
20.8187176591
 20
16.6715180816
  0
ARC
  5
34F
330
1F
100
AcDbEntity
  8
0
  6
Continuous
 62
     7
370
    15
100
AcDbCircle
 10
20.8823791204
 20
16.6482612919
 30
0.0
 40
0.0556876621363941
100
AcDbArc
 50
243.2972905919
 51
261.9977059848
  0
LINE
  5
350
330
1F
100
AcDbEntity
  8
0
  6
Continuous
 62
     7
370
    15
100
AcDbLine
 10
20.9302686689
 20
16.6661054177
 30
0.0
 11
20.9137722327
 21
16.6463310112
 31
0.0
  0
LINE
  5
351
330
1F
100
AcDbEntity
  8
0
  6
Continuous
 62
     7
370
    15
100
AcDbLine
 10
20.8973106423
 20
16.6603292996
 30
0.0
 11
20.9282889389
 21
16.6657931158
 31
0.0
  0
ARC
  5
352
330
1F
100
AcDbEntity
  8
0
  6
Continuous
 62
     7
370
    15
100
AcDbCircle
 10
20.8840372694
 20
16.7094268914
 30
0.0
 40
0.0508601607305311
100
AcDbArc
 50
220.7297932727
 51
285.1280893266
  0
LINE
  5
353
330
1F
100
AcDbEntity
  8
0
  6
Continuous
 62
     7
370
    15
100
AcDbLine
 10
20.8454956863
 20
16.676241016
 30
0.0
 11
20.8360310017
 21
16.6941244958
 31
0.0
  0
LINE
  5
354
330
1F
100
AcDbEntity
  8
0
  6
Continuous
 62
     7
370
    15
100
AcDbLine
 10
20.8454956863
 20
16.6169445508
 30
0.0
 11
20.8454956863
 21
16.6425104749
 31
0.0
  0
LINE
  5
355
330
1F
100
AcDbEntity
  8
0
  6
Continuous
 62
     7
370
    15
100
AcDbLine
 10
20.8454956863
 20
16.676241016
 30
0.0
 11
20.8454956863
 21
16.6425104749
 31
0.0
  0
LINE
  5
356
330
1F
100
AcDbEntity
  8
0
  6
Continuous
 62
     7
370
    15
100
AcDbLine
 10
20.8354262297
 20
16.6952304841
 30
0.0
 11
20.8454956863
 21
16.6425104749
 31
0.0
  0
LINE
  5
357
330
1F
100
AcDbEntity
  8
0
  6
Continuous
 62
     7
370
    15
100
AcDbLine
 10
20.8454956863
 20
16.6425104749
 30
0.0
 11
20.8205287084
 21
16.6381069429
 31
0.0
  0
LINE
  5
358
330
1F
100
AcDbEntity
  8
0
  6
Continuous
 62
     7
370
    15
100
AcDbLine
 10
21.0573701961
 20
15.3345315522
 30
0.0
 11
21.0573701961
 21
15.2889871303
 31
0.0
  0
LWPOLYLINE
  5
359
330
1F
100
AcDbEntity
  8
0
  6
Continuous
 62
     7
370
    15
100
AcDbPolyline
 90
        3
 70
   128
 43
0.0
 10
21.0573701961
 20
15.2889871303
 10
21.128170368
 20
15.2840095421
 10
21.1758766804
 20
15.2813626633
  0
LINE
  5
35A
330
1F
100
AcDbEntity
  8
0
  6
Continuous
 62
     7
370
    15
100
AcDbLine
 10
21.5777869121
 20
15.2813626633
 30
0.0
 11
21.6265138129
 21
15.2840723449
 31
0.0
  0
LINE
  5
35B
330
1F
100
AcDbEntity
  8
0
  6
Continuous
 62
     7
370
    15
100
AcDbLine
 10
21.6265138129
 20
15.2840723449
 30
0.0
 11
21.6265138129
 21
15.3314131359
 31
0.0
  0
ELLIPSE
  5
35C
330
1F
100
AcDbEntity
  8
0
  6
Continuous
 62
     7
370
    15
100
AcDbEllipse
 10
21.3768317962
 20
15.0982889431
 30
0.0
 11
2.349371759874483
 21
-0.09933573024038014
 31
0.0
210
0.0
220
0.0
230
1.0
 40
0.5469873067
 41
4.498825264694554
 42
5.199012707250675
  0
ELLIPSE
  5
35D
330
1F
100
AcDbEntity
  8
0
  6
Continuous
 62
     7
370
    15
100
AcDbEllipse
 10
20.8844164563
 20
13.9964566858
 30
0.0
 11
0.2499536168241115
 21
-0.008714114966890564
 31
0.0
210
0.0
220
0.0
230
1.0
 40
0.5526139104
 41
3.160856009523386
 42
4.494965120204672
  0
LINE
  5
35E
330
1F
100
AcDbEntity
  8
0
  6
Continuous
 62
     7
370
    15
100
AcDbLine
 10
21.1306278279
 20
15.331277861
 30
0.0
 11
21.0573701961
 21
15.2889871303
 31
0.0
  0
ELLIPSE
  5
35F
330
1F
100
AcDbEntity
  8
0
  6
Continuous
 62
     7
370
    15
100
AcDbEllipse
 10
22.8936604333
 20
14.186101313
 30
0.0
 11
-0.04996552314559466
 21
0.08676324103033295
 31
0.0
210
0.0
220
0.0
230
1.0
 40
0.5768534423
 41
2.357949261747412
 42
3.927832200035739
  0
LINE
  5
360
330
1F
100
AcDbEntity
  8
0
  6
Continuous
 62
     7
370
    15
100
AcDbLine
 10
23.2789490378
 20
13.5123857664
 30
0.0
 11
23.2789490378
 21
15.6315946509
 31
0.0
  0
LINE
  5
361
330
1F
100
AcDbEntity
  8
0
  6
Continuous
 62
     7
370
    15
100
AcDbLine
 10
23.2789490378
 20
13.5123857664
 30
0.0
 11
22.5285182813
 21
13.9456002209
 31
0.0
  0
LINE
  5
362
330
1F
100
AcDbEntity
  8
0
  6
Continuous
 62
     7
370
    15
100
AcDbLine
 10
20.6344164565
 20
15.0390419298
 30
0.0
 11
19.7659628571
 21
15.5403895213
 31
0.0
  0
ELLIPSE
  5
363
330
1F
100
AcDbEntity
  8
0
  6
Continuous
 62
     7
370
    15
100
AcDbEllipse
 10
22.3827657735
 20
13.9668955132
 30
0.0
 11
0.0999922770285515
 21
-0.002211493543638809
 31
0.0
210
0.0
220
0.0
230
1.0
 40
0.5619700251
 41
5.188317457595063
 42
5.492762102030066
  0
LINE
  5
364
330
1F
100
AcDbEntity
  8
0
  6
Continuous
 62
     7
370
    15
100
AcDbLine
 10
22.4522315554
 20
13.9254062818
 30
0.0
 11
22.8942935764
 21
14.1455530868
 31
0.0
  0
LINE
  5
365
330
1F
100
AcDbEntity
  8
0
  6
Continuous
 62
     7
370
    15
100
AcDbLine
 10
23.3496597164
 20
13.5532061723
 30
0.0
 11
23.2789490378
 21
13.5123857664
 31
0.0
  0
LINE
  5
366
330
1F
100
AcDbEntity
  8
0
  6
Continuous
 62
     7
370
    15
100
AcDbLine
 10
23.3496597164
 20
13.5532061723
 30
0.0
 11
23.3496597164
 21
15.6568043703
 31
0.0
  0
ARC
  5
367
330
1F
100
AcDbEntity
  8
0
  6
Continuous
 62
     7
370
    15
100
AcDbCircle
 10
22.9289920202
 20
14.0767608131
 30
0.0
 40
0.0770477704142074
100
AcDbArc
 50
62.6564908246
 51
116.7661254718
  0
LWPOLYLINE
  5
368
330
1F
100
AcDbEntity
  8
0
  6
Continuous
 62
     7
370
    15
100
AcDbPolyline
 90
        6
 70
   128
 43
0.0
 10
22.4274739117
 20
13.9159344139
 10
22.4266246485
 20
13.9084242751
 10
22.4249662572
 20
13.9021677263
 10
22.422561066
 20
13.8974009984
 10
22.4194996118
 20
13.894303083
 10
22.4169419701
 20
13.8931711782
  0
LINE
  5
369
330
1F
100
AcDbEntity
  8
0
  6
Continuous
 62
     7
370
    15
100
AcDbLine
 10
21.1757554459
 20
15.2927062573
 30
0.0
 11
21.5779081465
 21
15.2927062573
 31
0.0
  0
LINE
  5
36A
330
1F
100
AcDbEntity
  8
0
  6
Continuous
 62
     7
370
    15
100
AcDbLine
 10
21.5785853584
 20
15.3297162214
 30
0.0
 11
21.5779081465
 21
15.2927062573
 31
0.0
  0
LINE
  5
36B
330
1F
100
AcDbEntity
  8
0
  6
Continuous
 62
     7
370
    15
100
AcDbLine
 10
21.175078234
 20
15.3297162214
 30
0.0
 11
21.1757554459
 21
15.2927062573
 31
0.0
  0
LINE
  5
36C
330
1F
100
AcDbEntity
  8
0
  6
Continuous
 62
     7
370
    15
100
AcDbLine
 10
21.176558248
 20
15.2175844396
 30
0.0
 11
21.5771053445
 21
15.2175844396
 31
0.0
  0
LINE
  5
36D
330
1F
100
AcDbEntity
  8
0
  6
Continuous
 62
     7
370
    15
100
AcDbLine
 10
21.5779081465
 20
15.2927062573
 30
0.0
 11
21.5771053445
 21
15.2175844396
 31
0.0
  0
LINE
  5
36E
330
1F
100
AcDbEntity
  8
0
  6
Continuous
 62
     7
370
    15
100
AcDbLine
 10
21.1757554459
 20
15.2927062573
 30
0.0
 11
21.176558248
 21
15.2175844396
 31
0.0
  0
LINE
  5
36F
330
1F
100
AcDbEntity
  8
0
  6
Continuous
 62
     7
370
    15
100
AcDbLine
 10
21.5764071836
 20
15.1984442854
 30
0.0
 11
21.1772564089
 21
15.1984442854
 31
0.0
  0
LINE
  5
370
330
1F
100
AcDbEntity
  8
0
  6
Continuous
 62
     7
370
    15
100
AcDbLine
 10
21.5771053445
 20
15.2175844396
 30
0.0
 11
21.5764071836
 21
15.1984442854
 31
0.0
  0
LINE
  5
371
330
1F
100
AcDbEntity
  8
0
  6
Continuous
 62
     7
370
    15
100
AcDbLine
 10
21.1772564089
 20
15.1984442854
 30
0.0
 11
21.176558248
 21
15.2175844396
 31
0.0
  0
LWPOLYLINE
  5
372
330
1F
100
AcDbEntity
  8
0
  6
Continuous
 62
     7
370
    15
100
AcDbPolyline
 90
        9
 70
   128
 43
0.0
 10
23.9842880625
 20
15.9500236679
 10
24.1398600244
 20
16.0455432987
 10
24.2849507318
 20
16.1464106143
 10
24.4190099892
 20
16.2522428558
 10
24.5415291873
 20
16.3626386448
 10
24.6520437414
 20
16.4771791511
 10
24.7501341533
 20
16.5954299037
 10
24.8354286305
 20
16.7169423023
 10
24.8731044285
 20
16.7786579062
  0
LWPOLYLINE
  5
373
330
1F
100
AcDbEntity
  8
0
  6
Continuous
 62
     7
370
    15
100
AcDbPolyline
 90
       34
 70
   128
 43
0.0
 10
17.880559164
 20
16.7786579062
 10
17.9592613514
 20
16.6558069511
 10
18.0509972236
 20
16.5358684548
 10
18.1553491493
 20
16.419417581
 10
18.2719214313
 20
16.3068961348
 10
18.4002715485
 20
16.1987308041
 10
18.5399126965
 20
16.0953319328
 10
18.6903153756
 20
15.9970918851
 10
18.8509089079
 20
15.9043832123
 10
19.0210841007
 20
15.8175575937
 10
19.2001956064
 20
15.7369444749
 10
19.3875637564
 20
15.6628495294
 10
19.5824777376
 20
15.5955537834
 10
19.7841984244
 20
15.535312699
 10
19.9919605052
 20
15.4823547072
 10
20.2049759045
 20
15.4368806694
 10
20.422436531
 20
15.3990630088
 10
20.643517493
 20
15.369045292
 10
20.8673801055
 20
15.3469414502
 10
21.0931754166
 20
15.3328351804
 10
21.3200467997
 20
15.3267801255
 10
21.5471332727
 20
15.3287991557
 10
21.7735739574
 20
15.3388845476
 10
21.998509427
 20
15.3569982845
 10
22.2210868925
 20
15.3830714568
 10
22.4404617576
 20
15.4170051605
 10
22.6558020782
 20
15.4586706767
 10
22.8662905333
 20
15.5079101304
 10
23.0711290395
 20
15.5645365198
 10
23.2695405142
 20
15.6283352139
 10
23.4607723501
 20
15.6990640415
 10
23.6440990332
 20
15.7764548034
 10
23.8188252806
 20
15.860213886
 10
23.9842880625
 20
15.9500236679
  0
LINE
  5
374
330
1F
100
AcDbEntity
  8
0
  6
Continuous
 62
     8
370
    15
100
AcDbLine
 10
23.310156532
 20
18.0624985511
 30
0.0
 11
23.310156532
 21
18.0398858577
 31
0.0
  0
LINE
  5
375
330
1F
100
AcDbEntity
  8
0
  6
Continuous
 62
     8
370
    15
100
AcDbLine
 10
23.4042534159
 20
18.0605484431
 30
0.0
 11
23.4042534159
 21
18.0788905685
 31
0.0
  0
LINE
  5
376
330
1F
100
AcDbEntity
  8
0
  6
Continuous
 62
     8
370
    15
100
AcDbLine
 10
23.3064362222
 20
18.0884619689
 30
0.0
 11
23.3064362222
 21
18.1091791337
 31
0.0
  0
LINE
  5
377
330
1F
100
AcDbEntity
  8
0
  6
Continuous
 62
     8
370
    15
100
AcDbLine
 10
19.7435199487
 20
18.4112075902
 30
0.0
 11
19.7435199487
 21
18.4340660269
 31
0.0
  0
LINE
  5
378
330
1F
100
AcDbEntity
  8
0
  6
Continuous
 62
     8
370
    15
100
AcDbLine
 10
19.6488818916
 20
18.4493844541
 30
0.0
 11
19.6488818916
 21
18.4308425725
 31
0.0
  0
LINE
  5
379
330
1F
100
AcDbEntity
  8
0
  6
Continuous
 62
     8
370
    15
100
AcDbLine
 10
19.7456462437
 20
18.4594988966
 30
0.0
 11
19.7456462437
 21
18.4807798818
 31
0.0
  0
LINE
  5
37A
330
1F
100
AcDbEntity
  8
0
  6
Continuous
 62
     8
370
    15
100
AcDbLine
 10
20.8779290033
 20
16.5941192182
 30
0.0
 11
20.8779290033
 21
16.6149585361
 31
0.0
  0
LINE
  5
37B
330
1F
100
AcDbEntity
  8
0
  6
Continuous
 62
     8
370
    15
100
AcDbLine
 10
20.7911546677
 20
16.6416059442
 30
0.0
 11
20.7911546677
 21
16.6247042672
 31
0.0
  0
LINE
  5
37C
330
1F
100
AcDbEntity
  8
0
  6
Continuous
 62
     8
370
    15
100
AcDbLine
 10
20.8973106423
 20
16.6428523055
 30
0.0
 11
20.8973106423
 21
16.6603292996
 31
0.0
  0
LINE
  5
37D
330
1F
100
AcDbEntity
  8
0
  6
Continuous
 62
     8
370
    15
100
AcDbLine
 10
22.4274739117
 20
13.9159344139
 30
0.0
 11
22.4274739117
 21
15.414761504
 31
0.0
  0
LINE
  5
37E
330
1F
100
AcDbEntity
  8
0
  6
Continuous
 62
     8
370
    15
100
AcDbLine
 10
20.8257956126
 20
15.3504298982
 30
0.0
 11
20.8257956126
 21
13.8634605204
 31
0.0
  0
LINE
  5
37F
330
1F
100
AcDbEntity
  8
0
  6
Continuous
 62
     8
370
    15
100
AcDbLine
 10
22.9643819272
 20
15.5339105613
 30
0.0
 11
22.9643819272
 21
14.145199935
 31
0.0
  0
LINE
  5
380
330
1F
100
AcDbEntity
  8
0
  6
Continuous
 62
     8
370
    15
100
AcDbLine
 10
22.8937250794
 20
14.1042978263
 30
0.0
 11
22.8721724214
 21
14.1167399109
 31
0.0
  0
LINE
  5
381
330
1F
100
AcDbEntity
  8
0
  6
Continuous
 62
     8
370
    15
100
AcDbLine
 10
22.4522315554
 20
15.4190646194
 30
0.0
 11
22.4522315554
 21
13.9254062818
 31
0.0
  0
LINE
  5
382
330
1F
100
AcDbEntity
  8
0
  6
Continuous
 62
     8
370
    15
100
AcDbLine
 10
22.8942935764
 20
14.1455530868
 30
0.0
 11
22.8942935764
 21
15.5151287902
 31
0.0
  0
LINE
  5
383
330
1F
100
AcDbEntity
  8
0
  6
Continuous
 62
     8
370
    15
100
AcDbLine
 10
20.5701318728
 20
15.3780917398
 30
0.0
 11
20.6344164338
 21
15.2449071031
 31
0.0
  0
LWPOLYLINE
  5
384
330
1F
100
AcDbEntity
  8
0
  6
Continuous
 62
     8
370
    15
100
AcDbPolyline
 90
        6
 70
   128
 43
0.0
 10
20.8257956126
 20
13.8634605204
 10
20.825756411
 20
13.8562663332
 10
20.8261440189
 20
13.8503511482
 10
20.8269444875
 20
13.8459297305
 10
20.8281285194
 20
13.8431621211
 10
20.8295106851
 20
13.842165883
  0
ARC
  5
385
330
1F
100
AcDbEntity
  8
0
  6
Continuous
 62
     8
370
    15
100
AcDbCircle
 10
22.4266523895
 20
13.9234477551
 30
0.0
 40
0.0256540358189706
100
AcDbArc
 50
300.8200274813
 51
4.3784380056
  0
ELLIPSE
  5
386
330
1F
100
AcDbEntity
  8
0
  6
Continuous
 62
     8
370
    15
100
AcDbEllipse
 10
22.8583050943
 20
14.1656911102
 30
0.0
 11
-0.02746807875277924
 21
0.0420606968392665
 31
0.0
210
0.0
220
0.0
230
1.0
 40
0.5546401129
 41
3.076787663936015
 42
3.89792738364867
  0
ARC
  5
387
330
1F
100
AcDbEntity
  8
0
  6
Continuous
 62
     8
370
    15
100
AcDbCircle
 10
22.8661752137
 20
14.1062774209
 30
0.0
 40
0.0276208960247373
100
AcDbArc
 50
355.8900775305
 51
39.703068459
  0
ENDSEC
  0
SECTION
  2
OBJECTS
  0
DICTIONARY
  5
C
330
0
100
AcDbDictionary
281
     1
  3
ACAD_GROUP
350
D
  3
ACAD_LAYOUT
350
1A
  3
ACAD_MATERIAL
350
3B
  3
ACAD_MLEADERSTYLE
350
389
  3
ACAD_MLINESTYLE
350
17
  3
ACAD_PLOTSETTINGS
350
19
  3
ACAD_PLOTSTYLENAME
350
E
  3
ACAD_TABLESTYLE
350
388
  3
ACAD_VISUALSTYLE
350
2A
  0
DICTIONARY
  5
D
102
{ACAD_REACTORS
330
C
102
}
330
C
100
AcDbDictionary
281
     1
  0
DICTIONARY
  5
1A
102
{ACAD_REACTORS
330
C
102
}
330
C
100
AcDbDictionary
281
     1
  3
Layout1
350
1E
  3
Layout2
350
26
  3
Model
350
22
  0
DICTIONARY
  5
3B
102
{ACAD_REACTORS
330
C
102
}
330
C
100
AcDbDictionary
281
     1
  3
ByBlock
350
3D
  3
ByLayer
350
3C
  3
Global
350
3E
  0
DICTIONARY
  5
389
102
{ACAD_REACTORS
330
C
102
}
330
C
100
AcDbDictionary
281
     1
  0
DICTIONARY
  5
17
102
{ACAD_REACTORS
330
C
102
}
330
C
100
AcDbDictionary
281
     1
  3
Standard
350
18
  0
DICTIONARY
  5
19
102
{ACAD_REACTORS
330
C
102
}
330
C
100
AcDbDictionary
281
     1
  0
ACDBDICTIONARYWDFLT
  5
E
102
{ACAD_REACTORS
330
C
102
}
330
C
100
AcDbDictionary
281
     1
  3
Normal
350
F
100
AcDbDictionaryWithDefault
340
F
  0
DICTIONARY
  5
388
102
{ACAD_REACTORS
330
C
102
}
330
C
100
AcDbDictionary
281
     1
  0
DICTIONARY
  5
2A
102
{ACAD_REACTORS
330
C
102
}
330
C
100
AcDbDictionary
281
     1
  3
2dWireframe
350
2F
  3
3D Hidden
350
31
  3
3dWireframe
350
30
  3
Basic
350
32
  3
Brighten
350
36
  3
ColorChange
350
3A
  3
Conceptual
350
34
  3
Dim
350
35
  3
Facepattern
350
39
  3
Flat
350
2B
  3
FlatWithEdges
350
2C
  3
Gouraud
350
2D
  3
GouraudWithEdges
350
2E
  3
Linepattern
350
38
  3
Realistic
350
33
  3
Thicken
350
37
  0
LAYOUT
  5
1E
102
{ACAD_REACTORS
330
1A
102
}
330
1A
100
AcDbPlotSettings
  1

  2
none_device
  4

  6

 40
0.0
 41
0.0
 42
0.0
 43
0.0
 44
0.0
 45
0.0
 46
0.0
 47
0.0
 48
0.0
 49
0.0
140
0.0
141
0.0
142
1.0
143
1.0
 70
   688
 72
     0
 73
     0
 74
     5
  7

 75
    16
 76
     0
 77
     2
 78
   300
147
1.0
148
0.0
149
0.0
100
AcDbLayout
  1
Layout1
 70
     1
 71
     1
 10
0.0
 20
0.0
 11
12.0
 21
9.0
 12
0.0
 22
0.0
 32
0.0
 14
1.0000000000E+20
 24
1.0000000000E+20
 34
1.0000000000E+20
 15
-1.0000000000E+20
 25
-1.0000000000E+20
 35
-1.0000000000E+20
146
0.0
 13
0.0
 23
0.0
 33
0.0
 16
1.0
 26
0.0
 36
0.0
 17
0.0
 27
1.0
 37
0.0
 76
     0
330
1B
  0
LAYOUT
  5
26
102
{ACAD_REACTORS
330
1A
102
}
330
1A
100
AcDbPlotSettings
  1

  2
none_device
  4

  6

 40
0.0
 41
0.0
 42
0.0
 43
0.0
 44
0.0
 45
0.0
 46
0.0
 47
0.0
 48
0.0
 49
0.0
140
0.0
141
0.0
142
1.0
143
1.0
 70
   688
 72
     0
 73
     0
 74
     5
  7

 75
    16
 76
     0
 77
     2
 78
   300
147
1.0
148
0.0
149
0.0
100
AcDbLayout
  1
Layout2
 70
     1
 71
     2
 10
0.0
 20
0.0
 11
0.0
 21
0.0
 12
0.0
 22
0.0
 32
0.0
 14
0.0
 24
0.0
 34
0.0
 15
0.0
 25
0.0
 35
0.0
146
0.0
 13
0.0
 23
0.0
 33
0.0
 16
1.0
 26
0.0
 36
0.0
 17
0.0
 27
1.0
 37
0.0
 76
     0
330
23
  0
LAYOUT
  5
22
102
{ACAD_REACTORS
330
1A
102
}
330
1A
100
AcDbPlotSettings
  1

  2
none_device
  4

  6

 40
0.0
 41
0.0
 42
0.0
 43
0.0
 44
0.0
 45
0.0
 46
0.0
 47
0.0
 48
0.0
 49
0.0
140
0.0
141
0.0
142
1.0
143
1.0
 70
  1712
 72
     0
 73
     0
 74
     0
  7

 75
     0
 76
     0
 77
     2
 78
   300
147
1.0
148
0.0
149
0.0
100
AcDbLayout
  1
Model
 70
     1
 71
     0
 10
0.0
 20
0.0
 11
34.0
 21
22.0
 12
0.0
 22
0.0
 32
0.0
 14
0.0
 24
0.0
 34
0.0
 15
34.0
 25
22.0
 35
0.0
146
0.0
 13
0.0
 23
0.0
 33
0.0
 16
1.0
 26
0.0
 36
0.0
 17
0.0
 27
1.0
 37
0.0
 76
     0
330
1F
331
29
  0
MATERIAL
  5
3D
102
{ACAD_REACTORS
330
3B
102
}
330
3B
100
AcDbMaterial
  1
ByBlock
 72
     1
 94
      127
  0
MATERIAL
  5
3C
102
{ACAD_REACTORS
330
3B
102
}
330
3B
100
AcDbMaterial
  1
ByLayer
 72
     1
 94
      127
  0
MATERIAL
  5
3E
102
{ACAD_REACTORS
330
3B
102
}
330
3B
100
AcDbMaterial
  1
Global
 72
     1
 94
      127
  0
MLINESTYLE
  5
18
102
{ACAD_REACTORS
330
17
102
}
330
17
100
AcDbMlineStyle
  2
Standard
 70
     0
  3

 62
   256
 51
90.0
 52
90.0
 71
     2
 49
0.5
 62
   256
  6
BYLAYER
 49
-0.5
 62
   256
  6
BYLAYER
  0
ACDBPLACEHOLDER
  5
F
102
{ACAD_REACTORS
330
E
102
}
330
E
  0
VISUALSTYLE
  5
2F
102
{ACAD_REACTORS
330
2A
102
}
330
2A
100
AcDbVisualStyle
  2
2dWireframe
 70
     4
177
     2
291
     0
 71
     0
176
     1
 72
     2
176
     1
 73
     0
176
     1
 90
        0
176
     1
 40
-0.6
176
     1
 41
-30.0
176
     1
 62
     5
 63
     7
421
 16777215
176
     1
 74
     1
176
     1
 91
        4
176
     1
 64
     7
176
     1
 65
   257
176
     1
 75
     1
176
     1
175
     1
176
     1
 42
1.0
176
     1
 92
        0
176
     1
 66
   257
176
     1
 43
1.0
176
     1
 76
     1
176
     1
 77
     6
176
     1
 78
     2
176
     1
 67
     7
176
     1
 79
     5
176
     1
170
     0
176
     1
171
     0
176
     1
290
     0
176
     1
 93
        1
176
     1
 44
0.0
176
     1
173
     0
176
     1
  0
VISUALSTYLE
  5
31
102
{ACAD_REACTORS
330
2A
102
}
330
2A
100
AcDbVisualStyle
  2
3D Hidden
 70
     6
177
     2
291
     0
 71
     1
176
     1
 72
     2
176
     1
 73
     2
176
     1
 90
        0
176
     1
 40
-0.6
176
     1
 41
-30.0
176
     1
 62
     5
 63
     7
421
 16777215
176
     1
 74
     2
176
     1
 91
        2
176
     1
 64
     7
176
     1
 65
   257
176
     1
 75
     2
176
     1
175
     1
176
     1
 42
40.0
176
     1
 92
        0
176
     1
 66
   257
176
     1
 43
1.0
176
     1
 76
     1
176
     1
 77
     6
176
     1
 78
     2
176
     1
 67
     7
176
     1
 79
     3
176
     1
170
     0
176
     1
171
     0
176
     1
290
     0
176
     1
 93
        1
176
     1
 44
0.0
176
     1
173
     0
176
     1
  0
VISUALSTYLE
  5
30
102
{ACAD_REACTORS
330
2A
102
}
330
2A
100
AcDbVisualStyle
  2
3dWireframe
 70
     5
177
     2
291
     0
 71
     0
176
     1
 72
     2
176
     1
 73
     0
176
     1
 90
        0
176
     1
 40
-0.6
176
     1
 41
-30.0
176
     1
 62
     5
 63
     7
421
 16777215
176
     1
 74
     1
176
     1
 91
        4
176
     1
 64
     7
176
     1
 65
   257
176
     1
 75
     1
176
     1
175
     1
176
     1
 42
1.0
176
     1
 92
        0
176
     1
 66
   257
176
     1
 43
1.0
176
     1
 76
     1
176
     1
 77
     6
176
     1
 78
     2
176
     1
 67
     7
176
     1
 79
     5
176
     1
170
     0
176
     1
171
     0
176
     1
290
     0
176
     1
 93
        1
176
     1
 44
0.0
176
     1
173
     0
176
     1
  0
VISUALSTYLE
  5
32
102
{ACAD_REACTORS
330
2A
102
}
330
2A
100
AcDbVisualStyle
  2
Basic
 70
     7
177
     2
291
     1
 71
     1
176
     1
 72
     0
176
     1
 73
     1
176
     1
 90
        0
176
     1
 40
-0.6
176
     1
 41
-30.0
176
     1
 62
     5
 63
     7
421
 16777215
176
     1
 74
     0
176
     1
 91
        4
176
     1
 64
     7
176
     1
 65
   257
176
     1
 75
     1
176
     1
175
     1
176
     1
 42
1.0
176
     1
 92
        8
176
     1
 66
     7
176
     1
 43
1.0
176
     1
 76
     1
176
     1
 77
     6
176
     1
 78
     2
176
     1
 67
     7
176
     1
 79
     5
176
     1
170
     0
176
     1
171
     0
176
     1
290
     0
176
     1
 93
        1
176
     1
 44
0.0
176
     1
173
     0
176
     1
  0
VISUALSTYLE
  5
36
102
{ACAD_REACTORS
330
2A
102
}
330
2A
100
AcDbVisualStyle
  2
Brighten
 70
    12
177
     2
291
     1
 71
     2
176
     1
 72
     2
176
     1
 73
     0
176
     1
 90
        0
176
     1
 40
-0.6
176
     1
 41
-30.0
176
     1
 62
     5
 63
     7
421
 16777215
176
     1
 74
     1
176
     1
 91
        4
176
     1
 64
     7
176
     1
 65
   257
176
     1
 75
     1
176
     1
175
     1
176
     1
 42
1.0
176
     1
 92
        8
176
     1
 66
     7
176
     1
 43
1.0
176
     1
 76
     1
176
     1
 77
     6
176
     1
 78
     2
176
     1
 67
     7
176
     1
 79
     5
176
     1
170
     0
176
     1
171
     0
176
     1
290
     0
176
     1
 93
        1
176
     1
 44
50.0
176
     1
173
     0
176
     1
  0
VISUALSTYLE
  5
3A
102
{ACAD_REACTORS
330
2A
102
}
330
2A
100
AcDbVisualStyle
  2
ColorChange
 70
    16
177
     2
291
     1
 71
     2
176
     1
 72
     2
176
     1
 73
     3
176
     1
 90
        0
176
     1
 40
-0.6
176
     1
 41
-30.0
176
     1
 62
     5
 63
     8
421
  8421504
176
     1
 74
     1
176
     1
 91
        4
176
     1
 64
     7
176
     1
 65
   257
176
     1
 75
     1
176
     1
175
     1
176
     1
 42
1.0
176
     1
 92
        8
176
     1
 66
     8
424
  8421504
176
     1
 43
1.0
176
     1
 76
     1
176
     1
 77
     6
176
     1
 78
     2
176
     1
 67
     7
176
     1
 79
     5
176
     1
170
     0
176
     1
171
     0
176
     1
290
     0
176
     1
 93
        1
176
     1
 44
0.0
176
     1
173
     0
176
     1
  0
VISUALSTYLE
  5
34
102
{ACAD_REACTORS
330
2A
102
}
330
2A
100
AcDbVisualStyle
  2
Conceptual
 70
     9
177
     2
291
     0
 71
     3
176
     1
 72
     2
176
     1
 73
     0
176
     1
 90
        0
176
     1
 40
-0.6
176
     1
 41
-30.0
176
     1
 62
     5
 63
     7
421
 16777215
176
     1
 74
     2
176
     1
 91
        2
176
     1
 64
     7
176
     1
 65
   257
176
     1
 75
     1
176
     1
175
     1
176
     1
 42
40.0
176
     1
 92
        8
176
     1
 66
     7
176
     1
 43
1.0
176
     1
 76
     1
176
     1
 77
     6
176
     1
 78
     2
176
     1
 67
     7
176
     1
 79
     3
176
     1
170
     0
176
     1
171
     0
176
     1
290
     0
176
     1
 93
        1
176
     1
 44
0.0
176
     1
173
     0
176
     1
  0
VISUALSTYLE
  5
35
102
{ACAD_REACTORS
330
2A
102
}
330
2A
100
AcDbVisualStyle
  2
Dim
 70
    11
177
     2
291
     1
 71
     2
176
     1
 72
     2
176
     1
 73
     0
176
     1
 90
        0
176
     1
 40
-0.6
176
     1
 41
-30.0
176
     1
 62
     5
 63
     7
421
 16777215
176
     1
 74
     1
176
     1
 91
        4
176
     1
 64
     7
176
     1
 65
   257
176
     1
 75
     1
176
     1
175
     1
176
     1
 42
1.0
176
     1
 92
        8
176
     1
 66
     7
176
     1
 43
1.0
176
     1
 76
     1
176
     1
 77
     6
176
     1
 78
     2
176
     1
 67
     7
176
     1
 79
     5
176
     1
170
     0
176
     1
171
     0
176
     1
290
     0
176
     1
 93
        1
176
     1
 44
-50.0
176
     1
173
     0
176
     1
  0
VISUALSTYLE
  5
39
102
{ACAD_REACTORS
330
2A
102
}
330
2A
100
AcDbVisualStyle
  2
Facepattern
 70
    15
177
     2
291
     1
 71
     2
176
     1
 72
     2
176
     1
 73
     0
176
     1
 90
        0
176
     1
 40
-0.6
176
     1
 41
-30.0
176
     1
 62
     5
 63
     7
421
 16777215
176
     1
 74
     1
176
     1
 91
        4
176
     1
 64
     7
176
     1
 65
   257
176
     1
 75
     1
176
     1
175
     1
176
     1
 42
1.0
176
     1
 92
        8
176
     1
 66
     7
176
     1
 43
1.0
176
     1
 76
     1
176
     1
 77
     6
176
     1
 78
     2
176
     1
 67
     7
176
     1
 79
     5
176
     1
170
     0
176
     1
171
     0
176
     1
290
     0
176
     1
 93
        1
176
     1
 44
0.0
176
     1
173
     0
176
     1
  0
VISUALSTYLE
  5
2B
102
{ACAD_REACTORS
330
2A
102
}
330
2A
100
AcDbVisualStyle
  2
Flat
 70
     0
177
     2
291
     1
 71
     2
176
     1
 72
     1
176
     1
 73
     1
176
     1
 90
        2
176
     1
 40
-0.6
176
     1
 41
30.0
176
     1
 62
     5
 63
     7
421
 16777215
176
     1
 74
     0
176
     1
 91
        4
176
     1
 64
     7
176
     1
 65
   257
176
     1
 75
     1
176
     1
175
     1
176
     1
 42
1.0
176
     1
 92
        8
176
     1
 66
     7
176
     1
 43
1.0
176
     1
 76
     1
176
     1
 77
     6
176
     1
 78
     2
176
     1
 67
     7
176
     1
 79
     5
176
     1
170
     0
176
     1
171
     0
176
     1
290
     0
176
     1
 93
       13
176
     1
 44
0.0
176
     1
173
     0
176
     1
  0
VISUALSTYLE
  5
2C
102
{ACAD_REACTORS
330
2A
102
}
330
2A
100
AcDbVisualStyle
  2
FlatWithEdges
 70
     1
177
     2
291
     1
 71
     2
176
     1
 72
     1
176
     1
 73
     1
176
     1
 90
        2
176
     1
 40
-0.6
176
     1
 41
30.0
176
     1
 62
     5
 63
     7
421
 16777215
176
     1
 74
     1
176
     1
 91
        4
176
     1
 64
     7
176
     1
 65
   257
176
     1
 75
     1
176
     1
175
     1
176
     1
 42
1.0
176
     1
 92
        0
176
     1
 66
   257
176
     1
 43
1.0
176
     1
 76
     1
176
     1
 77
     6
176
     1
 78
     2
176
     1
 67
     7
176
     1
 79
     5
176
     1
170
     0
176
     1
171
     0
176
     1
290
     0
176
     1
 93
       13
176
     1
 44
0.0
176
     1
173
     0
176
     1
  0
VISUALSTYLE
  5
2D
102
{ACAD_REACTORS
330
2A
102
}
330
2A
100
AcDbVisualStyle
  2
Gouraud
 70
     2
177
     2
291
     1
 71
     2
176
     1
 72
     2
176
     1
 73
     1
176
     1
 90
        2
176
     1
 40
-0.6
176
     1
 41
30.0
176
     1
 62
     5
 63
     7
421
 16777215
176
     1
 74
     0
176
     1
 91
        4
176
     1
 64
     7
176
     1
 65
   257
176
     1
 75
     1
176
     1
175
     1
176
     1
 42
1.0
176
     1
 92
        0
176
     1
 66
     7
176
     1
 43
1.0
176
     1
 76
     1
176
     1
 77
     6
176
     1
 78
     2
176
     1
 67
     7
176
     1
 79
     5
176
     1
170
     0
176
     1
171
     0
176
     1
290
     0
176
     1
 93
       13
176
     1
 44
0.0
176
     1
173
     0
176
     1
  0
VISUALSTYLE
  5
2E
102
{ACAD_REACTORS
330
2A
102
}
330
2A
100
AcDbVisualStyle
  2
GouraudWithEdges
 70
     3
177
     2
291
     1
 71
     2
176
     1
 72
     2
176
     1
 73
     1
176
     1
 90
        2
176
     1
 40
-0.6
176
     1
 41
30.0
176
     1
 62
     5
 63
     7
421
 16777215
176
     1
 74
     1
176
     1
 91
        4
176
     1
 64
     7
176
     1
 65
   257
176
     1
 75
     1
176
     1
175
     1
176
     1
 42
1.0
176
     1
 92
        0
176
     1
 66
   257
176
     1
 43
1.0
176
     1
 76
     1
176
     1
 77
     6
176
     1
 78
     2
176
     1
 67
     7
176
     1
 79
     5
176
     1
170
     0
176
     1
171
     0
176
     1
290
     0
176
     1
 93
       13
176
     1
 44
0.0
176
     1
173
     0
176
     1
  0
VISUALSTYLE
  5
38
102
{ACAD_REACTORS
330
2A
102
}
330
2A
100
AcDbVisualStyle
  2
Linepattern
 70
    14
177
     2
291
     1
 71
     2
176
     1
 72
     2
176
     1
 73
     0
176
     1
 90
        0
176
     1
 40
-0.6
176
     1
 41
-30.0
176
     1
 62
     5
 63
     7
421
 16777215
176
     1
 74
     1
176
     1
 91
        4
176
     1
 64
     7
176
     1
 65
   257
176
     1
 75
     7
176
     1
175
     7
176
     1
 42
1.0
176
     1
 92
        8
176
     1
 66
     7
176
     1
 43
1.0
176
     1
 76
     1
176
     1
 77
     6
176
     1
 78
     2
176
     1
 67
     7
176
     1
 79
     5
176
     1
170
     0
176
     1
171
     0
176
     1
290
     0
176
     1
 93
        1
176
     1
 44
0.0
176
     1
173
     0
176
     1
  0
VISUALSTYLE
  5
33
102
{ACAD_REACTORS
330
2A
102
}
330
2A
100
AcDbVisualStyle
  2
Realistic
 70
     8
177
     2
291
     0
 71
     2
176
     1
 72
     2
176
     1
 73
     0
176
     1
 90
        0
176
     1
 40
-0.6
176
     1
 41
-30.0
176
     1
 62
     5
 63
     7
421
 16777215
176
     1
 74
     1
176
     1
 91
        0
176
     1
 64
     7
176
     1
 65
   257
176
     1
 75
     1
176
     1
175
     1
176
     1
 42
1.0
176
     1
 92
        8
176
     1
 66
     8
424
  7895160
176
     1
 43
1.0
176
     1
 76
     1
176
     1
 77
     6
176
     1
 78
     2
176
     1
 67
     7
176
     1
 79
     5
176
     1
170
     0
176
     1
171
     0
176
     1
290
     0
176
     1
 93
       13
176
     1
 44
0.0
176
     1
173
     0
176
     1
  0
VISUALSTYLE
  5
37
102
{ACAD_REACTORS
330
2A
102
}
330
2A
100
AcDbVisualStyle
  2
Thicken
 70
    13
177
     2
291
     1
 71
     2
176
     1
 72
     2
176
     1
 73
     0
176
     1
 90
        0
176
     1
 40
-0.6
176
     1
 41
-30.0
176
     1
 62
     5
 63
     7
421
 16777215
176
     1
 74
     1
176
     1
 91
        4
176
     1
 64
     7
176
     1
 65
   257
176
     1
 75
     1
176
     1
175
     1
176
     1
 42
1.0
176
     1
 92
       12
176
     1
 66
     7
176
     1
 43
1.0
176
     1
 76
     1
176
     1
 77
     6
176
     1
 78
     2
176
     1
 67
     7
176
     1
 79
     5
176
     1
170
     0
176
     1
171
     0
176
     1
290
     0
176
     1
 93
        1
176
     1
 44
0.0
176
     1
173
     0
176
     1
  0
ENDSEC
  0
EOF
