  0
SECTION
  2
HEADER
  9
$ACADVER
  1
AC1015
  9
$ACADMAINTVER
 70
     6
  9
$DWGCODEPAGE
  3
ANSI_1252
  9
$INSBASE
 10
0.0
 20
0.0
 30
0.0
  9
$EXTMIN
 10
0.0
 20
0.0
 30
0.0
  9
$EXTMAX
 10
11.0
 20
8.5
 30
0.0
  9
$LIMMIN
 10
0.0
 20
0.0
  9
$LIMMAX
 10
11.0
 20
8.5
  9
$ORTHOMODE
 70
     0
  9
$REGENMODE
 70
     1
  9
$FILLMODE
 70
     1
  9
$QTEXTMODE
 70
     0
  9
$MIRRTEXT
 70
     1
  9
$LTSCALE
 40
1.0
  9
$ATTMODE
 70
     1
  9
$TEXTSIZE
 40
0.125
  9
$TRACEWID
 40
0.05
  9
$TEXTSTYLE
  7
Standard
  9
$CLAYER
  8
0
  9
$CELTYPE
  6
ByLayer
  9
$CECOLOR
 62
   256
  9
$CELTSCALE
 40
1.0
  9
$DISPSILH
 70
     0
  9
$DIMSCALE
 40
1.0
  9
$DIMASZ
 40
0.13
  9
$DIMEXO
 40
0.05
  9
$DIMDLI
 40
0.38
  9
$DIMRND
 40
0.0
  9
$DIMDLE
 40
0.0
  9
$DIMEXE
 40
0.125
  9
$DIMTP
 40
0.0
  9
$DIMTM
 40
0.0
  9
$DIMTXT
 40
0.125
  9
$DIMCEN
 40
0.09
  9
$DIMTSZ
 40
0.0
  9
$DIMTOL
 70
     0
  9
$DIMLIM
 70
     0
  9
$DIMTIH
 70
     1
  9
$DIMTOH
 70
     1
  9
$DIMSE1
 70
     0
  9
$DIMSE2
 70
     0
  9
$DIMTAD
 70
     0
  9
$DIMZIN
 70
     0
  9
$DIMBLK
  1

  9
$DIMASO
 70
     1
  9
$DIMSHO
 70
     1
  9
$DIMPOST
  1

  9
$DIMAPOST
  1

  9
$DIMALT
 70
     0
  9
$DIMALTD
 70
     2
  9
$DIMALTF
 40
25.4
  9
$DIMLFAC
 40
1.0
  9
$DIMTOFL
 70
     0
  9
$DIMTVP
 40
0.0
  9
$DIMTIX
 70
     0
  9
$DIMSOXD
 70
     0
  9
$DIMSAH
 70
     0
  9
$DIMBLK1
  1

  9
$DIMBLK2
  1

  9
$DIMSTYLE
  2
Standard
  9
$DIMCLRD
 70
     0
  9
$DIMCLRE
 70
     0
  9
$DIMCLRT
 70
     0
  9
$DIMTFAC
 40
1.0
  9
$DIMGAP
 40
0.06
  9
$DIMJUST
 70
     0
  9
$DIMSD1
 70
     0
  9
$DIMSD2
 70
     0
  9
$DIMTOLJ
 70
     1
  9
$DIMTZIN
 70
     0
  9
$DIMALTZ
 70
     0
  9
$DIMALTTZ
 70
     0
  9
$DIMUPT
 70
     0
  9
$DIMDEC
 70
     0
  9
$DIMTDEC
 70
     0
  9
$DIMALTU
 70
     2
  9
$DIMALTTD
 70
     2
  9
$DIMTXSTY
  7
Standard
  9
$DIMAUNIT
 70
     0
  9
$DIMADEC
 70
     0
  9
$DIMALTRND
 40
0.0
  9
$DIMAZIN
 70
     0
  9
$DIMDSEP
 70
    46
  9
$DIMATFIT
 70
     3
  9
$DIMFRAC
 70
     0
  9
$DIMLDRBLK
  1

  9
$DIMLUNIT
 70
     2
  9
$DIMLWD
 70
    -2
  9
$DIMLWE
 70
    -2
  9
$DIMTMOVE
 70
     0
  9
$LUNITS
 70
     2
  9
$LUPREC
 70
     0
  9
$SKETCHINC
 40
0.1
  9
$FILLETRAD
 40
0.5
  9
$AUNITS
 70
     0
  9
$AUPREC
 70
     0
  9
$MENU
  1
.
  9
$ELEVATION
 40
0.0
  9
$PELEVATION
 40
0.0
  9
$THICKNESS
 40
0.0
  9
$LIMCHECK
 70
     0
  9
$CHAMFERA
 40
0.5
  9
$CHAMFERB
 40
0.5
  9
$CHAMFERC
 40
1.0
  9
$CHAMFERD
 40
0.0
  9
$SKPOLY
 70
     0
  9
$TDCREATE
 40
2456009.355632616
  9
$TDUCREATE
 40
2456009.522299282
  9
$TDUPDATE
 40
2456009.355632789
  9
$TDUUPDATE
 40
2456009.522299456
  9
$TDINDWG
 40
0.0000000116
  9
$TDUSRTIMER
 40
0.0000000116
  9
$USRTIMER
 70
     1
  9
$ANGBASE
 50
0.0
  9
$ANGDIR
 70
     0
  9
$PDMODE
 70
     0
  9
$PDSIZE
 40
-1.0
  9
$PLINEWID
 40
0.0
  9
$SPLFRAME
 70
     0
  9
$SPLINETYPE
 70
     6
  9
$SPLINESEGS
 70
     8
  9
$HANDSEED
  5
C6
  9
$SURFTAB1
 70
     6
  9
$SURFTAB2
 70
     6
  9
$SURFTYPE
 70
     6
  9
$SURFU
 70
     6
  9
$SURFV
 70
     6
  9
$UCSBASE
  2

  9
$UCSNAME
  2

  9
$UCSORG
 10
0.0
 20
0.0
 30
0.0
  9
$UCSXDIR
 10
1.0
 20
0.0
 30
0.0
  9
$UCSYDIR
 10
0.0
 20
1.0
 30
0.0
  9
$UCSORTHOREF
  2

  9
$UCSORTHOVIEW
 70
     0
  9
$UCSORGTOP
 10
0.0
 20
0.0
 30
0.0
  9
$UCSORGBOTTOM
 10
0.0
 20
0.0
 30
0.0
  9
$UCSORGLEFT
 10
0.0
 20
0.0
 30
0.0
  9
$UCSORGRIGHT
 10
0.0
 20
0.0
 30
0.0
  9
$UCSORGFRONT
 10
0.0
 20
0.0
 30
0.0
  9
$UCSORGBACK
 10
0.0
 20
0.0
 30
0.0
  9
$PUCSBASE
  2

  9
$PUCSNAME
  2

  9
$PUCSORG
 10
0.0
 20
0.0
 30
0.0
  9
$PUCSXDIR
 10
1.0
 20
0.0
 30
0.0
  9
$PUCSYDIR
 10
0.0
 20
1.0
 30
0.0
  9
$PUCSORTHOREF
  2

  9
$PUCSORTHOVIEW
 70
     0
  9
$PUCSORGTOP
 10
0.0
 20
0.0
 30
0.0
  9
$PUCSORGBOTTOM
 10
0.0
 20
0.0
 30
0.0
  9
$PUCSORGLEFT
 10
0.0
 20
0.0
 30
0.0
  9
$PUCSORGRIGHT
 10
0.0
 20
0.0
 30
0.0
  9
$PUCSORGFRONT
 10
0.0
 20
0.0
 30
0.0
  9
$PUCSORGBACK
 10
0.0
 20
0.0
 30
0.0
  9
$USERI1
 70
     0
  9
$USERI2
 70
     0
  9
$USERI3
 70
     0
  9
$USERI4
 70
     0
  9
$USERI5
 70
     0
  9
$USERR1
 40
0.0
  9
$USERR2
 40
0.0
  9
$USERR3
 40
0.0
  9
$USERR4
 40
0.0
  9
$USERR5
 40
0.0
  9
$WORLDVIEW
 70
     1
  9
$SHADEDGE
 70
     3
  9
$SHADEDIF
 70
    70
  9
$TILEMODE
 70
     1
  9
$MAXACTVP
 70
    64
  9
$PINSBASE
 10
0.0
 20
0.0
 30
0.0
  9
$PLIMCHECK
 70
     0
  9
$PEXTMIN
 10
1.0000000000E+20
 20
1.0000000000E+20
 30
1.0000000000E+20
  9
$PEXTMAX
 10
-1.0000000000E+20
 20
-1.0000000000E+20
 30
-1.0000000000E+20
  9
$PLIMMIN
 10
0.0
 20
0.0
  9
$PLIMMAX
 10
12.0
 20
9.0
  9
$UNITMODE
 70
     0
  9
$VISRETAIN
 70
     1
  9
$PLINEGEN
 70
     0
  9
$PSLTSCALE
 70
     1
  9
$TREEDEPTH
 70
  3020
  9
$CMLSTYLE
  2
Standard
  9
$CMLJUST
 70
     0
  9
$CMLSCALE
 40
1.0
  9
$PROXYGRAPHICS
 70
     1
  9
$MEASUREMENT
 70
     0
  9
$CELWEIGHT
370
    -1
  9
$ENDCAPS
280
     0
  9
$JOINSTYLE
280
     0
  9
$LWDISPLAY
290
     1
  9
$INSUNITS
 70
     1
  9
$HYPERLINKBASE
  1

  9
$STYLESHEET
  1

  9
$XEDIT
290
     1
  9
$CEPSNTYPE
380
     0
  9
$PSTYLEMODE
290
     1
  9
$FINGERPRINTGUID
  2
{06032BF5-7583-4C87-A3DD-66654C03E1F7}
  9
$VERSIONGUID
  2
{FAEB1C32-E019-11D5-929B-00C0DF256EC4}
  9
$EXTNAMES
290
     1
  9
$PSVPSCALE
 40
0.0
  9
$OLESTARTUP
290
     0
  0
ENDSEC
  0
SECTION
  2
CLASSES
  0
CLASS
  1
ACDBDICTIONARYWDFLT
  2
AcDbDictionaryWithDefault
  3
ObjectDBX Classes
 90
        0
280
     0
281
     0
  0
CLASS
  1
VISUALSTYLE
  2
AcDbVisualStyle
  3
ObjectDBX Classes
 90
     4095
280
     0
281
     0
  0
CLASS
  1
MATERIAL
  2
AcDbMaterial
  3
ObjectDBX Classes
 90
     1153
280
     0
281
     0
  0
CLASS
  1
ACDBPLACEHOLDER
  2
AcDbPlaceHolder
  3
ObjectDBX Classes
 90
        0
280
     0
281
     0
  0
CLASS
  1
LAYOUT
  2
AcDbLayout
  3
ObjectDBX Classes
 90
        0
280
     0
281
     0
  0
ENDSEC
  0
SECTION
  2
TABLES
  0
TABLE
  2
VPORT
  5
8
330
0
100
AcDbSymbolTable
 70
     1
  0
VPORT
  5
29
330
8
100
AcDbSymbolTableRecord
100
AcDbViewportTableRecord
  2
*Active
 70
     0
 10
0.0
 20
0.0
 11
1.0
 21
1.0
 12
5.5
 22
4.25
 13
0.0
 23
0.0
 14
0.5
 24
0.5
 15
0.5
 25
0.5
 16
0.0
 26
0.0
 36
1.0
 17
0.0
 27
0.0
 37
0.0
 40
8.5
 41
1.2941176471
 42
50.0
 43
0.0
 44
0.0
 50
0.0
 51
0.0
 71
     0
 72
  2000
 73
     1
 74
     3
 75
     0
 76
     0
 77
     0
 78
     0
281
     0
 65
     1
110
0.0
120
0.0
130
0.0
111
1.0
121
0.0
131
0.0
112
0.0
122
1.0
132
0.0
 79
     0
146
0.0
  0
ENDTAB
  0
TABLE
  2
LTYPE
  5
5
330
0
100
AcDbSymbolTable
 70
     6
  0
LTYPE
  5
14
330
5
100
AcDbSymbolTableRecord
100
AcDbLinetypeTableRecord
  2
ByBlock
 70
     0
  3

 72
    65
 73
     0
 40
0.0
  0
LTYPE
  5
15
330
5
100
AcDbSymbolTableRecord
100
AcDbLinetypeTableRecord
  2
ByLayer
 70
     0
  3

 72
    65
 73
     0
 40
0.0
  0
LTYPE
  5
16
330
5
100
AcDbSymbolTableRecord
100
AcDbLinetypeTableRecord
  2
Continuous
 70
     0
  3
Solid line
 72
    65
 73
     0
 40
0.0
  0
LTYPE
  5
3F
330
5
100
AcDbSymbolTableRecord
100
AcDbLinetypeTableRecord
  2
HIDDEN
 70
     0
  3
Hidden __ __ __ __ __ __ __ __ __ __ __ __ __ __
 72
    65
 73
     2
 40
0.075
 49
0.05
 74
     0
 49
-0.025
 74
     0
  0
LTYPE
  5
40
330
5
100
AcDbSymbolTableRecord
100
AcDbLinetypeTableRecord
  2
PHANTOM
 70
     0
  3
Phantom ______  __  __  ______  __  __  ______
 72
    65
 73
     6
 40
0.5
 49
0.25
 74
     0
 49
-0.05
 74
     0
 49
0.05
 74
     0
 49
-0.05
 74
     0
 49
0.05
 74
     0
 49
-0.05
 74
     0
  0
LTYPE
  5
41
330
5
100
AcDbSymbolTableRecord
100
AcDbLinetypeTableRecord
  2
CENTER
 70
     0
  3
Center ____ _ ____ _ ____ _ ____ _ ____ _ ____
 72
    65
 73
     4
 40
0.4
 49
0.25
 74
     0
 49
-0.05
 74
     0
 49
0.05
 74
     0
 49
-0.05
 74
     0
  0
LTYPE
  5
42
330
5
100
AcDbSymbolTableRecord
100
AcDbLinetypeTableRecord
  2
CENTERX2
 70
     0
  3
Center (2x) ________  __  ________  __  _____
 72
    65
 73
     4
 40
0.8
 49
0.5
 74
     0
 49
-0.1
 74
     0
 49
0.1
 74
     0
 49
-0.1
 74
     0
  0
LTYPE
  5
43
330
5
100
AcDbSymbolTableRecord
100
AcDbLinetypeTableRecord
  2
DOT2
 70
     0
  3
Dot (.5x) ........................................
 72
    65
 73
     2
 40
0.025
 49
0.0
 74
     0
 49
-0.025
 74
     0
  0
ENDTAB
  0
TABLE
  2
LAYER
  5
2
330
0
100
AcDbSymbolTable
 70
     8
  0
LAYER
  5
10
330
2
100
AcDbSymbolTableRecord
100
AcDbLayerTableRecord
  2
0
 70
     0
 62
     7
  6
Continuous
370
    -3
390
F
  0
LAYER
  5
44
330
2
100
AcDbSymbolTableRecord
100
AcDbLayerTableRecord
  2
FORMAT
 70
     0
 62
     7
  6
Continuous
370
    -3
390
F
  0
LAYER
  5
45
330
2
100
AcDbSymbolTableRecord
100
AcDbLayerTableRecord
  2
DEFAULT
 70
     0
 62
   179
  6
Continuous
370
    -3
390
F
  0
LAYER
  5
46
330
2
100
AcDbSymbolTableRecord
100
AcDbLayerTableRecord
  2
INSPECTION_TAGS
 70
     0
 62
     7
  6
Continuous
370
    -3
390
F
  0
LAYER
  5
47
330
2
100
AcDbSymbolTableRecord
100
AcDbLayerTableRecord
  2
REVISIONS
 70
     0
 62
     7
  6
Continuous
370
    -3
390
F
  0
LAYER
  5
48
330
2
100
AcDbSymbolTableRecord
100
AcDbLayerTableRecord
  2
DIMENSIONS_&_ANNOTATIONS
 70
     0
 62
     7
  6
Continuous
370
    -3
390
F
  0
LAYER
  5
49
330
2
100
AcDbSymbolTableRecord
100
AcDbLayerTableRecord
  2
HIDDEN
 70
     0
 62
    -7
  6
Continuous
370
    -3
390
F
  0
LAYER
  5
4A
330
2
100
AcDbSymbolTableRecord
100
AcDbLayerTableRecord
  2
DIMENSION_&_ANNOTATIONS
 70
     0
 62
     7
  6
Continuous
370
    -3
390
F
  0
ENDTAB
  0
TABLE
  2
STYLE
  5
3
330
0
100
AcDbSymbolTable
 70
     2
  0
STYLE
  5
11
330
3
100
AcDbSymbolTableRecord
100
AcDbTextStyleTableRecord
  2
Standard
 70
     0
 40
0.0
 41
1.0
 50
0.0
 71
     0
 42
0.125
  3
txt
  4

  0
STYLE
  5
4E
330
3
100
AcDbSymbolTableRecord
100
AcDbTextStyleTableRecord
  2
SLDTEXTSTYLE0
 70
     0
 40
0.0
 41
0.75
 50
0.0
 71
     0
 42
0.2
  3
TXT
  4

  0
ENDTAB
  0
TABLE
  2
VIEW
  5
6
330
0
100
AcDbSymbolTable
 70
     0
  0
ENDTAB
  0
TABLE
  2
UCS
  5
7
330
0
100
AcDbSymbolTable
 70
     0
  0
ENDTAB
  0
TABLE
  2
APPID
  5
9
330
0
100
AcDbSymbolTable
 70
     1
  0
APPID
  5
12
330
9
100
AcDbSymbolTableRecord
100
AcDbRegAppTableRecord
  2
ACAD
 70
     0
  0
ENDTAB
  0
TABLE
  2
DIMSTYLE
  5
A
330
0
100
AcDbSymbolTable
 70
     2
100
AcDbDimStyleTable
  0
DIMSTYLE
105
27
330
A
100
AcDbSymbolTableRecord
100
AcDbDimStyleTableRecord
  2
Standard
 70
     0
178
     0
340
11
  0
DIMSTYLE
105
6B
102
{ACAD_REACTORS
330
6A
330
76
102
}
330
A
100
AcDbSymbolTableRecord
100
AcDbDimStyleTableRecord
  2
SLDDIMSTYLE0
 70
     0
 41
0.13
 44
0.0
 45
0.000000001
 78
    12
 79
     3
140
0.125
147
0.03125
173
     1
178
     0
271
     0
272
     0
276
     2
277
     5
284
    12
340
4E
  0
ENDTAB
  0
TABLE
  2
BLOCK_RECORD
  5
1
330
0
100
AcDbSymbolTable
 70
     4
  0
BLOCK_RECORD
  5
1F
330
1
100
AcDbSymbolTableRecord
100
AcDbBlockTableRecord
  2
*Model_Space
340
22
  0
BLOCK_RECORD
  5
1B
330
1
100
AcDbSymbolTableRecord
100
AcDbBlockTableRecord
  2
*Paper_Space
340
1E
  0
BLOCK_RECORD
  5
23
330
1
100
AcDbSymbolTableRecord
100
AcDbBlockTableRecord
  2
*Paper_Space0
340
26
  0
BLOCK_RECORD
  5
4B
330
1
100
AcDbSymbolTableRecord
100
AcDbBlockTableRecord
  2
SW_NOTE_0
340
0
102
{BLKREFS
331
54
102
}
  0
BLOCK_RECORD
  5
6C
330
1
100
AcDbSymbolTableRecord
100
AcDbBlockTableRecord
  2
_D
340
0
  0
BLOCK_RECORD
  5
77
330
1
100
AcDbSymbolTableRecord
100
AcDbBlockTableRecord
  2
_D_1
340
0
  0
ENDTAB
  0
ENDSEC
  0
SECTION
  2
BLOCKS
  0
BLOCK
  5
20
330
1F
100
AcDbEntity
  8
0
100
AcDbBlockBegin
  2
*Model_Space
 70
     0
 10
0.0
 20
0.0
 30
0.0
  3
*Model_Space
  1

  0
ENDBLK
  5
21
330
1F
100
AcDbEntity
  8
0
100
AcDbBlockEnd
  0
BLOCK
  5
1C
330
1B
100
AcDbEntity
 67
     1
  8
0
100
AcDbBlockBegin
  2
*Paper_Space
 70
     0
 10
0.0
 20
0.0
 30
0.0
  3
*Paper_Space
  1

  0
ENDBLK
  5
1D
330
1B
100
AcDbEntity
 67
     1
  8
0
100
AcDbBlockEnd
  0
BLOCK
  5
24
330
23
100
AcDbEntity
  8
0
100
AcDbBlockBegin
  2
*Paper_Space0
 70
     0
 10
0.0
 20
0.0
 30
0.0
  3
*Paper_Space0
  1

  0
ENDBLK
  5
25
330
23
100
AcDbEntity
  8
0
100
AcDbBlockEnd
  0
BLOCK
  5
4C
330
4B
100
AcDbEntity
  8
0
100
AcDbBlockBegin
  2
SW_NOTE_0
 70
     0
 10
0.0
 20
0.0
 30
0.0
  3
SW_NOTE_0
  1

  0
MTEXT
  5
4F
330
4B
100
AcDbEntity
  8
DEFAULT
 62
     0
100
AcDbMText
 10
1.80078125
 20
0.3222669349
 30
0.0
 40
0.25
 41
0.0
 71
     2
 72
     1
  1
WIREMOLD / LEGRAND
  7
SLDTEXTSTYLE0
 73
     1
 44
1.0
  0
MTEXT
  5
50
330
4B
100
AcDbEntity
  8
DEFAULT
 62
     0
100
AcDbMText
 10
1.8121527354
 20
-0.000996964
 30
0.0
 40
0.25
 41
0.0
 71
     2
 72
     1
  1
SYSTEM: AVIP
  7
SLDTEXTSTYLE0
 73
     1
 44
1.0
  0
MTEXT
  5
51
330
4B
100
AcDbEntity
  8
DEFAULT
 62
     0
100
AcDbMText
 10
1.7675347776
 20
-0.324260863
 30
0.0
 40
0.25
 41
0.0
 71
     2
 72
     1
  1
CATALOG NUMBER: AV9016
  7
SLDTEXTSTYLE0
 73
     1
 44
1.0
  0
MTEXT
  5
52
330
4B
100
AcDbEntity
  8
DEFAULT
 62
     0
100
AcDbMText
 10
1.812413119
 20
-0.6475247619
 30
0.0
 40
0.25
 41
0.0
 71
     2
 72
     1
  1
SCALE 1:1
  7
SLDTEXTSTYLE0
 73
     1
 44
1.0
  0
MTEXT
  5
53
330
4B
100
AcDbEntity
  8
DEFAULT
 62
     0
100
AcDbMText
 10
1.8154512929
 20
-0.9707886609
 30
0.0
 40
0.25
 41
0.0
 71
     2
 72
     1
  1
03/22/12
  7
SLDTEXTSTYLE0
 73
     1
 44
1.0
  0
ENDBLK
  5
4D
330
4B
100
AcDbEntity
  8
0
100
AcDbBlockEnd
  0
BLOCK
  5
6D
330
6C
100
AcDbEntity
  8
0
100
AcDbBlockBegin
  2
_D
 70
     0
 10
0.0
 20
0.0
 30
0.0
  3
_D
  1

  0
SOLID
  5
6F
330
6C
100
AcDbEntity
  8
DEFAULT
 62
     7
100
AcDbTrace
 10
2.3981246545
 20
4.2474056313
 30
0.0
 11
2.3781246545
 21
4.1174056313
 31
0.0
 12
2.4181246545
 22
4.1174056313
 32
0.0
 13
2.4181246545
 23
4.1174056313
 33
0.0
  0
SOLID
  5
70
330
6C
100
AcDbEntity
  8
DEFAULT
 62
     7
100
AcDbTrace
 10
2.3981246545
 20
2.8624056313
 30
0.0
 11
2.4181246545
 21
2.9924056313
 31
0.0
 12
2.3781246545
 22
2.9924056313
 32
0.0
 13
2.3781246545
 23
2.9924056313
 33
0.0
  0
LINE
  5
71
330
6C
100
AcDbEntity
  8
DEFAULT
 62
     7
100
AcDbLine
 10
3.0400459144
 20
4.2474056313
 30
0.0
 11
2.2731246545
 21
4.2474056313
 31
0.0
  0
LINE
  5
72
330
6C
100
AcDbEntity
  8
DEFAULT
 62
     7
100
AcDbLine
 10
3.0400459144
 20
2.8624056313
 30
0.0
 11
2.2731246545
 21
2.8624056313
 31
0.0
  0
LINE
  5
73
330
6C
100
AcDbEntity
  8
DEFAULT
 62
     7
100
AcDbLine
 10
2.3981246545
 20
4.2474056313
 30
0.0
 11
2.3981246545
 21
3.6541243843
 31
0.0
  0
LINE
  5
74
330
6C
100
AcDbEntity
  8
DEFAULT
 62
     7
100
AcDbLine
 10
2.3981246545
 20
2.8624056313
 30
0.0
 11
2.3981246545
 21
3.4556868783
 31
0.0
  0
MTEXT
  5
75
330
6C
100
AcDbEntity
  8
DEFAULT
 62
     7
100
AcDbMText
 10
2.123471889
 20
3.6168203595
 30
5.2048684543
 40
0.125
 41
0.0
 71
     1
 72
     1
  1
1 3/8"
  7
SLDTEXTSTYLE0
 73
     1
 44
1.0
  0
ENDBLK
  5
6E
330
6C
100
AcDbEntity
  8
0
100
AcDbBlockEnd
  0
BLOCK
  5
78
330
77
100
AcDbEntity
  8
0
100
AcDbBlockBegin
  2
_D_1
 70
     0
 10
0.0
 20
0.0
 30
0.0
  3
_D_1
  1

  0
SOLID
  5
7A
330
77
100
AcDbEntity
  8
DEFAULT
 62
     7
100
AcDbTrace
 10
3.0280459144
 20
4.6411064187
 30
0.0
 11
3.1580459144
 21
4.6211064187
 31
0.0
 12
3.1580459144
 22
4.6611064187
 32
0.0
 13
3.1580459144
 23
4.6611064187
 33
0.0
  0
SOLID
  5
7B
330
77
100
AcDbEntity
  8
DEFAULT
 62
     7
100
AcDbTrace
 10
5.2040459144
 20
4.6411064187
 30
0.0
 11
5.0740459144
 21
4.6611064187
 31
0.0
 12
5.0740459144
 22
4.6211064187
 32
0.0
 13
5.0740459144
 23
4.6211064187
 33
0.0
  0
LINE
  5
7C
330
77
100
AcDbEntity
  8
DEFAULT
 62
     7
100
AcDbLine
 10
3.0280459144
 20
4.2354056313
 30
0.0
 11
3.0280459144
 21
4.7661064187
 31
0.0
  0
LINE
  5
7D
330
77
100
AcDbEntity
  8
DEFAULT
 62
     7
100
AcDbLine
 10
5.2040459144
 20
4.2354056313
 30
0.0
 11
5.2040459144
 21
4.7661064187
 31
0.0
  0
LINE
  5
7E
330
77
100
AcDbEntity
  8
DEFAULT
 62
     7
100
AcDbLine
 10
3.0280459144
 20
4.6411064187
 30
0.0
 11
3.8413931488
 21
4.6411064187
 31
0.0
  0
LINE
  5
7F
330
77
100
AcDbEntity
  8
DEFAULT
 62
     7
100
AcDbLine
 10
5.2040459144
 20
4.6411064187
 30
0.0
 11
4.3906986799
 21
4.6411064187
 31
0.0
  0
MTEXT
  5
80
330
77
100
AcDbEntity
  8
DEFAULT
 62
     7
100
AcDbMText
 10
3.8413931488
 20
4.7030211469
 30
5.2048684543
 40
0.125
 41
0.0
 71
     1
 72
     1
  1
2 1/8"
  7
SLDTEXTSTYLE0
 73
     1
 44
1.0
  0
ENDBLK
  5
79
330
77
100
AcDbEntity
  8
0
100
AcDbBlockEnd
  0
ENDSEC
  0
SECTION
  2
ENTITIES
  0
INSERT
  5
54
330
1F
100
AcDbEntity
  8
DEFAULT
100
AcDbBlockReference
  2
SW_NOTE_0
 10
3.2646872499
 20
1.7647025865
 30
0.0
  0
LINE
  5
55
330
1F
100
AcDbEntity
  8
0
  6
Continuous
 62
     7
370
    15
100
AcDbLine
 10
4.676907858
 20
3.1865509673
 30
0.0
 11
4.635607858
 21
3.1397509673
 31
0.0
  0
ARC
  5
56
330
1F
100
AcDbEntity
  8
0
  6
Continuous
 62
     7
370
    15
100
AcDbCircle
 10
4.6300459144
 20
3.2279056313
 30
0.0
 40
0.0625000000000001
100
AcDbArc
 50
318.5722854894
 51
138.5722854894
  0
LINE
  5
57
330
1F
100
AcDbEntity
  8
0
  6
Continuous
 62
     7
370
    15
100
AcDbLine
 10
4.5418839707
 20
3.2224602953
 30
0.0
 11
4.5831839707
 21
3.2692602953
 31
0.0
  0
ARC
  5
58
330
1F
100
AcDbEntity
  8
0
  6
Continuous
 62
     7
370
    15
100
AcDbCircle
 10
4.5887459144
 20
3.1811056313
 30
0.0
 40
0.0625000000000001
100
AcDbArc
 50
138.5722854894
 51
318.5722854894
  0
LINE
  5
59
330
1F
100
AcDbEntity
  8
0
  6
Continuous
 62
     7
370
    15
100
AcDbLine
 10
3.690207858
 20
3.8873509673
 30
0.0
 11
3.648907858
 21
3.8405509673
 31
0.0
  0
ARC
  5
5A
330
1F
100
AcDbEntity
  8
0
  6
Continuous
 62
     7
370
    15
100
AcDbCircle
 10
3.6433459144
 20
3.9287056313
 30
0.0
 40
0.0625000000000008
100
AcDbArc
 50
318.5722854894
 51
138.5722854894
  0
LINE
  5
5B
330
1F
100
AcDbEntity
  8
0
  6
Continuous
 62
     7
370
    15
100
AcDbLine
 10
3.5551839707
 20
3.9232602953
 30
0.0
 11
3.5964839707
 21
3.9700602953
 31
0.0
  0
ARC
  5
5C
330
1F
100
AcDbEntity
  8
0
  6
Continuous
 62
     7
370
    15
100
AcDbCircle
 10
3.6020459144
 20
3.8819056313
 30
0.0
 40
0.0625000000000001
100
AcDbArc
 50
138.5722854894
 51
318.5722854894
  0
CIRCLE
  5
5D
330
1F
100
AcDbEntity
  8
0
  6
Continuous
 62
     7
370
    15
100
AcDbCircle
 10
4.1160459144
 20
3.5549056313
 30
0.0
 40
0.4724409448818898
  0
CIRCLE
  5
5E
330
1F
100
AcDbEntity
  8
0
  6
Continuous
 62
     7
370
    15
100
AcDbCircle
 10
3.2155459144
 20
3.2024056313
 30
0.0
 40
0.0624999999999996
  0
CIRCLE
  5
5F
330
1F
100
AcDbEntity
  8
0
  6
Continuous
 62
     7
370
    15
100
AcDbCircle
 10
5.0165459144
 20
3.2024056313
 30
0.0
 40
0.0624999999999996
  0
CIRCLE
  5
60
330
1F
100
AcDbEntity
  8
0
  6
Continuous
 62
     7
370
    15
100
AcDbCircle
 10
5.0165459144
 20
3.9074056313
 30
0.0
 40
0.0624999999999996
  0
CIRCLE
  5
61
330
1F
100
AcDbEntity
  8
0
  6
Continuous
 62
     7
370
    15
100
AcDbCircle
 10
3.2155459144
 20
3.9074056313
 30
0.0
 40
0.0624999999999996
  0
ARC
  5
62
330
1F
100
AcDbEntity
  8
0
  6
Continuous
 62
     7
370
    15
100
AcDbCircle
 10
3.0900459144
 20
2.9244056313
 30
0.0
 40
0.0620000000000003
100
AcDbArc
 50
180.0
 51
270.0
  0
LINE
  5
63
330
1F
100
AcDbEntity
  8
0
  6
Continuous
 62
     7
370
    15
100
AcDbLine
 10
3.0280459144
 20
4.1854056313
 30
0.0
 11
3.0280459144
 21
2.9244056313
 31
0.0
  0
ARC
  5
64
330
1F
100
AcDbEntity
  8
0
  6
Continuous
 62
     7
370
    15
100
AcDbCircle
 10
3.0900459144
 20
4.1854056313
 30
0.0
 40
0.0620000000000003
100
AcDbArc
 50
90.0
 51
180.0
  0
LINE
  5
65
330
1F
100
AcDbEntity
  8
0
  6
Continuous
 62
     7
370
    15
100
AcDbLine
 10
5.1420459144
 20
4.2474056313
 30
0.0
 11
3.0900459144
 21
4.2474056313
 31
0.0
  0
ARC
  5
66
330
1F
100
AcDbEntity
  8
0
  6
Continuous
 62
     7
370
    15
100
AcDbCircle
 10
5.1420459144
 20
4.1854056313
 30
0.0
 40
0.0620000000000012
100
AcDbArc
 50
0.0
 51
90.0
  0
LINE
  5
67
330
1F
100
AcDbEntity
  8
0
  6
Continuous
 62
     7
370
    15
100
AcDbLine
 10
5.2040459144
 20
2.9244056313
 30
0.0
 11
5.2040459144
 21
4.1854056313
 31
0.0
  0
ARC
  5
68
330
1F
100
AcDbEntity
  8
0
  6
Continuous
 62
     7
370
    15
100
AcDbCircle
 10
5.1420459144
 20
2.9244056313
 30
0.0
 40
0.0620000000000003
100
AcDbArc
 50
270.0
 51
0.0
  0
LINE
  5
69
330
1F
100
AcDbEntity
  8
0
  6
Continuous
 62
     7
370
    15
100
AcDbLine
 10
3.0900459144
 20
2.8624056313
 30
0.0
 11
5.1420459144
 21
2.8624056313
 31
0.0
  0
DIMENSION
  5
6A
330
1F
100
AcDbEntity
  8
DEFAULT
 62
     7
100
AcDbDimension
  2
_D
 10
2.3981246545
 20
2.8624056313
 30
0.0
 11
2.3981246545
 21
3.5549056313
 31
0.0
 70
   160
  1
<>
 71
     2
 42
-1.0
  3
SLDDIMSTYLE0
100
AcDbAlignedDimension
 13
3.0900459144
 23
4.2474056313
 33
0.0
 14
3.0900459144
 24
2.8624056313
 34
0.0
 50
90.0
100
AcDbRotatedDimension
  0
DIMENSION
  5
76
330
1F
100
AcDbEntity
  8
DEFAULT
 62
     7
100
AcDbDimension
  2
_D_1
 10
5.2040459144
 20
4.6411064187
 30
0.0
 11
4.1160459144
 21
4.6411064187
 31
0.0
 70
   160
  1
<>
 71
     2
 42
-1.0
  3
SLDDIMSTYLE0
100
AcDbAlignedDimension
 13
3.0280459144
 23
4.1854056313
 33
0.0
 14
5.2040459144
 24
4.1854056313
 34
0.0
100
AcDbRotatedDimension
  0
MTEXT
  5
81
330
1F
100
AcDbEntity
  8
DEFAULT
 62
     7
100
AcDbMText
 10
3.9025650497
 20
2.6530815726
 30
0.0
 40
0.125
 41
0.0
 71
     1
 72
     1
  1
FRONT
  7
SLDTEXTSTYLE0
 73
     1
 44
1.0
  0
LINE
  5
82
330
1F
100
AcDbEntity
  8
0
  6
Continuous
 62
     7
370
    15
100
AcDbLine
 10
3.0280459144
 20
6.3979054342
 30
0.0
 11
3.0280459144
 21
6.4479054342
 31
0.0
  0
LINE
  5
83
330
1F
100
AcDbEntity
  8
0
  6
Continuous
 62
     7
370
    15
100
AcDbLine
 10
3.0900459144
 20
6.4479054342
 30
0.0
 11
3.0900459144
 21
6.3979054342
 31
0.0
  0
LINE
  5
84
330
1F
100
AcDbEntity
  8
0
  6
Continuous
 62
     7
370
    15
100
AcDbLine
 10
3.0900459144
 20
6.3979054342
 30
0.0
 11
3.0280459144
 21
6.3979054342
 31
0.0
  0
LINE
  5
85
330
1F
100
AcDbEntity
  8
0
  6
Continuous
 62
     7
370
    15
100
AcDbLine
 10
3.0280459144
 20
6.4479054342
 30
0.0
 11
3.0900459144
 21
6.4479054342
 31
0.0
  0
LINE
  5
86
330
1F
100
AcDbEntity
  8
0
  6
Continuous
 62
     7
370
    15
100
AcDbLine
 10
5.1420459144
 20
6.3979054342
 30
0.0
 11
5.1420459144
 21
6.4479054342
 31
0.0
  0
LINE
  5
87
330
1F
100
AcDbEntity
  8
0
  6
Continuous
 62
     7
370
    15
100
AcDbLine
 10
5.1420459144
 20
6.3979054342
 30
0.0
 11
3.0900459144
 21
6.3979054342
 31
0.0
  0
LINE
  5
88
330
1F
100
AcDbEntity
  8
0
  6
Continuous
 62
     7
370
    15
100
AcDbLine
 10
5.1420459144
 20
6.4479054342
 30
0.0
 11
3.0900459144
 21
6.4479054342
 31
0.0
  0
LINE
  5
89
330
1F
100
AcDbEntity
  8
0
  6
Continuous
 62
     7
370
    15
100
AcDbLine
 10
5.2040459144
 20
6.4479054342
 30
0.0
 11
5.2040459144
 21
6.3979054342
 31
0.0
  0
LINE
  5
8A
330
1F
100
AcDbEntity
  8
0
  6
Continuous
 62
     7
370
    15
100
AcDbLine
 10
5.2040459144
 20
6.3979054342
 30
0.0
 11
5.1420459144
 21
6.3979054342
 31
0.0
  0
LINE
  5
8B
330
1F
100
AcDbEntity
  8
0
  6
Continuous
 62
     7
370
    15
100
AcDbLine
 10
5.1420459144
 20
6.4479054342
 30
0.0
 11
5.2040459144
 21
6.4479054342
 31
0.0
  0
MTEXT
  5
8C
330
1F
100
AcDbEntity
  8
DEFAULT
 62
     7
100
AcDbMText
 10
4.018152337
 20
5.9746943441
 30
0.0
 40
0.125
 41
0.0
 71
     1
 72
     1
  1
TOP
  7
SLDTEXTSTYLE0
 73
     1
 44
1.0
  0
LINE
  5
8D
330
1F
100
AcDbEntity
  8
0
  6
Continuous
 62
     7
370
    15
100
AcDbLine
 10
7.5228344126
 20
4.1854056313
 30
0.0
 11
7.4728344126
 21
4.1854056313
 31
0.0
  0
LINE
  5
8E
330
1F
100
AcDbEntity
  8
0
  6
Continuous
 62
     7
370
    15
100
AcDbLine
 10
7.5228344126
 20
2.9244056313
 30
0.0
 11
7.5228344126
 21
4.1854056313
 31
0.0
  0
LINE
  5
8F
330
1F
100
AcDbEntity
  8
0
  6
Continuous
 62
     7
370
    15
100
AcDbLine
 10
7.4728344126
 20
2.9244056313
 30
0.0
 11
7.5228344126
 21
2.9244056313
 31
0.0
  0
LINE
  5
90
330
1F
100
AcDbEntity
  8
0
  6
Continuous
 62
     7
370
    15
100
AcDbLine
 10
7.4728344126
 20
2.9244056313
 30
0.0
 11
7.4728344126
 21
4.1854056313
 31
0.0
  0
LINE
  5
91
330
1F
100
AcDbEntity
  8
0
  6
Continuous
 62
     7
370
    15
100
AcDbLine
 10
7.5228344126
 20
2.9244056313
 30
0.0
 11
7.5228344126
 21
2.8624056313
 31
0.0
  0
LINE
  5
92
330
1F
100
AcDbEntity
  8
0
  6
Continuous
 62
     7
370
    15
100
AcDbLine
 10
7.5228344126
 20
2.8624056313
 30
0.0
 11
7.4728344126
 21
2.8624056313
 31
0.0
  0
LINE
  5
93
330
1F
100
AcDbEntity
  8
0
  6
Continuous
 62
     7
370
    15
100
AcDbLine
 10
7.4728344126
 20
2.8624056313
 30
0.0
 11
7.4728344126
 21
2.9244056313
 31
0.0
  0
LINE
  5
94
330
1F
100
AcDbEntity
  8
0
  6
Continuous
 62
     7
370
    15
100
AcDbLine
 10
7.4728344126
 20
4.2474056313
 30
0.0
 11
7.5228344126
 21
4.2474056313
 31
0.0
  0
LINE
  5
95
330
1F
100
AcDbEntity
  8
0
  6
Continuous
 62
     7
370
    15
100
AcDbLine
 10
7.5228344126
 20
4.2474056313
 30
0.0
 11
7.5228344126
 21
4.1854056313
 31
0.0
  0
LINE
  5
96
330
1F
100
AcDbEntity
  8
0
  6
Continuous
 62
     7
370
    15
100
AcDbLine
 10
7.4728344126
 20
4.1854056313
 30
0.0
 11
7.4728344126
 21
4.2474056313
 31
0.0
  0
MTEXT
  5
97
330
1F
100
AcDbEntity
  8
DEFAULT
 62
     7
100
AcDbMText
 10
7.0869749521
 20
2.5907843342
 30
0.0
 40
0.125
 41
0.0
 71
     1
 72
     1
  1
RIGHT SIDE
  7
SLDTEXTSTYLE0
 73
     1
 44
1.0
  0
LINE
  5
98
330
1F
100
AcDbEntity
  8
0
  6
Continuous
 62
     7
370
    15
100
AcDbLine
 10
8.1680418191
 20
5.3280125466
 30
0.0
 11
8.2033971581
 21
5.3484227494
 31
0.0
  0
LINE
  5
99
330
1F
100
AcDbEntity
  8
0
  6
Continuous
 62
     7
370
    15
100
AcDbLine
 10
6.6904190817
 20
7.3231054948
 30
0.0
 11
6.6550637427
 21
7.302695292
 31
0.0
  0
LINE
  5
9A
330
1F
100
AcDbEntity
  8
0
  6
Continuous
 62
     7
370
    15
100
AcDbLine
 10
7.8081420646
 20
5.7856311827
 30
0.0
 11
7.7789385545
 21
5.7642759002
 31
0.0
  0
LWPOLYLINE
  5
9B
330
1F
100
AcDbEntity
  8
0
  6
Continuous
 62
     7
370
    15
100
AcDbPolyline
 90
       17
 70
   128
 43
0.0
 10
7.7418692682
 20
5.8914251955
 10
7.7482108379
 20
5.8945805176
 10
7.7555821178
 20
5.8955817802
 10
7.7636998338
 20
5.8943905052
 10
7.7722520265
 20
5.8910524728
 10
7.7809100402
 20
5.8856959616
 10
7.789341152
 20
5.8785268194
 10
7.7972213592
 20
5.8698205522
 10
7.8042478297
 20
5.8599117371
 10
7.8101505404
 20
5.8491811642
 10
7.8147026532
 20
5.8380412034
 10
7.8177292331
 20
5.8269199573
 10
7.8191139702
 20
5.8162448089
 10
7.81880365
 20
5.8064259984
 10
7.8168101979
 20
5.7978408571
 10
7.813210221
 20
5.7908193071
 10
7.8081420646
 20
5.7856311827
  0
LINE
  5
9C
330
1F
100
AcDbEntity
  8
0
  6
Continuous
 62
     7
370
    15
100
AcDbLine
 10
7.7126657582
 20
5.870069913
 30
0.0
 11
7.7418692682
 21
5.8914251955
 31
0.0
  0
LWPOLYLINE
  5
9D
330
1F
100
AcDbEntity
  8
0
  6
Continuous
 62
     7
370
    15
100
AcDbPolyline
 90
       17
 70
   128
 43
0.0
 10
7.7789385545
 20
5.7642759002
 10
7.7725969848
 20
5.7611205781
 10
7.7652257049
 20
5.7601193155
 10
7.757107989
 20
5.7613105905
 10
7.7485557962
 20
5.7646486229
 10
7.7398977826
 20
5.7700051341
 10
7.7314666707
 20
5.7771742763
 10
7.7235864636
 20
5.7858805435
 10
7.716559993
 20
5.7957893586
 10
7.7106572824
 20
5.8065199315
 10
7.7061051696
 20
5.8176598923
 10
7.7030785897
 20
5.8287811384
 10
7.7016938525
 20
5.8394562867
 10
7.7020041727
 20
5.8492750973
 10
7.7039976249
 20
5.8578602386
 10
7.7075976017
 20
5.8648817886
 10
7.7126657582
 20
5.870069913
  0
LINE
  5
9E
330
1F
100
AcDbEntity
  8
0
  6
Continuous
 62
     7
370
    15
100
AcDbLine
 10
7.1104398036
 20
6.7606379256
 30
0.0
 11
7.0812362935
 21
6.7392826431
 31
0.0
  0
LWPOLYLINE
  5
9F
330
1F
100
AcDbEntity
  8
0
  6
Continuous
 62
     7
370
    15
100
AcDbPolyline
 90
       17
 70
   128
 43
0.0
 10
7.0441670072
 20
6.8664319384
 10
7.0505085769
 20
6.8695872605
 10
7.0578798568
 20
6.8705885231
 10
7.0659975728
 20
6.8693972481
 10
7.0745497655
 20
6.8660592157
 10
7.0832077792
 20
6.8607027045
 10
7.091638891
 20
6.8535335623
 10
7.0995190982
 20
6.8448272951
 10
7.1065455687
 20
6.83491848
 10
7.1124482794
 20
6.8241879071
 10
7.1170003922
 20
6.8130479464
 10
7.1200269721
 20
6.8019267002
 10
7.1214117092
 20
6.7912515519
 10
7.121101389
 20
6.7814327414
 10
7.1191079369
 20
6.7728476
 10
7.11550796
 20
6.76582605
 10
7.1104398036
 20
6.7606379256
  0
LINE
  5
A0
330
1F
100
AcDbEntity
  8
0
  6
Continuous
 62
     7
370
    15
100
AcDbLine
 10
7.0149634972
 20
6.8450766559
 30
0.0
 11
7.0441670072
 21
6.8664319384
 31
0.0
  0
LWPOLYLINE
  5
A1
330
1F
100
AcDbEntity
  8
0
  6
Continuous
 62
     7
370
    15
100
AcDbPolyline
 90
       17
 70
   128
 43
0.0
 10
7.0812362935
 20
6.7392826431
 10
7.0748947238
 20
6.736127321
 10
7.0675234439
 20
6.7351260585
 10
7.059405728
 20
6.7363173334
 10
7.0508535352
 20
6.7396553658
 10
7.0421955216
 20
6.745011877
 10
7.0337644097
 20
6.7521810193
 10
7.0258842026
 20
6.7608872864
 10
7.018857732
 20
6.7707961016
 10
7.0129550214
 20
6.7815266744
 10
7.0084029086
 20
6.7926666352
 10
7.0053763287
 20
6.8037878813
 10
7.0039915915
 20
6.8144630297
 10
7.0043019117
 20
6.8242818402
 10
7.0062953639
 20
6.8328669815
 10
7.0098953407
 20
6.8398885315
 10
7.0149634972
 20
6.8450766559
  0
LWPOLYLINE
  5
A2
330
1F
100
AcDbEntity
  8
0
  6
Continuous
 62
     7
370
    15
100
AcDbPolyline
 90
       91
 70
   128
 43
0.0
 10
7.4115527809
 20
6.701121232
 10
7.4348560607
 20
6.6867288251
 10
7.4580458093
 20
6.670527117
 10
7.4810090485
 20
6.6525950408
 10
7.5036339038
 20
6.6330199598
 10
7.525810149
 20
6.6118972417
 10
7.5474297439
 20
6.5893297944
 10
7.5683873599
 20
6.5654275642
 10
7.5885808936
 20
6.5403070002
 10
7.6079119641
 20
6.5140904875
 10
7.6262863924
 20
6.4869057502
 10
7.6436146601
 20
6.4588852297
 10
7.6598123457
 20
6.430165439
 10
7.6748005356
 20
6.4008862981
 10
7.6885062089
 20
6.3711904521
 10
7.700862593
 20
6.3412225761
 10
7.7118094888
 20
6.3111286706
 10
7.721293564
 20
6.2810553501
 10
7.7292686133
 20
6.2511491288
 10
7.735695783
 20
6.2215557068
 10
7.7405437605
 20
6.1924192602
 10
7.7437889271
 20
6.1638817389
 10
7.7454154726
 20
6.1360821749
 10
7.7454154726
 20
6.1091560048
 10
7.7437889271
 20
6.0832344102
 10
7.7405437605
 20
6.0584436785
 10
7.735695783
 20
6.0349045877
 10
7.7292686133
 20
6.0127318178
 10
7.721293564
 20
5.9920333924
 10
7.7118094888
 20
5.9729101521
 10
7.700862593
 20
5.9554552634
 10
7.6885062089
 20
5.9397537648
 10
7.6748005356
 20
5.9258821524
 10
7.6598123457
 20
5.9139080073
 10
7.6436146601
 20
5.9038896663
 10
7.6262863924
 20
5.8958759378
 10
7.6079119641
 20
5.8899058638
 10
7.5885808936
 20
5.8860085301
 10
7.5683873599
 20
5.8842029238
 10
7.5474297439
 20
5.884497842
 10
7.525810149
 20
5.8868918476
 10
7.5036339038
 20
5.8913732773
 10
7.4810090485
 20
5.8979202981
 10
7.4580458093
 20
5.9065010136
 10
7.4348560607
 20
5.9170736193
 10
7.4115527809
 20
5.9295866066
 10
7.388249501
 20
5.9439790135
 10
7.3650597525
 20
5.9601807216
 10
7.3420965132
 20
5.9781127978
 10
7.319471658
 20
5.9976878788
 10
7.2972954127
 20
6.0188105969
 10
7.2756758178
 20
6.0413780442
 10
7.2547182018
 20
6.0652802745
 10
7.2345246682
 20
6.0904008384
 10
7.2151935977
 20
6.1166173511
 10
7.1968191694
 20
6.1438020884
 10
7.1794909016
 20
6.1718226089
 10
7.1632932161
 20
6.2005423996
 10
7.1483050261
 20
6.2298215405
 10
7.1345993528
 20
6.2595173865
 10
7.1222429687
 20
6.2894852625
 10
7.111296073
 20
6.319579168
 10
7.1018119977
 20
6.3496524885
 10
7.0938369484
 20
6.3795587098
 10
7.0874097788
 20
6.4091521318
 10
7.0825618012
 20
6.4382885784
 10
7.0793166346
 20
6.4668260997
 10
7.0776900891
 20
6.4946256637
 10
7.0776900891
 20
6.5215518338
 10
7.0793166346
 20
6.5474734284
 10
7.0825618012
 20
6.5722641601
 10
7.0874097788
 20
6.5958032509
 10
7.0938369484
 20
6.6179760208
 10
7.1018119977
 20
6.6386744462
 10
7.111296073
 20
6.6577976865
 10
7.1222429687
 20
6.6752525752
 10
7.1345993528
 20
6.6909540738
 10
7.1483050261
 20
6.7048256862
 10
7.1632932161
 20
6.7167998313
 10
7.1794909016
 20
6.7268181723
 10
7.1968191694
 20
6.7348319008
 10
7.2151935977
 20
6.7408019748
 10
7.2345246682
 20
6.7446993086
 10
7.2547182018
 20
6.7465049148
 10
7.2756758178
 20
6.7462099967
 10
7.2972954127
 20
6.7438159911
 10
7.319471658
 20
6.7393345613
 10
7.3420965132
 20
6.7327875405
 10
7.3650597525
 20
6.724206825
 10
7.388249501
 20
6.7136342193
 10
7.4115527809
 20
6.701121232
  0
LWPOLYLINE
  5
A3
330
1F
100
AcDbEntity
  8
0
  6
Continuous
 62
     7
370
    15
100
AcDbPolyline
 90
       33
 70
   128
 43
0.0
 10
6.7748031244
 20
6.3440772347
 10
6.78342498
 20
6.3400805436
 10
6.7917155025
 20
6.3381986434
 10
6.7993560919
 20
6.3385038545
 10
6.8060531244
 20
6.3409844479
 10
6.811549237
 20
6.3455450956
 10
6.8156332171
 20
6.3520105347
 10
6.8181481196
 20
6.3601323018
 10
6.8189972982
 20
6.369598282
 10
6.8181481196
 20
6.380044703
 10
6.8156332171
 20
6.3910701147
 10
6.811549237
 20
6.4022508168
 10
6.8060531244
 20
6.413157141
 10
6.7993560919
 20
6.4233699636
 10
6.7917155025
 20
6.4324968114
 10
6.78342498
 20
6.4401869447
 10
6.7748031244
 20
6.4461448362
 10
6.7661812688
 20
6.4501415273
 10
6.7578907463
 20
6.4520234275
 10
6.750250157
 20
6.4517182164
 10
6.7435531244
 20
6.449237623
 10
6.7380570118
 20
6.4446769753
 10
6.7339730318
 20
6.4382115363
 10
6.7314581292
 20
6.4300897692
 10
6.7306089506
 20
6.420623789
 10
6.7314581292
 20
6.4101773679
 10
6.7339730318
 20
6.3991519562
 10
6.7380570118
 20
6.3879712542
 10
6.7435531244
 20
6.3770649299
 10
6.750250157
 20
6.3668521074
 10
6.7578907463
 20
6.3577252596
 10
6.7661812688
 20
6.3500351262
 10
6.7748031244
 20
6.3440772347
  0
LWPOLYLINE
  5
A4
330
1F
100
AcDbEntity
  8
0
  6
Continuous
 62
     7
370
    15
100
AcDbPolyline
 90
       33
 70
   128
 43
0.0
 10
8.0483024373
 20
5.60890173
 10
8.0569242929
 20
5.6049050389
 10
8.0652148155
 20
5.6030231387
 10
8.0728554048
 20
5.6033283498
 10
8.0795524373
 20
5.6058089432
 10
8.0850485499
 20
5.6103695909
 10
8.08913253
 20
5.61683503
 10
8.0916474325
 20
5.6249567971
 10
8.0924966111
 20
5.6344227773
 10
8.0916474325
 20
5.6448691983
 10
8.08913253
 20
5.65589461
 10
8.0850485499
 20
5.6670753121
 10
8.0795524373
 20
5.6779816363
 10
8.0728554048
 20
5.6881944589
 10
8.0652148155
 20
5.6973213067
 10
8.0569242929
 20
5.70501144
 10
8.0483024373
 20
5.7109693315
 10
8.0396805817
 20
5.7149660226
 10
8.0313900592
 20
5.7168479228
 10
8.0237494699
 20
5.7165427117
 10
8.0170524373
 20
5.7140621183
 10
8.0115563247
 20
5.7095014706
 10
8.0074723447
 20
5.7030360316
 10
8.0049574422
 20
5.6949142645
 10
8.0041082635
 20
5.6854482843
 10
8.0049574422
 20
5.6750018632
 10
8.0074723447
 20
5.6639764515
 10
8.0115563247
 20
5.6527957495
 10
8.0170524373
 20
5.6418894252
 10
8.0237494699
 20
5.6316766027
 10
8.0313900592
 20
5.6225497549
 10
8.0396805817
 20
5.6148596215
 10
8.0483024373
 20
5.60890173
  0
LWPOLYLINE
  5
A5
330
1F
100
AcDbEntity
  8
0
  6
Continuous
 62
     7
370
    15
100
AcDbPolyline
 90
       33
 70
   128
 43
0.0
 10
8.0483024373
 20
6.1845630024
 10
8.0569242929
 20
6.1805663113
 10
8.0652148155
 20
6.1786844111
 10
8.0728554048
 20
6.1789896222
 10
8.0795524373
 20
6.1814702156
 10
8.0850485499
 20
6.1860308633
 10
8.08913253
 20
6.1924963023
 10
8.0916474325
 20
6.2006180694
 10
8.0924966111
 20
6.2100840497
 10
8.0916474325
 20
6.2205304707
 10
8.08913253
 20
6.2315558824
 10
8.0850485499
 20
6.2427365845
 10
8.0795524373
 20
6.2536429087
 10
8.0728554048
 20
6.2638557313
 10
8.0652148155
 20
6.272982579
 10
8.0569242929
 20
6.2806727124
 10
8.0483024373
 20
6.2866306039
 10
8.0396805817
 20
6.290627295
 10
8.0313900592
 20
6.2925091952
 10
8.0237494699
 20
6.2922039841
 10
8.0170524373
 20
6.2897233907
 10
8.0115563247
 20
6.285162743
 10
8.0074723447
 20
6.278697304
 10
8.0049574422
 20
6.2705755369
 10
8.0041082635
 20
6.2611095566
 10
8.0049574422
 20
6.2506631356
 10
8.0074723447
 20
6.2396377239
 10
8.0115563247
 20
6.2284570218
 10
8.0170524373
 20
6.2175506976
 10
8.0237494699
 20
6.207337875
 10
8.0313900592
 20
6.1982110273
 10
8.0396805817
 20
6.1905208939
 10
8.0483024373
 20
6.1845630024
  0
LWPOLYLINE
  5
A6
330
1F
100
AcDbEntity
  8
0
  6
Continuous
 62
     7
370
    15
100
AcDbPolyline
 90
       33
 70
   128
 43
0.0
 10
6.7748031244
 20
6.9197385071
 10
6.78342498
 20
6.915741816
 10
6.7917155025
 20
6.9138599158
 10
6.7993560919
 20
6.9141651269
 10
6.8060531244
 20
6.9166457203
 10
6.811549237
 20
6.921206368
 10
6.8156332171
 20
6.927671807
 10
6.8181481196
 20
6.9357935741
 10
6.8189972982
 20
6.9452595544
 10
6.8181481196
 20
6.9557059754
 10
6.8156332171
 20
6.9667313871
 10
6.811549237
 20
6.9779120892
 10
6.8060531244
 20
6.9888184134
 10
6.7993560919
 20
6.999031236
 10
6.7917155025
 20
7.0081580837
 10
6.78342498
 20
7.0158482171
 10
6.7748031244
 20
7.0218061086
 10
6.7661812688
 20
7.0258027997
 10
6.7578907463
 20
7.0276846999
 10
6.750250157
 20
7.0273794888
 10
6.7435531244
 20
7.0248988954
 10
6.7380570118
 20
7.0203382477
 10
6.7339730318
 20
7.0138728087
 10
6.7314581292
 20
7.0057510416
 10
6.7306089506
 20
6.9962850613
 10
6.7314581292
 20
6.9858386403
 10
6.7339730318
 20
6.9748132286
 10
6.7380570118
 20
6.9636325265
 10
6.7435531244
 20
6.9527262023
 10
6.750250157
 20
6.9425133797
 10
6.7578907463
 20
6.9333865319
 10
6.7661812688
 20
6.9256963986
 10
6.7748031244
 20
6.9197385071
  0
ARC
  5
A7
330
1F
100
AcDbEntity
  8
0
  6
Continuous
 62
     7
370
    15
100
AcDbCircle
 10
6.7374040012
 20
6.2489823231
 30
0.0
 40
0.09528189806947
100
AcDbArc
 50
182.6054784857
 51
237.39452166
  0
LINE
  5
A8
330
1F
100
AcDbEntity
  8
0
  6
Continuous
 62
     7
370
    15
100
AcDbLine
 10
6.6422206029
 20
7.274308914
 30
0.0
 11
6.6422206029
 21
6.2446509502
 31
0.0
  0
ARC
  5
A9
330
1F
100
AcDbEntity
  8
0
  6
Continuous
 62
     7
370
    15
100
AcDbCircle
 10
6.6689472137
 20
7.2786444002
 30
0.0
 40
0.027075970240567
100
AcDbArc
 50
50.7967147643
 51
189.2140369905
  0
LINE
  5
AA
330
1F
100
AcDbEntity
  8
0
  6
Continuous
 62
     7
370
    15
100
AcDbLine
 10
8.1370443384
 20
6.4619910702
 30
0.0
 11
6.6860612234
 21
7.2996257929
 31
0.0
  0
ARC
  5
AB
330
1F
100
AcDbEntity
  8
0
  6
Continuous
 62
     7
370
    15
100
AcDbCircle
 10
8.0857015605
 20
6.3817255155
 30
0.0
 40
0.0952818980694807
100
AcDbArc
 50
2.6054784857
 51
57.39452166
  0
LINE
  5
AC
330
1F
100
AcDbEntity
  8
0
  6
Continuous
 62
     7
370
    15
100
AcDbLine
 10
8.1808849588
 20
5.3563989246
 30
0.0
 11
8.1808849588
 21
6.3860568884
 31
0.0
  0
ARC
  5
AD
330
1F
100
AcDbEntity
  8
0
  6
Continuous
 62
     7
370
    15
100
AcDbCircle
 10
8.154158348
 20
5.3520634384
 30
0.0
 40
0.0270759702405668
100
AcDbArc
 50
230.7967147643
 51
9.2140369905
  0
LINE
  5
AE
330
1F
100
AcDbEntity
  8
0
  6
Continuous
 62
     7
370
    15
100
AcDbLine
 10
6.6860612234
 20
6.1687167684
 30
0.0
 11
8.1370443384
 21
5.3310820457
 31
0.0
  0
LINE
  5
AF
330
1F
100
AcDbEntity
  8
0
  6
Continuous
 62
     7
370
    15
100
AcDbLine
 10
8.1370443384
 20
6.4619910702
 30
0.0
 11
8.1723996774
 21
6.482401273
 31
0.0
  0
ARC
  5
B0
330
1F
100
AcDbEntity
  8
0
  6
Continuous
 62
     7
370
    15
100
AcDbCircle
 10
8.1210568996
 20
6.4021357183
 30
0.0
 40
0.0952818980694737
100
AcDbArc
 50
2.6054784857
 51
57.39452166
  0
LINE
  5
B1
330
1F
100
AcDbEntity
  8
0
  6
Continuous
 62
     7
370
    15
100
AcDbLine
 10
8.2162402979
 20
6.4064670912
 30
0.0
 11
8.1808849588
 21
6.3860568884
 31
0.0
  0
LINE
  5
B2
330
1F
100
AcDbEntity
  8
0
  6
Continuous
 62
     7
370
    15
100
AcDbLine
 10
8.1808849588
 20
5.3563989246
 30
0.0
 11
8.2162402979
 21
5.3768091274
 31
0.0
  0
LINE
  5
B3
330
1F
100
AcDbEntity
  8
0
  6
Continuous
 62
     7
370
    15
100
AcDbLine
 10
8.2162402979
 20
5.3768091274
 30
0.0
 11
8.2162402979
 21
6.4064670912
 31
0.0
  0
LINE
  5
B4
330
1F
100
AcDbEntity
  8
0
  6
Continuous
 62
     7
370
    15
100
AcDbLine
 10
6.7214165624
 20
7.3200359957
 30
0.0
 11
6.6860612234
 21
7.2996257929
 31
0.0
  0
LINE
  5
B5
330
1F
100
AcDbEntity
  8
0
  6
Continuous
 62
     7
370
    15
100
AcDbLine
 10
8.1723996774
 20
6.482401273
 30
0.0
 11
6.7214165624
 21
7.3200359957
 31
0.0
  0
ARC
  5
B6
330
1F
100
AcDbEntity
  8
0
  6
Continuous
 62
     7
370
    15
100
AcDbCircle
 10
8.1290692695
 20
6.2822225029
 30
0.0
 40
0.0892365147187474
100
AcDbArc
 50
174.7171419594
 51
245.2774815079
  0
LWPOLYLINE
  5
B7
330
1F
100
AcDbEntity
  8
0
  6
Continuous
 62
     7
370
    15
100
AcDbPolyline
 90
       45
 70
   128
 43
0.0
 10
7.6647695004
 20
5.9175492102
 10
7.6616417314
 20
5.9162861406
 10
7.6432673031
 20
5.9103160666
 10
7.6239362326
 20
5.9064187328
 10
7.603742699
 20
5.9046131266
 10
7.582785083
 20
5.9049080447
 10
7.5611654881
 20
5.9073020504
 10
7.5389892428
 20
5.9117834801
 10
7.5163643875
 20
5.9183305009
 10
7.4934011483
 20
5.9269112164
 10
7.4702113997
 20
5.9374838221
 10
7.4469081199
 20
5.9499968094
 10
7.4236048401
 20
5.9643892163
 10
7.4004150915
 20
5.9805909244
 10
7.3774518523
 20
5.9985230006
 10
7.354826997
 20
6.0180980816
 10
7.3326507517
 20
6.0392207997
 10
7.3110311569
 20
6.061788247
 10
7.2900735409
 20
6.0856904773
 10
7.2698800072
 20
6.1108110412
 10
7.2505489367
 20
6.1370275539
 10
7.2321745084
 20
6.1642122912
 10
7.2148462407
 20
6.1922328117
 10
7.1986485551
 20
6.2209526024
 10
7.1836603652
 20
6.2502317433
 10
7.1699546919
 20
6.2799275893
 10
7.1575983078
 20
6.3098954653
 10
7.146651412
 20
6.3399893708
 10
7.1371673368
 20
6.3700626913
 10
7.1291922875
 20
6.3999689126
 10
7.1227651178
 20
6.4295623346
 10
7.1179171402
 20
6.4586987812
 10
7.1146719737
 20
6.4872363025
 10
7.1130454282
 20
6.5150358665
 10
7.1130454282
 20
6.5419620366
 10
7.1146719737
 20
6.5678836312
 10
7.1179171402
 20
6.5926743629
 10
7.1227651178
 20
6.6162134537
 10
7.1291922875
 20
6.6383862236
 10
7.1371673368
 20
6.659084649
 10
7.146651412
 20
6.6782078893
 10
7.1575983078
 20
6.695662778
 10
7.1699546919
 20
6.7113642766
 10
7.1836603652
 20
6.725235889
 10
7.1936914004
 20
6.7335688312
  0
ARC
  5
B8
330
1F
100
AcDbEntity
  8
0
  6
Continuous
 62
     7
370
    15
100
AcDbCircle
 10
8.1290692695
 20
5.7065612305
 30
0.0
 40
0.0892365147186805
100
AcDbArc
 50
174.7171419593
 51
245.277481508
  0
ARC
  5
B9
330
1F
100
AcDbEntity
  8
0
  6
Continuous
 62
     7
370
    15
100
AcDbCircle
 10
8.1867477934
 20
5.3730541576
 30
0.0
 40
0.0297305838814304
100
AcDbArc
 50
304.0563508359
 51
7.2558295574
  0
LINE
  5
BA
330
1F
100
AcDbEntity
  8
0
  6
Continuous
 62
     7
370
    15
100
AcDbLine
 10
7.7126657582
 20
5.870069913
 30
0.0
 11
7.7480210972
 21
5.8904801158
 31
0.0
  0
LWPOLYLINE
  5
BB
330
1F
100
AcDbEntity
  8
0
  6
Continuous
 62
     7
370
    15
100
AcDbPolyline
 90
       16
 70
   128
 43
0.0
 10
7.8011641612
 20
5.7805285393
 10
7.800581044
 20
5.7805295183
 10
7.792463328
 20
5.7817207933
 10
7.7839111352
 20
5.7850588257
 10
7.7752531216
 20
5.7904153369
 10
7.7668220098
 20
5.7975844791
 10
7.7589418026
 20
5.8062907463
 10
7.7519153321
 20
5.8161995614
 10
7.7460126214
 20
5.8269301343
 10
7.7414605086
 20
5.838070095
 10
7.7384339287
 20
5.8491913412
 10
7.7370491916
 20
5.8598664895
 10
7.7373595118
 20
5.8696853001
 10
7.7393529639
 20
5.8782704414
 10
7.7429529408
 20
5.8852919914
 10
7.7480210972
 20
5.8904801158
  0
LINE
  5
BC
330
1F
100
AcDbEntity
  8
0
  6
Continuous
 62
     7
370
    15
100
AcDbLine
 10
7.7480210972
 20
5.8904801158
 30
0.0
 11
7.7549990006
 21
5.8955827592
 31
0.0
  0
LINE
  5
BD
330
1F
100
AcDbEntity
  8
0
  6
Continuous
 62
     7
370
    15
100
AcDbLine
 10
7.0149634972
 20
6.8450766559
 30
0.0
 11
7.0503188362
 21
6.8654868587
 31
0.0
  0
LWPOLYLINE
  5
BE
330
1F
100
AcDbEntity
  8
0
  6
Continuous
 62
     7
370
    15
100
AcDbPolyline
 90
       16
 70
   128
 43
0.0
 10
7.1034619002
 20
6.7555352822
 10
7.102878783
 20
6.7555362613
 10
7.094761067
 20
6.7567275362
 10
7.0862088742
 20
6.7600655686
 10
7.0775508606
 20
6.7654220798
 10
7.0691197488
 20
6.7725912221
 10
7.0612395416
 20
6.7812974892
 10
7.0542130711
 20
6.7912063043
 10
7.0483103604
 20
6.8019368772
 10
7.0437582476
 20
6.813076838
 10
7.0407316677
 20
6.8241980841
 10
7.0393469306
 20
6.8348732325
 10
7.0396572508
 20
6.844692043
 10
7.0416507029
 20
6.8532771843
 10
7.0452506798
 20
6.8602987343
 10
7.0503188362
 20
6.8654868587
  0
LINE
  5
BF
330
1F
100
AcDbEntity
  8
0
  6
Continuous
 62
     7
370
    15
100
AcDbLine
 10
7.0503188362
 20
6.8654868587
 30
0.0
 11
7.0572967396
 21
6.8705895021
 31
0.0
  0
ARC
  5
C0
330
1F
100
AcDbEntity
  8
0
  6
Continuous
 62
     7
370
    15
100
AcDbCircle
 10
6.703255519
 20
7.2946853533
 30
0.0
 40
0.0311845886259215
100
AcDbArc
 50
54.3824225248
 51
114.3071190461
  0
ARC
  5
C1
330
1F
100
AcDbEntity
  8
0
  6
Continuous
 62
     7
370
    15
100
AcDbCircle
 10
6.8555699566
 20
7.0173980076
 30
0.0
 40
0.0892365147188383
100
AcDbArc
 50
174.7171419595
 51
245.2774815078
  0
ARC
  5
C2
330
1F
100
AcDbEntity
  8
0
  6
Continuous
 62
     7
370
    15
100
AcDbCircle
 10
6.8555699566
 20
6.4417367352
 30
0.0
 40
0.0892365147188359
100
AcDbArc
 50
174.7171419595
 51
245.2774815078
  0
LINE
  5
C3
330
1F
100
AcDbEntity
  8
0
  6
Continuous
 62
     8
370
    15
100
AcDbLine
 10
7.7418692682
 20
5.8914251955
 30
0.0
 11
7.745768889
 21
5.8936763986
 31
0.0
  0
LINE
  5
C4
330
1F
100
AcDbEntity
  8
0
  6
Continuous
 62
     8
370
    15
100
AcDbLine
 10
7.0441670072
 20
6.8664319384
 30
0.0
 11
7.048066628
 21
6.8686831416
 31
0.0
  0
MTEXT
  5
C5
330
1F
100
AcDbEntity
  8
DEFAULT
 62
     7
100
AcDbMText
 10
7.343317612
 20
5.1500209443
 30
0.0
 40
0.125
 41
0.0
 71
     1
 72
     1
  1
ISO
  7
SLDTEXTSTYLE0
 73
     1
 44
1.0
  0
ENDSEC
  0
SECTION
  2
OBJECTS
  0
DICTIONARY
  5
C
330
0
100
AcDbDictionary
281
     1
  3
ACAD_GROUP
350
D
  3
ACAD_LAYOUT
350
1A
  3
ACAD_MLINESTYLE
350
17
  3
ACAD_PLOTSETTINGS
350
19
  3
ACAD_PLOTSTYLENAME
350
E
  0
DICTIONARY
  5
D
102
{ACAD_REACTORS
330
C
102
}
330
C
100
AcDbDictionary
281
     1
  0
DICTIONARY
  5
1A
102
{ACAD_REACTORS
330
C
102
}
330
C
100
AcDbDictionary
281
     1
  3
Layout1
350
1E
  3
Layout2
350
26
  3
Model
350
22
  0
DICTIONARY
  5
17
102
{ACAD_REACTORS
330
C
102
}
330
C
100
AcDbDictionary
281
     1
  3
Standard
350
18
  0
DICTIONARY
  5
19
102
{ACAD_REACTORS
330
C
102
}
330
C
100
AcDbDictionary
281
     1
  0
ACDBDICTIONARYWDFLT
  5
E
102
{ACAD_REACTORS
330
C
102
}
330
C
100
AcDbDictionary
281
     1
  3
Normal
350
F
100
AcDbDictionaryWithDefault
340
F
  0
LAYOUT
  5
1E
102
{ACAD_REACTORS
330
1A
102
}
330
1A
100
AcDbPlotSettings
  1

  2
none_device
  4

  6

 40
0.0
 41
0.0
 42
0.0
 43
0.0
 44
0.0
 45
0.0
 46
0.0
 47
0.0
 48
0.0
 49
0.0
140
0.0
141
0.0
142
1.0
143
1.0
 70
   688
 72
     0
 73
     0
 74
     5
  7

 75
    16
147
1.0
148
0.0
149
0.0
100
AcDbLayout
  1
Layout1
 70
     1
 71
     1
 10
0.0
 20
0.0
 11
12.0
 21
9.0
 12
0.0
 22
0.0
 32
0.0
 14
1.0000000000E+20
 24
1.0000000000E+20
 34
1.0000000000E+20
 15
-1.0000000000E+20
 25
-1.0000000000E+20
 35
-1.0000000000E+20
146
0.0
 13
0.0
 23
0.0
 33
0.0
 16
1.0
 26
0.0
 36
0.0
 17
0.0
 27
1.0
 37
0.0
 76
     0
330
1B
  0
LAYOUT
  5
26
102
{ACAD_REACTORS
330
1A
102
}
330
1A
100
AcDbPlotSettings
  1

  2
none_device
  4

  6

 40
0.0
 41
0.0
 42
0.0
 43
0.0
 44
0.0
 45
0.0
 46
0.0
 47
0.0
 48
0.0
 49
0.0
140
0.0
141
0.0
142
1.0
143
1.0
 70
   688
 72
     0
 73
     0
 74
     5
  7

 75
    16
147
1.0
148
0.0
149
0.0
100
AcDbLayout
  1
Layout2
 70
     1
 71
     2
 10
0.0
 20
0.0
 11
0.0
 21
0.0
 12
0.0
 22
0.0
 32
0.0
 14
0.0
 24
0.0
 34
0.0
 15
0.0
 25
0.0
 35
0.0
146
0.0
 13
0.0
 23
0.0
 33
0.0
 16
1.0
 26
0.0
 36
0.0
 17
0.0
 27
1.0
 37
0.0
 76
     0
330
23
  0
LAYOUT
  5
22
102
{ACAD_REACTORS
330
1A
102
}
330
1A
100
AcDbPlotSettings
  1

  2
none_device
  4

  6

 40
0.0
 41
0.0
 42
0.0
 43
0.0
 44
0.0
 45
0.0
 46
0.0
 47
0.0
 48
0.0
 49
0.0
140
0.0
141
0.0
142
1.0
143
1.0
 70
  1712
 72
     0
 73
     0
 74
     0
  7

 75
     0
147
1.0
148
0.0
149
0.0
100
AcDbLayout
  1
Model
 70
     1
 71
     0
 10
0.0
 20
0.0
 11
11.0
 21
8.5
 12
0.0
 22
0.0
 32
0.0
 14
0.0
 24
0.0
 34
0.0
 15
11.0
 25
8.5
 35
0.0
146
0.0
 13
0.0
 23
0.0
 33
0.0
 16
1.0
 26
0.0
 36
0.0
 17
0.0
 27
1.0
 37
0.0
 76
     0
330
1F
331
29
  0
MLINESTYLE
  5
18
102
{ACAD_REACTORS
330
17
102
}
330
17
100
AcDbMlineStyle
  2
Standard
 70
     0
  3

 62
   256
 51
90.0
 52
90.0
 71
     2
 49
0.5
 62
   256
  6
BYLAYER
 49
-0.5
 62
   256
  6
BYLAYER
  0
ACDBPLACEHOLDER
  5
F
102
{ACAD_REACTORS
330
E
102
}
330
E
  0
ENDSEC
  0
EOF
