  0
SECTION
  2
HEADER
  9
$ACADVER
  1
AC1015
  9
$ACADMAINTVER
 70
     6
  9
$DWGCODEPAGE
  3
ANSI_1252
  9
$INSBASE
 10
0.0
 20
0.0
 30
0.0
  9
$EXTMIN
 10
0.0
 20
0.0
 30
0.0
  9
$EXTMAX
 10
17.0
 20
22.0
 30
0.0
  9
$LIMMIN
 10
0.0
 20
0.0
  9
$LIMMAX
 10
17.0
 20
22.0
  9
$ORTHOMODE
 70
     0
  9
$REGENMODE
 70
     1
  9
$FILLMODE
 70
     1
  9
$QTEXTMODE
 70
     0
  9
$MIRRTEXT
 70
     1
  9
$LTSCALE
 40
2.0
  9
$ATTMODE
 70
     1
  9
$TEXTSIZE
 40
0.25
  9
$TRACEWID
 40
0.05
  9
$TEXTSTYLE
  7
Standard
  9
$CLAYER
  8
0
  9
$CELTYPE
  6
ByLayer
  9
$CECOLOR
 62
   256
  9
$CELTSCALE
 40
1.0
  9
$DISPSILH
 70
     0
  9
$DIMSCALE
 40
1.0
  9
$DIMASZ
 40
0.26
  9
$DIMEXO
 40
0.1
  9
$DIMDLI
 40
0.38
  9
$DIMRND
 40
0.0
  9
$DIMDLE
 40
0.0
  9
$DIMEXE
 40
0.25
  9
$DIMTP
 40
0.0
  9
$DIMTM
 40
0.0
  9
$DIMTXT
 40
0.25
  9
$DIMCEN
 40
0.09
  9
$DIMTSZ
 40
0.0
  9
$DIMTOL
 70
     0
  9
$DIMLIM
 70
     0
  9
$DIMTIH
 70
     1
  9
$DIMTOH
 70
     1
  9
$DIMSE1
 70
     0
  9
$DIMSE2
 70
     0
  9
$DIMTAD
 70
     0
  9
$DIMZIN
 70
     0
  9
$DIMBLK
  1

  9
$DIMASO
 70
     1
  9
$DIMSHO
 70
     1
  9
$DIMPOST
  1

  9
$DIMAPOST
  1

  9
$DIMALT
 70
     0
  9
$DIMALTD
 70
     2
  9
$DIMALTF
 40
25.4
  9
$DIMLFAC
 40
1.0
  9
$DIMTOFL
 70
     0
  9
$DIMTVP
 40
0.0
  9
$DIMTIX
 70
     0
  9
$DIMSOXD
 70
     0
  9
$DIMSAH
 70
     0
  9
$DIMBLK1
  1

  9
$DIMBLK2
  1

  9
$DIMSTYLE
  2
Standard
  9
$DIMCLRD
 70
     0
  9
$DIMCLRE
 70
     0
  9
$DIMCLRT
 70
     0
  9
$DIMTFAC
 40
1.0
  9
$DIMGAP
 40
0.12
  9
$DIMJUST
 70
     0
  9
$DIMSD1
 70
     0
  9
$DIMSD2
 70
     0
  9
$DIMTOLJ
 70
     1
  9
$DIMTZIN
 70
     0
  9
$DIMALTZ
 70
     0
  9
$DIMALTTZ
 70
     0
  9
$DIMUPT
 70
     0
  9
$DIMDEC
 70
     3
  9
$DIMTDEC
 70
     3
  9
$DIMALTU
 70
     2
  9
$DIMALTTD
 70
     2
  9
$DIMTXSTY
  7
Standard
  9
$DIMAUNIT
 70
     0
  9
$DIMADEC
 70
     0
  9
$DIMALTRND
 40
0.0
  9
$DIMAZIN
 70
     0
  9
$DIMDSEP
 70
    46
  9
$DIMATFIT
 70
     3
  9
$DIMFRAC
 70
     0
  9
$DIMLDRBLK
  1

  9
$DIMLUNIT
 70
     2
  9
$DIMLWD
 70
    -2
  9
$DIMLWE
 70
    -2
  9
$DIMTMOVE
 70
     0
  9
$LUNITS
 70
     2
  9
$LUPREC
 70
     3
  9
$SKETCHINC
 40
0.1
  9
$FILLETRAD
 40
0.5
  9
$AUNITS
 70
     0
  9
$AUPREC
 70
     0
  9
$MENU
  1
.
  9
$ELEVATION
 40
0.0
  9
$PELEVATION
 40
0.0
  9
$THICKNESS
 40
0.0
  9
$LIMCHECK
 70
     0
  9
$CHAMFERA
 40
0.5
  9
$CHAMFERB
 40
0.5
  9
$CHAMFERC
 40
1.0
  9
$CHAMFERD
 40
0.0
  9
$SKPOLY
 70
     0
  9
$TDCREATE
 40
2456094.647774826
  9
$TDUCREATE
 40
2456094.814441493
  9
$TDUPDATE
 40
2456094.64777537
  9
$TDUUPDATE
 40
2456094.814442037
  9
$TDINDWG
 40
0.0000000116
  9
$TDUSRTIMER
 40
0.0000000116
  9
$USRTIMER
 70
     1
  9
$ANGBASE
 50
0.0
  9
$ANGDIR
 70
     0
  9
$PDMODE
 70
     0
  9
$PDSIZE
 40
-1.0
  9
$PLINEWID
 40
0.0
  9
$SPLFRAME
 70
     0
  9
$SPLINETYPE
 70
     6
  9
$SPLINESEGS
 70
     8
  9
$HANDSEED
  5
228
  9
$SURFTAB1
 70
     6
  9
$SURFTAB2
 70
     6
  9
$SURFTYPE
 70
     6
  9
$SURFU
 70
     6
  9
$SURFV
 70
     6
  9
$UCSBASE
  2

  9
$UCSNAME
  2

  9
$UCSORG
 10
0.0
 20
0.0
 30
0.0
  9
$UCSXDIR
 10
1.0
 20
0.0
 30
0.0
  9
$UCSYDIR
 10
0.0
 20
1.0
 30
0.0
  9
$UCSORTHOREF
  2

  9
$UCSORTHOVIEW
 70
     0
  9
$UCSORGTOP
 10
0.0
 20
0.0
 30
0.0
  9
$UCSORGBOTTOM
 10
0.0
 20
0.0
 30
0.0
  9
$UCSORGLEFT
 10
0.0
 20
0.0
 30
0.0
  9
$UCSORGRIGHT
 10
0.0
 20
0.0
 30
0.0
  9
$UCSORGFRONT
 10
0.0
 20
0.0
 30
0.0
  9
$UCSORGBACK
 10
0.0
 20
0.0
 30
0.0
  9
$PUCSBASE
  2

  9
$PUCSNAME
  2

  9
$PUCSORG
 10
0.0
 20
0.0
 30
0.0
  9
$PUCSXDIR
 10
1.0
 20
0.0
 30
0.0
  9
$PUCSYDIR
 10
0.0
 20
1.0
 30
0.0
  9
$PUCSORTHOREF
  2

  9
$PUCSORTHOVIEW
 70
     0
  9
$PUCSORGTOP
 10
0.0
 20
0.0
 30
0.0
  9
$PUCSORGBOTTOM
 10
0.0
 20
0.0
 30
0.0
  9
$PUCSORGLEFT
 10
0.0
 20
0.0
 30
0.0
  9
$PUCSORGRIGHT
 10
0.0
 20
0.0
 30
0.0
  9
$PUCSORGFRONT
 10
0.0
 20
0.0
 30
0.0
  9
$PUCSORGBACK
 10
0.0
 20
0.0
 30
0.0
  9
$USERI1
 70
     0
  9
$USERI2
 70
     0
  9
$USERI3
 70
     0
  9
$USERI4
 70
     0
  9
$USERI5
 70
     0
  9
$USERR1
 40
0.0
  9
$USERR2
 40
0.0
  9
$USERR3
 40
0.0
  9
$USERR4
 40
0.0
  9
$USERR5
 40
0.0
  9
$WORLDVIEW
 70
     1
  9
$SHADEDGE
 70
     3
  9
$SHADEDIF
 70
    70
  9
$TILEMODE
 70
     1
  9
$MAXACTVP
 70
    64
  9
$PINSBASE
 10
0.0
 20
0.0
 30
0.0
  9
$PLIMCHECK
 70
     0
  9
$PEXTMIN
 10
1.0000000000E+20
 20
1.0000000000E+20
 30
1.0000000000E+20
  9
$PEXTMAX
 10
-1.0000000000E+20
 20
-1.0000000000E+20
 30
-1.0000000000E+20
  9
$PLIMMIN
 10
0.0
 20
0.0
  9
$PLIMMAX
 10
12.0
 20
9.0
  9
$UNITMODE
 70
     0
  9
$VISRETAIN
 70
     1
  9
$PLINEGEN
 70
     0
  9
$PSLTSCALE
 70
     1
  9
$TREEDEPTH
 70
  3020
  9
$CMLSTYLE
  2
Standard
  9
$CMLJUST
 70
     0
  9
$CMLSCALE
 40
1.0
  9
$PROXYGRAPHICS
 70
     1
  9
$MEASUREMENT
 70
     0
  9
$CELWEIGHT
370
    -1
  9
$ENDCAPS
280
     0
  9
$JOINSTYLE
280
     0
  9
$LWDISPLAY
290
     1
  9
$INSUNITS
 70
     1
  9
$HYPERLINKBASE
  1

  9
$STYLESHEET
  1

  9
$XEDIT
290
     1
  9
$CEPSNTYPE
380
     0
  9
$PSTYLEMODE
290
     1
  9
$FINGERPRINTGUID
  2
{6435AB49-3697-4075-B43B-1B215662A472}
  9
$VERSIONGUID
  2
{FAEB1C32-E019-11D5-929B-00C0DF256EC4}
  9
$EXTNAMES
290
     1
  9
$PSVPSCALE
 40
0.0
  9
$OLESTARTUP
290
     0
  0
ENDSEC
  0
SECTION
  2
CLASSES
  0
CLASS
  1
ACDBDICTIONARYWDFLT
  2
AcDbDictionaryWithDefault
  3
ObjectDBX Classes
 90
        0
280
     0
281
     0
  0
CLASS
  1
VISUALSTYLE
  2
AcDbVisualStyle
  3
ObjectDBX Classes
 90
     4095
280
     0
281
     0
  0
CLASS
  1
MATERIAL
  2
AcDbMaterial
  3
ObjectDBX Classes
 90
     1153
280
     0
281
     0
  0
CLASS
  1
ACDBPLACEHOLDER
  2
AcDbPlaceHolder
  3
ObjectDBX Classes
 90
        0
280
     0
281
     0
  0
CLASS
  1
LAYOUT
  2
AcDbLayout
  3
ObjectDBX Classes
 90
        0
280
     0
281
     0
  0
ENDSEC
  0
SECTION
  2
TABLES
  0
TABLE
  2
VPORT
  5
8
330
0
100
AcDbSymbolTable
 70
     1
  0
VPORT
  5
29
330
8
100
AcDbSymbolTableRecord
100
AcDbViewportTableRecord
  2
*Active
 70
     0
 10
0.0
 20
0.0
 11
1.0
 21
1.0
 12
8.5
 22
11.0
 13
0.0
 23
0.0
 14
0.5
 24
0.5
 15
0.5
 25
0.5
 16
0.0
 26
0.0
 36
1.0
 17
0.0
 27
0.0
 37
0.0
 40
22.0
 41
0.7727272727
 42
50.0
 43
0.0
 44
0.0
 50
0.0
 51
0.0
 71
     0
 72
  2000
 73
     1
 74
     3
 75
     0
 76
     0
 77
     0
 78
     0
281
     0
 65
     1
110
0.0
120
0.0
130
0.0
111
1.0
121
0.0
131
0.0
112
0.0
122
1.0
132
0.0
 79
     0
146
0.0
  0
ENDTAB
  0
TABLE
  2
LTYPE
  5
5
330
0
100
AcDbSymbolTable
 70
     6
  0
LTYPE
  5
14
330
5
100
AcDbSymbolTableRecord
100
AcDbLinetypeTableRecord
  2
ByBlock
 70
     0
  3

 72
    65
 73
     0
 40
0.0
  0
LTYPE
  5
15
330
5
100
AcDbSymbolTableRecord
100
AcDbLinetypeTableRecord
  2
ByLayer
 70
     0
  3

 72
    65
 73
     0
 40
0.0
  0
LTYPE
  5
16
330
5
100
AcDbSymbolTableRecord
100
AcDbLinetypeTableRecord
  2
Continuous
 70
     0
  3
Solid line
 72
    65
 73
     0
 40
0.0
  0
LTYPE
  5
3F
330
5
100
AcDbSymbolTableRecord
100
AcDbLinetypeTableRecord
  2
HIDDEN
 70
     0
  3
Hidden __ __ __ __ __ __ __ __ __ __ __ __ __ __
 72
    65
 73
     2
 40
0.075
 49
0.05
 74
     0
 49
-0.025
 74
     0
  0
LTYPE
  5
40
330
5
100
AcDbSymbolTableRecord
100
AcDbLinetypeTableRecord
  2
PHANTOM
 70
     0
  3
Phantom ______  __  __  ______  __  __  ______
 72
    65
 73
     6
 40
0.5
 49
0.25
 74
     0
 49
-0.05
 74
     0
 49
0.05
 74
     0
 49
-0.05
 74
     0
 49
0.05
 74
     0
 49
-0.05
 74
     0
  0
LTYPE
  5
41
330
5
100
AcDbSymbolTableRecord
100
AcDbLinetypeTableRecord
  2
CENTER
 70
     0
  3
Center ____ _ ____ _ ____ _ ____ _ ____ _ ____
 72
    65
 73
     4
 40
0.4
 49
0.25
 74
     0
 49
-0.05
 74
     0
 49
0.05
 74
     0
 49
-0.05
 74
     0
  0
LTYPE
  5
42
330
5
100
AcDbSymbolTableRecord
100
AcDbLinetypeTableRecord
  2
CENTERX2
 70
     0
  3
Center (2x) ________  __  ________  __  _____
 72
    65
 73
     4
 40
0.8
 49
0.5
 74
     0
 49
-0.1
 74
     0
 49
0.1
 74
     0
 49
-0.1
 74
     0
  0
LTYPE
  5
43
330
5
100
AcDbSymbolTableRecord
100
AcDbLinetypeTableRecord
  2
DOT2
 70
     0
  3
Dot (.5x) ........................................
 72
    65
 73
     2
 40
0.025
 49
0.0
 74
     0
 49
-0.025
 74
     0
  0
ENDTAB
  0
TABLE
  2
LAYER
  5
2
330
0
100
AcDbSymbolTable
 70
     7
  0
LAYER
  5
10
330
2
100
AcDbSymbolTableRecord
100
AcDbLayerTableRecord
  2
0
 70
     0
 62
     7
  6
Continuous
370
    -3
390
F
  0
LAYER
  5
44
330
2
100
AcDbSymbolTableRecord
100
AcDbLayerTableRecord
  2
FORMAT
 70
     0
 62
     7
  6
Continuous
370
    -3
390
F
  0
LAYER
  5
45
330
2
100
AcDbSymbolTableRecord
100
AcDbLayerTableRecord
  2
DEFAULT
 70
     0
 62
   179
  6
Continuous
370
    -3
390
F
  0
LAYER
  5
46
330
2
100
AcDbSymbolTableRecord
100
AcDbLayerTableRecord
  2
INSPECTION_TAGS
 70
     0
 62
     7
  6
Continuous
370
    -3
390
F
  0
LAYER
  5
47
330
2
100
AcDbSymbolTableRecord
100
AcDbLayerTableRecord
  2
REVISIONS
 70
     0
 62
     7
  6
Continuous
370
    -3
390
F
  0
LAYER
  5
48
330
2
100
AcDbSymbolTableRecord
100
AcDbLayerTableRecord
  2
DIMENSIONS_&_ANNOTATIONS
 70
     0
 62
     7
  6
Continuous
370
    -3
390
F
  0
LAYER
  5
49
330
2
100
AcDbSymbolTableRecord
100
AcDbLayerTableRecord
  2
DIMENSION_&_ANNOTATIONS
 70
     0
 62
     7
  6
Continuous
370
    -3
390
F
  0
ENDTAB
  0
TABLE
  2
STYLE
  5
3
330
0
100
AcDbSymbolTable
 70
     2
  0
STYLE
  5
11
330
3
100
AcDbSymbolTableRecord
100
AcDbTextStyleTableRecord
  2
Standard
 70
     0
 40
0.0
 41
1.0
 50
0.0
 71
     0
 42
0.25
  3
txt
  4

  0
STYLE
  5
4D
330
3
100
AcDbSymbolTableRecord
100
AcDbTextStyleTableRecord
  2
SLDTEXTSTYLE0
 70
     0
 40
0.0
 41
0.75
 50
0.0
 71
     0
 42
0.2
  3
TXT
  4

  0
ENDTAB
  0
TABLE
  2
VIEW
  5
6
330
0
100
AcDbSymbolTable
 70
     0
  0
ENDTAB
  0
TABLE
  2
UCS
  5
7
330
0
100
AcDbSymbolTable
 70
     0
  0
ENDTAB
  0
TABLE
  2
APPID
  5
9
330
0
100
AcDbSymbolTable
 70
     1
  0
APPID
  5
12
330
9
100
AcDbSymbolTableRecord
100
AcDbRegAppTableRecord
  2
ACAD
 70
     0
  0
ENDTAB
  0
TABLE
  2
DIMSTYLE
  5
A
330
0
100
AcDbSymbolTable
 70
     3
100
AcDbDimStyleTable
  0
DIMSTYLE
105
27
330
A
100
AcDbSymbolTableRecord
100
AcDbDimStyleTableRecord
  2
Standard
 70
     0
178
     0
340
11
  0
DIMSTYLE
105
97
102
{ACAD_REACTORS
330
96
330
A5
102
}
330
A
100
AcDbSymbolTableRecord
100
AcDbDimStyleTableRecord
  2
SLDDIMSTYLE0
 70
     0
 41
0.26
 44
0.0
 45
0.000000001
 78
    12
 79
     3
140
0.25
147
0.0625
172
     1
173
     1
178
     0
271
     3
272
     3
276
     2
284
    12
289
     0
340
4D
  0
DIMSTYLE
105
17D
102
{ACAD_REACTORS
330
17C
330
18C
102
}
330
A
100
AcDbSymbolTableRecord
100
AcDbDimStyleTableRecord
  2
SLDDIMSTYLE1
 70
     0
 41
0.26
 44
0.0
 45
0.000000001
 78
    12
 79
     3
140
0.25
147
0.0625
173
     1
178
     0
271
     3
272
     3
276
     2
284
    12
340
4D
  0
ENDTAB
  0
TABLE
  2
BLOCK_RECORD
  5
1
330
0
100
AcDbSymbolTable
 70
     6
  0
BLOCK_RECORD
  5
1F
330
1
100
AcDbSymbolTableRecord
100
AcDbBlockTableRecord
  2
*Model_Space
340
22
  0
BLOCK_RECORD
  5
1B
330
1
100
AcDbSymbolTableRecord
100
AcDbBlockTableRecord
  2
*Paper_Space
340
1E
  0
BLOCK_RECORD
  5
23
330
1
100
AcDbSymbolTableRecord
100
AcDbBlockTableRecord
  2
*Paper_Space0
340
26
  0
BLOCK_RECORD
  5
4A
330
1
100
AcDbSymbolTableRecord
100
AcDbBlockTableRecord
  2
SW_NOTE_0
340
0
102
{BLKREFS
331
52
102
}
  0
BLOCK_RECORD
  5
98
330
1
100
AcDbSymbolTableRecord
100
AcDbBlockTableRecord
  2
_D
340
0
  0
BLOCK_RECORD
  5
A6
330
1
100
AcDbSymbolTableRecord
100
AcDbBlockTableRecord
  2
_D_1
340
0
  0
BLOCK_RECORD
  5
17E
330
1
100
AcDbSymbolTableRecord
100
AcDbBlockTableRecord
  2
_D_2
340
0
  0
BLOCK_RECORD
  5
18D
330
1
100
AcDbSymbolTableRecord
100
AcDbBlockTableRecord
  2
_D_3
340
0
  0
ENDTAB
  0
ENDSEC
  0
SECTION
  2
BLOCKS
  0
BLOCK
  5
20
330
1F
100
AcDbEntity
  8
0
100
AcDbBlockBegin
  2
*Model_Space
 70
     0
 10
0.0
 20
0.0
 30
0.0
  3
*Model_Space
  1

  0
ENDBLK
  5
21
330
1F
100
AcDbEntity
  8
0
100
AcDbBlockEnd
  0
BLOCK
  5
1C
330
1B
100
AcDbEntity
 67
     1
  8
0
100
AcDbBlockBegin
  2
*Paper_Space
 70
     0
 10
0.0
 20
0.0
 30
0.0
  3
*Paper_Space
  1

  0
ENDBLK
  5
1D
330
1B
100
AcDbEntity
 67
     1
  8
0
100
AcDbBlockEnd
  0
BLOCK
  5
24
330
23
100
AcDbEntity
  8
0
100
AcDbBlockBegin
  2
*Paper_Space0
 70
     0
 10
0.0
 20
0.0
 30
0.0
  3
*Paper_Space0
  1

  0
ENDBLK
  5
25
330
23
100
AcDbEntity
  8
0
100
AcDbBlockEnd
  0
BLOCK
  5
4B
330
4A
100
AcDbEntity
  8
0
100
AcDbBlockBegin
  2
SW_NOTE_0
 70
     0
 10
0.0
 20
0.0
 30
0.0
  3
SW_NOTE_0
  1

  0
MTEXT
  5
4E
330
4A
100
AcDbEntity
  8
DEFAULT
 62
     0
100
AcDbMText
 10
3.4361979167
 20
0.7519561815
 30
0.0
 40
0.5833333333
 41
0.0
 71
     2
 72
     1
  1
Legrand/Wiremold
  7
SLDTEXTSTYLE0
 73
     1
 44
1.0
  0
MTEXT
  5
4F
330
4A
100
AcDbEntity
  8
DEFAULT
 62
     0
100
AcDbMText
 10
3.4615833504
 20
-0.0258215868
 30
0.0
 40
0.5833333333
 41
0.0
 71
     2
 72
     1
  1
SYSTEM: Floor Boxes
  7
SLDTEXTSTYLE0
 73
     1
 44
1.0
  0
MTEXT
  5
50
330
4A
100
AcDbEntity
  8
DEFAULT
 62
     0
100
AcDbMText
 10
3.4402480595
 20
-0.8035993552
 30
0.0
 40
0.5833333333
 41
0.0
 71
     2
 72
     1
  1
Catalog Number: FP-CTR
  7
SLDTEXTSTYLE0
 73
     1
 44
1.0
  0
MTEXT
  5
51
330
4A
100
AcDbEntity
  8
DEFAULT
 62
     0
100
AcDbMText
 10
3.5039160194
 20
-1.5813771236
 30
0.0
 40
0.5833333333
 41
0.0
 71
     2
 72
     1
  1
6/15/2012
  7
SLDTEXTSTYLE0
 73
     1
 44
1.0
  0
ENDBLK
  5
4C
330
4A
100
AcDbEntity
  8
0
100
AcDbBlockEnd
  0
BLOCK
  5
99
330
98
100
AcDbEntity
  8
0
100
AcDbBlockBegin
  2
_D
 70
     0
 10
0.0
 20
0.0
 30
0.0
  3
_D
  1

  0
SOLID
  5
9B
330
98
100
AcDbEntity
  8
DEFAULT
 62
     7
100
AcDbTrace
 10
11.4998145724
 20
5.1589023564
 30
0.0
 11
11.4598145724
 21
4.8989023564
 31
0.0
 12
11.5398145724
 22
4.8989023564
 32
0.0
 13
11.5398145724
 23
4.8989023564
 33
0.0
  0
SOLID
  5
9C
330
98
100
AcDbEntity
  8
DEFAULT
 62
     7
100
AcDbTrace
 10
11.4998145724
 20
6.0269023564
 30
0.0
 11
11.5398145724
 21
6.2869023564
 31
0.0
 12
11.4598145724
 22
6.2869023564
 32
0.0
 13
11.4598145724
 23
6.2869023564
 33
0.0
  0
LINE
  5
9D
330
98
100
AcDbEntity
  8
DEFAULT
 62
     7
100
AcDbLine
 10
11.2176965322
 20
5.6185447056
 30
0.0
 11
11.475682657
 21
5.6185447056
 31
0.0
  0
LINE
  5
9E
330
98
100
AcDbEntity
  8
DEFAULT
 62
     7
100
AcDbLine
 10
8.7029720654
 20
5.1589023564
 30
0.0
 11
11.7498145724
 21
5.1589023564
 31
0.0
  0
LINE
  5
9F
330
98
100
AcDbEntity
  8
DEFAULT
 62
     7
100
AcDbLine
 10
9.4037981745
 20
6.0269023564
 30
0.0
 11
11.7498145724
 21
6.0269023564
 31
0.0
  0
LINE
  5
A0
330
98
100
AcDbEntity
  8
DEFAULT
 62
     7
100
AcDbLine
 10
11.4998145724
 20
5.1589023564
 30
0.0
 11
11.4998145724
 21
4.6589023564
 31
0.0
  0
LINE
  5
A1
330
98
100
AcDbEntity
  8
DEFAULT
 62
     7
100
AcDbLine
 10
11.4998145724
 20
6.0269023564
 30
0.0
 11
11.4998145724
 21
6.5269023564
 31
0.0
  0
MTEXT
  5
A2
330
98
100
AcDbEntity
  8
DEFAULT
 62
     7
100
AcDbMText
 10
11.2543284832
 20
5.9188324782
 30
-1.7971940861
 40
0.25
 41
0.0
 71
     1
 72
     1
  1
7
  7
SLDTEXTSTYLE0
 73
     1
 44
1.0
  0
MTEXT
  5
A3
330
98
100
AcDbEntity
  8
DEFAULT
 62
     7
100
AcDbMText
 10
11.2543284832
 20
5.5882421889
 30
-1.7971940861
 40
0.25
 41
0.0
 71
     1
 72
     1
  1
8
  7
SLDTEXTSTYLE0
 73
     1
 44
1.0
  0
MTEXT
  5
A4
330
98
100
AcDbEntity
  8
DEFAULT
 62
     7
100
AcDbMText
 10
11.512314608
 20
5.736176192
 30
-1.7971940861
 40
0.25
 41
0.0
 71
     1
 72
     1
  1
"
  7
SLDTEXTSTYLE0
 73
     1
 44
1.0
  0
ENDBLK
  5
9A
330
98
100
AcDbEntity
  8
0
100
AcDbBlockEnd
  0
BLOCK
  5
A7
330
A6
100
AcDbEntity
  8
0
100
AcDbBlockBegin
  2
_D_1
 70
     0
 10
0.0
 20
0.0
 30
0.0
  3
_D_1
  1

  0
SOLID
  5
A9
330
A6
100
AcDbEntity
  8
DEFAULT
 62
     7
100
AcDbTrace
 10
10.2678109195
 20
5.6519023564
 30
0.0
 11
10.2278109195
 21
5.3919023564
 31
0.0
 12
10.3078109195
 22
5.3919023564
 32
0.0
 13
10.3078109195
 23
5.3919023564
 33
0.0
  0
SOLID
  5
AA
330
A6
100
AcDbEntity
  8
DEFAULT
 62
     7
100
AcDbTrace
 10
10.2678109195
 20
6.0269023564
 30
0.0
 11
10.3078109195
 21
6.2869023564
 31
0.0
 12
10.2278109195
 22
6.2869023564
 32
0.0
 13
10.2278109195
 23
6.2869023564
 33
0.0
  0
LINE
  5
AB
330
A6
100
AcDbEntity
  8
DEFAULT
 62
     7
100
AcDbLine
 10
10.8044428705
 20
6.9097992536
 30
0.0
 11
11.0624289952
 21
6.9097992536
 31
0.0
  0
LINE
  5
AC
330
A6
100
AcDbEntity
  8
DEFAULT
 62
     7
100
AcDbLine
 10
9.6603438238
 20
5.6519023564
 30
0.0
 11
10.5178109195
 21
5.6519023564
 31
0.0
  0
LINE
  5
AD
330
A6
100
AcDbEntity
  8
DEFAULT
 62
     7
100
AcDbLine
 10
9.4037981745
 20
6.0269023564
 30
0.0
 11
10.5178109195
 21
6.0269023564
 31
0.0
  0
LINE
  5
AE
330
A6
100
AcDbEntity
  8
DEFAULT
 62
     7
100
AcDbLine
 10
10.7678109195
 20
6.8841569044
 30
0.0
 11
10.2678109195
 21
6.8841569044
 31
0.0
  0
LINE
  5
AF
330
A6
100
AcDbEntity
  8
DEFAULT
 62
     7
100
AcDbLine
 10
10.2678109195
 20
6.8841569044
 30
0.0
 11
10.2678109195
 21
6.0269023564
 31
0.0
  0
LINE
  5
B0
330
A6
100
AcDbEntity
  8
DEFAULT
 62
     7
100
AcDbLine
 10
10.2678109195
 20
5.6519023564
 30
0.0
 11
10.2678109195
 21
5.1519023564
 31
0.0
  0
MTEXT
  5
B1
330
A6
100
AcDbEntity
  8
DEFAULT
 62
     7
100
AcDbMText
 10
10.8410748215
 20
7.2100870262
 30
-1.7971940861
 40
0.25
 41
0.0
 71
     1
 72
     1
  1
3
  7
SLDTEXTSTYLE0
 73
     1
 44
1.0
  0
MTEXT
  5
B2
330
A6
100
AcDbEntity
  8
DEFAULT
 62
     7
100
AcDbMText
 10
10.8410748215
 20
6.8794967369
 30
-1.7971940861
 40
0.25
 41
0.0
 71
     1
 72
     1
  1
8
  7
SLDTEXTSTYLE0
 73
     1
 44
1.0
  0
MTEXT
  5
B3
330
A6
100
AcDbEntity
  8
DEFAULT
 62
     7
100
AcDbMText
 10
11.0990609462
 20
7.02743074
 30
-1.7971940861
 40
0.25
 41
0.0
 71
     1
 72
     1
  1
"
  7
SLDTEXTSTYLE0
 73
     1
 44
1.0
  0
ENDBLK
  5
A8
330
A6
100
AcDbEntity
  8
0
100
AcDbBlockEnd
  0
BLOCK
  5
17F
330
17E
100
AcDbEntity
  8
0
100
AcDbBlockBegin
  2
_D_2
 70
     0
 10
0.0
 20
0.0
 30
0.0
  3
_D_2
  1

  0
SOLID
  5
181
330
17E
100
AcDbEntity
  8
DEFAULT
 62
     7
100
AcDbTrace
 10
2.4403438238
 20
6.9283277718
 30
0.0
 11
2.7003438238
 21
6.8883277718
 31
0.0
 12
2.7003438238
 22
6.9683277718
 32
0.0
 13
2.7003438238
 23
6.9683277718
 33
0.0
  0
SOLID
  5
182
330
17E
100
AcDbEntity
  8
DEFAULT
 62
     7
100
AcDbTrace
 10
9.3037981745
 20
6.9283277718
 30
0.0
 11
9.0437981745
 21
6.9683277718
 31
0.0
 12
9.0437981745
 22
6.8883277718
 32
0.0
 13
9.0437981745
 23
6.8883277718
 33
0.0
  0
LINE
  5
183
330
17E
100
AcDbEntity
  8
DEFAULT
 62
     7
100
AcDbLine
 10
5.6823140154
 20
6.953970121
 30
0.0
 11
5.9403001401
 21
6.953970121
 31
0.0
  0
LINE
  5
184
330
17E
100
AcDbEntity
  8
DEFAULT
 62
     7
100
AcDbLine
 10
2.4403438238
 20
8.1439585448
 30
0.0
 11
2.4403438238
 21
6.6783277718
 31
0.0
  0
LINE
  5
185
330
17E
100
AcDbEntity
  8
DEFAULT
 62
     7
100
AcDbLine
 10
9.3037981745
 20
8.1505041941
 30
0.0
 11
9.3037981745
 21
6.6783277718
 31
0.0
  0
LINE
  5
186
330
17E
100
AcDbEntity
  8
DEFAULT
 62
     7
100
AcDbLine
 10
2.4403438238
 20
6.9283277718
 30
0.0
 11
5.4609598417
 21
6.9283277718
 31
0.0
  0
LINE
  5
187
330
17E
100
AcDbEntity
  8
DEFAULT
 62
     7
100
AcDbLine
 10
9.3037981745
 20
6.9283277718
 30
0.0
 11
6.2831821566
 21
6.9283277718
 31
0.0
  0
MTEXT
  5
188
330
17E
100
AcDbEntity
  8
DEFAULT
 62
     7
100
AcDbMText
 10
5.4609598417
 20
7.0716016074
 30
0.5810486368
 40
0.25
 41
0.0
 71
     1
 72
     1
  1
6
  7
SLDTEXTSTYLE0
 73
     1
 44
1.0
  0
MTEXT
  5
189
330
17E
100
AcDbEntity
  8
DEFAULT
 62
     7
100
AcDbMText
 10
5.7189459664
 20
7.2542578936
 30
0.5810486368
 40
0.25
 41
0.0
 71
     1
 72
     1
  1
7
  7
SLDTEXTSTYLE0
 73
     1
 44
1.0
  0
MTEXT
  5
18A
330
17E
100
AcDbEntity
  8
DEFAULT
 62
     7
100
AcDbMText
 10
5.7189459664
 20
6.9236676043
 30
0.5810486368
 40
0.25
 41
0.0
 71
     1
 72
     1
  1
8
  7
SLDTEXTSTYLE0
 73
     1
 44
1.0
  0
MTEXT
  5
18B
330
17E
100
AcDbEntity
  8
DEFAULT
 62
     7
100
AcDbMText
 10
5.9769320911
 20
7.0716016074
 30
0.5810486368
 40
0.25
 41
0.0
 71
     1
 72
     1
  1
"
  7
SLDTEXTSTYLE0
 73
     1
 44
1.0
  0
ENDBLK
  5
180
330
17E
100
AcDbEntity
  8
0
100
AcDbBlockEnd
  0
BLOCK
  5
18E
330
18D
100
AcDbEntity
  8
0
100
AcDbBlockBegin
  2
_D_3
 70
     0
 10
0.0
 20
0.0
 30
0.0
  3
_D_3
  1

  0
SOLID
  5
190
330
18D
100
AcDbEntity
  8
DEFAULT
 62
     7
100
AcDbTrace
 10
1.6093211087
 20
7.6290522123
 30
0.0
 11
1.6493211087
 21
7.8890522123
 31
0.0
 12
1.5693211087
 22
7.8890522123
 32
0.0
 13
1.5693211087
 23
7.8890522123
 33
0.0
  0
SOLID
  5
191
330
18D
100
AcDbEntity
  8
DEFAULT
 62
     7
100
AcDbTrace
 10
1.6093211087
 20
15.6590522123
 30
0.0
 11
1.5693211087
 21
15.3990522123
 31
0.0
 12
1.6493211087
 22
15.3990522123
 32
0.0
 13
1.6493211087
 23
15.3990522123
 33
0.0
  0
LINE
  5
192
330
18D
100
AcDbEntity
  8
DEFAULT
 62
     7
100
AcDbLine
 10
2.9552501563
 20
7.6290522123
 30
0.0
 11
1.3593211087
 21
7.6290522123
 31
0.0
  0
LINE
  5
193
330
18D
100
AcDbEntity
  8
DEFAULT
 62
     7
100
AcDbLine
 10
2.9552501563
 20
15.6590522123
 30
0.0
 11
1.3593211087
 21
15.6590522123
 31
0.0
  0
LINE
  5
194
330
18D
100
AcDbEntity
  8
DEFAULT
 62
     7
100
AcDbLine
 10
1.6093211087
 20
7.6290522123
 30
0.0
 11
1.6093211087
 21
11.4456147063
 31
0.0
  0
LINE
  5
195
330
18D
100
AcDbEntity
  8
DEFAULT
 62
     7
100
AcDbLine
 10
1.6093211087
 20
15.6590522123
 30
0.0
 11
1.6093211087
 21
11.8424897182
 31
0.0
  0
MTEXT
  5
196
330
18D
100
AcDbEntity
  8
DEFAULT
 62
     7
100
AcDbMText
 10
1.3638350013
 20
11.7678816275
 30
0.5810486368
 40
0.25
 41
0.0
 71
     1
 72
     1
  1
8"
  7
SLDTEXTSTYLE0
 73
     1
 44
1.0
  0
ENDBLK
  5
18F
330
18D
100
AcDbEntity
  8
0
100
AcDbBlockEnd
  0
ENDSEC
  0
SECTION
  2
ENTITIES
  0
INSERT
  5
52
330
1F
100
AcDbEntity
  8
DEFAULT
 62
     7
100
AcDbBlockReference
  2
SW_NOTE_0
 10
5.3217885045
 20
3.4880309148
 30
0.0
  0
LINE
  5
53
330
1F
100
AcDbEntity
  8
0
  6
Continuous
 62
     7
370
    15
100
AcDbLine
 10
9.5603437877
 20
5.6519023517
 30
0.0
 11
9.5589475372
 21
5.7319023559
 31
0.0
  0
LINE
  5
54
330
1F
100
AcDbEntity
  8
0
  6
Continuous
 62
     7
370
    15
100
AcDbLine
 10
2.1917401105
 20
5.7319023559
 30
0.0
 11
2.1903438599
 21
5.6519023517
 31
0.0
  0
LINE
  5
55
330
1F
100
AcDbEntity
  8
0
  6
Continuous
 62
     7
370
    15
100
AcDbLine
 10
8.6430435578
 20
5.6519023517
 30
0.0
 11
8.6231921604
 21
5.2731172908
 31
0.0
  0
LINE
  5
56
330
1F
100
AcDbEntity
  8
0
  6
Continuous
 62
     7
370
    15
100
AcDbLine
 10
3.1076440899
 20
5.6519023517
 30
0.0
 11
3.1274954872
 21
5.2731172908
 31
0.0
  0
ARC
  5
57
330
1F
100
AcDbEntity
  8
0
  6
Continuous
 62
     7
370
    15
100
AcDbCircle
 10
8.6082128433
 20
5.2739023564
 30
0.0
 40
0.0150000000000008
100
AcDbArc
 50
270.0
 51
357.0
  0
LINE
  5
58
330
1F
100
AcDbEntity
  8
0
  6
Continuous
 62
     7
370
    15
100
AcDbLine
 10
8.6082129735
 20
5.2589023751
 30
0.0
 11
8.4028438793
 21
5.2589023751
 31
0.0
  0
LINE
  5
59
330
1F
100
AcDbEntity
  8
0
  6
Continuous
 62
     7
370
    15
100
AcDbLine
 10
8.4028438793
 20
5.2589023751
 30
0.0
 11
7.6538128121
 21
5.2589023751
 31
0.0
  0
ARC
  5
5A
330
1F
100
AcDbEntity
  8
0
  6
Continuous
 62
     7
370
    15
100
AcDbCircle
 10
7.6538127608
 20
5.2289023564
 30
0.0
 40
0.0300000000000008
100
AcDbArc
 50
90.0
 51
177.0
  0
ARC
  5
5B
330
1F
100
AcDbEntity
  8
0
  6
Continuous
 62
     7
370
    15
100
AcDbCircle
 10
4.0968748868
 20
5.2289023564
 30
0.0
 40
0.0300000000000002
100
AcDbArc
 50
3.0
 51
90.0
  0
LINE
  5
5C
330
1F
100
AcDbEntity
  8
0
  6
Continuous
 62
     7
370
    15
100
AcDbLine
 10
4.0968748355
 20
5.2589023751
 30
0.0
 11
3.3478437684
 21
5.2589023751
 31
0.0
  0
LINE
  5
5D
330
1F
100
AcDbEntity
  8
0
  6
Continuous
 62
     7
370
    15
100
AcDbLine
 10
3.3478437684
 20
5.2589023751
 30
0.0
 11
3.1424746742
 21
5.2589023751
 31
0.0
  0
ARC
  5
5E
330
1F
100
AcDbEntity
  8
0
  6
Continuous
 62
     7
370
    15
100
AcDbCircle
 10
3.1424748043
 20
5.2739023564
 30
0.0
 40
0.015
100
AcDbArc
 50
183.0
 51
270.0
  0
LINE
  5
5F
330
1F
100
AcDbEntity
  8
0
  6
Continuous
 62
     7
370
    15
100
AcDbLine
 10
7.6238538515
 20
5.2304724701
 30
0.0
 11
7.621593011
 21
5.1873322885
 31
0.0
  0
LINE
  5
60
330
1F
100
AcDbEntity
  8
0
  6
Continuous
 62
     7
370
    15
100
AcDbLine
 10
4.1290946366
 20
5.1873322885
 30
0.0
 11
4.1268337961
 21
5.2304724701
 31
0.0
  0
ARC
  5
61
330
1F
100
AcDbEntity
  8
0
  6
Continuous
 62
     7
370
    15
100
AcDbCircle
 10
7.5916341089
 20
5.1889023564
 30
0.0
 40
0.0300000000000002
100
AcDbArc
 50
270.0
 51
357.0
  0
ARC
  5
62
330
1F
100
AcDbEntity
  8
0
  6
Continuous
 62
     7
370
    15
100
AcDbCircle
 10
4.1590535387
 20
5.1889023564
 30
0.0
 40
0.0300000000000002
100
AcDbArc
 50
183.0
 51
270.0
  0
LINE
  5
63
330
1F
100
AcDbEntity
  8
0
  6
Continuous
 62
     7
370
    15
100
AcDbLine
 10
7.5916340504
 20
5.1589023836
 30
0.0
 11
4.1590535972
 21
5.1589023836
 31
0.0
  0
LINE
  5
64
330
1F
100
AcDbEntity
  8
0
  6
Continuous
 62
     7
370
    15
100
AcDbLine
 10
8.6231921604
 20
5.2731172908
 30
0.0
 11
8.6186965857
 21
5.1873322885
 31
0.0
  0
LINE
  5
65
330
1F
100
AcDbEntity
  8
0
  6
Continuous
 62
     7
370
    15
100
AcDbLine
 10
8.5369912896
 20
5.1873322885
 30
0.0
 11
8.5332404796
 21
5.2589023751
 31
0.0
  0
LINE
  5
66
330
1F
100
AcDbEntity
  8
0
  6
Continuous
 62
     7
370
    15
100
AcDbLine
 10
3.2174471681
 20
5.2589023751
 30
0.0
 11
3.2136963581
 21
5.1873322885
 31
0.0
  0
LINE
  5
67
330
1F
100
AcDbEntity
  8
0
  6
Continuous
 62
     7
370
    15
100
AcDbLine
 10
3.1319910619
 20
5.1873322885
 30
0.0
 11
3.1274954872
 21
5.2731172908
 31
0.0
  0
ARC
  5
68
330
1F
100
AcDbEntity
  8
0
  6
Continuous
 62
     7
370
    15
100
AcDbCircle
 10
8.6029720654
 20
5.1739023564
 30
0.0
 40
0.0149999999999997
100
AcDbArc
 50
270.0
 51
357.0
  0
LWPOLYLINE
  5
69
330
1F
100
AcDbEntity
  8
0
  6
Continuous
 62
     7
370
    15
100
AcDbPolyline
 90
        9
 70
   128
 43
0.0
 10
8.6186965857
 20
5.1873322885
 10
8.6185490407
 20
5.184520281
 10
8.6184085357
 20
5.181837412
 10
8.6182797639
 20
5.179380187
 10
8.6181674185
 20
5.1772366785
 10
8.6180756062
 20
5.175484032
 10
8.6180075537
 20
5.174185167
 10
8.6179656075
 20
5.1733867229
 10
8.6179515276
 20
5.1731172994
  0
LINE
  5
6A
330
1F
100
AcDbEntity
  8
0
  6
Continuous
 62
     7
370
    15
100
AcDbLine
 10
8.6029720474
 20
5.1589023836
 30
0.0
 11
8.5527155346
 21
5.1589023836
 31
0.0
  0
ARC
  5
6B
330
1F
100
AcDbEntity
  8
0
  6
Continuous
 62
     7
370
    15
100
AcDbCircle
 10
8.5527155822
 20
5.1739023564
 30
0.0
 40
0.0149999999999997
100
AcDbArc
 50
183.0
 51
270.0
  0
LWPOLYLINE
  5
6C
330
1F
100
AcDbEntity
  8
0
  6
Continuous
 62
     7
370
    15
100
AcDbPolyline
 90
        9
 70
   128
 43
0.0
 10
8.5377360543
 20
5.1731172994
 10
8.5377219745
 20
5.1733867229
 10
8.5376803216
 20
5.174185167
 10
8.5376119757
 20
5.175484032
 10
8.5375201635
 20
5.1772366785
 10
8.5374078181
 20
5.179380187
 10
8.5372790462
 20
5.181837412
 10
8.5371385412
 20
5.184520281
 10
8.5369912896
 20
5.1873322885
  0
LINE
  5
6D
330
1F
100
AcDbEntity
  8
0
  6
Continuous
 62
     7
370
    15
100
AcDbLine
 10
3.197972113
 20
5.1589023836
 30
0.0
 11
3.1477156003
 21
5.1589023836
 31
0.0
  0
ARC
  5
6E
330
1F
100
AcDbEntity
  8
0
  6
Continuous
 62
     7
370
    15
100
AcDbCircle
 10
3.1979720654
 20
5.1739023564
 30
0.0
 40
0.0150000000000004
100
AcDbArc
 50
270.0
 51
357.0
  0
LWPOLYLINE
  5
6F
330
1F
100
AcDbEntity
  8
0
  6
Continuous
 62
     7
370
    15
100
AcDbPolyline
 90
        9
 70
   128
 43
0.0
 10
3.2136963581
 20
5.1873322885
 10
3.2135491064
 20
5.184520281
 10
3.2134086014
 20
5.181837412
 10
3.2132798295
 20
5.179380187
 10
3.2131674842
 20
5.1772366785
 10
3.2130756719
 20
5.175484032
 10
3.213007326
 20
5.174185167
 10
3.2129656732
 20
5.1733867229
 10
3.2129515933
 20
5.1731172994
  0
ARC
  5
70
330
1F
100
AcDbEntity
  8
0
  6
Continuous
 62
     7
370
    15
100
AcDbCircle
 10
3.1477155822
 20
5.1739023564
 30
0.0
 40
0.015
100
AcDbArc
 50
183.0
 51
270.0
  0
LWPOLYLINE
  5
71
330
1F
100
AcDbEntity
  8
0
  6
Continuous
 62
     7
370
    15
100
AcDbPolyline
 90
        9
 70
   128
 43
0.0
 10
3.13273612
 20
5.1731172994
 10
3.1327220401
 20
5.1733867229
 10
3.132680094
 20
5.174185167
 10
3.1326120414
 20
5.175484032
 10
3.1325202291
 20
5.1772366785
 10
3.1324078838
 20
5.179380187
 10
3.1322791119
 20
5.181837412
 10
3.1321386069
 20
5.184520281
 10
3.1319910619
 20
5.1873322885
  0
LINE
  5
72
330
1F
100
AcDbEntity
  8
0
  6
Continuous
 62
     7
370
    15
100
AcDbLine
 10
7.6283316798
 20
5.7319023559
 30
0.0
 11
7.628055363
 21
5.732012318
 31
0.0
  0
LINE
  5
73
330
1F
100
AcDbEntity
  8
0
  6
Continuous
 62
     7
370
    15
100
AcDbLine
 10
8.1223559195
 20
5.7319023559
 30
0.0
 11
7.6283316798
 21
5.7319023559
 31
0.0
  0
LINE
  5
74
330
1F
100
AcDbEntity
  8
0
  6
Continuous
 62
     7
370
    15
100
AcDbLine
 10
8.1226323829
 20
5.732012318
 30
0.0
 11
8.1223559195
 21
5.7319023559
 31
0.0
  0
LINE
  5
75
330
1F
100
AcDbEntity
  8
0
  6
Continuous
 62
     7
370
    15
100
AcDbLine
 10
8.1239051416
 20
5.6519023517
 30
0.0
 11
7.6267824577
 21
5.6519023517
 31
0.0
  0
LINE
  5
76
330
1F
100
AcDbEntity
  8
0
  6
Continuous
 62
     7
370
    15
100
AcDbLine
 10
3.6283317282
 20
5.7319023559
 30
0.0
 11
3.6280552647
 21
5.732012318
 31
0.0
  0
LINE
  5
77
330
1F
100
AcDbEntity
  8
0
  6
Continuous
 62
     7
370
    15
100
AcDbLine
 10
4.1223559678
 20
5.7319023559
 30
0.0
 11
3.6283317282
 21
5.7319023559
 31
0.0
  0
LINE
  5
78
330
1F
100
AcDbEntity
  8
0
  6
Continuous
 62
     7
370
    15
100
AcDbLine
 10
4.1226322846
 20
5.732012318
 30
0.0
 11
4.1223559678
 21
5.7319023559
 31
0.0
  0
LINE
  5
79
330
1F
100
AcDbEntity
  8
0
  6
Continuous
 62
     7
370
    15
100
AcDbLine
 10
4.1239051899
 20
5.6519023517
 30
0.0
 11
3.6267825061
 21
5.6519023517
 31
0.0
  0
ARC
  5
7A
330
1F
100
AcDbEntity
  8
0
  6
Continuous
 62
     7
370
    15
100
AcDbCircle
 10
8.7714983592
 20
6.9051307618
 30
0.0
 40
1.638190699756402
100
AcDbArc
 50
224.2811664441
 51
225.733926103
  0
LINE
  5
7B
330
1F
100
AcDbEntity
  8
0
  6
Continuous
 62
     7
370
    15
100
AcDbLine
 10
7.6267824577
 20
5.6519023517
 30
0.0
 11
7.5969597489
 21
5.6519023517
 31
0.0
  0
ARC
  5
7C
330
1F
100
AcDbEntity
  8
0
  6
Continuous
 62
     7
370
    15
100
AcDbCircle
 10
4.8086185572
 20
6.9422608374
 30
0.0
 40
1.690689553545725
100
AcDbArc
 50
224.303722955
 51
225.711369592
  0
LINE
  5
7D
330
1F
100
AcDbEntity
  8
0
  6
Continuous
 62
     7
370
    15
100
AcDbLine
 10
3.6267825061
 20
5.6519023517
 30
0.0
 11
3.5969596506
 21
5.6519023517
 31
0.0
  0
ARC
  5
7E
330
1F
100
AcDbEntity
  8
0
  6
Continuous
 62
     7
370
    15
100
AcDbCircle
 10
6.9420690903
 20
6.9422608376
 30
0.0
 40
1.690689553711793
100
AcDbArc
 50
314.288630408
 51
315.6962770449
  0
LINE
  5
7F
330
1F
100
AcDbEntity
  8
0
  6
Continuous
 62
     7
370
    15
100
AcDbLine
 10
8.1537279971
 20
5.6519023517
 30
0.0
 11
8.1239051416
 21
5.6519023517
 31
0.0
  0
ARC
  5
80
330
1F
100
AcDbEntity
  8
0
  6
Continuous
 62
     7
370
    15
100
AcDbCircle
 10
2.9791892884
 20
6.9051307618
 30
0.0
 40
1.638190699758257
100
AcDbArc
 50
314.266073897
 51
315.7188335559
  0
LINE
  5
81
330
1F
100
AcDbEntity
  8
0
  6
Continuous
 62
     7
370
    15
100
AcDbLine
 10
4.1537278987
 20
5.6519023517
 30
0.0
 11
4.1239051899
 21
5.6519023517
 31
0.0
  0
LINE
  5
82
330
1F
100
AcDbEntity
  8
0
  6
Continuous
 62
     7
370
    15
100
AcDbLine
 10
8.6888919081
 20
6.0269023564
 30
0.0
 11
9.303798298
 21
6.0269023564
 31
0.0
  0
LINE
  5
83
330
1F
100
AcDbEntity
  8
0
  6
Continuous
 62
     7
370
    15
100
AcDbLine
 10
9.303798298
 20
6.0269023564
 30
0.0
 11
9.3103439557
 21
5.6519023517
 31
0.0
  0
LINE
  5
84
330
1F
100
AcDbEntity
  8
0
  6
Continuous
 62
     7
370
    15
100
AcDbLine
 10
9.3103439557
 20
5.6519023517
 30
0.0
 11
8.6954375659
 21
5.6519023517
 31
0.0
  0
LINE
  5
85
330
1F
100
AcDbEntity
  8
0
  6
Continuous
 62
     7
370
    15
100
AcDbLine
 10
3.0617957395
 20
6.0269023564
 30
0.0
 11
8.6888919081
 21
6.0269023564
 31
0.0
  0
LINE
  5
86
330
1F
100
AcDbEntity
  8
0
  6
Continuous
 62
     7
370
    15
100
AcDbLine
 10
3.0552500818
 20
5.6519023517
 30
0.0
 11
3.5969596506
 21
5.6519023517
 31
0.0
  0
LINE
  5
87
330
1F
100
AcDbEntity
  8
0
  6
Continuous
 62
     7
370
    15
100
AcDbLine
 10
4.1537278987
 20
5.6519023517
 30
0.0
 11
7.5969597489
 21
5.6519023517
 31
0.0
  0
LINE
  5
88
330
1F
100
AcDbEntity
  8
0
  6
Continuous
 62
     7
370
    15
100
AcDbLine
 10
8.1537279971
 20
5.6519023517
 30
0.0
 11
8.6954375659
 21
5.6519023517
 31
0.0
  0
LINE
  5
89
330
1F
100
AcDbEntity
  8
0
  6
Continuous
 62
     7
370
    15
100
AcDbLine
 10
2.4403436919
 20
5.6519023517
 30
0.0
 11
2.4468893496
 21
6.0269023564
 31
0.0
  0
LINE
  5
8A
330
1F
100
AcDbEntity
  8
0
  6
Continuous
 62
     7
370
    15
100
AcDbLine
 10
2.4468893496
 20
6.0269023564
 30
0.0
 11
3.0617957395
 21
6.0269023564
 31
0.0
  0
LINE
  5
8B
330
1F
100
AcDbEntity
  8
0
  6
Continuous
 62
     7
370
    15
100
AcDbLine
 10
3.0552500818
 20
5.6519023517
 30
0.0
 11
2.4403436919
 21
5.6519023517
 31
0.0
  0
ARC
  5
8C
330
1F
100
AcDbEntity
  8
0
  6
Continuous
 62
     7
370
    15
100
AcDbCircle
 10
9.3384369937
 20
5.7619104199
 30
0.0
 40
0.0300087920590843
100
AcDbArc
 50
181.0150963517
 51
265.0773219819
  0
LINE
  5
8D
330
1F
100
AcDbEntity
  8
0
  6
Continuous
 62
     7
370
    15
100
AcDbLine
 10
9.3371258597
 20
5.6519023517
 30
0.0
 11
9.3103439557
 21
5.6519023517
 31
0.0
  0
ARC
  5
8E
330
1F
100
AcDbEntity
  8
0
  6
Continuous
 62
     7
370
    15
100
AcDbCircle
 10
2.4122506539
 20
5.7619104199
 30
0.0
 40
0.0300087920591167
100
AcDbArc
 50
274.9226780182
 51
358.9849036482
  0
LINE
  5
8F
330
1F
100
AcDbEntity
  8
0
  6
Continuous
 62
     7
370
    15
100
AcDbLine
 10
2.4403436919
 20
5.6519023517
 30
0.0
 11
2.4135617879
 21
5.6519023517
 31
0.0
  0
LINE
  5
90
330
1F
100
AcDbEntity
  8
0
  6
Continuous
 62
     7
370
    15
100
AcDbLine
 10
9.5589475372
 20
5.7319023559
 30
0.0
 11
9.3384282446
 21
5.7319023559
 31
0.0
  0
LINE
  5
91
330
1F
100
AcDbEntity
  8
0
  6
Continuous
 62
     7
370
    15
100
AcDbLine
 10
9.3384282446
 20
5.7319023559
 30
0.0
 11
9.3358619009
 21
5.732012318
 31
0.0
  0
LINE
  5
92
330
1F
100
AcDbEntity
  8
0
  6
Continuous
 62
     7
370
    15
100
AcDbLine
 10
9.5603437877
 20
5.6519023517
 30
0.0
 11
9.3371258597
 21
5.6519023517
 31
0.0
  0
LINE
  5
93
330
1F
100
AcDbEntity
  8
0
  6
Continuous
 62
     7
370
    15
100
AcDbLine
 10
2.412259403
 20
5.7319023559
 30
0.0
 11
2.1917401105
 21
5.7319023559
 31
0.0
  0
LINE
  5
94
330
1F
100
AcDbEntity
  8
0
  6
Continuous
 62
     7
370
    15
100
AcDbLine
 10
2.4148257467
 20
5.732012318
 30
0.0
 11
2.412259403
 21
5.7319023559
 31
0.0
  0
LINE
  5
95
330
1F
100
AcDbEntity
  8
0
  6
Continuous
 62
     7
370
    15
100
AcDbLine
 10
2.4135617879
 20
5.6519023517
 30
0.0
 11
2.1903438599
 21
5.6519023517
 31
0.0
  0
DIMENSION
  5
96
330
1F
100
AcDbEntity
  8
DEFAULT
 62
     7
100
AcDbDimension
  2
_D
 10
11.4998145724
 20
6.0269023564
 30
0.0
 11
11.4998145724
 21
5.5929023564
 31
0.0
 70
   160
  1
<>
 71
     2
 42
-1.0
  3
SLDDIMSTYLE0
100
AcDbAlignedDimension
 13
8.6029720654
 23
5.1589023564
 33
0.0
 14
9.3037981745
 24
6.0269023564
 34
0.0
 50
90.0
100
AcDbRotatedDimension
  0
DIMENSION
  5
A5
330
1F
100
AcDbEntity
  8
DEFAULT
 62
     7
100
AcDbDimension
  2
_D_1
 10
10.2678109195
 20
6.0269023564
 30
0.0
 11
10.2678109195
 21
6.8841569044
 31
0.0
 70
   160
  1
<>
 71
     2
 42
-1.0
  3
SLDDIMSTYLE0
100
AcDbAlignedDimension
 13
9.5603438238
 23
5.6519023564
 33
0.0
 14
9.3037981745
 24
6.0269023564
 34
0.0
 50
90.0
100
AcDbRotatedDimension
  0
ELLIPSE
  5
B4
330
1F
100
AcDbEntity
  8
0
  6
Continuous
 62
     7
370
    15
100
AcDbEllipse
 10
8.6646576508
 20
8.2747383853
 30
0.0
 11
0.3545231217175341
 21
-0.3545231217175333
 31
0.0
210
0.0
220
0.0
230
1.0
 40
0.9972646886
 41
5.499156671652543
 42
7.067213942706641
  0
LINE
  5
B5
330
1F
100
AcDbEntity
  8
0
  6
Continuous
 62
     7
370
    15
100
AcDbLine
 10
3.0846584621
 20
7.7740522788
 30
0.0
 11
8.6660291856
 21
7.7740522788
 31
0.0
  0
ELLIPSE
  5
B6
330
1F
100
AcDbEntity
  8
0
  6
Continuous
 62
     7
370
    15
100
AcDbEllipse
 10
3.0860299968
 20
8.2747383853
 30
0.0
 11
-0.3545231217175333
 21
-0.3545231217175341
 31
0.0
210
0.0
220
0.0
230
1.0
 40
0.9972646886
 41
5.499156671652543
 42
7.067213942706639
  0
LINE
  5
B7
330
1F
100
AcDbEntity
  8
0
  6
Continuous
 62
     7
370
    15
100
AcDbLine
 10
2.5853437235
 20
15.0147374072
 30
0.0
 11
2.5853437235
 21
8.2733670174
 31
0.0
  0
LINE
  5
B8
330
1F
100
AcDbEntity
  8
0
  6
Continuous
 62
     7
370
    15
100
AcDbLine
 10
8.6660291856
 20
15.5140521457
 30
0.0
 11
3.0846584621
 21
15.5140521457
 31
0.0
  0
LINE
  5
B9
330
1F
100
AcDbEntity
  8
0
  6
Continuous
 62
     7
370
    15
100
AcDbLine
 10
9.1653439241
 20
8.2733670174
 30
0.0
 11
9.1653439241
 21
15.0147374072
 31
0.0
  0
CIRCLE
  5
BA
330
1F
100
AcDbEntity
  8
0
  6
Continuous
 62
     7
370
    15
100
AcDbCircle
 10
3.4153438238
 20
14.6840522123
 30
0.0
 40
0.2149999999999999
  0
CIRCLE
  5
BB
330
1F
100
AcDbEntity
  8
0
  6
Continuous
 62
     7
370
    15
100
AcDbCircle
 10
3.4153438238
 20
8.6040522123
 30
0.0
 40
0.2149999999999999
  0
CIRCLE
  5
BC
330
1F
100
AcDbEntity
  8
0
  6
Continuous
 62
     7
370
    15
100
AcDbCircle
 10
8.3353438238
 20
8.6040522123
 30
0.0
 40
0.2149999999999999
  0
CIRCLE
  5
BD
330
1F
100
AcDbEntity
  8
0
  6
Continuous
 62
     7
370
    15
100
AcDbCircle
 10
8.3353438238
 20
14.6840522123
 30
0.0
 40
0.2149999999999999
  0
ELLIPSE
  5
BE
330
1F
100
AcDbEntity
  8
0
  6
Continuous
 62
     7
370
    15
100
AcDbEllipse
 10
3.0860299968
 20
15.0133660393
 30
0.0
 11
-0.3545231217175339
 21
0.3545231217175361
 31
0.0
210
0.0
220
0.0
230
1.0
 40
0.9972646886
 41
5.499156671652547
 42
7.067213942706642
  0
ELLIPSE
  5
BF
330
1F
100
AcDbEntity
  8
0
  6
Continuous
 62
     7
370
    15
100
AcDbEllipse
 10
8.6646576508
 20
15.0133660393
 30
0.0
 11
0.3545231217175342
 21
0.354523121717536
 31
0.0
210
0.0
220
0.0
230
1.0
 40
0.9972646886
 41
5.499156671652546
 42
7.067213942706642
  0
CIRCLE
  5
C0
330
1F
100
AcDbEntity
  8
0
  6
Continuous
 62
     7
370
    15
100
AcDbCircle
 10
3.4153438238
 20
14.6840522123
 30
0.0
 40
0.1154987562167147
  0
CIRCLE
  5
C1
330
1F
100
AcDbEntity
  8
0
  6
Continuous
 62
     7
370
    15
100
AcDbCircle
 10
8.3353438238
 20
14.6840522123
 30
0.0
 40
0.1154987562167129
  0
CIRCLE
  5
C2
330
1F
100
AcDbEntity
  8
0
  6
Continuous
 62
     7
370
    15
100
AcDbCircle
 10
8.3353438238
 20
8.6040522123
 30
0.0
 40
0.1154987562167129
  0
CIRCLE
  5
C3
330
1F
100
AcDbEntity
  8
0
  6
Continuous
 62
     7
370
    15
100
AcDbCircle
 10
3.4153438238
 20
8.6040522123
 30
0.0
 40
0.1154987562167147
  0
LINE
  5
C4
330
1F
100
AcDbEntity
  8
0
  6
Continuous
 62
     7
370
    15
100
AcDbLine
 10
7.5969597489
 20
15.6590521773
 30
0.0
 11
4.1537278987
 21
15.6590521773
 31
0.0
  0
LINE
  5
C5
330
1F
100
AcDbEntity
  8
0
  6
Continuous
 62
     7
370
    15
100
AcDbLine
 10
8.1520065903
 20
15.6571414261
 30
0.0
 11
7.5986811557
 21
15.6571414261
 31
0.0
  0
LINE
  5
C6
330
1F
100
AcDbEntity
  8
0
  6
Continuous
 62
     7
370
    15
100
AcDbLine
 10
8.6954375659
 20
15.6590521773
 30
0.0
 11
8.1537279971
 21
15.6590521773
 31
0.0
  0
LINE
  5
C7
330
1F
100
AcDbEntity
  8
0
  6
Continuous
 62
     7
370
    15
100
AcDbLine
 10
8.6888919081
 20
15.6525065196
 30
0.0
 11
3.0617957395
 21
15.6525065196
 31
0.0
  0
LINE
  5
C8
330
1F
100
AcDbEntity
  8
0
  6
Continuous
 62
     7
370
    15
100
AcDbLine
 10
3.5969596506
 20
15.6590521773
 30
0.0
 11
3.0552500818
 21
15.6590521773
 31
0.0
  0
LINE
  5
C9
330
1F
100
AcDbEntity
  8
0
  6
Continuous
 62
     7
370
    15
100
AcDbLine
 10
4.152006492
 20
15.6571414261
 30
0.0
 11
3.5986810574
 21
15.6571414261
 31
0.0
  0
ELLIPSE
  5
CA
330
1F
100
AcDbEntity
  8
0
  6
Continuous
 62
     7
370
    15
100
AcDbEllipse
 10
8.6887044927
 20
15.0374128812
 30
0.0
 11
-0.4350031463392927
 21
-0.4350031463392927
 31
0.0
210
0.0
220
0.0
230
1.0
 40
0.9996954599
 41
2.356346783439926
 42
3.926838523739675
  0
ELLIPSE
  5
CB
330
1F
100
AcDbEntity
  8
0
  6
Continuous
 62
     7
370
    15
100
AcDbEllipse
 10
8.6952501421
 20
15.0439585305
 30
0.0
 11
-0.4350031463392909
 21
-0.4350031463392909
 31
0.0
210
0.0
220
0.0
230
1.0
 40
0.9996954599
 41
2.356346783439927
 42
3.926838523739671
  0
ELLIPSE
  5
CC
330
1F
100
AcDbEntity
  8
0
  6
Continuous
 62
     7
370
    15
100
AcDbEllipse
 10
3.0619831549
 20
15.0374128812
 30
0.0
 11
0.4350031463392923
 21
-0.4350031463392928
 31
0.0
210
0.0
220
0.0
230
1.0
 40
0.9996954599
 41
2.356346783439925
 42
3.926838523739677
  0
ELLIPSE
  5
CD
330
1F
100
AcDbEntity
  8
0
  6
Continuous
 62
     7
370
    15
100
AcDbEllipse
 10
3.0554375056
 20
15.0439585305
 30
0.0
 11
0.4350031463392922
 21
-0.4350031463392909
 31
0.0
210
0.0
220
0.0
230
1.0
 40
0.9996954599
 41
2.356346783439924
 42
3.926838523739671
  0
ELLIPSE
  5
CE
330
1F
100
AcDbEntity
  8
0
  6
Continuous
 62
     7
370
    15
100
AcDbEllipse
 10
8.6887044927
 20
8.2506915434
 30
0.0
 11
-0.4350031463392927
 21
0.4350031463392927
 31
0.0
210
0.0
220
0.0
230
1.0
 40
0.9996954599
 41
2.356346783439926
 42
3.926838523739677
  0
LINE
  5
CF
330
1F
100
AcDbEntity
  8
0
  6
Continuous
 62
     7
370
    15
100
AcDbLine
 10
3.0617957395
 20
7.6355979049
 30
0.0
 11
8.6888919081
 21
7.6355979049
 31
0.0
  0
ELLIPSE
  5
D0
330
1F
100
AcDbEntity
  8
0
  6
Continuous
 62
     7
370
    15
100
AcDbEllipse
 10
3.0619831549
 20
8.2506915434
 30
0.0
 11
0.4350031463392918
 21
0.4350031463392927
 31
0.0
210
0.0
220
0.0
230
1.0
 40
0.9996954599
 41
2.356346783439924
 42
3.926838523739674
  0
LINE
  5
D1
330
1F
100
AcDbEntity
  8
0
  6
Continuous
 62
     7
370
    15
100
AcDbLine
 10
2.4468893496
 20
15.0376001297
 30
0.0
 11
2.4468893496
 21
8.2505042948
 31
0.0
  0
LINE
  5
D2
330
1F
100
AcDbEntity
  8
0
  6
Continuous
 62
     7
370
    15
100
AcDbLine
 10
9.303798298
 20
8.2505042948
 30
0.0
 11
9.303798298
 21
15.0376001297
 31
0.0
  0
LINE
  5
D3
330
1F
100
AcDbEntity
  8
0
  6
Continuous
 62
     7
370
    15
100
AcDbLine
 10
2.4403436919
 20
14.3656680519
 30
0.0
 11
2.4403436919
 21
8.9224363726
 31
0.0
  0
LINE
  5
D4
330
1F
100
AcDbEntity
  8
0
  6
Continuous
 62
     7
370
    15
100
AcDbLine
 10
2.4422547365
 20
14.9207148933
 30
0.0
 11
2.4422547365
 21
14.3673896054
 31
0.0
  0
LINE
  5
D5
330
1F
100
AcDbEntity
  8
0
  6
Continuous
 62
     7
370
    15
100
AcDbLine
 10
2.4403436919
 20
15.0441457874
 30
0.0
 11
2.4403436919
 21
14.9224364468
 31
0.0
  0
LINE
  5
D6
330
1F
100
AcDbEntity
  8
0
  6
Continuous
 62
     7
370
    15
100
AcDbLine
 10
2.4403436919
 20
8.3656679778
 30
0.0
 11
2.4403436919
 21
8.2439586371
 31
0.0
  0
LINE
  5
D7
330
1F
100
AcDbEntity
  8
0
  6
Continuous
 62
     7
370
    15
100
AcDbLine
 10
2.4422547365
 20
8.9207148192
 30
0.0
 11
2.4422547365
 21
8.3673895312
 31
0.0
  0
LINE
  5
D8
330
1F
100
AcDbEntity
  8
0
  6
Continuous
 62
     7
370
    15
100
AcDbLine
 10
9.3084329111
 20
8.3673895312
 30
0.0
 11
9.3084329111
 21
8.9207148192
 31
0.0
  0
LINE
  5
D9
330
1F
100
AcDbEntity
  8
0
  6
Continuous
 62
     7
370
    15
100
AcDbLine
 10
9.3103439557
 20
8.2439586371
 30
0.0
 11
9.3103439557
 21
8.3656679778
 31
0.0
  0
LINE
  5
DA
330
1F
100
AcDbEntity
  8
0
  6
Continuous
 62
     7
370
    15
100
AcDbLine
 10
9.3103439557
 20
14.9224364468
 30
0.0
 11
9.3103439557
 21
15.0441457874
 31
0.0
  0
LINE
  5
DB
330
1F
100
AcDbEntity
  8
0
  6
Continuous
 62
     7
370
    15
100
AcDbLine
 10
9.3084329111
 20
14.3673896054
 30
0.0
 11
9.3084329111
 21
14.9207148933
 31
0.0
  0
LINE
  5
DC
330
1F
100
AcDbEntity
  8
0
  6
Continuous
 62
     7
370
    15
100
AcDbLine
 10
9.3103439557
 20
8.9224363726
 30
0.0
 11
9.3103439557
 21
14.3656680519
 31
0.0
  0
ELLIPSE
  5
DD
330
1F
100
AcDbEntity
  8
0
  6
Continuous
 62
     7
370
    15
100
AcDbEllipse
 10
3.0554375056
 20
8.244145894
 30
0.0
 11
0.4350031463392922
 21
0.4350031463392909
 31
0.0
210
0.0
220
0.0
230
1.0
 40
0.9996954599
 41
2.356346783439927
 42
3.926838523739675
  0
ELLIPSE
  5
DE
330
1F
100
AcDbEntity
  8
0
  6
Continuous
 62
     7
370
    15
100
AcDbEllipse
 10
8.6952501421
 20
8.244145894
 30
0.0
 11
-0.4350031463392909
 21
0.4350031463392909
 31
0.0
210
0.0
220
0.0
230
1.0
 40
0.9996954599
 41
2.356346783439927
 42
3.926838523739673
  0
LINE
  5
DF
330
1F
100
AcDbEntity
  8
0
  6
Continuous
 62
     7
370
    15
100
AcDbLine
 10
4.1537278987
 20
7.6290522472
 30
0.0
 11
7.5969597489
 21
7.6290522472
 31
0.0
  0
LINE
  5
E0
330
1F
100
AcDbEntity
  8
0
  6
Continuous
 62
     7
370
    15
100
AcDbLine
 10
3.5986810574
 20
7.6309629985
 30
0.0
 11
4.152006492
 21
7.6309629985
 31
0.0
  0
LINE
  5
E1
330
1F
100
AcDbEntity
  8
0
  6
Continuous
 62
     7
370
    15
100
AcDbLine
 10
3.0552500818
 20
7.6290522472
 30
0.0
 11
3.5969596506
 21
7.6290522472
 31
0.0
  0
LINE
  5
E2
330
1F
100
AcDbEntity
  8
0
  6
Continuous
 62
     7
370
    15
100
AcDbLine
 10
8.1537279971
 20
7.6290522472
 30
0.0
 11
8.6954375659
 21
7.6290522472
 31
0.0
  0
LINE
  5
E3
330
1F
100
AcDbEntity
  8
0
  6
Continuous
 62
     7
370
    15
100
AcDbLine
 10
7.5986811557
 20
7.6309629985
 30
0.0
 11
8.1520065903
 21
7.6309629985
 31
0.0
  0
ELLIPSE
  5
E4
330
1F
100
AcDbEntity
  8
0
  6
Continuous
 62
     7
370
    15
100
AcDbEllipse
 10
3.0754199878
 20
15.0239760482
 30
0.0
 11
0.3536610945847905
 21
-0.3536610945847887
 31
0.0
210
0.0
220
0.0
230
1.0
 40
0.9996954599
 41
2.356346783439924
 42
3.926838523739671
  0
ELLIPSE
  5
E5
330
1F
100
AcDbEntity
  8
0
  6
Continuous
 62
     7
370
    15
100
AcDbEllipse
 10
8.6752676598
 20
15.0239760482
 30
0.0
 11
-0.3536610945847905
 21
-0.3536610945847887
 31
0.0
210
0.0
220
0.0
230
1.0
 40
0.9996954599
 41
2.356346783439927
 42
3.926838523739678
  0
ELLIPSE
  5
E6
330
1F
100
AcDbEntity
  8
0
  6
Continuous
 62
     7
370
    15
100
AcDbEllipse
 10
3.0754199878
 20
8.2641283763
 30
0.0
 11
0.3536610945847909
 21
0.3536610945847905
 31
0.0
210
0.0
220
0.0
230
1.0
 40
0.9996954599
 41
2.356346783439926
 42
3.926838523739676
  0
ELLIPSE
  5
E7
330
1F
100
AcDbEntity
  8
0
  6
Continuous
 62
     7
370
    15
100
AcDbEllipse
 10
8.6752676598
 20
8.2641283763
 30
0.0
 11
-0.3536610945847904
 21
0.3536610945847904
 31
0.0
210
0.0
220
0.0
230
1.0
 40
0.9996954599
 41
2.356346783439925
 42
3.926838523739675
  0
LINE
  5
E8
330
1F
100
AcDbEntity
  8
0
  6
Continuous
 62
     7
370
    15
100
AcDbLine
 10
8.6754198504
 20
15.5240523502
 30
0.0
 11
3.0752677972
 21
15.5240523502
 31
0.0
  0
LINE
  5
E9
330
1F
100
AcDbEntity
  8
0
  6
Continuous
 62
     7
370
    15
100
AcDbLine
 10
2.5753438124
 20
15.0241283653
 30
0.0
 11
2.5753438124
 21
8.2639760592
 31
0.0
  0
LINE
  5
EA
330
1F
100
AcDbEntity
  8
0
  6
Continuous
 62
     7
370
    15
100
AcDbLine
 10
9.1753438353
 20
8.2639760592
 30
0.0
 11
9.1753438353
 21
15.0241283653
 31
0.0
  0
LINE
  5
EB
330
1F
100
AcDbEntity
  8
0
  6
Continuous
 62
     7
370
    15
100
AcDbLine
 10
3.0752677972
 20
7.7640520744
 30
0.0
 11
8.6754198504
 21
7.7640520744
 31
0.0
  0
ARC
  5
EC
330
1F
100
AcDbEntity
  8
0
  6
Continuous
 62
     7
370
    15
100
AcDbCircle
 10
4.1537271599
 20
15.689046654
 30
0.0
 40
0.0299944767107737
100
AcDbArc
 50
186.1479221822
 51
270.0014113202
  0
ARC
  5
ED
330
1F
100
AcDbEntity
  8
0
  6
Continuous
 62
     7
370
    15
100
AcDbCircle
 10
4.1527636397
 20
15.6873954525
 30
0.0
 40
0.0302634993022722
100
AcDbArc
 50
185.3562437372
 51
268.5663952551
  0
ARC
  5
EE
330
1F
100
AcDbEntity
  8
0
  6
Continuous
 62
     7
370
    15
100
AcDbCircle
 10
3.5979244078
 20
15.687394919
 30
0.0
 40
0.0302629534679834
100
AcDbArc
 50
271.4326870715
 51
354.6446739363
  0
LINE
  5
EF
330
1F
100
AcDbEntity
  8
0
  6
Continuous
 62
     7
370
    15
100
AcDbLine
 10
3.6280552647
 20
15.6845704159
 30
0.0
 11
3.6283317282
 21
15.6871367595
 31
0.0
  0
LINE
  5
F0
330
1F
100
AcDbEntity
  8
0
  6
Continuous
 62
     7
370
    15
100
AcDbLine
 10
4.1223559678
 20
15.6871367595
 30
0.0
 11
4.1226322846
 21
15.6845704159
 31
0.0
  0
ARC
  5
F1
330
1F
100
AcDbEntity
  8
0
  6
Continuous
 62
     7
370
    15
100
AcDbCircle
 10
3.5969603593
 20
15.6890468509
 30
0.0
 40
0.0299946735742997
100
AcDbArc
 50
269.9986462463
 51
353.8517400987
  0
ARC
  5
F2
330
1F
100
AcDbEntity
  8
0
  6
Continuous
 62
     7
370
    15
100
AcDbCircle
 10
7.5979240079
 20
15.6873954525
 30
0.0
 40
0.0302634993022748
100
AcDbArc
 50
271.4336047449
 51
354.6437562628
  0
ARC
  5
F3
330
1F
100
AcDbEntity
  8
0
  6
Continuous
 62
     7
370
    15
100
AcDbCircle
 10
7.5969608863
 20
15.6890462102
 30
0.0
 40
0.0299940329312602
100
AcDbArc
 50
269.9978273405
 51
353.8528391571
  0
ARC
  5
F4
330
1F
100
AcDbEntity
  8
0
  6
Continuous
 62
     7
370
    15
100
AcDbCircle
 10
8.1537272761
 20
15.6890468372
 30
0.0
 40
0.02999465990461
100
AcDbArc
 50
186.1482364506
 51
270.0013772044
  0
ARC
  5
F5
330
1F
100
AcDbEntity
  8
0
  6
Continuous
 62
     7
370
    15
100
AcDbCircle
 10
8.1527632398
 20
15.687394919
 30
0.0
 40
0.0302629534679838
100
AcDbArc
 50
185.3553260637
 51
268.5673129285
  0
LINE
  5
F6
330
1F
100
AcDbEntity
  8
0
  6
Continuous
 62
     7
370
    15
100
AcDbLine
 10
8.1223559195
 20
15.6871367595
 30
0.0
 11
8.1226323829
 21
15.6845704159
 31
0.0
  0
LINE
  5
F7
330
1F
100
AcDbEntity
  8
0
  6
Continuous
 62
     7
370
    15
100
AcDbLine
 10
7.628055363
 20
15.6845704159
 30
0.0
 11
7.6283316798
 21
15.6871367595
 31
0.0
  0
ARC
  5
F8
330
1F
100
AcDbEntity
  8
0
  6
Continuous
 62
     7
370
    15
100
AcDbCircle
 10
2.4119804616
 20
14.9214910991
 30
0.0
 40
0.0302842239045078
100
AcDbArc
 50
275.3910453093
 51
358.5313082754
  0
ARC
  5
F9
330
1F
100
AcDbEntity
  8
0
  6
Continuous
 62
     7
370
    15
100
AcDbCircle
 10
2.4119795195
 20
14.3666125199
 30
0.0
 40
0.030285188197509
100
AcDbArc
 50
1.4703097129
 51
84.6073367024
  0
LINE
  5
FA
330
1F
100
AcDbEntity
  8
0
  6
Continuous
 62
     7
370
    15
100
AcDbLine
 10
2.4148257467
 20
14.396763666
 30
0.0
 11
2.412259403
 21
14.3970399829
 31
0.0
  0
LINE
  5
FB
330
1F
100
AcDbEntity
  8
0
  6
Continuous
 62
     7
370
    15
100
AcDbLine
 10
2.412259403
 20
14.8910645158
 30
0.0
 11
2.4148257467
 21
14.8913408326
 31
0.0
  0
ARC
  5
FC
330
1F
100
AcDbEntity
  8
0
  6
Continuous
 62
     7
370
    15
100
AcDbCircle
 10
2.4103503953
 20
14.9224344699
 30
0.0
 40
0.0299932966744502
100
AcDbArc
 50
276.1464612277
 51
0.0037763469
  0
LINE
  5
FD
330
1F
100
AcDbEntity
  8
0
  6
Continuous
 62
     7
370
    15
100
AcDbLine
 10
9.3384282446
 20
14.3970399829
 30
0.0
 11
9.3358619009
 21
14.396763666
 31
0.0
  0
ARC
  5
FE
330
1F
100
AcDbEntity
  8
0
  6
Continuous
 62
     7
370
    15
100
AcDbCircle
 10
9.3387081281
 20
14.3666125199
 30
0.0
 40
0.0302851881974757
100
AcDbArc
 50
95.3926632975
 51
178.5296902872
  0
ARC
  5
FF
330
1F
100
AcDbEntity
  8
0
  6
Continuous
 62
     7
370
    15
100
AcDbCircle
 10
9.3387071861
 20
14.9214910991
 30
0.0
 40
0.0302842239044743
100
AcDbArc
 50
181.4686917246
 51
264.6089546907
  0
LINE
  5
100
330
1F
100
AcDbEntity
  8
0
  6
Continuous
 62
     7
370
    15
100
AcDbLine
 10
9.3358619009
 20
14.8913408326
 30
0.0
 11
9.3384282446
 21
14.8910645158
 31
0.0
  0
ARC
  5
101
330
1F
100
AcDbEntity
  8
0
  6
Continuous
 62
     7
370
    15
100
AcDbCircle
 10
9.3403376719
 20
14.9224348467
 30
0.0
 40
0.029993716220988
100
AcDbArc
 50
179.9969434664
 51
263.852818959
  0
ARC
  5
102
330
1F
100
AcDbEntity
  8
0
  6
Continuous
 62
     7
370
    15
100
AcDbCircle
 10
2.4103498414
 20
14.3656695314
 30
0.0
 40
0.029993850551038
100
AcDbArc
 50
359.9971739296
 51
83.8525884958
  0
ARC
  5
103
330
1F
100
AcDbEntity
  8
0
  6
Continuous
 62
     7
370
    15
100
AcDbCircle
 10
9.3403373685
 20
14.3656699245
 30
0.0
 40
0.0299934128290021
100
AcDbArc
 50
96.1466605162
 51
180.0035770584
  0
ARC
  5
104
330
1F
100
AcDbEntity
  8
0
  6
Continuous
 62
     7
370
    15
100
AcDbCircle
 10
9.3387071861
 20
8.3666133254
 30
0.0
 40
0.0302842239044791
100
AcDbArc
 50
95.3910453093
 51
178.5313082754
  0
ARC
  5
105
330
1F
100
AcDbEntity
  8
0
  6
Continuous
 62
     7
370
    15
100
AcDbCircle
 10
9.3387081281
 20
8.9214919047
 30
0.0
 40
0.0302851881974736
100
AcDbArc
 50
181.4703097128
 51
264.6073367025
  0
LINE
  5
106
330
1F
100
AcDbEntity
  8
0
  6
Continuous
 62
     7
370
    15
100
AcDbLine
 10
9.3358619009
 20
8.8913407585
 30
0.0
 11
9.3384282446
 21
8.8910644417
 31
0.0
  0
LINE
  5
107
330
1F
100
AcDbEntity
  8
0
  6
Continuous
 62
     7
370
    15
100
AcDbLine
 10
9.3384282446
 20
8.3970399087
 30
0.0
 11
9.3358619009
 21
8.3967635919
 31
0.0
  0
ARC
  5
108
330
1F
100
AcDbEntity
  8
0
  6
Continuous
 62
     7
370
    15
100
AcDbCircle
 10
9.3403378062
 20
8.9224348932
 30
0.0
 40
0.0299938505510403
100
AcDbArc
 50
179.9971739296
 51
263.8525884958
  0
LINE
  5
109
330
1F
100
AcDbEntity
  8
0
  6
Continuous
 62
     7
370
    15
100
AcDbLine
 10
2.412259403
 20
8.8910644417
 30
0.0
 11
2.4148257467
 21
8.8913407585
 31
0.0
  0
ARC
  5
10A
330
1F
100
AcDbEntity
  8
0
  6
Continuous
 62
     7
370
    15
100
AcDbCircle
 10
2.4119795195
 20
8.9214919047
 30
0.0
 40
0.0302851881975063
100
AcDbArc
 50
275.3926632976
 51
358.5296902871
  0
ARC
  5
10B
330
1F
100
AcDbEntity
  8
0
  6
Continuous
 62
     7
370
    15
100
AcDbCircle
 10
2.4119804616
 20
8.3666133254
 30
0.0
 40
0.0302842239045112
100
AcDbArc
 50
1.4686917247
 51
84.6089546906
  0
LINE
  5
10C
330
1F
100
AcDbEntity
  8
0
  6
Continuous
 62
     7
370
    15
100
AcDbLine
 10
2.4148257467
 20
8.3967635919
 30
0.0
 11
2.412259403
 21
8.3970399087
 31
0.0
  0
ARC
  5
10D
330
1F
100
AcDbEntity
  8
0
  6
Continuous
 62
     7
370
    15
100
AcDbCircle
 10
2.4103502791
 20
8.9224345001
 30
0.0
 40
0.0299934128290037
100
AcDbArc
 50
276.1466605162
 51
0.0035770584
  0
ARC
  5
10E
330
1F
100
AcDbEntity
  8
0
  6
Continuous
 62
     7
370
    15
100
AcDbCircle
 10
9.3403372523
 20
8.3656699546
 30
0.0
 40
0.0299932966744494
100
AcDbArc
 50
96.1464612277
 51
180.0037763469
  0
ARC
  5
10F
330
1F
100
AcDbEntity
  8
0
  6
Continuous
 62
     7
370
    15
100
AcDbCircle
 10
2.4103499757
 20
8.3656695778
 30
0.0
 40
0.0299937162209868
100
AcDbArc
 50
359.9969434664
 51
83.852818959
  0
ARC
  5
110
330
1F
100
AcDbEntity
  8
0
  6
Continuous
 62
     7
370
    15
100
AcDbCircle
 10
7.5979240079
 20
7.600708972
 30
0.0
 40
0.0302634993022085
100
AcDbArc
 50
5.3562437371
 51
88.5663952552
  0
ARC
  5
111
330
1F
100
AcDbEntity
  8
0
  6
Continuous
 62
     7
370
    15
100
AcDbCircle
 10
8.1527632398
 20
7.6007095056
 30
0.0
 40
0.0302629534679174
100
AcDbArc
 50
91.4326870713
 51
174.6446739364
  0
LINE
  5
112
330
1F
100
AcDbEntity
  8
0
  6
Continuous
 62
     7
370
    15
100
AcDbLine
 10
8.1226323829
 20
7.6035340087
 30
0.0
 11
8.1223559195
 21
7.600967665
 31
0.0
  0
LINE
  5
113
330
1F
100
AcDbEntity
  8
0
  6
Continuous
 62
     7
370
    15
100
AcDbLine
 10
7.6283316798
 20
7.600967665
 30
0.0
 11
7.628055363
 21
7.6035340087
 31
0.0
  0
ARC
  5
114
330
1F
100
AcDbEntity
  8
0
  6
Continuous
 62
     7
370
    15
100
AcDbCircle
 10
8.1537272884
 20
7.5990575737
 30
0.0
 40
0.0299946735742993
100
AcDbArc
 50
89.9986462463
 51
173.8517400987
  0
LINE
  5
115
330
1F
100
AcDbEntity
  8
0
  6
Continuous
 62
     7
370
    15
100
AcDbLine
 10
3.6283317282
 20
7.600967665
 30
0.0
 11
3.6280552647
 21
7.6035340087
 31
0.0
  0
ARC
  5
116
330
1F
100
AcDbEntity
  8
0
  6
Continuous
 62
     7
370
    15
100
AcDbCircle
 10
3.5979244078
 20
7.6007095056
 30
0.0
 40
0.0302629534679179
100
AcDbArc
 50
5.3553260636
 51
88.5673129286
  0
ARC
  5
117
330
1F
100
AcDbEntity
  8
0
  6
Continuous
 62
     7
370
    15
100
AcDbCircle
 10
4.1527636397
 20
7.600708972
 30
0.0
 40
0.0302634993022067
100
AcDbArc
 50
91.4336047448
 51
174.6437562629
  0
LINE
  5
118
330
1F
100
AcDbEntity
  8
0
  6
Continuous
 62
     7
370
    15
100
AcDbLine
 10
4.1226322846
 20
7.6035340087
 30
0.0
 11
4.1223559678
 21
7.600967665
 31
0.0
  0
ARC
  5
119
330
1F
100
AcDbEntity
  8
0
  6
Continuous
 62
     7
370
    15
100
AcDbCircle
 10
4.1537267614
 20
7.5990582143
 30
0.0
 40
0.0299940329312592
100
AcDbArc
 50
89.9978273405
 51
173.8528391571
  0
ARC
  5
11A
330
1F
100
AcDbEntity
  8
0
  6
Continuous
 62
     7
370
    15
100
AcDbCircle
 10
7.5969604877
 20
7.5990577705
 30
0.0
 40
0.0299944767107797
100
AcDbArc
 50
6.1479221822
 51
90.0014113202
  0
ARC
  5
11B
330
1F
100
AcDbEntity
  8
0
  6
Continuous
 62
     7
370
    15
100
AcDbCircle
 10
3.5969603715
 20
7.5990575873
 30
0.0
 40
0.0299946599046147
100
AcDbArc
 50
6.1482364506
 51
90.0013772044
  0
ARC
  5
11C
330
1F
100
AcDbEntity
  8
0
  6
Continuous
 62
     7
370
    15
100
AcDbCircle
 10
3.8753438238
 20
15.6590522123
 30
0.0
 40
0.2486035948057421
100
AcDbArc
 50
6.4864969618
 51
173.5135030382
  0
ARC
  5
11D
330
1F
100
AcDbEntity
  8
0
  6
Continuous
 62
     7
370
    15
100
AcDbCircle
 10
3.8753438238
 20
15.6590522123
 30
0.0
 40
0.2499999999999999
100
AcDbArc
 50
6.1498001834
 51
173.8501998166
  0
ARC
  5
11E
330
1F
100
AcDbEntity
  8
0
  6
Continuous
 62
     7
370
    15
100
AcDbCircle
 10
7.8753438238
 20
15.6590522123
 30
0.0
 40
0.2486035948057421
100
AcDbArc
 50
6.4864969618
 51
173.5135030382
  0
ARC
  5
11F
330
1F
100
AcDbEntity
  8
0
  6
Continuous
 62
     7
370
    15
100
AcDbCircle
 10
7.8753438238
 20
15.6590522123
 30
0.0
 40
0.2500000000000003
100
AcDbArc
 50
6.1498001834
 51
173.8501998166
  0
ARC
  5
120
330
1F
100
AcDbEntity
  8
0
  6
Continuous
 62
     7
370
    15
100
AcDbCircle
 10
2.4403438238
 20
14.6440522123
 30
0.0
 40
0.2486035948057413
100
AcDbArc
 50
96.4864969618
 51
263.5135030382
  0
ARC
  5
121
330
1F
100
AcDbEntity
  8
0
  6
Continuous
 62
     7
370
    15
100
AcDbCircle
 10
2.4403438238
 20
14.6440522123
 30
0.0
 40
0.2500000000000003
100
AcDbArc
 50
96.1498001834
 51
263.8501998166
  0
ARC
  5
122
330
1F
100
AcDbEntity
  8
0
  6
Continuous
 62
     7
370
    15
100
AcDbCircle
 10
9.3103438238
 20
14.6440522123
 30
0.0
 40
0.2486035948057412
100
AcDbArc
 50
276.4864969618
 51
83.5135030382
  0
ARC
  5
123
330
1F
100
AcDbEntity
  8
0
  6
Continuous
 62
     7
370
    15
100
AcDbCircle
 10
9.3103438238
 20
14.6440522123
 30
0.0
 40
0.2500000000000003
100
AcDbArc
 50
276.1498001834
 51
83.8501998166
  0
ARC
  5
124
330
1F
100
AcDbEntity
  8
0
  6
Continuous
 62
     7
370
    15
100
AcDbCircle
 10
2.4403438238
 20
8.6440522123
 30
0.0
 40
0.2486035948057428
100
AcDbArc
 50
96.4864969618
 51
263.5135030382
  0
ARC
  5
125
330
1F
100
AcDbEntity
  8
0
  6
Continuous
 62
     7
370
    15
100
AcDbCircle
 10
2.4403438238
 20
8.6440522123
 30
0.0
 40
0.2500000000000002
100
AcDbArc
 50
96.1498001834
 51
263.8501998166
  0
ARC
  5
126
330
1F
100
AcDbEntity
  8
0
  6
Continuous
 62
     7
370
    15
100
AcDbCircle
 10
9.3103438238
 20
8.6440522123
 30
0.0
 40
0.248603594805743
100
AcDbArc
 50
276.4864969618
 51
83.5135030382
  0
ARC
  5
127
330
1F
100
AcDbEntity
  8
0
  6
Continuous
 62
     7
370
    15
100
AcDbCircle
 10
9.3103438238
 20
8.6440522123
 30
0.0
 40
0.2500000000000001
100
AcDbArc
 50
276.1498001834
 51
83.8501998166
  0
ARC
  5
128
330
1F
100
AcDbEntity
  8
0
  6
Continuous
 62
     7
370
    15
100
AcDbCircle
 10
7.8753438238
 20
7.6290522123
 30
0.0
 40
0.2486035948057425
100
AcDbArc
 50
186.4864969618
 51
353.5135030382
  0
ARC
  5
129
330
1F
100
AcDbEntity
  8
0
  6
Continuous
 62
     7
370
    15
100
AcDbCircle
 10
7.8753438238
 20
7.6290522123
 30
0.0
 40
0.2500000000000006
100
AcDbArc
 50
186.1498001834
 51
353.8501998166
  0
ARC
  5
12A
330
1F
100
AcDbEntity
  8
0
  6
Continuous
 62
     7
370
    15
100
AcDbCircle
 10
3.8753438238
 20
7.6290522123
 30
0.0
 40
0.2486035948057425
100
AcDbArc
 50
186.4864969618
 51
353.5135030382
  0
ARC
  5
12B
330
1F
100
AcDbEntity
  8
0
  6
Continuous
 62
     7
370
    15
100
AcDbCircle
 10
3.8753438238
 20
7.6290522123
 30
0.0
 40
0.2500000000000002
100
AcDbArc
 50
186.1498001834
 51
353.8501998166
  0
LWPOLYLINE
  5
12C
330
1F
100
AcDbEntity
  8
0
  6
PHANTOM
 62
     8
370
     0
100
AcDbPolyline
 90
        3
 70
   128
 43
0.0
 10
4.1537278987
 20
15.6590521773
 10
4.1528608154
 20
15.6580880018
 10
4.152006492
 20
15.6571414261
  0
LWPOLYLINE
  5
12D
330
1F
100
AcDbEntity
  8
0
  6
PHANTOM
 62
     8
370
     0
100
AcDbPolyline
 90
        3
 70
   128
 43
0.0
 10
7.5986811557
 20
15.6571414261
 10
7.5978268322
 20
15.6580880018
 10
7.5969597489
 20
15.6590521773
  0
LWPOLYLINE
  5
12E
330
1F
100
AcDbEntity
  8
0
  6
PHANTOM
 62
     8
370
     0
100
AcDbPolyline
 90
        3
 70
   128
 43
0.0
 10
8.1537279971
 20
15.6590521773
 10
8.1528607671
 20
15.6580880018
 10
8.1520065903
 20
15.6571414261
  0
LINE
  5
12F
330
1F
100
AcDbEntity
  8
0
  6
PHANTOM
 62
     8
370
     0
100
AcDbLine
 10
8.6888919081
 20
15.6525065196
 30
0.0
 11
8.6954375659
 21
15.6590521773
 31
0.0
  0
LINE
  5
130
330
1F
100
AcDbEntity
  8
0
  6
PHANTOM
 62
     8
370
     0
100
AcDbLine
 10
3.0552500818
 20
15.6590521773
 30
0.0
 11
3.0617957395
 21
15.6525065196
 31
0.0
  0
LWPOLYLINE
  5
131
330
1F
100
AcDbEntity
  8
0
  6
PHANTOM
 62
     8
370
     0
100
AcDbPolyline
 90
        3
 70
   128
 43
0.0
 10
3.5986810574
 20
15.6571414261
 10
3.5978268806
 20
15.6580880018
 10
3.5969596506
 20
15.6590521773
  0
LINE
  5
132
330
1F
100
AcDbEntity
  8
0
  6
PHANTOM
 62
     8
370
     0
100
AcDbLine
 10
9.3103439557
 20
15.0441457874
 30
0.0
 11
9.303798298
 21
15.0376001297
 31
0.0
  0
LINE
  5
133
330
1F
100
AcDbEntity
  8
0
  6
PHANTOM
 62
     8
370
     0
100
AcDbLine
 10
2.4468893496
 20
15.0376001297
 30
0.0
 11
2.4403436919
 21
15.0441457874
 31
0.0
  0
ELLIPSE
  5
134
330
1F
100
AcDbEntity
  8
0
  6
PHANTOM
 62
     8
370
     0
100
AcDbEllipse
 10
3.0715798736
 20
8.260288262
 30
0.0
 11
0.3748807602598777
 21
0.3748807602598791
 31
0.0
210
0.0
220
0.0
230
1.0
 40
0.9996954599
 41
2.356346783439923
 42
3.926838523739674
  0
LINE
  5
135
330
1F
100
AcDbEntity
  8
0
  6
PHANTOM
 62
     8
370
     0
100
AcDbLine
 10
8.6792692193
 20
7.7302076653
 30
0.0
 11
3.0714184283
 21
7.7302076653
 31
0.0
  0
ELLIPSE
  5
136
330
1F
100
AcDbEntity
  8
0
  6
PHANTOM
 62
     8
370
     0
100
AcDbEllipse
 10
8.6791077741
 20
8.260288262
 30
0.0
 11
-0.3748807602598791
 21
0.3748807602598791
 31
0.0
210
0.0
220
0.0
230
1.0
 40
0.9996954599
 41
2.356346783439924
 42
3.926838523739676
  0
LINE
  5
137
330
1F
100
AcDbEntity
  8
0
  6
PHANTOM
 62
     8
370
     0
100
AcDbLine
 10
9.2091885376
 20
15.0279777342
 30
0.0
 11
9.2091885376
 21
8.2601266903
 31
0.0
  0
ELLIPSE
  5
138
330
1F
100
AcDbEntity
  8
0
  6
PHANTOM
 62
     8
370
     0
100
AcDbEllipse
 10
8.6791077741
 20
15.0278161625
 30
0.0
 11
-0.3748807602598791
 21
-0.3748807602598773
 31
0.0
210
0.0
220
0.0
230
1.0
 40
0.9996954599
 41
2.356346783439928
 42
3.926838523739677
  0
LINE
  5
139
330
1F
100
AcDbEntity
  8
0
  6
PHANTOM
 62
     8
370
     0
100
AcDbLine
 10
3.0714184283
 20
15.5578967592
 30
0.0
 11
8.6792692193
 21
15.5578967592
 31
0.0
  0
ELLIPSE
  5
13A
330
1F
100
AcDbEntity
  8
0
  6
PHANTOM
 62
     8
370
     0
100
AcDbEllipse
 10
3.0715798736
 20
15.0278161625
 30
0.0
 11
0.3748807602598778
 21
-0.3748807602598773
 31
0.0
210
0.0
220
0.0
230
1.0
 40
0.9996954599
 41
2.356346783439926
 42
3.926838523739674
  0
LINE
  5
13B
330
1F
100
AcDbEntity
  8
0
  6
PHANTOM
 62
     8
370
     0
100
AcDbLine
 10
2.54149911
 20
8.2601266903
 30
0.0
 11
2.54149911
 21
15.0279777342
 31
0.0
  0
ELLIPSE
  5
13C
330
1F
100
AcDbEntity
  8
0
  6
PHANTOM
 62
     8
370
     0
100
AcDbEllipse
 10
8.6791077741
 20
15.0278161625
 30
0.0
 11
0.3536740170957219
 21
0.3536740170957983
 31
0.0
210
0.0
220
0.0
230
1.0
 40
0.9996589331
 41
5.497939437029627
 42
7.068431177329343
  0
LINE
  5
13D
330
1F
100
AcDbEntity
  8
0
  6
PHANTOM
 62
     8
370
     0
100
AcDbLine
 10
8.6792692193
 20
15.5279014257
 30
0.0
 11
8.6792692193
 21
15.5578967592
 31
0.0
  0
LINE
  5
13E
330
1F
100
AcDbEntity
  8
0
  6
PHANTOM
 62
     8
370
     0
100
AcDbLine
 10
9.1791932041
 20
15.0279777342
 30
0.0
 11
9.2091885376
 21
15.0279777342
 31
0.0
  0
LINE
  5
13F
330
1F
100
AcDbEntity
  8
0
  6
PHANTOM
 62
     8
370
     0
100
AcDbLine
 10
3.0714184283
 20
15.5279014257
 30
0.0
 11
3.0714184283
 21
15.5578967592
 31
0.0
  0
ELLIPSE
  5
140
330
1F
100
AcDbEntity
  8
0
  6
PHANTOM
 62
     8
370
     0
100
AcDbEllipse
 10
3.0715798736
 20
15.0278161625
 30
0.0
 11
0.3536740170957611
 21
-0.3536740170957628
 31
0.0
210
0.0
220
0.0
230
1.0
 40
0.9996589331
 41
2.356346783439928
 42
3.926838523739677
  0
LINE
  5
141
330
1F
100
AcDbEntity
  8
0
  6
PHANTOM
 62
     8
370
     0
100
AcDbLine
 10
2.54149911
 20
15.0279777342
 30
0.0
 11
2.5714944435
 21
15.0279777342
 31
0.0
  0
LINE
  5
142
330
1F
100
AcDbEntity
  8
0
  6
PHANTOM
 62
     8
370
     0
100
AcDbLine
 10
8.6792692193
 20
15.5279014257
 30
0.0
 11
3.0714184283
 21
15.5279014257
 31
0.0
  0
LWPOLYLINE
  5
143
330
1F
100
AcDbEntity
  8
0
  6
PHANTOM
 62
     8
370
     0
100
AcDbPolyline
 90
        3
 70
   128
 43
0.0
 10
2.4403436919
 20
8.9224363726
 10
2.4413078674
 20
8.9215692893
 10
2.4422547365
 20
8.9207148192
  0
LWPOLYLINE
  5
144
330
1F
100
AcDbEntity
  8
0
  6
PHANTOM
 62
     8
370
     0
100
AcDbPolyline
 90
        3
 70
   128
 43
0.0
 10
2.4422547365
 20
14.3673896054
 10
2.4413078674
 20
14.3665351352
 10
2.4403436919
 20
14.3656680519
  0
LWPOLYLINE
  5
145
330
1F
100
AcDbEntity
  8
0
  6
PHANTOM
 62
     8
370
     0
100
AcDbPolyline
 90
        3
 70
   128
 43
0.0
 10
2.4403436919
 20
14.9224364468
 10
2.4413078674
 20
14.9215690701
 10
2.4422547365
 20
14.9207148933
  0
LINE
  5
146
330
1F
100
AcDbEntity
  8
0
  6
PHANTOM
 62
     8
370
     0
100
AcDbLine
 10
2.4403436919
 20
8.2439586371
 30
0.0
 11
2.4468893496
 21
8.2505042948
 31
0.0
  0
LWPOLYLINE
  5
147
330
1F
100
AcDbEntity
  8
0
  6
PHANTOM
 62
     8
370
     0
100
AcDbPolyline
 90
        3
 70
   128
 43
0.0
 10
2.4422547365
 20
8.3673895312
 10
2.4413078674
 20
8.3665353544
 10
2.4403436919
 20
8.3656679778
  0
LWPOLYLINE
  5
148
330
1F
100
AcDbEntity
  8
0
  6
PHANTOM
 62
     8
370
     0
100
AcDbPolyline
 90
        3
 70
   128
 43
0.0
 10
9.3084329111
 20
8.9207148192
 10
9.3093797802
 20
8.9215692893
 10
9.3103439557
 20
8.9224363726
  0
LWPOLYLINE
  5
149
330
1F
100
AcDbEntity
  8
0
  6
PHANTOM
 62
     8
370
     0
100
AcDbPolyline
 90
        3
 70
   128
 43
0.0
 10
9.3103439557
 20
8.3656679778
 10
9.3093797802
 20
8.3665353544
 10
9.3084329111
 20
8.3673895312
  0
LINE
  5
14A
330
1F
100
AcDbEntity
  8
0
  6
PHANTOM
 62
     8
370
     0
100
AcDbLine
 10
9.303798298
 20
8.2505042948
 30
0.0
 11
9.3103439557
 21
8.2439586371
 31
0.0
  0
LWPOLYLINE
  5
14B
330
1F
100
AcDbEntity
  8
0
  6
PHANTOM
 62
     8
370
     0
100
AcDbPolyline
 90
        3
 70
   128
 43
0.0
 10
9.3084329111
 20
14.9207148933
 10
9.3093797802
 20
14.9215690701
 10
9.3103439557
 20
14.9224364468
  0
LWPOLYLINE
  5
14C
330
1F
100
AcDbEntity
  8
0
  6
PHANTOM
 62
     8
370
     0
100
AcDbPolyline
 90
        3
 70
   128
 43
0.0
 10
9.3103439557
 20
14.3656680519
 10
9.3093797802
 20
14.3665351352
 10
9.3084329111
 20
14.3673896054
  0
LINE
  5
14D
330
1F
100
AcDbEntity
  8
0
  6
PHANTOM
 62
     8
370
     0
100
AcDbLine
 10
9.1791932041
 20
8.2601266903
 30
0.0
 11
9.1791932041
 21
15.0279777342
 31
0.0
  0
LINE
  5
14E
330
1F
100
AcDbEntity
  8
0
  6
PHANTOM
 62
     8
370
     0
100
AcDbLine
 10
9.1791932041
 20
8.2601266903
 30
0.0
 11
9.2091885376
 21
8.2601266903
 31
0.0
  0
LINE
  5
14F
330
1F
100
AcDbEntity
  8
0
  6
PHANTOM
 62
     8
370
     0
100
AcDbLine
 10
2.5714944435
 20
15.0279777342
 30
0.0
 11
2.5714944435
 21
8.2601266903
 31
0.0
  0
LINE
  5
150
330
1F
100
AcDbEntity
  8
0
  6
PHANTOM
 62
     8
370
     0
100
AcDbLine
 10
2.54149911
 20
8.2601266903
 30
0.0
 11
2.5714944435
 21
8.2601266903
 31
0.0
  0
LINE
  5
151
330
1F
100
AcDbEntity
  8
0
  6
PHANTOM
 62
     8
370
     0
100
AcDbLine
 10
8.6792692193
 20
7.7302076653
 30
0.0
 11
8.6792692193
 21
7.7602029988
 31
0.0
  0
ELLIPSE
  5
152
330
1F
100
AcDbEntity
  8
0
  6
PHANTOM
 62
     8
370
     0
100
AcDbEllipse
 10
8.6791077741
 20
8.260288262
 30
0.0
 11
0.3536740170957219
 21
-0.3536740170957983
 31
0.0
210
0.0
220
0.0
230
1.0
 40
0.9996589331
 41
5.497939437029841
 42
7.068431177329562
  0
ELLIPSE
  5
153
330
1F
100
AcDbEntity
  8
0
  6
PHANTOM
 62
     8
370
     0
100
AcDbEllipse
 10
3.0715798736
 20
8.260288262
 30
0.0
 11
0.3536740170957233
 21
0.3536740170958002
 31
0.0
210
0.0
220
0.0
230
1.0
 40
0.9996589331
 41
2.356346783439816
 42
3.926838523739567
  0
LINE
  5
154
330
1F
100
AcDbEntity
  8
0
  6
PHANTOM
 62
     8
370
     0
100
AcDbLine
 10
3.0714184283
 20
7.7302076653
 30
0.0
 11
3.0714184283
 21
7.7602029988
 31
0.0
  0
LINE
  5
155
330
1F
100
AcDbEntity
  8
0
  6
PHANTOM
 62
     8
370
     0
100
AcDbLine
 10
3.0617957395
 20
7.6355979049
 30
0.0
 11
3.0552500818
 21
7.6290522472
 31
0.0
  0
LINE
  5
156
330
1F
100
AcDbEntity
  8
0
  6
PHANTOM
 62
     8
370
     0
100
AcDbLine
 10
8.6954375659
 20
7.6290522472
 30
0.0
 11
8.6888919081
 21
7.6355979049
 31
0.0
  0
LINE
  5
157
330
1F
100
AcDbEntity
  8
0
  6
PHANTOM
 62
     8
370
     0
100
AcDbLine
 10
3.0714184283
 20
7.7602029988
 30
0.0
 11
8.6792692193
 21
7.7602029988
 31
0.0
  0
LWPOLYLINE
  5
158
330
1F
100
AcDbEntity
  8
0
  6
PHANTOM
 62
     8
370
     0
100
AcDbPolyline
 90
        3
 70
   128
 43
0.0
 10
7.5969597489
 20
7.6290522472
 10
7.5978268322
 20
7.6300164228
 10
7.5986811557
 20
7.6309629985
  0
LWPOLYLINE
  5
159
330
1F
100
AcDbEntity
  8
0
  6
PHANTOM
 62
     8
370
     0
100
AcDbPolyline
 90
        3
 70
   128
 43
0.0
 10
4.152006492
 20
7.6309629985
 10
4.1528608154
 20
7.6300164228
 10
4.1537278987
 20
7.6290522472
  0
LWPOLYLINE
  5
15A
330
1F
100
AcDbEntity
  8
0
  6
PHANTOM
 62
     8
370
     0
100
AcDbPolyline
 90
        3
 70
   128
 43
0.0
 10
3.5969596506
 20
7.6290522472
 10
3.5978268806
 20
7.6300164228
 10
3.5986810574
 20
7.6309629985
  0
LWPOLYLINE
  5
15B
330
1F
100
AcDbEntity
  8
0
  6
PHANTOM
 62
     8
370
     0
100
AcDbPolyline
 90
        3
 70
   128
 43
0.0
 10
8.1520065903
 20
7.6309629985
 10
8.1528607671
 20
7.6300164228
 10
8.1537279971
 20
7.6290522472
  0
LINE
  5
15C
330
1F
100
AcDbEntity
  8
0
  6
PHANTOM
 62
     8
370
     0
100
AcDbLine
 10
2.5753438124
 20
15.0241283653
 30
0.0
 11
2.5714944435
 21
15.0279777342
 31
0.0
  0
LINE
  5
15D
330
1F
100
AcDbEntity
  8
0
  6
PHANTOM
 62
     8
370
     0
100
AcDbLine
 10
3.0714184283
 20
15.5279014257
 30
0.0
 11
3.0752677972
 21
15.5240523502
 31
0.0
  0
LINE
  5
15E
330
1F
100
AcDbEntity
  8
0
  6
PHANTOM
 62
     8
370
     0
100
AcDbLine
 10
8.6754198504
 20
15.5240523502
 30
0.0
 11
8.6792692193
 21
15.5279014257
 31
0.0
  0
LINE
  5
15F
330
1F
100
AcDbEntity
  8
0
  6
PHANTOM
 62
     8
370
     0
100
AcDbLine
 10
9.1791932041
 20
15.0279777342
 30
0.0
 11
9.1753438353
 21
15.0241283653
 31
0.0
  0
LINE
  5
160
330
1F
100
AcDbEntity
  8
0
  6
PHANTOM
 62
     8
370
     0
100
AcDbLine
 10
3.0752677972
 20
7.7640520744
 30
0.0
 11
3.0714184283
 21
7.7602029988
 31
0.0
  0
LINE
  5
161
330
1F
100
AcDbEntity
  8
0
  6
PHANTOM
 62
     8
370
     0
100
AcDbLine
 10
2.5714944435
 20
8.2601266903
 30
0.0
 11
2.5753438124
 21
8.2639760592
 31
0.0
  0
LINE
  5
162
330
1F
100
AcDbEntity
  8
0
  6
PHANTOM
 62
     8
370
     0
100
AcDbLine
 10
9.1753438353
 20
8.2639760592
 30
0.0
 11
9.1791932041
 21
8.2601266903
 31
0.0
  0
LINE
  5
163
330
1F
100
AcDbEntity
  8
0
  6
PHANTOM
 62
     8
370
     0
100
AcDbLine
 10
8.6792692193
 20
7.7602029988
 30
0.0
 11
8.6754198504
 21
7.7640520744
 31
0.0
  0
LWPOLYLINE
  5
164
330
1F
100
AcDbEntity
  8
0
  6
PHANTOM
 62
     8
370
     0
100
AcDbPolyline
 90
        3
 70
   128
 43
0.0
 10
4.1226322846
 20
15.6845704159
 10
4.1235859003
 20
15.6855166983
 10
4.1239051899
 20
15.6858343746
  0
LINE
  5
165
330
1F
100
AcDbEntity
  8
0
  6
PHANTOM
 62
     8
370
     0
100
AcDbLine
 10
3.6283317282
 20
15.6871367595
 30
0.0
 11
4.1223559678
 21
15.6871367595
 31
0.0
  0
LWPOLYLINE
  5
166
330
1F
100
AcDbEntity
  8
0
  6
PHANTOM
 62
     8
370
     0
100
AcDbPolyline
 90
        3
 70
   128
 43
0.0
 10
3.6267825061
 20
15.6858343746
 10
3.627735095
 20
15.6848877989
 10
3.6280552647
 20
15.6845704159
  0
LWPOLYLINE
  5
167
330
1F
100
AcDbEntity
  8
0
  6
PHANTOM
 62
     8
370
     0
100
AcDbPolyline
 90
        3
 70
   128
 43
0.0
 10
7.6267824577
 20
15.6858343746
 10
7.6277350467
 20
15.6848877989
 10
7.628055363
 20
15.6845704159
  0
LWPOLYLINE
  5
168
330
1F
100
AcDbEntity
  8
0
  6
PHANTOM
 62
     8
370
     0
100
AcDbPolyline
 90
        3
 70
   128
 43
0.0
 10
8.1226323829
 20
15.6845704159
 10
8.1235858519
 20
15.6855166983
 10
8.1239051416
 20
15.6858343746
  0
LINE
  5
169
330
1F
100
AcDbEntity
  8
0
  6
PHANTOM
 62
     8
370
     0
100
AcDbLine
 10
7.6283316798
 20
15.6871367595
 30
0.0
 11
8.1223559195
 21
15.6871367595
 31
0.0
  0
LINE
  5
16A
330
1F
100
AcDbEntity
  8
0
  6
PHANTOM
 62
     8
370
     0
100
AcDbLine
 10
2.412259403
 20
14.3970399829
 30
0.0
 11
2.412259403
 21
14.8910645158
 31
0.0
  0
LWPOLYLINE
  5
16B
330
1F
100
AcDbEntity
  8
0
  6
PHANTOM
 62
     8
370
     0
100
AcDbPolyline
 90
        3
 70
   128
 43
0.0
 10
2.4148257467
 20
14.8913408326
 10
2.4138794643
 20
14.892294155
 10
2.4135617879
 20
14.8926135913
  0
LINE
  5
16C
330
1F
100
AcDbEntity
  8
0
  6
PHANTOM
 62
     8
370
     0
100
AcDbLine
 10
9.3384282446
 20
14.8910645158
 30
0.0
 11
9.3384282446
 21
14.3970399829
 31
0.0
  0
LWPOLYLINE
  5
16D
330
1F
100
AcDbEntity
  8
0
  6
PHANTOM
 62
     8
370
     0
100
AcDbPolyline
 90
        3
 70
   128
 43
0.0
 10
9.3371258597
 20
14.8926135913
 10
9.3361792839
 20
14.8916608556
 10
9.3358619009
 20
14.8913408326
  0
LWPOLYLINE
  5
16E
330
1F
100
AcDbEntity
  8
0
  6
PHANTOM
 62
     8
370
     0
100
AcDbPolyline
 90
        3
 70
   128
 43
0.0
 10
2.4135617879
 20
14.3954909074
 10
2.4145083637
 20
14.3964433497
 10
2.4148257467
 20
14.396763666
  0
LWPOLYLINE
  5
16F
330
1F
100
AcDbEntity
  8
0
  6
PHANTOM
 62
     8
370
     0
100
AcDbPolyline
 90
        3
 70
   128
 43
0.0
 10
9.3358619009
 20
14.396763666
 10
9.3368081834
 20
14.3958100504
 10
9.3371258597
 20
14.3954909074
  0
LINE
  5
170
330
1F
100
AcDbEntity
  8
0
  6
PHANTOM
 62
     8
370
     0
100
AcDbLine
 10
9.3384282446
 20
8.8910644417
 30
0.0
 11
9.3384282446
 21
8.3970399087
 31
0.0
  0
LWPOLYLINE
  5
171
330
1F
100
AcDbEntity
  8
0
  6
PHANTOM
 62
     8
370
     0
100
AcDbPolyline
 90
        3
 70
   128
 43
0.0
 10
9.3371258597
 20
8.8926135171
 10
9.3361792839
 20
8.8916610748
 10
9.3358619009
 20
8.8913407585
  0
LINE
  5
172
330
1F
100
AcDbEntity
  8
0
  6
PHANTOM
 62
     8
370
     0
100
AcDbLine
 10
2.412259403
 20
8.3970399087
 30
0.0
 11
2.412259403
 21
8.8910644417
 31
0.0
  0
LWPOLYLINE
  5
173
330
1F
100
AcDbEntity
  8
0
  6
PHANTOM
 62
     8
370
     0
100
AcDbPolyline
 90
        3
 70
   128
 43
0.0
 10
2.4148257467
 20
8.8913407585
 10
2.4138794643
 20
8.8922943741
 10
2.4135617879
 20
8.8926135171
  0
LWPOLYLINE
  5
174
330
1F
100
AcDbEntity
  8
0
  6
PHANTOM
 62
     8
370
     0
100
AcDbPolyline
 90
        3
 70
   128
 43
0.0
 10
9.3358619009
 20
8.3967635919
 10
9.3368081834
 20
8.3958102696
 10
9.3371258597
 20
8.3954908333
  0
LWPOLYLINE
  5
175
330
1F
100
AcDbEntity
  8
0
  6
PHANTOM
 62
     8
370
     0
100
AcDbPolyline
 90
        3
 70
   128
 43
0.0
 10
2.4135617879
 20
8.3954908333
 10
2.4145083637
 20
8.3964435689
 10
2.4148257467
 20
8.3967635919
  0
LINE
  5
176
330
1F
100
AcDbEntity
  8
0
  6
PHANTOM
 62
     8
370
     0
100
AcDbLine
 10
8.1223559195
 20
7.600967665
 30
0.0
 11
7.6283316798
 21
7.600967665
 31
0.0
  0
LWPOLYLINE
  5
177
330
1F
100
AcDbEntity
  8
0
  6
PHANTOM
 62
     8
370
     0
100
AcDbPolyline
 90
        3
 70
   128
 43
0.0
 10
8.1239051416
 20
7.6022700499
 10
8.1229525526
 20
7.6032166257
 10
8.1226323829
 20
7.6035340087
  0
LINE
  5
178
330
1F
100
AcDbEntity
  8
0
  6
PHANTOM
 62
     8
370
     0
100
AcDbLine
 10
4.1223559678
 20
7.600967665
 30
0.0
 11
3.6283317282
 21
7.600967665
 31
0.0
  0
LWPOLYLINE
  5
179
330
1F
100
AcDbEntity
  8
0
  6
PHANTOM
 62
     8
370
     0
100
AcDbPolyline
 90
        3
 70
   128
 43
0.0
 10
4.1239051899
 20
7.6022700499
 10
4.1229526009
 20
7.6032166257
 10
4.1226322846
 20
7.6035340087
  0
LWPOLYLINE
  5
17A
330
1F
100
AcDbEntity
  8
0
  6
PHANTOM
 62
     8
370
     0
100
AcDbPolyline
 90
        3
 70
   128
 43
0.0
 10
7.628055363
 20
7.6035340087
 10
7.6271017474
 20
7.6025877263
 10
7.6267824577
 20
7.6022700499
  0
LWPOLYLINE
  5
17B
330
1F
100
AcDbEntity
  8
0
  6
PHANTOM
 62
     8
370
     0
100
AcDbPolyline
 90
        3
 70
   128
 43
0.0
 10
3.6280552647
 20
7.6035340087
 10
3.6271017957
 20
7.6025877263
 10
3.6267825061
 20
7.6022700499
  0
DIMENSION
  5
17C
330
1F
100
AcDbEntity
  8
DEFAULT
 62
     7
100
AcDbDimension
  2
_D_2
 10
9.3037981745
 20
6.9283277718
 30
0.0
 11
5.8720709991
 21
6.9283277718
 31
0.0
 70
   160
  1
<>
 71
     2
 42
-1.0
  3
SLDDIMSTYLE1
100
AcDbAlignedDimension
 13
2.4403438238
 23
8.2439585448
 33
0.0
 14
9.3037981745
 24
8.2505041941
 34
0.0
 50
0.0
100
AcDbRotatedDimension
  0
DIMENSION
  5
18C
330
1F
100
AcDbEntity
  8
DEFAULT
 62
     7
100
AcDbDimension
  2
_D_3
 10
1.6093211087
 20
15.6590522123
 30
0.0
 11
1.6093211087
 21
11.6440522123
 31
0.0
 70
   160
  1
<>
 71
     2
 42
-1.0
  3
SLDDIMSTYLE1
100
AcDbAlignedDimension
 13
3.0552501563
 23
7.6290522123
 33
0.0
 14
3.0552501563
 24
15.6590522123
 34
0.0
 50
90.0
100
AcDbRotatedDimension
  0
LINE
  5
197
330
1F
100
AcDbEntity
  8
0
  6
Continuous
 62
     7
370
    15
100
AcDbLine
 10
10.8081521876
 20
21.0178338478
 30
0.0
 11
10.7189444457
 21
20.9765943827
 31
0.0
  0
LINE
  5
198
330
1F
100
AcDbEntity
  8
0
  6
Continuous
 62
     7
370
    15
100
AcDbLine
 10
15.1642775105
 20
12.3297712002
 30
0.0
 11
15.2451295152
 21
12.3867726752
 31
0.0
  0
ARC
  5
199
330
1F
100
AcDbEntity
  8
0
  6
Continuous
 62
     7
370
    15
100
AcDbCircle
 10
14.5899595405
 20
18.0455531523
 30
0.0
 40
0.6873527363717236
100
AcDbArc
 50
1.2142957845
 51
30.5888156047
  0
ARC
  5
19A
330
1F
100
AcDbEntity
  8
0
  6
Continuous
 62
     7
370
    15
100
AcDbCircle
 10
14.5337800981
 20
18.0657807668
 30
0.0
 40
0.7268780931393225
100
AcDbArc
 50
26.9603871852
 51
58.1409055591
  0
LINE
  5
19B
330
1F
100
AcDbEntity
  8
0
  6
Continuous
 62
     7
370
    15
100
AcDbLine
 10
15.277157916
 20
18.0601194442
 30
0.0
 11
15.277157916
 21
12.5338928581
 31
0.0
  0
LINE
  5
19C
330
1F
100
AcDbEntity
  8
0
  6
Continuous
 62
     7
370
    15
100
AcDbLine
 10
10.9521003576
 20
20.9723011992
 30
0.0
 11
14.9174496798
 21
18.6831537613
 31
0.0
  0
LINE
  5
19D
330
1F
100
AcDbEntity
  8
0
  6
Continuous
 62
     7
370
    15
100
AcDbLine
 10
15.6888167021
 20
17.5973381954
 30
0.0
 11
15.746074697
 21
17.6287804803
 31
0.0
  0
LINE
  5
19E
330
1F
100
AcDbEntity
  8
0
  6
Continuous
 62
     7
370
    15
100
AcDbLine
 10
14.4814157798
 20
19.4763337103
 30
0.0
 11
14.425554003
 21
19.442472985
 31
0.0
  0
LINE
  5
19F
330
1F
100
AcDbEntity
  8
0
  6
Continuous
 62
     7
370
    15
100
AcDbLine
 10
11.6529886893
 20
21.1091499142
 30
0.0
 11
11.5971268088
 21
21.0752892487
 31
0.0
  0
LINE
  5
1A0
330
1F
100
AcDbEntity
  8
0
  6
Continuous
 62
     7
370
    15
100
AcDbLine
 10
10.886863106
 20
21.2555884476
 30
0.0
 11
10.6263265387
 21
21.094495164
 31
0.0
  0
ARC
  5
1A1
330
1F
100
AcDbEntity
  8
0
  6
Continuous
 62
     7
370
    15
100
AcDbCircle
 10
10.8111951944
 20
20.7830674194
 30
0.0
 40
0.2359315333496261
100
AcDbArc
 50
53.3283010015
 51
109.7321587105
  0
LINE
  5
1A2
330
1F
100
AcDbEntity
  8
0
  6
Continuous
 62
     7
370
    15
100
AcDbLine
 10
15.6888167021
 20
12.698093503
 30
0.0
 11
15.746074697
 21
12.7295355484
 31
0.0
  0
LINE
  5
1A3
330
1F
100
AcDbEntity
  8
0
  6
Continuous
 62
     7
370
    15
100
AcDbLine
 10
15.2200629713
 20
12.1906072946
 30
0.0
 11
15.4898564965
 21
12.3356672963
 31
0.0
  0
ARC
  5
1A4
330
1F
100
AcDbEntity
  8
0
  6
Continuous
 62
     7
370
    15
100
AcDbCircle
 10
15.0490094747
 20
12.5068750572
 30
0.0
 40
0.22974262308961
100
AcDbArc
 50
302.9421609635
 51
6.7536290947
  0
ELLIPSE
  5
1A5
330
1F
100
AcDbEntity
  8
0
  6
Continuous
 62
     7
370
    15
100
AcDbEllipse
 10
14.9009033183
 20
12.7558574473
 30
0.0
 11
-0.2506654973912905
 21
0.4342120404516941
 31
0.0
210
0.0
220
0.0
230
1.0
 40
0.5758022269
 41
2.357644839038251
 42
3.92570211009238
  0
LINE
  5
1A6
330
1F
100
AcDbEntity
  8
0
  6
Continuous
 62
     7
370
    15
100
AcDbLine
 10
10.9552480529
 20
14.6248051083
 30
0.0
 11
14.9018731399
 21
12.3464669414
 31
0.0
  0
ELLIPSE
  5
1A7
330
1F
100
AcDbEntity
  8
0
  6
Continuous
 62
     7
370
    15
100
AcDbEllipse
 10
10.9562178745
 20
15.0330758821
 30
0.0
 11
-0.2499795152812929
 21
0.4330245281145456
 31
0.0
210
0.0
220
0.0
230
1.0
 40
0.5789651953
 41
0.7868494026851637
 42
2.354906673739284
  0
LINE
  5
1A8
330
1F
100
AcDbEntity
  8
0
  6
Continuous
 62
     7
370
    15
100
AcDbLine
 10
10.6021792154
 20
20.7409423231
 30
0.0
 11
10.6021792154
 21
15.2363382718
 31
0.0
  0
ELLIPSE
  5
1A9
330
1F
100
AcDbEntity
  8
0
  6
Continuous
 62
     7
370
    15
100
AcDbEllipse
 10
10.9562178745
 20
20.5354403777
 30
0.0
 11
-0.2506654973912888
 21
0.4342120404516942
 31
0.0
210
0.0
220
0.0
230
1.0
 40
0.5758022269
 41
5.49923749262807
 42
7.067294763682155
  0
LINE
  5
1AA
330
1F
100
AcDbEntity
  8
0
  6
Continuous
 62
     7
370
    15
100
AcDbLine
 10
14.9018731399
 20
18.6664927167
 30
0.0
 11
10.9552480529
 21
20.9448308836
 31
0.0
  0
ELLIPSE
  5
1AB
330
1F
100
AcDbEntity
  8
0
  6
Continuous
 62
     7
370
    15
100
AcDbEllipse
 10
14.9009033183
 20
18.2582219429
 30
0.0
 11
-0.2499795152812965
 21
0.4330245281145402
 31
0.0
210
0.0
220
0.0
230
1.0
 40
0.5789651953
 41
3.928442056274965
 42
5.496499327329086
  0
LINE
  5
1AC
330
1F
100
AcDbEntity
  8
0
  6
Continuous
 62
     7
370
    15
100
AcDbLine
 10
15.2549419774
 20
12.550355502
 30
0.0
 11
15.2549419774
 21
18.0549595533
 31
0.0
  0
LWPOLYLINE
  5
1AD
330
1F
100
AcDbEntity
  8
0
  6
Continuous
 62
     7
370
    15
100
AcDbPolyline
 90
       25
 70
   128
 43
0.0
 10
11.037049859
 20
20.2198788662
 10
11.0422302709
 20
20.1714509197
 10
11.0574178628
 20
20.1203426519
 10
11.0815778385
 20
20.0700364065
 10
11.1130639404
 20
20.0239605791
 10
11.1497302467
 20
19.9852555004
 10
11.1890779181
 20
19.9565586643
 10
11.2284256931
 20
19.9398255861
 10
11.2650918957
 20
19.9361967086
 10
11.2965778939
 20
19.9459195164
 10
11.3207379733
 20
19.9683311878
 10
11.335925669
 20
20.0019041753
 10
11.3411058734
 20
20.0443510653
 10
11.335925669
 20
20.092778892
 10
11.3207379733
 20
20.1438874593
 10
11.2965778939
 20
20.194193525
 10
11.2650918957
 20
20.2402692926
 10
11.2284256931
 20
20.2789743114
 10
11.1890779181
 20
20.3076712074
 10
11.1497302467
 20
20.3244042257
 10
11.1130639404
 20
20.3280331631
 10
11.0815778385
 20
20.3183104151
 10
11.0574178628
 20
20.2958989234
 10
11.0422302709
 20
20.2623256365
 10
11.037049859
 20
20.2198788662
  0
LWPOLYLINE
  5
1AE
330
1F
100
AcDbEntity
  8
0
  6
Continuous
 62
     7
370
    15
100
AcDbPolyline
 90
       25
 70
   128
 43
0.0
 10
11.037049859
 20
15.2553107708
 10
11.0422302709
 20
15.2068828243
 10
11.0574178628
 20
15.1557743169
 10
11.0815778385
 20
15.1054683111
 10
11.1130639404
 20
15.0593924836
 10
11.1497302467
 20
15.0206874049
 10
11.1890779181
 20
14.9919905689
 10
11.2284256931
 20
14.9752574907
 10
11.2650918957
 20
14.9716286131
 10
11.2965778939
 20
14.981351421
 10
11.3207379733
 20
15.0037628528
 10
11.335925669
 20
15.0373360799
 10
11.3411058734
 20
15.0797829699
 10
11.335925669
 20
15.1282107966
 10
11.3207379733
 20
15.1793191243
 10
11.2965778939
 20
15.2296254296
 10
11.2650918957
 20
15.2757011971
 10
11.2284256931
 20
15.314406216
 10
11.1890779181
 20
15.3431031119
 10
11.1497302467
 20
15.3598361302
 10
11.1130639404
 20
15.3634650677
 10
11.0815778385
 20
15.3537423197
 10
11.0574178628
 20
15.3313305885
 10
11.0422302709
 20
15.297757541
 10
11.037049859
 20
15.2553107708
  0
LWPOLYLINE
  5
1AF
330
1F
100
AcDbEntity
  8
0
  6
Continuous
 62
     7
370
    15
100
AcDbPolyline
 90
       25
 70
   128
 43
0.0
 10
14.5160153194
 20
13.2469467597
 10
14.5211955238
 20
13.198518933
 10
14.5363832195
 20
13.1474103658
 10
14.5605432989
 20
13.0971043
 10
14.592029297
 20
13.0510285325
 10
14.6286954996
 20
13.0123235136
 10
14.6680432747
 20
12.9836266177
 10
14.7073909461
 20
12.9668935994
 10
14.7440572524
 20
12.963264662
 10
14.7755433542
 20
12.97298741
 10
14.7997033299
 20
12.9953989016
 10
14.8148909219
 20
13.0289721886
 10
14.8200713338
 20
13.0714189588
 10
14.8148909219
 20
13.1198469053
 10
14.7997033299
 20
13.1709551732
 10
14.7755433542
 20
13.2212614186
 10
14.7440572524
 20
13.267337246
 10
14.7073909461
 20
13.3060423247
 10
14.6680432747
 20
13.3347391608
 10
14.6286954996
 20
13.3514722389
 10
14.592029297
 20
13.3551011165
 10
14.5605432989
 20
13.3453783086
 10
14.5363832195
 20
13.3229666373
 10
14.5211955238
 20
13.2893936497
 10
14.5160153194
 20
13.2469467597
  0
LWPOLYLINE
  5
1B0
330
1F
100
AcDbEntity
  8
0
  6
Continuous
 62
     7
370
    15
100
AcDbPolyline
 90
       25
 70
   128
 43
0.0
 10
14.5160153194
 20
18.2115148552
 10
14.5211955238
 20
18.1630870284
 10
14.5363832195
 20
18.1119787007
 10
14.5605432989
 20
18.0616723954
 10
14.592029297
 20
18.0155966279
 10
14.6286954996
 20
17.9768916091
 10
14.6680432747
 20
17.9481947131
 10
14.7073909461
 20
17.9314616948
 10
14.7440572524
 20
17.9278327574
 10
14.7755433542
 20
17.9375555054
 10
14.7997033299
 20
17.9599672366
 10
14.8148909219
 20
17.993540284
 10
14.8200713338
 20
18.0359870543
 10
14.8148909219
 20
18.0844150007
 10
14.7997033299
 20
18.1355235081
 10
14.7755433542
 20
18.185829514
 10
14.7440572524
 20
18.2319053414
 10
14.7073909461
 20
18.2706104201
 10
14.6680432747
 20
18.2993072562
 10
14.6286954996
 20
18.3160403344
 10
14.592029297
 20
18.3196692119
 10
14.5605432989
 20
18.309946404
 10
14.5363832195
 20
18.2875349722
 10
14.5211955238
 20
18.2539617452
 10
14.5160153194
 20
18.2115148552
  0
LWPOLYLINE
  5
1B1
330
1F
100
AcDbEntity
  8
0
  6
Continuous
 62
     7
370
    15
100
AcDbPolyline
 90
        9
 70
   128
 43
0.0
 10
14.6673109097
 20
18.2176223667
 10
14.6722363041
 20
18.1825233947
 10
14.6864181378
 20
18.1459710107
 10
14.7081459583
 20
18.1123743619
 10
14.7347990694
 20
18.085785691
 10
14.7631628406
 20
18.0694116344
 10
14.7898159518
 20
18.0652272782
 10
14.8115437722
 20
18.0737375195
 10
14.8161220566
 20
18.0780215707
  0
ARC
  5
1B2
330
1F
100
AcDbEntity
  8
0
  6
Continuous
 62
     7
370
    15
100
AcDbCircle
 10
14.7183533627
 20
18.2256730453
 30
0.0
 40
0.0516734499831116
100
AcDbArc
 50
107.8735546563
 51
188.9631461909
  0
ARC
  5
1B3
330
1F
100
AcDbEntity
  8
0
  6
Continuous
 62
     7
370
    15
100
AcDbCircle
 10
14.8877314793
 20
18.2505743109
 30
0.0
 40
0.1707824355776421
100
AcDbArc
 50
176.3626515603
 51
243.6319083503
  0
LWPOLYLINE
  5
1B4
330
1F
100
AcDbEntity
  8
0
  6
Continuous
 62
     7
370
    15
100
AcDbPolyline
 90
        9
 70
   128
 43
0.0
 10
11.188345553
 20
20.2259863179
 10
11.1932708437
 20
20.1908874057
 10
11.2074526775
 20
20.1543350217
 10
11.2291804979
 20
20.1207383729
 10
11.2558336091
 20
20.0941497021
 10
11.2841973803
 20
20.0777756455
 10
11.3108504914
 20
20.0735912892
 10
11.3325783119
 20
20.0821015305
 10
11.3371565962
 20
20.0863855817
  0
ARC
  5
1B5
330
1F
100
AcDbEntity
  8
0
  6
Continuous
 62
     7
370
    15
100
AcDbCircle
 10
11.2393872679
 20
20.2340373701
 30
0.0
 40
0.0516727790650801
100
AcDbArc
 50
107.8728137667
 51
188.963682899
  0
ARC
  5
1B6
330
1F
100
AcDbEntity
  8
0
  6
Continuous
 62
     7
370
    15
100
AcDbCircle
 10
11.3690446125
 20
20.2569516105
 30
0.0
 40
0.1313441765318884
100
AcDbArc
 50
174.3981034241
 51
197.5801316114
  0
ARC
  5
1B7
330
1F
100
AcDbEntity
  8
0
  6
Continuous
 62
     7
370
    15
100
AcDbCircle
 10
11.4148829535
 20
20.2628035507
 30
0.0
 40
0.177002307933912
100
AcDbArc
 50
194.9033329905
 51
242.413537473
  0
LINE
  5
1B8
330
1F
100
AcDbEntity
  8
0
  6
Continuous
 62
     7
370
    15
100
AcDbLine
 10
11.2416724196
 20
15.3003815656
 30
0.0
 11
11.2416724196
 21
15.2656429022
 31
0.0
  0
LWPOLYLINE
  5
1B9
330
1F
100
AcDbEntity
  8
0
  6
Continuous
 62
     7
370
    15
100
AcDbPolyline
 90
        9
 70
   128
 43
0.0
 10
14.6673109097
 20
13.2530542713
 10
14.6722363041
 20
13.2179550597
 10
14.6864181378
 20
13.1814029153
 10
14.7081459583
 20
13.1478062664
 10
14.7347990694
 20
13.1212175956
 10
14.7631628406
 20
13.104843539
 10
14.7898159518
 20
13.1006591827
 10
14.8115437722
 20
13.1091694241
 10
14.8161220566
 20
13.1134534753
  0
ARC
  5
1BA
330
1F
100
AcDbEntity
  8
0
  6
Continuous
 62
     7
370
    15
100
AcDbCircle
 10
14.7183535757
 20
13.261104819
 30
0.0
 40
0.0516736399472626
100
AcDbArc
 50
107.8737348382
 51
188.962966009
  0
ARC
  5
1BB
330
1F
100
AcDbEntity
  8
0
  6
Continuous
 62
     7
370
    15
100
AcDbCircle
 10
14.8877304913
 20
13.2860056293
 30
0.0
 40
0.1707814715957635
100
AcDbArc
 50
176.3625144643
 51
243.6321179768
  0
LWPOLYLINE
  5
1BC
330
1F
100
AcDbEntity
  8
0
  6
Continuous
 62
     7
370
    15
100
AcDbPolyline
 90
        9
 70
   128
 43
0.0
 10
11.188345553
 20
15.2614182224
 10
11.1932708437
 20
15.2263190708
 10
11.2074526775
 20
15.1897669263
 10
11.2291804979
 20
15.1561702775
 10
11.2558336091
 20
15.1295816066
 10
11.2841973803
 20
15.11320755
 10
11.3108504914
 20
15.1090231938
 10
11.3325783119
 20
15.1175334351
 10
11.3371565962
 20
15.1218174863
  0
ARC
  5
1BD
330
1F
100
AcDbEntity
  8
0
  6
Continuous
 62
     7
370
    15
100
AcDbCircle
 10
11.2393874809
 20
15.2694691437
 30
0.0
 40
0.0516729690223044
100
AcDbArc
 50
107.8729939484
 51
188.9635027173
  0
ARC
  5
1BE
330
1F
100
AcDbEntity
  8
0
  6
Continuous
 62
     7
370
    15
100
AcDbCircle
 10
11.3690426054
 20
15.292383246
 30
0.0
 40
0.1313421818491018
100
AcDbArc
 50
174.3980051188
 51
197.5802841748
  0
ARC
  5
1BF
330
1F
100
AcDbEntity
  8
0
  6
Continuous
 62
     7
370
    15
100
AcDbCircle
 10
11.4148829535
 20
15.2982354553
 30
0.0
 40
0.1770023079339283
100
AcDbArc
 50
194.9033329905
 51
242.413537473
  0
LINE
  5
1C0
330
1F
100
AcDbEntity
  8
0
  6
Continuous
 62
     7
370
    15
100
AcDbLine
 10
15.6226375293
 20
18.1728596178
 30
0.0
 11
15.3528440041
 21
18.0171102623
 31
0.0
  0
ELLIPSE
  5
1C1
330
1F
100
AcDbEntity
  8
0
  6
Continuous
 62
     7
370
    15
100
AcDbEllipse
 10
14.9179070033
 20
18.2680411523
 30
0.0
 11
-0.3074749874355352
 21
0.5326200635566067
 31
0.0
210
0.0
220
0.0
230
1.0
 40
0.5775574346
 41
3.927224423831238
 42
5.49771616413097
  0
LINE
  5
1C2
330
1F
100
AcDbEntity
  8
0
  6
Continuous
 62
     7
370
    15
100
AcDbLine
 10
14.918039526
 20
18.7702137075
 30
0.0
 11
15.1878330512
 21
18.925963063
 31
0.0
  0
ELLIPSE
  5
1C3
330
1F
100
AcDbEntity
  8
0
  6
Continuous
 62
     7
370
    15
100
AcDbEllipse
 10
15.1877005193
 20
18.4237905025
 30
0.0
 11
-0.3074749874355352
 21
0.5326200635566033
 31
0.0
210
0.0
220
0.0
230
1.0
 40
0.5775574346
 41
3.927224423831232
 42
5.497716164130969
  0
ELLIPSE
  5
1C4
330
1F
100
AcDbEntity
  8
0
  6
Continuous
 62
     7
370
    15
100
AcDbEllipse
 10
14.9179070033
 20
12.7264062011
 30
0.0
 11
-0.3075687001160805
 21
0.5327822907694557
 31
0.0
210
0.0
220
0.0
230
1.0
 40
0.5772057094
 41
2.356427998020506
 42
3.926919738320256
  0
LINE
  5
1C5
330
1F
100
AcDbEntity
  8
0
  6
Continuous
 62
     7
370
    15
100
AcDbLine
 10
10.9390816668
 20
14.5210841175
 30
0.0
 11
14.918039526
 21
12.2240806385
 31
0.0
  0
ELLIPSE
  5
1C6
330
1F
100
AcDbEntity
  8
0
  6
Continuous
 62
     7
370
    15
100
AcDbEllipse
 10
10.9392141895
 20
15.0232566727
 30
0.0
 11
-0.3074749874355316
 21
0.5326200635566032
 31
0.0
210
0.0
220
0.0
230
1.0
 40
0.5775574346
 41
0.7856317702414286
 42
2.356123510541173
  0
LINE
  5
1C7
330
1F
100
AcDbEntity
  8
0
  6
Continuous
 62
     7
370
    15
100
AcDbLine
 10
10.5042771887
 20
20.8161283061
 30
0.0
 11
10.5042771887
 21
15.2741875627
 31
0.0
  0
ELLIPSE
  5
1C8
330
1F
100
AcDbEntity
  8
0
  6
Continuous
 62
     7
370
    15
100
AcDbEllipse
 10
10.9392141895
 20
20.5648916239
 30
0.0
 11
-0.3075687001160805
 21
0.532782290769461
 31
0.0
210
0.0
220
0.0
230
1.0
 40
0.5772057094
 41
5.498020651610316
 42
7.068512391910035
  0
LINE
  5
1C9
330
1F
100
AcDbEntity
  8
0
  6
Continuous
 62
     7
370
    15
100
AcDbLine
 10
14.918039526
 20
18.7702137075
 30
0.0
 11
10.9390816668
 21
21.0672171866
 31
0.0
  0
LINE
  5
1CA
330
1F
100
AcDbEntity
  8
0
  6
Continuous
 62
     7
370
    15
100
AcDbLine
 10
15.3528440041
 20
12.475169519
 30
0.0
 11
15.3528440041
 21
18.0171102623
 31
0.0
  0
ELLIPSE
  5
1CB
330
1F
100
AcDbEntity
  8
0
  6
Continuous
 62
     7
370
    15
100
AcDbEllipse
 10
10.9460000943
 20
15.0271753657
 30
0.0
 11
-0.2649784444566361
 21
0.4590059084308962
 31
0.0
210
0.0
220
0.0
230
1.0
 40
0.5775574346
 41
0.7856317702414302
 42
2.35612351054118
  0
LINE
  5
1CC
330
1F
100
AcDbEntity
  8
0
  6
Continuous
 62
     7
370
    15
100
AcDbLine
 10
14.9112352575
 20
12.3052613897
 30
0.0
 11
10.9458859353
 21
14.5944088275
 31
0.0
  0
ELLIPSE
  5
1CD
330
1F
100
AcDbEntity
  8
0
  6
Continuous
 62
     7
370
    15
100
AcDbEllipse
 10
14.9111210985
 20
12.738159733
 30
0.0
 11
-0.2650592049780869
 21
0.4591457139964436
 31
0.0
210
0.0
220
0.0
230
1.0
 40
0.5772057094
 41
2.356427998020507
 42
3.926919738320262
  0
LINE
  5
1CE
330
1F
100
AcDbEntity
  8
0
  6
Continuous
 62
     7
370
    15
100
AcDbLine
 10
15.2859448009
 20
18.0478732716
 30
0.0
 11
15.2859448009
 21
12.5216466855
 31
0.0
  0
ELLIPSE
  5
1CF
330
1F
100
AcDbEntity
  8
0
  6
Continuous
 62
     7
370
    15
100
AcDbEllipse
 10
14.9111210985
 20
18.2641224594
 30
0.0
 11
-0.2649784444566414
 21
0.4590059084308926
 31
0.0
210
0.0
220
0.0
230
1.0
 40
0.5775574346
 41
3.927224423831226
 42
5.497716164130971
  0
LINE
  5
1D0
330
1F
100
AcDbEntity
  8
0
  6
Continuous
 62
     7
370
    15
100
AcDbLine
 10
10.9458859353
 20
20.9860364354
 30
0.0
 11
14.9112352575
 21
18.6968889976
 31
0.0
  0
ELLIPSE
  5
1D1
330
1F
100
AcDbEntity
  8
0
  6
Continuous
 62
     7
370
    15
100
AcDbEllipse
 10
10.9460000943
 20
20.553138092
 30
0.0
 11
-0.2650592049780869
 21
0.4591457139964454
 31
0.0
210
0.0
220
0.0
230
1.0
 40
0.5772057094
 41
5.498020651610309
 42
7.068512391910041
  0
LINE
  5
1D2
330
1F
100
AcDbEntity
  8
0
  6
Continuous
 62
     7
370
    15
100
AcDbLine
 10
10.5711763918
 20
15.2434245534
 30
0.0
 11
10.5711763918
 21
20.7696511395
 31
0.0
  0
LWPOLYLINE
  5
1D3
330
1F
100
AcDbEntity
  8
0
  6
Continuous
 62
     7
370
    15
100
AcDbPolyline
 90
        3
 70
   128
 43
0.0
 10
15.5438746857
 20
13.128919694
 10
15.5828990351
 20
13.1513726495
 10
15.6226375293
 20
13.1742340421
  0
LINE
  5
1D4
330
1F
100
AcDbEntity
  8
0
  6
Continuous
 62
     7
370
    15
100
AcDbLine
 10
15.5438746857
 20
12.6771070142
 30
0.0
 11
15.5438746857
 21
13.128919694
 31
0.0
  0
LINE
  5
1D5
330
1F
100
AcDbEntity
  8
0
  6
Continuous
 62
     7
370
    15
100
AcDbLine
 10
15.3528440041
 20
12.475169519
 30
0.0
 11
15.6226375293
 21
12.6202292811
 31
0.0
  0
LWPOLYLINE
  5
1D6
330
1F
100
AcDbEntity
  8
0
  6
Continuous
 62
     7
370
    15
100
AcDbPolyline
 90
        3
 70
   128
 43
0.0
 10
15.5438746857
 20
18.0281646259
 10
15.5828990351
 20
18.0506173419
 10
15.6226375293
 20
18.073478974
  0
LINE
  5
1D7
330
1F
100
AcDbEntity
  8
0
  6
Continuous
 62
     7
370
    15
100
AcDbLine
 10
15.5438746857
 20
17.576351946
 30
0.0
 11
15.5438746857
 21
18.0281646259
 31
0.0
  0
LINE
  5
1D8
330
1F
100
AcDbEntity
  8
0
  6
Continuous
 62
     7
370
    15
100
AcDbLine
 10
15.6226375293
 20
12.6202292811
 30
0.0
 11
15.6226375293
 21
12.6894120034
 31
0.0
  0
LINE
  5
1D9
330
1F
100
AcDbEntity
  8
0
  6
Continuous
 62
     7
370
    15
100
AcDbLine
 10
15.6226375293
 20
13.1742340421
 30
0.0
 11
15.6226375293
 21
17.5886569353
 31
0.0
  0
LINE
  5
1DA
330
1F
100
AcDbEntity
  8
0
  6
Continuous
 62
     7
370
    15
100
AcDbLine
 10
15.6226375293
 20
18.073478974
 30
0.0
 11
15.6226375293
 21
18.1728596178
 31
0.0
  0
LWPOLYLINE
  5
1DB
330
1F
100
AcDbEntity
  8
0
  6
Continuous
 62
     7
370
    15
100
AcDbPolyline
 90
        3
 70
   128
 43
0.0
 10
11.9763593474
 20
20.7799073699
 10
11.9366895077
 20
20.7569270641
 10
11.897730598
 20
20.7343611231
  0
LINE
  5
1DC
330
1F
100
AcDbEntity
  8
0
  6
Continuous
 62
     7
370
    15
100
AcDbLine
 10
14.7261577923
 20
19.1015448594
 30
0.0
 11
14.3348976253
 21
19.327414546
 31
0.0
  0
LWPOLYLINE
  5
1DD
330
1F
100
AcDbEntity
  8
0
  6
Continuous
 62
     7
370
    15
100
AcDbPolyline
 90
        3
 70
   128
 43
0.0
 10
14.8047865417
 20
19.1470911061
 10
14.7651165983
 20
19.1241108602
 10
14.7261577923
 20
19.1015448594
  0
LINE
  5
1DE
330
1F
100
AcDbEntity
  8
0
  6
Continuous
 62
     7
370
    15
100
AcDbLine
 10
11.199618234
 20
21.2283104701
 30
0.0
 11
10.9390816668
 21
21.0672171866
 31
0.0
  0
LINE
  5
1DF
330
1F
100
AcDbEntity
  8
0
  6
Continuous
 62
     7
370
    15
100
AcDbLine
 10
11.897730598
 20
20.7343611231
 30
0.0
 11
11.506470431
 21
20.9602308098
 31
0.0
  0
LINE
  5
1E0
330
1F
100
AcDbEntity
  8
0
  6
Continuous
 62
     7
370
    15
100
AcDbLine
 10
14.3849287423
 20
19.3894698545
 30
0.0
 11
11.9763593474
 21
20.7799073699
 31
0.0
  0
LINE
  5
1E1
330
1F
100
AcDbEntity
  8
0
  6
Continuous
 62
     7
370
    15
100
AcDbLine
 10
11.5565016518
 20
21.0222860584
 30
0.0
 11
11.199618234
 21
21.2283104701
 31
0.0
  0
LINE
  5
1E2
330
1F
100
AcDbEntity
  8
0
  6
Continuous
 62
     7
370
    15
100
AcDbLine
 10
15.1878330512
 20
18.925963063
 30
0.0
 11
14.8047865417
 21
19.1470911061
 31
0.0
  0
LWPOLYLINE
  5
1E3
330
1F
100
AcDbEntity
  8
0
  6
Continuous
 62
     7
370
    15
100
AcDbPolyline
 90
       13
 70
   128
 43
0.0
 10
15.585927575
 20
18.0037420652
 10
15.6273596693
 20
17.9683850273
 10
15.6651924809
 20
17.9239331142
 10
15.6972039665
 20
17.8729964812
 10
15.7215145259
 20
17.8185665052
 10
15.7366965176
 20
17.7638395113
 10
15.7418582621
 20
17.712029599
 10
15.7366965176
 20
17.6661793099
 10
15.7215145259
 20
17.6289810706
 10
15.6972039665
 20
17.602619469
 10
15.6651924809
 20
17.5886425106
 10
15.6273596693
 20
17.587871432
 10
15.585927575
 20
17.600350872
  0
LINE
  5
1E4
330
1F
100
AcDbEntity
  8
0
  6
Continuous
 62
     7
370
    15
100
AcDbLine
 10
15.584035141
 20
18.0049703941
 30
0.0
 11
15.585927575
 21
18.0037420652
 31
0.0
  0
LWPOLYLINE
  5
1E5
330
1F
100
AcDbEntity
  8
0
  6
Continuous
 62
     7
370
    15
100
AcDbPolyline
 90
        3
 70
   128
 43
0.0
 10
15.6415751952
 20
18.0381949135
 10
15.5984900763
 20
18.0133172484
 10
15.584035141
 20
18.0049703941
  0
LINE
  5
1E6
330
1F
100
AcDbEntity
  8
0
  6
Continuous
 62
     7
370
    15
100
AcDbLine
 10
15.585927575
 20
17.600350872
 30
0.0
 11
15.584035141
 21
17.601127953
 31
0.0
  0
LWPOLYLINE
  5
1E7
330
1F
100
AcDbEntity
  8
0
  6
Continuous
 62
     7
370
    15
100
AcDbPolyline
 90
       11
 70
   128
 43
0.0
 10
15.6415751952
 20
18.0381949135
 10
15.6834604926
 20
18.0027264235
 10
15.7217450554
 20
17.9579897684
 10
15.7541626606
 20
17.9066337813
 10
15.7787942994
 20
17.8516979779
 10
15.7941816326
 20
17.7964349667
 10
15.7994141058
 20
17.74411597
 10
15.7941816326
 20
17.6978380188
 10
15.7787942994
 20
17.6603408443
 10
15.7541626606
 20
17.6338443652
 10
15.746074697
 20
17.6287804803
  0
LINE
  5
1E8
330
1F
100
AcDbEntity
  8
0
  6
Continuous
 62
     7
370
    15
100
AcDbLine
 10
15.585927575
 20
18.0037420652
 30
0.0
 11
15.585927575
 21
17.600350872
 31
0.0
  0
ARC
  5
1E9
330
1F
100
AcDbEntity
  8
0
  6
Continuous
 62
     7
370
    15
100
AcDbCircle
 10
14.5779528374
 20
16.3093200916
 30
0.0
 40
1.971657056903235
100
AcDbArc
 50
59.3180198972
 51
60.665755714
  0
ARC
  5
1EA
330
1F
100
AcDbEntity
  8
0
  6
Continuous
 62
     7
370
    15
100
AcDbCircle
 10
15.6686797497
 20
18.0754666174
 30
0.0
 40
0.0460851037364238
100
AcDbArc
 50
182.4719249488
 51
233.9747775432
  0
ARC
  5
1EB
330
1F
100
AcDbEntity
  8
0
  6
Continuous
 62
     7
370
    15
100
AcDbCircle
 10
15.5821342412
 20
17.5592723244
 30
0.0
 40
0.0418987716159285
100
AcDbArc
 50
87.3996628191
 51
155.943321187
  0
LWPOLYLINE
  5
1EC
330
1F
100
AcDbEntity
  8
0
  6
Continuous
 62
     7
370
    15
100
AcDbPolyline
 90
        3
 70
   128
 43
0.0
 10
14.7261523217
 20
19.147919932
 10
14.7692423019
 20
19.1727895065
 10
14.7836985983
 20
19.1811336738
  0
LINE
  5
1ED
330
1F
100
AcDbEntity
  8
0
  6
Continuous
 62
     7
370
    15
100
AcDbLine
 10
14.7260345874
 20
19.1501731968
 30
0.0
 11
14.7261523217
 21
19.147919932
 31
0.0
  0
LWPOLYLINE
  5
1EE
330
1F
100
AcDbEntity
  8
0
  6
Continuous
 62
     7
370
    15
100
AcDbPolyline
 90
       13
 70
   128
 43
0.0
 10
14.3767066975
 20
19.3518358952
 10
14.3866123477
 20
19.3939617384
 10
14.4061935204
 20
19.4263454629
 10
14.4343003038
 20
19.4470856838
 10
14.469282188
 20
19.4549640085
 10
14.5090848255
 20
19.4495177992
 10
14.5513706425
 20
19.4310673087
 10
14.5936565631
 20
19.4006955743
 10
14.6334590969
 20
19.3601866964
 10
14.6684409812
 20
19.3119191478
 10
14.6965477645
 20
19.2587275257
 10
14.7161290409
 20
19.2037358004
 10
14.7260345874
 20
19.1501731968
  0
LINE
  5
1EF
330
1F
100
AcDbEntity
  8
0
  6
Continuous
 62
     7
370
    15
100
AcDbLine
 10
14.3764335571
 20
19.3498082775
 30
0.0
 11
14.3767066975
 21
19.3518358952
 31
0.0
  0
LWPOLYLINE
  5
1F0
330
1F
100
AcDbEntity
  8
0
  6
Continuous
 62
     7
370
    15
100
AcDbPolyline
 90
       11
 70
   128
 43
0.0
 10
14.4814157798
 20
19.4763337103
 10
14.4898243043
 20
19.4807953027
 10
14.5250836069
 20
19.4888842479
 10
14.5652477697
 20
19.4834669341
 10
14.6079391879
 20
19.4648639699
 10
14.650630606
 20
19.4341764719
 10
14.6907947689
 20
19.3932212303
 10
14.7260540715
 20
19.3444227609
 10
14.7543211871
 20
19.2906698483
 10
14.7739227903
 20
19.2351444836
 10
14.7836985983
 20
19.1811336738
  0
LINE
  5
1F1
330
1F
100
AcDbEntity
  8
0
  6
Continuous
 62
     7
370
    15
100
AcDbLine
 10
14.3767066975
 20
19.3518358952
 30
0.0
 11
14.7260345874
 21
19.1501731968
 31
0.0
  0
ARC
  5
1F2
330
1F
100
AcDbEntity
  8
0
  6
Continuous
 62
     7
370
    15
100
AcDbCircle
 10
12.7661150022
 20
19.1245011816
 30
0.0
 40
1.960177219452285
100
AcDbArc
 50
359.3289737095
 51
0.6845439622
  0
ARC
  5
1F3
330
1F
100
AcDbEntity
  8
0
  6
Continuous
 62
     7
370
    15
100
AcDbCircle
 10
14.8290347379
 20
19.1856646792
 30
0.0
 40
0.0455619969534086
100
AcDbArc
 50
185.7073291233
 51
237.8456284111
  0
ARC
  5
1F4
330
1F
100
AcDbEntity
  8
0
  6
Continuous
 62
     7
370
    15
100
AcDbCircle
 10
14.3392601582
 20
19.3690402372
 30
0.0
 40
0.0418536720215329
100
AcDbArc
 50
264.0170230358
 51
332.6448476049
  0
LWPOLYLINE
  5
1F5
330
1F
100
AcDbEntity
  8
0
  6
Continuous
 62
     7
370
    15
100
AcDbPolyline
 90
        3
 70
   128
 43
0.0
 10
11.8977251274
 20
20.7807361958
 10
11.9408152113
 20
20.8056057104
 10
11.9552715078
 20
20.8139498777
  0
LINE
  5
1F6
330
1F
100
AcDbEntity
  8
0
  6
Continuous
 62
     7
370
    15
100
AcDbLine
 10
11.8976074969
 20
20.7829894007
 30
0.0
 11
11.8977251274
 21
20.7807361958
 31
0.0
  0
LWPOLYLINE
  5
1F7
330
1F
100
AcDbEntity
  8
0
  6
Continuous
 62
     7
370
    15
100
AcDbPolyline
 90
       13
 70
   128
 43
0.0
 10
11.5482796069
 20
20.9846520991
 10
11.5581851534
 20
21.0267780022
 10
11.5777664299
 20
21.0591616668
 10
11.6058732132
 20
21.0799018877
 10
11.6408550975
 20
21.0877802125
 10
11.6806576312
 20
21.082334063
 10
11.7229435519
 20
21.0638835126
 10
11.7652293688
 20
21.0335118381
 10
11.8050320063
 20
20.9930029004
 10
11.8400138906
 20
20.9447353517
 10
11.8681206739
 20
20.8915437296
 10
11.8877018467
 20
20.8365520642
 10
11.8976074969
 20
20.7829894007
  0
LINE
  5
1F8
330
1F
100
AcDbEntity
  8
0
  6
Continuous
 62
     7
370
    15
100
AcDbLine
 10
11.5480063628
 20
20.9826245413
 30
0.0
 11
11.5482796069
 21
20.9846520991
 31
0.0
  0
LWPOLYLINE
  5
1F9
330
1F
100
AcDbEntity
  8
0
  6
Continuous
 62
     7
370
    15
100
AcDbPolyline
 90
       11
 70
   128
 43
0.0
 10
11.6529886893
 20
21.1091499142
 10
11.6613972137
 20
21.1136115066
 10
11.6966565163
 20
21.1217004518
 10
11.7368206792
 20
21.116283138
 10
11.7795120973
 20
21.0976801738
 10
11.8222035155
 20
21.0669926758
 10
11.8623676783
 20
21.0260374342
 10
11.897626981
 20
20.9772389648
 10
11.9258940965
 20
20.9234860522
 10
11.9454956997
 20
20.8679606876
 10
11.9552715078
 20
20.8139498777
  0
LINE
  5
1FA
330
1F
100
AcDbEntity
  8
0
  6
Continuous
 62
     7
370
    15
100
AcDbLine
 10
11.5482796069
 20
20.9846520991
 30
0.0
 11
11.8976074969
 21
20.7829894007
 31
0.0
  0
ARC
  5
1FB
330
1F
100
AcDbEntity
  8
0
  6
Continuous
 62
     7
370
    15
100
AcDbCircle
 10
9.9737774432
 20
20.7573217027
 30
0.0
 40
1.924090156465168
100
AcDbArc
 50
359.3162609747
 51
0.697256697
  0
ARC
  5
1FC
330
1F
100
AcDbEntity
  8
0
  6
Continuous
 62
     7
370
    15
100
AcDbCircle
 10
12.0006073425
 20
20.8184806883
 30
0.0
 40
0.0455616742525497
100
AcDbArc
 50
185.7071234108
 51
237.8456720569
  0
ARC
  5
1FD
330
1F
100
AcDbEntity
  8
0
  6
Continuous
 62
     7
370
    15
100
AcDbCircle
 10
11.5108381657
 20
21.0018468527
 30
0.0
 40
0.0418446189507622
100
AcDbArc
 50
264.0085622716
 51
332.6533083691
  0
ELLIPSE
  5
1FE
330
1F
100
AcDbEntity
  8
0
  6
Continuous
 62
     7
370
    15
100
AcDbEllipse
 10
11.1997507594
 20
20.7259848953
 30
0.0
 11
-0.3075687001160805
 21
0.532782290769461
 31
0.0
210
0.0
220
0.0
230
1.0
 40
0.5772057094
 41
5.4980206516103
 42
6.300634703041331
  0
ELLIPSE
  5
1FF
330
1F
100
AcDbEntity
  8
0
  6
Continuous
 62
     7
370
    15
100
AcDbEllipse
 10
10.9672132977
 20
20.5653842137
 30
0.0
 11
-0.2508498683808398
 21
0.4327187449139131
 31
0.0
210
0.0
220
0.0
230
1.0
 40
0.5771834535
 41
6.219892184858163
 42
6.264689909694825
  0
LINE
  5
200
330
1F
100
AcDbEntity
  8
0
  6
Continuous
 62
     7
370
    15
100
AcDbLine
 10
15.585927575
 20
12.7011059401
 30
0.0
 11
15.584035141
 21
12.7018830211
 31
0.0
  0
LWPOLYLINE
  5
201
330
1F
100
AcDbEntity
  8
0
  6
Continuous
 62
     7
370
    15
100
AcDbPolyline
 90
       13
 70
   128
 43
0.0
 10
15.585927575
 20
13.1044971334
 10
15.6273596693
 20
13.0691400954
 10
15.6651924809
 20
13.0246881823
 10
15.6972039665
 20
12.9737515494
 10
15.7215145259
 20
12.9193215734
 10
15.7366965176
 20
12.8645945794
 10
15.7418582621
 20
12.8127846671
 10
15.7366965176
 20
12.7669343781
 10
15.7215145259
 20
12.7297361387
 10
15.6972039665
 20
12.7033745372
 10
15.6651924809
 20
12.6893975787
 10
15.6273596693
 20
12.6886265001
 10
15.585927575
 20
12.7011059401
  0
LINE
  5
202
330
1F
100
AcDbEntity
  8
0
  6
Continuous
 62
     7
370
    15
100
AcDbLine
 10
15.584035141
 20
13.1057254623
 30
0.0
 11
15.585927575
 21
13.1044971334
 31
0.0
  0
LWPOLYLINE
  5
203
330
1F
100
AcDbEntity
  8
0
  6
Continuous
 62
     7
370
    15
100
AcDbPolyline
 90
        3
 70
   128
 43
0.0
 10
15.6415751952
 20
13.1389499817
 10
15.5984900763
 20
13.114072556
 10
15.584035141
 20
13.1057254623
  0
LWPOLYLINE
  5
204
330
1F
100
AcDbEntity
  8
0
  6
Continuous
 62
     7
370
    15
100
AcDbPolyline
 90
       11
 70
   128
 43
0.0
 10
15.6415751952
 20
13.1389499817
 10
15.6834604926
 20
13.1034814916
 10
15.7217450554
 20
13.0587450761
 10
15.7541626606
 20
13.0073888494
 10
15.7787942994
 20
12.9524532855
 10
15.7941816326
 20
12.8971902743
 10
15.7994141058
 20
12.8448710382
 10
15.7941816326
 20
12.7985933264
 10
15.7787942994
 20
12.761096152
 10
15.7541626606
 20
12.7345994333
 10
15.746074697
 20
12.7295355484
  0
LINE
  5
205
330
1F
100
AcDbEntity
  8
0
  6
Continuous
 62
     7
370
    15
100
AcDbLine
 10
15.585927575
 20
13.1044971334
 30
0.0
 11
15.585927575
 21
12.7011059401
 31
0.0
  0
ARC
  5
206
330
1F
100
AcDbEntity
  8
0
  6
Continuous
 62
     7
370
    15
100
AcDbCircle
 10
14.6119506868
 20
11.4689419126
 30
0.0
 40
1.903682897563327
100
AcDbArc
 50
59.2939571548
 51
60.6898184564
  0
ARC
  5
207
330
1F
100
AcDbEntity
  8
0
  6
Continuous
 62
     7
370
    15
100
AcDbCircle
 10
15.6686799875
 20
13.1762218132
 30
0.0
 40
0.046085346800928
100
AcDbArc
 50
182.4720707176
 51
233.9746317744
  0
ARC
  5
208
330
1F
100
AcDbEntity
  8
0
  6
Continuous
 62
     7
370
    15
100
AcDbCircle
 10
15.5821228577
 20
12.6600458445
 30
0.0
 40
0.0418808568591556
100
AcDbArc
 50
87.382960198
 51
155.9600238082
  0
ELLIPSE
  5
209
330
1F
100
AcDbEntity
  8
0
  6
Continuous
 62
     7
370
    15
100
AcDbEllipse
 10
15.1877005193
 20
12.8714659716
 30
0.0
 11
-0.3075687001160823
 21
0.532782290769461
 31
0.0
210
0.0
220
0.0
230
1.0
 40
0.5772057094
 41
3.124143257728065
 42
3.926919738320264
  0
ELLIPSE
  5
20A
330
1F
100
AcDbEntity
  8
0
  6
Continuous
 62
     7
370
    15
100
AcDbEllipse
 10
14.9323343019
 20
12.7504058547
 30
0.0
 11
-0.2492798439505943
 21
0.4336251007590626
 31
0.0
210
0.0
220
0.0
230
1.0
 40
0.5771832573
 41
3.107431018393354
 42
3.160088038499198
  0
LINE
  5
20B
330
1F
100
AcDbEntity
  8
0
  6
Continuous
 62
     8
370
    15
100
AcDbLine
 10
15.2768283007
 20
18.0675940316
 30
0.0
 11
15.2549419774
 21
18.0549595533
 31
0.0
  0
LINE
  5
20C
330
1F
100
AcDbEntity
  8
0
  6
Continuous
 62
     8
370
    15
100
AcDbLine
 10
14.9018731399
 20
18.6664927167
 30
0.0
 11
14.9238350029
 21
18.6791708024
 31
0.0
  0
LINE
  5
20D
330
1F
100
AcDbEntity
  8
0
  6
Continuous
 62
     8
370
    15
100
AcDbLine
 10
15.2549419774
 20
12.550355502
 30
0.0
 11
15.277158012
 21
12.5660180992
 31
0.0
  0
LINE
  5
20E
330
1F
100
AcDbEntity
  8
0
  6
Continuous
 62
     8
370
    15
100
AcDbLine
 10
10.9799247106
 20
20.9562386219
 30
0.0
 11
10.9552480529
 21
20.9448308836
 31
0.0
  0
LINE
  5
20F
330
1F
100
AcDbEntity
  8
0
  6
Continuous
 62
     8
370
    15
100
AcDbLine
 10
11.23771318
 20
20.262126415
 30
0.0
 11
11.2416724196
 21
20.2649496611
 31
0.0
  0
LINE
  5
210
330
1F
100
AcDbEntity
  8
0
  6
Continuous
 62
     8
370
    15
100
AcDbLine
 10
11.26244093
 20
15.2789582919
 30
0.0
 11
11.2416724196
 21
15.2656429022
 31
0.0
  0
LINE
  5
211
330
1F
100
AcDbEntity
  8
0
  6
Continuous
 62
     8
370
    15
100
AcDbLine
 10
11.2416724196
 20
20.2649496611
 30
0.0
 11
11.2416724196
 21
20.2253969682
 31
0.0
  0
LINE
  5
212
330
1F
100
AcDbEntity
  8
0
  6
Continuous
 62
     8
370
    15
100
AcDbLine
 10
11.3311227924
 20
15.1481140911
 30
0.0
 11
11.3252093479
 21
15.145058169
 31
0.0
  0
LINE
  5
213
330
1F
100
AcDbEntity
  8
0
  6
Continuous
 62
     8
370
    15
100
AcDbLine
 10
11.23771318
 20
15.2975583195
 30
0.0
 11
11.2416724196
 21
15.3003815656
 31
0.0
  0
LINE
  5
214
330
1F
100
AcDbEntity
  8
0
  6
Continuous
 62
     8
370
    15
100
AcDbLine
 10
11.2407249322
 20
15.2650204942
 30
0.0
 11
11.2416724196
 21
15.2656429022
 31
0.0
  0
LINE
  5
215
330
1F
100
AcDbEntity
  8
0
  6
Continuous
 62
     8
370
    15
100
AcDbLine
 10
11.2416724196
 20
15.2656429022
 30
0.0
 11
11.2418192699
 21
15.2602221928
 31
0.0
  0
ARC
  5
216
330
1F
100
AcDbEntity
  8
0
  6
Continuous
 62
     8
370
    15
100
AcDbCircle
 10
14.9259703647
 20
18.6952811012
 30
0.0
 40
0.0148225745407427
100
AcDbArc
 50
173.7725180521
 51
234.8564997819
  0
ARC
  5
217
330
1F
100
AcDbEntity
  8
0
  6
Continuous
 62
     8
370
    15
100
AcDbCircle
 10
15.2919107705
 20
18.0614290457
 30
0.0
 40
0.0148105302056778
100
AcDbArc
 50
185.0607062107
 51
246.2454456604
  0
LINE
  5
218
330
1F
100
AcDbEntity
  8
0
  6
Continuous
 62
     8
370
    15
100
AcDbLine
 10
15.5873472958
 20
12.7005653087
 30
0.0
 11
15.5856871414
 21
12.6996694302
 31
0.0
  0
LWPOLYLINE
  5
219
330
1F
100
AcDbEntity
  8
0
  6
Continuous
 62
     8
370
    15
100
AcDbPolyline
 90
        3
 70
   128
 43
0.0
 10
15.5843892124
 20
12.6989690089
 10
15.5828990351
 20
12.6981647897
 10
15.5438746857
 20
12.6771070142
  0
LINE
  5
21A
330
1F
100
AcDbEntity
  8
0
  6
Continuous
 62
     8
370
    15
100
AcDbLine
 10
15.5873472958
 20
17.5998102406
 30
0.0
 11
15.5856871414
 21
17.5989143621
 31
0.0
  0
LWPOLYLINE
  5
21B
330
1F
100
AcDbEntity
  8
0
  6
Continuous
 62
     8
370
    15
100
AcDbPolyline
 90
        3
 70
   128
 43
0.0
 10
15.5843892124
 20
17.5982139407
 10
15.5828990351
 20
17.5974094821
 10
15.5438746857
 20
17.576351946
  0
LWPOLYLINE
  5
21C
330
1F
100
AcDbEntity
  8
0
  6
Continuous
 62
     8
370
    15
100
AcDbPolyline
 90
        3
 70
   128
 43
0.0
 10
14.3348976253
 20
19.327414546
 10
14.3726483392
 20
19.3506779636
 10
14.3740873367
 20
19.3515646018
  0
LINE
  5
21D
330
1F
100
AcDbEntity
  8
0
  6
Continuous
 62
     8
370
    15
100
AcDbLine
 10
14.3753400232
 20
19.3523365001
 30
0.0
 11
14.3772737588
 21
19.3535281438
 31
0.0
  0
LWPOLYLINE
  5
21E
330
1F
100
AcDbEntity
  8
0
  6
Continuous
 62
     8
370
    15
100
AcDbPolyline
 90
        3
 70
   128
 43
0.0
 10
11.506470431
 20
20.9602308098
 10
11.5442212486
 20
20.9834941675
 10
11.5456602461
 20
20.9843808057
  0
LINE
  5
21F
330
1F
100
AcDbEntity
  8
0
  6
Continuous
 62
     8
370
    15
100
AcDbLine
 10
11.5469129326
 20
20.985152704
 30
0.0
 11
11.5488466682
 21
20.9863443477
 31
0.0
  0
ARC
  5
220
330
1F
100
AcDbEntity
  8
0
  6
Continuous
 62
     8
370
    15
100
AcDbCircle
 10
15.2919139482
 20
12.5352051466
 30
0.0
 40
0.0148142696522263
100
AcDbArc
 50
185.0820779568
 51
246.238383049
  0
ARC
  5
221
330
1F
100
AcDbEntity
  8
0
  6
Continuous
 62
     8
370
    15
100
AcDbCircle
 10
10.9606173114
 20
20.9844280985
 30
0.0
 40
0.0148189132013689
100
AcDbArc
 50
173.7692600748
 51
234.9188970785
  0
ELLIPSE
  5
222
330
1F
100
AcDbEntity
  8
0
  6
Continuous
 62
     8
370
    15
100
AcDbEllipse
 10
10.9672132977
 20
20.5653842137
 30
0.0
 11
-0.2508498683808398
 21
0.4327187449139131
 31
0.0
210
0.0
220
0.0
230
1.0
 40
0.5771834535
 41
6.264689909694825
 42
6.763654359760202
  0
ARC
  5
223
330
1F
100
AcDbEntity
  8
0
  6
Continuous
 62
     8
370
    15
100
AcDbCircle
 10
10.5924477014
 20
20.810845728
 30
0.0
 40
0.0463622985294377
100
AcDbArc
 50
242.6899001058
 51
282.963023575
  0
ARC
  5
224
330
1F
100
AcDbEntity
  8
0
  6
Continuous
 62
     8
370
    15
100
AcDbCircle
 10
10.5924260444
 20
15.2845705177
 30
0.0
 40
0.0463091580069949
100
AcDbArc
 50
242.6861066081
 51
282.158186223
  0
ARC
  5
225
330
1F
100
AcDbEntity
  8
0
  6
Continuous
 62
     8
370
    15
100
AcDbCircle
 10
14.9575409963
 20
12.3030887204
 30
0.0
 40
0.0463566817209035
100
AcDbArc
 50
137.0324027138
 51
177.3136472454
  0
ELLIPSE
  5
226
330
1F
100
AcDbEntity
  8
0
  6
Continuous
 62
     8
370
    15
100
AcDbEllipse
 10
14.9323343019
 20
12.7504058547
 30
0.0
 11
-0.2492798439505943
 21
0.4336251007590626
 31
0.0
210
0.0
220
0.0
230
1.0
 40
0.5771832573
 41
2.661148980399318
 42
3.107431018393354
  0
ARC
  5
227
330
1F
100
AcDbEntity
  8
0
  6
Continuous
 62
     8
370
    15
100
AcDbCircle
 10
10.9921419244
 20
14.5922407421
 30
0.0
 40
0.0463067719145913
100
AcDbArc
 50
137.8391678807
 51
177.3164276376
  0
ENDSEC
  0
SECTION
  2
OBJECTS
  0
DICTIONARY
  5
C
330
0
100
AcDbDictionary
281
     1
  3
ACAD_GROUP
350
D
  3
ACAD_LAYOUT
350
1A
  3
ACAD_MLINESTYLE
350
17
  3
ACAD_PLOTSETTINGS
350
19
  3
ACAD_PLOTSTYLENAME
350
E
  0
DICTIONARY
  5
D
102
{ACAD_REACTORS
330
C
102
}
330
C
100
AcDbDictionary
281
     1
  0
DICTIONARY
  5
1A
102
{ACAD_REACTORS
330
C
102
}
330
C
100
AcDbDictionary
281
     1
  3
Layout1
350
1E
  3
Layout2
350
26
  3
Model
350
22
  0
DICTIONARY
  5
17
102
{ACAD_REACTORS
330
C
102
}
330
C
100
AcDbDictionary
281
     1
  3
Standard
350
18
  0
DICTIONARY
  5
19
102
{ACAD_REACTORS
330
C
102
}
330
C
100
AcDbDictionary
281
     1
  0
ACDBDICTIONARYWDFLT
  5
E
102
{ACAD_REACTORS
330
C
102
}
330
C
100
AcDbDictionary
281
     1
  3
Normal
350
F
100
AcDbDictionaryWithDefault
340
F
  0
LAYOUT
  5
1E
102
{ACAD_REACTORS
330
1A
102
}
330
1A
100
AcDbPlotSettings
  1

  2
none_device
  4

  6

 40
0.0
 41
0.0
 42
0.0
 43
0.0
 44
0.0
 45
0.0
 46
0.0
 47
0.0
 48
0.0
 49
0.0
140
0.0
141
0.0
142
1.0
143
1.0
 70
   688
 72
     0
 73
     0
 74
     5
  7

 75
    16
147
1.0
148
0.0
149
0.0
100
AcDbLayout
  1
Layout1
 70
     1
 71
     1
 10
0.0
 20
0.0
 11
12.0
 21
9.0
 12
0.0
 22
0.0
 32
0.0
 14
1.0000000000E+20
 24
1.0000000000E+20
 34
1.0000000000E+20
 15
-1.0000000000E+20
 25
-1.0000000000E+20
 35
-1.0000000000E+20
146
0.0
 13
0.0
 23
0.0
 33
0.0
 16
1.0
 26
0.0
 36
0.0
 17
0.0
 27
1.0
 37
0.0
 76
     0
330
1B
  0
LAYOUT
  5
26
102
{ACAD_REACTORS
330
1A
102
}
330
1A
100
AcDbPlotSettings
  1

  2
none_device
  4

  6

 40
0.0
 41
0.0
 42
0.0
 43
0.0
 44
0.0
 45
0.0
 46
0.0
 47
0.0
 48
0.0
 49
0.0
140
0.0
141
0.0
142
1.0
143
1.0
 70
   688
 72
     0
 73
     0
 74
     5
  7

 75
    16
147
1.0
148
0.0
149
0.0
100
AcDbLayout
  1
Layout2
 70
     1
 71
     2
 10
0.0
 20
0.0
 11
0.0
 21
0.0
 12
0.0
 22
0.0
 32
0.0
 14
0.0
 24
0.0
 34
0.0
 15
0.0
 25
0.0
 35
0.0
146
0.0
 13
0.0
 23
0.0
 33
0.0
 16
1.0
 26
0.0
 36
0.0
 17
0.0
 27
1.0
 37
0.0
 76
     0
330
23
  0
LAYOUT
  5
22
102
{ACAD_REACTORS
330
1A
102
}
330
1A
100
AcDbPlotSettings
  1

  2
none_device
  4

  6

 40
0.0
 41
0.0
 42
0.0
 43
0.0
 44
0.0
 45
0.0
 46
0.0
 47
0.0
 48
0.0
 49
0.0
140
0.0
141
0.0
142
1.0
143
1.0
 70
  1712
 72
     0
 73
     0
 74
     0
  7

 75
     0
147
1.0
148
0.0
149
0.0
100
AcDbLayout
  1
Model
 70
     1
 71
     0
 10
0.0
 20
0.0
 11
17.0
 21
22.0
 12
0.0
 22
0.0
 32
0.0
 14
0.0
 24
0.0
 34
0.0
 15
17.0
 25
22.0
 35
0.0
146
0.0
 13
0.0
 23
0.0
 33
0.0
 16
1.0
 26
0.0
 36
0.0
 17
0.0
 27
1.0
 37
0.0
 76
     0
330
1F
331
29
  0
MLINESTYLE
  5
18
102
{ACAD_REACTORS
330
17
102
}
330
17
100
AcDbMlineStyle
  2
Standard
 70
     0
  3

 62
   256
 51
90.0
 52
90.0
 71
     2
 49
0.5
 62
   256
  6
BYLAYER
 49
-0.5
 62
   256
  6
BYLAYER
  0
ACDBPLACEHOLDER
  5
F
102
{ACAD_REACTORS
330
E
102
}
330
E
  0
ENDSEC
  0
EOF
