  0
SECTION
  2
HEADER
  9
$ACADVER
  1
AC1014
  9
$ACADMAINTVER
 70
     9
  9
$DWGCODEPAGE
  3
ANSI_1252
  9
$INSBASE
 10
0.0
 20
0.0
 30
0.0
  9
$EXTMIN
 10
0.0
 20
0.0
 30
0.0
  9
$EXTMAX
 10
33.999932
 20
21.999956
 30
0.0
  9
$LIMMIN
 10
0.0
 20
0.0
  9
$LIMMAX
 10
33.999932
 20
21.999956
  9
$ORTHOMODE
 70
     0
  9
$REGENMODE
 70
     1
  9
$FILLMODE
 70
     1
  9
$QTEXTMODE
 70
     0
  9
$MIRRTEXT
 70
     1
  9
$DRAGMODE
 70
     2
  9
$LTSCALE
 40
1.0
  9
$OSMODE
 70
    37
  9
$ATTMODE
 70
     1
  9
$TEXTSIZE
 40
0.2
  9
$TRACEWID
 40
0.05
  9
$TEXTSTYLE
  7
STANDARD
  9
$CLAYER
  8
0
  9
$CELTYPE
  6
BYLAYER
  9
$CECOLOR
 62
   256
  9
$CELTSCALE
 40
1.0
  9
$DELOBJ
 70
     1
  9
$DISPSILH
 70
     0
  9
$DIMSCALE
 40
1.0
  9
$DIMASZ
 40
0.18
  9
$DIMEXO
 40
0.0625
  9
$DIMDLI
 40
0.38
  9
$DIMRND
 40
0.0
  9
$DIMDLE
 40
0.0
  9
$DIMEXE
 40
0.18
  9
$DIMTP
 40
0.0
  9
$DIMTM
 40
0.0
  9
$DIMTXT
 40
0.18
  9
$DIMCEN
 40
0.09
  9
$DIMTSZ
 40
0.0
  9
$DIMTOL
 70
     0
  9
$DIMLIM
 70
     0
  9
$DIMTIH
 70
     1
  9
$DIMTOH
 70
     1
  9
$DIMSE1
 70
     0
  9
$DIMSE2
 70
     0
  9
$DIMTAD
 70
     0
  9
$DIMZIN
 70
     0
  9
$DIMBLK
  1

  9
$DIMASO
 70
     1
  9
$DIMSHO
 70
     1
  9
$DIMPOST
  1

  9
$DIMAPOST
  1

  9
$DIMALT
 70
     0
  9
$DIMALTD
 70
     2
  9
$DIMALTF
 40
25.4
  9
$DIMLFAC
 40
1.0
  9
$DIMTOFL
 70
     0
  9
$DIMTVP
 40
0.0
  9
$DIMTIX
 70
     0
  9
$DIMSOXD
 70
     0
  9
$DIMSAH
 70
     0
  9
$DIMBLK1
  1

  9
$DIMBLK2
  1

  9
$DIMSTYLE
  2
STANDARD
  9
$DIMCLRD
 70
     0
  9
$DIMCLRE
 70
     0
  9
$DIMCLRT
 70
     0
  9
$DIMTFAC
 40
1.0
  9
$DIMGAP
 40
0.09
  9
$DIMJUST
 70
     0
  9
$DIMSD1
 70
     0
  9
$DIMSD2
 70
     0
  9
$DIMTOLJ
 70
     1
  9
$DIMTZIN
 70
     0
  9
$DIMALTZ
 70
     0
  9
$DIMALTTZ
 70
     0
  9
$DIMFIT
 70
     3
  9
$DIMUPT
 70
     0
  9
$DIMUNIT
 70
     2
  9
$DIMDEC
 70
     4
  9
$DIMTDEC
 70
     4
  9
$DIMALTU
 70
     2
  9
$DIMALTTD
 70
     2
  9
$DIMTXSTY
  7
STANDARD
  9
$DIMAUNIT
 70
     0
  9
$LUNITS
 70
     2
  9
$LUPREC
 70
     4
  9
$SKETCHINC
 40
0.1
  9
$FILLETRAD
 40
0.5
  9
$AUNITS
 70
     0
  9
$AUPREC
 70
     0
  9
$MENU
  1
.
  9
$ELEVATION
 40
0.0
  9
$PELEVATION
 40
0.0
  9
$THICKNESS
 40
0.0
  9
$LIMCHECK
 70
     0
  9
$CHAMFERA
 40
0.5
  9
$CHAMFERB
 40
0.5
  9
$CHAMFERC
 40
1.0
  9
$CHAMFERD
 40
0.0
  9
$SKPOLY
 70
     0
  9
$TDCREATE
 40
2454594.675332199
  9
$TDUPDATE
 40
2454594.67533221
  9
$TDINDWG
 40
0.0000000116
  9
$TDUSRTIMER
 40
0.0000000116
  9
$USRTIMER
 70
     1
  9
$ANGBASE
 50
0.0
  9
$ANGDIR
 70
     0
  9
$PDMODE
 70
     0
  9
$PDSIZE
 40
0.0
  9
$PLINEWID
 40
0.0
  9
$COORDS
 70
     1
  9
$SPLFRAME
 70
     0
  9
$SPLINETYPE
 70
     6
  9
$SPLINESEGS
 70
     8
  9
$ATTDIA
 70
     0
  9
$ATTREQ
 70
     1
  9
$HANDLING
 70
     1
  9
$HANDSEED
  5
232
  9
$SURFTAB1
 70
     6
  9
$SURFTAB2
 70
     6
  9
$SURFTYPE
 70
     6
  9
$SURFU
 70
     6
  9
$SURFV
 70
     6
  9
$UCSNAME
  2

  9
$UCSORG
 10
0.0
 20
0.0
 30
0.0
  9
$UCSXDIR
 10
1.0
 20
0.0
 30
0.0
  9
$UCSYDIR
 10
0.0
 20
1.0
 30
0.0
  9
$PUCSNAME
  2

  9
$PUCSORG
 10
0.0
 20
0.0
 30
0.0
  9
$PUCSXDIR
 10
1.0
 20
0.0
 30
0.0
  9
$PUCSYDIR
 10
0.0
 20
1.0
 30
0.0
  9
$USERI1
 70
     0
  9
$USERI2
 70
     0
  9
$USERI3
 70
     0
  9
$USERI4
 70
     0
  9
$USERI5
 70
     0
  9
$USERR1
 40
0.0
  9
$USERR2
 40
0.0
  9
$USERR3
 40
0.0
  9
$USERR4
 40
0.0
  9
$USERR5
 40
0.0
  9
$WORLDVIEW
 70
     1
  9
$SHADEDGE
 70
     3
  9
$SHADEDIF
 70
    70
  9
$TILEMODE
 70
     1
  9
$MAXACTVP
 70
    64
  9
$PINSBASE
 10
0.0
 20
0.0
 30
0.0
  9
$PLIMCHECK
 70
     0
  9
$PEXTMIN
 10
0.0
 20
0.0
 30
0.0
  9
$PEXTMAX
 10
33.999932
 20
21.999956
 30
0.0
  9
$PLIMMIN
 10
0.0
 20
0.0
  9
$PLIMMAX
 10
33.999932
 20
21.999956
  9
$UNITMODE
 70
     0
  9
$VISRETAIN
 70
     1
  9
$PLINEGEN
 70
     0
  9
$PSLTSCALE
 70
     1
  9
$TREEDEPTH
 70
  3020
  9
$PICKSTYLE
 70
     1
  9
$CMLSTYLE
  2
STANDARD
  9
$CMLJUST
 70
     0
  9
$CMLSCALE
 40
1.0
  9
$PROXYGRAPHICS
 70
     1
  9
$MEASUREMENT
 70
     0
  0
ENDSEC
  0
SECTION
  2
CLASSES
  0
CLASS
  1
ACDBDICTIONARYWDFLT
  2
AcDbDictionaryWithDefault
  3
ObjectDBX Classes
 90
        0
280
     0
281
     0
  0
CLASS
  1
XRECORD
  2
AcDbXrecord
  3
AutoCAD 2000
 90
        0
280
     0
281
     0
  0
CLASS
  1
LWPOLYLINE
  2
AcDbPolyline
  3
AutoCAD 2000
 90
        0
280
     0
281
     1
  0
CLASS
  1
HATCH
  2
AcDbHatch
  3
AutoCAD 2000
 90
        0
280
     0
281
     1
  0
CLASS
  1
ACDBPLACEHOLDER
  2
AcDbPlaceHolder
  3
ObjectDBX Classes
 90
        0
280
     0
281
     0
  0
CLASS
  1
LAYOUT
  2
AcDbLayout
  3
ObjectDBX Classes
 90
        0
280
     0
281
     0
  0
ENDSEC
  0
SECTION
  2
TABLES
  0
TABLE
  2
VPORT
  5
8
330
0
100
AcDbSymbolTable
 70
     1
  0
VPORT
  5
29
330
8
100
AcDbSymbolTableRecord
100
AcDbViewportTableRecord
  2
*ACTIVE
 70
     0
 10
0.0
 20
0.0
 11
1.0
 21
1.0
 12
10.4299065421
 22
4.5
 13
0.0
 23
0.0
 14
0.5
 24
0.5
 15
0.5
 25
0.5
 16
0.0
 26
0.0
 36
1.0
 17
0.0
 27
0.0
 37
0.0
 40
9.0
 41
1.9729729729
 42
50.0
 43
0.0
 44
0.0
 50
0.0
 51
0.0
 71
     0
 72
   100
 73
     1
 74
     3
 75
     0
 76
     0
 77
     0
 78
     0
  0
ENDTAB
  0
TABLE
  2
LTYPE
  5
5
330
0
100
AcDbSymbolTable
 70
     2
  0
LTYPE
  5
14
330
5
100
AcDbSymbolTableRecord
100
AcDbLinetypeTableRecord
  2
BYBLOCK
 70
     0
  3

 72
    65
 73
     0
 40
0.0
  0
LTYPE
  5
15
330
5
100
AcDbSymbolTableRecord
100
AcDbLinetypeTableRecord
  2
BYLAYER
 70
     0
  3

 72
    65
 73
     0
 40
0.0
  0
LTYPE
  5
16
330
5
100
AcDbSymbolTableRecord
100
AcDbLinetypeTableRecord
  2
CONTINUOUS
 70
     0
  3
Solid line
 72
    65
 73
     0
 40
0.0
  0
LTYPE
  5
8F
330
5
100
AcDbSymbolTableRecord
100
AcDbLinetypeTableRecord
  2
HIDDEN2
 70
     0
  3
_ _ _ _ _ _ _ _ _ _ _ _ _ _ _ _ _ _ _ _ _ _ _ _
 72
    65
 73
     2
 40
0.1875
 49
0.125
 74
     4
 75
     0
340
0
 46
0.0
 50
0.0
 44
0.0
 45
0.0
 49
-0.0625
 74
     4
 75
     0
340
0
 46
0.0
 50
0.0
 44
0.0
 45
0.0
  0
ENDTAB
  0
TABLE
  2
LAYER
  5
2
330
0
100
AcDbSymbolTable
 70
     9
  0
LAYER
  5
10
330
2
100
AcDbSymbolTableRecord
100
AcDbLayerTableRecord
  2
0
 70
     0
 62
     7
  6
CONTINUOUS
  0
LAYER
  5
2A
330
2
100
AcDbSymbolTableRecord
100
AcDbLayerTableRecord
  2
DEFAULT
 70
     0
 62
     7
  6
CONTINUOUS
  0
LAYER
  5
2D
330
2
100
AcDbSymbolTableRecord
100
AcDbLayerTableRecord
  2
1006761
 70
     0
 62
     7
  6
CONTINUOUS
  0
LAYER
  5
71
330
2
100
AcDbSymbolTableRecord
100
AcDbLayerTableRecord
  2
1006777
 70
     0
 62
     7
  6
CONTINUOUS
  0
LAYER
  5
7A
330
2
100
AcDbSymbolTableRecord
100
AcDbLayerTableRecord
  2
1006778
 70
     0
 62
     7
  6
CONTINUOUS
  0
LAYER
  5
A3
330
2
100
AcDbSymbolTableRecord
100
AcDbLayerTableRecord
  2
54436X2
 70
     0
 62
     7
  6
CONTINUOUS
  0
LAYER
  5
BA
330
2
100
AcDbSymbolTableRecord
100
AcDbLayerTableRecord
  2
1_001_524
 70
     0
 62
     7
  6
CONTINUOUS
  0
LAYER
  5
C0
330
2
100
AcDbSymbolTableRecord
100
AcDbLayerTableRecord
  2
1_002_845
 70
     0
 62
     7
  6
CONTINUOUS
  0
LAYER
  5
CF
330
2
100
AcDbSymbolTableRecord
100
AcDbLayerTableRecord
  2
1006795
 70
     0
 62
     7
  6
CONTINUOUS
  0
ENDTAB
  0
TABLE
  2
STYLE
  5
3
330
0
100
AcDbSymbolTable
 70
     2
  0
STYLE
  5
11
330
3
100
AcDbSymbolTableRecord
100
AcDbTextStyleTableRecord
  2
STANDARD
 70
     0
 40
0.0
 41
1.0
 50
0.0
 71
     0
 42
0.2
  3
txt
  4

  0
STYLE
  5
1F1
330
3
100
AcDbSymbolTableRecord
100
AcDbTextStyleTableRecord
  2
SEACAD_ARIAL_TTF
 70
     0
 40
0.0
 41
1.0
 50
0.0
 71
     0
 42
0.2
  3
arial.ttf
  4

  0
ENDTAB
  0
TABLE
  2
VIEW
  5
6
330
0
100
AcDbSymbolTable
 70
     0
  0
ENDTAB
  0
TABLE
  2
UCS
  5
7
330
0
100
AcDbSymbolTable
 70
     0
  0
ENDTAB
  0
TABLE
  2
APPID
  5
9
330
0
100
AcDbSymbolTable
 70
     1
  0
APPID
  5
12
330
9
100
AcDbSymbolTableRecord
100
AcDbRegAppTableRecord
  2
ACAD
 70
     0
  0
ENDTAB
  0
TABLE
  2
DIMSTYLE
  5
A
330
0
100
AcDbSymbolTable
 70
     2
  0
DIMSTYLE
105
27
330
A
100
AcDbSymbolTableRecord
100
AcDbDimStyleTableRecord
  2
STANDARD
 70
     0
  3

  4

  5

  6

  7

 40
1.0
 41
0.18
 42
0.0625
 43
0.38
 44
0.18
 45
0.0
 46
0.0
 47
0.0
 48
0.0
140
0.18
141
0.09
142
0.0
143
25.4
144
1.0
145
0.0
146
1.0
147
0.09
 71
     0
 72
     0
 73
     1
 74
     1
 75
     0
 76
     0
 77
     0
 78
     0
170
     0
171
     2
172
     0
173
     0
174
     0
175
     0
176
     0
177
     0
178
     0
270
     2
271
     4
272
     4
273
     2
274
     2
340
11
275
     0
280
     0
281
     0
282
     0
283
     1
284
     0
285
     0
286
     0
287
     3
288
     0
  0
DIMSTYLE
105
1F2
102
{ACAD_REACTORS
330
1FC
330
207
102
}
330
A
100
AcDbSymbolTableRecord
100
AcDbDimStyleTableRecord
  2
FRACTION
 70
     0
  3

  4

  5

  6
SE_FILLED
  7
SE_FILLED
 40
1.0
 41
1.0
 42
0.5
 43
0.38
 44
0.5
 45
0.0
 46
0.0
 47
0.0
 48
0.0
140
1.0
141
0.5
142
0.0
143
25.4
144
1.0
145
0.0
146
1.0
147
0.5
 71
     0
 72
     0
 73
     1
 74
     1
 75
     0
 76
     0
 77
     0
 78
     4
170
     0
171
     2
172
     0
173
     1
174
     0
175
     0
176
     7
177
     7
178
     7
270
     5
271
     4
272
     4
273
     2
274
     2
340
1F1
275
     0
280
     0
281
     0
282
     0
283
     1
284
     4
285
     0
286
     0
287
     3
288
     0
  0
ENDTAB
  0
TABLE
  2
BLOCK_RECORD
  5
1
330
0
100
AcDbSymbolTable
 70
     9
  0
BLOCK_RECORD
  5
1F
330
1
100
AcDbSymbolTableRecord
100
AcDbBlockTableRecord
  2
*MODEL_SPACE
  0
BLOCK_RECORD
  5
1B
330
1
100
AcDbSymbolTableRecord
100
AcDbBlockTableRecord
  2
*PAPER_SPACE
  0
BLOCK_RECORD
  5
2B
330
1
100
AcDbSymbolTableRecord
100
AcDbBlockTableRecord
  2
SE
  0
BLOCK_RECORD
  5
80
330
1
100
AcDbSymbolTableRecord
100
AcDbBlockTableRecord
  2
SE1
  0
BLOCK_RECORD
  5
E9
330
1
100
AcDbSymbolTableRecord
100
AcDbBlockTableRecord
  2
SE2
  0
BLOCK_RECORD
  5
1EC
330
1
100
AcDbSymbolTableRecord
100
AcDbBlockTableRecord
  2
_SE_FILLED
  0
BLOCK_RECORD
  5
1F3
330
1
100
AcDbSymbolTableRecord
100
AcDbBlockTableRecord
  2
_OBLIQUE
  0
BLOCK_RECORD
  5
1F7
330
1
100
AcDbSymbolTableRecord
100
AcDbBlockTableRecord
  2
_DOT
  0
BLOCK_RECORD
  5
1FD
330
1
100
AcDbSymbolTableRecord
100
AcDbBlockTableRecord
  2
DMBLK71
  0
BLOCK_RECORD
  5
208
330
1
100
AcDbSymbolTableRecord
100
AcDbBlockTableRecord
  2
DMBLK72
  0
ENDTAB
  0
ENDSEC
  0
SECTION
  2
BLOCKS
  0
BLOCK
  5
20
330
1F
100
AcDbEntity
  8
0
100
AcDbBlockBegin
  2
*MODEL_SPACE
 70
     0
 71
     0
 10
0.0
 20
0.0
 30
0.0
  3
*MODEL_SPACE
  1

  0
ENDBLK
  5
21
330
1F
100
AcDbEntity
  8
0
100
AcDbBlockEnd
  0
BLOCK
  5
1C
330
1B
100
AcDbEntity
 67
     1
  8
0
100
AcDbBlockBegin
  2
*PAPER_SPACE
 70
     0
 71
     0
 10
0.0
 20
0.0
 30
0.0
  3
*PAPER_SPACE
  1

  0
ENDBLK
  5
1D
330
1B
100
AcDbEntity
 67
     1
  8
0
100
AcDbBlockEnd
  0
BLOCK
  5
7E
330
2B
100
AcDbEntity
  8
0
100
AcDbBlockBegin
  2
SE
 70
     0
 71
     0
 10
0.0
 20
0.0
 30
0.0
  3
SE
  1

  0
LINE
  5
2E
330
2B
100
AcDbEntity
  8
1006761
  6
CONTINUOUS
 62
     7
100
AcDbLine
 10
4.5231213387
 20
4.2016929017
 30
0.0
 11
4.5272406204
 21
3.6336333532
 31
0.0
  0
LINE
  5
2F
330
2B
100
AcDbEntity
  8
1006761
  6
CONTINUOUS
 62
     7
100
AcDbLine
 10
4.5084466058
 20
4.2550538842
 30
0.0
 11
4.4775875005
 21
4.2980192745
 31
0.0
  0
ELLIPSE
  5
30
330
2B
100
AcDbEntity
  8
1006761
  6
CONTINUOUS
 62
     7
100
AcDbEllipse
 10
4.479986184
 20
4.195156221
 30
0.0
 11
0.004788732716427497
 21
0.07494996219517699
 31
0.0
210
0.0
220
0.0
230
0.9999999999999999
 40
0.5720074789
 41
4.836186113121037
 42
5.673944154078334
  0
LINE
  5
31
330
2B
100
AcDbEntity
  8
1006761
  6
CONTINUOUS
 62
     7
100
AcDbLine
 10
4.6956197175
 20
3.586250151
 30
0.0
 11
4.691029696
 21
3.586250151
 31
0.0
  0
LINE
  5
32
330
2B
100
AcDbEntity
  8
1006761
  6
CONTINUOUS
 62
     7
100
AcDbLine
 10
4.7260649809
 20
3.586250151
 30
0.0
 11
4.6956197175
 21
3.586250151
 31
0.0
  0
ELLIPSE
  5
33
330
2B
100
AcDbEntity
  8
1006761
  6
CONTINUOUS
 62
     7
100
AcDbEllipse
 10
4.6571358226
 20
4.3657860477
 30
0.0
 11
0.04766882916986478
 21
-0.04684869745004461
 31
0.0
210
0.0
220
0.0
230
1.0
 40
0.3664860578
 41
4.460178894317341
 42
5.112637548204809
  0
LINE
  5
34
330
2B
100
AcDbEntity
  8
1006761
  6
CONTINUOUS
 62
     7
100
AcDbLine
 10
4.474039222
 20
3.586250151
 30
0.0
 11
4.4694492005
 21
3.586250151
 31
0.0
  0
LINE
  5
35
330
2B
100
AcDbEntity
  8
1006761
  6
CONTINUOUS
 62
     7
100
AcDbLine
 10
4.5044844854
 20
3.586250151
 30
0.0
 11
4.474039222
 21
3.586250151
 31
0.0
  0
ELLIPSE
  5
36
330
2B
100
AcDbEntity
  8
1006761
  6
CONTINUOUS
 62
     7
100
AcDbEllipse
 10
4.4862078345
 20
3.636250151
 30
0.0
 11
0.007456524745844174
 21
-0.04963112175869751
 31
0.0
210
0.0
220
0.0
230
0.9999999999999998
 40
0.8130225023
 41
0.9799156562471548
 42
1.396890950546953
  0
ELLIPSE
  5
37
330
2B
100
AcDbEntity
  8
1006761
  6
CONTINUOUS
 62
     7
100
AcDbEllipse
 10
4.5969257337
 20
4.2977941928
 30
0.0
 11
-0.05050822091141052
 21
0.03416862258433907
 31
0.0
210
0.0
220
0.0
230
1.0
 40
0.453787597
 41
0.2294522761794012
 42
0.3634821617406893
  0
ELLIPSE
  5
38
330
2B
100
AcDbEntity
  8
1006761
  6
CONTINUOUS
 62
     7
100
AcDbEllipse
 10
4.4367353511
 20
4.2977941928
 30
0.0
 11
-0.04756172014648268
 21
0.0336824528755731
 31
0.0
210
0.0
220
0.0
230
1.0
 40
0.4968000156
 41
4.106119229222337
 42
4.851140183213
  0
ELLIPSE
  5
39
330
2B
100
AcDbEntity
  8
1006761
  6
CONTINUOUS
 62
     7
100
AcDbEllipse
 10
4.4355553271
 20
4.3657860477
 30
0.0
 11
-0.0476688291698634
 21
0.0468486974500446
 31
0.0
210
0.0
220
0.0
230
1.0
 40
0.3664860578
 41
1.318586240727569
 42
2.138890989164889
  0
ELLIPSE
  5
3A
330
2B
100
AcDbEntity
  8
1006761
  6
CONTINUOUS
 62
     7
100
AcDbEllipse
 10
4.5899079372
 20
4.3657860477
 30
0.0
 11
-0.04363639777807241
 21
-0.04837216153987634
 31
0.0
210
0.0
220
0.0
230
1.0
 40
0.2899965743
 41
5.072979704342589
 42
5.893284452779917
  0
ELLIPSE
  5
3B
330
2B
100
AcDbEntity
  8
1006761
  6
CONTINUOUS
 62
     7
100
AcDbEllipse
 10
4.3753452382
 20
4.2977941928
 30
0.0
 11
-0.05050822091141133
 21
0.03416862258434234
 31
0.0
210
0.0
220
0.0
230
1.0
 40
0.453787597
 41
0.2294522761793441
 42
0.3634821617406652
  0
ELLIPSE
  5
3C
330
2B
100
AcDbEntity
  8
1006761
  6
CONTINUOUS
 62
     7
100
AcDbEllipse
 10
4.3683274417
 20
4.3657860477
 30
0.0
 11
-0.04363639777807131
 21
-0.04837216153987853
 31
0.0
210
0.0
220
0.0
230
0.9999999999999999
 40
0.2899965743
 41
5.072979704342576
 42
5.893284452779956
  0
LINE
  5
3D
330
2B
100
AcDbEntity
  8
1006761
  6
CONTINUOUS
 62
     7
100
AcDbLine
 10
8.9432688962
 20
3.586250151
 30
0.0
 11
8.9725036336
 21
3.586250151
 31
0.0
  0
LINE
  5
3E
330
2B
100
AcDbEntity
  8
1006761
  6
CONTINUOUS
 62
     7
100
AcDbLine
 10
8.9432688962
 20
3.586250151
 30
0.0
 11
8.6722845669
 21
3.586250151
 31
0.0
  0
LINE
  5
3F
330
2B
100
AcDbEntity
  8
1006761
  6
CONTINUOUS
 62
     7
100
AcDbLine
 10
8.972499414
 20
3.586250151
 30
0.0
 11
9.0009357211
 21
3.586250151
 31
0.0
  0
LINE
  5
40
330
2B
100
AcDbEntity
  8
1006761
  6
CONTINUOUS
 62
     7
100
AcDbLine
 10
5.5065883426
 20
3.586250151
 30
0.0
 11
5.6481070054
 21
3.586250151
 31
0.0
  0
LINE
  5
41
330
2B
100
AcDbEntity
  8
1006761
  6
CONTINUOUS
 62
     7
100
AcDbLine
 10
7.4796790553
 20
3.586250151
 30
0.0
 11
7.6041284787
 21
3.586250151
 31
0.0
  0
LINE
  5
42
330
2B
100
AcDbEntity
  8
1006761
  6
CONTINUOUS
 62
     7
100
AcDbLine
 10
5.5065883426
 20
3.586250151
 30
0.0
 11
4.7566466524
 21
3.586250151
 31
0.0
  0
LINE
  5
43
330
2B
100
AcDbEntity
  8
1006761
  6
CONTINUOUS
 62
     7
100
AcDbLine
 10
7.4796790553
 20
3.586250151
 30
0.0
 11
5.6481070054
 21
3.586250151
 31
0.0
  0
LINE
  5
44
330
2B
100
AcDbEntity
  8
1006761
  6
CONTINUOUS
 62
     7
100
AcDbLine
 10
8.2685874589
 20
3.586250151
 30
0.0
 11
8.3371061657
 21
3.586250151
 31
0.0
  0
LINE
  5
45
330
2B
100
AcDbEntity
  8
1006761
  6
CONTINUOUS
 62
     7
100
AcDbLine
 10
8.2685874589
 20
3.586250151
 30
0.0
 11
8.2331228642
 21
3.586250151
 31
0.0
  0
LINE
  5
46
330
2B
100
AcDbEntity
  8
1006761
  6
CONTINUOUS
 62
     7
100
AcDbLine
 10
3.5222467165
 20
3.586250151
 30
0.0
 11
3.5940976246
 21
3.586250151
 31
0.0
  0
LINE
  5
47
330
2B
100
AcDbEntity
  8
1006761
  6
CONTINUOUS
 62
     7
100
AcDbLine
 10
4.0964951874
 20
3.586250151
 30
0.0
 11
3.5940976246
 21
3.586250151
 31
0.0
  0
LINE
  5
48
330
2B
100
AcDbEntity
  8
1006761
  6
CONTINUOUS
 62
     7
100
AcDbLine
 10
3.5222467165
 20
3.586250151
 30
0.0
 11
3.1665778806
 21
3.586250151
 31
0.0
  0
LINE
  5
49
330
2B
100
AcDbEntity
  8
1006761
  6
CONTINUOUS
 62
     7
100
AcDbLine
 10
8.2331228642
 20
3.586250151
 30
0.0
 11
7.6041284787
 21
3.586250151
 31
0.0
  0
LINE
  5
4A
330
2B
100
AcDbEntity
  8
1006761
  6
CONTINUOUS
 62
     7
100
AcDbLine
 10
8.6161677355
 20
4.136250151
 30
0.0
 11
8.3466099855
 21
4.136250151
 31
0.0
  0
LINE
  5
4B
330
2B
100
AcDbEntity
  8
1006761
  6
CONTINUOUS
 62
     7
100
AcDbLine
 10
8.6722845669
 20
3.586250151
 30
0.0
 11
8.3891512566
 21
3.586250151
 31
0.0
  0
LINE
  5
4C
330
2B
100
AcDbEntity
  8
1006761
  6
CONTINUOUS
 62
     7
100
AcDbLine
 10
8.3891512566
 20
3.586250151
 30
0.0
 11
8.3385790656
 21
3.586250151
 31
0.0
  0
LINE
  5
4D
330
2B
100
AcDbEntity
  8
1006761
  6
CONTINUOUS
 62
     7
100
AcDbLine
 10
2.2207568009
 20
4.575250151
 30
0.0
 11
9.9467568009
 21
4.575250151
 31
0.0
  0
LINE
  5
4E
330
2B
100
AcDbEntity
  8
1006761
  6
CONTINUOUS
 62
     7
100
AcDbLine
 10
2.7435869613
 20
4.741250151
 30
0.0
 11
9.4239266405
 21
4.741250151
 31
0.0
  0
LINE
  5
4F
330
2B
100
AcDbEntity
  8
1006761
  6
CONTINUOUS
 62
     7
100
AcDbLine
 10
4.2513688317
 20
3.586250151
 30
0.0
 11
4.0964951874
 21
3.586250151
 31
0.0
  0
LINE
  5
50
330
2B
100
AcDbEntity
  8
1006761
  6
CONTINUOUS
 62
     7
100
AcDbLine
 10
4.4694492005
 20
3.586250151
 30
0.0
 11
4.3450920373
 21
3.586250151
 31
0.0
  0
LINE
  5
51
330
2B
100
AcDbEntity
  8
1006761
  6
CONTINUOUS
 62
     7
100
AcDbLine
 10
4.3450920373
 20
3.586250151
 30
0.0
 11
4.2513688317
 21
3.586250151
 31
0.0
  0
LINE
  5
52
330
2B
100
AcDbEntity
  8
1006761
  6
CONTINUOUS
 62
     7
100
AcDbLine
 10
4.7566466524
 20
3.586250151
 30
0.0
 11
4.7260649809
 21
3.586250151
 31
0.0
  0
SPLINE
  5
53
330
2B
100
AcDbEntity
  8
1006761
  6
CONTINUOUS
 62
     7
100
AcDbSpline
210
0.0
220
0.0
230
1.0
 70
     8
 71
     3
 72
    10
 73
     6
 74
     0
 42
0.0000004309910148
 43
0.0000000001
 40
0.0
 40
0.0
 40
0.0
 40
0.0
 40
0.25
 40
0.25
 40
0.4552710781607708
 40
0.4552710781607708
 40
0.4552710781607708
 40
0.4552710781607708
 10
4.726064980856993
 20
3.586250150970389
 30
0.0
 10
4.72762817556089
 20
3.586250150970389
 30
0.0
 10
4.729214718915291
 20
3.586777856813345
 30
0.0
 10
4.732083634208792
 20
3.588719797255039
 30
0.0
 10
4.733368249728715
 20
3.589944968048528
 30
0.0
 10
4.734672303311918
 20
3.591576450355802
 30
0.0
  0
LINE
  5
54
330
2B
100
AcDbEntity
  8
1006761
  6
CONTINUOUS
 62
     7
100
AcDbLine
 10
4.691029696
 20
3.586250151
 30
0.0
 11
4.5044844854
 21
3.586250151
 31
0.0
  0
SPLINE
  5
55
330
2B
100
AcDbEntity
  8
1006761
  6
CONTINUOUS
 62
     7
100
AcDbSpline
210
0.0
220
0.0
230
1.0
 70
     8
 71
     3
 72
    14
 73
    10
 74
     0
 42
0.0000002837308694
 43
0.0000000001
 40
0.0
 40
0.0
 40
0.0
 40
0.0
 40
0.25
 40
0.25
 40
0.5
 40
0.5
 40
0.75
 40
0.75
 40
1.0
 40
1.0
 40
1.0
 40
1.0
 10
4.504484485365865
 20
3.586250150970389
 30
0.0
 10
4.506047680069788
 20
3.586250150970389
 30
0.0
 10
4.507634223424163
 20
3.586777856813345
 30
0.0
 10
4.510785000434963
 20
3.588910586669082
 30
0.0
 10
4.51234717099342
 20
3.590495500894852
 30
0.0
 10
4.515547502060912
 20
3.594907343115683
 30
0.0
 10
4.517166707509583
 20
3.597724398316431
 30
0.0
 10
4.5204622429625
 20
3.604701186660733
 30
0.0
 10
4.522129212858605
 20
3.608865175562831
 30
0.0
 10
4.523871494432308
 20
3.613635478687959
 30
0.0
  0
LINE
  5
56
330
2B
100
AcDbEntity
  8
1006761
  6
CONTINUOUS
 62
     7
100
AcDbLine
 10
2.2087568009
 20
4.6608131216
 30
0.0
 11
2.2087568009
 21
4.587250151
 31
0.0
  0
LINE
  5
57
330
2B
100
AcDbEntity
  8
1006761
  6
CONTINUOUS
 62
     7
100
AcDbLine
 10
9.9587568009
 20
4.587250151
 30
0.0
 11
9.9587568009
 21
4.6608131216
 31
0.0
  0
LINE
  5
58
330
2B
100
AcDbEntity
  8
1006761
  6
CONTINUOUS
 62
     7
100
AcDbLine
 10
3.085778924
 20
4.5173441208
 30
0.0
 11
3.1166083393
 21
3.6345051761
 31
0.0
  0
LINE
  5
59
330
2B
100
AcDbEntity
  8
1006761
  6
CONTINUOUS
 62
     7
100
AcDbLine
 10
9.948420575
 20
4.6726972226
 30
0.0
 11
9.4932505628
 21
4.7364210243
 31
0.0
  0
LINE
  5
5A
330
2B
100
AcDbEntity
  8
1006761
  6
CONTINUOUS
 62
     7
100
AcDbLine
 10
2.674263039
 20
4.7364210243
 30
0.0
 11
2.2190930267
 21
4.6726972226
 31
0.0
  0
LINE
  5
5B
330
2B
100
AcDbEntity
  8
1006761
  6
CONTINUOUS
 62
     7
100
AcDbLine
 10
9.0509052625
 20
3.6345051761
 30
0.0
 11
9.0817346777
 21
4.5173441208
 31
0.0
  0
LINE
  5
5C
330
2B
100
AcDbEntity
  8
1006761
  6
CONTINUOUS
 62
     7
100
AcDbLine
 10
4.5442048795
 20
4.3215816177
 30
0.0
 11
4.6108500782
 21
3.6758902373
 31
0.0
  0
SPLINE
  5
5D
330
2B
100
AcDbEntity
  8
1006761
  6
CONTINUOUS
 62
     7
100
AcDbSpline
210
0.0
220
0.0
230
1.0
 70
     8
 71
     3
 72
    23
 73
    19
 74
     0
 42
0.0000000757306967
 43
0.0000000001
 40
0.0
 40
0.0
 40
0.0
 40
0.0
 40
0.0394461938311147
 40
0.107817742869482
 40
0.1768014415884813
 40
0.246623567105314
 40
0.3174409742070961
 40
0.3892184923437635
 40
0.4614919892683841
 40
0.5251193057291023
 40
0.5871089447484107
 40
0.647458840148004
 40
0.7063486576766502
 40
0.764031459357437
 40
0.8207708006608534
 40
0.8828574114698969
 40
0.9436589721537572
 40
1.0
 40
1.0
 40
1.0
 40
1.0
 10
4.610850078212185
 20
3.675890237286036
 30
0.0
 10
4.611074790751676
 20
3.673905824904764
 30
0.0
 10
4.611612632724624
 20
3.669304458975321
 30
0.0
 10
4.613087172477156
 20
3.661122230268722
 30
0.0
 10
4.615397631019713
 20
3.652038874709695
 30
0.0
 10
4.618406319022487
 20
3.643064149015429
 30
0.0
 10
4.622119876791526
 20
3.634365368430788
 30
0.0
 10
4.626567208332671
 20
3.62601301957013
 30
0.0
 10
4.631547605655788
 20
3.618451307131454
 30
0.0
 10
4.636914786837762
 20
3.611772903421711
 30
0.0
 10
4.642502137806535
 20
3.606014884379937
 30
0.0
 10
4.648456151484393
 20
3.600961122631437
 30
0.0
 10
4.654734679553948
 20
3.596626055844918
 30
0.0
 10
4.661292407691407
 20
3.593021850421054
 30
0.0
 10
4.668343861595037
 20
3.590053411667839
 30
0.0
 10
4.675776590344093
 20
3.58785695866749
 30
0.0
 10
4.683613933626546
 20
3.586494372120539
 30
0.0
 10
4.688338437549417
 20
3.586324996179395
 30
0.0
 10
4.691029695989621
 20
3.586250150970389
 30
0.0
  0
LINE
  5
5E
330
2B
100
AcDbEntity
  8
1006761
  6
CONTINUOUS
 62
     7
100
AcDbLine
 10
4.322624384
 20
4.3215816177
 30
0.0
 11
4.3892695827
 21
3.6758902373
 31
0.0
  0
SPLINE
  5
5F
330
2B
100
AcDbEntity
  8
1006761
  6
CONTINUOUS
 62
     7
100
AcDbSpline
210
0.0
220
0.0
230
1.0
 70
     8
 71
     3
 72
    23
 73
    19
 74
     0
 42
0.0000000757306967
 43
0.0000000001
 40
0.0
 40
0.0
 40
0.0
 40
0.0
 40
0.0394461938311147
 40
0.1078177428694982
 40
0.1768014415884974
 40
0.2466235671053842
 40
0.3174409742071687
 40
0.3892184923438248
 40
0.4614919892684745
 40
0.5251193057291798
 40
0.5871089447484854
 40
0.6474588401480789
 40
0.7063486576767231
 40
0.7640314593575099
 40
0.8207708006609223
 40
0.8828574114699604
 40
0.9436589721538207
 40
1.0
 40
1.0
 40
1.0
 40
1.0
 10
4.389269582721058
 20
3.675890237286036
 30
0.0
 10
4.389494295260548
 20
3.673905824904764
 30
0.0
 10
4.390032137233496
 20
3.669304458975319
 30
0.0
 10
4.391506676986028
 20
3.661122230268723
 30
0.0
 10
4.393817135528589
 20
3.65203887470969
 30
0.0
 10
4.396825823531359
 20
3.64306414901542
 30
0.0
 10
4.400539381300405
 20
3.634365368430779
 30
0.0
 10
4.404986712841547
 20
3.626013019570127
 30
0.0
 10
4.409967110164666
 20
3.618451307131446
 30
0.0
 10
4.415334291346642
 20
3.611772903421702
 30
0.0
 10
4.420921642315415
 20
3.606014884379933
 30
0.0
 10
4.426875655993274
 20
3.600961122631434
 30
0.0
 10
4.433154184062826
 20
3.596626055844917
 30
0.0
 10
4.439711912200289
 20
3.593021850421048
 30
0.0
 10
4.446763366103922
 20
3.590053411667841
 30
0.0
 10
4.454196094852972
 20
3.58785695866749
 30
0.0
 10
4.462033438135427
 20
3.586494372120536
 30
0.0
 10
4.466757942058293
 20
3.586324996179395
 30
0.0
 10
4.469449200498494
 20
3.586250150970389
 30
0.0
  0
SPLINE
  5
60
330
2B
100
AcDbEntity
  8
1006761
  6
CONTINUOUS
 62
     7
100
AcDbSpline
210
0.0
220
0.0
230
1.0
 70
     8
 71
     3
 72
     8
 73
     4
 74
     0
 42
0.0000000107413334
 43
0.0000000001
 40
0.0
 40
0.0
 40
0.0
 40
0.0
 40
1.0
 40
1.0
 40
1.0
 40
1.0
 10
4.644488226678012
 20
4.561788618631827
 30
0.0
 10
4.652639526470064
 20
4.439132571216446
 30
0.0
 10
4.673396669171817
 20
4.129499854299462
 30
0.0
 10
4.706759654783274
 20
3.632890467880876
 30
0.0
  0
ARC
  5
61
330
2B
100
AcDbEntity
  8
1006761
  6
CONTINUOUS
 62
     7
100
AcDbCircle
 10
9.0009357211
 20
3.636250151
 30
0.0
 40
0.0499999999999997
100
AcDbArc
 50
270.0
 51
358.0
  0
ARC
  5
62
330
2B
100
AcDbEntity
  8
1006761
  6
CONTINUOUS
 62
     7
100
AcDbCircle
 10
4.7566466524
 20
3.636250151
 30
0.0
 40
0.0500000000000007
100
AcDbArc
 50
183.8528161846
 51
270.0
  0
ARC
  5
63
330
2B
100
AcDbEntity
  8
1006761
  6
CONTINUOUS
 62
     7
100
AcDbCircle
 10
3.1665778806
 20
3.636250151
 30
0.0
 40
0.05
100
AcDbArc
 50
182.0
 51
270.0
  0
ARC
  5
64
330
2B
100
AcDbEntity
  8
1006761
  6
CONTINUOUS
 62
     7
100
AcDbCircle
 10
3.0258154744
 20
4.515250151
 30
0.0
 40
0.0599999999999999
100
AcDbArc
 50
2.0
 51
90.0
  0
ARC
  5
65
330
2B
100
AcDbEntity
  8
1006761
  6
CONTINUOUS
 62
     7
100
AcDbCircle
 10
4.6243258663
 20
4.5547037022
 30
0.0
 40
0.0212386686497158
100
AcDbArc
 50
18.5243084068
 51
74.8429242378
  0
ARC
  5
66
330
2B
100
AcDbEntity
  8
1006761
  6
CONTINUOUS
 62
     7
100
AcDbCircle
 10
9.1416981274
 20
4.515250151
 30
0.0
 40
0.0599999999999993
100
AcDbArc
 50
90.0
 51
178.0
  0
SPLINE
  5
67
330
2B
100
AcDbEntity
  8
1006761
  6
CONTINUOUS
 62
     7
100
AcDbSpline
210
0.0
220
0.0
230
1.0
 70
     8
 71
     3
 72
    20
 73
    16
 74
     0
 42
0.0000001616710563
 43
0.0000000001
 40
0.0
 40
0.0
 40
0.0
 40
0.0
 40
0.0498848202527012
 40
0.1167103325244542
 40
0.1836778568903568
 40
0.2497850224524084
 40
0.3143733796817654
 40
0.3770464034495682
 40
0.4377859307603263
 40
0.497371669330923
 40
0.5612443753273707
 40
0.626000980945584
 40
0.6929889353878371
 40
0.7627342728468486
 40
0.8147539622142644
 40
0.8147539622142644
 40
0.8147539622142644
 40
0.8147539622142644
 10
8.328941925430575
 20
4.091744039941494
 30
0.0
 10
8.329137714456666
 20
4.093583523095909
 30
0.0
 10
8.329538509082285
 20
4.097227149578751
 30
0.0
 10
8.330710187420886
 20
4.103322023032019
 30
0.0
 10
8.33229562715492
 20
4.109483226982889
 30
0.0
 10
8.334208498196313
 20
4.11521922327417
 30
0.0
 10
8.336325616898918
 20
4.120315881569162
 30
0.0
 10
8.338543632329495
 20
4.1246865531898
 30
0.0
 10
8.340725381318872
 20
4.128245195247399
 30
0.0
 10
8.342863890454112
 20
4.131143584520156
 30
0.0
 10
8.344873116437249
 20
4.133399743647623
 30
0.0
 10
8.346637278607133
 20
4.135014653766239
 30
0.0
 10
8.347993220728563
 20
4.136001563864727
 30
0.0
 10
8.348722815591726
 20
4.136397604228805
 30
0.0
 10
8.348860672403617
 20
4.136451830329636
 30
0.0
 10
8.34885995975847
 20
4.136451290497745
 30
0.0
  0
ARC
  5
68
330
2B
100
AcDbEntity
  8
1006761
  6
CONTINUOUS
 62
     7
100
AcDbCircle
 10
-336.9741376928
 20
38.3015539355
 30
0.0
 40
346.9934190578384
100
AcDbArc
 50
354.265648176
 51
354.3420686393
  0
ARC
  5
69
330
2B
100
AcDbEntity
  8
1006761
  6
CONTINUOUS
 62
     7
100
AcDbCircle
 10
8.2331228642
 20
3.636250151
 30
0.0
 40
0.0499999999999997
100
AcDbArc
 50
270.0
 51
354.2589196812
  0
ARC
  5
6A
330
2B
100
AcDbEntity
  8
1006761
  6
CONTINUOUS
 62
     7
100
AcDbCircle
 10
8.358305346
 20
6.0637002767
 30
0.0
 40
2.477498884334771
100
AcDbArc
 50
267.4570806414
 51
269.3871534614
  0
ARC
  5
6B
330
2B
100
AcDbEntity
  8
1006761
  6
CONTINUOUS
 62
     7
100
AcDbCircle
 10
2.2207568009
 20
4.6608131216
 30
0.0
 40
0.0120000000000028
100
AcDbArc
 50
97.9696103942
 51
180.0
  0
ARC
  5
6C
330
2B
100
AcDbEntity
  8
1006761
  6
CONTINUOUS
 62
     7
100
AcDbCircle
 10
9.9467568009
 20
4.6608131216
 30
0.0
 40
0.0119999999999998
100
AcDbArc
 50
0.0
 51
82.0303896058
  0
ARC
  5
6D
330
2B
100
AcDbEntity
  8
1006761
  6
CONTINUOUS
 62
     7
100
AcDbCircle
 10
2.2207568009
 20
4.587250151
 30
0.0
 40
0.0120000000000003
100
AcDbArc
 50
180.0
 51
270.0
  0
ARC
  5
6E
330
2B
100
AcDbEntity
  8
1006761
  6
CONTINUOUS
 62
     7
100
AcDbCircle
 10
9.9467568009
 20
4.587250151
 30
0.0
 40
0.0120000000000009
100
AcDbArc
 50
270.0
 51
360.0
  0
ARC
  5
6F
330
2B
100
AcDbEntity
  8
1006761
  6
CONTINUOUS
 62
     7
100
AcDbCircle
 10
9.4239266405
 20
4.241250151
 30
0.0
 40
0.5000000000000003
100
AcDbArc
 50
82.0303896057
 51
90.0
  0
ARC
  5
70
330
2B
100
AcDbEntity
  8
1006761
  6
CONTINUOUS
 62
     7
100
AcDbCircle
 10
2.7435869613
 20
4.241250151
 30
0.0
 40
0.4999999999999996
100
AcDbArc
 50
90.0
 51
97.9696103943
  0
LINE
  5
72
330
2B
100
AcDbEntity
  8
1006777
  6
CONTINUOUS
 62
     7
100
AcDbLine
 10
8.7829609395
 20
4.743750151
 30
0.0
 11
8.606437189
 21
4.743750151
 31
0.0
  0
LINE
  5
73
330
2B
100
AcDbEntity
  8
1006777
  6
CONTINUOUS
 62
     7
100
AcDbLine
 10
8.6007361208
 20
4.743750151
 30
0.0
 11
8.606437189
 21
4.743750151
 31
0.0
  0
LINE
  5
74
330
2B
100
AcDbEntity
  8
1006777
  6
CONTINUOUS
 62
     7
100
AcDbLine
 10
7.8963782274
 20
4.743750151
 30
0.0
 11
8.6011583032
 21
4.743750151
 31
0.0
  0
LINE
  5
75
330
2B
100
AcDbEntity
  8
1006777
  6
CONTINUOUS
 62
     7
100
AcDbLine
 10
7.8487605666
 20
4.743750151
 30
0.0
 11
7.8963782274
 21
4.743750151
 31
0.0
  0
LINE
  5
76
330
2B
100
AcDbEntity
  8
1006777
  6
CONTINUOUS
 62
     7
100
AcDbLine
 10
7.1345526623
 20
4.743750151
 30
0.0
 11
7.8487605666
 21
4.743750151
 31
0.0
  0
ARC
  5
77
330
2B
100
AcDbEntity
  8
1006777
  6
CONTINUOUS
 62
     7
100
AcDbCircle
 10
7.1345526623
 20
4.713750151
 30
0.0
 40
0.0300000000000005
100
AcDbArc
 50
90.0
 51
113.5564643091
  0
ARC
  5
78
330
2B
100
AcDbEntity
  8
1006777
  6
CONTINUOUS
 62
     7
100
AcDbCircle
 10
8.7829609395
 20
4.713750151
 30
0.0
 40
0.0300000000000001
100
AcDbArc
 50
66.4435356909
 51
90.0
  0
ARC
  5
79
330
2B
100
AcDbEntity
  8
1006777
  6
CONTINUOUS
 62
     7
100
AcDbCircle
 10
8.6011583032
 20
4.713750151
 30
0.0
 40
0.0300000000000001
100
AcDbArc
 50
66.4435356909
 51
90.0
  0
LINE
  5
7B
330
2B
100
AcDbEntity
  8
1006778
  6
CONTINUOUS
 62
     7
100
AcDbLine
 10
3.3845526623
 20
4.743750151
 30
0.0
 11
7.0329609395
 21
4.743750151
 31
0.0
  0
ARC
  5
7C
330
2B
100
AcDbEntity
  8
1006778
  6
CONTINUOUS
 62
     7
100
AcDbCircle
 10
7.0329609395
 20
4.713750151
 30
0.0
 40
0.03
100
AcDbArc
 50
66.4435356909
 51
90.0
  0
ARC
  5
7D
330
2B
100
AcDbEntity
  8
1006778
  6
CONTINUOUS
 62
     7
100
AcDbCircle
 10
3.3845526623
 20
4.713750151
 30
0.0
 40
0.0300000000000005
100
AcDbArc
 50
90.0
 51
113.5564643091
  0
ENDBLK
  5
7F
330
2B
100
AcDbEntity
  8
0
100
AcDbBlockEnd
  0
BLOCK
  5
E7
330
80
100
AcDbEntity
  8
0
100
AcDbBlockBegin
  2
SE1
 70
     0
 71
     0
 10
0.0
 20
0.0
 30
0.0
  3
SE1
  1

  0
CIRCLE
  5
82
330
80
100
AcDbEntity
  8
1006761
  6
CONTINUOUS
 62
     7
100
AcDbCircle
 10
7.4118568009
 20
11.3586082392
 30
0.0
 40
0.0651
  0
CIRCLE
  5
83
330
80
100
AcDbEntity
  8
1006761
  6
CONTINUOUS
 62
     7
100
AcDbCircle
 10
6.7556568009
 20
11.2200609837
 30
0.0
 40
0.0651
  0
CIRCLE
  5
84
330
80
100
AcDbEntity
  8
1006761
  6
CONTINUOUS
 62
     7
100
AcDbCircle
 10
7.4118568009
 20
15.3273100521
 30
0.0
 40
0.0651
  0
CIRCLE
  5
85
330
80
100
AcDbEntity
  8
1006761
  6
CONTINUOUS
 62
     7
100
AcDbCircle
 10
6.7556568009
 20
15.4658573076
 30
0.0
 40
0.0651
  0
CIRCLE
  5
86
330
80
100
AcDbEntity
  8
1006761
  6
CONTINUOUS
 62
     7
100
AcDbCircle
 10
3.6787568009
 20
13.3429591457
 30
0.0
 40
0.0651
  0
CIRCLE
  5
87
330
80
100
AcDbEntity
  8
1006761
  6
CONTINUOUS
 62
     7
100
AcDbCircle
 10
6.0837568009
 20
13.3429591457
 30
0.0
 40
3.875
  0
ARC
  5
88
330
80
100
AcDbEntity
  8
1006761
  6
CONTINUOUS
 62
     7
100
AcDbCircle
 10
8.3249567941
 20
11.7736540158
 30
0.0
 40
0.1581904499491091
100
AcDbArc
 50
309.280842476
 51
340.719157524
  0
ARC
  5
89
330
80
100
AcDbEntity
  8
1006761
  6
CONTINUOUS
 62
     7
100
AcDbCircle
 10
3.8425568077
 20
14.9122642755
 30
0.0
 40
0.1581904499491091
100
AcDbArc
 50
129.2808424759
 51
160.7191575241
  0
ARC
  5
8A
330
80
100
AcDbEntity
  8
1006761
  6
CONTINUOUS
 62
     7
100
AcDbCircle
 10
6.0837568009
 20
13.3429591457
 30
0.0
 40
2.748988938433639
100
AcDbArc
 50
159.5277019058
 51
310.4722980942
  0
ARC
  5
8B
330
80
100
AcDbEntity
  8
1006761
  6
CONTINUOUS
 62
     7
100
AcDbCircle
 10
7.7505647442
 20
12.1941079793
 30
0.0
 40
0.8768045061326155
100
AcDbArc
 50
324.0225065914
 51
330.8073199971
  0
ARC
  5
8C
330
80
100
AcDbEntity
  8
1006761
  6
CONTINUOUS
 62
     7
100
AcDbCircle
 10
7.733405656
 20
12.1696022617
 30
0.0
 40
0.8768045061329377
100
AcDbArc
 50
319.1926800029
 51
325.9774934086
  0
ARC
  5
8D
330
80
100
AcDbEntity
  8
1006761
  6
CONTINUOUS
 62
     7
100
AcDbCircle
 10
4.4341079458
 20
14.5163160297
 30
0.0
 40
0.8768045061329371
100
AcDbArc
 50
139.1926800029
 51
145.9774934086
  0
ARC
  5
8E
330
80
100
AcDbEntity
  8
1006761
  6
CONTINUOUS
 62
     7
100
AcDbCircle
 10
4.4169488576
 20
14.491810312
 30
0.0
 40
0.8768045061328379
100
AcDbArc
 50
144.0225065914
 51
150.8073199971
  0
CIRCLE
  5
90
330
80
100
AcDbEntity
  8
1006761
  6
HIDDEN2
 62
     7
100
AcDbCircle
 10
7.4118568009
 20
11.3586082392
 30
0.0
 40
0.082
  0
CIRCLE
  5
91
330
80
100
AcDbEntity
  8
1006761
  6
HIDDEN2
 62
     7
100
AcDbCircle
 10
6.7556568009
 20
11.2200609837
 30
0.0
 40
0.082
  0
CIRCLE
  5
92
330
80
100
AcDbEntity
  8
1006761
  6
HIDDEN2
 62
     7
100
AcDbCircle
 10
7.4118568009
 20
15.3273100521
 30
0.0
 40
0.082
  0
CIRCLE
  5
93
330
80
100
AcDbEntity
  8
1006761
  6
HIDDEN2
 62
     7
100
AcDbCircle
 10
6.7556568009
 20
15.4658573076
 30
0.0
 40
0.082
  0
CIRCLE
  5
94
330
80
100
AcDbEntity
  8
1006761
  6
HIDDEN2
 62
     7
100
AcDbCircle
 10
3.6787568009
 20
13.3429591457
 30
0.0
 40
0.082
  0
CIRCLE
  5
95
330
80
100
AcDbEntity
  8
1006777
  6
CONTINUOUS
 62
     7
100
AcDbCircle
 10
7.9537568009
 20
13.3429591457
 30
0.0
 40
0.66
  0
CIRCLE
  5
96
330
80
100
AcDbEntity
  8
1006777
  6
CONTINUOUS
 62
     7
100
AcDbCircle
 10
7.4118568009
 20
11.3586082392
 30
0.0
 40
0.105
  0
CIRCLE
  5
97
330
80
100
AcDbEntity
  8
1006777
  6
CONTINUOUS
 62
     7
100
AcDbCircle
 10
7.4118568009
 20
11.3586082392
 30
0.0
 40
0.1100344615197604
  0
CIRCLE
  5
98
330
80
100
AcDbEntity
  8
1006777
  6
CONTINUOUS
 62
     7
100
AcDbCircle
 10
7.4118568009
 20
15.3273100521
 30
0.0
 40
0.105
  0
CIRCLE
  5
99
330
80
100
AcDbEntity
  8
1006777
  6
CONTINUOUS
 62
     7
100
AcDbCircle
 10
7.4118568009
 20
15.3273100521
 30
0.0
 40
0.1100344615197604
  0
ARC
  5
9A
330
80
100
AcDbEntity
  8
1006777
  6
CONTINUOUS
 62
     7
100
AcDbCircle
 10
6.0837568009
 20
13.3429591457
 30
0.0
 40
2.729193858327464
100
AcDbArc
 50
292.910851053
 51
310.8361313639
  0
ARC
  5
9B
330
80
100
AcDbEntity
  8
1006777
  6
CONTINUOUS
 62
     7
100
AcDbCircle
 10
7.9304591735
 20
11.2062668197
 30
0.0
 40
0.0949456123206627
100
AcDbArc
 50
105.8295767663
 51
130.8390527905
  0
ARC
  5
9C
330
80
100
AcDbEntity
  8
1006777
  6
CONTINUOUS
 62
     7
100
AcDbCircle
 10
7.6319541646
 20
12.258899681
 30
0.0
 40
0.9991938583274655
100
AcDbArc
 50
285.8324981929
 51
4.1675018071
  0
ARC
  5
9D
330
80
100
AcDbEntity
  8
1006777
  6
CONTINUOUS
 62
     7
100
AcDbCircle
 10
8.7232002227
 20
12.3384183689
 30
0.0
 40
0.0949456123208256
100
AcDbArc
 50
159.1609472095
 51
184.1704232337
  0
ARC
  5
9E
330
80
100
AcDbEntity
  8
1006777
  6
CONTINUOUS
 62
     7
100
AcDbCircle
 10
6.0837568009
 20
13.3429591457
 30
0.0
 40
2.729193858327464
100
AcDbArc
 50
339.1638686361
 51
67.089148947
  0
ARC
  5
9F
330
80
100
AcDbEntity
  8
1006777
  6
CONTINUOUS
 62
     7
100
AcDbCircle
 10
7.1345526623
 20
15.8292276427
 30
0.0
 40
0.0299999999999999
100
AcDbArc
 50
67.089148947
 51
180.0
  0
LINE
  5
A0
330
80
100
AcDbEntity
  8
1006777
  6
CONTINUOUS
 62
     7
100
AcDbLine
 10
7.1045526623
 20
15.8292276427
 30
0.0
 11
7.1045526623
 21
10.8566906486
 31
0.0
  0
ARC
  5
A1
330
80
100
AcDbEntity
  8
1006777
  6
CONTINUOUS
 62
     7
100
AcDbCircle
 10
7.1345526623
 20
10.8566906486
 30
0.0
 40
0.03
100
AcDbArc
 50
180.0
 51
270.0
  0
ARC
  5
A2
330
80
100
AcDbEntity
  8
1006777
  6
CONTINUOUS
 62
     7
100
AcDbCircle
 10
7.1345526623
 20
10.8566906486
 30
0.0
 40
0.03
100
AcDbArc
 50
270.0
 51
292.910851053
  0
CIRCLE
  5
A4
330
80
100
AcDbEntity
  8
54436X2
  6
CONTINUOUS
 62
     7
100
AcDbCircle
 10
7.9537568009
 20
13.3429591457
 30
0.0
 40
0.531
  0
LINE
  5
A5
330
80
100
AcDbEntity
  8
54436X2
  6
CONTINUOUS
 62
     7
100
AcDbLine
 10
8.3599587211
 20
13.3899591457
 30
0.0
 11
7.5475548806
 21
13.3899591457
 31
0.0
  0
LINE
  5
A6
330
80
100
AcDbEntity
  8
54436X2
  6
CONTINUOUS
 62
     7
100
AcDbLine
 10
8.3599587211
 20
13.2959591457
 30
0.0
 11
8.3599587211
 21
13.3899591457
 31
0.0
  0
LINE
  5
A7
330
80
100
AcDbEntity
  8
54436X2
  6
CONTINUOUS
 62
     7
100
AcDbLine
 10
7.5475548806
 20
13.2959591457
 30
0.0
 11
7.5475548806
 21
13.3899591457
 31
0.0
  0
LINE
  5
A8
330
80
100
AcDbEntity
  8
54436X2
  6
CONTINUOUS
 62
     7
100
AcDbLine
 10
8.3599587211
 20
13.2959591457
 30
0.0
 11
7.5475548806
 21
13.2959591457
 31
0.0
  0
CIRCLE
  5
A9
330
80
100
AcDbEntity
  8
1006778
  6
CONTINUOUS
 62
     7
100
AcDbCircle
 10
6.7556568009
 20
15.4658573076
 30
0.0
 40
0.105
  0
CIRCLE
  5
AA
330
80
100
AcDbEntity
  8
1006778
  6
CONTINUOUS
 62
     7
100
AcDbCircle
 10
6.7556568009
 20
15.4658573076
 30
0.0
 40
0.1100344615197604
  0
CIRCLE
  5
AB
330
80
100
AcDbEntity
  8
1006778
  6
CONTINUOUS
 62
     7
100
AcDbCircle
 10
6.7556568009
 20
11.2200609837
 30
0.0
 40
0.105
  0
CIRCLE
  5
AC
330
80
100
AcDbEntity
  8
1006778
  6
CONTINUOUS
 62
     7
100
AcDbCircle
 10
6.7556568009
 20
11.2200609837
 30
0.0
 40
0.1100344615197604
  0
CIRCLE
  5
AD
330
80
100
AcDbEntity
  8
1006778
  6
CONTINUOUS
 62
     7
100
AcDbCircle
 10
3.6787568009
 20
13.3429591457
 30
0.0
 40
0.105
  0
CIRCLE
  5
AE
330
80
100
AcDbEntity
  8
1006778
  6
CONTINUOUS
 62
     7
100
AcDbCircle
 10
3.6787568009
 20
13.3429591457
 30
0.0
 40
0.1100344615197604
  0
ARC
  5
AF
330
80
100
AcDbEntity
  8
1006778
  6
CONTINUOUS
 62
     7
100
AcDbCircle
 10
4.5355594372
 20
14.4270186104
 30
0.0
 40
0.9991938583274652
100
AcDbArc
 50
105.8324981929
 51
184.1675018071
  0
ARC
  5
B0
330
80
100
AcDbEntity
  8
1006778
  6
CONTINUOUS
 62
     7
100
AcDbCircle
 10
3.4443133791
 20
14.3474999225
 30
0.0
 40
0.0949456123208279
100
AcDbArc
 50
339.1609472095
 51
4.1704232337
  0
ARC
  5
B1
330
80
100
AcDbEntity
  8
1006778
  6
CONTINUOUS
 62
     7
100
AcDbCircle
 10
4.2370544282
 20
15.4796514716
 30
0.0
 40
0.0949456123206678
100
AcDbArc
 50
285.8295767663
 51
310.8390527905
  0
ARC
  5
B2
330
80
100
AcDbEntity
  8
1006778
  6
CONTINUOUS
 62
     7
100
AcDbCircle
 10
6.0837568009
 20
13.3429591457
 30
0.0
 40
2.729193858327465
100
AcDbArc
 50
69.4110726065
 51
130.8361313639
  0
ARC
  5
B3
330
80
100
AcDbEntity
  8
1006778
  6
CONTINUOUS
 62
     7
100
AcDbCircle
 10
5.1887568009
 20
13.3429591457
 30
0.0
 40
1.322499999999999
100
AcDbArc
 50
183.7139229545
 51
176.2860770455
  0
ARC
  5
B4
330
80
100
AcDbEntity
  8
1006778
  6
CONTINUOUS
 62
     7
100
AcDbCircle
 10
5.1887568009
 20
13.3429591457
 30
0.0
 40
1.322499999999714
100
AcDbArc
 50
176.2860770455
 51
183.7139229545
  0
LINE
  5
B5
330
80
100
AcDbEntity
  8
1006778
  6
CONTINUOUS
 62
     7
100
AcDbLine
 10
7.0629609395
 20
10.8161598887
 30
0.0
 11
7.0629609395
 21
15.8697584026
 31
0.0
  0
ARC
  5
B6
330
80
100
AcDbEntity
  8
1006778
  6
CONTINUOUS
 62
     7
100
AcDbCircle
 10
7.0329609395
 20
10.8161598887
 30
0.0
 40
0.0300000000000002
100
AcDbArc
 50
290.5889273935
 51
360.0
  0
ARC
  5
B7
330
80
100
AcDbEntity
  8
1006778
  6
CONTINUOUS
 62
     7
100
AcDbCircle
 10
7.0329609395
 20
15.8697584026
 30
0.0
 40
0.03
100
AcDbArc
 50
0.0
 51
69.4110726065
  0
ARC
  5
B8
330
80
100
AcDbEntity
  8
1006778
  6
CONTINUOUS
 62
     7
100
AcDbCircle
 10
6.0837568009
 20
13.3429591457
 30
0.0
 40
2.729204138578198
100
AcDbArc
 50
159.1638686361
 51
270.0
  0
ARC
  5
B9
330
80
100
AcDbEntity
  8
1006778
  6
CONTINUOUS
 62
     7
100
AcDbCircle
 10
6.0837568009
 20
13.3429591457
 30
0.0
 40
2.729204138578198
100
AcDbArc
 50
270.0
 51
290.5889273935
  0
LINE
  5
BB
330
80
100
AcDbEntity
  8
1_001_524
  6
CONTINUOUS
 62
     7
100
AcDbLine
 10
5.7882357413
 20
13.3899591457
 30
0.0
 11
5.7882357413
 21
13.2959591457
 31
0.0
  0
LINE
  5
BC
330
80
100
AcDbEntity
  8
1_001_524
  6
CONTINUOUS
 62
     7
100
AcDbLine
 10
5.7882357413
 20
13.3899591457
 30
0.0
 11
4.5892778605
 21
13.3899591457
 31
0.0
  0
LINE
  5
BD
330
80
100
AcDbEntity
  8
1_001_524
  6
CONTINUOUS
 62
     7
100
AcDbLine
 10
4.5892778605
 20
13.3899591457
 30
0.0
 11
4.5892778605
 21
13.2959591457
 31
0.0
  0
LINE
  5
BE
330
80
100
AcDbEntity
  8
1_001_524
  6
CONTINUOUS
 62
     7
100
AcDbLine
 10
5.7882357413
 20
13.2959591457
 30
0.0
 11
4.5892778605
 21
13.2959591457
 31
0.0
  0
CIRCLE
  5
BF
330
80
100
AcDbEntity
  8
1_001_524
  6
CONTINUOUS
 62
     7
100
AcDbCircle
 10
5.1887568009
 20
13.3429591457
 30
0.0
 40
0.8218000000000001
  0
CIRCLE
  5
C1
330
80
100
AcDbEntity
  8
1_002_845
  6
CONTINUOUS
 62
     7
100
AcDbCircle
 10
5.1887568009
 20
13.3429591457
 30
0.0
 40
0.8550000000000002
  0
ARC
  5
C2
330
80
100
AcDbEntity
  8
1_002_845
  6
CONTINUOUS
 62
     7
100
AcDbCircle
 10
5.1889267907
 20
13.3386424207
 30
0.0
 40
0.8368393797857615
100
AcDbArc
 50
288.0866722013
 51
306.4572570686
  0
ARC
  5
C3
330
80
100
AcDbEntity
  8
1_002_845
  6
CONTINUOUS
 62
     7
100
AcDbCircle
 10
5.2251951596
 20
13.3287333709
 30
0.0
 40
0.8076536857956784
100
AcDbArc
 50
271.3753986597
 51
304.8053453843
  0
SPLINE
  5
C4
330
80
100
AcDbEntity
  8
1_002_845
  6
CONTINUOUS
 62
     7
100
AcDbSpline
210
0.0
220
0.0
230
1.0
 70
     8
 71
     3
 72
    28
 73
    24
 74
     0
 42
0.0000000016458398
 43
0.0000000001
 40
0.0
 40
0.0
 40
0.0
 40
0.0
 40
0.0312500000000001
 40
0.0312500000000001
 40
0.0625000000000001
 40
0.0625000000000001
 40
0.0937500000000002
 40
0.0937500000000002
 40
0.1250000000000002
 40
0.1250000000000002
 40
0.1562500000000003
 40
0.1562500000000003
 40
0.1875000000000004
 40
0.1875000000000004
 40
0.2187500000000004
 40
0.2187500000000004
 40
0.2500000000000004
 40
0.2500000000000004
 40
0.2812500000000005
 40
0.2812500000000005
 40
0.3125000000000006
 40
0.3125000000000006
 40
0.3134051452088691
 40
0.3134051452088691
 40
0.3134051452088691
 40
0.3134051452088691
 10
5.448728026452067
 20
12.54315297041387
 30
0.0
 10
5.387936297266823
 20
12.52410651666372
 30
0.0
 10
5.325136677863286
 20
12.51214503172024
 30
0.0
 10
5.198862936781951
 20
12.50252096288691
 30
0.0
 10
5.136097566017432
 20
12.50478915990681
 30
0.0
 10
5.011302861707736
 20
12.52334917843526
 30
0.0
 10
4.94933474738815
 20
12.53987542275738
 30
0.0
 10
4.832481919791492
 20
12.58583748106487
 30
0.0
 10
4.776267958970734
 20
12.61574781593011
 30
0.0
 10
4.671941105026732
 20
12.68765064459518
 30
0.0
 10
4.624545873853105
 20
12.728948379142
 30
0.0
 10
4.539187101296443
 20
12.82211977309318
 30
0.0
 10
4.501576232350247
 20
12.87392464628307
 30
0.0
 10
4.439822958415241
 20
12.98338739017605
 30
0.0
 10
4.414979430076848
 20
13.04241976424371
 30
0.0
 10
4.379756059545659
 20
13.16374118598679
 30
0.0
 10
4.369208981302062
 20
13.22567769427819
 30
0.0
 10
4.36224494988995
 20
13.35210359920574
 30
0.0
 10
4.366044692390949
 20
13.41576721111342
 30
0.0
 10
4.387787473540643
 20
13.53949386385295
 30
0.0
 10
4.40611121589179
 20
13.60100252723139
 30
0.0
 10
4.431798424090585
 20
13.6606216095424
 30
0.0
 10
4.43252682803565
 20
13.6622969436619
 30
0.0
 10
4.43326055959222
 20
13.66396937529655
 30
0.0
  0
ARC
  5
C5
330
80
100
AcDbEntity
  8
1_002_845
  6
CONTINUOUS
 62
     7
100
AcDbCircle
 10
5.1887568009
 20
13.3429591457
 30
0.0
 40
1.167
100
AcDbArc
 50
357.7901032935
 51
2.2098967065
  0
LINE
  5
C6
330
80
100
AcDbEntity
  8
1_002_845
  6
CONTINUOUS
 62
     7
100
AcDbLine
 10
6.3849106371
 20
13.3879591457
 30
0.0
 11
6.1262568009
 21
13.3879591457
 31
0.0
  0
LINE
  5
C7
330
80
100
AcDbEntity
  8
1_002_845
  6
CONTINUOUS
 62
     7
100
AcDbLine
 10
6.3849106371
 20
13.2979591457
 30
0.0
 11
6.1262568009
 21
13.2979591457
 31
0.0
  0
LINE
  5
C8
330
80
100
AcDbEntity
  8
1_002_845
  6
CONTINUOUS
 62
     7
100
AcDbLine
 10
6.1262568009
 20
13.2979591457
 30
0.0
 11
6.1262568009
 21
13.3879591457
 31
0.0
  0
ARC
  5
C9
330
80
100
AcDbEntity
  8
1_002_845
  6
CONTINUOUS
 62
     7
100
AcDbCircle
 10
5.1887568009
 20
13.3429591457
 30
0.0
 40
1.167
100
AcDbArc
 50
177.7901032935
 51
182.2098967065
  0
LINE
  5
CA
330
80
100
AcDbEntity
  8
1_002_845
  6
CONTINUOUS
 62
     7
100
AcDbLine
 10
3.9926029646
 20
13.2979591457
 30
0.0
 11
4.2512568009
 21
13.2979591457
 31
0.0
  0
LINE
  5
CB
330
80
100
AcDbEntity
  8
1_002_845
  6
CONTINUOUS
 62
     7
100
AcDbLine
 10
3.9926029646
 20
13.3879591457
 30
0.0
 11
4.2512568009
 21
13.3879591457
 31
0.0
  0
LINE
  5
CC
330
80
100
AcDbEntity
  8
1_002_845
  6
CONTINUOUS
 62
     7
100
AcDbLine
 10
4.2512568009
 20
13.2979591457
 30
0.0
 11
4.2512568009
 21
13.3879591457
 31
0.0
  0
ARC
  5
CD
330
80
100
AcDbEntity
  8
1_002_845
  6
CONTINUOUS
 62
     7
100
AcDbCircle
 10
5.1887568009
 20
13.3429591457
 30
0.0
 40
1.197
100
AcDbArc
 50
2.1544843684
 51
177.8455156316
  0
ARC
  5
CE
330
80
100
AcDbEntity
  8
1_002_845
  6
CONTINUOUS
 62
     7
100
AcDbCircle
 10
5.1887568009
 20
13.3429591457
 30
0.0
 40
1.197
100
AcDbArc
 50
182.1544843684
 51
357.8455156316
  0
CIRCLE
  5
D0
330
80
100
AcDbEntity
  8
1006795
  6
CONTINUOUS
 62
     7
100
AcDbCircle
 10
6.7556568009
 20
11.2200609837
 30
0.0
 40
0.0825
  0
CIRCLE
  5
D1
330
80
100
AcDbEntity
  8
1006795
  6
CONTINUOUS
 62
     7
100
AcDbCircle
 10
7.4118568009
 20
11.3586082392
 30
0.0
 40
0.0825
  0
CIRCLE
  5
D2
330
80
100
AcDbEntity
  8
1006795
  6
CONTINUOUS
 62
     7
100
AcDbCircle
 10
7.4118568009
 20
15.3273100521
 30
0.0
 40
0.0825
  0
CIRCLE
  5
D3
330
80
100
AcDbEntity
  8
1006795
  6
CONTINUOUS
 62
     7
100
AcDbCircle
 10
6.7556568009
 20
15.4658573076
 30
0.0
 40
0.0825
  0
CIRCLE
  5
D4
330
80
100
AcDbEntity
  8
1006795
  6
CONTINUOUS
 62
     7
100
AcDbCircle
 10
3.6787568009
 20
13.3429591457
 30
0.0
 40
0.0825
  0
ARC
  5
D5
330
80
100
AcDbEntity
  8
1006795
  6
CONTINUOUS
 62
     7
100
AcDbCircle
 10
6.0837568009
 20
13.3429591457
 30
0.0
 40
2.700000000000001
100
AcDbArc
 50
291.2641499859
 51
292.2743582512
  0
ARC
  5
D6
330
80
100
AcDbEntity
  8
1006795
  6
CONTINUOUS
 62
     7
100
AcDbCircle
 10
3.1383169175
 20
14.3095944925
 30
0.0
 40
0.4000000000000009
100
AcDbArc
 50
0.5257558365
 51
4.5702590429
  0
ARC
  5
D7
330
80
100
AcDbEntity
  8
1006795
  6
CONTINUOUS
 62
     7
100
AcDbCircle
 10
4.5429101338
 20
14.4218715972
 30
0.0
 40
1.009073543609229
100
AcDbArc
 50
105.4297409571
 51
109.0773131188
  0
ARC
  5
D8
330
80
100
AcDbEntity
  8
1006795
  6
CONTINUOUS
 62
     7
100
AcDbCircle
 10
4.5429101338
 20
14.4218715972
 30
0.0
 40
1.009073543609229
100
AcDbArc
 50
132.3452527198
 51
133.7158849323
  0
ARC
  5
D9
330
80
100
AcDbEntity
  8
1006795
  6
CONTINUOUS
 62
     7
100
AcDbCircle
 10
4.1680169275
 20
15.7801585092
 30
0.0
 40
0.4
100
AcDbArc
 50
285.4297409571
 51
287.0718474247
  0
ARC
  5
DA
330
80
100
AcDbEntity
  8
1006795
  6
CONTINUOUS
 62
     7
100
AcDbCircle
 10
3.8801108817
 20
15.115066529
 30
0.0
 40
0.0499999999999999
100
AcDbArc
 50
133.7158849323
 51
145.8549519472
  0
ARC
  5
DB
330
80
100
AcDbEntity
  8
1006795
  6
CONTINUOUS
 62
     7
100
AcDbCircle
 10
4.5429101338
 20
14.4218715972
 30
0.0
 40
1.009073543609229
100
AcDbArc
 50
156.2841150677
 51
160.9285111797
  0
ARC
  5
DC
330
80
100
AcDbEntity
  8
1006795
  6
CONTINUOUS
 62
     7
100
AcDbCircle
 10
4.5429101338
 20
14.4218715972
 30
0.0
 40
1.009073543609229
100
AcDbArc
 50
174.2724323955
 51
184.5702590429
  0
ARC
  5
DD
330
80
100
AcDbEntity
  8
1006795
  6
CONTINUOUS
 62
     7
100
AcDbCircle
 10
3.6648292764
 20
14.8076125335
 30
0.0
 40
0.0500000000000002
100
AcDbArc
 50
144.1450480528
 51
156.2841150677
  0
ARC
  5
DE
330
80
100
AcDbEntity
  8
1006795
  6
CONTINUOUS
 62
     7
100
AcDbCircle
 10
7.624603468
 20
12.2640466941
 30
0.0
 40
1.009073543609229
100
AcDbArc
 50
285.4297409571
 51
289.0773131188
  0
ARC
  5
DF
330
80
100
AcDbEntity
  8
1006795
  6
CONTINUOUS
 62
     7
100
AcDbCircle
 10
7.624603468
 20
12.2640466941
 30
0.0
 40
1.009073543609229
100
AcDbArc
 50
312.3452527198
 51
313.7158849323
  0
ARC
  5
E0
330
80
100
AcDbEntity
  8
1006795
  6
CONTINUOUS
 62
     7
100
AcDbCircle
 10
7.9994966743
 20
10.9057597822
 30
0.0
 40
0.3999999999999996
100
AcDbArc
 50
105.4297409571
 51
107.0718474247
  0
ARC
  5
E1
330
80
100
AcDbEntity
  8
1006795
  6
CONTINUOUS
 62
     7
100
AcDbCircle
 10
6.0837568009
 20
13.3429591457
 30
0.0
 40
2.7
100
AcDbArc
 50
67.7256417488
 51
68.7358500141
  0
ARC
  5
E2
330
80
100
AcDbEntity
  8
1006795
  6
CONTINUOUS
 62
     7
100
AcDbCircle
 10
9.0291966842
 20
12.3763237989
 30
0.0
 40
0.4000000000000003
100
AcDbArc
 50
180.5257558365
 51
184.5702590429
  0
ARC
  5
E3
330
80
100
AcDbEntity
  8
1006795
  6
CONTINUOUS
 62
     7
100
AcDbCircle
 10
7.624603468
 20
12.2640466941
 30
0.0
 40
1.009073543609229
100
AcDbArc
 50
336.2841150677
 51
340.9285111796
  0
ARC
  5
E4
330
80
100
AcDbEntity
  8
1006795
  6
CONTINUOUS
 62
     7
100
AcDbCircle
 10
7.624603468
 20
12.2640466941
 30
0.0
 40
1.009073543609229
100
AcDbArc
 50
354.2724323955
 51
4.5702590429
  0
ARC
  5
E5
330
80
100
AcDbEntity
  8
1006795
  6
CONTINUOUS
 62
     7
100
AcDbCircle
 10
8.5026843254
 20
11.8783057578
 30
0.0
 40
0.0500000000000002
100
AcDbArc
 50
324.1450480531
 51
336.2841150677
  0
ARC
  5
E6
330
80
100
AcDbEntity
  8
1006795
  6
CONTINUOUS
 62
     7
100
AcDbCircle
 10
8.2874027201
 20
11.5708517623
 30
0.0
 40
0.0499999999999999
100
AcDbArc
 50
313.7158849323
 51
325.8549519469
  0
ENDBLK
  5
E8
330
80
100
AcDbEntity
  8
0
100
AcDbBlockEnd
  0
BLOCK
  5
1EA
330
E9
100
AcDbEntity
  8
0
100
AcDbBlockBegin
  2
SE2
 70
     0
 71
     0
 10
0.0
 20
0.0
 30
0.0
  3
SE2
  1

  0
ELLIPSE
  5
EB
330
E9
100
AcDbEntity
  8
1006761
  6
CONTINUOUS
 62
     7
100
AcDbEllipse
 10
24.6166470342
 20
12.4459768577
 30
0.0
 11
2.967148461583326
 21
-3.364261463811937E-14
 31
0.0
210
0.0
220
0.0
230
1.0
 40
0.5773502692
 41
5.347886980845196
 42
5.691972612351359
  0
ARC
  5
EC
330
E9
100
AcDbEntity
  8
1006761
  6
CONTINUOUS
 62
     7
100
AcDbCircle
 10
25.8822849309
 20
12.120964465
 30
0.0
 40
1.16437413661444
100
AcDbArc
 50
288.8327197255
 51
295.1908012361
  0
ELLIPSE
  5
ED
330
E9
100
AcDbEntity
  8
1006761
  6
CONTINUOUS
 62
     7
100
AcDbEllipse
 10
26.3482213336
 20
11.0919701673
 30
0.0
 11
-0.01958959940111002
 21
0.04600269117458228
 31
0.0
210
0.0
220
0.0
230
0.9999999999999999
 40
0.4846547071
 41
3.133214194513214
 42
3.956595761809986
  0
ELLIPSE
  5
EE
330
E9
100
AcDbEntity
  8
1006761
  6
CONTINUOUS
 62
     7
100
AcDbEllipse
 10
26.230507697
 20
11.0443826628
 30
0.0
 11
-0.01790056105321677
 21
0.04668586417728637
 31
0.0
210
0.0
220
0.0
230
0.9999999999999999
 40
0.4517075398
 41
3.142098951993485
 42
3.973664355215553
  0
ELLIPSE
  5
EF
330
E9
100
AcDbEntity
  8
1006761
  6
CONTINUOUS
 62
     7
100
AcDbEllipse
 10
24.6166470342
 20
12.4459768577
 30
0.0
 11
-2.967148461584361
 21
-1.953457127405855E-13
 31
0.0
210
0.0
220
0.0
230
1.0
 40
0.5773502692
 41
1.333629701258212
 42
1.613717520155939
  0
ARC
  5
F0
330
E9
100
AcDbEntity
  8
1006761
  6
CONTINUOUS
 62
     7
100
AcDbCircle
 10
24.0627004009
 20
12.1736296313
 30
0.0
 40
1.400123921968398
100
AcDbArc
 50
258.2816512514
 51
264.1303949746
  0
ELLIPSE
  5
F1
330
E9
100
AcDbEntity
  8
1006761
  6
CONTINUOUS
 62
     7
100
AcDbEllipse
 10
24.6166470342
 20
12.4459768577
 30
0.0
 11
-2.967148461583263
 21
-4.597681492565748E-15
 31
0.0
210
0.0
220
0.0
230
1.0
 40
0.5773502692
 41
0.6354980004604867
 42
1.284364176733273
  0
ARC
  5
F2
330
E9
100
AcDbEntity
  8
1006761
  6
CONTINUOUS
 62
     7
100
AcDbCircle
 10
22.744201319
 20
12.1396570102
 30
0.0
 40
0.8778016703974079
100
AcDbArc
 50
226.9445268918
 51
234.0414706325
  0
ELLIPSE
  5
F3
330
E9
100
AcDbEntity
  8
1006761
  6
CONTINUOUS
 62
     7
100
AcDbEllipse
 10
23.9312572712
 20
10.8103133828
 30
0.0
 11
0.006910761071952259
 21
0.04952011087837242
 31
0.0
210
0.0
220
0.0
230
1.0
 40
0.191835473
 41
2.234628502594094
 42
3.141410178503483
  0
ELLIPSE
  5
F4
330
E9
100
AcDbEntity
  8
1006761
  6
CONTINUOUS
 62
     7
100
AcDbEllipse
 10
23.7924519757
 20
10.8317866367
 30
0.0
 11
0.008382062074743839
 21
0.04929240342461623
 31
0.0
210
0.0
220
0.0
230
1.0
 40
0.230686038
 41
2.240922238881893
 42
3.141373048740525
  0
ELLIPSE
  5
F5
330
E9
100
AcDbEntity
  8
1006761
  6
CONTINUOUS
 62
     7
100
AcDbEllipse
 10
22.2689708857
 20
11.4476767359
 30
0.0
 11
0.03081945081592391
 21
0.0393720897515595
 31
0.0
210
0.0
220
0.0
230
1.0
 40
0.6570970108
 41
2.478163976594589
 42
3.142101680653244
  0
ELLIPSE
  5
F6
330
E9
100
AcDbEntity
  8
1006761
  6
CONTINUOUS
 62
     7
100
AcDbEllipse
 10
22.18654691
 20
11.5156387356
 30
0.0
 11
0.0328044335497741
 21
0.03773419058994749
 31
0.0
210
0.0
220
0.0
230
1.0
 40
0.6801668657
 41
2.512594666605832
 42
3.140823067880243
  0
ELLIPSE
  5
F7
330
E9
100
AcDbEntity
  8
1006761
  6
CONTINUOUS
 62
     7
100
AcDbEllipse
 10
24.7418173944
 20
10.7647187229
 30
0.0
 11
-0.001239408590903019
 21
0.04998463630301533
 31
0.0
210
0.0
220
0.0
230
1.0
 40
0.0350342485
 41
3.141689790989755
 42
4.061568269132014
  0
ELLIPSE
  5
F8
330
E9
100
AcDbEntity
  8
1006761
  6
CONTINUOUS
 62
     7
100
AcDbEllipse
 10
24.6166470342
 20
12.4459768577
 30
0.0
 11
2.96714846158654
 21
-1.896951175373011E-12
 31
0.0
210
0.0
220
0.0
230
1.0
 40
0.5773502692
 41
5.018533637423262
 42
5.298621456320835
  0
SPLINE
  5
F9
330
E9
100
AcDbEntity
  8
1006761
  6
CONTINUOUS
 62
     7
100
AcDbSpline
210
0.0
220
0.0
230
1.0
 70
     8
 71
     3
 72
     8
 73
     4
 74
     0
 42
0.0000000276997884
 43
0.0000000001
 40
0.3688793529186
 40
0.3688793529186
 40
0.3688793529186
 40
0.3688793529186
 40
1.0
 40
1.0
 40
1.0
 40
1.0
 10
25.48274650133627
 20
11.03864383251292
 30
0.0
 10
25.49214126715857
 20
10.96324165398859
 30
0.0
 10
25.50152598587054
 20
10.8878757888945
 30
0.0
 10
25.51090049732611
 20
10.8125468533912
 30
0.0
  0
SPLINE
  5
FA
330
E9
100
AcDbEntity
  8
1006761
  6
CONTINUOUS
 62
     7
100
AcDbSpline
210
0.0
220
0.0
230
1.0
 70
     8
 71
     3
 72
    11
 73
     7
 74
     0
 42
0.0000000268927738
 43
0.0000000001
 40
0.0
 40
0.0
 40
0.0
 40
0.0
 40
0.2156957451826696
 40
0.2156957451826696
 40
0.2156957451826696
 40
0.6769247754362762
 40
0.6769247754362762
 40
0.6769247754362762
 40
0.6769247754362762
 10
24.74396148829891
 20
10.73447059878114
 30
0.0
 10
24.74773318935416
 20
10.76092562691425
 30
0.0
 10
24.75150362715159
 20
10.78738496020548
 30
0.0
 10
24.75527280741478
 20
10.81384857349495
 30
0.0
 10
24.7633325625485
 20
10.87043653909302
 30
0.0
 10
24.77138656980354
 20
10.92704408556043
 30
0.0
 10
24.77943488327216
 20
10.98367097515419
 30
0.0
  0
ELLIPSE
  5
FB
330
E9
100
AcDbEntity
  8
1006761
  6
CONTINUOUS
 62
     7
100
AcDbEllipse
 10
23.4479476355
 20
24.1308747573
 30
0.0
 11
3.401545065927903
 21
-26.30568809290641
 31
0.0
210
0.0
220
0.0
230
0.9999999999999998
 40
0.0121143934
 41
1.039219761759711
 42
1.047931618303179
  0
ELLIPSE
  5
FC
330
E9
100
AcDbEntity
  8
1006761
  6
CONTINUOUS
 62
     7
100
AcDbEllipse
 10
25.4958404368
 20
10.8414801007
 30
0.0
 11
-0.008976253262248868
 21
0.04918766997299148
 31
0.0
210
0.0
220
0.0
230
1.0
 40
0.2460796635
 41
3.141592653589793
 42
4.039386267256972
  0
ELLIPSE
  5
FD
330
E9
100
AcDbEntity
  8
1006761
  6
CONTINUOUS
 62
     7
100
AcDbEllipse
 10
25.4958404368
 20
10.8414801007
 30
0.0
 11
0.04781955951731583
 21
0.0146044420492489
 31
0.0
210
0.0
220
0.0
230
1.0
 40
0.8040921632
 41
3.00550219466396
 42
3.141592653589793
  0
ELLIPSE
  5
FE
330
E9
100
AcDbEntity
  8
1006761
  6
CONTINUOUS
 62
     7
100
AcDbEllipse
 10
25.4958404368
 20
10.8414801007
 30
0.0
 11
-0.04963157205498184
 21
-0.006058634776178692
 31
0.0
210
0.0
220
0.0
230
1.0
 40
0.627554593
 41
0.1037820738190779
 42
1.801706259683572
  0
ELLIPSE
  5
FF
330
E9
100
AcDbEntity
  8
1006761
  6
CONTINUOUS
 62
     7
100
AcDbEllipse
 10
24.7418173944
 20
10.7647187229
 30
0.0
 11
-0.04951566471302708
 21
0.006942546220739969
 31
0.0
210
0.0
220
0.0
230
0.9999999999999998
 40
0.5979491761
 41
1.697601979475661
 42
3.141258278033102
  0
ARC
  5
100
330
E9
100
AcDbEntity
  8
1006761
  6
CONTINUOUS
 62
     7
100
AcDbCircle
 10
24.3590507491
 20
21.2524665081
 30
0.0
 40
10.30874349203209
100
AcDbArc
 50
274.5253829769
 51
275.4996419427
  0
ARC
  5
101
330
E9
100
AcDbEntity
  8
1006761
  6
CONTINUOUS
 62
     7
100
AcDbCircle
 10
25.7462600773
 20
4.2375187017
 30
0.0
 40
6.76273229884713
100
AcDbArc
 50
94.8676035351
 51
96.7580442907
  0
ELLIPSE
  5
102
330
E9
100
AcDbEntity
  8
1006761
  6
CONTINUOUS
 62
     7
100
AcDbEllipse
 10
25.348989917
 20
11.000587934
 30
0.0
 11
-0.001519184525333608
 21
0.01492287098309184
 31
0.0
210
0.0
220
0.0
230
0.9999999999999999
 40
0.1417831433
 41
3.157940202108433
 42
3.901156909626775
  0
ELLIPSE
  5
103
330
E9
100
AcDbEntity
  8
1006761
  6
CONTINUOUS
 62
     7
100
AcDbEllipse
 10
25.1698150914
 20
10.9848116784
 30
0.0
 11
-0.001284206192378419
 21
0.01494492604383163
 31
0.0
210
0.0
220
0.0
230
0.9999999999999998
 40
0.1536412695
 41
3.14117917488096
 42
4.057092111185002
  0
ELLIPSE
  5
104
330
E9
100
AcDbEntity
  8
1006761
  6
CONTINUOUS
 62
     7
100
AcDbEllipse
 10
24.9478400932
 20
10.9622140842
 30
0.0
 11
-0.001752981933346339
 21
0.01489721632860811
 31
0.0
210
0.0
220
0.0
230
1.0
 40
0.1298703028
 41
3.136905896314838
 42
4.052637930639857
  0
LINE
  5
105
330
E9
100
AcDbEntity
  8
1006761
  6
CONTINUOUS
 62
     7
100
AcDbLine
 10
25.3982925621
 20
10.9912846227
 30
0.0
 11
25.4468697932
 21
10.8322274136
 31
0.0
  0
ELLIPSE
  5
106
330
E9
100
AcDbEntity
  8
1006761
  6
CONTINUOUS
 62
     7
100
AcDbEllipse
 10
25.447326591
 20
11.0003297663
 30
0.0
 11
0.04815861323861365
 21
0.01346611045746729
 31
0.0
210
0.0
220
0.0
230
1.0
 40
0.7635894868
 41
3.023641862391268
 42
3.159732321315877
  0
ARC
  5
107
330
E9
100
AcDbEntity
  8
1006761
  6
CONTINUOUS
 62
     7
100
AcDbCircle
 10
25.3735217512
 20
11.2274320701
 30
0.0
 40
0.2385311609258224
100
AcDbArc
 50
264.7144749156
 51
274.1229898295
  0
LINE
  5
108
330
E9
100
AcDbEntity
  8
1006761
  6
CONTINUOUS
 62
     7
100
AcDbLine
 10
25.3515484921
 20
10.9899151431
 30
0.0
 11
25.347035901
 21
10.9911762518
 31
0.0
  0
LINE
  5
109
330
E9
100
AcDbEntity
  8
1006761
  6
CONTINUOUS
 62
     7
100
AcDbLine
 10
25.3406447986
 20
11.0118683345
 30
0.0
 11
25.3394755072
 21
11.0213013327
 31
0.0
  0
ELLIPSE
  5
10A
330
E9
100
AcDbEntity
  8
1006761
  6
CONTINUOUS
 62
     7
100
AcDbEllipse
 10
25.4386494712
 20
11.0301661652
 30
0.0
 11
0.09600940599046123
 21
0.02797909720020082
 31
0.0
210
0.0
220
0.0
230
1.0
 40
0.7838807991
 41
3.015569855921256
 42
3.292707675808786
  0
LINE
  5
10B
330
E9
100
AcDbEntity
  8
1006761
  6
CONTINUOUS
 62
     7
100
AcDbLine
 10
25.3938496874
 20
11.0271265249
 30
0.0
 11
25.3982925621
 21
10.9912846227
 31
0.0
  0
ELLIPSE
  5
10C
330
E9
100
AcDbEntity
  8
1006761
  6
CONTINUOUS
 62
     7
100
AcDbEllipse
 10
25.3493219184
 20
10.9820319356
 30
0.0
 11
0.04962023400516129
 21
0.006150802977906616
 31
0.0
210
0.0
220
0.0
230
1.0
 40
0.616561836
 41
0.102626693206411
 42
1.669775021151276
  0
ELLIPSE
  5
10D
330
E9
100
AcDbEntity
  8
1006761
  6
CONTINUOUS
 62
     7
100
AcDbEllipse
 10
25.3557130208
 20
10.9613398529
 30
0.0
 11
-0.04445465185761335
 21
-0.02288632622808442
 31
0.0
210
0.0
220
0.0
230
1.0
 40
0.614335399
 41
3.172703112552863
 42
4.593264550773434
  0
ELLIPSE
  5
10E
330
E9
100
AcDbEntity
  8
1006761
  6
CONTINUOUS
 62
     7
100
AcDbEllipse
 10
25.3600770759
 20
10.9543391732
 30
0.0
 11
-0.03990970565711811
 21
-0.03012001650667324
 31
0.0
210
0.0
220
0.0
230
0.9999999999999998
 40
0.7013498063
 41
3.162078557306761
 42
4.415579997495485
  0
ARC
  5
10F
330
E9
100
AcDbEntity
  8
1006761
  6
CONTINUOUS
 62
     7
100
AcDbCircle
 10
23.6661137523
 20
21.2716415981
 30
0.0
 40
10.39800152453237
100
AcDbArc
 50
276.3518879396
 51
277.0951198126
  0
ELLIPSE
  5
110
330
E9
100
AcDbEntity
  8
1006761
  6
CONTINUOUS
 62
     7
100
AcDbEllipse
 10
24.6166470342
 20
13.2839537862
 30
0.0
 11
-3.875000000000002
 21
1.438587417309359E-15
 31
0.0
210
0.0
220
0.0
230
1.0
 40
0.5773502692
 41
5.819664738844728
 42
6.283185307179586
  0
ELLIPSE
  5
111
330
E9
100
AcDbEntity
  8
1006761
  6
CONTINUOUS
 62
     7
100
AcDbEllipse
 10
24.6166470342
 20
13.2839537862
 30
0.0
 11
-3.875000000000002
 21
1.438587417309359E-15
 31
0.0
210
0.0
220
0.0
230
1.0
 40
0.5773502692
 41
2.672095748187595
 42
3.595360531509701
  0
ELLIPSE
  5
112
330
E9
100
AcDbEntity
  8
1006761
  6
CONTINUOUS
 62
     7
100
AcDbEllipse
 10
24.6166470342
 20
13.2839537862
 30
0.0
 11
-3.875000000000002
 21
1.438587417309359E-15
 31
0.0
210
0.0
220
0.0
230
1.0
 40
0.5773502692
 41
0.4704458405591523
 42
2.672095748187595
  0
ELLIPSE
  5
113
330
E9
100
AcDbEntity
  8
1006761
  6
CONTINUOUS
 62
     7
100
AcDbEllipse
 10
24.6166470342
 20
13.2839537862
 30
0.0
 11
-3.875000000000002
 21
1.438587417309359E-15
 31
0.0
210
0.0
220
0.0
230
1.0
 40
0.5773502692
 41
0.0000000000000006
 42
0.4704458405591523
  0
ELLIPSE
  5
114
330
E9
100
AcDbEntity
  8
1006761
  6
CONTINUOUS
 62
     7
100
AcDbEllipse
 10
24.6166470342
 20
13.293657114
 30
0.0
 11
3.864663774134415
 21
-1.301995017626146E-15
 31
0.0
210
0.0
220
0.0
230
1.0
 40
0.5773502692
 41
0.0
 42
1.005606226979269
  0
ELLIPSE
  5
115
330
E9
100
AcDbEntity
  8
1006761
  6
CONTINUOUS
 62
     7
100
AcDbEllipse
 10
24.6166470342
 20
13.293657114
 30
0.0
 11
3.864663774134415
 21
-1.301995017626146E-15
 31
0.0
210
0.0
220
0.0
230
1.0
 40
0.5773502692
 41
1.005606226979269
 42
2.23745448881965
  0
ELLIPSE
  5
116
330
E9
100
AcDbEntity
  8
1006761
  6
CONTINUOUS
 62
     7
100
AcDbEllipse
 10
24.6166470342
 20
13.293657114
 30
0.0
 11
3.864663774134415
 21
-1.301995017626146E-15
 31
0.0
210
0.0
220
0.0
230
1.0
 40
0.5773502692
 41
2.23745448881965
 42
4.246693232445491
  0
ELLIPSE
  5
117
330
E9
100
AcDbEntity
  8
1006761
  6
CONTINUOUS
 62
     7
100
AcDbEllipse
 10
24.6166470342
 20
13.293657114
 30
0.0
 11
3.864663774134415
 21
-1.301995017626146E-15
 31
0.0
210
0.0
220
0.0
230
1.0
 40
0.5773502692
 41
4.246693232445491
 42
5.149528953963824
  0
ELLIPSE
  5
118
330
E9
100
AcDbEntity
  8
1006761
  6
CONTINUOUS
 62
     7
100
AcDbEllipse
 10
24.6166470342
 20
13.293657114
 30
0.0
 11
3.864663774134415
 21
-1.301995017626146E-15
 31
0.0
210
0.0
220
0.0
230
1.0
 40
0.5773502692
 41
5.149528953963824
 42
6.283185307179585
  0
ELLIPSE
  5
119
330
E9
100
AcDbEntity
  8
1006761
  6
CONTINUOUS
 62
     7
100
AcDbEllipse
 10
24.6166470342
 20
13.2238898721
 30
0.0
 11
3.875000000000002
 21
-2.603990035252293E-15
 31
0.0
210
0.0
220
0.0
230
1.0
 40
0.5773502692
 41
3.141592653589793
 42
3.612281889885685
  0
ELLIPSE
  5
11A
330
E9
100
AcDbEntity
  8
1006761
  6
CONTINUOUS
 62
     7
100
AcDbEllipse
 10
24.6166470342
 20
13.2238898721
 30
0.0
 11
3.875000000000002
 21
-2.603990035252293E-15
 31
0.0
210
0.0
220
0.0
230
1.0
 40
0.5773502692
 41
3.612281889885685
 42
5.814954547941937
  0
ELLIPSE
  5
11B
330
E9
100
AcDbEntity
  8
1006761
  6
CONTINUOUS
 62
     7
100
AcDbEllipse
 10
24.6166470342
 20
13.2238898721
 30
0.0
 11
3.875000000000002
 21
-2.603990035252293E-15
 31
0.0
210
0.0
220
0.0
230
1.0
 40
0.5773502692
 41
5.814954547941937
 42
6.283185307179586
  0
ELLIPSE
  5
11C
330
E9
100
AcDbEntity
  8
1006761
  6
CONTINUOUS
 62
     7
100
AcDbEllipse
 10
24.6166470342
 20
13.3496303456
 30
0.0
 11
3.340169839610187
 21
1.365923996832132E-16
 31
0.0
210
0.0
220
0.0
230
1.0
 40
0.5773502692
 41
0.0
 42
6.283185307179586
  0
ELLIPSE
  5
11D
330
E9
100
AcDbEntity
  8
1006761
  6
CONTINUOUS
 62
     7
100
AcDbEllipse
 10
24.6166470342
 20
13.3456873802
 30
0.0
 11
-3.409493761877393
 21
1.365923996832132E-16
 31
0.0
210
0.0
220
0.0
230
1.0
 40
0.5773502692
 41
0.0
 42
6.283185307179586
  0
ELLIPSE
  5
11E
330
E9
100
AcDbEntity
  8
1006761
  6
CONTINUOUS
 62
     7
100
AcDbEllipse
 10
24.94675222
 20
12.2687616261
 30
0.0
 11
1.041192932566323
 21
1.097106418101327E-15
 31
0.0
210
0.0
220
0.0
230
1.0
 40
0.5773502692
 41
4.210153213205443
 42
5.563690597962797
  0
ARC
  5
11F
330
E9
100
AcDbEntity
  8
1006761
  6
CONTINUOUS
 62
     7
100
AcDbCircle
 10
25.8036125171
 20
11.7566843625
 30
0.0
 40
0.1373922908559845
100
AcDbArc
 50
104.0362908191
 51
122.4593919795
  0
ARC
  5
120
330
E9
100
AcDbEntity
  8
1006761
  6
CONTINUOUS
 62
     7
100
AcDbCircle
 10
24.3894347219
 20
11.5608991539
 30
0.0
 40
0.1894609042091821
100
AcDbArc
 50
72.7758576864
 51
87.6291925463
  0
ELLIPSE
  5
121
330
E9
100
AcDbEntity
  8
1006761
  6
CONTINUOUS
 62
     7
100
AcDbEllipse
 10
24.6166470342
 20
13.3496303456
 30
0.0
 11
-2.778970663244219
 21
-3.905985052878439E-15
 31
0.0
210
0.0
220
0.0
230
1.0
 40
0.5773502692
 41
1.998885482997953
 42
4.633365674580498
  0
ELLIPSE
  5
122
330
E9
100
AcDbEntity
  8
1006761
  6
CONTINUOUS
 62
     7
100
AcDbEllipse
 10
24.6166470342
 20
13.3496303456
 30
0.0
 11
2.778970663244212
 21
-2.467397635569079E-15
 31
0.0
210
0.0
220
0.0
230
1.0
 40
0.5773502692
 41
1.998885482997953
 42
4.6333656745805
  0
ARC
  5
123
330
E9
100
AcDbEntity
  8
1006761
  6
CONTINUOUS
 62
     7
100
AcDbCircle
 10
24.8438593465
 20
15.1383615373
 30
0.0
 40
0.1894609042091675
100
AcDbArc
 50
252.7758576864
 51
267.6291925463
  0
ARC
  5
124
330
E9
100
AcDbEntity
  8
1006761
  6
CONTINUOUS
 62
     7
100
AcDbCircle
 10
23.4296815514
 20
14.9425763287
 30
0.0
 40
0.1373922908559886
100
AcDbArc
 50
284.0362908191
 51
302.4593919795
  0
ELLIPSE
  5
125
330
E9
100
AcDbEntity
  8
1006761
  6
CONTINUOUS
 62
     7
100
AcDbEllipse
 10
24.2865418485
 20
14.4304990651
 30
0.0
 11
-1.041192932566324
 21
-9.263659184973102E-16
 31
0.0
210
0.0
220
0.0
230
1.0
 40
0.5773502692
 41
4.210153213205448
 42
5.563690597962802
  0
LINE
  5
126
330
E9
100
AcDbEntity
  8
1006761
  6
CONTINUOUS
 62
     7
100
AcDbLine
 10
23.5259706498
 20
14.791601174
 30
0.0
 11
23.5261088556
 21
14.7863647244
 31
0.0
  0
ELLIPSE
  5
127
330
E9
100
AcDbEntity
  8
1006761
  6
CONTINUOUS
 62
     7
100
AcDbEllipse
 10
24.2865418485
 20
14.4068590273
 30
0.0
 11
1.011211207755752
 21
1.233698817784540E-15
 31
0.0
210
0.0
220
0.0
230
1.0
 40
0.5773502692
 41
1.06856055961565
 42
1.083155614373097
  0
ELLIPSE
  5
128
330
E9
100
AcDbEntity
  8
1006761
  6
CONTINUOUS
 62
     7
100
AcDbEllipse
 10
24.2865418485
 20
14.4068590273
 30
0.0
 11
1.011211207755752
 21
1.233698817784540E-15
 31
0.0
210
0.0
220
0.0
230
1.0
 40
0.5773502692
 41
1.987736794226772
 42
2.422097944373013
  0
ARC
  5
129
330
E9
100
AcDbEntity
  8
1006761
  6
CONTINUOUS
 62
     7
100
AcDbCircle
 10
23.4332611827
 20
14.9377588686
 30
0.0
 40
0.1730812439002101
100
AcDbArc
 50
288.4845193395
 51
302.3874150713
  0
ARC
  5
12A
330
E9
100
AcDbEntity
  8
1006761
  6
CONTINUOUS
 62
     7
100
AcDbCircle
 10
24.8438646172
 20
15.147180283
 30
0.0
 40
0.2392314007081549
100
AcDbArc
 50
252.8509411949
 51
254.6522476205
  0
ELLIPSE
  5
12B
330
E9
100
AcDbEntity
  8
1006761
  6
CONTINUOUS
 62
     7
100
AcDbEllipse
 10
24.6166470342
 20
13.3259903078
 30
0.0
 11
2.748988938433636
 21
9.933519521482303E-15
 31
0.0
210
0.0
220
0.0
230
1.0
 40
0.5773502692
 41
2.166130238027979
 42
3.028469863957513
  0
ELLIPSE
  5
12C
330
E9
100
AcDbEntity
  8
1006761
  6
CONTINUOUS
 62
     7
100
AcDbEllipse
 10
24.6166470342
 20
13.3259903078
 30
0.0
 11
2.748988938433636
 21
9.933519521482303E-15
 31
0.0
210
0.0
220
0.0
230
1.0
 40
0.5773502692
 41
3.028469863957513
 42
3.304094768413013
  0
ELLIPSE
  5
12D
330
E9
100
AcDbEntity
  8
1006761
  6
CONTINUOUS
 62
     7
100
AcDbEllipse
 10
24.6166470342
 20
13.3259903078
 30
0.0
 11
-2.748988938433649
 21
-3.769392653195226E-15
 31
0.0
210
0.0
220
0.0
230
1.0
 40
0.5773502692
 41
2.961168234945019
 42
3.270355073226166
  0
ELLIPSE
  5
12E
330
E9
100
AcDbEntity
  8
1006761
  6
CONTINUOUS
 62
     7
100
AcDbEllipse
 10
24.6166470342
 20
13.3259903078
 30
0.0
 11
-2.748988938433649
 21
-3.769392653195226E-15
 31
0.0
210
0.0
220
0.0
230
1.0
 40
0.5773502692
 41
3.270355073226166
 42
4.089061846453498
  0
ELLIPSE
  5
12F
330
E9
100
AcDbEntity
  8
1006761
  6
CONTINUOUS
 62
     7
100
AcDbEllipse
 10
24.4455360931
 20
11.7173685358
 30
0.0
 11
-0.009067649277421418
 21
-0.02859681339907804
 31
0.0
210
0.0
220
0.0
230
1.0
 40
0.3930503571
 41
3.140732628821731
 42
3.820424557370139
  0
ELLIPSE
  5
130
330
E9
100
AcDbEntity
  8
1006761
  6
CONTINUOUS
 62
     7
100
AcDbEllipse
 10
25.7298738376
 20
11.8481172389
 30
0.0
 11
0.01650684439988055
 21
-0.02505043089366369
 31
0.0
210
0.0
220
0.0
230
1.0
 40
0.6141187701
 41
2.320998087915808
 42
3.140800943786459
  0
ELLIPSE
  5
131
330
E9
100
AcDbEntity
  8
1006761
  6
CONTINUOUS
 62
     7
100
AcDbEllipse
 10
24.3972720733
 20
11.7257029891
 30
0.0
 11
-0.001370148788682732
 21
-0.02996869520511125
 31
0.0
210
0.0
220
0.0
230
1.0
 40
0.0644551265
 41
3.140819855555101
 42
3.758546548275948
  0
ELLIPSE
  5
132
330
E9
100
AcDbEntity
  8
1006761
  6
CONTINUOUS
 62
     7
100
AcDbEllipse
 10
25.7702898818
 20
11.8654795381
 30
0.0
 11
0.007642747410333321
 21
-0.02901014326096626
 31
0.0
210
0.0
220
0.0
230
1.0
 40
0.3389547983
 41
2.480881632492909
 42
3.132339572795608
  0
ELLIPSE
  5
133
330
E9
100
AcDbEntity
  8
1006761
  6
CONTINUOUS
 62
     7
100
AcDbEllipse
 10
23.4630041867
 20
14.7847913582
 30
0.0
 11
-0.007642747410333947
 21
0.02901014326096657
 31
0.0
210
0.0
220
0.0
230
1.0
 40
0.3389547983
 41
4.08658454432749
 42
5.622474286082583
  0
ELLIPSE
  5
134
330
E9
100
AcDbEntity
  8
1006761
  6
CONTINUOUS
 62
     7
100
AcDbEllipse
 10
24.8360219952
 20
14.9245679073
 30
0.0
 11
-0.001370148788682925
 21
-0.02996869520511114
 31
0.0
210
0.0
220
0.0
230
0.9999999999999998
 40
0.0644551265
 41
3.758546548275841
 42
5.29443629003087
  0
ELLIPSE
  5
135
330
E9
100
AcDbEntity
  8
1006761
  6
CONTINUOUS
 62
     7
100
AcDbEllipse
 10
23.5034202309
 20
14.8021536575
 30
0.0
 11
-0.01650684439988019
 21
0.02505043089366189
 31
0.0
210
0.0
220
0.0
230
0.9999999999999998
 40
0.6141187701
 41
3.926700999750689
 42
5.46259074150564
  0
ELLIPSE
  5
136
330
E9
100
AcDbEntity
  8
1006761
  6
CONTINUOUS
 62
     7
100
AcDbEllipse
 10
24.7877579754
 20
14.9329023605
 30
0.0
 11
-0.009067649277419824
 21
-0.02859681339907706
 31
0.0
210
0.0
220
0.0
230
0.9999999999999999
 40
0.3930503571
 41
3.820424557370064
 42
5.356314299125069
  0
ELLIPSE
  5
137
330
E9
100
AcDbEntity
  8
1006761
  6
CONTINUOUS
 62
     7
100
AcDbEllipse
 10
24.6166470342
 20
13.0874965801
 30
0.0
 11
2.738788792244253
 21
2.877174834618719E-15
 31
0.0
210
0.0
220
0.0
230
1.0
 40
0.5773502692
 41
3.047779070227023
 42
3.090896142967092
  0
ELLIPSE
  5
138
330
E9
100
AcDbEntity
  8
1006761
  6
CONTINUOUS
 62
     7
100
AcDbEllipse
 10
24.6166470342
 20
13.0874965801
 30
0.0
 11
-2.738788792244249
 21
-2.467397635569079E-15
 31
0.0
210
0.0
220
0.0
230
1.0
 40
0.5773502692
 41
3.192289164212464
 42
3.235406236952422
  0
LINE
  5
139
330
E9
100
AcDbEntity
  8
1006761
  6
CONTINUOUS
 62
     7
100
AcDbLine
 10
20.7416470342
 20
13.2839537862
 30
0.0
 11
20.7416470342
 21
13.2238898721
 31
0.0
  0
LINE
  5
13A
330
E9
100
AcDbEntity
  8
1006761
  6
CONTINUOUS
 62
     7
100
AcDbLine
 10
28.4916470342
 20
13.2238898721
 30
0.0
 11
28.4916470342
 21
13.2839537862
 31
0.0
  0
ARC
  5
13B
330
E9
100
AcDbEntity
  8
1006761
  6
CONTINUOUS
 62
     7
100
AcDbCircle
 10
25.6487605295
 20
13.0268622236
 30
0.0
 40
2.107362684294134
100
AcDbArc
 50
289.9505294475
 51
314.010426577
  0
ARC
  5
13C
330
E9
100
AcDbEntity
  8
1006761
  6
CONTINUOUS
 62
     7
100
AcDbCircle
 10
25.8058842259
 20
12.2648227718
 30
0.0
 40
1.34229974732442
100
AcDbArc
 50
289.2506700877
 51
294.7408971028
  0
ARC
  5
13D
330
E9
100
AcDbEntity
  8
1006761
  6
CONTINUOUS
 62
     7
100
AcDbCircle
 10
24.7694905329
 20
14.9029256475
 30
0.0
 40
4.175884337465919
100
AcDbArc
 50
280.1420215116
 51
290.7417738564
  0
ARC
  5
13E
330
E9
100
AcDbEntity
  8
1006761
  6
CONTINUOUS
 62
     7
100
AcDbCircle
 10
24.6158006516
 20
15.7521239935
 30
0.0
 40
5.038997043256629
100
AcDbArc
 50
262.112954546
 51
271.4471164761
  0
ARC
  5
13F
330
E9
100
AcDbEntity
  8
1006761
  6
CONTINUOUS
 62
     7
100
AcDbCircle
 10
24.0779662562
 20
12.2158057904
 30
0.0
 40
1.463270557781561
100
AcDbArc
 50
258.4147871532
 51
263.9739893583
  0
ARC
  5
140
330
E9
100
AcDbEntity
  8
1006761
  6
CONTINUOUS
 62
     7
100
AcDbCircle
 10
24.2799807038
 20
14.2298465275
 30
0.0
 40
3.482838691686234
100
AcDbArc
 50
234.1083477072
 51
261.8140074191
  0
ARC
  5
141
330
E9
100
AcDbEntity
  8
1006761
  6
CONTINUOUS
 62
     7
100
AcDbCircle
 10
22.7822208452
 20
12.1480573776
 30
0.0
 40
0.9187412828857141
100
AcDbArc
 50
226.8350488853
 51
233.6634285976
  0
ARC
  5
142
330
E9
100
AcDbEntity
  8
1006761
  6
CONTINUOUS
 62
     7
100
AcDbCircle
 10
23.2044067179
 20
12.7173427307
 30
0.0
 40
1.624839181057136
100
AcDbArc
 50
228.0169496167
 51
229.7122575308
  0
LINE
  5
143
330
E9
100
AcDbEntity
  8
1006761
  6
CONTINUOUS
 62
     7
100
AcDbLine
 10
25.3993624132
 20
10.9861988504
 30
0.0
 11
25.4480208773
 21
10.8268756587
 31
0.0
  0
ARC
  5
144
330
E9
100
AcDbEntity
  8
1006761
  6
CONTINUOUS
 62
     7
100
AcDbCircle
 10
25.4958404368
 20
10.8414801007
 30
0.0
 40
0.0499999999999999
100
AcDbArc
 50
196.983053346
 51
280.342097429
  0
SPLINE
  5
145
330
E9
100
AcDbEntity
  8
1006761
  6
CONTINUOUS
 62
     7
100
AcDbSpline
210
0.0
220
0.0
230
1.0
 70
     8
 71
     3
 72
     8
 73
     4
 74
     0
 42
0.0000000313187235
 43
0.0000000001
 40
0.0
 40
0.0
 40
0.0
 40
0.0
 40
0.7186237962423633
 40
0.7186237962423633
 40
0.7186237962423633
 40
0.7186237962423633
 10
24.79133305912557
 20
10.75777617669189
 30
0.0
 10
24.7975001290715
 20
10.8017018472863
 30
0.0
 10
24.80810338126863
 20
10.87744830878933
 30
0.0
 10
24.82314281571693
 20
10.98501556120099
 30
0.0
  0
ARC
  5
146
330
E9
100
AcDbEntity
  8
1006761
  6
CONTINUOUS
 62
     7
100
AcDbCircle
 10
24.7418173944
 20
10.7647187229
 30
0.0
 40
0.0499999999999999
100
AcDbArc
 50
271.4204031143
 51
352.0186403411
  0
LINE
  5
147
330
E9
100
AcDbEntity
  8
1006761
  6
CONTINUOUS
 62
     7
100
AcDbLine
 10
25.3505091015
 20
10.9856650631
 30
0.0
 11
25.3912978299
 21
10.9898174547
 31
0.0
  0
ARC
  5
148
330
E9
100
AcDbEntity
  8
1006761
  6
CONTINUOUS
 62
     7
100
AcDbCircle
 10
24.9067492893
 20
14.9097769804
 30
0.0
 40
3.948809314437072
100
AcDbArc
 50
273.8384758887
 51
276.4524656557
  0
ARC
  5
149
330
E9
100
AcDbEntity
  8
1006761
  6
CONTINUOUS
 62
     7
100
AcDbCircle
 10
25.6884643814
 20
4.8089599967
 30
0.0
 40
6.182577299639258
100
AcDbArc
 50
94.8002025264
 51
96.863737164
  0
ARC
  5
14A
330
E9
100
AcDbEntity
  8
1006761
  6
CONTINUOUS
 62
     7
100
AcDbCircle
 10
24.3119053349
 20
15.7297427975
 30
0.0
 40
4.824851519722469
100
AcDbArc
 50
275.9933552347
 51
277.5948564066
  0
SPLINE
  5
14B
330
E9
100
AcDbEntity
  8
1006761
  6
CONTINUOUS
 62
     7
100
AcDbSpline
210
0.0
220
0.0
230
1.0
 70
     8
 71
     3
 72
    10
 73
     6
 74
     0
 42
0.0000007817831876
 43
0.0000000001
 40
0.1007326250675888
 40
0.1007326250675888
 40
0.1007326250675888
 40
0.1007326250675888
 40
0.3977820733372083
 40
0.7559040469405134
 40
1.0
 40
1.0
 40
1.0
 40
1.0
 10
25.39010810008103
 20
10.98964671294883
 30
0.0
 10
25.38993501926043
 20
10.9895512478974
 30
0.0
 10
25.39271741248267
 20
10.98975183860264
 30
0.0
 10
25.39751045651842
 20
10.98730360320463
 30
0.0
 10
25.39893717780577
 20
10.98578115509918
 30
0.0
 10
25.39963600972511
 20
10.98500163705825
 30
0.0
  0
ARC
  5
14C
330
E9
100
AcDbEntity
  8
1006761
  6
CONTINUOUS
 62
     7
100
AcDbCircle
 10
23.432077406
 20
12.2049671176
 30
0.0
 40
3.088633793579201
100
AcDbArc
 50
113.0861035726
 51
137.5673594206
  0
ARC
  5
14D
330
E9
100
AcDbEntity
  8
1006761
  6
CONTINUOUS
 62
     7
100
AcDbCircle
 10
25.6499315896
 20
12.0237286486
 30
0.0
 40
3.321609349660005
100
AcDbArc
 50
42.5355697783
 51
71.663039044
  0
SPLINE
  5
14E
330
E9
100
AcDbEntity
  8
1006761
  6
CONTINUOUS
 62
     7
100
AcDbSpline
210
0.0
220
0.0
230
1.0
 70
     8
 71
     3
 72
    65
 73
    61
 74
     0
 42
0.0000000013277494
 43
0.0000000001
 40
0.0
 40
0.0
 40
0.0
 40
0.0
 40
0.0071153187932278
 40
0.0248048890215573
 40
0.0424972061716489
 40
0.0601916506464999
 40
0.0778876705461685
 40
0.0955847893451127
 40
0.1132826066123611
 40
0.1309807941369741
 40
0.1486790622388935
 40
0.1663771763783828
 40
0.1840749963155145
 40
0.2017724210579624
 40
0.2194693819314549
 40
0.237165836516127
 40
0.2548617634619703
 40
0.2725571581385412
 40
0.2902520290405817
 40
0.3079463948570732
 40
0.3256402821091194
 40
0.3433337232671128
 40
0.3610267552660225
 40
0.3787194183477678
 40
0.3964117551695746
 40
0.41410381012668
 40
0.4317956288461793
 40
0.4494872578159507
 40
0.4671787441187288
 40
0.4848701352462406
 40
0.5025614789721816
 40
0.5202528232658011
 40
0.5379442053918673
 40
0.5556356683564194
 40
0.5733272603969091
 40
0.5910190297245485
 40
0.6087110244230381
 40
0.6264032923001429
 40
0.6440958806719347
 40
0.6617888360567097
 40
0.6794822037513403
 40
0.6971760272571789
 40
0.7148703475161274
 40
0.7325652019094252
 40
0.7502606229626801
 40
0.7679566366905982
 40
0.7856532605041666
 40
0.8033505005929918
 40
0.8210483486872572
 40
0.8387467781001254
 40
0.8564457389564716
 40
0.8741451525330844
 40
0.8918449046777519
 40
0.9095448383506075
 40
0.927244667020058
 40
0.9449440986234203
 40
0.9626427738161092
 40
0.9803402566972352
 40
0.9980360318162174
 40
1.0
 40
1.0
 40
1.0
 40
1.0
 10
21.16535071380336
 20
12.20469998114873
 30
0.0
 10
21.17528144867838
 20
12.19316538052481
 30
0.0
 10
21.20485061932503
 20
12.15892734605945
 30
0.0
 10
21.265748751325
 20
12.09627539091198
 30
0.0
 10
21.34338490711673
 20
12.02209232069636
 30
0.0
 10
21.42692465255059
 20
11.94911171281481
 30
0.0
 10
21.51505183378666
 20
11.87823912175135
 30
0.0
 10
21.60794971075502
 20
11.80936930856217
 30
0.0
 10
21.70539071886337
 20
11.74266362426522
 30
0.0
 10
21.80724867995185
 20
11.6782075781878
 30
0.0
 10
21.91336183590636
 20
11.61610248004183
 30
0.0
 10
22.02356994395431
 20
11.55644070207356
 30
0.0
 10
22.13770473401574
 20
11.49931215058069
 30
0.0
 10
22.25559281165569
 20
11.44480241577366
 30
0.0
 10
22.37705510308061
 20
11.39299320209868
 30
0.0
 10
22.50190729803522
 20
11.3439621026982
 30
0.0
 10
22.62996005994588
 20
11.29778253476622
 30
0.0
 10
22.76101930865255
 20
11.25452363313159
 30
0.0
 10
22.89488649434237
 20
11.21425015772068
 30
0.0
 10
23.03135888450203
 20
11.17702240126157
 30
0.0
 10
23.17022985774983
 20
11.14289610203388
 30
0.0
 10
23.31128920568487
 20
11.11192236138099
 30
0.0
 10
23.4543234417973
 20
11.08414756691821
 30
0.0
 10
23.59911611695119
 20
11.05961332190605
 30
0.0
 10
23.74544814077003
 20
11.03835638125881
 30
0.0
 10
23.89309810827178
 20
11.02040859455006
 30
0.0
 10
24.04184263108138
 20
11.00579685631331
 30
0.0
 10
24.19145667254962
 20
10.99454306387502
 30
0.0
 10
24.34171388610853
 20
10.98666408290696
 30
0.0
 10
24.4923869561997
 20
10.98217172084302
 30
0.0
 10
24.6432479411125
 20
10.98107270826835
 30
0.0
 10
24.79406858629148
 20
10.98336868788978
 30
0.0
 10
24.94462068537173
 20
10.98905620886918
 30
0.0
 10
25.09467644049909
 20
10.99812673158175
 30
0.0
 10
25.24400883742959
 20
11.01056664505117
 30
0.0
 10
25.39239197202314
 20
11.02635729047306
 30
0.0
 10
25.53960137624999
 20
11.04547499065765
 30
0.0
 10
25.68541435629396
 20
11.06789108800865
 30
0.0
 10
25.82961032737816
 20
11.09357199037852
 30
0.0
 10
25.97197114464022
 20
11.12247922465994
 30
0.0
 10
26.112281429379
 20
11.1545694979318
 30
0.0
 10
26.2503288899834
 20
11.18979476592568
 30
0.0
 10
26.38590463686183
 20
11.22810230852568
 30
0.0
 10
26.51880349063768
 20
11.26943481190994
 30
0.0
 10
26.64882428307773
 20
11.31373045696525
 30
0.0
 10
26.77577014951132
 20
11.36092301307787
 30
0.0
 10
26.89944881426353
 20
11.410941937841
 30
0.0
 10
27.01967286052888
 20
11.46371247723037
 30
0.0
 10
27.13626001418169
 20
11.51915578242506
 30
0.0
 10
27.24903332954975
 20
11.57718897793655
 30
0.0
 10
27.35782169410477
 20
11.63772541908769
 30
0.0
 10
27.46245909629707
 20
11.70067424379132
 30
0.0
 10
27.56278846524254
 20
11.76594255185002
 30
0.0
 10
27.65864826643631
 20
11.83342766443511
 30
0.0
 10
27.74992316539343
 20
11.90304616550396
 30
0.0
 10
27.83635646955599
 20
11.97462616222753
 30
0.0
 10
27.91825126809126
 20
12.04830987336465
 30
0.0
 10
27.99385532971348
 20
12.12305198912768
 30
0.0
 10
28.046819486693
 20
12.17876501535959
 30
0.0
 10
28.06994193992661
 20
12.20629818873071
 30
0.0
 10
28.07262704740643
 20
12.20949815737076
 30
0.0
  0
ARC
  5
14F
330
E9
100
AcDbEntity
  8
1006761
  6
CONTINUOUS
 62
     7
100
AcDbCircle
 10
24.9367379233
 20
13.2666914357
 30
0.0
 40
1.595324794084252
100
AcDbArc
 50
252.4091934284
 51
299.1314972158
  0
ARC
  5
150
330
E9
100
AcDbEntity
  8
1006761
  6
CONTINUOUS
 62
     7
100
AcDbCircle
 10
24.3896343233
 20
11.5405528863
 30
0.0
 40
0.2151708295898912
100
AcDbArc
 50
72.4882778068
 51
87.6075000733
  0
ARC
  5
151
330
E9
100
AcDbEntity
  8
1006761
  6
CONTINUOUS
 62
     7
100
AcDbCircle
 10
25.8031602587
 20
11.7326738378
 30
0.0
 40
0.1665565620026
100
AcDbArc
 50
104.0270875909
 51
122.531361066
  0
SPLINE
  5
152
330
E9
100
AcDbEntity
  8
1006761
  6
CONTINUOUS
 62
     7
100
AcDbSpline
210
0.0
220
0.0
230
1.0
 70
     8
 71
     3
 72
    37
 73
    33
 74
     0
 42
0.0000000033495461
 43
0.0000000001
 40
0.0
 40
0.0
 40
0.0
 40
0.0
 40
0.0182248304294957
 40
0.0528957796349408
 40
0.0875675509530262
 40
0.1222374405485468
 40
0.1569049889002244
 40
0.1915697426131651
 40
0.2262312583942377
 40
0.2608891094219403
 40
0.2955428943600515
 40
0.3301922498231353
 40
0.3648368672922938
 40
0.399476515699014
 40
0.4341110711320241
 40
0.4687405553527666
 40
0.5033651849819796
 40
0.5379854332602972
 40
0.5726021060532214
 40
0.6072164330516624
 40
0.6418300107302716
 40
0.6764445370549234
 40
0.71106292138475
 40
0.7456889165702716
 40
0.7803272074886733
 40
0.8149834407090626
 40
0.8496641496716796
 40
0.8843765179310057
 40
0.9191279186867968
 40
0.9539251821937821
 40
0.9887735864869104
 40
1.0
 40
1.0
 40
1.0
 40
1.0
 10
24.39864222211923
 20
11.7556716842774
 30
0.0
 10
24.37424148217437
 20
11.75687303046037
 30
0.0
 10
24.31409251027413
 20
11.75991214761493
 30
0.0
 10
24.20526907025009
 20
11.76791478762218
 30
0.0
 10
24.08090712187191
 20
11.78041855936665
 30
0.0
 10
23.95661603403093
 20
11.79632383075395
 30
0.0
 10
23.83403131764162
 20
11.81547959881681
 30
0.0
 10
23.71305038007152
 20
11.83787426971857
 30
0.0
 10
23.59403111779284
 20
11.86344978464332
 30
0.0
 10
23.47720284219378
 20
11.89215145817876
 30
0.0
 10
23.36282336635063
 20
11.92391475590949
 30
0.0
 10
23.25113618318294
 20
11.95866898851933
 30
0.0
 10
23.14238120176377
 20
11.99633649775201
 30
0.0
 10
23.03679113480634
 20
12.03683307767496
 30
0.0
 10
22.93459172986388
 20
12.08006809734111
 30
0.0
 10
22.83600097099236
 20
12.12594474207713
 30
0.0
 10
22.74122855817486
 20
12.17436026977348
 30
0.0
 10
22.65047531851183
 20
12.22520631963838
 30
0.0
 10
22.56393264829737
 20
12.27836927616296
 30
0.0
 10
22.48178210385536
 20
12.33373060988217
 30
0.0
 10
22.40419526098011
 20
12.39116707383963
 30
0.0
 10
22.33133281561321
 20
12.45055144158725
 30
0.0
 10
22.26334396380028
 20
12.51175338547932
 30
0.0
 10
22.2003662969178
 20
12.5746400660479
 30
0.0
 10
22.1425244516271
 20
12.63907854070013
 30
0.0
 10
22.08993631386264
 20
12.70492969819157
 30
0.0
 10
22.04269074908956
 20
12.77207482346402
 30
0.0
 10
22.00093296619961
 20
12.84031978188434
 30
0.0
 10
21.9645488808094
 20
12.90975545399936
 30
0.0
 10
21.93434950265743
 20
12.97941064943549
 30
0.0
 10
21.91369354443107
 20
13.03578385757857
 30
0.0
 10
21.90596596388414
 20
13.06535734447871
 30
0.0
 10
21.90377825008616
 20
13.07379787280105
 30
0.0
  0
SPLINE
  5
153
330
E9
100
AcDbEntity
  8
1006761
  6
CONTINUOUS
 62
     7
100
AcDbSpline
210
0.0
220
0.0
230
1.0
 70
     8
 71
     3
 72
    29
 73
    25
 74
     0
 42
0.0000000049588926
 43
0.0000000001
 40
0.0
 40
0.0
 40
0.0
 40
0.0
 40
0.0159238534329579
 40
0.0642183374954571
 40
0.1124416687304318
 40
0.1605935970496129
 40
0.2086787798880668
 40
0.2567050741239953
 40
0.3046819474603613
 40
0.3526192240800189
 40
0.4005262235846762
 40
0.4484112554723559
 40
0.4962813891555083
 40
0.5441424134999815
 40
0.5919989122118421
 40
0.6398542186944792
 40
0.6877103382893873
 40
0.7355693601129365
 40
0.7834327205556224
 40
0.8313013370774893
 40
0.879175722011175
 40
0.92705607635748
 40
0.9749423653462199
 40
1.0
 40
1.0
 40
1.0
 40
1.0
 10
27.32125807794311
 20
13.04630581115511
 30
0.0
 10
27.31873971722068
 20
13.03766409306206
 30
0.0
 10
27.31000653451579
 20
13.00791871004762
 30
0.0
 10
27.28742441854695
 20
12.9514110623056
 30
0.0
 10
27.25488588543741
 20
12.88185960214267
 30
0.0
 10
27.21614640595349
 20
12.81260835636975
 30
0.0
 10
27.17205192197715
 20
12.74462817745525
 30
0.0
 10
27.12249540738227
 20
12.67783459245695
 30
0.0
 10
27.06763529128833
 20
12.61242152319433
 30
0.0
 10
27.00757013316887
 20
12.54850579306433
 30
0.0
 10
26.94242636194501
 20
12.4862227888959
 30
0.0
 10
26.87233552892366
 20
12.42570094169509
 30
0.0
 10
26.79744092627991
 20
12.36706822667254
 30
0.0
 10
26.71789615985301
 20
12.31044985917327
 30
0.0
 10
26.6338654992855
 20
12.25596821542835
 30
0.0
 10
26.54552458736515
 20
12.20374247129234
 30
0.0
 10
26.45305701502767
 20
12.15388688869435
 30
0.0
 10
26.35666381366628
 20
12.10651339744376
 30
0.0
 10
26.25652508002786
 20
12.06171938991748
 30
0.0
 10
26.15294018934402
 20
12.01963123831555
 30
0.0
 10
26.04580398947763
 20
11.98024118755304
 30
0.0
 10
25.93655939761443
 20
11.94401457121599
 30
0.0
 10
25.83928910724677
 20
11.91508853227693
 30
0.0
 10
25.78473147029214
 20
11.90040079365798
 30
0.0
 10
25.76264713440538
 20
11.89448968136471
 30
0.0
  0
ELLIPSE
  5
154
330
E9
100
AcDbEntity
  8
1006777
  6
CONTINUOUS
 62
     7
100
AcDbEllipse
 10
25.9389367151
 20
12.5196615711
 30
0.0
 11
-0.4790000000000005
 21
3.414809992080329E-17
 31
0.0
210
0.0
220
0.0
230
1.0
 40
0.5773502692
 41
0.3442499941543537
 42
2.797342659435285
  0
ELLIPSE
  5
155
330
E9
100
AcDbEntity
  8
1006777
  6
CONTINUOUS
 62
     7
100
AcDbEllipse
 10
25.9389367151
 20
12.5196615711
 30
0.0
 11
0.6600000000000005
 21
-1.024442997624099E-16
 31
0.0
210
0.0
220
0.0
230
1.0
 40
0.5773502692
 41
0.0901173348209984
 42
3.051475318768675
  0
ELLIPSE
  5
156
330
E9
100
AcDbEntity
  8
1006777
  6
CONTINUOUS
 62
     7
100
AcDbEllipse
 10
25.9389367151
 20
12.5882472839
 30
0.0
 11
-0.6600000000000004
 21
-6.829619984160658E-17
 31
0.0
210
0.0
220
0.0
230
1.0
 40
0.5773502692
 41
0.0
 42
6.283185307179586
  0
ELLIPSE
  5
157
330
E9
100
AcDbEntity
  8
1006777
  6
CONTINUOUS
 62
     7
100
AcDbEllipse
 10
24.1526075681
 20
11.9195634269
 30
0.0
 11
0.1100344615197606
 21
-1.707404996040165E-17
 31
0.0
210
0.0
220
0.0
230
1.0
 40
0.5773502692
 41
0.0000000000000003
 42
3.409943131098972
  0
ELLIPSE
  5
158
330
E9
100
AcDbEntity
  8
1006777
  6
CONTINUOUS
 62
     7
100
AcDbEllipse
 10
24.1526075681
 20
11.9195634269
 30
0.0
 11
0.1100344615197606
 21
-1.707404996040165E-17
 31
0.0
210
0.0
220
0.0
230
1.0
 40
0.5773502692
 41
6.014834829670408
 42
6.283185307179586
  0
ELLIPSE
  5
159
330
E9
100
AcDbEntity
  8
1006777
  6
CONTINUOUS
 62
     7
100
AcDbEllipse
 10
26.9589035325
 20
13.5397791574
 30
0.0
 11
0.1100344615197603
 21
-1.067128122525103E-16
 31
0.0
210
0.0
220
0.0
230
1.0
 40
0.5773502692
 41
0.0
 42
3.409943131097869
  0
ELLIPSE
  5
15A
330
E9
100
AcDbEntity
  8
1006777
  6
CONTINUOUS
 62
     7
100
AcDbEllipse
 10
26.9589035325
 20
13.5397791574
 30
0.0
 11
0.1100344615197603
 21
-1.067128122525103E-16
 31
0.0
210
0.0
220
0.0
230
1.0
 40
0.5773502692
 41
6.014834829671512
 42
6.283185307179586
  0
ELLIPSE
  5
15B
330
E9
100
AcDbEntity
  8
1006777
  6
CONTINUOUS
 62
     7
100
AcDbEllipse
 10
24.6166470342
 20
13.3516715871
 30
0.0
 11
-2.6992041385782
 21
1.711772216675786E-15
 31
0.0
210
0.0
220
0.0
230
1.0
 40
0.5773502692
 41
1.992535394514561
 42
3.527121031678795
  0
ARC
  5
15C
330
E9
100
AcDbEntity
  8
1006777
  6
CONTINUOUS
 62
     7
100
AcDbCircle
 10
25.7555468915
 20
11.7909517182
 30
0.0
 40
0.1429799610236424
100
AcDbArc
 50
103.7509785815
 51
122.7656660016
  0
ELLIPSE
  5
15D
330
E9
100
AcDbEntity
  8
1006777
  6
CONTINUOUS
 62
     7
100
AcDbEllipse
 10
24.94484209
 20
12.2770572368
 30
0.0
 11
-0.9692041385781974
 21
-5.122214988120493E-16
 31
0.0
210
0.0
220
0.0
230
1.0
 40
0.5773502692
 41
1.061727385679158
 42
2.428931118309509
  0
LINE
  5
15E
330
E9
100
AcDbEntity
  8
1006777
  6
CONTINUOUS
 62
     7
100
AcDbLine
 10
27.1177292276
 20
13.9377008366
 30
0.0
 11
23.6016145994
 21
11.9076711095
 31
0.0
  0
ARC
  5
15F
330
E9
100
AcDbEntity
  8
1006777
  6
CONTINUOUS
 62
     7
100
AcDbCircle
 10
24.4132645208
 20
11.6002026474
 30
0.0
 40
0.1973347415852611
100
AcDbArc
 50
72.5358540176
 51
87.852289617
  0
ELLIPSE
  5
160
330
E9
100
AcDbEntity
  8
1006777
  6
CONTINUOUS
 62
     7
100
AcDbEllipse
 10
24.6166470342
 20
13.3516715871
 30
0.0
 11
-2.699204138579009
 21
-2.944891210177905E-13
 31
0.0
210
0.0
220
0.0
230
1.0
 40
0.5773502692
 41
1.185267948705813
 42
1.498123109473931
  0
ELLIPSE
  5
161
330
E9
100
AcDbEntity
  8
1006777
  6
CONTINUOUS
 62
     7
100
AcDbEllipse
 10
24.6166470342
 20
13.326535488
 30
0.0
 11
-2.729193858328736
 21
-5.148081982372469E-13
 31
0.0
210
0.0
220
0.0
230
1.0
 40
0.5773502692
 41
1.185267948705754
 42
1.498123109473824
  0
ELLIPSE
  5
162
330
E9
100
AcDbEntity
  8
1006777
  6
CONTINUOUS
 62
     7
100
AcDbEllipse
 10
23.6016145994
 20
11.883176212
 30
0.0
 11
0.0299509346298471
 21
0.001715084487011993
 31
0.0
210
0.0
220
0.0
230
0.9999999999999999
 40
0.5843789618
 41
3.141592653589787
 42
4.293111483742079
  0
ARC
  5
163
330
E9
100
AcDbEntity
  8
1006777
  6
CONTINUOUS
 62
     7
100
AcDbCircle
 10
24.412578198
 20
11.6034835446
 30
0.0
 40
0.1516252458997866
100
AcDbArc
 50
72.6197258825
 51
87.7684177521
  0
ELLIPSE
  5
164
330
E9
100
AcDbEntity
  8
1006777
  6
CONTINUOUS
 62
     7
100
AcDbEllipse
 10
24.94484209
 20
12.2519211377
 30
0.0
 11
0.9991938583274668
 21
-2.731847993664263E-16
 31
0.0
210
0.0
220
0.0
230
1.0
 40
0.5773502692
 41
4.203320039268951
 42
5.570523771899294
  0
LINE
  5
165
330
E9
100
AcDbEntity
  8
1006777
  6
CONTINUOUS
 62
     7
100
AcDbLine
 10
25.7338364244
 20
11.8889000471
 30
0.0
 11
25.7337341484
 21
11.8837096894
 31
0.0
  0
ARC
  5
166
330
E9
100
AcDbEntity
  8
1006777
  6
CONTINUOUS
 62
     7
100
AcDbCircle
 10
25.7600946238
 20
11.7823532973
 30
0.0
 40
0.1097346933670449
100
AcDbArc
 50
103.8445235387
 51
122.6721210444
  0
ELLIPSE
  5
167
330
E9
100
AcDbEntity
  8
1006777
  6
CONTINUOUS
 62
     7
100
AcDbEllipse
 10
24.6166470342
 20
13.326535488
 30
0.0
 11
-2.729193858327465
 21
1.575179816992573E-15
 31
0.0
210
0.0
220
0.0
230
1.0
 40
0.5773502692
 41
2.96447351097457
 42
3.267799365083015
  0
ELLIPSE
  5
168
330
E9
100
AcDbEntity
  8
1006777
  6
CONTINUOUS
 62
     7
100
AcDbEllipse
 10
24.6166470342
 20
13.326535488
 30
0.0
 11
-2.729193858327465
 21
1.575179816992573E-15
 31
0.0
210
0.0
220
0.0
230
1.0
 40
0.5773502692
 41
1.992535394514559
 42
2.96447351097457
  0
ELLIPSE
  5
169
330
E9
100
AcDbEntity
  8
1006777
  6
CONTINUOUS
 62
     7
100
AcDbEllipse
 10
27.1177292276
 20
13.9132059391
 30
0.0
 11
-0.02454311693871114
 21
-0.01725211323092872
 31
0.0
210
0.0
220
0.0
230
1.0
 40
0.7565656226
 41
3.141138830867813
 42
4.223615825057932
  0
ELLIPSE
  5
16A
330
E9
100
AcDbEntity
  8
1006777
  6
CONTINUOUS
 62
     7
100
AcDbEllipse
 10
25.7215601999
 20
11.9053386916
 30
0.0
 11
0.007522734837002533
 21
-0.02904149549476005
 31
0.0
210
0.0
220
0.0
230
1.0
 40
0.3342310458
 41
0.8852970806138561
 42
2.482273346188615
  0
ELLIPSE
  5
16B
330
E9
100
AcDbEntity
  8
1006777
  6
CONTINUOUS
 62
     7
100
AcDbEllipse
 10
27.1177292276
 20
13.9132059391
 30
0.0
 11
0.01499999999999938
 21
-0.02598076211353477
 31
0.0
210
0.0
220
0.0
230
1.0
 40
0.5773502692
 41
2.3561944901925
 42
3.141592653589793
  0
ELLIPSE
  5
16C
330
E9
100
AcDbEntity
  8
1006777
  6
CONTINUOUS
 62
     7
100
AcDbEllipse
 10
25.678165506
 20
11.8866873927
 30
0.0
 11
0.01666575490353489
 21
-0.02494499175175939
 31
0.0
210
0.0
220
0.0
230
1.0
 40
0.617781165
 41
0.7201062109424359
 42
2.317082476517296
  0
ELLIPSE
  5
16D
330
E9
100
AcDbEntity
  8
1006777
  6
CONTINUOUS
 62
     7
100
AcDbEllipse
 10
23.6016145994
 20
11.883176212
 30
0.0
 11
0.01499999999999907
 21
-0.02598076211353458
 31
0.0
210
0.0
220
0.0
230
1.0
 40
0.5773502692
 41
2.356194490192442
 42
3.141592653589793
  0
ELLIPSE
  5
16E
330
E9
100
AcDbEntity
  8
1006777
  6
CONTINUOUS
 62
     7
100
AcDbEllipse
 10
24.4724864395
 20
11.7639463342
 30
0.0
 11
-0.009201286773165058
 21
-0.02855409465764903
 31
0.0
210
0.0
220
0.0
230
1.0
 40
0.3979314143
 41
3.822274143718086
 42
5.419250409292977
  0
ELLIPSE
  5
16F
330
E9
100
AcDbEntity
  8
1006777
  6
CONTINUOUS
 62
     7
100
AcDbEllipse
 10
23.6016145994
 20
11.883176212
 30
0.0
 11
0.006843947489528306
 21
0.02920890930453591
 31
0.0
210
0.0
220
0.0
230
1.0
 40
0.3070425466
 41
0.6518450922991189
 42
2.24882135787397
  0
ELLIPSE
  5
170
330
E9
100
AcDbEntity
  8
1006777
  6
CONTINUOUS
 62
     7
100
AcDbEllipse
 10
24.420659806
 20
11.7729038706
 30
0.0
 11
-0.001259845319720882
 21
-0.02997353482274615
 31
0.0
210
0.0
220
0.0
230
1.0
 40
0.0592852165
 41
3.7583188443587
 42
5.355295109933482
  0
LINE
  5
171
330
E9
100
AcDbEntity
  8
1006777
  6
CONTINUOUS
 62
     7
100
AcDbLine
 10
25.7006612
 20
11.8651216118
 30
0.0
 11
25.7008564571
 21
11.8747250599
 31
0.0
  0
ELLIPSE
  5
172
330
E9
100
AcDbEntity
  8
1006777
  6
CONTINUOUS
 62
     7
100
AcDbEllipse
 10
26.9589035325
 20
13.6195848977
 30
0.0
 11
-0.2086717876659778
 21
9.434399684577119E-16
 31
0.0
210
0.0
220
0.0
230
1.0
 40
0.5773502692
 41
0.0
 42
6.283185307179586
  0
ELLIPSE
  5
173
330
E9
100
AcDbEntity
  8
1006777
  6
CONTINUOUS
 62
     7
100
AcDbEllipse
 10
26.9589035325
 20
13.6111600989
 30
0.0
 11
0.1860305002592946
 21
8.537024980200823E-18
 31
0.0
210
0.0
220
0.0
230
1.0
 40
0.5773502692
 41
0.0
 42
3.762689794390998
  0
ELLIPSE
  5
174
330
E9
100
AcDbEntity
  8
1006777
  6
CONTINUOUS
 62
     7
100
AcDbEllipse
 10
26.9589035325
 20
13.6111600989
 30
0.0
 11
0.1860305002592946
 21
8.537024980200823E-18
 31
0.0
210
0.0
220
0.0
230
1.0
 40
0.5773502692
 41
3.762689794390998
 42
5.922467997068261
  0
ELLIPSE
  5
175
330
E9
100
AcDbEntity
  8
1006777
  6
CONTINUOUS
 62
     7
100
AcDbEllipse
 10
26.9589035325
 20
13.6111600989
 30
0.0
 11
0.1860305002592946
 21
8.537024980200823E-18
 31
0.0
210
0.0
220
0.0
230
1.0
 40
0.5773502692
 41
5.922467997068261
 42
6.283185307179586
  0
ELLIPSE
  5
176
330
E9
100
AcDbEntity
  8
1006777
  6
CONTINUOUS
 62
     7
100
AcDbEllipse
 10
24.1526075681
 20
11.9993691673
 30
0.0
 11
-0.2086717876659775
 21
1.365923996832132E-16
 31
0.0
210
0.0
220
0.0
230
1.0
 40
0.5773502692
 41
0.0
 42
6.283185307179586
  0
ELLIPSE
  5
177
330
E9
100
AcDbEntity
  8
1006777
  6
CONTINUOUS
 62
     7
100
AcDbEllipse
 10
24.1526075681
 20
11.9909443684
 30
0.0
 11
0.1860305002592944
 21
-4.717199842288559E-16
 31
0.0
210
0.0
220
0.0
230
1.0
 40
0.5773502692
 41
0.0000000000000044
 42
3.762689794390965
  0
ELLIPSE
  5
178
330
E9
100
AcDbEntity
  8
1006777
  6
CONTINUOUS
 62
     7
100
AcDbEllipse
 10
24.1526075681
 20
11.9909443684
 30
0.0
 11
0.1860305002592944
 21
-4.717199842288559E-16
 31
0.0
210
0.0
220
0.0
230
1.0
 40
0.5773502692
 41
3.762689794390965
 42
5.92246799706821
  0
ELLIPSE
  5
179
330
E9
100
AcDbEntity
  8
1006777
  6
CONTINUOUS
 62
     7
100
AcDbEllipse
 10
24.1526075681
 20
11.9909443684
 30
0.0
 11
0.1860305002592944
 21
-4.717199842288559E-16
 31
0.0
210
0.0
220
0.0
230
1.0
 40
0.5773502692
 41
5.92246799706821
 42
6.283185307179586
  0
LINE
  5
17A
330
E9
100
AcDbEntity
  8
1006777
  6
CONTINUOUS
 62
     7
100
AcDbLine
 10
27.3393512693
 20
13.1096296012
 30
0.0
 11
27.3453729987
 21
13.2973594293
 31
0.0
  0
LINE
  5
17B
330
E9
100
AcDbEntity
  8
1006777
  6
CONTINUOUS
 62
     7
100
AcDbLine
 10
23.5717944141
 20
11.8815425912
 30
0.0
 11
23.5725002533
 21
11.8693500033
 31
0.0
  0
ARC
  5
17C
330
E9
100
AcDbEntity
  8
1006777
  6
CONTINUOUS
 62
     7
100
AcDbCircle
 10
26.2401269576
 20
13.2807932431
 30
0.0
 40
1.111724184959058
100
AcDbArc
 50
12.9415329214
 51
35.7589116784
  0
ARC
  5
17D
330
E9
100
AcDbEntity
  8
1006777
  6
CONTINUOUS
 62
     7
100
AcDbCircle
 10
27.1177292276
 20
13.9132059391
 30
0.0
 40
0.0299999999999995
100
AcDbArc
 50
35.1045653728
 51
120.0
  0
LINE
  5
17E
330
E9
100
AcDbEntity
  8
1006777
  6
CONTINUOUS
 62
     7
100
AcDbLine
 10
27.1027292276
 20
13.9391867012
 30
0.0
 11
23.5866145994
 21
11.9091569741
 31
0.0
  0
ARC
  5
17F
330
E9
100
AcDbEntity
  8
1006777
  6
CONTINUOUS
 62
     7
100
AcDbCircle
 10
23.6016145994
 20
11.883176212
 30
0.0
 40
0.0299999999999998
100
AcDbArc
 50
120.0
 51
183.2773570005
  0
ELLIPSE
  5
180
330
E9
100
AcDbEntity
  8
54436X2
  6
CONTINUOUS
 62
     7
100
AcDbEllipse
 10
25.9389367151
 20
12.5372162476
 30
0.0
 11
0.4684999999999999
 21
1.707404996040165E-16
 31
0.0
210
0.0
220
0.0
230
1.0
 40
0.5773502692
 41
3.926990816987066
 42
5.497787143782131
  0
ELLIPSE
  5
181
330
E9
100
AcDbEntity
  8
54436X2
  6
CONTINUOUS
 62
     7
100
AcDbEllipse
 10
25.9389367151
 20
12.5882472839
 30
0.0
 11
0.5310000000000006
 21
-1.024442997624099E-16
 31
0.0
210
0.0
220
0.0
230
1.0
 40
0.5773502692
 41
0.0
 42
6.283185307179586
  0
LINE
  5
182
330
E9
100
AcDbEntity
  8
54436X2
  6
CONTINUOUS
 62
     7
100
AcDbLine
 10
26.2593988661
 20
12.441603714
 30
0.0
 11
25.6849426015
 21
12.7732661931
 31
0.0
  0
LINE
  5
183
330
E9
100
AcDbEntity
  8
54436X2
  6
CONTINUOUS
 62
     7
100
AcDbLine
 10
26.1929308287
 20
12.4032283747
 30
0.0
 11
26.2593988661
 21
12.441603714
 31
0.0
  0
ELLIPSE
  5
184
330
E9
100
AcDbEntity
  8
54436X2
  6
CONTINUOUS
 62
     7
100
AcDbEllipse
 10
25.9721707338
 20
13.2402198038
 30
0.0
 11
0.4374999999999613
 21
-0.7577722283113891
 31
0.0
210
0.0
220
0.0
230
1.0
 40
0.5773502692
 41
5.015021220456475
 42
5.380612112708648
  0
ELLIPSE
  5
185
330
E9
100
AcDbEntity
  8
54436X2
  6
CONTINUOUS
 62
     7
100
AcDbEllipse
 10
25.9721707338
 20
13.2402198038
 30
0.0
 11
0.4374999999999613
 21
-0.7577722283113891
 31
0.0
210
0.0
220
0.0
230
1.0
 40
0.5773502692
 41
5.614962174855784
 42
5.980553067107957
  0
LINE
  5
186
330
E9
100
AcDbEntity
  8
54436X2
  6
CONTINUOUS
 62
     7
100
AcDbLine
 10
25.618474564
 20
12.7348908538
 30
0.0
 11
25.6849426015
 21
12.7732661931
 31
0.0
  0
LINE
  5
187
330
E9
100
AcDbEntity
  8
54436X2
  6
CONTINUOUS
 62
     7
100
AcDbLine
 10
26.1929308287
 20
12.4032283747
 30
0.0
 11
25.618474564
 21
12.7348908538
 31
0.0
  0
LINE
  5
188
330
E9
100
AcDbEntity
  8
54436X2
  6
CONTINUOUS
 62
     7
100
AcDbLine
 10
25.5634630143
 20
12.3714674417
 30
0.0
 11
25.6076571881
 21
12.3459519235
 31
0.0
  0
LINE
  5
189
330
E9
100
AcDbEntity
  8
54436X2
  6
CONTINUOUS
 62
     7
100
AcDbLine
 10
26.270216242
 20
12.3459519235
 30
0.0
 11
26.3144104159
 21
12.3714674417
 31
0.0
  0
ELLIPSE
  5
18A
330
E9
100
AcDbEntity
  8
1006778
  6
CONTINUOUS
 62
     7
100
AcDbEllipse
 10
23.9837864651
 20
13.6484680942
 30
0.0
 11
1.322500000000002
 21
-2.048885995248197E-16
 31
0.0
210
0.0
220
0.0
230
1.0
 40
0.5773502692
 41
0.044927755378932
 42
3.096664898210082
  0
ELLIPSE
  5
18B
330
E9
100
AcDbEntity
  8
1006778
  6
CONTINUOUS
 62
     7
100
AcDbEllipse
 10
26.5928677666
 20
13.8642333658
 30
0.0
 11
0.1100344615197602
 21
-5.122214988120494E-17
 31
0.0
210
0.0
220
0.0
230
1.0
 40
0.5773502692
 41
0.0
 42
3.416870210739338
  0
ELLIPSE
  5
18C
330
E9
100
AcDbEntity
  8
1006778
  6
CONTINUOUS
 62
     7
100
AcDbEllipse
 10
26.5928677666
 20
13.8642333658
 30
0.0
 11
0.1100344615197602
 21
-5.122214988120494E-17
 31
0.0
210
0.0
220
0.0
230
1.0
 40
0.5773502692
 41
6.016072233524632
 42
6.283185307179586
  0
ELLIPSE
  5
18D
330
E9
100
AcDbEntity
  8
1006778
  6
CONTINUOUS
 62
     7
100
AcDbEllipse
 10
23.5906363944
 20
12.1308942749
 30
0.0
 11
0.1100344615197605
 21
2.987958743070288E-17
 31
0.0
210
0.0
220
0.0
230
1.0
 40
0.5773502692
 41
0.0
 42
3.416870210739226
  0
ELLIPSE
  5
18E
330
E9
100
AcDbEntity
  8
1006778
  6
CONTINUOUS
 62
     7
100
AcDbEllipse
 10
23.5906363944
 20
12.1308942749
 30
0.0
 11
0.1100344615197605
 21
2.987958743070288E-17
 31
0.0
210
0.0
220
0.0
230
1.0
 40
0.5773502692
 41
6.016072233524502
 42
6.283185307179586
  0
ELLIPSE
  5
18F
330
E9
100
AcDbEntity
  8
1006778
  6
CONTINUOUS
 62
     7
100
AcDbEllipse
 10
22.9160552255
 20
14.2537029853
 30
0.0
 11
0.1100344615197604
 21
-5.122214988120494E-17
 31
0.0
210
0.0
220
0.0
230
1.0
 40
0.5773502692
 41
0.0
 42
3.416870210739225
  0
ELLIPSE
  5
190
330
E9
100
AcDbEntity
  8
1006778
  6
CONTINUOUS
 62
     7
100
AcDbEllipse
 10
22.9160552255
 20
14.2537029853
 30
0.0
 11
0.1100344615197604
 21
-5.122214988120494E-17
 31
0.0
210
0.0
220
0.0
230
1.0
 40
0.5773502692
 41
6.016072233524626
 42
6.283185307179586
  0
LINE
  5
191
330
E9
100
AcDbEntity
  8
1006778
  6
CONTINUOUS
 62
     7
100
AcDbLine
 10
23.5011188281
 20
11.9325991432
 30
0.0
 11
27.0745526067
 21
13.9957220972
 31
0.0
  0
ELLIPSE
  5
192
330
E9
100
AcDbEntity
  8
1006778
  6
CONTINUOUS
 62
     7
100
AcDbEllipse
 10
24.6166470342
 20
13.3516715871
 30
0.0
 11
2.699204138578209
 21
5.617757269554225E-15
 31
0.0
210
0.0
220
0.0
230
1.0
 40
0.5773502692
 41
0.4260535909263399
 42
1.498123109474112
  0
ELLIPSE
  5
193
330
E9
100
AcDbEntity
  8
1006778
  6
CONTINUOUS
 62
     7
100
AcDbEllipse
 10
24.6166470342
 20
13.3516715871
 30
0.0
 11
2.699204138578197
 21
4.824406195268675E-16
 31
0.0
210
0.0
220
0.0
230
1.0
 40
0.5773502692
 41
1.992535394514551
 42
4.286335389458355
  0
ARC
  5
194
330
E9
100
AcDbEntity
  8
1006778
  6
CONTINUOUS
 62
     7
100
AcDbCircle
 10
24.8200295477
 20
15.1031405267
 30
0.0
 40
0.1973347415852907
100
AcDbArc
 50
252.5358540176
 51
267.852289617
  0
ARC
  5
195
330
E9
100
AcDbEntity
  8
1006778
  6
CONTINUOUS
 62
     7
100
AcDbCircle
 10
23.477747177
 20
14.9123914559
 30
0.0
 40
0.1429799610236293
100
AcDbArc
 50
283.7509785815
 51
302.7656660016
  0
ELLIPSE
  5
196
330
E9
100
AcDbEntity
  8
1006778
  6
CONTINUOUS
 62
     7
100
AcDbEllipse
 10
24.2884519785
 20
14.4262859373
 30
0.0
 11
0.9692041385781974
 21
-6.873292190516872E-16
 31
0.0
210
0.0
220
0.0
230
1.0
 40
0.5773502692
 41
1.061727385679184
 42
2.428931118309482
  0
ELLIPSE
  5
197
330
E9
100
AcDbEntity
  8
1006778
  6
CONTINUOUS
 62
     7
100
AcDbEllipse
 10
24.6166470342
 20
13.326535488
 30
0.0
 11
2.729193858327455
 21
9.869590542276318E-15
 31
0.0
210
0.0
220
0.0
230
1.0
 40
0.5773502692
 41
3.319850652737439
 42
4.286335389458353
  0
ELLIPSE
  5
198
330
E9
100
AcDbEntity
  8
1006778
  6
CONTINUOUS
 62
     7
100
AcDbEllipse
 10
24.6166470342
 20
13.326535488
 30
0.0
 11
2.729193858327455
 21
9.869590542276318E-15
 31
0.0
210
0.0
220
0.0
230
1.0
 40
0.5773502692
 41
3.003950117599198
 42
3.319850652737439
  0
LINE
  5
199
330
E9
100
AcDbEntity
  8
1006778
  6
CONTINUOUS
 62
     7
100
AcDbLine
 10
23.5223247623
 20
11.8952197923
 30
0.0
 11
23.5222285527
 21
11.8817004566
 31
0.0
  0
ELLIPSE
  5
19A
330
E9
100
AcDbEntity
  8
1006778
  6
CONTINUOUS
 62
     7
100
AcDbEllipse
 10
23.5011188281
 20
11.9081042457
 30
0.0
 11
0.02999923754722126
 21
-0.0002138845141691118
 31
0.0
210
0.0
220
0.0
230
1.0
 40
0.602633749
 41
4.290780115678289
 42
5.50175725214648
  0
ELLIPSE
  5
19B
330
E9
100
AcDbEntity
  8
1006778
  6
CONTINUOUS
 62
     7
100
AcDbEllipse
 10
27.0745526067
 20
13.9712271998
 30
0.0
 11
-0.02997774619588172
 21
0.001155306459428399
 31
0.0
210
0.0
220
0.0
230
1.0
 40
0.5817030211
 41
2.37875700754909
 42
3.14159265358975
  0
LINE
  5
19C
330
E9
100
AcDbEntity
  8
1006778
  6
CONTINUOUS
 62
     7
100
AcDbLine
 10
27.0957585409
 20
13.9583427463
 30
0.0
 11
23.5223247623
 21
11.8952197923
 31
0.0
  0
ELLIPSE
  5
19D
330
E9
100
AcDbEntity
  8
1006778
  6
CONTINUOUS
 62
     7
100
AcDbEllipse
 10
23.5011188281
 20
11.9081042457
 30
0.0
 11
0.01499999999999885
 21
-0.02598076211353424
 31
0.0
210
0.0
220
0.0
230
1.0
 40
0.5773502692
 41
0.7592182246177006
 42
2.356194490192383
  0
ELLIPSE
  5
19E
330
E9
100
AcDbEntity
  8
1006778
  6
CONTINUOUS
 62
     7
100
AcDbEllipse
 10
27.0745526067
 20
13.9712271998
 30
0.0
 11
-0.01499999999999899
 21
0.02598076211353387
 31
0.0
210
0.0
220
0.0
230
1.0
 40
0.5773502692
 41
3.900810878207393
 42
5.497787143782178
  0
ELLIPSE
  5
19F
330
E9
100
AcDbEntity
  8
1006778
  6
CONTINUOUS
 62
     7
100
AcDbEllipse
 10
23.5011188281
 20
11.9081042457
 30
0.0
 11
-0.007604243757737101
 21
-0.02902025976577311
 31
0.0
210
0.0
220
0.0
230
0.9999999999999998
 40
0.3374420457
 41
3.801854879501145
 42
5.398831145076028
  0
ELLIPSE
  5
1A0
330
E9
100
AcDbEntity
  8
1006778
  6
CONTINUOUS
 62
     7
100
AcDbEllipse
 10
27.0745526067
 20
13.9712271998
 30
0.0
 11
-0.02358516755627305
 21
-0.0185402230661484
 31
0.0
210
0.0
220
0.0
230
1.0
 40
0.7435048974
 41
3.141336668229356
 42
4.183469277850436
  0
ELLIPSE
  5
1A1
330
E9
100
AcDbEntity
  8
1006778
  6
CONTINUOUS
 62
     7
100
AcDbEllipse
 10
23.5117338686
 20
14.7490146877
 30
0.0
 11
0.007522734837002021
 21
-0.02904149549475967
 31
0.0
210
0.0
220
0.0
230
1.0
 40
0.3342310458
 41
2.482273346188548
 42
3.14197788985451
  0
ELLIPSE
  5
1A2
330
E9
100
AcDbEntity
  8
1006778
  6
CONTINUOUS
 62
     7
100
AcDbEllipse
 10
24.8126342625
 20
14.8814495087
 30
0.0
 11
-0.001259845319720591
 21
-0.02997353482274475
 31
0.0
210
0.0
220
0.0
230
1.0
 40
0.0592852165
 41
3.141488817543672
 42
3.758318844358838
  0
ELLIPSE
  5
1A3
330
E9
100
AcDbEntity
  8
1006778
  6
CONTINUOUS
 62
     7
100
AcDbEllipse
 10
23.5551285625
 20
14.7676659866
 30
0.0
 11
0.01666575490353456
 21
-0.02494499175175769
 31
0.0
210
0.0
220
0.0
230
1.0
 40
0.617781165
 41
2.317082476517422
 42
3.141284098760529
  0
ELLIPSE
  5
1A4
330
E9
100
AcDbEntity
  8
1006778
  6
CONTINUOUS
 62
     7
100
AcDbEllipse
 10
24.760807629
 20
14.8904070451
 30
0.0
 11
-0.009201286773164815
 21
-0.02855409465764782
 31
0.0
210
0.0
220
0.0
230
1.0
 40
0.3979314143
 41
3.141146636396759
 42
3.822274143718037
  0
ELLIPSE
  5
1A5
330
E9
100
AcDbEntity
  8
1006778
  6
CONTINUOUS
 62
     7
100
AcDbEllipse
 10
26.5928677666
 20
13.9440391061
 30
0.0
 11
-0.2086717876659776
 21
-5.975917486140575E-17
 31
0.0
210
0.0
220
0.0
230
1.0
 40
0.5773502692
 41
0.0
 42
6.283185307179586
  0
ELLIPSE
  5
1A6
330
E9
100
AcDbEntity
  8
1006778
  6
CONTINUOUS
 62
     7
100
AcDbEllipse
 10
26.5928677666
 20
13.9356143073
 30
0.0
 11
0.1860305002592944
 21
-1.024442997624099E-16
 31
0.0
210
0.0
220
0.0
230
1.0
 40
0.5773502692
 41
0.000000000000001
 42
3.804172174451076
  0
ELLIPSE
  5
1A7
330
E9
100
AcDbEntity
  8
1006778
  6
CONTINUOUS
 62
     7
100
AcDbEllipse
 10
26.5928677666
 20
13.9356143073
 30
0.0
 11
0.1860305002592944
 21
-1.024442997624099E-16
 31
0.0
210
0.0
220
0.0
230
1.0
 40
0.5773502692
 41
5.627837959520446
 42
6.283185307179586
  0
ELLIPSE
  5
1A8
330
E9
100
AcDbEntity
  8
1006778
  6
CONTINUOUS
 62
     7
100
AcDbEllipse
 10
23.9837864651
 20
13.717053807
 30
0.0
 11
1.322499999999999
 21
-2.048885995248199E-16
 31
0.0
210
0.0
220
0.0
230
1.0
 40
0.5773502692
 41
2.421014673913336
 42
8.574559613650951
  0
ELLIPSE
  5
1A9
330
E9
100
AcDbEntity
  8
1006778
  6
CONTINUOUS
 62
     7
100
AcDbEllipse
 10
22.9160552255
 20
14.3335087256
 30
0.0
 11
-0.2086717876659778
 21
-9.605140184181132E-16
 31
0.0
210
0.0
220
0.0
230
1.0
 40
0.5773502692
 41
2.779222596366191
 42
8.216351691198103
  0
SPLINE
  5
1AA
330
E9
100
AcDbEntity
  8
1006778
  6
CONTINUOUS
 62
     7
100
AcDbSpline
210
0.0
220
0.0
230
1.0
 70
     8
 71
     3
 72
    16
 73
    12
 74
     0
 42
0.0000000712151882
 43
0.0000000001
 40
0.0
 40
0.0
 40
0.0
 40
0.0
 40
0.2500000000000001
 40
0.2500000000000001
 40
0.5000000000000001
 40
0.5000000000000001
 40
0.6250000000000001
 40
0.6250000000000001
 40
0.7500000000000002
 40
0.7500000000000002
 40
1.0
 40
1.0
 40
1.0
 40
1.0
 10
23.11117571823721
 20
14.29080077055323
 30
0.0
 10
23.10030099827101
 20
14.28528765640212
 30
0.0
 10
23.08977693053059
 20
14.27796617714853
 30
0.0
 10
23.06903406586984
 20
14.26314058397904
 30
0.0
 10
23.05878734108312
 20
14.25568392357852
 30
0.0
 10
23.04360598175286
 20
14.24691518563546
 30
0.0
 10
23.03856412442517
 20
14.24435999744178
 30
0.0
 10
23.0286212334419
 20
14.23975680986551
 30
0.0
 10
23.02371749984613
 20
14.23768847210314
 30
0.0
 10
23.00913063090386
 20
14.2314049737214
 30
0.0
 10
22.99949861221061
 20
14.22708312310776
 30
0.0
 10
22.99002757355493
 20
14.2208558566091
 30
0.0
  0
ELLIPSE
  5
1AB
330
E9
100
AcDbEntity
  8
1006778
  6
CONTINUOUS
 62
     7
100
AcDbEllipse
 10
22.9160552255
 20
14.3250839268
 30
0.0
 11
0.1860305002592944
 21
1.011736168299318E-15
 31
0.0
210
0.0
220
0.0
230
1.0
 40
0.5773502692
 41
0.0
 42
3.804172174451073
  0
ELLIPSE
  5
1AC
330
E9
100
AcDbEntity
  8
1006778
  6
CONTINUOUS
 62
     7
100
AcDbEllipse
 10
22.9160552255
 20
14.3250839268
 30
0.0
 11
0.1860305002592944
 21
1.011736168299318E-15
 31
0.0
210
0.0
220
0.0
230
1.0
 40
0.5773502692
 41
5.627837959520474
 42
6.283185307179586
  0
ELLIPSE
  5
1AD
330
E9
100
AcDbEntity
  8
1006778
  6
CONTINUOUS
 62
     7
100
AcDbEllipse
 10
23.5906363944
 20
12.2107000152
 30
0.0
 11
-0.2086717876659775
 21
8.495326936755029E-16
 31
0.0
210
0.0
220
0.0
230
1.0
 40
0.5773502692
 41
0.0
 42
6.283185307179586
  0
ELLIPSE
  5
1AE
330
E9
100
AcDbEntity
  8
1006778
  6
CONTINUOUS
 62
     7
100
AcDbEllipse
 10
23.5906363944
 20
12.2022752164
 30
0.0
 11
0.1860305002592942
 21
-1.365923996832132E-16
 31
0.0
210
0.0
220
0.0
230
1.0
 40
0.5773502692
 41
0.0
 42
3.804172174451075
  0
ELLIPSE
  5
1AF
330
E9
100
AcDbEntity
  8
1006778
  6
CONTINUOUS
 62
     7
100
AcDbEllipse
 10
23.5906363944
 20
12.2022752164
 30
0.0
 11
0.1860305002592942
 21
-1.365923996832132E-16
 31
0.0
210
0.0
220
0.0
230
1.0
 40
0.5773502692
 41
5.627837959520479
 42
6.283185307179586
  0
LINE
  5
1B0
330
E9
100
AcDbEntity
  8
1006778
  6
CONTINUOUS
 62
     7
100
AcDbLine
 10
27.0948445505
 20
13.9346344808
 30
0.0
 11
27.0957585409
 21
13.9583427463
 31
0.0
  0
LINE
  5
1B1
330
E9
100
AcDbEntity
  8
1006778
  6
CONTINUOUS
 62
     7
100
AcDbLine
 10
21.8879210698
 20
13.2973594293
 30
0.0
 11
21.8939427992
 21
13.1096296012
 31
0.0
  0
LINE
  5
1B2
330
E9
100
AcDbEntity
  8
1006778
  6
CONTINUOUS
 62
     7
100
AcDbLine
 10
27.1029395439
 20
13.9402432376
 30
0.0
 11
27.1040780903
 21
13.969819884
 31
0.0
  0
ARC
  5
1B3
330
E9
100
AcDbEntity
  8
1006778
  6
CONTINUOUS
 62
     7
100
AcDbCircle
 10
27.0745526067
 20
13.9712271998
 30
0.0
 40
0.0300000000000002
100
AcDbArc
 50
357.79298145
 51
360.0
  0
ARC
  5
1B4
330
E9
100
AcDbEntity
  8
1006778
  6
CONTINUOUS
 62
     7
100
AcDbCircle
 10
27.0745526067
 20
13.9712271998
 30
0.0
 40
0.0299999999999999
100
AcDbArc
 50
0.0
 51
38.1707724186
  0
SPLINE
  5
1B5
330
E9
100
AcDbEntity
  8
1006778
  6
CONTINUOUS
 62
     7
100
AcDbSpline
210
0.0
220
0.0
230
1.0
 70
     8
 71
     3
 72
    30
 73
    26
 74
     0
 42
0.0000000047502702
 43
0.0000000001
 40
0.0
 40
0.0
 40
0.0
 40
0.0
 40
0.024220801803761
 40
0.0702137314129358
 40
0.1162149834320007
 40
0.1622227037885744
 40
0.2082371726801416
 40
0.2542585060870454
 40
0.3002865964955914
 40
0.3463210379618067
 40
0.3923610327879026
 40
0.4384052782255219
 40
0.4844518334589892
 40
0.5304968885512887
 40
0.5765364150569959
 40
0.6225652757068177
 40
0.668577127390355
 40
0.7145644444816664
 40
0.7605187073238269
 40
0.8064308222008266
 40
0.8522918254304157
 40
0.8980938822253407
 40
0.943831516061967
 40
0.989502905533642
 40
1.0
 40
1.0
 40
1.0
 40
1.0
 10
23.50421113378102
 20
14.77805618317737
 30
0.0
 10
23.48194255186245
 20
14.77219285616526
 30
0.0
 10
23.42716204076256
 20
14.75768288555638
 30
0.0
 10
23.32952832695304
 20
14.72904540927571
 30
0.0
 10
23.21993781969131
 20
14.69312304127148
 30
0.0
 10
23.11237577565702
 20
14.65395919630924
 30
0.0
 10
23.00829067808228
 20
14.61200819108075
 30
0.0
 10
22.90758056354571
 20
14.56725572191842
 30
0.0
 10
22.8105499149015
 20
14.51982010816623
 30
0.0
 10
22.71738524512206
 20
14.46979114962367
 30
0.0
 10
22.6282952463932
 20
14.41727318790039
 30
0.0
 10
22.54347285778855
 20
14.36237348998777
 30
0.0
 10
22.46310570546032
 20
14.30520580405953
 30
0.0
 10
22.38737250041018
 20
14.2458893725155
 30
0.0
 10
22.3164433862279
 20
14.18454936234213
 30
0.0
 10
22.25047865300288
 20
14.12131636918901
 30
0.0
 10
22.18962912238643
 20
14.05632750828325
 30
0.0
 10
22.1340335334814
 20
13.98972452505485
 30
0.0
 10
22.08382434815831
 20
13.92166145913095
 30
0.0
 10
22.03910126743643
 20
13.85227588868494
 30
0.0
 10
22.00002430890055
 20
13.7817945257817
 30
0.0
 10
21.96646115340346
 20
13.71013629385784
 30
0.0
 10
21.93929542129994
 20
13.63838496168497
 30
0.0
 10
21.92163534350071
 20
13.58253814693849
 30
0.0
 10
21.9156174795656
 20
13.55414014180698
 30
0.0
 10
21.91431276456032
 20
13.54794068447422
 30
0.0
  0
SPLINE
  5
1B6
330
E9
100
AcDbEntity
  8
1006778
  6
CONTINUOUS
 62
     7
100
AcDbSpline
210
0.0
220
0.0
230
1.0
 70
     8
 71
     3
 72
    31
 73
    27
 74
     0
 42
0.0000000039470298
 43
0.0000000001
 40
0.0
 40
0.0
 40
0.0
 40
0.0
 40
0.0229390860571935
 40
0.0663154199435393
 40
0.1097151140924994
 40
0.1531420422587171
 40
0.1965888923852792
 40
0.2400493384222682
 40
0.2835181349779438
 40
0.3269910940507988
 40
0.3704645415167976
 40
0.4139358945493598
 40
0.4574036556147644
 40
0.5008668473740698
 40
0.5443249013661129
 40
0.5877775646244972
 40
0.631224823609511
 40
0.6746668436664761
 40
0.7181039217558978
 40
0.7615364501631752
 40
0.8049648890779326
 40
0.8483897462089982
 40
0.8918115618968254
 40
0.9352308984625959
 40
0.9786483327746915
 40
1.0
 40
1.0
 40
1.0
 40
1.0
 10
27.09813777422026
 20
13.98976742282095
 30
0.0
 10
27.08774892965022
 20
14.00277038973518
 30
0.0
 10
27.06211543674968
 20
14.03466568272838
 30
0.0
 10
27.01166588686653
 20
14.09140079095157
 30
0.0
 10
26.94858838550664
 20
14.15494236514636
 30
0.0
 10
26.87995443985137
 20
14.21723068730824
 30
0.0
 10
26.80656870736355
 20
14.27742917954788
 30
0.0
 10
26.72841943380695
 20
14.3355953267421
 30
0.0
 10
26.64572820944007
 20
14.39155291543825
 30
0.0
 10
26.55866623428365
 20
14.44519588998934
 30
0.0
 10
26.46742954991141
 20
14.49640695872784
 30
0.0
 10
26.37221791477015
 20
14.5450795598865
 30
0.0
 10
26.27323945558163
 20
14.59111208269796
 30
0.0
 10
26.17070896764156
 20
14.63440927005071
 30
0.0
 10
26.06484823518479
 20
14.67488166826171
 30
0.0
 10
25.95588561715691
 20
14.71244580638212
 30
0.0
 10
25.84405546758958
 20
14.74702427836096
 30
0.0
 10
25.72959854871858
 20
14.77854579658899
 30
0.0
 10
25.61275850965157
 20
14.80694555253531
 30
0.0
 10
25.49379296463869
 20
14.83216443102109
 30
0.0
 10
25.37292997112067
 20
14.85415251842174
 30
0.0
 10
25.25052814602092
 20
14.8728565689505
 30
0.0
 10
25.12647678968192
 20
14.88826729855979
 30
0.0
 10
25.00243196091843
 20
14.90024337268137
 30
0.0
 10
24.89531532409268
 20
14.90765673711019
 30
0.0
 10
24.83664810087076
 20
14.91039096441637
 30
0.0
 10
24.81389410778666
 20
14.91142304349758
 30
0.0
  0
ARC
  5
1B7
330
E9
100
AcDbEntity
  8
1006778
  6
CONTINUOUS
 62
     7
100
AcDbCircle
 10
23.4795077475
 20
14.8844227829
 30
0.0
 40
0.1088572618450831
100
AcDbArc
 50
282.9548245858
 51
302.6417443254
  0
ARC
  5
1B8
330
E9
100
AcDbEntity
  8
1006778
  6
CONTINUOUS
 62
     7
100
AcDbCircle
 10
24.8177808064
 20
15.0614365381
 30
0.0
 40
0.1498476456882424
100
AcDbArc
 50
251.5329149355
 51
268.5222714096
  0
ARC
  5
1B9
330
E9
100
AcDbEntity
  8
1006778
  6
CONTINUOUS
 62
     7
100
AcDbCircle
 10
24.2978748005
 20
13.4557247211
 30
0.0
 40
1.537521199748229
100
AcDbArc
 50
72.1169635906
 51
119.5985386097
  0
ARC
  5
1BA
330
E9
100
AcDbEntity
  8
1006778
  6
CONTINUOUS
 62
     7
100
AcDbCircle
 10
26.5927721574
 20
14.1125536039
 30
0.0
 40
0.2833911456545459
100
AcDbArc
 50
238.9706181195
 51
301.2491126461
  0
ARC
  5
1BB
330
E9
100
AcDbEntity
  8
1006778
  6
CONTINUOUS
 62
     7
100
AcDbCircle
 10
22.9181110082
 20
14.5075183201
 30
0.0
 40
0.2892105963944572
100
AcDbArc
 50
239.1665630414
 51
294.3626973932
  0
ARC
  5
1BC
330
E9
100
AcDbEntity
  8
1006778
  6
CONTINUOUS
 62
     7
100
AcDbCircle
 10
22.9939607873
 20
14.3435293255
 30
0.0
 40
0.1085451846750752
100
AcDbArc
 50
293.598237613
 51
309.4778372674
  0
ARC
  5
1BD
330
E9
100
AcDbEntity
  8
1006778
  6
CONTINUOUS
 62
     7
100
AcDbCircle
 10
23.5905407853
 20
12.379214513
 30
0.0
 40
0.2833911456545324
100
AcDbArc
 50
238.9706181195
 51
301.2491126461
  0
ELLIPSE
  5
1BE
330
E9
100
AcDbEntity
  8
1_001_524
  6
CONTINUOUS
 62
     7
100
AcDbEllipse
 10
24.0170204838
 20
14.8589242754
 30
0.0
 11
0.7499999999999376
 21
-1.299038105676693
 31
0.0
210
0.0
220
0.0
230
1.0
 40
0.5773502692
 41
5.086649281459876
 42
5.294129358334749
  0
ELLIPSE
  5
1BF
330
E9
100
AcDbEntity
  8
1_001_524
  6
CONTINUOUS
 62
     7
100
AcDbEllipse
 10
24.0170204838
 20
14.8589242754
 30
0.0
 11
0.7499999999999376
 21
-1.299038105676693
 31
0.0
210
0.0
220
0.0
230
1.0
 40
0.5773502692
 41
5.701444929229698
 42
5.908925006104572
  0
LINE
  5
1C0
330
E9
100
AcDbEntity
  8
1_001_524
  6
CONTINUOUS
 62
     7
100
AcDbLine
 10
24.4409161077
 20
13.4915052241
 30
0.0
 11
24.3744480703
 21
13.4531298848
 31
0.0
  0
LINE
  5
1C1
330
E9
100
AcDbEntity
  8
1_001_524
  6
CONTINUOUS
 62
     7
100
AcDbLine
 10
24.4409161077
 20
13.4915052241
 30
0.0
 11
23.5931248599
 21
13.9809777293
 31
0.0
  0
LINE
  5
1C2
330
E9
100
AcDbEntity
  8
1_001_524
  6
CONTINUOUS
 62
     7
100
AcDbLine
 10
23.5931248599
 20
13.9809777293
 30
0.0
 11
23.5266568224
 21
13.94260239
 31
0.0
  0
LINE
  5
1C3
330
E9
100
AcDbEntity
  8
1_001_524
  6
CONTINUOUS
 62
     7
100
AcDbLine
 10
24.3744480703
 20
13.4531298848
 30
0.0
 11
23.5266568224
 21
13.94260239
 31
0.0
  0
ELLIPSE
  5
1C4
330
E9
100
AcDbEntity
  8
1_001_524
  6
CONTINUOUS
 62
     7
100
AcDbEllipse
 10
23.9837864651
 20
13.6925589096
 30
0.0
 11
0.8218000000000005
 21
-3.414809992080329E-17
 31
0.0
210
0.0
220
0.0
230
1.0
 40
0.5773502692
 41
3.141592653589793
 42
4.024401035239185
  0
ELLIPSE
  5
1C5
330
E9
100
AcDbEntity
  8
1_001_524
  6
CONTINUOUS
 62
     7
100
AcDbEllipse
 10
23.9837864651
 20
13.6925589096
 30
0.0
 11
0.8218000000000005
 21
-3.414809992080329E-17
 31
0.0
210
0.0
220
0.0
230
1.0
 40
0.5773502692
 41
5.400376925534856
 42
6.283185307179586
  0
ELLIPSE
  5
1C6
330
E9
100
AcDbEntity
  8
1_001_524
  6
CONTINUOUS
 62
     7
100
AcDbEllipse
 10
23.9837864651
 20
13.717053807
 30
0.0
 11
0.8218000000000005
 21
-3.414809992080329E-17
 31
0.0
210
0.0
220
0.0
230
1.0
 40
0.5773502692
 41
0.0
 42
6.283185307179586
  0
LINE
  5
1C7
330
E9
100
AcDbEntity
  8
1_001_524
  6
CONTINUOUS
 62
     7
100
AcDbLine
 10
23.4026861123
 20
13.3570604645
 30
0.0
 11
23.4337307312
 21
13.3391368454
 31
0.0
  0
LINE
  5
1C8
330
E9
100
AcDbEntity
  8
1_001_524
  6
CONTINUOUS
 62
     7
100
AcDbLine
 10
24.5338421989
 20
13.3391368454
 30
0.0
 11
24.5648868179
 21
13.3570604645
 31
0.0
  0
LINE
  5
1C9
330
E9
100
AcDbEntity
  8
1_001_524
  6
CONTINUOUS
 62
     7
100
AcDbLine
 10
23.1619864651
 20
13.717053807
 30
0.0
 11
23.1619864651
 21
13.6925589096
 31
0.0
  0
LINE
  5
1CA
330
E9
100
AcDbEntity
  8
1_001_524
  6
CONTINUOUS
 62
     7
100
AcDbLine
 10
24.8055864651
 20
13.6925589096
 30
0.0
 11
24.8055864651
 21
13.717053807
 31
0.0
  0
ELLIPSE
  5
1CB
330
E9
100
AcDbEntity
  8
1_002_845
  6
CONTINUOUS
 62
     7
100
AcDbEllipse
 10
23.9837864651
 20
13.717053807
 30
0.0
 11
-0.8550000000000002
 21
-1.365923996832132E-16
 31
0.0
210
0.0
220
0.0
230
1.0
 40
0.5773502692
 41
0.0
 42
6.283185307179586
  0
SPLINE
  5
1CC
330
E9
100
AcDbEntity
  8
1_002_845
  6
CONTINUOUS
 62
     7
100
AcDbSpline
210
0.0
220
0.0
230
1.0
 70
     8
 71
     3
 72
    10
 73
     6
 74
     0
 42
0.0000000087329136
 43
0.0000000001
 40
0.5226279487940191
 40
0.5226279487940191
 40
0.5226279487940191
 40
0.5226279487940191
 40
0.625
 40
0.625
 40
0.6660201784692321
 40
0.6660201784692321
 40
0.6660201784692321
 40
0.6660201784692321
 10
23.26933095272845
 20
13.4602435623332
 30
0.0
 10
23.29291683873281
 20
13.43368096375108
 30
0.0
 10
23.32156904595944
 20
13.40841239201489
 30
0.0
 10
23.36806885149688
 20
13.37569436629287
 30
0.0
 10
23.38202722531971
 20
13.36667085800889
 30
0.0
 10
23.39663574437938
 20
13.3579881635859
 30
0.0
  0
SPLINE
  5
1CD
330
E9
100
AcDbEntity
  8
1_002_845
  6
CONTINUOUS
 62
     7
100
AcDbSpline
210
0.0
220
0.0
230
1.0
 70
     8
 71
     3
 72
    18
 73
    14
 74
     0
 42
0.0000000025645621
 43
0.0000000001
 40
0.0433730943028688
 40
0.0433730943028688
 40
0.0433730943028688
 40
0.0433730943028688
 40
0.0625000000000001
 40
0.0625000000000001
 40
0.0937500000000002
 40
0.0937500000000002
 40
0.1250000000000002
 40
0.1250000000000002
 40
0.1562500000000003
 40
0.1562500000000003
 40
0.1875000000000004
 40
0.1875000000000004
 40
0.1879128333987409
 40
0.1879128333987409
 40
0.1879128333987409
 40
0.1879128333987409
 10
23.39115811396938
 20
13.36109104724882
 30
0.0
 10
23.36424790425327
 20
13.37662552274851
 30
0.0
 10
23.33930423503067
 20
13.39319879391754
 30
0.0
 10
23.27875581558674
 20
13.43956448301988
 30
0.0
 10
23.24662356116174
 20
13.47114756652254
 30
0.0
 10
23.19649621747384
 20
13.53658909456036
 30
0.0
 10
23.1778967451909
 20
13.57113573552214
 30
0.0
 10
23.1549694970428
 20
13.6418775666845
 30
0.0
 10
23.15065791582972
 20
13.67751559962299
 30
0.0
 10
23.15618227339662
 20
13.74935423139562
 30
0.0
 10
23.16621895004953
 20
13.78538525740698
 30
0.0
 10
23.18330963042781
 20
13.82029314642485
 30
0.0
 10
23.18353374122542
 20
13.82074815201803
 30
0.0
 10
23.18375912490649
 20
13.82120301589498
 30
0.0
  0
SPLINE
  5
1CE
330
E9
100
AcDbEntity
  8
1_002_845
  6
CONTINUOUS
 62
     7
100
AcDbSpline
210
0.0
220
0.0
230
1.0
 70
     8
 71
     3
 72
     8
 73
     4
 74
     0
 42
0.0000000020598686
 43
0.0000000001
 40
0.6663566830611471
 40
0.6663566830611471
 40
0.6663566830611471
 40
0.6663566830611471
 40
0.6754358899648563
 40
0.6754358899648563
 40
0.6754358899648563
 40
0.6754358899648563
 10
24.59990802139214
 20
13.37776253921058
 30
0.0
 10
24.5880832102786
 20
13.36947989500405
 30
0.0
 10
24.5757748042134
 20
13.36143318097018
 30
0.0
 10
24.56302938148749
 20
13.35364945315178
 30
0.0
  0
SPLINE
  5
1CF
330
E9
100
AcDbEntity
  8
1_002_845
  6
CONTINUOUS
 62
     7
100
AcDbSpline
210
0.0
220
0.0
230
1.0
 70
     8
 71
     3
 72
     8
 73
     4
 74
     0
 42
0.0000000021353195
 43
0.0000000001
 40
0.8902759721834975
 40
0.8902759721834975
 40
0.8902759721834975
 40
0.8902759721834975
 40
0.8993294261923888
 40
0.8993294261923888
 40
0.8993294261923888
 40
0.8993294261923888
 10
23.40372035241521
 20
13.35465786338118
 30
0.0
 10
23.39156349395715
 20
13.36241832767375
 30
0.0
 10
23.3798940186252
 20
13.37041787594587
 30
0.0
 10
23.36876287173525
 20
13.37862183652699
 30
0.0
  0
LINE
  5
1D0
330
E9
100
AcDbEntity
  8
1_002_845
  6
CONTINUOUS
 62
     7
100
AcDbLine
 10
24.8401861633
 20
13.210363762
 30
0.0
 11
24.8614147592
 21
13.2226023239
 31
0.0
  0
ELLIPSE
  5
1D1
330
E9
100
AcDbEntity
  8
1_002_845
  6
CONTINUOUS
 62
     7
100
AcDbEllipse
 10
23.9837864648
 20
13.6680640123
 30
0.0
 11
1.167000000259329
 21
-1.503304743343327E-10
 31
0.0
210
0.0
220
0.0
230
1.0
 40
0.5773502692
 41
5.459217170278865
 42
5.536357117582358
  0
LINE
  5
1D2
330
E9
100
AcDbEntity
  8
1_002_845
  6
CONTINUOUS
 62
     7
100
AcDbLine
 10
24.776546553
 20
13.1736214159
 30
0.0
 11
24.7977751489
 21
13.1858599777
 31
0.0
  0
LINE
  5
1D3
330
E9
100
AcDbEntity
  8
1_002_845
  6
CONTINUOUS
 62
     7
100
AcDbLine
 10
24.8614147592
 20
13.2470972213
 30
0.0
 11
24.6785188776
 21
13.3526922078
 31
0.0
  0
LINE
  5
1D4
330
E9
100
AcDbEntity
  8
1_002_845
  6
CONTINUOUS
 62
     7
100
AcDbLine
 10
24.7977751489
 20
13.2103548752
 30
0.0
 11
24.6148792673
 21
13.3159498616
 31
0.0
  0
LINE
  5
1D5
330
E9
100
AcDbEntity
  8
1_002_845
  6
CONTINUOUS
 62
     7
100
AcDbLine
 10
24.6573056742
 20
13.2914549642
 30
0.0
 11
24.6785188776
 21
13.3037024129
 31
0.0
  0
LINE
  5
1D6
330
E9
100
AcDbEntity
  8
1_002_845
  6
CONTINUOUS
 62
     7
100
AcDbLine
 10
24.6785188776
 20
13.3037024129
 30
0.0
 11
24.8401861633
 21
13.210363762
 31
0.0
  0
LINE
  5
1D7
330
E9
100
AcDbEntity
  8
1_002_845
  6
CONTINUOUS
 62
     7
100
AcDbLine
 10
24.6785188776
 20
13.3526922078
 30
0.0
 11
24.6785188776
 21
13.3037024129
 31
0.0
  0
LINE
  5
1D8
330
E9
100
AcDbEntity
  8
1_002_845
  6
CONTINUOUS
 62
     7
100
AcDbLine
 10
24.6148792673
 20
13.3159498616
 30
0.0
 11
24.6785188776
 21
13.3526922078
 31
0.0
  0
LINE
  5
1D9
330
E9
100
AcDbEntity
  8
1_002_845
  6
CONTINUOUS
 62
     7
100
AcDbLine
 10
23.1697977813
 20
14.1992578414
 30
0.0
 11
23.1910263772
 21
14.1625066084
 31
0.0
  0
ELLIPSE
  5
1DA
330
E9
100
AcDbEntity
  8
1_002_845
  6
CONTINUOUS
 62
     7
100
AcDbEllipse
 10
23.9837864653
 20
13.668064012
 30
0.0
 11
-1.16700000026075
 21
1.505475911122898E-10
 31
0.0
210
0.0
220
0.0
230
1.0
 40
0.5773502692
 41
5.459217170279481
 42
5.484933319545797
  0
LINE
  5
1DB
330
E9
100
AcDbEntity
  8
1_002_845
  6
CONTINUOUS
 62
     7
100
AcDbLine
 10
23.106158171
 20
14.1870103927
 30
0.0
 11
23.2890540526
 21
14.0814154063
 31
0.0
  0
LINE
  5
1DC
330
E9
100
AcDbEntity
  8
1_002_845
  6
CONTINUOUS
 62
     7
100
AcDbLine
 10
23.1697977813
 20
14.2237527389
 30
0.0
 11
23.3526936629
 21
14.1181577524
 31
0.0
  0
LINE
  5
1DD
330
E9
100
AcDbEntity
  8
1_002_845
  6
CONTINUOUS
 62
     7
100
AcDbLine
 10
23.2890540526
 20
14.0814154063
 30
0.0
 11
23.3526936629
 21
14.1181577524
 31
0.0
  0
LINE
  5
1DE
330
E9
100
AcDbEntity
  8
1_002_845
  6
CONTINUOUS
 62
     7
100
AcDbLine
 10
23.310267256
 20
14.093662855
 30
0.0
 11
23.1910263772
 21
14.1625066084
 31
0.0
  0
LINE
  5
1DF
330
E9
100
AcDbEntity
  8
1_002_845
  6
CONTINUOUS
 62
     7
100
AcDbLine
 10
23.1697977813
 20
14.1992578414
 30
0.0
 11
23.1697977813
 21
14.2237527389
 31
0.0
  0
LINE
  5
1E0
330
E9
100
AcDbEntity
  8
1_002_845
  6
CONTINUOUS
 62
     7
100
AcDbLine
 10
24.8614147592
 20
13.2470972213
 30
0.0
 11
24.8614147592
 21
13.2226023239
 31
0.0
  0
ELLIPSE
  5
1E1
330
E9
100
AcDbEntity
  8
1_002_845
  6
CONTINUOUS
 62
     7
100
AcDbEllipse
 10
23.9837864651
 20
13.717053807
 30
0.0
 11
-1.197
 21
6.829619984160658E-17
 31
0.0
210
0.0
220
0.0
230
1.0
 40
0.5773502692
 41
2.393797336102805
 42
5.460184297871678
  0
ELLIPSE
  5
1E2
330
E9
100
AcDbEntity
  8
1_002_845
  6
CONTINUOUS
 62
     7
100
AcDbEllipse
 10
23.9837864651
 20
13.717053807
 30
0.0
 11
1.197
 21
1.365923996832131E-16
 31
0.0
210
0.0
220
0.0
230
1.0
 40
0.5773502692
 41
2.39379733610281
 42
5.46018429787167
  0
LINE
  5
1E3
330
E9
100
AcDbEntity
  8
1_002_845
  6
CONTINUOUS
 62
     7
100
AcDbLine
 10
24.7977751489
 20
13.2103548752
 30
0.0
 11
24.7977751489
 21
13.1858599777
 31
0.0
  0
ELLIPSE
  5
1E4
330
E9
100
AcDbEntity
  8
1_002_845
  6
CONTINUOUS
 62
     7
100
AcDbEllipse
 10
23.9837864651
 20
13.6925589096
 30
0.0
 11
-1.197000000000001
 21
6.829619984160658E-17
 31
0.0
210
0.0
220
0.0
230
1.0
 40
0.5773502692
 41
2.3937973361028
 42
3.141592653589793
  0
ELLIPSE
  5
1E5
330
E9
100
AcDbEntity
  8
1_002_845
  6
CONTINUOUS
 62
     7
100
AcDbEllipse
 10
23.9837864651
 20
13.6925589096
 30
0.0
 11
1.197
 21
6.829619984160657E-17
 31
0.0
210
0.0
220
0.0
230
1.0
 40
0.5773502692
 41
3.141592653589793
 42
5.46018429787167
  0
LINE
  5
1E6
330
E9
100
AcDbEntity
  8
1_002_845
  6
CONTINUOUS
 62
     7
100
AcDbLine
 10
23.137379648
 20
13.2038857059
 30
0.0
 11
23.1875842295
 21
13.1749000773
 31
0.0
  0
LINE
  5
1E7
330
E9
100
AcDbEntity
  8
1_002_845
  6
CONTINUOUS
 62
     7
100
AcDbLine
 10
24.7799887007
 20
13.1749000773
 30
0.0
 11
24.8089800787
 21
13.1916382572
 31
0.0
  0
LINE
  5
1E8
330
E9
100
AcDbEntity
  8
1_002_845
  6
CONTINUOUS
 62
     7
100
AcDbLine
 10
25.1807864651
 20
13.6925589096
 30
0.0
 11
25.1807864651
 21
13.717053807
 31
0.0
  0
LINE
  5
1E9
330
E9
100
AcDbEntity
  8
1_002_845
  6
CONTINUOUS
 62
     7
100
AcDbLine
 10
22.7867864651
 20
13.717053807
 30
0.0
 11
22.7867864651
 21
13.6925589096
 31
0.0
  0
ENDBLK
  5
1EB
330
E9
100
AcDbEntity
  8
0
100
AcDbBlockEnd
  0
BLOCK
  5
1EF
330
1EC
100
AcDbEntity
  8
0
100
AcDbBlockBegin
  2
_SE_FILLED
 70
     0
 71
     0
 10
0.0
 20
0.0
 30
0.0
  3
_SE_FILLED
  1

  0
SOLID
  5
1ED
330
1EC
100
AcDbEntity
  8
0
100
AcDbTrace
 10
0.0
 20
0.0
 30
0.0
 11
-1.0
 21
-0.1665
 31
0.0
 12
-1.0
 22
0.1665
 32
0.0
 13
0.0
 23
0.0
 33
0.0
  0
LINE
  5
1EE
330
1EC
100
AcDbEntity
  8
0
100
AcDbLine
 10
0.0
 20
0.0
 30
0.0
 11
-1.0
 21
0.0
 31
0.0
  0
ENDBLK
  5
1F0
330
1EC
100
AcDbEntity
  8
0
100
AcDbBlockEnd
  0
BLOCK
  5
1F4
330
1F3
100
AcDbEntity
  8
0
100
AcDbBlockBegin
  2
_OBLIQUE
 70
     0
 71
     0
 10
0.0
 20
0.0
 30
0.0
  3
_OBLIQUE
  1

  0
LINE
  5
1F6
330
1F3
100
AcDbEntity
  8
0
  6
BYBLOCK
 62
     0
100
AcDbLine
 10
-0.5
 20
-0.5
 30
0.0
 11
0.5
 21
0.5
 31
0.0
  0
ENDBLK
  5
1F5
330
1F3
100
AcDbEntity
  8
0
100
AcDbBlockEnd
  0
BLOCK
  5
1F8
330
1F7
100
AcDbEntity
  8
0
100
AcDbBlockBegin
  2
_DOT
 70
     0
 71
     0
 10
0.0
 20
0.0
 30
0.0
  3
_DOT
  1

  0
LWPOLYLINE
  5
1FA
330
1F7
100
AcDbEntity
  8
0
  6
BYBLOCK
 62
     0
100
AcDbPolyline
 90
        2
 70
     1
 43
0.5
 10
-0.25
 20
0.0
 42
1.0
 10
0.25
 20
0.0
 42
1.0
  0
LINE
  5
1FB
330
1F7
100
AcDbEntity
  8
0
  6
BYBLOCK
 62
     0
100
AcDbLine
 10
-0.5
 20
0.0
 30
0.0
 11
-1.0
 21
0.0
 31
0.0
  0
ENDBLK
  5
1F9
330
1F7
100
AcDbEntity
  8
0
100
AcDbBlockEnd
  0
BLOCK
  5
205
330
1FD
100
AcDbEntity
  8
0
100
AcDbBlockBegin
  2
DMBLK71
 70
     0
 71
     0
 10
0.0
 20
0.0
 30
0.0
  3
DMBLK71
  1

  0
HATCH
  5
1FE
330
1FD
100
AcDbEntity
  8
DEFAULT
  6
CONTINUOUS
 62
   136
100
AcDbHatch
 10
0.0
 20
0.0
 30
0.0
210
0.0
220
0.0
230
1.0
  2
SOLID
 70
     1
 71
     0
 91
        1
 92
        1
 93
        3
 72
     1
 10
12.64508020724435
 20
10.46795913358443
 11
12.31174687793941
 21
10.46795913358443
 72
     1
 10
12.31174687793941
 20
10.46795913358443
 11
12.47841354259188
 21
9.467959145669626
 72
     1
 10
12.47841354259188
 20
9.467959145669628
 11
12.64508020724435
 21
10.46795913358443
 97
        0
 75
     0
 76
     1
 98
        0
  0
HATCH
  5
1FF
330
1FD
100
AcDbEntity
  8
DEFAULT
  6
CONTINUOUS
 62
   136
100
AcDbHatch
 10
0.0
 20
0.0
 30
0.0
210
0.0
220
0.0
230
1.0
  2
SOLID
 70
     1
 71
     0
 91
        1
 92
        1
 93
        3
 72
     1
 10
12.64508020724435
 20
16.21795915775482
 11
12.47841354259188
 21
17.21795914566962
 72
     1
 10
12.47841354259188
 20
17.21795914566962
 11
12.31174687793941
 21
16.21795915775482
 72
     1
 10
12.31174687793941
 20
16.21795915775482
 11
12.64508020724435
 21
16.21795915775482
 97
        0
 75
     0
 76
     1
 98
        0
  0
LINE
  5
200
330
1FD
100
AcDbEntity
  8
DEFAULT
  6
CONTINUOUS
 62
     7
100
AcDbLine
 10
6.5837567948
 20
9.4679591457
 30
0.0
 11
12.9784135365
 21
9.4679591457
 31
0.0
  0
LINE
  5
201
330
1FD
100
AcDbEntity
  8
DEFAULT
  6
CONTINUOUS
 62
     7
100
AcDbLine
 10
6.5837567948
 20
17.2179591457
 30
0.0
 11
12.9784135365
 21
17.2179591457
 31
0.0
  0
LINE
  5
202
330
1FD
100
AcDbEntity
  8
DEFAULT
  6
CONTINUOUS
 62
     7
100
AcDbLine
 10
12.4784135426
 20
9.4679591457
 30
0.0
 11
12.4784135426
 21
12.4929591073
 31
0.0
  0
LINE
  5
203
330
1FD
100
AcDbEntity
  8
DEFAULT
  6
CONTINUOUS
 62
     7
100
AcDbLine
 10
12.4784135426
 20
14.1929591841
 30
0.0
 11
12.4784135426
 21
17.2179591457
 31
0.0
  0
TEXT
  5
204
330
1FD
100
AcDbEntity
  8
DEFAULT
  6
CONTINUOUS
 62
     7
100
AcDbText
 10
10.9131961513
 20
12.8429591813
 30
0.0
 40
1.0
  1
7 3/4
  7
SEACAD_ARIAL_TTF
 11
10.9131961513
 21
13.8429591813
 31
0.0
100
AcDbText
 73
     3
  0
ENDBLK
  5
206
330
1FD
100
AcDbEntity
  8
0
100
AcDbBlockEnd
  0
BLOCK
  5
210
330
208
100
AcDbEntity
  8
0
100
AcDbBlockBegin
  2
DMBLK72
 70
     0
 71
     0
 10
0.0
 20
0.0
 30
0.0
  3
DMBLK72
  1

  0
HATCH
  5
209
330
208
100
AcDbEntity
  8
DEFAULT
  6
CONTINUOUS
 62
   136
100
AcDbHatch
 10
0.0
 20
0.0
 30
0.0
210
0.0
220
0.0
230
1.0
  2
SOLID
 70
     1
 71
     0
 91
        1
 92
        1
 93
        3
 72
     1
 10
12.51632667018252
 20
2.586250163055583
 11
12.34966000553005
 21
3.586250150970389
 72
     1
 10
12.34966000553005
 20
3.586250150970389
 11
12.18299334087758
 21
2.586250163055583
 72
     1
 10
12.18299334087758
 20
2.586250163055583
 11
12.51632667018252
 21
2.586250163055583
 97
        0
 75
     0
 76
     1
 98
        0
  0
HATCH
  5
20A
330
208
100
AcDbEntity
  8
DEFAULT
  6
CONTINUOUS
 62
   136
100
AcDbHatch
 10
0.0
 20
0.0
 30
0.0
210
0.0
220
0.0
230
1.0
  2
SOLID
 70
     1
 71
     0
 91
        1
 92
        1
 93
        3
 72
     1
 10
12.51632667018252
 20
5.741250138885194
 11
12.18299334087758
 21
5.741250138885194
 72
     1
 10
12.18299334087758
 20
5.741250138885194
 11
12.34966000553005
 21
4.741250150970387
 72
     1
 10
12.34966000553005
 20
4.741250150970388
 11
12.51632667018252
 21
5.741250138885195
 97
        0
 75
     0
 76
     1
 98
        0
  0
LINE
  5
20B
330
208
100
AcDbEntity
  8
DEFAULT
  6
CONTINUOUS
 62
     7
100
AcDbLine
 10
9.4432688871
 20
3.586250151
 30
0.0
 11
12.8496599995
 21
3.586250151
 31
0.0
  0
LINE
  5
20C
330
208
100
AcDbEntity
  8
DEFAULT
  6
CONTINUOUS
 62
     7
100
AcDbLine
 10
9.9239266344
 20
4.741250151
 30
0.0
 11
12.8496599995
 21
4.741250151
 31
0.0
  0
LINE
  5
20D
330
208
100
AcDbEntity
  8
DEFAULT
  6
CONTINUOUS
 62
     7
100
AcDbLine
 10
12.3496600055
 20
1.5862501751
 30
0.0
 11
12.3496600055
 21
3.586250151
 31
0.0
  0
LINE
  5
20E
330
208
100
AcDbEntity
  8
DEFAULT
  6
CONTINUOUS
 62
     7
100
AcDbLine
 10
12.3496600055
 20
4.741250151
 30
0.0
 11
12.3496600055
 21
6.7412501268
 31
0.0
  0
TEXT
  5
20F
330
208
100
AcDbEntity
  8
DEFAULT
  6
CONTINUOUS
 62
     7
100
AcDbText
 10
10.7844426142
 20
3.663750153
 30
0.0
 40
1.0
  1
1 1/8
  7
SEACAD_ARIAL_TTF
 11
10.7844426142
 21
4.663750153
 31
0.0
100
AcDbText
 73
     3
  0
ENDBLK
  5
211
330
208
100
AcDbEntity
  8
0
100
AcDbBlockEnd
  0
ENDSEC
  0
SECTION
  2
ENTITIES
  0
INSERT
  5
2C
330
1F
100
AcDbEntity
  8
DEFAULT
100
AcDbBlockReference
  2
SE
 10
0.0
 20
0.0
 30
0.0
  0
INSERT
  5
81
330
1F
100
AcDbEntity
  8
DEFAULT
100
AcDbBlockReference
  2
SE1
 10
0.0
 20
0.0
 30
0.0
  0
INSERT
  5
EA
330
1F
100
AcDbEntity
  8
DEFAULT
100
AcDbBlockReference
  2
SE2
 10
0.0
 20
0.0
 30
0.0
  0
DIMENSION
  5
1FC
330
1F
100
AcDbEntity
  8
DEFAULT
  6
CONTINUOUS
 62
     7
100
AcDbDimension
  2
DMBLK71
 10
12.4784135426
 20
9.4679591457
 30
0.0
 11
12.4784135426
 21
13.3429591813
 31
0.0
 70
   161
  1
\A1;<>
  3
FRACTION
100
AcDbAlignedDimension
 13
6.0837568009
 23
9.4679591457
 33
0.0
 14
6.0837568009
 24
17.2179591457
 34
0.0
  0
DIMENSION
  5
207
330
1F
100
AcDbEntity
  8
DEFAULT
  6
CONTINUOUS
 62
     7
100
AcDbDimension
  2
DMBLK72
 10
12.3496600055
 20
4.741250151
 30
0.0
 11
12.3496600055
 21
4.163750153
 31
0.0
 70
   160
  1
\A1;<>
  3
FRACTION
100
AcDbAlignedDimension
 13
8.6722845669
 23
3.586250151
 33
0.0
 14
9.4239266405
 24
4.741250151
 34
0.0
 50
90.0
100
AcDbRotatedDimension
  0
ENDSEC
  0
SECTION
  2
OBJECTS
  0
DICTIONARY
  5
C
330
0
100
AcDbDictionary
  3
ACAD_GROUP
350
D
  3
ACAD_LAYOUT
350
1A
  3
ACAD_MLINESTYLE
350
17
  3
ACAD_PLOTSETTINGS
350
19
  3
ACDBHEADERROUNDTRIPXREC
350
212
  0
DICTIONARY
  5
D
102
{ACAD_REACTORS
330
C
102
}
330
C
100
AcDbDictionary
  0
DICTIONARY
  5
1A
102
{ACAD_REACTORS
330
C
102
}
330
C
100
AcDbDictionary
  0
DICTIONARY
  5
17
102
{ACAD_REACTORS
330
C
102
}
330
C
100
AcDbDictionary
  3
STANDARD
350
18
  0
DICTIONARY
  5
19
102
{ACAD_REACTORS
330
C
102
}
330
C
100
AcDbDictionary
  0
DICTIONARY
  5
212
102
{ACAD_REACTORS
330
C
102
}
330
C
100
AcDbDictionary
  3
CEPSNTYPE
350
21B
  3
DIMSTYLEDATA
350
231
  3
FINGERPRINTGUID
350
21C
  3
HYPERLINKBASE
350
215
  3
INSUNITS
350
21A
  3
LAYOUTDICT
350
217
  3
LWETCUNION
350
219
  3
PLOTSETDICT
350
218
  3
PSVPSCALE
350
21E
  3
PUCSBASE
350
221
  3
PUCSORGBACK
350
227
  3
PUCSORGBOTTOM
350
223
  3
PUCSORGFRONT
350
226
  3
PUCSORGLEFT
350
224
  3
PUCSORGRIGHT
350
225
  3
PUCSORGTOP
350
222
  3
PUCSORTHOREF
350
21F
  3
PUCSORTHOVIEW
350
220
  3
STYLESHEET
350
216
  3
TSTACKALIGN
350
213
  3
TSTACKSIZE
350
214
  3
UCSBASE
350
22A
  3
UCSORGBACK
350
230
  3
UCSORGBOTTOM
350
22C
  3
UCSORGFRONT
350
22F
  3
UCSORGLEFT
350
22D
  3
UCSORGRIGHT
350
22E
  3
UCSORGTOP
350
22B
  3
UCSORTHOREF
350
228
  3
UCSORTHOVIEW
350
229
  3
VERSIONGUID
350
21D
  0
MLINESTYLE
  5
18
102
{ACAD_REACTORS
330
17
102
}
330
17
100
AcDbMlineStyle
  2
Standard
 70
     0
  3

 62
   256
 51
90.0
 52
90.0
 71
     2
 49
0.5
 62
   256
  6
BYLAYER
 49
-0.5
 62
   256
  6
BYLAYER
  0
XRECORD
  5
21B
102
{ACAD_REACTORS
330
212
102
}
330
212
100
AcDbXrecord
 90
        0
  0
XRECORD
  5
231
102
{ACAD_REACTORS
330
212
102
}
330
212
100
AcDbXrecord
1000
DSTYLE
1002
{
1070
   340
340
11
1002
}
  0
XRECORD
  5
21C
102
{ACAD_REACTORS
330
212
102
}
330
212
100
AcDbXrecord
  1
{BE60D6EF-9F78-4C88-9375-CB5E9E1FB4E4}
  0
XRECORD
  5
215
102
{ACAD_REACTORS
330
212
102
}
330
212
100
AcDbXrecord
  1

  0
XRECORD
  5
21A
102
{ACAD_REACTORS
330
212
102
}
330
212
100
AcDbXrecord
 90
        1
  0
XRECORD
  5
217
102
{ACAD_REACTORS
330
212
102
}
330
212
100
AcDbXrecord
340
1A
  0
XRECORD
  5
219
102
{ACAD_REACTORS
330
212
102
}
330
212
100
AcDbXrecord
 90
    10781
  0
XRECORD
  5
218
102
{ACAD_REACTORS
330
212
102
}
330
212
100
AcDbXrecord
340
19
  0
XRECORD
  5
21E
102
{ACAD_REACTORS
330
212
102
}
330
212
100
AcDbXrecord
 40
0.0
  0
XRECORD
  5
221
102
{ACAD_REACTORS
330
212
102
}
330
212
100
AcDbXrecord
340
0
  0
XRECORD
  5
227
102
{ACAD_REACTORS
330
212
102
}
330
212
100
AcDbXrecord
 10
0.0
 20
0.0
 30
0.0
  0
XRECORD
  5
223
102
{ACAD_REACTORS
330
212
102
}
330
212
100
AcDbXrecord
 10
0.0
 20
0.0
 30
0.0
  0
XRECORD
  5
226
102
{ACAD_REACTORS
330
212
102
}
330
212
100
AcDbXrecord
 10
0.0
 20
0.0
 30
0.0
  0
XRECORD
  5
224
102
{ACAD_REACTORS
330
212
102
}
330
212
100
AcDbXrecord
 10
0.0
 20
0.0
 30
0.0
  0
XRECORD
  5
225
102
{ACAD_REACTORS
330
212
102
}
330
212
100
AcDbXrecord
 10
0.0
 20
0.0
 30
0.0
  0
XRECORD
  5
222
102
{ACAD_REACTORS
330
212
102
}
330
212
100
AcDbXrecord
 10
0.0
 20
0.0
 30
0.0
  0
XRECORD
  5
21F
102
{ACAD_REACTORS
330
212
102
}
330
212
100
AcDbXrecord
340
0
  0
XRECORD
  5
220
102
{ACAD_REACTORS
330
212
102
}
330
212
100
AcDbXrecord
 70
     0
  0
XRECORD
  5
216
102
{ACAD_REACTORS
330
212
102
}
330
212
100
AcDbXrecord
  1

  0
XRECORD
  5
213
102
{ACAD_REACTORS
330
212
102
}
330
212
100
AcDbXrecord
 90
        1
  0
XRECORD
  5
214
102
{ACAD_REACTORS
330
212
102
}
330
212
100
AcDbXrecord
 90
       70
  0
XRECORD
  5
22A
102
{ACAD_REACTORS
330
212
102
}
330
212
100
AcDbXrecord
340
0
  0
XRECORD
  5
230
102
{ACAD_REACTORS
330
212
102
}
330
212
100
AcDbXrecord
 10
0.0
 20
0.0
 30
0.0
  0
XRECORD
  5
22C
102
{ACAD_REACTORS
330
212
102
}
330
212
100
AcDbXrecord
 10
0.0
 20
0.0
 30
0.0
  0
XRECORD
  5
22F
102
{ACAD_REACTORS
330
212
102
}
330
212
100
AcDbXrecord
 10
0.0
 20
0.0
 30
0.0
  0
XRECORD
  5
22D
102
{ACAD_REACTORS
330
212
102
}
330
212
100
AcDbXrecord
 10
0.0
 20
0.0
 30
0.0
  0
XRECORD
  5
22E
102
{ACAD_REACTORS
330
212
102
}
330
212
100
AcDbXrecord
 10
0.0
 20
0.0
 30
0.0
  0
XRECORD
  5
22B
102
{ACAD_REACTORS
330
212
102
}
330
212
100
AcDbXrecord
 10
0.0
 20
0.0
 30
0.0
  0
XRECORD
  5
228
102
{ACAD_REACTORS
330
212
102
}
330
212
100
AcDbXrecord
340
0
  0
XRECORD
  5
229
102
{ACAD_REACTORS
330
212
102
}
330
212
100
AcDbXrecord
 70
     0
  0
XRECORD
  5
21D
102
{ACAD_REACTORS
330
212
102
}
330
212
100
AcDbXrecord
  1
{FAEB1C32-E019-11D5-929B-00C0DF256EC4}
  0
ENDSEC
  0
EOF
