  0
SECTION
  2
HEADER
  9
$ACADVER
  1
AC1015
  9
$ACADMAINTVER
 70
     6
  9
$DWGCODEPAGE
  3
ANSI_936
  9
$INSBASE
 10
0.0
 20
0.0
 30
0.0
  9
$EXTMIN
 10
0.0
 20
0.0
 30
0.0
  9
$EXTMAX
 10
8.5
 20
11.0
 30
0.0
  9
$LIMMIN
 10
0.0
 20
0.0
  9
$LIMMAX
 10
12.0
 20
9.0
  9
$ORTHOMODE
 70
     0
  9
$REGENMODE
 70
     1
  9
$FILLMODE
 70
     1
  9
$QTEXTMODE
 70
     0
  9
$MIRRTEXT
 70
     1
  9
$LTSCALE
 40
1.0
  9
$ATTMODE
 70
     1
  9
$TEXTSIZE
 40
0.25
  9
$TRACEWID
 40
0.05
  9
$TEXTSTYLE
  7
Standard
  9
$CLAYER
  8
0
  9
$CELTYPE
  6
ByLayer
  9
$CECOLOR
 62
   256
  9
$CELTSCALE
 40
1.0
  9
$DISPSILH
 70
     0
  9
$DIMSCALE
 40
1.0
  9
$DIMASZ
 40
0.13
  9
$DIMEXO
 40
0.05
  9
$DIMDLI
 40
0.38
  9
$DIMRND
 40
0.0
  9
$DIMDLE
 40
0.0
  9
$DIMEXE
 40
0.125
  9
$DIMTP
 40
0.0
  9
$DIMTM
 40
0.0
  9
$DIMTXT
 40
0.1388888889
  9
$DIMCEN
 40
0.09
  9
$DIMTSZ
 40
0.0
  9
$DIMTOL
 70
     0
  9
$DIMLIM
 70
     0
  9
$DIMTIH
 70
     1
  9
$DIMTOH
 70
     1
  9
$DIMSE1
 70
     0
  9
$DIMSE2
 70
     0
  9
$DIMTAD
 70
     0
  9
$DIMZIN
 70
     0
  9
$DIMBLK
  1

  9
$DIMASO
 70
     1
  9
$DIMSHO
 70
     1
  9
$DIMPOST
  1

  9
$DIMAPOST
  1

  9
$DIMALT
 70
     0
  9
$DIMALTD
 70
     2
  9
$DIMALTF
 40
25.4
  9
$DIMLFAC
 40
1.0
  9
$DIMTOFL
 70
     0
  9
$DIMTVP
 40
0.0
  9
$DIMTIX
 70
     0
  9
$DIMSOXD
 70
     0
  9
$DIMSAH
 70
     0
  9
$DIMBLK1
  1

  9
$DIMBLK2
  1

  9
$DIMSTYLE
  2
Standard
  9
$DIMCLRD
 70
     0
  9
$DIMCLRE
 70
     0
  9
$DIMCLRT
 70
     0
  9
$DIMTFAC
 40
1.0
  9
$DIMGAP
 40
0.06
  9
$DIMJUST
 70
     0
  9
$DIMSD1
 70
     0
  9
$DIMSD2
 70
     0
  9
$DIMTOLJ
 70
     1
  9
$DIMTZIN
 70
     0
  9
$DIMALTZ
 70
     0
  9
$DIMALTTZ
 70
     0
  9
$DIMUPT
 70
     0
  9
$DIMDEC
 70
     3
  9
$DIMTDEC
 70
     3
  9
$DIMALTU
 70
     2
  9
$DIMALTTD
 70
     2
  9
$DIMTXSTY
  7
Standard
  9
$DIMAUNIT
 70
     0
  9
$DIMADEC
 70
     0
  9
$DIMALTRND
 40
0.0
  9
$DIMAZIN
 70
     0
  9
$DIMDSEP
 70
    46
  9
$DIMATFIT
 70
     3
  9
$DIMFRAC
 70
     0
  9
$DIMLDRBLK
  1

  9
$DIMLUNIT
 70
     2
  9
$DIMLWD
 70
    -2
  9
$DIMLWE
 70
    -2
  9
$DIMTMOVE
 70
     0
  9
$LUNITS
 70
     2
  9
$LUPREC
 70
     3
  9
$SKETCHINC
 40
0.1
  9
$FILLETRAD
 40
0.5
  9
$AUNITS
 70
     0
  9
$AUPREC
 70
     0
  9
$MENU
  1
.
  9
$ELEVATION
 40
0.0
  9
$PELEVATION
 40
0.0
  9
$THICKNESS
 40
0.0
  9
$LIMCHECK
 70
     0
  9
$CHAMFERA
 40
0.0
  9
$CHAMFERB
 40
0.0
  9
$CHAMFERC
 40
0.0
  9
$CHAMFERD
 40
0.0
  9
$SKPOLY
 70
     0
  9
$TDCREATE
 40
2457291.608355127
  9
$TDUCREATE
 40
2457291.275021794
  9
$TDUPDATE
 40
2457291.608355683
  9
$TDUUPDATE
 40
2457291.275022349
  9
$TDINDWG
 40
0.0000000116
  9
$TDUSRTIMER
 40
0.0000000116
  9
$USRTIMER
 70
     1
  9
$ANGBASE
 50
0.0
  9
$ANGDIR
 70
     0
  9
$PDMODE
 70
     0
  9
$PDSIZE
 40
-1.0
  9
$PLINEWID
 40
0.0
  9
$SPLFRAME
 70
     0
  9
$SPLINETYPE
 70
     6
  9
$SPLINESEGS
 70
     8
  9
$HANDSEED
  5
E4
  9
$SURFTAB1
 70
     6
  9
$SURFTAB2
 70
     6
  9
$SURFTYPE
 70
     6
  9
$SURFU
 70
     6
  9
$SURFV
 70
     6
  9
$UCSBASE
  2

  9
$UCSNAME
  2

  9
$UCSORG
 10
0.0
 20
0.0
 30
0.0
  9
$UCSXDIR
 10
1.0
 20
0.0
 30
0.0
  9
$UCSYDIR
 10
0.0
 20
1.0
 30
0.0
  9
$UCSORTHOREF
  2

  9
$UCSORTHOVIEW
 70
     0
  9
$UCSORGTOP
 10
0.0
 20
0.0
 30
0.0
  9
$UCSORGBOTTOM
 10
0.0
 20
0.0
 30
0.0
  9
$UCSORGLEFT
 10
0.0
 20
0.0
 30
0.0
  9
$UCSORGRIGHT
 10
0.0
 20
0.0
 30
0.0
  9
$UCSORGFRONT
 10
0.0
 20
0.0
 30
0.0
  9
$UCSORGBACK
 10
0.0
 20
0.0
 30
0.0
  9
$PUCSBASE
  2

  9
$PUCSNAME
  2

  9
$PUCSORG
 10
0.0
 20
0.0
 30
0.0
  9
$PUCSXDIR
 10
1.0
 20
0.0
 30
0.0
  9
$PUCSYDIR
 10
0.0
 20
1.0
 30
0.0
  9
$PUCSORTHOREF
  2

  9
$PUCSORTHOVIEW
 70
     0
  9
$PUCSORGTOP
 10
0.0
 20
0.0
 30
0.0
  9
$PUCSORGBOTTOM
 10
0.0
 20
0.0
 30
0.0
  9
$PUCSORGLEFT
 10
0.0
 20
0.0
 30
0.0
  9
$PUCSORGRIGHT
 10
0.0
 20
0.0
 30
0.0
  9
$PUCSORGFRONT
 10
0.0
 20
0.0
 30
0.0
  9
$PUCSORGBACK
 10
0.0
 20
0.0
 30
0.0
  9
$USERI1
 70
     0
  9
$USERI2
 70
     0
  9
$USERI3
 70
     0
  9
$USERI4
 70
     0
  9
$USERI5
 70
     0
  9
$USERR1
 40
0.0
  9
$USERR2
 40
0.0
  9
$USERR3
 40
0.0
  9
$USERR4
 40
0.0
  9
$USERR5
 40
0.0
  9
$WORLDVIEW
 70
     1
  9
$SHADEDGE
 70
     3
  9
$SHADEDIF
 70
    70
  9
$TILEMODE
 70
     0
  9
$MAXACTVP
 70
    64
  9
$PINSBASE
 10
0.0
 20
0.0
 30
0.0
  9
$PLIMCHECK
 70
     0
  9
$PEXTMIN
 10
0.0
 20
0.0
 30
0.0
  9
$PEXTMAX
 10
8.5
 20
11.0
 30
0.0
  9
$PLIMMIN
 10
0.0
 20
0.0
  9
$PLIMMAX
 10
8.5
 20
11.0
  9
$UNITMODE
 70
     0
  9
$VISRETAIN
 70
     1
  9
$PLINEGEN
 70
     0
  9
$PSLTSCALE
 70
     1
  9
$TREEDEPTH
 70
  3020
  9
$CMLSTYLE
  2
Standard
  9
$CMLJUST
 70
     0
  9
$CMLSCALE
 40
1.0
  9
$PROXYGRAPHICS
 70
     1
  9
$MEASUREMENT
 70
     0
  9
$CELWEIGHT
370
    -1
  9
$ENDCAPS
280
     0
  9
$JOINSTYLE
280
     0
  9
$LWDISPLAY
290
     1
  9
$INSUNITS
 70
     1
  9
$HYPERLINKBASE
  1

  9
$STYLESHEET
  1

  9
$XEDIT
290
     1
  9
$CEPSNTYPE
380
     0
  9
$PSTYLEMODE
290
     1
  9
$FINGERPRINTGUID
  2
{1159D14D-3F8D-4E0D-A3EC-C4DF09D18665}
  9
$VERSIONGUID
  2
{FAEB1C32-E019-11D5-929B-00C0DF256EC4}
  9
$EXTNAMES
290
     1
  9
$PSVPSCALE
 40
0.0
  9
$OLESTARTUP
290
     0
  0
ENDSEC
  0
SECTION
  2
CLASSES
  0
CLASS
  1
ACDBDICTIONARYWDFLT
  2
AcDbDictionaryWithDefault
  3
ObjectDBX Classes
 90
        0
280
     0
281
     0
  0
CLASS
  1
VISUALSTYLE
  2
AcDbVisualStyle
  3
ObjectDBX Classes
 90
     4095
280
     0
281
     0
  0
CLASS
  1
MATERIAL
  2
AcDbMaterial
  3
ObjectDBX Classes
 90
     1153
280
     0
281
     0
  0
CLASS
  1
SCALE
  2
AcDbScale
  3
ObjectDBX Classes
 90
     1153
280
     0
281
     0
  0
CLASS
  1
SUN
  2
AcDbSun
  3
SCENEOE
 90
     1153
280
     0
281
     0
  0
CLASS
  1
ACDBPLACEHOLDER
  2
AcDbPlaceHolder
  3
ObjectDBX Classes
 90
        0
280
     0
281
     0
  0
CLASS
  1
LAYOUT
  2
AcDbLayout
  3
ObjectDBX Classes
 90
        0
280
     0
281
     0
  0
ENDSEC
  0
SECTION
  2
TABLES
  0
TABLE
  2
VPORT
  5
8
330
0
100
AcDbSymbolTable
 70
     1
  0
VPORT
  5
29
330
8
100
AcDbSymbolTableRecord
100
AcDbViewportTableRecord
  2
*Active
 70
     0
 10
0.0
 20
0.0
 11
1.0
 21
1.0
 12
4.25
 22
5.5
 13
0.0
 23
0.0
 14
0.5
 24
0.5
 15
0.5
 25
0.5
 16
0.0
 26
0.0
 36
1.0
 17
0.0
 27
0.0
 37
0.0
 40
11.0
 41
0.7727272727
 42
50.0
 43
0.0
 44
0.0
 50
0.0
 51
0.0
 71
     0
 72
  2000
 73
     1
 74
     3
 75
     0
 76
     0
 77
     0
 78
     0
281
     0
 65
     1
110
0.0
120
0.0
130
0.0
111
1.0
121
0.0
131
0.0
112
0.0
122
1.0
132
0.0
 79
     0
146
0.0
  0
ENDTAB
  0
TABLE
  2
LTYPE
  5
5
330
0
100
AcDbSymbolTable
 70
     6
  0
LTYPE
  5
14
330
5
100
AcDbSymbolTableRecord
100
AcDbLinetypeTableRecord
  2
ByBlock
 70
     0
  3

 72
    65
 73
     0
 40
0.0
  0
LTYPE
  5
15
330
5
100
AcDbSymbolTableRecord
100
AcDbLinetypeTableRecord
  2
ByLayer
 70
     0
  3

 72
    65
 73
     0
 40
0.0
  0
LTYPE
  5
16
330
5
100
AcDbSymbolTableRecord
100
AcDbLinetypeTableRecord
  2
Continuous
 70
     0
  3
Solid line
 72
    65
 73
     0
 40
0.0
  0
LTYPE
  5
6A
330
5
100
AcDbSymbolTableRecord
100
AcDbLinetypeTableRecord
  2
HIDDEN
 70
     0
  3
Hidden __ __ __ __ __ __ __ __ __ __ __ __ __ __
 72
    65
 73
     2
 40
0.075
 49
0.05
 74
     0
 49
-0.025
 74
     0
  0
LTYPE
  5
6B
330
5
100
AcDbSymbolTableRecord
100
AcDbLinetypeTableRecord
  2
PHANTOM
 70
     0
  3
Phantom ______  __  __  ______  __  __  ______
 72
    65
 73
     6
 40
0.5
 49
0.25
 74
     0
 49
-0.05
 74
     0
 49
0.05
 74
     0
 49
-0.05
 74
     0
 49
0.05
 74
     0
 49
-0.05
 74
     0
  0
LTYPE
  5
6C
330
5
100
AcDbSymbolTableRecord
100
AcDbLinetypeTableRecord
  2
CENTER
 70
     0
  3
Center ____ _ ____ _ ____ _ ____ _ ____ _ ____
 72
    65
 73
     4
 40
0.4
 49
0.25
 74
     0
 49
-0.05
 74
     0
 49
0.05
 74
     0
 49
-0.05
 74
     0
  0
LTYPE
  5
6D
330
5
100
AcDbSymbolTableRecord
100
AcDbLinetypeTableRecord
  2
CENTERX2
 70
     0
  3
Center (2x) ________  __  ________  __  _____
 72
    65
 73
     4
 40
0.8
 49
0.5
 74
     0
 49
-0.1
 74
     0
 49
0.1
 74
     0
 49
-0.1
 74
     0
  0
LTYPE
  5
6E
330
5
100
AcDbSymbolTableRecord
100
AcDbLinetypeTableRecord
  2
DOT2
 70
     0
  3
Dot (.5x) ........................................
 72
    65
 73
     2
 40
0.025
 49
0.0
 74
     0
 49
-0.025
 74
     0
  0
ENDTAB
  0
TABLE
  2
LAYER
  5
2
330
0
100
AcDbSymbolTable
 70
     8
  0
LAYER
  5
10
330
2
100
AcDbSymbolTableRecord
100
AcDbLayerTableRecord
  2
0
 70
     0
 62
     7
  6
Continuous
370
    -3
390
F
  0
LAYER
  5
6F
330
2
100
AcDbSymbolTableRecord
100
AcDbLayerTableRecord
  2
FORMAT
 70
     0
 62
     7
  6
Continuous
370
    -3
390
F
  0
LAYER
  5
70
330
2
100
AcDbSymbolTableRecord
100
AcDbLayerTableRecord
  2
DEFAULT
 70
     0
 62
   179
  6
Continuous
370
    -3
390
F
  0
LAYER
  5
71
330
2
100
AcDbSymbolTableRecord
100
AcDbLayerTableRecord
  2
INSPECTION_TAGS
 70
     0
 62
     7
  6
Continuous
370
    -3
390
F
  0
LAYER
  5
72
330
2
100
AcDbSymbolTableRecord
100
AcDbLayerTableRecord
  2
REVISIONS
 70
     0
 62
     7
  6
Continuous
370
    -3
390
F
  0
LAYER
  5
73
330
2
100
AcDbSymbolTableRecord
100
AcDbLayerTableRecord
  2
DIMENSIONS_&_ANNOTATIONS
 70
     0
 62
     7
  6
Continuous
370
    -3
390
F
  0
LAYER
  5
74
330
2
100
AcDbSymbolTableRecord
100
AcDbLayerTableRecord
  2
HIDDEN
 70
     0
 62
    -7
  6
Continuous
370
    -3
390
F
  0
LAYER
  5
75
330
2
100
AcDbSymbolTableRecord
100
AcDbLayerTableRecord
  2
DIMENSION_&_ANNOTATIONS
 70
     0
 62
     7
  6
Continuous
370
    -3
390
F
  0
ENDTAB
  0
TABLE
  2
STYLE
  5
3
330
0
100
AcDbSymbolTable
 70
     3
  0
STYLE
  5
11
330
3
100
AcDbSymbolTableRecord
100
AcDbTextStyleTableRecord
  2
Standard
 70
     0
 40
0.0
 41
1.0
 50
0.0
 71
     0
 42
0.25
  3
txt
  4

  0
STYLE
  5
7B
330
3
100
AcDbSymbolTableRecord
100
AcDbTextStyleTableRecord
  2
SLDTEXTSTYLE0
 70
     0
 40
0.0
 41
0.605
 50
0.0
 71
     0
 42
0.25
  3
TXT
  4

  0
STYLE
  5
7D
330
3
100
AcDbSymbolTableRecord
100
AcDbTextStyleTableRecord
  2
SLDTEXTSTYLE1
 70
     0
 40
0.0
 41
0.605
 50
0.0
 71
     0
 42
0.25
  3
TXT
  4
bigfont
  0
ENDTAB
  0
TABLE
  2
VIEW
  5
6
330
0
100
AcDbSymbolTable
 70
     0
  0
ENDTAB
  0
TABLE
  2
UCS
  5
7
330
0
100
AcDbSymbolTable
 70
     0
  0
ENDTAB
  0
TABLE
  2
APPID
  5
9
330
0
100
AcDbSymbolTable
 70
     1
  0
APPID
  5
12
330
9
100
AcDbSymbolTableRecord
100
AcDbRegAppTableRecord
  2
ACAD
 70
     0
  0
ENDTAB
  0
TABLE
  2
DIMSTYLE
  5
A
330
0
100
AcDbSymbolTable
 70
     4
100
AcDbDimStyleTable
  0
DIMSTYLE
105
27
330
A
100
AcDbSymbolTableRecord
100
AcDbDimStyleTableRecord
  2
Standard
 70
     0
178
     0
340
11
  0
DIMSTYLE
105
8D
102
{ACAD_REACTORS
330
8C
102
}
330
A
100
AcDbSymbolTableRecord
100
AcDbDimStyleTableRecord
  2
SLDDIMSTYLE0
 70
     0
 41
0.13
 44
0.0
 45
0.000000001
 78
    12
 79
     3
140
0.1011149089
147
0.0252787272
172
     1
173
     1
178
     0
271
     6
272
     3
276
     2
277
     5
284
    12
289
     0
340
7B
  0
DIMSTYLE
105
A8
102
{ACAD_REACTORS
330
A7
102
}
330
A
100
AcDbSymbolTableRecord
100
AcDbDimStyleTableRecord
  2
SLDDIMSTYLE1
 70
     0
 41
0.13
 44
0.0
 45
0.000000001
 78
    12
 79
     3
140
0.1011149089
147
0.0252787272
173
     1
178
     0
271
     3
272
     3
276
     2
277
     5
284
    12
340
7B
  0
DIMSTYLE
105
B4
102
{ACAD_REACTORS
330
B3
102
}
330
A
100
AcDbSymbolTableRecord
100
AcDbDimStyleTableRecord
  2
SLDDIMSTYLE2
 70
     0
 41
0.13
 44
0.0
 45
0.000000001
 78
    12
 79
     3
140
0.1011149089
147
0.0252787272
173
     1
178
     0
271
     6
272
     3
276
     2
277
     5
284
    12
340
7B
  0
ENDTAB
  0
TABLE
  2
BLOCK_RECORD
  5
1
330
0
100
AcDbSymbolTable
 70
     5
  0
BLOCK_RECORD
  5
1F
330
1
100
AcDbSymbolTableRecord
100
AcDbBlockTableRecord
  2
*Model_Space
340
22
  0
BLOCK_RECORD
  5
1B
330
1
100
AcDbSymbolTableRecord
100
AcDbBlockTableRecord
  2
*Paper_Space
340
1E
  0
BLOCK_RECORD
  5
78
330
1
100
AcDbSymbolTableRecord
100
AcDbBlockTableRecord
  2
SW_NOTE_0
340
0
102
{BLKREFS
331
81
102
}
  0
BLOCK_RECORD
  5
8E
330
1
100
AcDbSymbolTableRecord
100
AcDbBlockTableRecord
  2
_D
340
0
  0
BLOCK_RECORD
  5
A9
330
1
100
AcDbSymbolTableRecord
100
AcDbBlockTableRecord
  2
_D_1
340
0
  0
BLOCK_RECORD
  5
B5
330
1
100
AcDbSymbolTableRecord
100
AcDbBlockTableRecord
  2
_D_2
340
0
  0
ENDTAB
  0
ENDSEC
  0
SECTION
  2
BLOCKS
  0
BLOCK
  5
20
330
1F
100
AcDbEntity
  8
0
100
AcDbBlockBegin
  2
*Model_Space
 70
     0
 10
0.0
 20
0.0
 30
0.0
  3
*Model_Space
  1
*Model_Space
  0
ENDBLK
  5
21
330
1F
100
AcDbEntity
  8
0
100
AcDbBlockEnd
  0
BLOCK
  5
1C
330
1B
100
AcDbEntity
 67
     1
  8
0
100
AcDbBlockBegin
  2
*Paper_Space
 70
     0
 10
0.0
 20
0.0
 30
0.0
  3
*Paper_Space
  1
*Paper_Space
  0
ENDBLK
  5
1D
330
1B
100
AcDbEntity
 67
     1
  8
0
100
AcDbBlockEnd
  0
BLOCK
  5
79
330
78
100
AcDbEntity
  8
0
100
AcDbBlockBegin
  2
SW_NOTE_0
 70
     0
 10
0.0
 20
0.0
 30
0.0
  3
SW_NOTE_0
  1
SW_NOTE_0
  0
MTEXT
  5
7C
330
78
100
AcDbEntity
  8
DEFAULT
 62
     0
100
AcDbMText
 10
0.6171875
 20
0.3222669349
 30
0.0
 40
0.25
 41
0.0
 71
     2
 72
     1
  1
Legrand
  7
SLDTEXTSTYLE0
 73
     1
 44
1.0
  0
MTEXT
  5
7E
330
78
100
AcDbEntity
  8
DEFAULT
 62
     0
100
AcDbMText
 10
0.5754335286
 20
-0.0006497347
 30
0.0
 40
0.25
 41
0.0
 71
     2
 72
     1
  1
SYSTEM: Evolution\U+2122 Series Poke-Thru Devices
  7
SLDTEXTSTYLE1
 73
     1
 44
1.0
  0
MTEXT
  5
7F
330
78
100
AcDbEntity
  8
DEFAULT
 62
     0
100
AcDbMText
 10
0.5953125785
 20
-0.3235664043
 30
0.0
 40
0.25
 41
0.0
 71
     2
 72
     1
  1
Catalog Number: 10BLH
  7
SLDTEXTSTYLE0
 73
     1
 44
1.0
  0
MTEXT
  5
80
330
78
100
AcDbEntity
  8
DEFAULT
 62
     0
100
AcDbMText
 10
0.6161458463
 20
-0.646483074
 30
0.0
 40
0.25
 41
0.0
 71
     2
 72
     1
  1
9/17/2015
  7
SLDTEXTSTYLE0
 73
     1
 44
1.0
  0
ENDBLK
  5
7A
330
78
100
AcDbEntity
  8
0
100
AcDbBlockEnd
  0
BLOCK
  5
8F
330
8E
100
AcDbEntity
  8
0
100
AcDbBlockBegin
  2
_D
 70
     0
 10
0.0
 20
0.0
 30
0.0
  3
_D
  1
_D
  0
SOLID
  5
91
330
8E
100
AcDbEntity
  8
DEFAULT
 62
     7
100
AcDbTrace
 10
0.7726574632
 20
4.1836927711
 30
0.0
 11
0.7926574632
 21
4.3136927711
 31
0.0
 12
0.7526574632
 22
4.3136927711
 32
0.0
 13
0.7526574632
 23
4.3136927711
 33
0.0
  0
SOLID
  5
92
330
8E
100
AcDbEntity
  8
DEFAULT
 62
     7
100
AcDbTrace
 10
0.7726574632
 20
4.1126927711
 30
0.0
 11
0.7526574632
 21
3.9826927711
 31
0.0
 12
0.7926574632
 22
3.9826927711
 32
0.0
 13
0.7926574632
 23
3.9826927711
 33
0.0
  0
LINE
  5
93
330
8E
100
AcDbEntity
  8
DEFAULT
 62
     7
100
AcDbLine
 10
0.2746829187
 20
4.3890922521
 30
0.0
 11
0.4585178
 21
4.3890922521
 31
0.0
  0
LINE
  5
94
330
8E
100
AcDbEntity
  8
DEFAULT
 62
     7
100
AcDbLine
 10
0.9154457831
 20
4.1836927711
 30
0.0
 11
0.6476574632
 21
4.1836927711
 31
0.0
  0
LINE
  5
95
330
8E
100
AcDbEntity
  8
DEFAULT
 62
     7
100
AcDbLine
 10
0.9154457831
 20
4.1126927711
 30
0.0
 11
0.6476574632
 21
4.1126927711
 31
0.0
  0
LINE
  5
96
330
8E
100
AcDbEntity
  8
DEFAULT
 62
     7
100
AcDbLine
 10
0.5226574632
 20
4.3787623883
 30
0.0
 11
0.7726574632
 21
4.3787623883
 31
0.0
  0
LINE
  5
97
330
8E
100
AcDbEntity
  8
DEFAULT
 62
     7
100
AcDbLine
 10
0.7726574632
 20
4.3787623883
 30
0.0
 11
0.7726574632
 21
4.1836927711
 31
0.0
  0
LINE
  5
98
330
8E
100
AcDbEntity
  8
DEFAULT
 62
     7
100
AcDbLine
 10
0.7726574632
 20
4.1126927711
 30
0.0
 11
0.7726574632
 21
3.8626927711
 31
0.0
  0
MTEXT
  5
99
330
8E
100
AcDbEntity
  8
DEFAULT
 62
     7
100
AcDbMText
 10
0.3280201108
 20
4.5145159727
 30
0.0
 40
0.1041666667
 41
0.0
 71
     1
 72
     1
  1
1
  7
SLDTEXTSTYLE0
 73
     1
 44
1.0
  0
MTEXT
  5
9A
330
8E
100
AcDbEntity
  8
DEFAULT
 62
     7
100
AcDbMText
 10
0.2894398624
 20
4.3726756967
 30
0.0
 40
0.1041666667
 41
0.0
 71
     1
 72
     1
  1
16
  7
SLDTEXTSTYLE0
 73
     1
 44
1.0
  0
MTEXT
  5
9B
330
8E
100
AcDbEntity
  8
DEFAULT
 62
     7
100
AcDbMText
 10
0.4732747437
 20
4.4362173739
 30
0.0
 40
0.1041666667
 41
0.0
 71
     1
 72
     1
  1
"
  7
SLDTEXTSTYLE0
 73
     1
 44
1.0
  0
ENDBLK
  5
90
330
8E
100
AcDbEntity
  8
0
100
AcDbBlockEnd
  0
BLOCK
  5
AA
330
A9
100
AcDbEntity
  8
0
100
AcDbBlockBegin
  2
_D_1
 70
     0
 10
0.0
 20
0.0
 30
0.0
  3
_D_1
  1
_D_1
  0
SOLID
  5
AC
330
A9
100
AcDbEntity
  8
DEFAULT
 62
     7
100
AcDbTrace
 10
2.9654457831
 20
9.7673706479
 30
0.0
 11
2.8354457831
 21
9.7873706479
 31
0.0
 12
2.8354457831
 22
9.7473706479
 32
0.0
 13
2.8354457831
 23
9.7473706479
 33
0.0
  0
SOLID
  5
AD
330
A9
100
AcDbEntity
  8
DEFAULT
 62
     7
100
AcDbTrace
 10
0.9654457831
 20
9.7673706479
 30
0.0
 11
1.0954457831
 21
9.7473706479
 31
0.0
 12
1.0954457831
 22
9.7873706479
 32
0.0
 13
1.0954457831
 23
9.7873706479
 33
0.0
  0
LINE
  5
AE
330
A9
100
AcDbEntity
  8
DEFAULT
 62
     7
100
AcDbLine
 10
2.9654457831
 20
8.7412289157
 30
0.0
 11
2.9654457831
 21
9.8923706479
 31
0.0
  0
LINE
  5
AF
330
A9
100
AcDbEntity
  8
DEFAULT
 62
     7
100
AcDbLine
 10
0.9654457831
 20
8.7412289157
 30
0.0
 11
0.9654457831
 21
9.8923706479
 31
0.0
  0
LINE
  5
B0
330
A9
100
AcDbEntity
  8
DEFAULT
 62
     7
100
AcDbLine
 10
2.9654457831
 20
9.7673706479
 30
0.0
 11
2.0287173914
 21
9.7673706479
 31
0.0
  0
LINE
  5
B1
330
A9
100
AcDbEntity
  8
DEFAULT
 62
     7
100
AcDbLine
 10
0.9654457831
 20
9.7673706479
 30
0.0
 11
1.9021741749
 21
9.7673706479
 31
0.0
  0
MTEXT
  5
B2
330
A9
100
AcDbEntity
  8
DEFAULT
 62
     7
100
AcDbMText
 10
1.9021741749
 20
9.8240057946
 30
0.0
 40
0.1041666667
 41
0.0
 71
     1
 72
     1
  1
2"
  7
SLDTEXTSTYLE0
 73
     1
 44
1.0
  0
ENDBLK
  5
AB
330
A9
100
AcDbEntity
  8
0
100
AcDbBlockEnd
  0
BLOCK
  5
B6
330
B5
100
AcDbEntity
  8
0
100
AcDbBlockBegin
  2
_D_2
 70
     0
 10
0.0
 20
0.0
 30
0.0
  3
_D_2
  1
_D_2
  0
SOLID
  5
B8
330
B5
100
AcDbEntity
  8
DEFAULT
 62
     7
100
AcDbTrace
 10
0.5717449957
 20
8.9012289157
 30
0.0
 11
0.5517449957
 21
8.7712289157
 31
0.0
 12
0.5917449957
 22
8.7712289157
 32
0.0
 13
0.5917449957
 23
8.7712289157
 33
0.0
  0
SOLID
  5
B9
330
B5
100
AcDbEntity
  8
DEFAULT
 62
     7
100
AcDbTrace
 10
0.5717449957
 20
6.1812289157
 30
0.0
 11
0.5917449957
 21
6.3112289157
 31
0.0
 12
0.5517449957
 22
6.3112289157
 32
0.0
 13
0.5517449957
 23
6.3112289157
 33
0.0
  0
LINE
  5
BA
330
B5
100
AcDbEntity
  8
DEFAULT
 62
     7
100
AcDbLine
 10
0.5322966923
 20
7.5515587795
 30
0.0
 11
0.6389710766
 21
7.5515587795
 31
0.0
  0
LINE
  5
BB
330
B5
100
AcDbEntity
  8
DEFAULT
 62
     7
100
AcDbLine
 10
1.1654457831
 20
8.9012289157
 30
0.0
 11
0.4467449957
 21
8.9012289157
 31
0.0
  0
LINE
  5
BC
330
B5
100
AcDbEntity
  8
DEFAULT
 62
     7
100
AcDbLine
 10
1.1654457831
 20
6.1812289157
 30
0.0
 11
0.4467449957
 21
6.1812289157
 31
0.0
  0
LINE
  5
BD
330
B5
100
AcDbEntity
  8
DEFAULT
 62
     7
100
AcDbLine
 10
0.5717449957
 20
8.9012289157
 30
0.0
 11
0.5717449957
 21
7.6815935
 31
0.0
  0
LINE
  5
BE
330
B5
100
AcDbEntity
  8
DEFAULT
 62
     7
100
AcDbLine
 10
0.5717449957
 20
6.1812289157
 30
0.0
 11
0.5717449957
 21
7.4008643313
 31
0.0
  0
MTEXT
  5
BF
330
B5
100
AcDbEntity
  8
DEFAULT
 62
     7
100
AcDbMText
 10
0.4403792516
 20
7.5986839012
 30
0.0
 40
0.1041666667
 41
0.0
 71
     1
 72
     1
  1
2
  7
SLDTEXTSTYLE0
 73
     1
 44
1.0
  0
MTEXT
  5
C0
330
B5
100
AcDbEntity
  8
DEFAULT
 62
     7
100
AcDbMText
 10
0.547053636
 20
7.6769825
 30
0.0
 40
0.1041666667
 41
0.0
 71
     1
 72
     1
  1
3
  7
SLDTEXTSTYLE0
 73
     1
 44
1.0
  0
MTEXT
  5
C1
330
B5
100
AcDbEntity
  8
DEFAULT
 62
     7
100
AcDbMText
 10
0.547053636
 20
7.535142224
 30
0.0
 40
0.1041666667
 41
0.0
 71
     1
 72
     1
  1
4
  7
SLDTEXTSTYLE0
 73
     1
 44
1.0
  0
MTEXT
  5
C2
330
B5
100
AcDbEntity
  8
DEFAULT
 62
     7
100
AcDbMText
 10
0.6537280203
 20
7.5986839012
 30
0.0
 40
0.1041666667
 41
0.0
 71
     1
 72
     1
  1
"
  7
SLDTEXTSTYLE0
 73
     1
 44
1.0
  0
ENDBLK
  5
B7
330
B5
100
AcDbEntity
  8
0
100
AcDbBlockEnd
  0
ENDSEC
  0
SECTION
  2
ENTITIES
  0
VIEWPORT
  5
76
330
1B
100
AcDbEntity
 67
     1
  8
0
100
AcDbViewport
 10
4.25
 20
5.5
 30
0.0
 40
8.993
 41
11.638
 68
     1
 69
     1
 12
4.25
 22
5.5
 13
0.0
 23
0.0
 14
0.5
 24
0.5
 15
0.5
 25
0.5
 16
0.0
 26
0.0
 36
1.0
 17
0.0
 27
0.0
 37
0.0
 42
50.0
 43
0.0
 44
0.0
 45
11.638
 50
0.0
 51
0.0
 72
   100
 90
   557152
  1

281
     0
 71
     1
 74
     0
110
0.0
120
0.0
130
0.0
111
1.0
121
0.0
131
0.0
112
0.0
122
1.0
132
0.0
 79
     0
146
0.0
  0
INSERT
  5
81
330
1B
100
AcDbEntity
 67
     1
  8
DEFAULT
 62
     7
100
AcDbBlockReference
  2
SW_NOTE_0
 10
3.8041681215
 20
1.6579414626
 30
0.0
  0
LINE
  5
82
330
1B
100
AcDbEntity
 67
     1
  8
0
  6
Continuous
 62
     7
100
AcDbLine
 10
1.2154458352
 20
4.1836927709
 30
0.0
 11
1.2154458352
 21
4.1126926978
 31
0.0
  0
LINE
  5
83
330
1B
100
AcDbEntity
 67
     1
  8
0
  6
Continuous
 62
     7
100
AcDbLine
 10
2.7154457071
 20
4.1836927709
 30
0.0
 11
1.2154458352
 21
4.1836927709
 31
0.0
  0
LINE
  5
84
330
1B
100
AcDbEntity
 67
     1
  8
0
  6
Continuous
 62
     7
100
AcDbLine
 10
2.7154457071
 20
4.1836927709
 30
0.0
 11
2.7154457071
 21
4.1126926978
 31
0.0
  0
LINE
  5
85
330
1B
100
AcDbEntity
 67
     1
  8
0
  6
Continuous
 62
     7
100
AcDbLine
 10
2.7154457071
 20
4.1126926978
 30
0.0
 11
1.2154458352
 21
4.1126926978
 31
0.0
  0
LINE
  5
86
330
1B
100
AcDbEntity
 67
     1
  8
0
  6
Continuous
 62
     7
100
AcDbLine
 10
0.9654457099
 20
4.1836927709
 30
0.0
 11
0.9654457099
 21
4.1126926978
 31
0.0
  0
LINE
  5
87
330
1B
100
AcDbEntity
 67
     1
  8
0
  6
Continuous
 62
     7
100
AcDbLine
 10
1.2154458352
 20
4.1836927709
 30
0.0
 11
0.9654457099
 21
4.1836927709
 31
0.0
  0
LINE
  5
88
330
1B
100
AcDbEntity
 67
     1
  8
0
  6
Continuous
 62
     7
100
AcDbLine
 10
1.2154458352
 20
4.1126926978
 30
0.0
 11
0.9654457099
 21
4.1126926978
 31
0.0
  0
LINE
  5
89
330
1B
100
AcDbEntity
 67
     1
  8
0
  6
Continuous
 62
     7
100
AcDbLine
 10
2.9654458324
 20
4.1836927709
 30
0.0
 11
2.9654458324
 21
4.1126926978
 31
0.0
  0
LINE
  5
8A
330
1B
100
AcDbEntity
 67
     1
  8
0
  6
Continuous
 62
     7
100
AcDbLine
 10
2.9654458324
 20
4.1836927709
 30
0.0
 11
2.7154457071
 21
4.1836927709
 31
0.0
  0
LINE
  5
8B
330
1B
100
AcDbEntity
 67
     1
  8
0
  6
Continuous
 62
     7
100
AcDbLine
 10
2.9654458324
 20
4.1126926978
 30
0.0
 11
2.7154457071
 21
4.1126926978
 31
0.0
  0
DIMENSION
  5
8C
330
1B
100
AcDbEntity
 67
     1
  8
DEFAULT
 62
     7
100
AcDbDimension
  2
_D
 10
0.7726574632
 20
4.1126927711
 30
0.0
 11
0.7726574632
 21
4.3787623883
 31
0.0
 70
   160
  1
<>
 71
     2
 42
-1.0
  3
SLDDIMSTYLE0
100
AcDbAlignedDimension
 13
0.9654457831
 23
4.1836927711
 33
0.0
 14
0.9654457831
 24
4.1126927711
 34
0.0
 50
90.0
100
AcDbRotatedDimension
  0
LINE
  5
9C
330
1B
100
AcDbEntity
 67
     1
  8
0
  6
Continuous
 62
     7
100
AcDbLine
 10
0.9654457099
 20
8.6912289552
 30
0.0
 11
1.2154458352
 21
8.9012288493
 31
0.0
  0
LINE
  5
9D
330
1B
100
AcDbEntity
 67
     1
  8
0
  6
Continuous
 62
     7
100
AcDbLine
 10
1.2154458352
 20
8.9012288493
 30
0.0
 11
2.7154457071
 21
8.9012288493
 31
0.0
  0
LINE
  5
9E
330
1B
100
AcDbEntity
 67
     1
  8
0
  6
Continuous
 62
     7
100
AcDbLine
 10
2.7154457071
 20
8.9012288493
 30
0.0
 11
2.9654458324
 21
8.6912289552
 31
0.0
  0
LINE
  5
9F
330
1B
100
AcDbEntity
 67
     1
  8
0
  6
Continuous
 62
     7
100
AcDbLine
 10
2.9654458324
 20
8.6912289552
 30
0.0
 11
2.9654458324
 21
6.3912289317
 31
0.0
  0
LINE
  5
A0
330
1B
100
AcDbEntity
 67
     1
  8
0
  6
Continuous
 62
     7
100
AcDbLine
 10
2.9654458324
 20
6.3912289317
 30
0.0
 11
2.7154457071
 21
6.1812288909
 31
0.0
  0
LINE
  5
A1
330
1B
100
AcDbEntity
 67
     1
  8
0
  6
Continuous
 62
     7
100
AcDbLine
 10
2.7154457071
 20
6.1812288909
 30
0.0
 11
1.2154458352
 21
6.1812288909
 31
0.0
  0
LINE
  5
A2
330
1B
100
AcDbEntity
 67
     1
  8
0
  6
Continuous
 62
     7
100
AcDbLine
 10
1.2154458352
 20
6.1812288909
 30
0.0
 11
0.9654457099
 21
6.3912289317
 31
0.0
  0
LINE
  5
A3
330
1B
100
AcDbEntity
 67
     1
  8
0
  6
Continuous
 62
     7
100
AcDbLine
 10
0.9654457099
 20
6.3912289317
 30
0.0
 11
0.9654457099
 21
8.6912289552
 31
0.0
  0
CIRCLE
  5
A4
330
1B
100
AcDbEntity
 67
     1
  8
0
  6
Continuous
 62
     7
100
AcDbCircle
 10
2.8104457831
 20
8.4012289157
 30
0.0
 40
0.0999999999999996
  0
CIRCLE
  5
A5
330
1B
100
AcDbEntity
 67
     1
  8
0
  6
Continuous
 62
     7
100
AcDbCircle
 10
1.1204457831
 20
6.6812289157
 30
0.0
 40
0.1000000000000005
  0
CIRCLE
  5
A6
330
1B
100
AcDbEntity
 67
     1
  8
0
  6
Continuous
 62
     7
100
AcDbCircle
 10
2.2204457831
 20
6.4512289157
 30
0.0
 40
0.1399999999999997
  0
DIMENSION
  5
A7
330
1B
100
AcDbEntity
 67
     1
  8
DEFAULT
 62
     7
100
AcDbDimension
  2
_D_1
 10
0.9654457831
 20
9.7673706479
 30
0.0
 11
1.9654457831
 21
9.7673706479
 31
0.0
 70
   160
  1
<>
 71
     2
 42
-1.0
  3
SLDDIMSTYLE1
100
AcDbAlignedDimension
 13
2.9654457831
 23
8.6912289157
 33
0.0
 14
0.9654457831
 24
8.6912289157
 34
0.0
100
AcDbRotatedDimension
  0
DIMENSION
  5
B3
330
1B
100
AcDbEntity
 67
     1
  8
DEFAULT
 62
     7
100
AcDbDimension
  2
_D_2
 10
0.5717449957
 20
6.1812289157
 30
0.0
 11
0.5717449957
 21
7.5412289157
 31
0.0
 70
   160
  1
<>
 71
     2
 42
-1.0
  3
SLDDIMSTYLE2
100
AcDbAlignedDimension
 13
1.2154457831
 23
8.9012289157
 33
0.0
 14
1.2154457831
 24
6.1812289157
 34
0.0
 50
90.0
100
AcDbRotatedDimension
  0
LINE
  5
C3
330
1B
100
AcDbEntity
 67
     1
  8
0
  6
Continuous
 62
     7
100
AcDbLine
 10
4.8843855582
 20
4.1836927709
 30
0.0
 11
4.8843855582
 21
4.1126926978
 31
0.0
  0
LINE
  5
C4
330
1B
100
AcDbEntity
 67
     1
  8
0
  6
Continuous
 62
     7
100
AcDbLine
 10
7.1843855817
 20
4.1836927709
 30
0.0
 11
4.8843855582
 21
4.1836927709
 31
0.0
  0
LINE
  5
C5
330
1B
100
AcDbEntity
 67
     1
  8
0
  6
Continuous
 62
     7
100
AcDbLine
 10
7.1843855817
 20
4.1836927709
 30
0.0
 11
7.1843855817
 21
4.1126926978
 31
0.0
  0
LINE
  5
C6
330
1B
100
AcDbEntity
 67
     1
  8
0
  6
Continuous
 62
     7
100
AcDbLine
 10
7.1843855817
 20
4.1126926978
 30
0.0
 11
4.8843855582
 21
4.1126926978
 31
0.0
  0
LINE
  5
C7
330
1B
100
AcDbEntity
 67
     1
  8
0
  6
Continuous
 62
     7
100
AcDbLine
 10
7.3943854758
 20
4.1836927709
 30
0.0
 11
7.1843855817
 21
4.1836927709
 31
0.0
  0
LINE
  5
C8
330
1B
100
AcDbEntity
 67
     1
  8
0
  6
Continuous
 62
     7
100
AcDbLine
 10
7.3943854758
 20
4.1836927709
 30
0.0
 11
7.3943854758
 21
4.1126926978
 31
0.0
  0
LINE
  5
C9
330
1B
100
AcDbEntity
 67
     1
  8
0
  6
Continuous
 62
     7
100
AcDbLine
 10
7.3943854758
 20
4.1126926978
 30
0.0
 11
7.1843855817
 21
4.1126926978
 31
0.0
  0
LINE
  5
CA
330
1B
100
AcDbEntity
 67
     1
  8
0
  6
Continuous
 62
     7
100
AcDbLine
 10
4.6743855174
 20
4.1836927709
 30
0.0
 11
4.6743855174
 21
4.1126926978
 31
0.0
  0
LINE
  5
CB
330
1B
100
AcDbEntity
 67
     1
  8
0
  6
Continuous
 62
     7
100
AcDbLine
 10
4.8843855582
 20
4.1836927709
 30
0.0
 11
4.6743855174
 21
4.1836927709
 31
0.0
  0
LINE
  5
CC
330
1B
100
AcDbEntity
 67
     1
  8
0
  6
Continuous
 62
     7
100
AcDbLine
 10
4.8843855582
 20
4.1126926978
 30
0.0
 11
4.6743855174
 21
4.1126926978
 31
0.0
  0
LINE
  5
CD
330
1B
100
AcDbEntity
 67
     1
  8
0
  6
Continuous
 62
     7
100
AcDbLine
 10
4.9744599729
 20
6.8643634086
 30
0.0
 11
4.9744599729
 21
6.8063889513
 31
0.0
  0
LINE
  5
CE
330
1B
100
AcDbEntity
 67
     1
  8
0
  6
Continuous
 62
     7
100
AcDbLine
 10
5.2997292097
 20
6.8480352119
 30
0.0
 11
4.9744599729
 21
6.8643634086
 31
0.0
  0
LINE
  5
CF
330
1B
100
AcDbEntity
 67
     1
  8
0
  6
Continuous
 62
     7
100
AcDbLine
 10
5.2997292097
 20
6.8480352119
 30
0.0
 11
5.2997292097
 21
6.7900607545
 31
0.0
  0
LINE
  5
D0
330
1B
100
AcDbEntity
 67
     1
  8
0
  6
Continuous
 62
     7
100
AcDbLine
 10
5.2997292097
 20
6.7900607545
 30
0.0
 11
4.9744599729
 21
6.8063889513
 31
0.0
  0
LINE
  5
D1
330
1B
100
AcDbEntity
 67
     1
  8
0
  6
Continuous
 62
     7
100
AcDbLine
 10
5.5118611741
 20
8.6033127119
 30
0.0
 11
5.8371303071
 21
8.5869844553
 31
0.0
  0
LINE
  5
D2
330
1B
100
AcDbEntity
 67
     1
  8
0
  6
Continuous
 62
     7
100
AcDbLine
 10
5.8371303071
 20
8.5869844553
 30
0.0
 11
6.8977903883
 21
7.9746784237
 31
0.0
  0
LINE
  5
D3
330
1B
100
AcDbEntity
 67
     1
  8
0
  6
Continuous
 62
     7
100
AcDbLine
 10
6.8977903883
 20
7.9746784237
 30
0.0
 11
6.9260748231
 21
7.7869045501
 31
0.0
  0
LINE
  5
D4
330
1B
100
AcDbEntity
 67
     1
  8
0
  6
Continuous
 62
     7
100
AcDbLine
 10
6.9260748231
 20
7.7869045501
 30
0.0
 11
5.2997292097
 21
6.8480352119
 31
0.0
  0
LINE
  5
D5
330
1B
100
AcDbEntity
 67
     1
  8
0
  6
Continuous
 62
     7
100
AcDbLine
 10
4.9744599729
 20
6.8643634086
 30
0.0
 11
3.9137998918
 21
7.4766694402
 31
0.0
  0
LINE
  5
D6
330
1B
100
AcDbEntity
 67
     1
  8
0
  6
Continuous
 62
     7
100
AcDbLine
 10
3.9137998918
 20
7.4766694402
 30
0.0
 11
3.8855155607
 21
7.6644433737
 31
0.0
  0
LINE
  5
D7
330
1B
100
AcDbEntity
 67
     1
  8
0
  6
Continuous
 62
     7
100
AcDbLine
 10
3.8855155607
 20
7.6644433737
 30
0.0
 11
5.5118611741
 21
8.6033127119
 31
0.0
  0
LWPOLYLINE
  5
D8
330
1B
100
AcDbEntity
 67
     1
  8
0
  6
Continuous
 62
     7
100
AcDbPolyline
 90
       35
 70
   128
 43
0.0
 10
6.5407014217
 20
7.690976671
 10
6.5289124898
 20
7.6991723803
 10
6.5199329502
 20
7.708479113
 10
6.5140684299
 20
7.7185799812
 10
6.5115189293
 20
7.7291308864
 10
6.5123711481
 20
7.7397726133
 10
6.5165962037
 20
7.7501426835
 10
6.5240500461
 20
7.7598880482
 10
6.5344788502
 20
7.7686768222
 10
6.5475275726
 20
7.7762096893
 10
6.5627518253
 20
7.7822301098
 10
6.5796331211
 20
7.7865331213
 10
6.597596556
 20
7.788972194
 10
6.616030565
 20
7.7894641695
 10
6.6343073011
 20
7.787992404
 10
6.6518044138
 20
7.7846068885
 10
6.6679258945
 20
7.7794231107
 10
6.6821227659
 20
7.7726174752
 10
6.6939121645
 20
7.7644215563
 10
6.7028914966
 20
7.7551149434
 10
6.708756017
 20
7.7450140752
 10
6.7113054657
 20
7.73446314
 10
6.7104534543
 20
7.7238212934
 10
6.7062283987
 20
7.7134512232
 10
6.6987745564
 20
7.7037058585
 10
6.6883457522
 20
7.6949170845
 10
6.6752970298
 20
7.6873842174
 10
6.6600727772
 20
7.6813637969
 10
6.6431914813
 20
7.6770607854
 10
6.6252280464
 20
7.6746217127
 10
6.6067938301
 20
7.674129857
 10
6.5885171458
 20
7.6756016523
 10
6.5710200331
 20
7.6789871679
 10
6.5548987598
 20
7.684170826
 10
6.5407014217
 20
7.690976671
  0
LWPOLYLINE
  5
D9
330
1B
100
AcDbEntity
 67
     1
  8
0
  6
Continuous
 62
     7
100
AcDbPolyline
 90
       35
 70
   128
 43
0.0
 10
4.1294673586
 20
7.6787305384
 10
4.1176784267
 20
7.6869262477
 10
4.1086986279
 20
7.6962330702
 10
4.1028343668
 20
7.7063338486
 10
4.1002848662
 20
7.7168847538
 10
4.101137085
 20
7.7275264807
 10
4.1053621407
 20
7.7378965509
 10
4.112815983
 20
7.7476419156
 10
4.1232447871
 20
7.7564306896
 10
4.1362935095
 20
7.7639635567
 10
4.1515177622
 20
7.7699839772
 10
4.168399058
 20
7.7742869887
 10
4.1863624929
 20
7.7767260614
 10
4.2047965019
 20
7.7772180369
 10
4.2230732121
 20
7.7757462565
 10
4.2405701174
 20
7.7723608607
 10
4.2566918055
 20
7.7671769631
 10
4.2708887028
 20
7.7603713426
 10
4.2826778681
 20
7.7521755285
 10
4.2916574076
 20
7.7428687958
 10
4.297521928
 20
7.7327679276
 10
4.3000714026
 20
7.7222170074
 10
4.2992191838
 20
7.7115752805
 10
4.2949941282
 20
7.7012052103
 10
4.2875402859
 20
7.6914598457
 10
4.2771114817
 20
7.6826710717
 10
4.2640627593
 20
7.6751382046
 10
4.2488385067
 20
7.6691177841
 10
4.2319572108
 20
7.6648147725
 10
4.213993776
 20
7.6623756998
 10
4.195559767
 20
7.6618837244
 10
4.1772830827
 20
7.6633555197
 10
4.1597859181
 20
7.6667410053
 10
4.1436644893
 20
7.6719248131
 10
4.1294673586
 20
7.6787305384
  0
LWPOLYLINE
  5
DA
330
1B
100
AcDbEntity
 67
     1
  8
0
  6
Continuous
 62
     7
100
AcDbPolyline
 90
       42
 70
   128
 43
0.0
 10
4.9143560158
 20
7.2337880297
 10
4.9283073071
 20
7.2243946064
 10
4.9396111458
 20
7.2138818678
 10
4.9480029733
 20
7.2024960561
 10
4.9532855892
 20
7.1905043378
 10
4.9553353219
 20
7.1781875894
 10
4.9541043104
 20
7.1658345304
 10
4.9496212297
 20
7.1537347182
 10
4.9419909804
 20
7.1421719031
 10
4.931392977
 20
7.1314168138
 10
4.9180751329
 20
7.1217217693
 10
4.9023497123
 20
7.1133139732
 10
4.8845853964
 20
7.1063904552
 10
4.8651985721
 20
7.1011135208
 10
4.8446435831
 20
7.0976068
 10
4.8234020485
 20
7.0959526729
 10
4.8019721805
 20
7.0961896952
 10
4.7808562879
 20
7.098312329
 10
4.7605490569
 20
7.1022708829
 10
4.7415263506
 20
7.1079727093
 10
4.7242345274
 20
7.1152839405
 10
4.7090784626
 20
7.1240333504
 10
4.6964136665
 20
7.1340157075
 10
4.6865369508
 20
7.1449971623
 10
4.6796797913
 20
7.1567202773
 10
4.6760026758
 20
7.1689103423
 10
4.6755920966
 20
7.1812815418
 10
4.6784576468
 20
7.193543899
 10
4.6845321235
 20
7.2054100415
 10
4.6936730324
 20
7.216601817
 10
4.7056662169
 20
7.2268569383
 10
4.720230525
 20
7.2359350303
 10
4.7370246544
 20
7.2436232581
 10
4.7556548267
 20
7.249741475
 10
4.7756845875
 20
7.2541462044
 10
4.796644348
 20
7.2567342318
 10
4.8180427925
 20
7.2574448796
 10
4.8393783382
 20
7.2562615941
 10
4.8601508543
 20
7.2532120048
 10
4.8798735882
 20
7.2483676257
 10
4.8980843662
 20
7.2418419388
 10
4.9143560158
 20
7.2337880297
  0
LINE
  5
DB
330
1B
100
AcDbEntity
 67
     1
  8
0
  6
Continuous
 62
     7
100
AcDbLine
 10
6.9260748231
 20
7.7869045501
 30
0.0
 11
6.9260748231
 21
7.7289300927
 31
0.0
  0
LINE
  5
DC
330
1B
100
AcDbEntity
 67
     1
  8
0
  6
Continuous
 62
     7
100
AcDbLine
 10
6.9260748231
 20
7.7289300927
 30
0.0
 11
5.2997292097
 21
6.7900607545
 31
0.0
  0
LINE
  5
DD
330
1B
100
AcDbEntity
 67
     1
  8
0
  6
Continuous
 62
     7
100
AcDbLine
 10
3.9137998918
 20
7.4766694402
 30
0.0
 11
3.9137998918
 21
7.4186949828
 31
0.0
  0
LINE
  5
DE
330
1B
100
AcDbEntity
 67
     1
  8
0
  6
Continuous
 62
     7
100
AcDbLine
 10
4.9744599729
 20
6.8063889513
 30
0.0
 11
3.9137998918
 21
7.4186949828
 31
0.0
  0
ARC
  5
DF
330
1B
100
AcDbEntity
 67
     1
  8
0
  6
Continuous
 62
     7
100
AcDbCircle
 10
4.8153609837
 20
7.0212689538
 30
0.0
 40
0.1818004950604193
100
AcDbArc
 50
44.0411983433
 51
135.9587754085
  0
LINE
  5
E0
330
1B
100
AcDbEntity
 67
     1
  8
0
  6
Continuous
 62
     7
100
AcDbLine
 10
3.8855155607
 20
7.6644433737
 30
0.0
 11
3.8855155607
 21
7.6064689163
 31
0.0
  0
LINE
  5
E1
330
1B
100
AcDbEntity
 67
     1
  8
0
  6
Continuous
 62
     7
100
AcDbLine
 10
3.9137998918
 20
7.4186949828
 30
0.0
 11
3.8855155607
 21
7.6064689163
 31
0.0
  0
ARC
  5
E2
330
1B
100
AcDbEntity
 67
     1
  8
0
  6
Continuous
 62
     7
100
AcDbCircle
 10
4.2001781431
 20
7.5806540694
 30
0.0
 40
0.1398527255680944
100
AcDbArc
 50
51.8035695357
 51
128.1964800463
  0
ARC
  5
E3
330
1B
100
AcDbEntity
 67
     1
  8
0
  6
Continuous
 62
     7
100
AcDbCircle
 10
6.6114122563
 20
7.5929000474
 30
0.0
 40
0.1398528780302419
100
AcDbArc
 50
51.8035231539
 51
128.1964570133
  0
ENDSEC
  0
SECTION
  2
OBJECTS
  0
DICTIONARY
  5
C
330
0
100
AcDbDictionary
281
     1
  3
ACAD_GROUP
350
D
  3
ACAD_LAYOUT
350
1A
  3
ACAD_MLINESTYLE
350
17
  3
ACAD_PLOTSETTINGS
350
19
  3
ACAD_PLOTSTYLENAME
350
E
  3
ACAD_SCALELIST
350
47
  0
DICTIONARY
  5
D
102
{ACAD_REACTORS
330
C
102
}
330
C
100
AcDbDictionary
281
     1
  0
DICTIONARY
  5
1A
102
{ACAD_REACTORS
330
C
102
}
330
C
100
AcDbDictionary
281
     1
  3
10BLH_WEB
350
1E
  3
Model
350
22
  0
DICTIONARY
  5
17
102
{ACAD_REACTORS
330
C
102
}
330
C
100
AcDbDictionary
281
     1
  3
Standard
350
18
  0
DICTIONARY
  5
19
102
{ACAD_REACTORS
330
C
102
}
330
C
100
AcDbDictionary
281
     1
  0
ACDBDICTIONARYWDFLT
  5
E
102
{ACAD_REACTORS
330
C
102
}
330
C
100
AcDbDictionary
281
     1
  3
Normal
350
F
100
AcDbDictionaryWithDefault
340
F
  0
DICTIONARY
  5
47
102
{ACAD_REACTORS
330
C
102
}
330
C
100
AcDbDictionary
281
     1
  3
A0
350
48
  3
A1
350
49
  3
A2
350
4A
  3
A3
350
4B
  3
A4
350
4C
  3
A5
350
4D
  3
A6
350
4E
  3
A7
350
4F
  3
A8
350
50
  3
A9
350
51
  3
B0
350
52
  3
B1
350
53
  3
B2
350
54
  3
B3
350
55
  3
B4
350
56
  3
B5
350
57
  3
B6
350
58
  3
B7
350
59
  3
B8
350
5A
  3
B9
350
5B
  3
C0
350
5C
  3
C1
350
5D
  3
C2
350
5E
  3
C3
350
5F
  3
C4
350
60
  3
C5
350
61
  3
C6
350
62
  3
C7
350
63
  3
C8
350
64
  3
C9
350
65
  3
D0
350
66
  3
D1
350
67
  3
D2
350
68
  0
LAYOUT
  5
1E
102
{ACAD_REACTORS
330
1A
102
}
330
1A
100
AcDbPlotSettings
  1

  2
none_device
  4
Letter_(8.50_x_11.00_Inches)
  6

 40
6.35
 41
6.35
 42
6.35000508
 43
6.35000508
 44
215.9
 45
279.4
 46
0.0
 47
0.0
 48
0.0
 49
0.0
140
0.0
141
0.0
142
1.0
143
1.0
 70
  4832
 72
     0
 73
     0
 74
     1
  7

 75
     0
147
1.0
148
0.0
149
0.0
100
AcDbLayout
  1
10BLH_WEB
 70
     1
 71
     0
 10
0.0
 20
0.0
 11
8.5
 21
11.0
 12
0.0
 22
0.0
 32
0.0
 14
0.0
 24
0.0
 34
0.0
 15
8.5
 25
11.0
 35
0.0
146
0.0
 13
0.0
 23
0.0
 33
0.0
 16
1.0
 26
0.0
 36
0.0
 17
0.0
 27
1.0
 37
0.0
 76
     0
330
1B
331
76
  0
LAYOUT
  5
22
102
{ACAD_REACTORS
330
1A
102
}
330
1A
100
AcDbPlotSettings
  1

  2
none_device
  4
Letter_(8.50_x_11.00_Inches)
  6

 40
6.35
 41
6.35
 42
6.35000508
 43
6.35000508
 44
215.9
 45
279.4
 46
0.0
 47
0.0
 48
0.0
 49
0.0
140
0.0
141
0.0
142
1.0
143
1.0
 70
  1712
 72
     0
 73
     0
 74
     0
  7

 75
     0
147
1.0
148
0.0
149
0.0
100
AcDbLayout
  1
Model
 70
     1
 71
     0
 10
0.0
 20
0.0
 11
12.0
 21
9.0
 12
0.0
 22
0.0
 32
0.0
 14
0.0
 24
0.0
 34
0.0
 15
8.5
 25
11.0
 35
0.0
146
0.0
 13
0.0
 23
0.0
 33
0.0
 16
1.0
 26
0.0
 36
0.0
 17
0.0
 27
1.0
 37
0.0
 76
     0
330
1F
331
29
  0
MLINESTYLE
  5
18
102
{ACAD_REACTORS
330
17
102
}
330
17
100
AcDbMlineStyle
  2
Standard
 70
     0
  3

 62
   256
 51
90.0
 52
90.0
 71
     2
 49
0.5
 62
   256
  6
BYLAYER
 49
-0.5
 62
   256
  6
BYLAYER
  0
ACDBPLACEHOLDER
  5
F
102
{ACAD_REACTORS
330
E
102
}
330
E
  0
SCALE
  5
48
102
{ACAD_REACTORS
330
47
102
}
330
47
100
AcDbScale
 70
     0
300
1:1
140
1.0
141
1.0
290
     1
  0
SCALE
  5
49
102
{ACAD_REACTORS
330
47
102
}
330
47
100
AcDbScale
 70
     0
300
1:2
140
1.0
141
2.0
290
     0
  0
SCALE
  5
4A
102
{ACAD_REACTORS
330
47
102
}
330
47
100
AcDbScale
 70
     0
300
1:4
140
1.0
141
4.0
290
     0
  0
SCALE
  5
4B
102
{ACAD_REACTORS
330
47
102
}
330
47
100
AcDbScale
 70
     0
300
1:5
140
1.0
141
5.0
290
     0
  0
SCALE
  5
4C
102
{ACAD_REACTORS
330
47
102
}
330
47
100
AcDbScale
 70
     0
300
1:8
140
1.0
141
8.0
290
     0
  0
SCALE
  5
4D
102
{ACAD_REACTORS
330
47
102
}
330
47
100
AcDbScale
 70
     0
300
1:10
140
1.0
141
10.0
290
     0
  0
SCALE
  5
4E
102
{ACAD_REACTORS
330
47
102
}
330
47
100
AcDbScale
 70
     0
300
1:16
140
1.0
141
16.0
290
     0
  0
SCALE
  5
4F
102
{ACAD_REACTORS
330
47
102
}
330
47
100
AcDbScale
 70
     0
300
1:20
140
1.0
141
20.0
290
     0
  0
SCALE
  5
50
102
{ACAD_REACTORS
330
47
102
}
330
47
100
AcDbScale
 70
     0
300
1:30
140
1.0
141
30.0
290
     0
  0
SCALE
  5
51
102
{ACAD_REACTORS
330
47
102
}
330
47
100
AcDbScale
 70
     0
300
1:40
140
1.0
141
40.0
290
     0
  0
SCALE
  5
52
102
{ACAD_REACTORS
330
47
102
}
330
47
100
AcDbScale
 70
     0
300
1:50
140
1.0
141
50.0
290
     0
  0
SCALE
  5
53
102
{ACAD_REACTORS
330
47
102
}
330
47
100
AcDbScale
 70
     0
300
1:100
140
1.0
141
100.0
290
     0
  0
SCALE
  5
54
102
{ACAD_REACTORS
330
47
102
}
330
47
100
AcDbScale
 70
     0
300
2:1
140
2.0
141
1.0
290
     0
  0
SCALE
  5
55
102
{ACAD_REACTORS
330
47
102
}
330
47
100
AcDbScale
 70
     0
300
4:1
140
4.0
141
1.0
290
     0
  0
SCALE
  5
56
102
{ACAD_REACTORS
330
47
102
}
330
47
100
AcDbScale
 70
     0
300
8:1
140
8.0
141
1.0
290
     0
  0
SCALE
  5
57
102
{ACAD_REACTORS
330
47
102
}
330
47
100
AcDbScale
 70
     0
300
10:1
140
10.0
141
1.0
290
     0
  0
SCALE
  5
58
102
{ACAD_REACTORS
330
47
102
}
330
47
100
AcDbScale
 70
     0
300
100:1
140
100.0
141
1.0
290
     0
  0
SCALE
  5
59
102
{ACAD_REACTORS
330
47
102
}
330
47
100
AcDbScale
 70
     0
300
1/128" = 1'-0"
140
0.0078125
141
12.0
290
     0
  0
SCALE
  5
5A
102
{ACAD_REACTORS
330
47
102
}
330
47
100
AcDbScale
 70
     0
300
1/64" = 1'-0"
140
0.015625
141
12.0
290
     0
  0
SCALE
  5
5B
102
{ACAD_REACTORS
330
47
102
}
330
47
100
AcDbScale
 70
     0
300
1/32" = 1'-0"
140
0.03125
141
12.0
290
     0
  0
SCALE
  5
5C
102
{ACAD_REACTORS
330
47
102
}
330
47
100
AcDbScale
 70
     0
300
1/16" = 1'-0"
140
0.0625
141
12.0
290
     0
  0
SCALE
  5
5D
102
{ACAD_REACTORS
330
47
102
}
330
47
100
AcDbScale
 70
     0
300
3/32" = 1'-0"
140
0.09375
141
12.0
290
     0
  0
SCALE
  5
5E
102
{ACAD_REACTORS
330
47
102
}
330
47
100
AcDbScale
 70
     0
300
1/8" = 1'-0"
140
0.125
141
12.0
290
     0
  0
SCALE
  5
5F
102
{ACAD_REACTORS
330
47
102
}
330
47
100
AcDbScale
 70
     0
300
3/16" = 1'-0"
140
0.1875
141
12.0
290
     0
  0
SCALE
  5
60
102
{ACAD_REACTORS
330
47
102
}
330
47
100
AcDbScale
 70
     0
300
1/4" = 1'-0"
140
0.25
141
12.0
290
     0
  0
SCALE
  5
61
102
{ACAD_REACTORS
330
47
102
}
330
47
100
AcDbScale
 70
     0
300
3/8" = 1'-0"
140
0.375
141
12.0
290
     0
  0
SCALE
  5
62
102
{ACAD_REACTORS
330
47
102
}
330
47
100
AcDbScale
 70
     0
300
1/2" = 1'-0"
140
0.5
141
12.0
290
     0
  0
SCALE
  5
63
102
{ACAD_REACTORS
330
47
102
}
330
47
100
AcDbScale
 70
     0
300
3/4" = 1'-0"
140
0.75
141
12.0
290
     0
  0
SCALE
  5
64
102
{ACAD_REACTORS
330
47
102
}
330
47
100
AcDbScale
 70
     0
300
1" = 1'-0"
140
1.0
141
12.0
290
     0
  0
SCALE
  5
65
102
{ACAD_REACTORS
330
47
102
}
330
47
100
AcDbScale
 70
     0
300
1-1/2" = 1'-0"
140
1.5
141
12.0
290
     0
  0
SCALE
  5
66
102
{ACAD_REACTORS
330
47
102
}
330
47
100
AcDbScale
 70
     0
300
3" = 1'-0"
140
3.0
141
12.0
290
     0
  0
SCALE
  5
67
102
{ACAD_REACTORS
330
47
102
}
330
47
100
AcDbScale
 70
     0
300
6" = 1'-0"
140
6.0
141
12.0
290
     0
  0
SCALE
  5
68
102
{ACAD_REACTORS
330
47
102
}
330
47
100
AcDbScale
 70
     0
300
1'-0" = 1'-0"
140
12.0
141
12.0
290
     0
  0
ENDSEC
  0
EOF
