  0
SECTION
  2
HEADER
  9
$ACADVER
  1
AC1015
  9
$ACADMAINTVER
 70
     6
  9
$DWGCODEPAGE
  3
ANSI_1252
  9
$INSBASE
 10
0.0
 20
0.0
 30
0.0
  9
$EXTMIN
 10
0.0
 20
0.0
 30
0.0
  9
$EXTMAX
 10
22.0
 20
17.0
 30
0.0
  9
$LIMMIN
 10
0.0
 20
0.0
  9
$LIMMAX
 10
22.0
 20
17.0
  9
$ORTHOMODE
 70
     0
  9
$REGENMODE
 70
     1
  9
$FILLMODE
 70
     1
  9
$QTEXTMODE
 70
     0
  9
$MIRRTEXT
 70
     1
  9
$LTSCALE
 40
2.0
  9
$ATTMODE
 70
     1
  9
$TEXTSIZE
 40
0.25
  9
$TRACEWID
 40
0.05
  9
$TEXTSTYLE
  7
Standard
  9
$CLAYER
  8
0
  9
$CELTYPE
  6
ByLayer
  9
$CECOLOR
 62
   256
  9
$CELTSCALE
 40
1.0
  9
$DISPSILH
 70
     0
  9
$DIMSCALE
 40
1.0
  9
$DIMASZ
 40
0.26
  9
$DIMEXO
 40
0.1
  9
$DIMDLI
 40
0.38
  9
$DIMRND
 40
0.0
  9
$DIMDLE
 40
0.0
  9
$DIMEXE
 40
0.25
  9
$DIMTP
 40
0.0
  9
$DIMTM
 40
0.0
  9
$DIMTXT
 40
0.25
  9
$DIMCEN
 40
0.09
  9
$DIMTSZ
 40
0.0
  9
$DIMTOL
 70
     0
  9
$DIMLIM
 70
     0
  9
$DIMTIH
 70
     1
  9
$DIMTOH
 70
     1
  9
$DIMSE1
 70
     0
  9
$DIMSE2
 70
     0
  9
$DIMTAD
 70
     0
  9
$DIMZIN
 70
     0
  9
$DIMBLK
  1

  9
$DIMASO
 70
     1
  9
$DIMSHO
 70
     1
  9
$DIMPOST
  1

  9
$DIMAPOST
  1

  9
$DIMALT
 70
     0
  9
$DIMALTD
 70
     2
  9
$DIMALTF
 40
25.4
  9
$DIMLFAC
 40
1.0
  9
$DIMTOFL
 70
     0
  9
$DIMTVP
 40
0.0
  9
$DIMTIX
 70
     0
  9
$DIMSOXD
 70
     0
  9
$DIMSAH
 70
     0
  9
$DIMBLK1
  1

  9
$DIMBLK2
  1

  9
$DIMSTYLE
  2
Standard
  9
$DIMCLRD
 70
     0
  9
$DIMCLRE
 70
     0
  9
$DIMCLRT
 70
     0
  9
$DIMTFAC
 40
1.0
  9
$DIMGAP
 40
0.12
  9
$DIMJUST
 70
     0
  9
$DIMSD1
 70
     0
  9
$DIMSD2
 70
     0
  9
$DIMTOLJ
 70
     1
  9
$DIMTZIN
 70
     0
  9
$DIMALTZ
 70
     0
  9
$DIMALTTZ
 70
     0
  9
$DIMUPT
 70
     0
  9
$DIMDEC
 70
     0
  9
$DIMTDEC
 70
     0
  9
$DIMALTU
 70
     2
  9
$DIMALTTD
 70
     2
  9
$DIMTXSTY
  7
Standard
  9
$DIMAUNIT
 70
     0
  9
$DIMADEC
 70
     0
  9
$DIMALTRND
 40
0.0
  9
$DIMAZIN
 70
     0
  9
$DIMDSEP
 70
    46
  9
$DIMATFIT
 70
     3
  9
$DIMFRAC
 70
     0
  9
$DIMLDRBLK
  1

  9
$DIMLUNIT
 70
     2
  9
$DIMLWD
 70
    -2
  9
$DIMLWE
 70
    -2
  9
$DIMTMOVE
 70
     0
  9
$LUNITS
 70
     2
  9
$LUPREC
 70
     0
  9
$SKETCHINC
 40
0.1
  9
$FILLETRAD
 40
0.5
  9
$AUNITS
 70
     0
  9
$AUPREC
 70
     0
  9
$MENU
  1
.
  9
$ELEVATION
 40
0.0
  9
$PELEVATION
 40
0.0
  9
$THICKNESS
 40
0.0
  9
$LIMCHECK
 70
     0
  9
$CHAMFERA
 40
0.5
  9
$CHAMFERB
 40
0.5
  9
$CHAMFERC
 40
1.0
  9
$CHAMFERD
 40
0.0
  9
$SKPOLY
 70
     0
  9
$TDCREATE
 40
2456511.316936655
  9
$TDUCREATE
 40
2456511.483603322
  9
$TDUPDATE
 40
2456511.316937211
  9
$TDUUPDATE
 40
2456511.483603877
  9
$TDINDWG
 40
0.0000000116
  9
$TDUSRTIMER
 40
0.0000000116
  9
$USRTIMER
 70
     1
  9
$ANGBASE
 50
0.0
  9
$ANGDIR
 70
     0
  9
$PDMODE
 70
     0
  9
$PDSIZE
 40
-1.0
  9
$PLINEWID
 40
0.0
  9
$SPLFRAME
 70
     0
  9
$SPLINETYPE
 70
     6
  9
$SPLINESEGS
 70
     8
  9
$HANDSEED
  5
246
  9
$SURFTAB1
 70
     6
  9
$SURFTAB2
 70
     6
  9
$SURFTYPE
 70
     6
  9
$SURFU
 70
     6
  9
$SURFV
 70
     6
  9
$UCSBASE
  2

  9
$UCSNAME
  2

  9
$UCSORG
 10
0.0
 20
0.0
 30
0.0
  9
$UCSXDIR
 10
1.0
 20
0.0
 30
0.0
  9
$UCSYDIR
 10
0.0
 20
1.0
 30
0.0
  9
$UCSORTHOREF
  2

  9
$UCSORTHOVIEW
 70
     0
  9
$UCSORGTOP
 10
0.0
 20
0.0
 30
0.0
  9
$UCSORGBOTTOM
 10
0.0
 20
0.0
 30
0.0
  9
$UCSORGLEFT
 10
0.0
 20
0.0
 30
0.0
  9
$UCSORGRIGHT
 10
0.0
 20
0.0
 30
0.0
  9
$UCSORGFRONT
 10
0.0
 20
0.0
 30
0.0
  9
$UCSORGBACK
 10
0.0
 20
0.0
 30
0.0
  9
$PUCSBASE
  2

  9
$PUCSNAME
  2

  9
$PUCSORG
 10
0.0
 20
0.0
 30
0.0
  9
$PUCSXDIR
 10
1.0
 20
0.0
 30
0.0
  9
$PUCSYDIR
 10
0.0
 20
1.0
 30
0.0
  9
$PUCSORTHOREF
  2

  9
$PUCSORTHOVIEW
 70
     0
  9
$PUCSORGTOP
 10
0.0
 20
0.0
 30
0.0
  9
$PUCSORGBOTTOM
 10
0.0
 20
0.0
 30
0.0
  9
$PUCSORGLEFT
 10
0.0
 20
0.0
 30
0.0
  9
$PUCSORGRIGHT
 10
0.0
 20
0.0
 30
0.0
  9
$PUCSORGFRONT
 10
0.0
 20
0.0
 30
0.0
  9
$PUCSORGBACK
 10
0.0
 20
0.0
 30
0.0
  9
$USERI1
 70
     0
  9
$USERI2
 70
     0
  9
$USERI3
 70
     0
  9
$USERI4
 70
     0
  9
$USERI5
 70
     0
  9
$USERR1
 40
0.0
  9
$USERR2
 40
0.0
  9
$USERR3
 40
0.0
  9
$USERR4
 40
0.0
  9
$USERR5
 40
0.0
  9
$WORLDVIEW
 70
     1
  9
$SHADEDGE
 70
     3
  9
$SHADEDIF
 70
    70
  9
$TILEMODE
 70
     1
  9
$MAXACTVP
 70
    64
  9
$PINSBASE
 10
0.0
 20
0.0
 30
0.0
  9
$PLIMCHECK
 70
     0
  9
$PEXTMIN
 10
1.0000000000E+20
 20
1.0000000000E+20
 30
1.0000000000E+20
  9
$PEXTMAX
 10
-1.0000000000E+20
 20
-1.0000000000E+20
 30
-1.0000000000E+20
  9
$PLIMMIN
 10
0.0
 20
0.0
  9
$PLIMMAX
 10
12.0
 20
9.0
  9
$UNITMODE
 70
     0
  9
$VISRETAIN
 70
     1
  9
$PLINEGEN
 70
     0
  9
$PSLTSCALE
 70
     1
  9
$TREEDEPTH
 70
  3020
  9
$CMLSTYLE
  2
Standard
  9
$CMLJUST
 70
     0
  9
$CMLSCALE
 40
1.0
  9
$PROXYGRAPHICS
 70
     1
  9
$MEASUREMENT
 70
     0
  9
$CELWEIGHT
370
    -1
  9
$ENDCAPS
280
     0
  9
$JOINSTYLE
280
     0
  9
$LWDISPLAY
290
     1
  9
$INSUNITS
 70
     1
  9
$HYPERLINKBASE
  1

  9
$STYLESHEET
  1

  9
$XEDIT
290
     1
  9
$CEPSNTYPE
380
     0
  9
$PSTYLEMODE
290
     1
  9
$FINGERPRINTGUID
  2
{1E6E6887-7261-42E2-B76A-E2E0E6A8E668}
  9
$VERSIONGUID
  2
{FAEB1C32-E019-11D5-929B-00C0DF256EC4}
  9
$EXTNAMES
290
     1
  9
$PSVPSCALE
 40
0.0
  9
$OLESTARTUP
290
     0
  0
ENDSEC
  0
SECTION
  2
CLASSES
  0
CLASS
  1
ACDBDICTIONARYWDFLT
  2
AcDbDictionaryWithDefault
  3
ObjectDBX Classes
 90
        0
280
     0
281
     0
  0
CLASS
  1
VISUALSTYLE
  2
AcDbVisualStyle
  3
ObjectDBX Classes
 90
     4095
280
     0
281
     0
  0
CLASS
  1
MATERIAL
  2
AcDbMaterial
  3
ObjectDBX Classes
 90
     1153
280
     0
281
     0
  0
CLASS
  1
ACDBPLACEHOLDER
  2
AcDbPlaceHolder
  3
ObjectDBX Classes
 90
        0
280
     0
281
     0
  0
CLASS
  1
LAYOUT
  2
AcDbLayout
  3
ObjectDBX Classes
 90
        0
280
     0
281
     0
  0
ENDSEC
  0
SECTION
  2
TABLES
  0
TABLE
  2
VPORT
  5
8
330
0
100
AcDbSymbolTable
 70
     1
  0
VPORT
  5
29
330
8
100
AcDbSymbolTableRecord
100
AcDbViewportTableRecord
  2
*Active
 70
     0
 10
0.0
 20
0.0
 11
1.0
 21
1.0
 12
11.0
 22
8.5
 13
0.0
 23
0.0
 14
0.5
 24
0.5
 15
0.5
 25
0.5
 16
0.0
 26
0.0
 36
1.0
 17
0.0
 27
0.0
 37
0.0
 40
17.0
 41
1.2941176471
 42
50.0
 43
0.0
 44
0.0
 50
0.0
 51
0.0
 71
     0
 72
  2000
 73
     1
 74
     3
 75
     0
 76
     0
 77
     0
 78
     0
281
     0
 65
     1
110
0.0
120
0.0
130
0.0
111
1.0
121
0.0
131
0.0
112
0.0
122
1.0
132
0.0
 79
     0
146
0.0
  0
ENDTAB
  0
TABLE
  2
LTYPE
  5
5
330
0
100
AcDbSymbolTable
 70
     6
  0
LTYPE
  5
14
330
5
100
AcDbSymbolTableRecord
100
AcDbLinetypeTableRecord
  2
ByBlock
 70
     0
  3

 72
    65
 73
     0
 40
0.0
  0
LTYPE
  5
15
330
5
100
AcDbSymbolTableRecord
100
AcDbLinetypeTableRecord
  2
ByLayer
 70
     0
  3

 72
    65
 73
     0
 40
0.0
  0
LTYPE
  5
16
330
5
100
AcDbSymbolTableRecord
100
AcDbLinetypeTableRecord
  2
Continuous
 70
     0
  3
Solid line
 72
    65
 73
     0
 40
0.0
  0
LTYPE
  5
3F
330
5
100
AcDbSymbolTableRecord
100
AcDbLinetypeTableRecord
  2
HIDDEN
 70
     0
  3
Hidden __ __ __ __ __ __ __ __ __ __ __ __ __ __
 72
    65
 73
     2
 40
0.075
 49
0.05
 74
     0
 49
-0.025
 74
     0
  0
LTYPE
  5
40
330
5
100
AcDbSymbolTableRecord
100
AcDbLinetypeTableRecord
  2
PHANTOM
 70
     0
  3
Phantom ______  __  __  ______  __  __  ______
 72
    65
 73
     6
 40
0.5
 49
0.25
 74
     0
 49
-0.05
 74
     0
 49
0.05
 74
     0
 49
-0.05
 74
     0
 49
0.05
 74
     0
 49
-0.05
 74
     0
  0
LTYPE
  5
41
330
5
100
AcDbSymbolTableRecord
100
AcDbLinetypeTableRecord
  2
CENTER
 70
     0
  3
Center ____ _ ____ _ ____ _ ____ _ ____ _ ____
 72
    65
 73
     4
 40
0.4
 49
0.25
 74
     0
 49
-0.05
 74
     0
 49
0.05
 74
     0
 49
-0.05
 74
     0
  0
LTYPE
  5
42
330
5
100
AcDbSymbolTableRecord
100
AcDbLinetypeTableRecord
  2
CENTERX2
 70
     0
  3
Center (2x) ________  __  ________  __  _____
 72
    65
 73
     4
 40
0.8
 49
0.5
 74
     0
 49
-0.1
 74
     0
 49
0.1
 74
     0
 49
-0.1
 74
     0
  0
LTYPE
  5
43
330
5
100
AcDbSymbolTableRecord
100
AcDbLinetypeTableRecord
  2
DOT2
 70
     0
  3
Dot (.5x) ........................................
 72
    65
 73
     2
 40
0.025
 49
0.0
 74
     0
 49
-0.025
 74
     0
  0
ENDTAB
  0
TABLE
  2
LAYER
  5
2
330
0
100
AcDbSymbolTable
 70
     8
  0
LAYER
  5
10
330
2
100
AcDbSymbolTableRecord
100
AcDbLayerTableRecord
  2
0
 70
     0
 62
     7
  6
Continuous
370
    -3
390
F
  0
LAYER
  5
44
330
2
100
AcDbSymbolTableRecord
100
AcDbLayerTableRecord
  2
FORMAT
 70
     0
 62
     7
  6
Continuous
370
    -3
390
F
  0
LAYER
  5
45
330
2
100
AcDbSymbolTableRecord
100
AcDbLayerTableRecord
  2
DEFAULT
 70
     0
 62
   179
  6
Continuous
370
    -3
390
F
  0
LAYER
  5
46
330
2
100
AcDbSymbolTableRecord
100
AcDbLayerTableRecord
  2
INSPECTION_TAGS
 70
     0
 62
     7
  6
Continuous
370
    -3
390
F
  0
LAYER
  5
47
330
2
100
AcDbSymbolTableRecord
100
AcDbLayerTableRecord
  2
REVISIONS
 70
     0
 62
     7
  6
Continuous
370
    -3
390
F
  0
LAYER
  5
48
330
2
100
AcDbSymbolTableRecord
100
AcDbLayerTableRecord
  2
DIMENSIONS_&_ANNOTATIONS
 70
     0
 62
     7
  6
Continuous
370
    -3
390
F
  0
LAYER
  5
49
330
2
100
AcDbSymbolTableRecord
100
AcDbLayerTableRecord
  2
HIDDEN
 70
     0
 62
    -7
  6
Continuous
370
    -3
390
F
  0
LAYER
  5
4A
330
2
100
AcDbSymbolTableRecord
100
AcDbLayerTableRecord
  2
DIMENSION_&_ANNOTATIONS
 70
     0
 62
     7
  6
Continuous
370
    -3
390
F
  0
ENDTAB
  0
TABLE
  2
STYLE
  5
3
330
0
100
AcDbSymbolTable
 70
     2
  0
STYLE
  5
11
330
3
100
AcDbSymbolTableRecord
100
AcDbTextStyleTableRecord
  2
Standard
 70
     0
 40
0.0
 41
1.0
 50
0.0
 71
     0
 42
0.25
  3
txt
  4

  0
STYLE
  5
4E
330
3
100
AcDbSymbolTableRecord
100
AcDbTextStyleTableRecord
  2
SLDTEXTSTYLE0
 70
     0
 40
0.0
 41
0.75
 50
0.0
 71
     0
 42
0.2
  3
TXT
  4

  0
ENDTAB
  0
TABLE
  2
VIEW
  5
6
330
0
100
AcDbSymbolTable
 70
     0
  0
ENDTAB
  0
TABLE
  2
UCS
  5
7
330
0
100
AcDbSymbolTable
 70
     0
  0
ENDTAB
  0
TABLE
  2
APPID
  5
9
330
0
100
AcDbSymbolTable
 70
     1
  0
APPID
  5
12
330
9
100
AcDbSymbolTableRecord
100
AcDbRegAppTableRecord
  2
ACAD
 70
     0
  0
ENDTAB
  0
TABLE
  2
DIMSTYLE
  5
A
330
0
100
AcDbSymbolTable
 70
     2
100
AcDbDimStyleTable
  0
DIMSTYLE
105
27
330
A
100
AcDbSymbolTableRecord
100
AcDbDimStyleTableRecord
  2
Standard
 70
     0
178
     0
340
11
  0
DIMSTYLE
105
6F
102
{ACAD_REACTORS
330
6E
330
7A
330
23A
102
}
330
A
100
AcDbSymbolTableRecord
100
AcDbDimStyleTableRecord
  2
SLDDIMSTYLE0
 70
     0
 41
0.26
 44
0.0
 45
0.000000001
 78
    12
 79
     3
140
0.25
147
0.0625
173
     1
178
     0
271
     0
272
     0
276
     2
277
     5
284
    12
340
4E
  0
ENDTAB
  0
TABLE
  2
BLOCK_RECORD
  5
1
330
0
100
AcDbSymbolTable
 70
     6
  0
BLOCK_RECORD
  5
1F
330
1
100
AcDbSymbolTableRecord
100
AcDbBlockTableRecord
  2
*Model_Space
340
22
  0
BLOCK_RECORD
  5
1B
330
1
100
AcDbSymbolTableRecord
100
AcDbBlockTableRecord
  2
*Paper_Space
340
1E
  0
BLOCK_RECORD
  5
23
330
1
100
AcDbSymbolTableRecord
100
AcDbBlockTableRecord
  2
*Paper_Space0
340
26
  0
BLOCK_RECORD
  5
4B
330
1
100
AcDbSymbolTableRecord
100
AcDbBlockTableRecord
  2
SW_NOTE_0
340
0
102
{BLKREFS
331
54
102
}
  0
BLOCK_RECORD
  5
70
330
1
100
AcDbSymbolTableRecord
100
AcDbBlockTableRecord
  2
_D
340
0
  0
BLOCK_RECORD
  5
7B
330
1
100
AcDbSymbolTableRecord
100
AcDbBlockTableRecord
  2
_D_1
340
0
  0
BLOCK_RECORD
  5
1A7
330
1
100
AcDbSymbolTableRecord
100
AcDbBlockTableRecord
  2
SW_NOTE_1
340
0
102
{BLKREFS
331
1AC
102
}
  0
BLOCK_RECORD
  5
23B
330
1
100
AcDbSymbolTableRecord
100
AcDbBlockTableRecord
  2
_D_2
340
0
  0
ENDTAB
  0
ENDSEC
  0
SECTION
  2
BLOCKS
  0
BLOCK
  5
20
330
1F
100
AcDbEntity
  8
0
100
AcDbBlockBegin
  2
*Model_Space
 70
     0
 10
0.0
 20
0.0
 30
0.0
  3
*Model_Space
  1

  0
ENDBLK
  5
21
330
1F
100
AcDbEntity
  8
0
100
AcDbBlockEnd
  0
BLOCK
  5
1C
330
1B
100
AcDbEntity
 67
     1
  8
0
100
AcDbBlockBegin
  2
*Paper_Space
 70
     0
 10
0.0
 20
0.0
 30
0.0
  3
*Paper_Space
  1

  0
ENDBLK
  5
1D
330
1B
100
AcDbEntity
 67
     1
  8
0
100
AcDbBlockEnd
  0
BLOCK
  5
24
330
23
100
AcDbEntity
  8
0
100
AcDbBlockBegin
  2
*Paper_Space0
 70
     0
 10
0.0
 20
0.0
 30
0.0
  3
*Paper_Space0
  1

  0
ENDBLK
  5
25
330
23
100
AcDbEntity
  8
0
100
AcDbBlockEnd
  0
BLOCK
  5
4C
330
4B
100
AcDbEntity
  8
0
100
AcDbBlockBegin
  2
SW_NOTE_0
 70
     0
 10
0.0
 20
0.0
 30
0.0
  3
SW_NOTE_0
  1

  0
MTEXT
  5
4F
330
4B
100
AcDbEntity
  8
DEFAULT
 62
     0
100
AcDbMText
 10
1.5234375
 20
0.6445338699
 30
0.0
 40
0.5
 41
0.0
 71
     2
 72
     1
  1
LEGRAND
  7
SLDTEXTSTYLE0
 73
     1
 44
1.0
  0
MTEXT
  5
50
330
4B
100
AcDbEntity
  8
DEFAULT
 62
     0
100
AcDbMText
 10
1.4982643407
 20
-0.001993928
 30
0.0
 40
0.5
 41
0.0
 71
     2
 72
     1
  1
SYSTEM: EVOLUTION WALL BOX
  7
SLDTEXTSTYLE0
 73
     1
 44
1.0
  0
MTEXT
  5
51
330
4B
100
AcDbEntity
  8
DEFAULT
 62
     0
100
AcDbMText
 10
1.4491317861
 20
-0.648521726
 30
0.0
 40
0.5
 41
0.0
 71
     2
 72
     1
  1
CATALOG NUMBER: EFS-MB
  7
SLDTEXTSTYLE0
 73
     1
 44
1.0
  0
MTEXT
  5
52
330
4B
100
AcDbEntity
  8
DEFAULT
 62
     0
100
AcDbMText
 10
1.5199652068
 20
-1.2950495239
 30
0.0
 40
0.5
 41
0.0
 71
     2
 72
     1
  1
SCALE 1:2
  7
SLDTEXTSTYLE0
 73
     1
 44
1.0
  0
MTEXT
  5
53
330
4B
100
AcDbEntity
  8
DEFAULT
 62
     0
100
AcDbMText
 10
1.5260415547
 20
-1.9415773218
 30
0.0
 40
0.5
 41
0.0
 71
     2
 72
     1
  1
06/24/13
  7
SLDTEXTSTYLE0
 73
     1
 44
1.0
  0
ENDBLK
  5
4D
330
4B
100
AcDbEntity
  8
0
100
AcDbBlockEnd
  0
BLOCK
  5
71
330
70
100
AcDbEntity
  8
0
100
AcDbBlockBegin
  2
_D
 70
     0
 10
0.0
 20
0.0
 30
0.0
  3
_D
  1

  0
SOLID
  5
73
330
70
100
AcDbEntity
  8
DEFAULT
 62
     7
100
AcDbTrace
 10
19.9167511509
 20
5.4478851871
 30
0.0
 11
19.9567511509
 21
5.7078851871
 31
0.0
 12
19.8767511509
 22
5.7078851871
 32
0.0
 13
19.8767511509
 23
5.7078851871
 33
0.0
  0
SOLID
  5
74
330
70
100
AcDbEntity
  8
DEFAULT
 62
     7
100
AcDbTrace
 10
19.9167511509
 20
9.3058851871
 30
0.0
 11
19.8767511509
 21
9.0458851871
 31
0.0
 12
19.9567511509
 22
9.0458851871
 32
0.0
 13
19.9567511509
 23
9.0458851871
 33
0.0
  0
LINE
  5
75
330
70
100
AcDbEntity
  8
DEFAULT
 62
     7
100
AcDbLine
 10
18.9537147076
 20
5.4478851871
 30
0.0
 11
20.1667511509
 21
5.4478851871
 31
0.0
  0
LINE
  5
76
330
70
100
AcDbEntity
  8
DEFAULT
 62
     7
100
AcDbLine
 10
19.0291025143
 20
9.3058851871
 30
0.0
 11
20.1667511509
 21
9.3058851871
 31
0.0
  0
LINE
  5
77
330
70
100
AcDbEntity
  8
DEFAULT
 62
     7
100
AcDbLine
 10
19.9167511509
 20
5.4478851871
 30
0.0
 11
19.9167511509
 21
7.1784476811
 31
0.0
  0
LINE
  5
78
330
70
100
AcDbEntity
  8
DEFAULT
 62
     7
100
AcDbLine
 10
19.9167511509
 20
9.3058851871
 30
0.0
 11
19.9167511509
 21
7.575322693
 31
0.0
  0
MTEXT
  5
79
330
70
100
AcDbEntity
  8
DEFAULT
 62
     7
100
AcDbMText
 10
19.3674456199
 20
7.5007146435
 30
0.0039370079
 40
0.25
 41
0.0
 71
     1
 72
     1
  1
3 7/8"
  7
SLDTEXTSTYLE0
 73
     1
 44
1.0
  0
ENDBLK
  5
72
330
70
100
AcDbEntity
  8
0
100
AcDbBlockEnd
  0
BLOCK
  5
7C
330
7B
100
AcDbEntity
  8
0
100
AcDbBlockBegin
  2
_D_1
 70
     0
 10
0.0
 20
0.0
 30
0.0
  3
_D_1
  1

  0
SOLID
  5
7E
330
7B
100
AcDbEntity
  8
DEFAULT
 62
     7
100
AcDbTrace
 10
15.8891025143
 20
4.7782336446
 30
0.0
 11
16.1491025143
 21
4.7382336446
 31
0.0
 12
16.1491025143
 22
4.8182336446
 32
0.0
 13
16.1491025143
 23
4.8182336446
 33
0.0
  0
SOLID
  5
7F
330
7B
100
AcDbEntity
  8
DEFAULT
 62
     7
100
AcDbTrace
 10
18.8537147076
 20
4.7782336446
 30
0.0
 11
18.5937147076
 21
4.8182336446
 31
0.0
 12
18.5937147076
 22
4.7382336446
 32
0.0
 13
18.5937147076
 23
4.7382336446
 33
0.0
  0
LINE
  5
80
330
7B
100
AcDbEntity
  8
DEFAULT
 62
     7
100
AcDbLine
 10
15.8891025143
 20
5.3478851871
 30
0.0
 11
15.8891025143
 21
4.5282336446
 31
0.0
  0
LINE
  5
81
330
7B
100
AcDbEntity
  8
DEFAULT
 62
     7
100
AcDbLine
 10
18.8537147076
 20
5.3478851871
 30
0.0
 11
18.8537147076
 21
4.5282336446
 31
0.0
  0
LINE
  5
82
330
7B
100
AcDbEntity
  8
DEFAULT
 62
     7
100
AcDbLine
 10
15.8891025143
 20
4.7782336446
 30
0.0
 11
17.1259225035
 21
4.7782336446
 31
0.0
  0
LINE
  5
83
330
7B
100
AcDbEntity
  8
DEFAULT
 62
     7
100
AcDbLine
 10
18.8537147076
 20
4.7782336446
 30
0.0
 11
17.6168947184
 21
4.7782336446
 31
0.0
  0
MTEXT
  5
84
330
7B
100
AcDbEntity
  8
DEFAULT
 62
     7
100
AcDbMText
 10
17.1259225035
 20
4.9020631011
 30
0.0039370079
 40
0.25
 41
0.0
 71
     1
 72
     1
  1
3"
  7
SLDTEXTSTYLE0
 73
     1
 44
1.0
  0
ENDBLK
  5
7D
330
7B
100
AcDbEntity
  8
0
100
AcDbBlockEnd
  0
BLOCK
  5
1A8
330
1A7
100
AcDbEntity
  8
0
100
AcDbBlockBegin
  2
SW_NOTE_1
 70
     0
 10
0.0
 20
0.0
 30
0.0
  3
SW_NOTE_1
  1

  0
MTEXT
  5
1AA
330
1A7
100
AcDbEntity
  8
DEFAULT
 62
     0
100
AcDbMText
 10
0.26953125
 20
0.3222669349
 30
0.0
 40
0.25
 41
0.0
 71
     2
 72
     1
  1
ISO
  7
SLDTEXTSTYLE0
 73
     1
 44
1.0
  0
MTEXT
  5
1AB
330
1A7
100
AcDbEntity
  8
DEFAULT
 62
     0
100
AcDbMText
 10
0.242100776
 20
-0.000996964
 30
0.0
 40
0.25
 41
0.0
 71
     2
 72
     1
  1
SCALE 1:4
  7
SLDTEXTSTYLE0
 73
     1
 44
1.0
  0
ENDBLK
  5
1A9
330
1A7
100
AcDbEntity
  8
0
100
AcDbBlockEnd
  0
BLOCK
  5
23C
330
23B
100
AcDbEntity
  8
0
100
AcDbBlockBegin
  2
_D_2
 70
     0
 10
0.0
 20
0.0
 30
0.0
  3
_D_2
  1

  0
SOLID
  5
23E
330
23B
100
AcDbEntity
  8
DEFAULT
 62
     7
100
AcDbTrace
 10
2.2462614547
 20
15.6982868473
 30
0.0
 11
2.5062614547
 21
15.6582868473
 31
0.0
 12
2.5062614547
 22
15.7382868473
 32
0.0
 13
2.5062614547
 23
15.7382868473
 33
0.0
  0
SOLID
  5
23F
330
23B
100
AcDbEntity
  8
DEFAULT
 62
     7
100
AcDbTrace
 10
11.3862614547
 20
15.6982868473
 30
0.0
 11
11.1262614547
 21
15.7382868473
 31
0.0
 12
11.1262614547
 22
15.6582868473
 32
0.0
 13
11.1262614547
 23
15.6582868473
 33
0.0
  0
LINE
  5
240
330
23B
100
AcDbEntity
  8
DEFAULT
 62
     7
100
AcDbLine
 10
2.2462614547
 20
15.0108852725
 30
0.0
 11
2.2462614547
 21
15.9482868473
 31
0.0
  0
LINE
  5
241
330
23B
100
AcDbEntity
  8
DEFAULT
 62
     7
100
AcDbLine
 10
11.3862614547
 20
15.0108852725
 30
0.0
 11
11.3862614547
 21
15.9482868473
 31
0.0
  0
LINE
  5
242
330
23B
100
AcDbEntity
  8
DEFAULT
 62
     7
100
AcDbLine
 10
2.2462614547
 20
15.6982868473
 30
0.0
 11
6.2669559236
 21
15.6982868473
 31
0.0
  0
LINE
  5
243
330
23B
100
AcDbEntity
  8
DEFAULT
 62
     7
100
AcDbLine
 10
11.3862614547
 20
15.6982868473
 30
0.0
 11
7.3655669857
 21
15.6982868473
 31
0.0
  0
MTEXT
  5
244
330
23B
100
AcDbEntity
  8
DEFAULT
 62
     7
100
AcDbMText
 10
6.2669559236
 20
15.8221163038
 30
-1.9250629921
 40
0.25
 41
0.0
 71
     1
 72
     1
  1
9 1/8"
  7
SLDTEXTSTYLE0
 73
     1
 44
1.0
  0
ENDBLK
  5
23D
330
23B
100
AcDbEntity
  8
0
100
AcDbBlockEnd
  0
ENDSEC
  0
SECTION
  2
ENTITIES
  0
INSERT
  5
54
330
1F
100
AcDbEntity
  8
DEFAULT
100
AcDbBlockReference
  2
SW_NOTE_0
 10
9.3982510661
 20
3.0871339545
 30
0.0
  0
LINE
  5
55
330
1F
100
AcDbEntity
  8
0
  6
Continuous
 62
     7
370
    15
100
AcDbLine
 10
18.4489805626
 20
8.9904928226
 30
0.0
 11
18.3837697959
 21
9.0222982951
 31
0.0
  0
ARC
  5
56
330
1F
100
AcDbEntity
  8
0
  6
Continuous
 62
     7
370
    15
100
AcDbCircle
 10
18.4358295036
 20
8.963529044
 30
0.0
 40
0.0300000000000009
100
AcDbArc
 50
335.0
 51
64.0
  0
LINE
  5
57
330
1F
100
AcDbEntity
  8
0
  6
Continuous
 62
     7
370
    15
100
AcDbLine
 10
18.1832145394
 20
8.7178851717
 30
0.0
 11
16.7516500103
 21
5.6478851883
 31
0.0
  0
LINE
  5
58
330
1F
100
AcDbEntity
  8
0
  6
Continuous
 62
     7
370
    15
100
AcDbLine
 10
16.7516500103
 20
5.6478851883
 30
0.0
 11
16.8439813303
 21
5.6478851883
 31
0.0
  0
LINE
  5
59
330
1F
100
AcDbEntity
  8
0
  6
Continuous
 62
     7
370
    15
100
AcDbLine
 10
18.2755457128
 20
8.7178851717
 30
0.0
 11
16.8439813303
 21
5.6478851883
 31
0.0
  0
LINE
  5
5A
330
1F
100
AcDbEntity
  8
0
  6
Continuous
 62
     7
370
    15
100
AcDbLine
 10
18.2755457128
 20
8.7178851717
 30
0.0
 11
18.1832145394
 21
8.7178851717
 31
0.0
  0
LINE
  5
5B
330
1F
100
AcDbEntity
  8
0
  6
Continuous
 62
     7
370
    15
100
AcDbLine
 10
18.2650638605
 20
9.1178851376
 30
0.0
 11
18.9291024295
 21
9.1178851376
 31
0.0
  0
LINE
  5
5C
330
1F
100
AcDbEntity
  8
0
  6
Continuous
 62
     7
370
    15
100
AcDbLine
 10
18.2650638605
 20
9.1178851376
 30
0.0
 11
18.1718022446
 21
8.9178851547
 31
0.0
  0
LINE
  5
5D
330
1F
100
AcDbEntity
  8
0
  6
Continuous
 62
     7
370
    15
100
AcDbLine
 10
18.1718022446
 20
8.9178851547
 30
0.0
 11
18.8537145804
 21
8.9178851547
 31
0.0
  0
LINE
  5
5E
330
1F
100
AcDbEntity
  8
0
  6
Continuous
 62
     7
370
    15
100
AcDbLine
 10
18.8537145804
 20
8.9178851547
 30
0.0
 11
18.8537145804
 21
5.4478851871
 31
0.0
  0
LINE
  5
5F
330
1F
100
AcDbEntity
  8
0
  6
Continuous
 62
     7
370
    15
100
AcDbLine
 10
15.8891025279
 20
5.4478851871
 30
0.0
 11
18.8537145804
 21
5.4478851871
 31
0.0
  0
LINE
  5
60
330
1F
100
AcDbEntity
  8
0
  6
Continuous
 62
     7
370
    15
100
AcDbLine
 10
15.8891025279
 20
5.4478851871
 30
0.0
 11
15.8891025279
 21
5.5478851877
 31
0.0
  0
LINE
  5
61
330
1F
100
AcDbEntity
  8
0
  6
Continuous
 62
     7
370
    15
100
AcDbLine
 10
18.9291024295
 20
9.1178851376
 30
0.0
 11
18.9291024295
 21
9.2658850545
 31
0.0
  0
LINE
  5
62
330
1F
100
AcDbEntity
  8
0
  6
Continuous
 62
     7
370
    15
100
AcDbLine
 10
18.1999123465
 20
8.7178851717
 30
0.0
 11
16.7683478174
 21
5.6478851883
 31
0.0
  0
LINE
  5
63
330
1F
100
AcDbEntity
  8
0
  6
Continuous
 62
     7
370
    15
100
AcDbLine
 10
16.4223322946
 20
5.6109804496
 30
0.0
 11
18.1049089373
 21
9.2192778596
 31
0.0
  0
LINE
  5
64
330
1F
100
AcDbEntity
  8
0
  6
Continuous
 62
     7
370
    15
100
AcDbLine
 10
18.1888784473
 20
8.7178851717
 30
0.0
 11
16.7573140649
 21
5.6478851883
 31
0.0
  0
LINE
  5
65
330
1F
100
AcDbEntity
  8
0
  6
Continuous
 62
     7
370
    15
100
AcDbLine
 10
18.2408550469
 20
9.3058852858
 30
0.0
 11
18.9291024295
 21
9.3058852858
 31
0.0
  0
LINE
  5
66
330
1F
100
AcDbEntity
  8
0
  6
Continuous
 62
     7
370
    15
100
AcDbLine
 10
18.9291024295
 20
9.3058852858
 30
0.0
 11
18.9291024295
 21
9.2658850545
 31
0.0
  0
ARC
  5
67
330
1F
100
AcDbEntity
  8
0
  6
Continuous
 62
     7
370
    15
100
AcDbCircle
 10
18.2408551431
 20
9.1558851871
 30
0.0
 40
0.1500000000000027
100
AcDbArc
 50
90.0
 51
155.0
  0
ARC
  5
68
330
1F
100
AcDbEntity
  8
0
  6
Continuous
 62
     7
370
    15
100
AcDbCircle
 10
16.3860799205
 20
5.6278851871
 30
0.0
 40
0.0400000000000009
100
AcDbArc
 50
270.0
 51
335.0
  0
LINE
  5
69
330
1F
100
AcDbEntity
  8
0
  6
Continuous
 62
     7
370
    15
100
AcDbLine
 10
15.8891025279
 20
5.5478851877
 30
0.0
 11
15.8891025279
 21
5.5878851898
 31
0.0
  0
LINE
  5
6A
330
1F
100
AcDbEntity
  8
0
  6
Continuous
 62
     7
370
    15
100
AcDbLine
 10
15.8891025279
 20
5.5878851898
 30
0.0
 11
16.3860799401
 21
5.5878851898
 31
0.0
  0
ELLIPSE
  5
6B
330
1F
100
AcDbEntity
  8
0
  6
Continuous
 62
     7
370
    15
100
AcDbEllipse
 10
17.9199033366
 20
7.8173141441
 30
0.0
 11
0.972277388604585
 21
2.079331640537012
 31
0.0
210
0.0
220
0.0
230
1.0
 40
0.0474742371
 41
0.9174478106487842
 42
0.9823480753067118
  0
LINE
  5
6C
330
1F
100
AcDbEntity
  8
0
  6
Continuous
 62
     7
370
    15
100
AcDbLine
 10
18.214702629
 20
9.0098851585
 30
0.0
 11
18.3774752286
 21
9.0098851585
 31
0.0
  0
LWPOLYLINE
  5
6D
330
1F
100
AcDbEntity
  8
0
  6
Continuous
 62
     7
370
    15
100
AcDbPolyline
 90
        5
 70
   128
 43
0.0
 10
18.4630187471
 20
8.9508504538
 10
18.4613986858
 20
8.947376254
 10
18.456648794
 20
8.937189785
 10
18.4490926146
 20
8.9209859455
 10
18.4476467913
 20
8.9178851547
  0
DIMENSION
  5
6E
330
1F
100
AcDbEntity
  8
DEFAULT
 62
     7
100
AcDbDimension
  2
_D
 10
19.9167511509
 20
9.3058851871
 30
0.0
 11
19.9167511509
 21
7.3768851871
 31
0.0
 70
   160
  1
<>
 71
     2
 42
-1.0
  3
SLDDIMSTYLE0
100
AcDbAlignedDimension
 13
18.8537147076
 23
5.4478851871
 33
0.0
 14
18.9291025143
 24
9.3058851871
 34
0.0
 50
90.0
100
AcDbRotatedDimension
  0
DIMENSION
  5
7A
330
1F
100
AcDbEntity
  8
DEFAULT
 62
     7
100
AcDbDimension
  2
_D_1
 10
18.8537147076
 20
4.7782336446
 30
0.0
 11
17.371408611
 21
4.7782336446
 31
0.0
 70
   160
  1
<>
 71
     2
 42
-1.0
  3
SLDDIMSTYLE0
100
AcDbAlignedDimension
 13
15.8891025143
 23
5.4478851871
 33
0.0
 14
18.8537147076
 24
5.4478851871
 34
0.0
 50
0.0
100
AcDbRotatedDimension
  0
MTEXT
  5
85
330
1F
100
AcDbEntity
  8
DEFAULT
 62
     7
100
AcDbMText
 10
16.5221030689
 20
4.0782612264
 30
0.0
 40
0.25
 41
0.0
 71
     1
 72
     1
  1
RIGHT SIDE
  7
SLDTEXTSTYLE0
 73
     1
 44
1.0
  0
LINE
  5
86
330
1F
100
AcDbEntity
  8
0
  6
Continuous
 62
     7
370
    15
100
AcDbLine
 10
2.246261581
 20
5.4478851871
 30
0.0
 11
2.246261581
 21
5.5478851877
 31
0.0
  0
ARC
  5
87
330
1F
100
AcDbEntity
  8
0
  6
Continuous
 62
     7
370
    15
100
AcDbCircle
 10
2.2862614547
 20
5.5478851871
 30
0.0
 40
0.04
100
AcDbArc
 50
90.0
 51
180.0
  0
LINE
  5
88
330
1F
100
AcDbEntity
  8
0
  6
Continuous
 62
     7
370
    15
100
AcDbLine
 10
2.8662613521
 20
5.5878851898
 30
0.0
 11
2.286261519
 21
5.5878851898
 31
0.0
  0
LINE
  5
89
330
1F
100
AcDbEntity
  8
0
  6
Continuous
 62
     7
370
    15
100
AcDbLine
 10
2.246261581
 20
5.4478851871
 30
0.0
 11
2.8662613521
 21
5.4478851871
 31
0.0
  0
LINE
  5
8A
330
1F
100
AcDbEntity
  8
0
  6
Continuous
 62
     7
370
    15
100
AcDbLine
 10
2.8662613521
 20
5.5878851898
 30
0.0
 11
2.9462615212
 21
5.5878851898
 31
0.0
  0
LINE
  5
8B
330
1F
100
AcDbEntity
  8
0
  6
Continuous
 62
     7
370
    15
100
AcDbLine
 10
2.9462615212
 20
5.5878851898
 30
0.0
 11
2.9462615212
 21
5.4478851871
 31
0.0
  0
LINE
  5
8C
330
1F
100
AcDbEntity
  8
0
  6
Continuous
 62
     7
370
    15
100
AcDbLine
 10
2.9462615212
 20
5.4478851871
 30
0.0
 11
2.8662613521
 21
5.4478851871
 31
0.0
  0
LINE
  5
8D
330
1F
100
AcDbEntity
  8
0
  6
Continuous
 62
     7
370
    15
100
AcDbLine
 10
6.3162614607
 20
5.4478851871
 30
0.0
 11
6.3162614607
 21
5.5478851877
 31
0.0
  0
LINE
  5
8E
330
1F
100
AcDbEntity
  8
0
  6
Continuous
 62
     7
370
    15
100
AcDbLine
 10
6.3162614607
 20
5.5478851877
 30
0.0
 11
6.3962614466
 21
5.5478851877
 31
0.0
  0
LINE
  5
8F
330
1F
100
AcDbEntity
  8
0
  6
Continuous
 62
     7
370
    15
100
AcDbLine
 10
6.3962614466
 20
5.4478851871
 30
0.0
 11
6.3162614607
 21
5.4478851871
 31
0.0
  0
LINE
  5
90
330
1F
100
AcDbEntity
  8
0
  6
Continuous
 62
     7
370
    15
100
AcDbLine
 10
7.2362614628
 20
5.5478851877
 30
0.0
 11
6.3962614466
 21
5.5478851877
 31
0.0
  0
LINE
  5
91
330
1F
100
AcDbEntity
  8
0
  6
Continuous
 62
     7
370
    15
100
AcDbLine
 10
6.3962614466
 20
5.4478851871
 30
0.0
 11
7.2362614628
 21
5.4478851871
 31
0.0
  0
LINE
  5
92
330
1F
100
AcDbEntity
  8
0
  6
Continuous
 62
     7
370
    15
100
AcDbLine
 10
7.2362614628
 20
5.5478851877
 30
0.0
 11
7.3162614486
 21
5.5478851877
 31
0.0
  0
LINE
  5
93
330
1F
100
AcDbEntity
  8
0
  6
Continuous
 62
     7
370
    15
100
AcDbLine
 10
7.3162614486
 20
5.5478851877
 30
0.0
 11
7.3162614486
 21
5.4478851871
 31
0.0
  0
LINE
  5
94
330
1F
100
AcDbEntity
  8
0
  6
Continuous
 62
     7
370
    15
100
AcDbLine
 10
7.3162614486
 20
5.4478851871
 30
0.0
 11
7.2362614628
 21
5.4478851871
 31
0.0
  0
LINE
  5
95
330
1F
100
AcDbEntity
  8
0
  6
Continuous
 62
     7
370
    15
100
AcDbLine
 10
10.6862613881
 20
5.4478851871
 30
0.0
 11
10.6862613881
 21
5.5878851898
 31
0.0
  0
LINE
  5
96
330
1F
100
AcDbEntity
  8
0
  6
Continuous
 62
     7
370
    15
100
AcDbLine
 10
10.6862613881
 20
5.5878851898
 30
0.0
 11
10.7662615573
 21
5.5878851898
 31
0.0
  0
LINE
  5
97
330
1F
100
AcDbEntity
  8
0
  6
Continuous
 62
     7
370
    15
100
AcDbLine
 10
10.7662615573
 20
5.4478851871
 30
0.0
 11
10.6862613881
 21
5.4478851871
 31
0.0
  0
LINE
  5
98
330
1F
100
AcDbEntity
  8
0
  6
Continuous
 62
     7
370
    15
100
AcDbLine
 10
11.3462613904
 20
5.5878851898
 30
0.0
 11
10.7662615573
 21
5.5878851898
 31
0.0
  0
ARC
  5
99
330
1F
100
AcDbEntity
  8
0
  6
Continuous
 62
     7
370
    15
100
AcDbCircle
 10
11.3462614547
 20
5.5478851871
 30
0.0
 40
0.0400000000000009
100
AcDbArc
 50
0.0
 51
90.0
  0
LINE
  5
9A
330
1F
100
AcDbEntity
  8
0
  6
Continuous
 62
     7
370
    15
100
AcDbLine
 10
11.3862613283
 20
5.4478851871
 30
0.0
 11
11.3862613283
 21
5.5478851877
 31
0.0
  0
LINE
  5
9B
330
1F
100
AcDbEntity
  8
0
  6
Continuous
 62
     7
370
    15
100
AcDbLine
 10
10.7662615573
 20
5.4478851871
 30
0.0
 11
11.3862613283
 21
5.4478851871
 31
0.0
  0
LWPOLYLINE
  5
9C
330
1F
100
AcDbEntity
  8
0
  6
Continuous
 62
     7
370
    15
100
AcDbPolyline
 90
        3
 70
   128
 43
0.0
 10
6.7161555711
 20
5.5577210632
 10
6.7028445332
 20
5.5500139564
 10
6.6893854737
 20
5.5478851877
  0
ARC
  5
9D
330
1F
100
AcDbEntity
  8
0
  6
Continuous
 62
     7
370
    15
100
AcDbCircle
 10
6.8090791322
 20
5.9275019479
 30
0.0
 40
0.3812777083060796
100
AcDbArc
 50
255.8940210986
 51
264.6500128086
  0
ARC
  5
9E
330
1F
100
AcDbEntity
  8
0
  6
Continuous
 62
     7
370
    15
100
AcDbCircle
 10
6.8234437771
 20
5.9275019479
 30
0.0
 40
0.3812777083060777
100
AcDbArc
 50
275.3499871914
 51
284.1059789014
  0
LWPOLYLINE
  5
9F
330
1F
100
AcDbEntity
  8
0
  6
Continuous
 62
     7
370
    15
100
AcDbPolyline
 90
        3
 70
   128
 43
0.0
 10
6.9431374357
 20
5.5478851877
 10
6.9238074598
 20
5.552447
 10
6.9163673382
 20
5.5577210632
  0
ELLIPSE
  5
A0
330
1F
100
AcDbEntity
  8
0
  6
Continuous
 62
     7
370
    15
100
AcDbEllipse
 10
3.0262614547
 20
5.5656207601
 30
0.0
 11
0.08000000000000052
 21
0.0
 31
0.0
210
0.0
220
0.0
230
1.0
 40
0.2216946626
 41
3.141592653589793
 42
4.17061173389628
  0
LWPOLYLINE
  5
A1
330
1F
100
AcDbEntity
  8
0
  6
Continuous
 62
     7
370
    15
100
AcDbPolyline
 90
        3
 70
   128
 43
0.0
 10
3.0262613971
 20
5.5570529584
 10
3.0062615748
 20
5.555118695
 10
2.985008647
 20
5.5504250308
  0
LINE
  5
A2
330
1F
100
AcDbEntity
  8
0
  6
Continuous
 62
     7
370
    15
100
AcDbLine
 10
3.0262613971
 20
5.4478851871
 30
0.0
 11
2.9462615212
 21
5.4478851871
 31
0.0
  0
ARC
  5
A3
330
1F
100
AcDbEntity
  8
0
  6
Continuous
 62
     7
370
    15
100
AcDbCircle
 10
2.944406992
 20
5.7302722779
 30
0.0
 40
0.1446744066125021
100
AcDbArc
 50
280.2018503289
 51
304.456722892
  0
ARC
  5
A4
330
1F
100
AcDbEntity
  8
0
  6
Continuous
 62
     7
370
    15
100
AcDbCircle
 10
2.9168748621
 20
5.7388357934
 30
0.0
 40
0.2003517608379726
100
AcDbArc
 50
289.8811880302
 51
303.0911402312
  0
LINE
  5
A5
330
1F
100
AcDbEntity
  8
0
  6
Continuous
 62
     7
370
    15
100
AcDbLine
 10
2.9462615212
 20
5.5878851898
 30
0.0
 11
2.97003122
 21
5.5878851898
 31
0.0
  0
ARC
  5
A6
330
1F
100
AcDbEntity
  8
0
  6
Continuous
 62
     7
370
    15
100
AcDbCircle
 10
6.3352914632
 20
5.9979512634
 30
0.0
 40
0.4518830171116685
100
AcDbArc
 50
257.3409046373
 51
264.8602652388
  0
LINE
  5
A7
330
1F
100
AcDbEntity
  8
0
  6
Continuous
 62
     7
370
    15
100
AcDbLine
 10
6.2948095085
 20
5.5478851877
 30
0.0
 11
6.3162614607
 21
5.5478851877
 31
0.0
  0
LINE
  5
A8
330
1F
100
AcDbEntity
  8
0
  6
Continuous
 62
     7
370
    15
100
AcDbLine
 10
6.3162614607
 20
5.4478851871
 30
0.0
 11
6.2362614382
 21
5.4478851871
 31
0.0
  0
ARC
  5
A9
330
1F
100
AcDbEntity
  8
0
  6
Continuous
 62
     7
370
    15
100
AcDbCircle
 10
7.3272856033
 20
5.8060166097
 30
0.0
 40
0.2583419632600207
100
AcDbArc
 50
272.3133336167
 51
285.4854965073
  0
LINE
  5
AA
330
1F
100
AcDbEntity
  8
0
  6
Continuous
 62
     7
370
    15
100
AcDbLine
 10
7.3162614486
 20
5.5478851877
 30
0.0
 11
7.3377134008
 21
5.5478851877
 31
0.0
  0
LINE
  5
AB
330
1F
100
AcDbEntity
  8
0
  6
Continuous
 62
     7
370
    15
100
AcDbLine
 10
7.3962614711
 20
5.4478851871
 30
0.0
 11
7.3162614486
 21
5.4478851871
 31
0.0
  0
LWPOLYLINE
  5
AC
330
1F
100
AcDbEntity
  8
0
  6
Continuous
 62
     7
370
    15
100
AcDbPolyline
 90
        3
 70
   128
 43
0.0
 10
10.6475142624
 20
5.5504250308
 10
10.6221045559
 20
5.5558091936
 10
10.6062615123
 20
5.5570529584
  0
ELLIPSE
  5
AD
330
1F
100
AcDbEntity
  8
0
  6
Continuous
 62
     7
370
    15
100
AcDbEllipse
 10
10.6062614547
 20
5.5656207601
 30
0.0
 11
0.07999999999999829
 21
0.0
 31
0.0
210
0.0
220
0.0
230
1.0
 40
0.2216946626
 41
5.25416622687311
 42
6.283185307179586
  0
LINE
  5
AE
330
1F
100
AcDbEntity
  8
0
  6
Continuous
 62
     7
370
    15
100
AcDbLine
 10
10.6862613881
 20
5.4478851871
 30
0.0
 11
10.6062615123
 21
5.4478851871
 31
0.0
  0
ARC
  5
AF
330
1F
100
AcDbEntity
  8
0
  6
Continuous
 62
     7
370
    15
100
AcDbCircle
 10
10.6881159174
 20
5.7302722779
 30
0.0
 40
0.144674406612283
100
AcDbArc
 50
235.543277108
 51
259.7981496711
  0
ARC
  5
B0
330
1F
100
AcDbEntity
  8
0
  6
Continuous
 62
     7
370
    15
100
AcDbCircle
 10
10.7156480472
 20
5.7388357934
 30
0.0
 40
0.2003517608372885
100
AcDbArc
 50
236.9088597688
 51
250.1188119698
  0
LINE
  5
B1
330
1F
100
AcDbEntity
  8
0
  6
Continuous
 62
     7
370
    15
100
AcDbLine
 10
10.6624916894
 20
5.5878851898
 30
0.0
 11
10.6862613881
 21
5.5878851898
 31
0.0
  0
LINE
  5
B2
330
1F
100
AcDbEntity
  8
0
  6
Continuous
 62
     7
370
    15
100
AcDbLine
 10
10.6062615123
 20
5.5570529584
 30
0.0
 11
7.3962614711
 21
5.5570529584
 31
0.0
  0
LINE
  5
B3
330
1F
100
AcDbEntity
  8
0
  6
Continuous
 62
     7
370
    15
100
AcDbLine
 10
6.9163673382
 20
5.5577210632
 30
0.0
 11
6.7161555711
 21
5.5577210632
 31
0.0
  0
LINE
  5
B4
330
1F
100
AcDbEntity
  8
0
  6
Continuous
 62
     7
370
    15
100
AcDbLine
 10
6.2362614382
 20
5.5570529584
 30
0.0
 11
3.0262613971
 21
5.5570529584
 31
0.0
  0
LINE
  5
B5
330
1F
100
AcDbEntity
  8
0
  6
Continuous
 62
     7
370
    15
100
AcDbLine
 10
3.0262613971
 20
5.4478851871
 30
0.0
 11
6.2362614382
 21
5.4478851871
 31
0.0
  0
LINE
  5
B6
330
1F
100
AcDbEntity
  8
0
  6
Continuous
 62
     7
370
    15
100
AcDbLine
 10
7.3962614711
 20
5.4478851871
 30
0.0
 11
10.6062615123
 21
5.4478851871
 31
0.0
  0
LINE
  5
B7
330
1F
100
AcDbEntity
  8
0
  6
Continuous
 62
     7
370
    15
100
AcDbLine
 10
5.9862614229
 20
8.503125706
 30
0.0
 11
3.1062615662
 21
8.503125706
 31
0.0
  0
LINE
  5
B8
330
1F
100
AcDbEntity
  8
0
  6
Continuous
 62
     7
370
    15
100
AcDbLine
 10
3.1062615662
 20
8.503125706
 30
0.0
 11
3.1062615662
 21
6.350644685
 31
0.0
  0
LINE
  5
B9
330
1F
100
AcDbEntity
  8
0
  6
Continuous
 62
     7
370
    15
100
AcDbLine
 10
3.1062615662
 20
6.350644685
 30
0.0
 11
5.9862614229
 21
6.350644685
 31
0.0
  0
LINE
  5
BA
330
1F
100
AcDbEntity
  8
0
  6
Continuous
 62
     7
370
    15
100
AcDbLine
 10
5.9862614229
 20
6.350644685
 30
0.0
 11
5.9862614229
 21
8.503125706
 31
0.0
  0
LWPOLYLINE
  5
BB
330
1F
100
AcDbEntity
  8
0
  6
Continuous
 62
     7
370
    15
100
AcDbPolyline
 90
       21
 70
   128
 43
0.0
 10
6.4522614696
 20
7.3561931555
 10
6.4763647945
 20
7.3596531288
 10
6.49810872
 20
7.3696941062
 10
6.515364789
 20
7.3853334322
 10
6.526443861
 20
7.4050402178
 10
6.5302614586
 20
7.4268852322
 10
6.526443861
 20
7.4487302465
 10
6.515364789
 20
7.4684368855
 10
6.49810872
 20
7.4840762115
 10
6.4763647945
 20
7.4941173355
 10
6.4522614696
 20
7.4975771622
 10
6.4281581447
 20
7.4941173355
 10
6.4064142193
 20
7.4840762115
 10
6.3891581319
 20
7.4684368855
 10
6.3780790599
 20
7.4487302465
 10
6.374261444
 20
7.4268852322
 10
6.3780790599
 20
7.4050402178
 10
6.3891581319
 20
7.3853334322
 10
6.4064142193
 20
7.3696941062
 10
6.4281581447
 20
7.3596531288
 10
6.4522614696
 20
7.3561931555
  0
LWPOLYLINE
  5
BC
330
1F
100
AcDbEntity
  8
0
  6
Continuous
 62
     7
370
    15
100
AcDbPolyline
 90
       21
 70
   128
 43
0.0
 10
2.6402614829
 20
7.3561931555
 10
2.6643646977
 20
7.3596531288
 10
2.6861086599
 20
7.3696941062
 10
2.7033646739
 20
7.3853334322
 10
2.7144437459
 20
7.4050402178
 10
2.7182614351
 20
7.4268852322
 10
2.7144437459
 20
7.4487302465
 10
2.7033646739
 20
7.4684368855
 10
2.6861086599
 20
7.4840762115
 10
2.6643646977
 20
7.4941173355
 10
2.6402614829
 20
7.4975771622
 10
2.616158268
 20
7.4941173355
 10
2.5944143058
 20
7.4840762115
 10
2.5771579985
 20
7.4684368855
 10
2.5660789265
 20
7.4487302465
 10
2.5622615306
 20
7.4268852322
 10
2.5660789265
 20
7.4050402178
 10
2.5771579985
 20
7.3853334322
 10
2.5944143058
 20
7.3696941062
 10
2.616158268
 20
7.3596531288
 10
2.6402614829
 20
7.3561931555
  0
LINE
  5
BD
330
1F
100
AcDbEntity
  8
0
  6
Continuous
 62
     7
370
    15
100
AcDbLine
 10
7.6462614864
 20
6.350644685
 30
0.0
 11
7.6462614864
 21
8.503125706
 31
0.0
  0
LINE
  5
BE
330
1F
100
AcDbEntity
  8
0
  6
Continuous
 62
     7
370
    15
100
AcDbLine
 10
10.5262613431
 20
6.350644685
 30
0.0
 11
7.6462614864
 21
6.350644685
 31
0.0
  0
LINE
  5
BF
330
1F
100
AcDbEntity
  8
0
  6
Continuous
 62
     7
370
    15
100
AcDbLine
 10
10.5262613431
 20
8.503125706
 30
0.0
 11
10.5262613431
 21
6.350644685
 31
0.0
  0
LINE
  5
C0
330
1F
100
AcDbEntity
  8
0
  6
Continuous
 62
     7
370
    15
100
AcDbLine
 10
7.6462614864
 20
8.503125706
 30
0.0
 11
10.5262613431
 21
8.503125706
 31
0.0
  0
LWPOLYLINE
  5
C1
330
1F
100
AcDbEntity
  8
0
  6
Continuous
 62
     7
370
    15
100
AcDbPolyline
 90
       21
 70
   128
 43
0.0
 10
7.1802614397
 20
7.3561931555
 10
7.1561581148
 20
7.3596531288
 10
7.1344141894
 20
7.3696941062
 10
7.1171581204
 20
7.3853334322
 10
7.1060790483
 20
7.4050402178
 10
7.1022614508
 20
7.4268852322
 10
7.1060790483
 20
7.4487302465
 10
7.1171581204
 20
7.4684368855
 10
7.1344141894
 20
7.4840762115
 10
7.1561581148
 20
7.4941173355
 10
7.1802614397
 20
7.4975771622
 10
7.2043647646
 20
7.4941173355
 10
7.2261086901
 20
7.4840762115
 10
7.2433647774
 20
7.4684368855
 10
7.2544438494
 20
7.4487302465
 10
7.2582614653
 20
7.4268852322
 10
7.2544438494
 20
7.4050402178
 10
7.2433647774
 20
7.3853334322
 10
7.2261086901
 20
7.3696941062
 10
7.2043647646
 20
7.3596531288
 10
7.1802614397
 20
7.3561931555
  0
LWPOLYLINE
  5
C2
330
1F
100
AcDbEntity
  8
0
  6
Continuous
 62
     7
370
    15
100
AcDbPolyline
 90
       21
 70
   128
 43
0.0
 10
10.9922614265
 20
7.3561931555
 10
10.9681582116
 20
7.3596531288
 10
10.9464142495
 20
7.3696941062
 10
10.9291582355
 20
7.3853334322
 10
10.9180791635
 20
7.4050402178
 10
10.9142614742
 20
7.4268852322
 10
10.9180791635
 20
7.4487302465
 10
10.9291582355
 20
7.4684368855
 10
10.9464142495
 20
7.4840762115
 10
10.9681582116
 20
7.4941173355
 10
10.9922614265
 20
7.4975771622
 10
11.0163646414
 20
7.4941173355
 10
11.0381086035
 20
7.4840762115
 10
11.0553649109
 20
7.4684368855
 10
11.0664439829
 20
7.4487302465
 10
11.0702613788
 20
7.4268852322
 10
11.0664439829
 20
7.4050402178
 10
11.0553649109
 20
7.3853334322
 10
11.0381086035
 20
7.3696941062
 10
11.0163646414
 20
7.3596531288
 10
10.9922614265
 20
7.3561931555
  0
LWPOLYLINE
  5
C3
330
1F
100
AcDbEntity
  8
0
  6
Continuous
 62
     7
370
    15
100
AcDbPolyline
 90
       23
 70
   128
 43
0.0
 10
2.9057614558
 20
7.5089060046
 10
2.9312582812
 20
7.505583603
 10
2.9546894772
 20
7.4958855284
 10
2.9741569057
 20
7.480597465
 10
2.9880830381
 20
7.4609578519
 10
2.9953403143
 20
7.438558004
 10
2.9953403143
 20
7.4152124603
 10
2.9880830381
 20
7.3928124658
 10
2.9741569057
 20
7.3731729993
 10
2.9546894772
 20
7.3578847893
 10
2.9312582812
 20
7.3481867146
 10
2.9057614558
 20
7.344864313
 10
2.8802646303
 20
7.3481867146
 10
2.8568334343
 20
7.3578847893
 10
2.8373660059
 20
7.3731729993
 10
2.8234398734
 20
7.3928124658
 10
2.8161825973
 20
7.4152124603
 10
2.8161825973
 20
7.438558004
 10
2.8234398734
 20
7.4609578519
 10
2.8373660059
 20
7.480597465
 10
2.8568334343
 20
7.4958855284
 10
2.8802646303
 20
7.505583603
 10
2.9057614558
 20
7.5089060046
  0
LWPOLYLINE
  5
C4
330
1F
100
AcDbEntity
  8
0
  6
Continuous
 62
     7
370
    15
100
AcDbPolyline
 90
       23
 70
   128
 43
0.0
 10
6.18676146
 20
7.5089060046
 10
6.2122582488
 20
7.505583603
 10
6.2356894448
 20
7.4958855284
 10
6.2551567999
 20
7.480597465
 10
6.2690831524
 20
7.4609578519
 10
6.2763402819
 20
7.438558004
 10
6.2763402819
 20
7.4152124603
 10
6.2690831524
 20
7.3928124658
 10
6.2551567999
 20
7.3731729993
 10
6.2356894448
 20
7.3578847893
 10
6.2122582488
 20
7.3481867146
 10
6.18676146
 20
7.344864313
 10
6.1612646346
 20
7.3481867146
 10
6.1378334386
 20
7.3578847893
 10
6.1183660835
 20
7.3731729993
 10
6.104439731
 20
7.3928124658
 10
6.0971826015
 20
7.4152124603
 10
6.0971826015
 20
7.438558004
 10
6.104439731
 20
7.4609578519
 10
6.1183660835
 20
7.480597465
 10
6.1378334386
 20
7.4958855284
 10
6.1612646346
 20
7.505583603
 10
6.18676146
 20
7.5089060046
  0
LWPOLYLINE
  5
C5
330
1F
100
AcDbEntity
  8
0
  6
Continuous
 62
     7
370
    15
100
AcDbPolyline
 90
       23
 70
   128
 43
0.0
 10
7.4457614493
 20
7.5091463885
 10
7.4713330006
 20
7.505814307
 10
7.4948328358
 20
7.4960877794
 10
7.5143572435
 20
7.4807548365
 10
7.5283244422
 20
7.4610577307
 10
7.5356028381
 20
7.4385921769
 10
7.5356028381
 20
7.4151781407
 10
7.5283244422
 20
7.3927125869
 10
7.5143572435
 20
7.3730154811
 10
7.4948328358
 20
7.3576825383
 10
7.4713330006
 20
7.3479560106
 10
7.4457614493
 20
7.3446239291
 10
7.4201899347
 20
7.3479560106
 10
7.3966900629
 20
7.3576825383
 10
7.3771656551
 20
7.3730154811
 10
7.3631984564
 20
7.3927125869
 10
7.3559200605
 20
7.4151781407
 10
7.3559200605
 20
7.4385921769
 10
7.3631984564
 20
7.4610577307
 10
7.3771656551
 20
7.4807548365
 10
7.3966900629
 20
7.4960877794
 10
7.4201899347
 20
7.505814307
 10
7.4457614493
 20
7.5091463885
  0
LWPOLYLINE
  5
C6
330
1F
100
AcDbEntity
  8
0
  6
Continuous
 62
     7
370
    15
100
AcDbPolyline
 90
       23
 70
   128
 43
0.0
 10
10.7267614536
 20
7.5091463885
 10
10.7523330782
 20
7.505814307
 10
10.7758329134
 20
7.4960877794
 10
10.7953572478
 20
7.4807548365
 10
10.8093244465
 20
7.4610577307
 10
10.8166028424
 20
7.4385921769
 10
10.8166028424
 20
7.4151781407
 10
10.8093244465
 20
7.3927125869
 10
10.7953572478
 20
7.3730154811
 10
10.7758329134
 20
7.3576825383
 10
10.7523330782
 20
7.3479560106
 10
10.7267614536
 20
7.3446239291
 10
10.701189829
 20
7.3479560106
 10
10.6776899938
 20
7.3576825383
 10
10.6581656593
 20
7.3730154811
 10
10.6441984607
 20
7.3927125869
 10
10.6369200648
 20
7.4151781407
 10
10.6369200648
 20
7.4385921769
 10
10.6441984607
 20
7.4610577307
 10
10.6581656593
 20
7.4807548365
 10
10.6776899938
 20
7.4960877794
 10
10.701189829
 20
7.505814307
 10
10.7267614536
 20
7.5091463885
  0
LWPOLYLINE
  5
C7
330
1F
100
AcDbEntity
  8
0
  6
Continuous
 62
     7
370
    15
100
AcDbPolyline
 90
       25
 70
   128
 43
0.0
 10
9.9162614832
 20
9.1289287167
 10
9.9433727967
 20
9.125693874
 10
9.9686364248
 20
9.1162096369
 10
9.9903308142
 20
9.1011225046
 10
10.0069775819
 20
9.0814605984
 10
10.0174421277
 20
9.0585641429
 10
10.0210113665
 20
9.0339927734
 10
10.0174421277
 20
9.0094216972
 10
10.0069775819
 20
8.9865249484
 10
9.9903308142
 20
8.9668630422
 10
9.9686364248
 20
8.9517762031
 10
9.9433727967
 20
8.942291966
 10
9.9162614832
 20
8.9390571234
 10
9.8891501697
 20
8.942291966
 10
9.8638865416
 20
8.9517762031
 10
9.8421921522
 20
8.9668630422
 10
9.8255453845
 20
8.9865249484
 10
9.8150808387
 20
9.0094216972
 10
9.8115116
 20
9.0339927734
 10
9.8150808387
 20
9.0585641429
 10
9.8255453845
 20
9.0814605984
 10
9.8421921522
 20
9.1011225046
 10
9.8638865416
 20
9.1162096369
 10
9.8891501697
 20
9.125693874
 10
9.9162614832
 20
9.1289287167
  0
LWPOLYLINE
  5
C8
330
1F
100
AcDbEntity
  8
0
  6
Continuous
 62
     7
370
    15
100
AcDbPolyline
 90
       25
 70
   128
 43
0.0
 10
3.7162614261
 20
9.1289287167
 10
3.7433727396
 20
9.125693874
 10
3.7686363678
 20
9.1162096369
 10
3.7903307572
 20
9.1011225046
 10
3.8069775248
 20
9.0814605984
 10
3.8174420706
 20
9.0585641429
 10
3.8210113094
 20
9.0339927734
 10
3.8174420706
 20
9.0094216972
 10
3.8069775248
 20
8.9865249484
 10
3.7903307572
 20
8.9668630422
 10
3.7686363678
 20
8.9517762031
 10
3.7433727396
 20
8.942291966
 10
3.7162614261
 20
8.9390571234
 10
3.6891501127
 20
8.942291966
 10
3.6638864845
 20
8.9517762031
 10
3.6421920951
 20
8.9668630422
 10
3.6255453274
 20
8.9865249484
 10
3.6150807817
 20
9.0094216972
 10
3.6115115429
 20
9.0339927734
 10
3.6150807817
 20
9.0585641429
 10
3.6255453274
 20
9.0814605984
 10
3.6421920951
 20
9.1011225046
 10
3.6638864845
 20
9.1162096369
 10
3.6891501127
 20
9.125693874
 10
3.7162614261
 20
9.1289287167
  0
LINE
  5
C9
330
1F
100
AcDbEntity
  8
0
  6
Continuous
 62
     7
370
    15
100
AcDbLine
 10
2.246261581
 20
5.5478851877
 30
0.0
 11
2.246261581
 21
9.2023732549
 31
0.0
  0
LINE
  5
CA
330
1F
100
AcDbEntity
  8
0
  6
Continuous
 62
     7
370
    15
100
AcDbLine
 10
11.3862613283
 20
9.2023732549
 30
0.0
 11
11.3862613283
 21
5.5478851877
 31
0.0
  0
LWPOLYLINE
  5
CB
330
1F
100
AcDbEntity
  8
0
  6
Continuous
 62
     7
370
    15
100
AcDbPolyline
 90
       19
 70
   128
 43
0.0
 10
7.4457614493
 20
7.359612796
 10
7.466364138
 20
7.3629052779
 10
7.4844818087
 20
7.3723854084
 10
7.4979293
 20
7.3869099339
 10
7.5050844973
 20
7.4047269415
 10
7.5050844973
 20
7.4236873491
 10
7.4979293
 20
7.4415043566
 10
7.4844818087
 20
7.4560288821
 10
7.466364138
 20
7.4655090126
 10
7.4457614493
 20
7.4688014946
 10
7.4251587606
 20
7.4655090126
 10
7.4070410899
 20
7.4560288821
 10
7.3935936353
 20
7.4415043566
 10
7.3864384013
 20
7.4236873491
 10
7.3864384013
 20
7.4047269415
 10
7.3935936353
 20
7.3869099339
 10
7.4070410899
 20
7.3723854084
 10
7.4251587606
 20
7.3629052779
 10
7.4457614493
 20
7.359612796
  0
LWPOLYLINE
  5
CC
330
1F
100
AcDbEntity
  8
0
  6
Continuous
 62
     7
370
    15
100
AcDbPolyline
 90
       19
 70
   128
 43
0.0
 10
10.7267614536
 20
7.359612796
 10
10.7473640689
 20
7.3629052779
 10
10.7654818863
 20
7.3723854084
 10
10.7789293043
 20
7.3869099339
 10
10.7860845016
 20
7.4047269415
 10
10.7860845016
 20
7.4236873491
 10
10.7789293043
 20
7.4415043566
 10
10.7654818863
 20
7.4560288821
 10
10.7473640689
 20
7.4655090126
 10
10.7267614536
 20
7.4688014946
 10
10.7061588383
 20
7.4655090126
 10
10.6880410209
 20
7.4560288821
 10
10.6745936029
 20
7.4415043566
 10
10.6674384056
 20
7.4236873491
 10
10.6674384056
 20
7.4047269415
 10
10.6745936029
 20
7.3869099339
 10
10.6880410209
 20
7.3723854084
 10
10.7061588383
 20
7.3629052779
 10
10.7267614536
 20
7.359612796
  0
LWPOLYLINE
  5
CD
330
1F
100
AcDbEntity
  8
0
  6
Continuous
 62
     7
370
    15
100
AcDbPolyline
 90
       19
 70
   128
 43
0.0
 10
2.9057614558
 20
7.4686872426
 10
2.8851594271
 20
7.4653949073
 10
2.8670424897
 20
7.4559150701
 10
2.8535956584
 20
7.4413911312
 10
2.8464407544
 20
7.4235748571
 10
2.8464407544
 20
7.4046151828
 10
2.8535956584
 20
7.3867989086
 10
2.8670424897
 20
7.3722749697
 10
2.8851594271
 20
7.3627951325
 10
2.9057614558
 20
7.3595027972
 10
2.9263634844
 20
7.3627951325
 10
2.9444804218
 20
7.3722749697
 10
2.9579272532
 20
7.3867989086
 10
2.9650821572
 20
7.4046151828
 10
2.9650821572
 20
7.4235748571
 10
2.9579272532
 20
7.4413911312
 10
2.9444804218
 20
7.4559150701
 10
2.9263634844
 20
7.4653949073
 10
2.9057614558
 20
7.4686872426
  0
LWPOLYLINE
  5
CE
330
1F
100
AcDbEntity
  8
0
  6
Continuous
 62
     7
370
    15
100
AcDbPolyline
 90
       19
 70
   128
 43
0.0
 10
6.18676146
 20
7.4686872426
 10
6.166159578
 20
7.4653949073
 10
6.1480425673
 20
7.4559150701
 10
6.1345956627
 20
7.4413911312
 10
6.1274406853
 20
7.4235748571
 10
6.1274406853
 20
7.4046151828
 10
6.1345956627
 20
7.3867989086
 10
6.1480425673
 20
7.3722749697
 10
6.166159578
 20
7.3627951325
 10
6.18676146
 20
7.3595027972
 10
6.2073633421
 20
7.3627951325
 10
6.2254803528
 20
7.3722749697
 10
6.2389272574
 20
7.3867989086
 10
6.2460822348
 20
7.4046151828
 10
6.2460822348
 20
7.4235748571
 10
6.2389272574
 20
7.4413911312
 10
6.2254803528
 20
7.4559150701
 10
6.2073633421
 20
7.4653949073
 10
6.18676146
 20
7.4686872426
  0
ARC
  5
CF
330
1F
100
AcDbEntity
  8
0
  6
Continuous
 62
     7
370
    15
100
AcDbCircle
 10
2.6387819158
 20
7.3387842919
 30
0.0
 40
0.0778678099050741
100
AcDbArc
 50
88.9112568019
 51
142.8121138756
  0
ARC
  5
D0
330
1F
100
AcDbEntity
  8
0
  6
Continuous
 62
     7
370
    15
100
AcDbCircle
 10
2.6417390657
 20
7.3387801986
 30
0.0
 40
0.0778718647979175
100
AcDbArc
 50
37.1894030173
 51
91.0872263052
  0
ARC
  5
D1
330
1F
100
AcDbEntity
  8
0
  6
Continuous
 62
     7
370
    15
100
AcDbCircle
 10
6.4507826948
 20
7.3387827314
 30
0.0
 40
0.0778693550096462
100
AcDbArc
 50
88.9118614307
 51
142.8115352131
  0
ARC
  5
D2
330
1F
100
AcDbEntity
  8
0
  6
Continuous
 62
     7
370
    15
100
AcDbCircle
 10
6.4537403335
 20
7.338782989
 30
0.0
 40
0.0778690991774512
100
AcDbArc
 50
37.1883697153
 51
91.0882076747
  0
ARC
  5
D3
330
1F
100
AcDbEntity
  8
0
  6
Continuous
 62
     7
370
    15
100
AcDbCircle
 10
7.1817402145
 20
7.3387827314
 30
0.0
 40
0.0778693550096498
100
AcDbArc
 50
37.1884647869
 51
91.0881385693
  0
ARC
  5
D4
330
1F
100
AcDbEntity
  8
0
  6
Continuous
 62
     7
370
    15
100
AcDbCircle
 10
7.1787825759
 20
7.338782989
 30
0.0
 40
0.077869099177453
100
AcDbArc
 50
88.9117923253
 51
142.8116302847
  0
ARC
  5
D5
330
1F
100
AcDbEntity
  8
0
  6
Continuous
 62
     7
370
    15
100
AcDbCircle
 10
10.9937409935
 20
7.3387842919
 30
0.0
 40
0.0778678099050714
100
AcDbArc
 50
37.1878861244
 51
91.0887431981
  0
ARC
  5
D6
330
1F
100
AcDbEntity
  8
0
  6
Continuous
 62
     7
370
    15
100
AcDbCircle
 10
10.9907838437
 20
7.3387801986
 30
0.0
 40
0.0778718647979253
100
AcDbArc
 50
88.9127736948
 51
142.8105969827
  0
LINE
  5
D7
330
1F
100
AcDbEntity
  8
0
  6
Continuous
 62
     7
370
    15
100
AcDbLine
 10
5.9862614229
 20
8.4266475495
 30
0.0
 11
3.1062615662
 21
8.4266475495
 31
0.0
  0
LINE
  5
D8
330
1F
100
AcDbEntity
  8
0
  6
Continuous
 62
     7
370
    15
100
AcDbLine
 10
7.6462614864
 20
8.4266475495
 30
0.0
 11
10.5262613431
 21
8.4266475495
 31
0.0
  0
LWPOLYLINE
  5
D9
330
1F
100
AcDbEntity
  8
0
  6
Continuous
 62
     7
370
    15
100
AcDbPolyline
 90
       21
 70
   128
 43
0.0
 10
3.7162614261
 20
9.0887099546
 10
3.6932441187
 20
9.0854058861
 10
3.6724798786
 20
9.0758172235
 10
3.6560011889
 20
9.0608823294
 10
3.6454210712
 20
9.0420634535
 10
3.6417755666
 20
9.0212027078
 10
3.6454210712
 20
9.0003419621
 10
3.6560011889
 20
8.9815230862
 10
3.6724798786
 20
8.966588192
 10
3.6932441187
 20
8.9569995295
 10
3.7162614261
 20
8.953695461
 10
3.7392787336
 20
8.9569995295
 10
3.760043267
 20
8.966588192
 10
3.7765216633
 20
8.9815230862
 10
3.7871017811
 20
9.0003419621
 10
3.7907472857
 20
9.0212027078
 10
3.7871017811
 20
9.0420634535
 10
3.7765216633
 20
9.0608823294
 10
3.760043267
 20
9.0758172235
 10
3.7392787336
 20
9.0854058861
 10
3.7162614261
 20
9.0887099546
  0
LWPOLYLINE
  5
DA
330
1F
100
AcDbEntity
  8
0
  6
Continuous
 62
     7
370
    15
100
AcDbPolyline
 90
       21
 70
   128
 43
0.0
 10
9.9162614832
 20
9.0887099546
 10
9.8932441758
 20
9.0854058861
 10
9.8724796423
 20
9.0758172235
 10
9.856001246
 20
9.0608823294
 10
9.8454211282
 20
9.0420634535
 10
9.8417756237
 20
9.0212027078
 10
9.8454211282
 20
9.0003419621
 10
9.856001246
 20
8.9815230862
 10
9.8724796423
 20
8.966588192
 10
9.8932441758
 20
8.9569995295
 10
9.9162614832
 20
8.953695461
 10
9.9392787906
 20
8.9569995295
 10
9.9600430308
 20
8.966588192
 10
9.9765217204
 20
8.9815230862
 10
9.9871018382
 20
9.0003419621
 10
9.9907473427
 20
9.0212027078
 10
9.9871018382
 20
9.0420634535
 10
9.9765217204
 20
9.0608823294
 10
9.9600430308
 20
9.0758172235
 10
9.9392787906
 20
9.0854058861
 10
9.9162614832
 20
9.0887099546
  0
ARC
  5
DB
330
1F
100
AcDbEntity
  8
0
  6
Continuous
 62
     7
370
    15
100
AcDbCircle
 10
2.2862614547
 20
9.2658851871
 30
0.0
 40
0.0399999999999996
100
AcDbArc
 50
90.0
 51
180.0
  0
LINE
  5
DC
330
1F
100
AcDbEntity
  8
0
  6
Continuous
 62
     7
370
    15
100
AcDbLine
 10
2.246261581
 20
9.2023732549
 30
0.0
 11
2.246261581
 21
9.2658850545
 31
0.0
  0
LINE
  5
DD
330
1F
100
AcDbEntity
  8
0
  6
Continuous
 62
     7
370
    15
100
AcDbLine
 10
2.286261519
 20
9.3058852858
 30
0.0
 11
11.3462613904
 21
9.3058852858
 31
0.0
  0
ARC
  5
DE
330
1F
100
AcDbEntity
  8
0
  6
Continuous
 62
     7
370
    15
100
AcDbCircle
 10
11.3462614547
 20
9.2658851871
 30
0.0
 40
0.0400000000000009
100
AcDbArc
 50
0.0
 51
90.0
  0
LINE
  5
DF
330
1F
100
AcDbEntity
  8
0
  6
Continuous
 62
     7
370
    15
100
AcDbLine
 10
11.3862613283
 20
9.2658850545
 30
0.0
 11
11.3862613283
 21
9.2023732549
 31
0.0
  0
MTEXT
  5
E0
330
1F
100
AcDbEntity
  8
DEFAULT
 62
     7
100
AcDbMText
 10
6.2876532964
 20
4.8022395599
 30
0.0
 40
0.25
 41
0.0
 71
     1
 72
     1
  1
FRONT
  7
SLDTEXTSTYLE0
 73
     1
 44
1.0
  0
LWPOLYLINE
  5
E1
330
1F
100
AcDbEntity
  8
0
  6
Continuous
 62
     7
370
    15
100
AcDbPolyline
 90
       17
 70
   128
 43
0.0
 10
19.9830910502
 20
13.9814502895
 10
19.9755811538
 20
13.9774380224
 10
19.9595438838
 20
13.9706310213
 10
19.9416775195
 20
13.9651816513
 10
19.9224142111
 20
13.9612729386
 10
19.9022261403
 20
13.9590352219
 10
19.8816183641
 20
13.9585444173
 10
19.8611114955
 20
13.959820641
 10
19.8412328888
 20
13.9628247975
 10
19.822490401
 20
13.9674579205
 10
19.8053595323
 20
13.9735616514
 10
19.7902666255
 20
13.9809168017
 10
19.7775663614
 20
13.9892467647
 10
19.7675079496
 20
13.9982314046
 10
19.7602150099
 20
14.0075304059
 10
19.7556428443
 20
14.0169033776
 10
19.7537598218
 20
14.0260063892
  0
LINE
  5
E2
330
1F
100
AcDbEntity
  8
0
  6
Continuous
 62
     7
370
    15
100
AcDbLine
 10
20.1103702807
 20
14.0549270253
 30
0.0
 11
19.9830910502
 21
13.9814502895
 31
0.0
  0
LINE
  5
E3
330
1F
100
AcDbEntity
  8
0
  6
Continuous
 62
     7
370
    15
100
AcDbLine
 10
18.9057601481
 20
12.0045955035
 30
0.0
 11
18.9057601481
 21
11.9474376456
 31
0.0
  0
LINE
  5
E4
330
1F
100
AcDbEntity
  8
0
  6
Continuous
 62
     7
370
    15
100
AcDbLine
 10
18.3542363822
 20
13.6387497759
 30
0.0
 11
18.3658211394
 21
13.6395156146
 31
0.0
  0
LWPOLYLINE
  5
E5
330
1F
100
AcDbEntity
  8
0
  6
Continuous
 62
     7
370
    15
100
AcDbPolyline
 90
       13
 70
   128
 43
0.0
 10
18.3651060742
 20
13.6398758575
 10
18.3718388102
 20
13.6403330989
 10
18.3830320446
 20
13.6442353577
 10
18.3930493103
 20
13.6509153575
 10
18.4015777468
 20
13.6601020113
 10
18.4082659664
 20
13.6714712026
 10
18.4127514841
 20
13.684531697
 10
18.4147579966
 20
13.698630361
 10
18.4141479874
 20
13.7130448403
 10
18.4109083373
 20
13.7270628812
 10
18.4051230757
 20
13.7399892602
 10
18.3969811321
 20
13.7511317279
 10
18.3923604831
 20
13.7551687908
  0
LINE
  5
E6
330
1F
100
AcDbEntity
  8
0
  6
Continuous
 62
     7
370
    15
100
AcDbLine
 10
17.3607318439
 20
12.8801905413
 30
0.0
 11
17.3607318439
 21
12.8393635004
 31
0.0
  0
LINE
  5
E7
330
1F
100
AcDbEntity
  8
0
  6
Continuous
 62
     7
370
    15
100
AcDbLine
 10
16.6965593472
 20
15.6606149385
 30
0.0
 11
16.098642417
 21
13.8347648814
 31
0.0
  0
LWPOLYLINE
  5
E8
330
1F
100
AcDbEntity
  8
0
  6
Continuous
 62
     7
370
    15
100
AcDbPolyline
 90
       17
 70
   128
 43
0.0
 10
17.1475928509
 20
15.6183485576
 10
17.1400829545
 20
15.6143362905
 10
17.1240456846
 20
15.6075292893
 10
17.1061793202
 20
15.6020799194
 10
17.0869160119
 20
15.5981712066
 10
17.0667279411
 20
15.59593349
 10
17.0461201648
 20
15.5954426853
 10
17.0256132963
 20
15.5967189091
 10
17.0057346895
 20
15.5997230656
 10
16.9869923054
 20
15.6043561287
 10
16.969861333
 20
15.6104599194
 10
16.9547684263
 20
15.6178150697
 10
16.9420681621
 20
15.6261450328
 10
16.9320097503
 20
15.6351296726
 10
16.9247168107
 20
15.644428674
 10
16.920144645
 20
15.6538016457
 10
16.9182616226
 20
15.6629046573
  0
LINE
  5
E9
330
1F
100
AcDbEntity
  8
0
  6
Continuous
 62
     7
370
    15
100
AcDbLine
 10
17.2748720814
 20
15.6918252933
 30
0.0
 11
17.1475928509
 21
15.6183485576
 31
0.0
  0
ARC
  5
EA
330
1F
100
AcDbEntity
  8
0
  6
Continuous
 62
     7
370
    15
100
AcDbCircle
 10
16.7961586629
 20
15.629545805
 30
0.0
 40
0.1043327118116636
100
AcDbArc
 50
122.0367192303
 51
162.6751466395
  0
LINE
  5
EB
330
1F
100
AcDbEntity
  8
0
  6
Continuous
 62
     7
370
    15
100
AcDbLine
 10
16.9841462523
 20
15.8584621986
 30
0.0
 11
16.7408140566
 21
15.717989512
 31
0.0
  0
LINE
  5
EC
330
1F
100
AcDbEntity
  8
0
  6
Continuous
 62
     7
370
    15
100
AcDbLine
 10
16.7491039912
 20
14.5653729815
 30
0.0
 11
16.7606887743
 21
14.5661388052
 31
0.0
  0
LWPOLYLINE
  5
ED
330
1F
100
AcDbEntity
  8
0
  6
Continuous
 62
     7
370
    15
100
AcDbPolyline
 90
       13
 70
   128
 43
0.0
 10
16.7599737091
 20
14.5664990481
 10
16.7667064192
 20
14.5669563045
 10
16.7778997054
 20
14.5708585333
 10
16.7879168933
 20
14.577538578
 10
16.7964453558
 20
14.5867252169
 10
16.8031335753
 20
14.5980944082
 10
16.8076190931
 20
14.6111549026
 10
16.8096256316
 20
14.6252535517
 10
16.8090156223
 20
14.6396680309
 10
16.8057758944
 20
14.6536861167
 10
16.7999906587
 20
14.6666124808
 10
16.791848767
 20
14.6777549186
 10
16.7872280662
 20
14.6817920113
  0
LINE
  5
EE
330
1F
100
AcDbEntity
  8
0
  6
Continuous
 62
     7
370
    15
100
AcDbLine
 10
16.0903286556
 20
13.8245229195
 30
0.0
 11
15.9093439797
 21
13.7200426901
 31
0.0
  0
ARC
  5
EF
330
1F
100
AcDbEntity
  8
0
  6
Continuous
 62
     7
370
    15
100
AcDbCircle
 10
16.0847608509
 20
13.837406468
 30
0.0
 40
0.0138077862172072
100
AcDbArc
 50
293.9706792872
 51
349.0205449684
  0
LINE
  5
F0
330
1F
100
AcDbEntity
  8
0
  6
Continuous
 62
     7
370
    15
100
AcDbLine
 10
19.9477700414
 20
13.6078433883
 30
0.0
 11
19.4416355483
 21
12.0622680253
 31
0.0
  0
LINE
  5
F1
330
1F
100
AcDbEntity
  8
0
  6
Continuous
 62
     7
370
    15
100
AcDbLine
 10
19.4416355483
 20
12.0622680253
 30
0.0
 11
19.4742795996
 21
12.0811130349
 31
0.0
  0
LINE
  5
F2
330
1F
100
AcDbEntity
  8
0
  6
Continuous
 62
     7
370
    15
100
AcDbLine
 10
19.9804140408
 20
13.626688368
 30
0.0
 11
19.4742795996
 21
12.0811130349
 31
0.0
  0
LINE
  5
F3
330
1F
100
AcDbEntity
  8
0
  6
Continuous
 62
     7
370
    15
100
AcDbLine
 10
19.9804140408
 20
13.626688368
 30
0.0
 11
19.9477700414
 21
13.6078433883
 31
0.0
  0
LINE
  5
F4
330
1F
100
AcDbEntity
  8
0
  6
Continuous
 62
     7
370
    15
100
AcDbLine
 10
19.9767081464
 20
13.7878571491
 30
0.0
 11
20.211481234
 21
13.9233887677
 31
0.0
  0
LINE
  5
F5
330
1F
100
AcDbEntity
  8
0
  6
Continuous
 62
     7
370
    15
100
AcDbLine
 10
19.9767081464
 20
13.7878571491
 30
0.0
 11
19.9437351859
 21
13.68716819
 31
0.0
  0
LINE
  5
F6
330
1F
100
AcDbEntity
  8
0
  6
Continuous
 62
     7
370
    15
100
AcDbLine
 10
19.9437351859
 20
13.68716819
 30
0.0
 11
20.1848276043
 21
13.8263478806
 31
0.0
  0
LINE
  5
F7
330
1F
100
AcDbEntity
  8
0
  6
Continuous
 62
     7
370
    15
100
AcDbLine
 10
20.1848276043
 20
13.8263478806
 30
0.0
 11
20.1848276043
 21
12.4096495852
 31
0.0
  0
LINE
  5
F8
330
1F
100
AcDbEntity
  8
0
  6
Continuous
 62
     7
370
    15
100
AcDbLine
 10
19.1366789613
 20
11.8045662532
 30
0.0
 11
20.1848276043
 21
12.4096495852
 31
0.0
  0
LINE
  5
F9
330
1F
100
AcDbEntity
  8
0
  6
Continuous
 62
     7
370
    15
100
AcDbLine
 10
19.1366789613
 20
11.8045662532
 30
0.0
 11
19.1366789613
 21
11.845393294
 31
0.0
  0
LINE
  5
FA
330
1F
100
AcDbEntity
  8
0
  6
Continuous
 62
     7
370
    15
100
AcDbLine
 10
19.3304060845
 20
11.9572295818
 30
0.0
 11
19.1366789613
 21
11.845393294
 31
0.0
  0
LINE
  5
FB
330
1F
100
AcDbEntity
  8
0
  6
Continuous
 62
     7
370
    15
100
AcDbLine
 10
19.9329019732
 20
13.7970623816
 30
0.0
 11
19.3304060845
 21
11.9572295818
 31
0.0
  0
ARC
  5
FC
330
1F
100
AcDbEntity
  8
0
  6
Continuous
 62
     7
370
    15
100
AcDbCircle
 10
20.0143933009
 20
13.7715567796
 30
0.0
 40
0.0853895322646097
100
AcDbArc
 50
122.7904627878
 51
162.6206378837
  0
LINE
  5
FD
330
1F
100
AcDbEntity
  8
0
  6
Continuous
 62
     7
370
    15
100
AcDbLine
 10
20.211481234
 20
13.9838127539
 30
0.0
 11
19.9681490383
 21
13.8433400673
 31
0.0
  0
LINE
  5
FE
330
1F
100
AcDbEntity
  8
0
  6
Continuous
 62
     7
370
    15
100
AcDbLine
 10
20.211481234
 20
13.9233887677
 30
0.0
 11
20.211481234
 21
13.9838127539
 31
0.0
  0
ARC
  5
FF
330
1F
100
AcDbEntity
  8
0
  6
Continuous
 62
     7
370
    15
100
AcDbCircle
 10
19.9349877854
 20
13.8556312616
 30
0.0
 40
0.0586060093138915
100
AcDbArc
 50
240.2907553811
 51
267.9603886613
  0
ELLIPSE
  5
100
330
1F
100
AcDbEntity
  8
0
  6
Continuous
 62
     7
370
    15
100
AcDbEllipse
 10
19.3162639807
 20
11.9653936294
 30
0.0
 11
-0.01172507885027585
 21
0.02372004340670841
 31
0.0
210
0.0
220
0.0
230
1.0
 40
0.3990217959
 41
4.17319780410621
 42
5.743994130900983
  0
LINE
  5
101
330
1F
100
AcDbEntity
  8
0
  6
Continuous
 62
     7
370
    15
100
AcDbLine
 10
19.3110620397
 20
11.9881505674
 30
0.0
 11
19.9059427166
 21
13.8047289207
 31
0.0
  0
LINE
  5
102
330
1F
100
AcDbEntity
  8
0
  6
Continuous
 62
     7
370
    15
100
AcDbLine
 10
16.1078683663
 20
13.8373149145
 30
0.0
 11
16.3694978323
 21
13.6862794387
 31
0.0
  0
LINE
  5
103
330
1F
100
AcDbEntity
  8
0
  6
Continuous
 62
     7
370
    15
100
AcDbLine
 10
16.7027490433
 20
15.6538932678
 30
0.0
 11
16.1078683663
 21
13.8373149145
 31
0.0
  0
LINE
  5
104
330
1F
100
AcDbEntity
  8
0
  6
Continuous
 62
     7
370
    15
100
AcDbLine
 10
19.9059427166
 20
13.8047289207
 30
0.0
 11
16.7027490433
 21
15.6538932678
 31
0.0
  0
LINE
  5
105
330
1F
100
AcDbEntity
  8
0
  6
Continuous
 62
     7
370
    15
100
AcDbLine
 10
19.0494325737
 20
12.1391860433
 30
0.0
 11
19.3110620397
 21
11.9881505674
 31
0.0
  0
LINE
  5
106
330
1F
100
AcDbEntity
  8
0
  6
Continuous
 62
     7
370
    15
100
AcDbLine
 10
19.0428379764
 20
12.1190482499
 30
0.0
 11
19.0494325737
 21
12.1391860433
 31
0.0
  0
LINE
  5
107
330
1F
100
AcDbEntity
  8
0
  6
Continuous
 62
     7
370
    15
100
AcDbLine
 10
16.362903235
 20
13.6661416453
 30
0.0
 11
19.0428379764
 21
12.1190482499
 31
0.0
  0
LINE
  5
108
330
1F
100
AcDbEntity
  8
0
  6
Continuous
 62
     7
370
    15
100
AcDbLine
 10
16.3694978323
 20
13.6862794387
 30
0.0
 11
16.362903235
 21
13.6661416453
 31
0.0
  0
LINE
  5
109
330
1F
100
AcDbEntity
  8
0
  6
Continuous
 62
     7
370
    15
100
AcDbLine
 10
17.8928283394
 20
14.5381727237
 30
0.0
 11
16.8745946252
 21
15.125986535
 31
0.0
  0
LINE
  5
10A
330
1F
100
AcDbEntity
  8
0
  6
Continuous
 62
     7
370
    15
100
AcDbLine
 10
16.8745946252
 20
15.125986535
 30
0.0
 11
16.5197266129
 21
14.0423312918
 31
0.0
  0
LINE
  5
10B
330
1F
100
AcDbEntity
  8
0
  6
Continuous
 62
     7
370
    15
100
AcDbLine
 10
16.5197266129
 20
14.0423312918
 30
0.0
 11
17.5379603271
 21
13.4545174806
 31
0.0
  0
LINE
  5
10C
330
1F
100
AcDbEntity
  8
0
  6
Continuous
 62
     7
370
    15
100
AcDbLine
 10
17.5379603271
 20
13.4545174806
 30
0.0
 11
17.8928283394
 21
14.5381727237
 31
0.0
  0
LWPOLYLINE
  5
10D
330
1F
100
AcDbEntity
  8
0
  6
Continuous
 62
     7
370
    15
100
AcDbPolyline
 90
       21
 70
   128
 43
0.0
 10
17.8684956254
 20
13.8656440198
 10
17.8775878824
 20
13.8624663978
 10
17.8869309048
 20
13.8630834851
 10
17.8956102298
 20
13.8674350294
 10
17.9027762311
 20
13.8750950492
 10
17.9077274163
 20
13.8853136216
 10
17.9099791524
 20
13.8970905528
 10
17.9093110668
 20
13.9092730349
 10
17.9057885083
 20
13.9206685765
 10
17.8997562536
 20
13.9301616823
 10
17.8918048861
 20
13.9368230754
 10
17.8827126291
 20
13.9400007573
 10
17.8733696067
 20
13.93938361
 10
17.8646902752
 20
13.9350320695
 10
17.8575242739
 20
13.9273721096
 10
17.8525730822
 20
13.9171535409
 10
17.8503213526
 20
13.9053766059
 10
17.8509894382
 20
13.893194064
 10
17.8545120032
 20
13.8817985187
 10
17.8605442579
 20
13.8723054727
 10
17.8684956254
 20
13.8656440198
  0
LWPOLYLINE
  5
10E
330
1F
100
AcDbEntity
  8
0
  6
Continuous
 62
     7
370
    15
100
AcDbPolyline
 90
       21
 70
   128
 43
0.0
 10
16.5207501052
 20
14.6436809477
 10
16.5298423232
 20
14.6405033481
 10
16.5391853586
 20
14.641120428
 10
16.5478646641
 20
14.6454719834
 10
16.5550306654
 20
14.6531320032
 10
16.5599818831
 20
14.6633505569
 10
16.5622335867
 20
14.6751275069
 10
16.5615655011
 20
14.6873099889
 10
16.5580429621
 20
14.6987055193
 10
16.5520106944
 20
14.7081986326
 10
16.5440593658
 20
14.7148600032
 10
16.5349671477
 20
14.7180376627
 10
16.5256241123
 20
14.7174205229
 10
16.5169447031
 20
14.7130690273
 10
16.5097787018
 20
14.7054090674
 10
16.5048275879
 20
14.6951904538
 10
16.5025757805
 20
14.6834135637
 10
16.5032438661
 20
14.6712310218
 10
16.5067665088
 20
14.6598354316
 10
16.5127987765
 20
14.6503423782
 10
16.5207501052
 20
14.6436809477
  0
LINE
  5
10F
330
1F
100
AcDbEntity
  8
0
  6
Continuous
 62
     7
370
    15
100
AcDbLine
 10
18.124858978
 20
13.1157081012
 30
0.0
 11
18.4797269903
 21
14.1993633443
 31
0.0
  0
LINE
  5
110
330
1F
100
AcDbEntity
  8
0
  6
Continuous
 62
     7
370
    15
100
AcDbLine
 10
19.1430926922
 20
12.5278942899
 30
0.0
 11
18.124858978
 21
13.1157081012
 31
0.0
  0
LINE
  5
111
330
1F
100
AcDbEntity
  8
0
  6
Continuous
 62
     7
370
    15
100
AcDbLine
 10
19.4979607045
 20
13.6115495331
 30
0.0
 11
19.1430926922
 21
12.5278942899
 31
0.0
  0
LINE
  5
112
330
1F
100
AcDbEntity
  8
0
  6
Continuous
 62
     7
370
    15
100
AcDbLine
 10
18.4797269903
 20
14.1993633443
 30
0.0
 11
19.4979607045
 21
13.6115495331
 31
0.0
  0
LWPOLYLINE
  5
113
330
1F
100
AcDbEntity
  8
0
  6
Continuous
 62
     7
370
    15
100
AcDbPolyline
 90
       21
 70
   128
 43
0.0
 10
18.1258824832
 20
13.7170577495
 10
18.1179311157
 20
13.7237192025
 10
18.111898861
 20
13.7332122484
 10
18.1083763025
 20
13.74460779
 10
18.1077082169
 20
13.7567903319
 10
18.109959953
 20
13.7685672632
 10
18.1149111382
 20
13.7787858356
 10
18.1220771395
 20
13.7864457955
 10
18.1307564644
 20
13.7907973398
 10
18.1400994869
 20
13.791414487
 10
18.1491917438
 20
13.7882368051
 10
18.1571431113
 20
13.781575412
 10
18.1631753661
 20
13.7720823062
 10
18.166697931
 20
13.7606867609
 10
18.1673660166
 20
13.7485042788
 10
18.165114287
 20
13.7367273439
 10
18.1601630953
 20
13.7265087752
 10
18.152997094
 20
13.7188487554
 10
18.1443177626
 20
13.7144972149
 10
18.1349747402
 20
13.7138801275
 10
18.1258824832
 20
13.7170577495
  0
LWPOLYLINE
  5
114
330
1F
100
AcDbEntity
  8
0
  6
Continuous
 62
     7
370
    15
100
AcDbPolyline
 90
       21
 70
   128
 43
0.0
 10
19.4736280035
 20
12.9390208217
 10
19.4656766749
 20
12.9456822522
 10
19.4596444072
 20
12.9551753056
 10
19.4561218681
 20
12.966570836
 10
19.4554537825
 20
12.9787533779
 10
19.4577054862
 20
12.9905303278
 10
19.4626567038
 20
13.0007488816
 10
19.4698227051
 20
13.0084088414
 10
19.4785020106
 20
13.0127603969
 10
19.487845046
 20
13.0133775367
 10
19.4969372641
 20
13.0101998772
 10
19.5048885927
 20
13.0035385066
 10
19.5109208604
 20
12.9940453933
 10
19.5144435031
 20
12.9826498031
 10
19.5151115888
 20
12.970467321
 10
19.5128597814
 20
12.958690431
 10
19.5079086675
 20
12.9484718174
 10
19.5007426661
 20
12.9408117976
 10
19.4920632569
 20
12.936460302
 10
19.4827202216
 20
12.9358432221
 10
19.4736280035
 20
12.9390208217
  0
LWPOLYLINE
  5
115
330
1F
100
AcDbEntity
  8
0
  6
Continuous
 62
     7
370
    15
100
AcDbPolyline
 90
       23
 70
   128
 43
0.0
 10
16.639795507
 20
14.6663743665
 10
16.6482622115
 20
14.6594977451
 10
16.6549475272
 20
14.6498329496
 10
16.6593098401
 20
14.6381629121
 10
16.6609956103
 20
14.62543311
 10
16.659868514
 20
14.6126748066
 10
16.6560196065
 20
14.600921585
 10
16.649760841
 20
14.5911256713
 10
16.6415993485
 20
14.5840806328
 10
16.6321961108
 20
14.5803572187
 10
16.6223130689
 20
14.5802571324
 10
16.6127507952
 20
14.5837884186
 10
16.6042840907
 20
14.59066504
 10
16.597598775
 20
14.6003298355
 10
16.5932364621
 20
14.6119999328
 10
16.5915506919
 20
14.6247296751
 10
16.5926777882
 20
14.6374880384
 10
16.5965266957
 20
14.6492412599
 10
16.6027854612
 20
14.6590371138
 10
16.6109469537
 20
14.6660822122
 10
16.6203501914
 20
14.6698055664
 10
16.6302332333
 20
14.6699056527
 10
16.639795507
 20
14.6663743665
  0
LWPOLYLINE
  5
116
330
1F
100
AcDbEntity
  8
0
  6
Continuous
 62
     7
370
    15
100
AcDbPolyline
 90
       23
 70
   128
 43
0.0
 10
17.799804183
 20
13.9967156119
 10
17.8082708746
 20
13.989838998
 10
17.8149561903
 20
13.9801742025
 10
17.8193184772
 20
13.96850418
 10
17.8210043253
 20
13.955774333
 10
17.8198771771
 20
13.9430160595
 10
17.8160282696
 20
13.9312628379
 10
17.8097695559
 20
13.9214668942
 10
17.8016079857
 20
13.9144219006
 10
17.7922047739
 20
13.9106984716
 10
17.782321732
 20
13.9105983853
 10
17.7727594713
 20
13.914129664
 10
17.7642927668
 20
13.9210062854
 10
17.7576074511
 20
13.9306710809
 10
17.7532451641
 20
13.9423411633
 10
17.7515593161
 20
13.9550709504
 10
17.7526864643
 20
13.9678292838
 10
17.7565353717
 20
13.9795825054
 10
17.7627940854
 20
13.9893783891
 10
17.7709556556
 20
13.9964234426
 10
17.7803588675
 20
14.0001468118
 10
17.7902419094
 20
14.0002468981
 10
17.799804183
 20
13.9967156119
  0
LWPOLYLINE
  5
117
330
1F
100
AcDbEntity
  8
0
  6
Continuous
 62
     7
370
    15
100
AcDbPolyline
 90
       23
 70
   128
 43
0.0
 10
18.2449675144
 20
13.7398721725
 10
18.2534590828
 20
13.7329754494
 10
18.2601639474
 20
13.723282304
 10
18.2645390423
 20
13.7115780632
 10
18.2662298424
 20
13.6988109288
 10
18.2650993237
 20
13.6860152028
 10
18.2612392158
 20
13.6742275518
 10
18.2549621458
 20
13.6644029265
 10
18.2467765932
 20
13.6573372292
 10
18.2373458469
 20
13.6536029309
 10
18.2274338187
 20
13.6535025135
 10
18.2178435699
 20
13.6570442014
 10
18.2093520144
 20
13.663940917
 10
18.2026471368
 20
13.6736340699
 10
18.1982720419
 20
13.6853383107
 10
18.1965812937
 20
13.698105475
 10
18.1977117605
 20
13.7109011711
 10
18.2015718684
 20
13.7226888221
 10
18.2078489902
 20
13.7325134774
 10
18.216034491
 20
13.7395791447
 10
18.2254652373
 20
13.7433134429
 10
18.2353772785
 20
13.7434138529
 10
18.2449675144
 20
13.7398721725
  0
LWPOLYLINE
  5
118
330
1F
100
AcDbEntity
  8
0
  6
Continuous
 62
     7
370
    15
100
AcDbPolyline
 90
       23
 70
   128
 43
0.0
 10
19.4049761904
 20
13.0702134179
 10
19.4134677848
 20
13.0633166799
 10
19.4201726494
 20
13.0536235344
 10
19.4245477184
 20
13.0419193086
 10
19.4262385184
 20
13.0291521742
 10
19.4251079997
 20
13.0163564482
 10
19.4212478918
 20
13.0045687972
 10
19.4149708219
 20
12.9947441719
 10
19.4067852692
 20
12.9876784746
 10
19.3973545489
 20
12.9839441614
 10
19.3874425207
 20
12.9838437439
 10
19.3778522459
 20
12.9873854468
 10
19.3693606515
 20
12.9942821848
 10
19.3626557869
 20
13.0039753303
 10
19.358280718
 20
13.0156795561
 10
19.3565899697
 20
13.0284467204
 10
19.3577204366
 20
13.0412424165
 10
19.3615805445
 20
13.0530300675
 10
19.3678576663
 20
13.0628547228
 10
19.3760431671
 20
13.0699203901
 10
19.3854738874
 20
13.0736547033
 10
19.3953859156
 20
13.0737551208
 10
19.4049761904
 20
13.0702134179
  0
LWPOLYLINE
  5
119
330
1F
100
AcDbEntity
  8
0
  6
Continuous
 62
     7
370
    15
100
AcDbPolyline
 90
       25
 70
   128
 43
0.0
 10
19.3854659538
 20
14.0511089619
 10
19.3945179851
 20
14.0439469497
 10
19.401886424
 20
14.0340158102
 10
19.4070692212
 20
14.0219924079
 10
19.4097132514
 20
14.0086961216
 10
19.409638167
 20
13.995033161
 10
19.4068491532
 20
13.9819343569
 10
19.4015363065
 20
13.9702926503
 10
19.3940616708
 20
13.96090124
 10
19.384934555
 20
13.9544001719
 10
19.374777206
 20
13.951232687
 10
19.3642815622
 20
13.9516142629
 10
19.3541628962
 20
13.955519139
 10
19.3451109686
 20
13.962681211
 10
19.3377425296
 20
13.9726123506
 10
19.3325596288
 20
13.9846355733
 10
19.3299157022
 20
13.9979319195
 10
19.3299907867
 20
14.0115949998
 10
19.3327798004
 20
14.0246936841
 10
19.3380926472
 20
14.0363355105
 10
19.3455672829
 20
14.045726801
 10
19.3546942949
 20
14.0522278092
 10
19.3648517476
 20
14.0553954738
 10
19.3753473915
 20
14.0550138979
 10
19.3854659538
 20
14.0511089619
  0
LWPOLYLINE
  5
11A
330
1F
100
AcDbEntity
  8
0
  6
Continuous
 62
     7
370
    15
100
AcDbPolyline
 90
       25
 70
   128
 43
0.0
 10
17.1934349119
 20
15.3165415469
 10
17.2024869432
 20
15.3093795347
 10
17.2098553822
 20
15.2994483952
 10
17.2150381793
 20
15.2874249929
 10
17.2176822096
 20
15.2741287065
 10
17.2176071251
 20
15.260465746
 10
17.2148181114
 20
15.2473669419
 10
17.2095052647
 20
15.2357252353
 10
17.2020306289
 20
15.226333825
 10
17.1929035132
 20
15.2198327569
 10
17.1827461642
 20
15.216665272
 10
17.1722505203
 20
15.2170468479
 10
17.1621318543
 20
15.220951724
 10
17.1530799267
 20
15.228113796
 10
17.1457114878
 20
15.2380449356
 10
17.1405285869
 20
15.2500681582
 10
17.1378846604
 20
15.2633645044
 10
17.1379597448
 20
15.2770275847
 10
17.1407487586
 20
15.2901262691
 10
17.1460616053
 20
15.3017680955
 10
17.153536241
 20
15.311159386
 10
17.1626632531
 20
15.3176603942
 10
17.1728207058
 20
15.3208280588
 10
17.1833163496
 20
15.3204464828
 10
17.1934349119
 20
15.3165415469
  0
LINE
  5
11B
330
1F
100
AcDbEntity
  8
0
  6
Continuous
 62
     7
370
    15
100
AcDbLine
 10
19.4493194145
 20
12.0857319465
 30
0.0
 11
19.4742795996
 21
12.0811130349
 31
0.0
  0
ARC
  5
11C
330
1F
100
AcDbEntity
  8
0
  6
Continuous
 62
     7
370
    15
100
AcDbCircle
 10
20.0170687141
 20
13.76994771
 30
0.0
 40
0.1164419165857869
100
AcDbArc
 50
122.7907790769
 51
162.6204558506
  0
ARC
  5
11D
330
1F
100
AcDbEntity
  8
0
  6
Continuous
 62
     7
370
    15
100
AcDbCircle
 10
19.9374445251
 20
13.8419428412
 30
0.0
 40
0.0307362875270183
100
AcDbArc
 50
2.6054792722
 51
57.3942782788
  0
ARC
  5
11E
330
1F
100
AcDbEntity
  8
0
  6
Continuous
 62
     7
370
    15
100
AcDbCircle
 10
16.8138750408
 20
15.619112057
 30
0.0
 40
0.1164419165858195
100
AcDbArc
 50
122.7907790769
 51
162.6204558506
  0
LINE
  5
11F
330
1F
100
AcDbEntity
  8
0
  6
Continuous
 62
     7
370
    15
100
AcDbLine
 10
16.7508132513
 20
15.7169993935
 30
0.0
 11
19.9540069246
 21
13.8678350464
 31
0.0
  0
LINE
  5
120
330
1F
100
AcDbEntity
  8
0
  6
Continuous
 62
     7
370
    15
100
AcDbLine
 10
19.9540069246
 20
13.8678350464
 30
0.0
 11
20.1973391203
 21
14.008307733
 31
0.0
  0
ARC
  5
121
330
1F
100
AcDbEntity
  8
0
  6
Continuous
 62
     7
370
    15
100
AcDbCircle
 10
20.1807767208
 20
13.9824155277
 30
0.0
 40
0.0307362875270002
100
AcDbArc
 50
2.6054792722
 51
57.3942782788
  0
LINE
  5
122
330
1F
100
AcDbEntity
  8
0
  6
Continuous
 62
     7
370
    15
100
AcDbLine
 10
16.994145447
 20
15.85747208
 30
0.0
 11
16.7508132513
 21
15.7169993935
 31
0.0
  0
LINE
  5
123
330
1F
100
AcDbEntity
  8
0
  6
Continuous
 62
     7
370
    15
100
AcDbLine
 10
17.0736148647
 20
15.8115953617
 30
0.0
 11
16.994145447
 21
15.85747208
 31
0.0
  0
LINE
  5
124
330
1F
100
AcDbEntity
  8
0
  6
Continuous
 62
     7
370
    15
100
AcDbLine
 10
16.9463356342
 20
15.7381186259
 30
0.0
 11
17.0736148647
 21
15.8115953617
 31
0.0
  0
LWPOLYLINE
  5
125
330
1F
100
AcDbEntity
  8
0
  6
Continuous
 62
     7
370
    15
100
AcDbPolyline
 90
       21
 70
   128
 43
0.0
 10
17.1550922728
 20
15.6176059836
 10
17.1374789555
 20
15.6089217114
 10
17.1177289464
 20
15.6019349116
 10
17.09632905
 20
15.5968177682
 10
17.0738057908
 20
15.5936961862
 10
17.0507140054
 20
15.5926470377
 10
17.02762222
 20
15.5936961862
 10
17.0050989607
 20
15.5968177682
 10
16.9836989606
 20
15.6019349715
 10
16.9639490553
 20
15.6089217114
 10
16.9463357379
 20
15.6176059836
 10
16.9312924035
 20
15.6277739952
 10
16.9191897037
 20
15.6391753728
 10
16.9103254872
 20
15.6515293299
 10
16.9049181626
 20
15.6645317307
 10
16.9031007872
 20
15.6778623347
 10
16.9049181626
 20
15.6911929387
 10
16.9103254872
 20
15.7041953395
 10
16.9191895999
 20
15.7165492367
 10
16.9312924035
 20
15.7279506742
 10
16.9463356342
 20
15.7381186259
  0
LINE
  5
126
330
1F
100
AcDbEntity
  8
0
  6
Continuous
 62
     7
370
    15
100
AcDbLine
 10
17.2823715033
 20
15.6910827194
 30
0.0
 11
17.1550922728
 21
15.6176059836
 31
0.0
  0
LINE
  5
127
330
1F
100
AcDbEntity
  8
0
  6
Continuous
 62
     7
370
    15
100
AcDbLine
 10
19.909113064
 20
14.1746970936
 30
0.0
 11
17.2823715033
 21
15.6910827194
 31
0.0
  0
LINE
  5
128
330
1F
100
AcDbEntity
  8
0
  6
Continuous
 62
     7
370
    15
100
AcDbLine
 10
19.7818338335
 20
14.1012203578
 30
0.0
 11
19.909113064
 21
14.1746970936
 31
0.0
  0
LWPOLYLINE
  5
129
330
1F
100
AcDbEntity
  8
0
  6
Continuous
 62
     7
370
    15
100
AcDbPolyline
 90
       21
 70
   128
 43
0.0
 10
19.9905904721
 20
13.9807077156
 10
19.9729771547
 20
13.9720234433
 10
19.9532271457
 20
13.9650366435
 10
19.9318272493
 20
13.9599195001
 10
19.90930399
 20
13.9567979182
 10
19.8862122046
 20
13.9557487696
 10
19.8631204192
 20
13.9567979182
 10
19.84059716
 20
13.9599195001
 10
19.8191971599
 20
13.9650367034
 10
19.7994472545
 20
13.9720234433
 10
19.7818338335
 20
13.9807077754
 10
19.7667906028
 20
13.9908757271
 10
19.7546879029
 20
14.0022771048
 10
19.7458236864
 20
14.0146310619
 10
19.7404163619
 20
14.0276334627
 10
19.7385989865
 20
14.0409640666
 10
19.7404163619
 20
14.0542946706
 10
19.7458236864
 20
14.0672970714
 10
19.7546877992
 20
14.0796509686
 10
19.7667906028
 20
14.0910524062
 10
19.7818338335
 20
14.1012203578
  0
LINE
  5
12A
330
1F
100
AcDbEntity
  8
0
  6
Continuous
 62
     7
370
    15
100
AcDbLine
 10
20.1178697025
 20
14.0541844513
 30
0.0
 11
19.9905904721
 21
13.9807077156
 31
0.0
  0
LINE
  5
12B
330
1F
100
AcDbEntity
  8
0
  6
Continuous
 62
     7
370
    15
100
AcDbLine
 10
20.1973391203
 20
14.008307733
 30
0.0
 11
20.1178697025
 21
14.0541844513
 31
0.0
  0
LWPOLYLINE
  5
12C
330
1F
100
AcDbEntity
  8
0
  6
Continuous
 62
     7
370
    15
100
AcDbPolyline
 90
        3
 70
   128
 43
0.0
 10
19.7536067491
 20
14.0279849749
 10
19.7537100421
 20
14.0257659815
 10
19.7537351394
 20
14.0254316717
  0
ARC
  5
12D
330
1F
100
AcDbEntity
  8
0
  6
Continuous
 62
     7
370
    15
100
AcDbCircle
 10
19.7693644342
 20
14.0817618072
 30
0.0
 40
0.0231110603230141
100
AcDbArc
 50
3.2297789432
 51
57.3474997992
  0
LINE
  5
12E
330
1F
100
AcDbEntity
  8
0
  6
Continuous
 62
     7
370
    15
100
AcDbLine
 10
20.1141055244
 20
13.8671748683
 30
0.0
 11
20.1848276043
 21
13.8263478806
 31
0.0
  0
ARC
  5
12F
330
1F
100
AcDbEntity
  8
0
  6
Continuous
 62
     7
370
    15
100
AcDbCircle
 10
19.8258978516
 20
13.9874264489
 30
0.0
 40
0.0743321255016268
100
AcDbArc
 50
116.3768764274
 51
159.8420255585
  0
LINE
  5
130
330
1F
100
AcDbEntity
  8
0
  6
Continuous
 62
     7
370
    15
100
AcDbLine
 10
19.792874047
 20
14.0540199411
 30
0.0
 11
19.7924387853
 21
14.0830638942
 31
0.0
  0
LINE
  5
131
330
1F
100
AcDbEntity
  8
0
  6
Continuous
 62
     7
370
    15
100
AcDbLine
 10
19.792874047
 20
14.0540199411
 30
0.0
 11
19.9201532774
 21
14.1274966769
 31
0.0
  0
LINE
  5
132
330
1F
100
AcDbEntity
  8
0
  6
Continuous
 62
     7
370
    15
100
AcDbLine
 10
19.9201532774
 20
14.1274966769
 30
0.0
 11
20.078115704
 21
14.0363069091
 31
0.0
  0
ELLIPSE
  5
133
330
1F
100
AcDbEntity
  8
0
  6
Continuous
 62
     7
370
    15
100
AcDbEllipse
 10
19.8856119028
 20
13.9997904427
 30
0.0
 11
0.05731968488607464
 21
0.004832096405051445
 31
0.0
210
0.0
220
0.0
230
1.0
 40
0.5717768448
 41
0.0
 42
6.283185307179586
  0
ARC
  5
134
330
1F
100
AcDbEntity
  8
0
  6
Continuous
 62
     7
370
    15
100
AcDbCircle
 10
20.1134918772
 20
14.0482122689
 30
0.0
 40
0.0074048846968501
100
AcDbArc
 50
53.7572379405
 51
114.9330592015
  0
ELLIPSE
  5
135
330
1F
100
AcDbEntity
  8
0
  6
Continuous
 62
     7
370
    15
100
AcDbEllipse
 10
19.8711038133
 20
13.9554873052
 30
0.0
 11
0.05731968488606754
 21
0.004832096405053222
 31
0.0
210
0.0
220
0.0
230
1.0
 40
0.5717768448
 41
0.4986050357038166
 42
2.167877169317582
  0
LINE
  5
136
330
1F
100
AcDbEntity
  8
0
  6
Continuous
 62
     7
370
    15
100
AcDbLine
 10
19.9197180158
 20
14.15654063
 30
0.0
 11
19.7924387853
 21
14.0830638942
 31
0.0
  0
ARC
  5
137
330
1F
100
AcDbEntity
  8
0
  6
Continuous
 62
     7
370
    15
100
AcDbCircle
 10
19.8966436647
 20
14.155238543
 30
0.0
 40
0.0231110603230133
100
AcDbArc
 50
3.2297789432
 51
57.3474997992
  0
LINE
  5
138
330
1F
100
AcDbEntity
  8
0
  6
Continuous
 62
     7
370
    15
100
AcDbLine
 10
19.9201532774
 20
14.1274966769
 30
0.0
 11
19.9197180158
 21
14.15654063
 31
0.0
  0
LWPOLYLINE
  5
139
330
1F
100
AcDbEntity
  8
0
  6
Continuous
 62
     7
370
    15
100
AcDbPolyline
 90
       21
 70
   128
 43
0.0
 10
19.3906414914
 20
14.0376766059
 10
19.3819588672
 20
14.0407110385
 10
19.3730366781
 20
14.040121768
 10
19.3647484547
 20
14.0359661514
 10
19.3579052957
 20
14.0286513367
 10
19.3531771536
 20
14.0188931229
 10
19.3510268761
 20
14.0076468593
 10
19.3516648865
 20
13.9960131378
 10
19.3550287526
 20
13.9851310328
 10
19.3607893058
 20
13.9760655955
 10
19.3683823759
 20
13.9697042699
 10
19.377065
 20
13.9666698373
 10
19.3859870855
 20
13.9672591677
 10
19.3942753089
 20
13.9714146645
 10
19.4011185715
 20
13.9787295391
 10
19.40584661
 20
13.988487693
 10
19.4079969911
 20
13.9997340164
 10
19.407358877
 20
14.0113676781
 10
19.403995011
 20
14.0222499028
 10
19.3982345614
 20
14.0313152803
 10
19.3906414914
 20
14.0376766059
  0
LWPOLYLINE
  5
13A
330
1F
100
AcDbEntity
  8
0
  6
Continuous
 62
     7
370
    15
100
AcDbPolyline
 90
       19
 70
   128
 43
0.0
 10
19.3920260423
 20
13.001687316
 10
19.3998529734
 20
12.999139859
 10
19.4078215175
 20
13.0002146918
 10
19.4149704589
 20
13.0047823312
 10
19.4204376228
 20
13.012291834
 10
19.4235635314
 20
13.0218373559
 10
19.4239711549
 20
13.0322676094
 10
19.4216113358
 20
13.0423245394
 10
19.4167687003
 20
13.0507951686
 10
19.4100273824
 20
13.0566577828
 10
19.4022004512
 20
13.0592052398
 10
19.3942318553
 20
13.0581303771
 10
19.3870829139
 20
13.0535627377
 10
19.3816158018
 20
13.0460532648
 10
19.3784898933
 20
13.0365077428
 10
19.3780822179
 20
13.0260774594
 10
19.380442037
 20
13.0160205294
 10
19.3852847244
 20
13.0075499301
 10
19.3920260423
 20
13.001687316
  0
LINE
  5
13B
330
1F
100
AcDbEntity
  8
0
  6
Continuous
 62
     7
370
    15
100
AcDbLine
 10
18.9174759401
 20
11.9311094638
 30
0.0
 11
19.1366789613
 21
11.8045662532
 31
0.0
  0
LINE
  5
13C
330
1F
100
AcDbEntity
  8
0
  6
Continuous
 62
     7
370
    15
100
AcDbLine
 10
18.9174759401
 20
11.9882673217
 30
0.0
 11
18.9174759401
 21
11.9311094638
 31
0.0
  0
LINE
  5
13D
330
1F
100
AcDbEntity
  8
0
  6
Continuous
 62
     7
370
    15
100
AcDbLine
 10
19.1225368477
 20
11.8698881796
 30
0.0
 11
18.9174759401
 21
11.9882673217
 31
0.0
  0
ARC
  5
13E
330
1F
100
AcDbEntity
  8
0
  6
Continuous
 62
     7
370
    15
100
AcDbCircle
 10
19.105974811
 20
11.8439961785
 30
0.0
 40
0.0307359199687279
100
AcDbArc
 50
2.6053040187
 51
57.3946430592
  0
LINE
  5
13F
330
1F
100
AcDbEntity
  8
0
  6
Continuous
 62
     7
370
    15
100
AcDbLine
 10
19.1225368477
 20
11.8698881796
 30
0.0
 11
19.2982448968
 21
11.9713222772
 31
0.0
  0
ELLIPSE
  5
140
330
1F
100
AcDbEntity
  8
0
  6
Continuous
 62
     7
370
    15
100
AcDbEllipse
 10
19.3162639807
 20
11.9653936294
 30
0.0
 11
0.02288413629720409
 21
-0.009815732926963252
 31
0.0
210
0.0
220
0.0
230
1.0
 40
0.1020360517
 41
3.850761409752329
 42
5.421557736546501
  0
ARC
  5
141
330
1F
100
AcDbEntity
  8
0
  6
Continuous
 62
     7
370
    15
100
AcDbCircle
 10
18.923673012
 20
12.0045955134
 30
0.0
 40
0.0174646369024767
100
AcDbArc
 50
110.7835403735
 51
249.2166415825
  0
LINE
  5
142
330
1F
100
AcDbEntity
  8
0
  6
Continuous
 62
     7
370
    15
100
AcDbLine
 10
18.9174758883
 20
12.0209236853
 30
0.0
 11
19.0427009525
 21
12.0932145761
 31
0.0
  0
ELLIPSE
  5
143
330
1F
100
AcDbEntity
  8
0
  6
Continuous
 62
     7
370
    15
100
AcDbEllipse
 10
19.0144166973
 20
12.1095427193
 30
0.0
 11
0.04206949349436329
 21
0.003546492774351151
 31
0.0
210
0.0
220
0.0
230
1.0
 40
0.5717768448
 41
5.400514158244734
 42
6.191873142498214
  0
LINE
  5
144
330
1F
100
AcDbEntity
  8
0
  6
Continuous
 62
     7
370
    15
100
AcDbLine
 10
19.2982448968
 20
11.9713222772
 30
0.0
 11
19.0564958006
 21
12.1108810599
 31
0.0
  0
ELLIPSE
  5
145
330
1F
100
AcDbEntity
  8
0
  6
Continuous
 62
     7
370
    15
100
AcDbEllipse
 10
19.1270470818
 20
12.0071991934
 30
0.0
 11
0.05087779369474888
 21
0.004289039698980091
 31
0.0
210
0.0
220
0.0
230
1.0
 40
0.5717768448
 41
0.0
 42
6.283185307179586
  0
ARC
  5
146
330
1F
100
AcDbEntity
  8
0
  6
Continuous
 62
     7
370
    15
100
AcDbCircle
 10
19.2814284817
 20
11.9974255617
 30
0.0
 40
0.0310511396292861
100
AcDbArc
 50
302.7906879744
 51
342.6204248038
  0
ARC
  5
147
330
1F
100
AcDbEntity
  8
0
  6
Continuous
 62
     7
370
    15
100
AcDbCircle
 10
18.9876022126
 20
12.1087231213
 30
0.0
 40
0.0689273760642453
100
AcDbArc
 50
1.7940763975
 51
26.2287988971
  0
ARC
  5
148
330
1F
100
AcDbEntity
  8
0
  6
Continuous
 62
     7
370
    15
100
AcDbCircle
 10
18.9257785809
 20
11.9494340187
 30
0.0
 40
0.020117732360722
100
AcDbArc
 50
185.6950912378
 51
245.6252776878
  0
LINE
  5
149
330
1F
100
AcDbEntity
  8
0
  6
Continuous
 62
     7
370
    15
100
AcDbLine
 10
18.1834489828
 20
13.1172187159
 30
0.0
 11
18.124858978
 21
13.1157081012
 31
0.0
  0
LINE
  5
14A
330
1F
100
AcDbEntity
  8
0
  6
Continuous
 62
     7
370
    15
100
AcDbLine
 10
19.1528240096
 20
12.5576104245
 30
0.0
 11
18.1834489828
 21
13.1172187159
 31
0.0
  0
ARC
  5
14B
330
1F
100
AcDbEntity
  8
0
  6
Continuous
 62
     7
370
    15
100
AcDbCircle
 10
18.969293751
 20
12.0841401196
 30
0.0
 40
0.0814084188143508
100
AcDbArc
 50
9.5881699699
 51
25.3915852806
  0
LWPOLYLINE
  5
14C
330
1F
100
AcDbEntity
  8
0
  6
Continuous
 62
     7
370
    15
100
AcDbPolyline
 90
        3
 70
   128
 43
0.0
 10
19.0495649308
 20
12.097699926
 10
19.0440715288
 20
12.1070991922
 10
19.0390303706
 20
12.1111639805
  0
LINE
  5
14D
330
1F
100
AcDbEntity
  8
0
  6
Continuous
 62
     7
370
    15
100
AcDbLine
 10
19.0390303706
 20
12.1111639805
 30
0.0
 11
17.9041239722
 21
12.7663314986
 31
0.0
  0
ARC
  5
14E
330
1F
100
AcDbEntity
  8
0
  6
Continuous
 62
     7
370
    15
100
AcDbCircle
 10
17.8832267434
 20
12.7081090052
 30
0.0
 40
0.0618591377117333
100
AcDbArc
 50
70.255912441
 51
98.1899628856
  0
LINE
  5
14F
330
1F
100
AcDbEntity
  8
0
  6
Continuous
 62
     7
370
    15
100
AcDbLine
 10
17.8744145664
 20
12.769337254
 30
0.0
 11
17.7349108961
 21
12.8498710087
 31
0.0
  0
LWPOLYLINE
  5
150
330
1F
100
AcDbEntity
  8
0
  6
Continuous
 62
     7
370
    15
100
AcDbPolyline
 90
        3
 70
   128
 43
0.0
 10
17.7349108961
 20
12.8498710087
 10
17.7346354579
 20
12.8594650291
 10
17.734734178
 20
12.8647123507
  0
LINE
  5
151
330
1F
100
AcDbEntity
  8
0
  6
Continuous
 62
     7
370
    15
100
AcDbLine
 10
17.734734178
 20
12.8647123507
 30
0.0
 11
17.6639486289
 21
12.9055759784
 31
0.0
  0
LWPOLYLINE
  5
152
330
1F
100
AcDbEntity
  8
0
  6
Continuous
 62
     7
370
    15
100
AcDbPolyline
 90
        3
 70
   128
 43
0.0
 10
17.6639486289
 20
12.9055759784
 10
17.654506572
 20
12.902412231
 10
17.6451960296
 20
12.9016622987
  0
LINE
  5
153
330
1F
100
AcDbEntity
  8
0
  6
Continuous
 62
     7
370
    15
100
AcDbLine
 10
17.6451960296
 20
12.9016622987
 30
0.0
 11
17.5056923592
 21
12.9821960534
 31
0.0
  0
ARC
  5
154
330
1F
100
AcDbEntity
  8
0
  6
Continuous
 62
     7
370
    15
100
AcDbCircle
 10
17.4812926479
 20
12.982261467
 30
0.0
 40
0.0243997990242128
100
AcDbArc
 50
359.8463950849
 51
58.608667492
  0
LINE
  5
155
330
1F
100
AcDbEntity
  8
0
  6
Continuous
 62
     7
370
    15
100
AcDbLine
 10
17.4940020275
 20
13.0030898578
 30
0.0
 11
16.3590956292
 21
13.6582573759
 31
0.0
  0
LWPOLYLINE
  5
156
330
1F
100
AcDbEntity
  8
0
  6
Continuous
 62
     7
370
    15
100
AcDbPolyline
 90
        3
 70
   128
 43
0.0
 10
16.3590956292
 20
13.6582573759
 10
16.3511264887
 20
13.6610311951
 10
16.34046009
 20
13.6616328614
  0
ARC
  5
157
330
1F
100
AcDbEntity
  8
0
  6
Continuous
 62
     7
370
    15
100
AcDbCircle
 10
16.3116802052
 20
13.8630004756
 30
0.0
 40
0.2034138584879624
100
AcDbArc
 50
278.1337503456
 51
284.585047953
  0
LINE
  5
158
330
1F
100
AcDbEntity
  8
0
  6
Continuous
 62
     7
370
    15
100
AcDbLine
 10
17.9041239722
 20
12.7663314986
 30
0.0
 11
17.9041239722
 21
12.7217615283
 31
0.0
  0
LINE
  5
159
330
1F
100
AcDbEntity
  8
0
  6
Continuous
 62
     7
370
    15
100
AcDbLine
 10
17.9041239722
 20
12.7217615283
 30
0.0
 11
19.017809059
 21
12.0788448126
 31
0.0
  0
LINE
  5
15A
330
1F
100
AcDbEntity
  8
0
  6
Continuous
 62
     7
370
    15
100
AcDbLine
 10
18.1834489828
 20
13.1172187159
 30
0.0
 11
18.5285857814
 21
14.1711578386
 31
0.0
  0
LWPOLYLINE
  5
15B
330
1F
100
AcDbEntity
  8
0
  6
Continuous
 62
     7
370
    15
100
AcDbPolyline
 90
       19
 70
   128
 43
0.0
 10
18.2320173663
 20
13.6713460706
 10
18.2398443233
 20
13.6687985986
 10
18.2478128156
 20
13.6698734613
 10
18.2549617829
 20
13.6744410858
 10
18.2604289468
 20
13.6819505886
 10
18.2635548553
 20
13.6914961105
 10
18.2639624788
 20
13.701926364
 10
18.2616026338
 20
13.711983309
 10
18.2567600501
 20
13.7204539083
 10
18.2500187063
 20
13.7263165373
 10
18.2421917493
 20
13.7288640094
 10
18.2342232052
 20
13.7277891167
 10
18.2270742508
 20
13.7232214848
 10
18.2216071258
 20
13.7157120193
 10
18.2184812172
 20
13.7061664974
 10
18.2180735549
 20
13.6957362065
 10
18.2204333869
 20
13.6856792691
 10
18.2252760224
 20
13.6772086997
 10
18.2320173663
 20
13.6713460706
  0
ARC
  5
15C
330
1F
100
AcDbEntity
  8
0
  6
Continuous
 62
     7
370
    15
100
AcDbCircle
 10
17.8744717578
 20
12.7122868014
 30
0.0
 40
0.0570504812422271
100
AcDbArc
 50
90.0574373257
 51
118.1511187964
  0
LINE
  5
15D
330
1F
100
AcDbEntity
  8
0
  6
Continuous
 62
     7
370
    15
100
AcDbLine
 10
17.8475554138
 20
12.7625885691
 30
0.0
 11
17.7260009834
 21
12.6924166901
 31
0.0
  0
ARC
  5
15E
330
1F
100
AcDbEntity
  8
0
  6
Continuous
 62
     7
370
    15
100
AcDbCircle
 10
17.6977167034
 20
12.7470050592
 30
0.0
 40
0.0614808143705638
100
AcDbArc
 50
242.6096483587
 51
297.390366801
  0
LINE
  5
15F
330
1F
100
AcDbEntity
  8
0
  6
Continuous
 62
     7
370
    15
100
AcDbLine
 10
17.6694324379
 20
12.6924166826
 30
0.0
 11
17.3724475841
 21
12.8638623894
 31
0.0
  0
ARC
  5
160
330
1F
100
AcDbEntity
  8
0
  6
Continuous
 62
     7
370
    15
100
AcDbCircle
 10
17.378644653
 20
12.88019055
 30
0.0
 40
0.0174646068656176
100
AcDbArc
 50
110.7833399904
 51
249.2166145206
  0
LINE
  5
161
330
1F
100
AcDbEntity
  8
0
  6
Continuous
 62
     7
370
    15
100
AcDbLine
 10
17.372447597
 20
12.8965187156
 30
0.0
 11
17.4940020275
 21
12.9666905946
 31
0.0
  0
ARC
  5
162
330
1F
100
AcDbEntity
  8
0
  6
Continuous
 62
     7
370
    15
100
AcDbCircle
 10
17.4853303697
 20
12.9853882749
 30
0.0
 40
0.0206106985770662
100
AcDbArc
 50
294.8810474178
 51
351.0900605532
  0
ELLIPSE
  5
163
330
1F
100
AcDbEntity
  8
0
  6
Continuous
 62
     7
370
    15
100
AcDbEllipse
 10
17.6335777401
 20
12.8431639127
 30
0.0
 11
0.1012297187208162
 21
0.008533748238280126
 31
0.0
210
0.0
220
0.0
230
1.0
 40
0.5717768448
 41
1.407741286048385
 42
6.251694376851293
  0
LINE
  5
164
330
1F
100
AcDbEntity
  8
0
  6
Continuous
 62
     7
370
    15
100
AcDbLine
 10
17.6694324379
 20
12.6515896417
 30
0.0
 11
17.6694324379
 21
12.6924166826
 31
0.0
  0
LINE
  5
165
330
1F
100
AcDbEntity
  8
0
  6
Continuous
 62
     7
370
    15
100
AcDbLine
 10
17.7260009834
 20
12.6924166901
 30
0.0
 11
17.7260009834
 21
12.6515896492
 31
0.0
  0
ARC
  5
166
330
1F
100
AcDbEntity
  8
0
  6
Continuous
 62
     7
370
    15
100
AcDbCircle
 10
17.6977167034
 20
12.7061780184
 30
0.0
 40
0.0614808143705527
100
AcDbArc
 50
242.6096483587
 51
297.390366801
  0
LINE
  5
167
330
1F
100
AcDbEntity
  8
0
  6
Continuous
 62
     7
370
    15
100
AcDbLine
 10
17.8475554138
 20
12.7217615283
 30
0.0
 11
17.8475554138
 21
12.7625885691
 31
0.0
  0
LINE
  5
168
330
1F
100
AcDbEntity
  8
0
  6
Continuous
 62
     7
370
    15
100
AcDbLine
 10
17.7260009834
 20
12.6515896492
 30
0.0
 11
17.8475554138
 21
12.7217615283
 31
0.0
  0
LINE
  5
169
330
1F
100
AcDbEntity
  8
0
  6
Continuous
 62
     7
370
    15
100
AcDbLine
 10
17.3724475841
 20
12.8638623894
 30
0.0
 11
17.3724475841
 21
12.8230353485
 31
0.0
  0
LINE
  5
16A
330
1F
100
AcDbEntity
  8
0
  6
Continuous
 62
     7
370
    15
100
AcDbLine
 10
17.3724475841
 20
12.8230353485
 30
0.0
 11
17.6694324379
 21
12.6515896417
 31
0.0
  0
ARC
  5
16B
330
1F
100
AcDbEntity
  8
0
  6
Continuous
 62
     7
370
    15
100
AcDbCircle
 10
17.875839693
 20
12.6671731168
 30
0.0
 40
0.0614808516580773
100
AcDbArc
 50
62.6096519806
 51
117.3903480194
  0
ELLIPSE
  5
16C
330
1F
100
AcDbEntity
  8
0
  6
Continuous
 62
     7
370
    15
100
AcDbEllipse
 10
17.6170912748
 20
12.7928194382
 30
0.0
 11
0.1012297187208162
 21
0.008533748238278349
 31
0.0
210
0.0
220
0.0
230
1.0
 40
0.5717768448
 41
0.6881251778600591
 42
2.457282606689165
  0
ELLIPSE
  5
16D
330
1F
100
AcDbEntity
  8
0
  6
Continuous
 62
     7
370
    15
100
AcDbEllipse
 10
17.6170912748
 20
12.7928194382
 30
0.0
 11
0.1012297187208162
 21
0.008533748238278349
 31
0.0
210
0.0
220
0.0
230
1.0
 40
0.5717768448
 41
0.2091995983194833
 42
0.6881251778600591
  0
LWPOLYLINE
  5
16E
330
1F
100
AcDbEntity
  8
0
  6
Continuous
 62
     7
370
    15
100
AcDbPolyline
 90
       19
 70
   128
 43
0.0
 10
17.8049796169
 20
13.9832831959
 10
17.7971529969
 20
13.9858305931
 10
17.789184738
 20
13.9847557154
 10
17.7820360818
 20
13.9801882707
 10
17.7765691512
 20
13.9726791121
 10
17.7734433464
 20
13.9631339494
 10
17.7730357488
 20
13.9527041001
 10
17.7753954383
 20
13.9426475444
 10
17.7802378923
 20
13.9341772594
 10
17.786978951
 20
13.9283148548
 10
17.7948056228
 20
13.9257674876
 10
17.8027738299
 20
13.9268423353
 10
17.8099225379
 20
13.93140981
 10
17.8153894685
 20
13.9389189686
 10
17.8185152733
 20
13.9484641313
 10
17.8189228709
 20
13.9588939806
 10
17.8165631296
 20
13.9689505064
 10
17.8117207274
 20
13.9774208213
 10
17.8049796169
 20
13.9832831959
  0
ARC
  5
16F
330
1F
100
AcDbEntity
  8
0
  6
Continuous
 62
     7
370
    15
100
AcDbCircle
 10
17.3807501541
 20
12.8413597927
 30
0.0
 40
0.0201176023411736
100
AcDbArc
 50
185.6948970506
 51
245.6253311504
  0
LINE
  5
170
330
1F
100
AcDbEntity
  8
0
  6
Continuous
 62
     7
370
    15
100
AcDbLine
 10
16.57831654
 20
14.0438419514
 30
0.0
 11
16.5197266129
 21
14.0423312918
 31
0.0
  0
LINE
  5
171
330
1F
100
AcDbEntity
  8
0
  6
Continuous
 62
     7
370
    15
100
AcDbLine
 10
16.57831654
 20
14.0438419514
 30
0.0
 11
17.5476916186
 21
13.4842336301
 31
0.0
  0
LINE
  5
172
330
1F
100
AcDbEntity
  8
0
  6
Continuous
 62
     7
370
    15
100
AcDbLine
 10
16.3590956292
 20
13.6582573759
 30
0.0
 11
16.3590956292
 21
13.6136874056
 31
0.0
  0
LINE
  5
173
330
1F
100
AcDbEntity
  8
0
  6
Continuous
 62
     7
370
    15
100
AcDbLine
 10
16.3590956292
 20
13.6136874056
 30
0.0
 11
17.4869252149
 21
12.9626052444
 31
0.0
  0
LWPOLYLINE
  5
174
330
1F
100
AcDbEntity
  8
0
  6
Continuous
 62
     7
370
    15
100
AcDbPolyline
 90
       21
 70
   128
 43
0.0
 10
17.1986104495
 20
15.3031091908
 10
17.1899278254
 20
15.3061436235
 10
17.1810057399
 20
15.3055542931
 10
17.1727174128
 20
15.3013987363
 10
17.1658742539
 20
15.2940839216
 10
17.1611461117
 20
15.2843257079
 10
17.1589958343
 20
15.2730794443
 10
17.1596338446
 20
15.2614457227
 10
17.1629978144
 20
15.2505635579
 10
17.168758264
 20
15.2414981805
 10
17.176351334
 20
15.2351368549
 10
17.1850339582
 20
15.2321024222
 10
17.1939561473
 20
15.2326916928
 10
17.202244267
 20
15.2368472495
 10
17.2090875297
 20
15.2441621241
 10
17.2138155681
 20
15.2539202779
 10
17.2159659493
 20
15.2651666014
 10
17.2153278352
 20
15.2768002631
 10
17.2119640728
 20
15.2876824279
 10
17.2062035195
 20
15.2967478652
 10
17.1986104495
 20
15.3031091908
  0
LINE
  5
175
330
1F
100
AcDbEntity
  8
0
  6
Continuous
 62
     7
370
    15
100
AcDbLine
 10
17.0248977125
 20
15.6241691143
 30
0.0
 11
17.0248384953
 21
15.6056591425
 31
0.0
  0
LINE
  5
176
330
1F
100
AcDbEntity
  8
0
  6
Continuous
 62
     7
370
    15
100
AcDbLine
 10
17.0230294165
 20
15.0402969081
 30
0.0
 11
17.020457152
 21
14.2364017638
 31
0.0
  0
LINE
  5
177
330
1F
100
AcDbEntity
  8
0
  6
Continuous
 62
     7
370
    15
100
AcDbLine
 10
17.020457152
 20
14.2364017638
 30
0.0
 11
16.6356747814
 21
14.0107297654
 31
0.0
  0
LINE
  5
178
330
1F
100
AcDbEntity
  8
0
  6
Continuous
 62
     7
370
    15
100
AcDbLine
 10
16.9234533386
 20
15.0977810741
 30
0.0
 11
16.57831654
 21
14.0438419514
 31
0.0
  0
ARC
  5
179
330
1F
100
AcDbEntity
  8
0
  6
Continuous
 62
     7
370
    15
100
AcDbCircle
 10
16.9338660942
 20
15.7186598655
 30
0.0
 40
0.0231113128982743
100
AcDbArc
 50
3.2301157755
 51
57.3474864432
  0
LWPOLYLINE
  5
17A
330
1F
100
AcDbEntity
  8
0
  6
Continuous
 62
     7
370
    15
100
AcDbPolyline
 90
        3
 70
   128
 43
0.0
 10
16.9181086536
 20
15.6648831831
 10
16.9182118428
 20
15.6626642496
 10
16.9182369401
 20
15.6623299398
  0
ARC
  5
17B
330
1F
100
AcDbEntity
  8
0
  6
Continuous
 62
     7
370
    15
100
AcDbCircle
 10
16.9906477698
 20
15.6240149609
 30
0.0
 40
0.0747199131895739
100
AcDbArc
 50
116.4418018146
 51
159.0976385613
  0
LINE
  5
17C
330
1F
100
AcDbEntity
  8
0
  6
Continuous
 62
     7
370
    15
100
AcDbLine
 10
16.9573758477
 20
15.6909182092
 30
0.0
 11
16.9569406898
 21
15.7199621024
 31
0.0
  0
ELLIPSE
  5
17D
330
1F
100
AcDbEntity
  8
0
  6
Continuous
 62
     7
370
    15
100
AcDbEllipse
 10
17.0501137103
 20
15.6366887069
 30
0.0
 11
0.05731968488607109
 21
0.004832096405053222
 31
0.0
210
0.0
220
0.0
230
1.0
 40
0.5717768448
 41
0.0
 42
6.283185307179586
  0
LINE
  5
17E
330
1F
100
AcDbEntity
  8
0
  6
Continuous
 62
     7
370
    15
100
AcDbLine
 10
17.0846550782
 20
15.764394945
 30
0.0
 11
16.9573758477
 21
15.6909182092
 31
0.0
  0
LINE
  5
17F
330
1F
100
AcDbEntity
  8
0
  6
Continuous
 62
     7
370
    15
100
AcDbLine
 10
17.2426175048
 20
15.6732051771
 30
0.0
 11
17.0846550782
 21
15.764394945
 31
0.0
  0
ARC
  5
180
330
1F
100
AcDbEntity
  8
0
  6
Continuous
 62
     7
370
    15
100
AcDbCircle
 10
17.2779936779
 20
15.685110537
 30
0.0
 40
0.0074048846968543
100
AcDbArc
 50
53.7572379405
 51
114.9330592015
  0
ELLIPSE
  5
181
330
1F
100
AcDbEntity
  8
0
  6
Continuous
 62
     7
370
    15
100
AcDbEllipse
 10
17.0356056207
 20
15.5923855694
 30
0.0
 11
0.05731968488607109
 21
0.004832096405051445
 31
0.0
210
0.0
220
0.0
230
1.0
 40
0.5717768448
 41
0.4986050354982363
 42
2.167877169510461
  0
ARC
  5
182
330
1F
100
AcDbEntity
  8
0
  6
Continuous
 62
     7
370
    15
100
AcDbCircle
 10
16.9882870529
 20
15.8492941621
 30
0.0
 40
0.0100597774014591
100
AcDbArc
 50
54.3834214864
 51
114.306610254
  0
LINE
  5
183
330
1F
100
AcDbEntity
  8
0
  6
Continuous
 62
     7
370
    15
100
AcDbLine
 10
17.0842199203
 20
15.7934388382
 30
0.0
 11
16.9569406898
 21
15.7199621024
 31
0.0
  0
ARC
  5
184
330
1F
100
AcDbEntity
  8
0
  6
Continuous
 62
     7
370
    15
100
AcDbCircle
 10
17.0611453247
 20
15.7921366013
 30
0.0
 40
0.0231113128982774
100
AcDbArc
 50
3.2301157755
 51
57.3474864432
  0
LWPOLYLINE
  5
185
330
1F
100
AcDbEntity
  8
0
  6
Continuous
 62
     7
370
    15
100
AcDbPolyline
 90
       19
 70
   128
 43
0.0
 10
16.6449709409
 20
14.6529419505
 10
16.637144269
 20
14.6554893776
 10
16.629176036
 20
14.654414485
 10
16.6220274058
 20
14.6498470253
 10
16.6165605011
 20
14.6423378517
 10
16.6134346963
 20
14.6327926891
 10
16.6130270728
 20
14.6223628547
 10
16.6153867363
 20
14.6123063139
 10
16.6202291644
 20
14.6038360439
 10
16.6269702749
 20
14.5979736094
 10
16.6347969986
 20
14.5954262123
 10
16.6427651797
 20
14.596501075
 10
16.6499138619
 20
14.6010685646
 10
16.6553807665
 20
14.6085777382
 10
16.6585065713
 20
14.6181229008
 10
16.6589141948
 20
14.6285527352
 10
16.6565544795
 20
14.638609246
 10
16.6517121032
 20
14.647079546
 10
16.6449709409
 20
14.6529419505
  0
LINE
  5
186
330
1F
100
AcDbEntity
  8
0
  6
Continuous
 62
     7
370
    15
100
AcDbLine
 10
17.0846550782
 20
15.764394945
 30
0.0
 11
17.0842199203
 21
15.7934388382
 31
0.0
  0
LINE
  5
187
330
1F
100
AcDbEntity
  8
0
  6
Continuous
 62
     7
370
    15
100
AcDbLine
 10
16.3061977564
 20
13.6729642453
 30
0.0
 11
16.1809726921
 21
13.6006733545
 31
0.0
  0
ARC
  5
188
330
1F
100
AcDbEntity
  8
0
  6
Continuous
 62
     7
370
    15
100
AcDbCircle
 10
16.1526884159
 20
13.6552619411
 30
0.0
 40
0.0614810057424487
100
AcDbArc
 50
242.6096688504
 51
297.3902705107
  0
LINE
  5
189
330
1F
100
AcDbEntity
  8
0
  6
Continuous
 62
     7
370
    15
100
AcDbLine
 10
16.1244040819
 20
13.6006733844
 30
0.0
 11
15.9193431743
 21
13.7190525266
 31
0.0
  0
LINE
  5
18A
330
1F
100
AcDbEntity
  8
0
  6
Continuous
 62
     7
370
    15
100
AcDbLine
 10
16.0950512235
 20
13.8204866243
 30
0.0
 11
15.9193431743
 21
13.7190525266
 31
0.0
  0
LINE
  5
18B
330
1F
100
AcDbEntity
  8
0
  6
Continuous
 62
     7
370
    15
100
AcDbLine
 10
16.3368003196
 20
13.6809278416
 30
0.0
 11
16.0950512235
 21
13.8204866243
 31
0.0
  0
ELLIPSE
  5
18C
330
1F
100
AcDbEntity
  8
0
  6
Continuous
 62
     7
370
    15
100
AcDbEllipse
 10
16.3344819966
 20
13.6566360912
 30
0.0
 11
0.04206949349436329
 21
0.003546492774351151
 31
0.0
210
0.0
220
0.0
230
1.0
 40
0.5717768448
 41
1.467562520401469
 42
2.258921504654842
  0
ELLIPSE
  5
18D
330
1F
100
AcDbEntity
  8
0
  6
Continuous
 62
     7
370
    15
100
AcDbEllipse
 10
16.1571986008
 20
13.7216562282
 30
0.0
 11
0.05087779369474887
 21
0.004289039698978314
 31
0.0
210
0.0
220
0.0
230
1.0
 40
0.5717768448
 41
0.0
 42
6.283185307179586
  0
LINE
  5
18E
330
1F
100
AcDbEntity
  8
0
  6
Continuous
 62
     7
370
    15
100
AcDbLine
 10
16.1244040819
 20
13.5435155265
 30
0.0
 11
16.1244040819
 21
13.6006733844
 31
0.0
  0
LINE
  5
18F
330
1F
100
AcDbEntity
  8
0
  6
Continuous
 62
     7
370
    15
100
AcDbLine
 10
16.1809726921
 20
13.6006733545
 30
0.0
 11
16.1809726921
 21
13.5435154966
 31
0.0
  0
ARC
  5
190
330
1F
100
AcDbEntity
  8
0
  6
Continuous
 62
     7
370
    15
100
AcDbCircle
 10
16.1526884159
 20
13.5981040832
 30
0.0
 40
0.0614810057424502
100
AcDbArc
 50
242.6096688504
 51
297.3902705107
  0
ARC
  5
191
330
1F
100
AcDbEntity
  8
0
  6
Continuous
 62
     7
370
    15
100
AcDbCircle
 10
15.913822516
 20
13.7122843737
 30
0.0
 40
0.0087341606548873
100
AcDbArc
 50
50.7965050633
 51
189.2144058773
  0
LINE
  5
192
330
1F
100
AcDbEntity
  8
0
  6
Continuous
 62
     7
370
    15
100
AcDbLine
 10
15.9052010607
 20
13.6700587371
 30
0.0
 11
15.9052010607
 21
13.710885778
 31
0.0
  0
LINE
  5
193
330
1F
100
AcDbEntity
  8
0
  6
Continuous
 62
     7
370
    15
100
AcDbLine
 10
15.9052010607
 20
13.6700587371
 30
0.0
 11
16.1244040819
 21
13.5435155265
 31
0.0
  0
LINE
  5
194
330
1F
100
AcDbEntity
  8
0
  6
Continuous
 62
     7
370
    15
100
AcDbLine
 10
16.3025271226
 20
13.6617553256
 30
0.0
 11
16.3061977564
 21
13.6729642453
 31
0.0
  0
LINE
  5
195
330
1F
100
AcDbEntity
  8
0
  6
Continuous
 62
     7
370
    15
100
AcDbLine
 10
16.3025271226
 20
13.6136873756
 30
0.0
 11
16.3025271226
 21
13.6617553256
 31
0.0
  0
LINE
  5
196
330
1F
100
AcDbEntity
  8
0
  6
Continuous
 62
     7
370
    15
100
AcDbLine
 10
16.1809726921
 20
13.5435154966
 30
0.0
 11
16.3025271226
 21
13.6136873756
 31
0.0
  0
ARC
  5
197
330
1F
100
AcDbEntity
  8
0
  6
Continuous
 62
     7
370
    15
100
AcDbCircle
 10
16.3260424044
 20
13.8492216288
 30
0.0
 40
0.1686372779756378
100
AcDbArc
 50
273.6575660111
 51
284.9327884824
  0
ELLIPSE
  5
198
330
1F
100
AcDbEntity
  8
0
  6
Continuous
 62
     7
370
    15
100
AcDbEllipse
 10
16.3308113795
 20
13.6454271825
 30
0.0
 11
0.03990164480117286
 21
-0.006367008204538394
 31
0.0
210
0.0
220
0.0
230
1.0
 40
0.4402923204
 41
1.397316529262578
 42
2.426335609569057
  0
ARC
  5
199
330
1F
100
AcDbEntity
  8
0
  6
Continuous
 62
     7
370
    15
100
AcDbCircle
 10
16.3308114048
 20
13.559099054
 30
0.0
 40
0.0614807732610954
100
AcDbArc
 50
62.6096716575
 51
117.3903889814
  0
ARC
  5
19A
330
1F
100
AcDbEntity
  8
0
  6
Continuous
 62
     7
370
    15
100
AcDbCircle
 10
16.0782348084
 20
13.8465899087
 30
0.0
 40
0.031051139629265
100
AcDbArc
 50
302.7906879744
 51
342.6204248038
  0
ARC
  5
19B
330
1F
100
AcDbEntity
  8
0
  6
Continuous
 62
     8
370
    15
100
AcDbCircle
 10
19.8186221096
 20
14.0233757408
 30
0.0
 40
0.0651785404255645
100
AcDbArc
 50
113.6855570489
 51
175.9448267681
  0
ARC
  5
19C
330
1F
100
AcDbEntity
  8
0
  6
Continuous
 62
     8
370
    15
100
AcDbCircle
 10
19.9862100293
 20
13.9747266326
 30
0.0
 40
0.0074136113153477
100
AcDbArc
 50
53.7815908868
 51
114.7363662038
  0
LINE
  5
19D
330
1F
100
AcDbEntity
  8
0
  6
Continuous
 62
     8
370
    15
100
AcDbLine
 10
19.0390303706
 20
12.0910955426
 30
0.0
 11
19.0390303706
 21
12.1111639805
 31
0.0
  0
LWPOLYLINE
  5
19E
330
1F
100
AcDbEntity
  8
0
  6
Continuous
 62
     8
370
    15
100
AcDbPolyline
 90
       12
 70
   128
 43
0.0
 10
18.3658211394
 20
13.6395156146
 10
18.3664121961
 20
13.639559287
 10
18.3780325769
 20
13.6423796902
 10
18.3887391883
 20
13.6487544465
 10
18.3979096021
 20
13.658312989
 10
18.4050110712
 20
13.6704999949
 10
18.409630735
 20
13.6846070462
 10
18.4115001458
 20
13.6998143353
 10
18.4105107735
 20
13.7152381173
 10
18.4067200202
 20
13.7299820241
 10
18.4003481354
 20
13.7431890215
 10
18.3919479075
 20
13.75390878
  0
LINE
  5
19F
330
1F
100
AcDbEntity
  8
0
  6
Continuous
 62
     8
370
    15
100
AcDbLine
 10
17.4940020275
 20
12.9666906037
 30
0.0
 11
17.4940020275
 21
13.0030898578
 31
0.0
  0
LWPOLYLINE
  5
1A0
330
1F
100
AcDbEntity
  8
0
  6
Continuous
 62
     8
370
    15
100
AcDbPolyline
 90
        6
 70
   128
 43
0.0
 10
16.6965593472
 20
15.6606149385
 10
16.6965030338
 20
15.6598119114
 10
16.6970521666
 20
15.6585129483
 10
16.6983127349
 20
15.6570554156
 10
16.7002363071
 20
15.6554956464
 10
16.7027490433
 20
15.6538932678
  0
ELLIPSE
  5
1A1
330
1F
100
AcDbEntity
  8
0
  6
Continuous
 62
     8
370
    15
100
AcDbEllipse
 10
16.1130702619
 20
13.8145580026
 30
0.0
 11
-0.0117250788502723
 21
0.02372004340671019
 31
0.0
210
0.0
220
0.0
230
1.0
 40
0.3990217959
 41
5.743994130901409
 42
6.669674533051852
  0
ARC
  5
1A2
330
1F
100
AcDbEntity
  8
0
  6
Continuous
 62
     8
370
    15
100
AcDbCircle
 10
16.9831230475
 20
15.6602746304
 30
0.0
 40
0.0651775280924731
100
AcDbArc
 50
113.6850195888
 51
175.9453642282
  0
ARC
  5
1A3
330
1F
100
AcDbEntity
  8
0
  6
Continuous
 62
     8
370
    15
100
AcDbCircle
 10
17.1507365872
 20
15.6118639154
 30
0.0
 40
0.0072071731269509
100
AcDbArc
 50
52.8176122269
 51
115.7908601403
  0
ARC
  5
1A4
330
1F
100
AcDbEntity
  8
0
  6
Continuous
 62
     8
370
    15
100
AcDbCircle
 10
16.7450090321
 20
15.709366783
 30
0.0
 40
0.0095888321336794
100
AcDbArc
 50
52.7488238039
 51
115.95872077
  0
LWPOLYLINE
  5
1A5
330
1F
100
AcDbEntity
  8
0
  6
Continuous
 62
     8
370
    15
100
AcDbPolyline
 90
       12
 70
   128
 43
0.0
 10
16.7606887743
 20
14.5661388052
 10
16.7612798051
 20
14.5661824926
 10
16.7729002118
 20
14.5690028809
 10
16.7836067973
 20
14.5753776521
 10
16.7927772111
 20
14.5849361946
 10
16.7998787062
 20
14.5971231855
 10
16.8044983699
 20
14.6112302369
 10
16.8063677548
 20
14.6264375409
 10
16.8053783825
 20
14.6418613229
 10
16.8015876551
 20
14.6566052147
 10
16.7952157444
 20
14.6698122271
 10
16.7868155165
 20
14.6805319856
  0
ELLIPSE
  5
1A6
330
1F
100
AcDbEntity
  8
0
  6
Continuous
 62
     8
370
    15
100
AcDbEllipse
 10
16.1130702619
 20
13.8145580026
 30
0.0
 11
0.02288413629720765
 21
-0.009815732926963252
 31
0.0
210
0.0
220
0.0
230
1.0
 40
0.1020360517
 41
3.065444510416445
 42
3.85076140975193
  0
INSERT
  5
1AC
330
1F
100
AcDbEntity
  8
DEFAULT
 62
     7
100
AcDbBlockReference
  2
SW_NOTE_1
 10
16.9614086973
 20
11.4046592425
 30
0.0
  0
LINE
  5
1AD
330
1F
100
AcDbEntity
  8
0
  6
Continuous
 62
     7
370
    15
100
AcDbLine
 10
2.286261519
 20
14.2226378051
 30
0.0
 11
2.246261581
 21
14.2226378051
 31
0.0
  0
LINE
  5
1AE
330
1F
100
AcDbEntity
  8
0
  6
Continuous
 62
     7
370
    15
100
AcDbLine
 10
2.246261581
 20
14.2226378051
 30
0.0
 11
2.246261581
 21
14.9108851877
 31
0.0
  0
LINE
  5
1AF
330
1F
100
AcDbEntity
  8
0
  6
Continuous
 62
     7
370
    15
100
AcDbLine
 10
2.246261581
 20
14.9108851877
 30
0.0
 11
2.286261519
 21
14.9108851877
 31
0.0
  0
LINE
  5
1B0
330
1F
100
AcDbEntity
  8
0
  6
Continuous
 62
     7
370
    15
100
AcDbLine
 10
11.3862613283
 20
14.9108851877
 30
0.0
 11
11.3862613283
 21
14.2226378051
 31
0.0
  0
LINE
  5
1B1
330
1F
100
AcDbEntity
  8
0
  6
Continuous
 62
     7
370
    15
100
AcDbLine
 10
11.3862613283
 20
14.2226378051
 30
0.0
 11
11.3462613904
 21
14.2226378051
 31
0.0
  0
LINE
  5
1B2
330
1F
100
AcDbEntity
  8
0
  6
Continuous
 62
     7
370
    15
100
AcDbLine
 10
11.3462613904
 20
14.9108851877
 30
0.0
 11
11.3862613283
 21
14.9108851877
 31
0.0
  0
LINE
  5
1B3
330
1F
100
AcDbEntity
  8
0
  6
Continuous
 62
     7
370
    15
100
AcDbLine
 10
2.5110349757
 20
14.9108851877
 30
0.0
 11
2.286261519
 21
14.9108851877
 31
0.0
  0
LINE
  5
1B4
330
1F
100
AcDbEntity
  8
0
  6
Continuous
 62
     7
370
    15
100
AcDbLine
 10
2.5110349757
 20
14.5508851598
 30
0.0
 11
2.5110349757
 21
14.9108851877
 31
0.0
  0
ARC
  5
1B5
330
1F
100
AcDbEntity
  8
0
  6
Continuous
 62
     7
370
    15
100
AcDbCircle
 10
2.8062614547
 20
14.5508852725
 30
0.0
 40
0.2952264243862932
100
AcDbArc
 50
180.0
 51
0.0
  0
LINE
  5
1B6
330
1F
100
AcDbEntity
  8
0
  6
Continuous
 62
     7
370
    15
100
AcDbLine
 10
3.1014879147
 20
14.9108851877
 30
0.0
 11
3.1014879147
 21
14.5508851598
 31
0.0
  0
LINE
  5
1B7
330
1F
100
AcDbEntity
  8
0
  6
Continuous
 62
     7
370
    15
100
AcDbLine
 10
10.5310349946
 20
14.9108851877
 30
0.0
 11
3.1014879147
 21
14.9108851877
 31
0.0
  0
LINE
  5
1B8
330
1F
100
AcDbEntity
  8
0
  6
Continuous
 62
     7
370
    15
100
AcDbLine
 10
10.5310349946
 20
14.5508851598
 30
0.0
 11
10.5310349946
 21
14.9108851877
 31
0.0
  0
ARC
  5
1B9
330
1F
100
AcDbEntity
  8
0
  6
Continuous
 62
     7
370
    15
100
AcDbCircle
 10
10.8262614547
 20
14.5508852725
 30
0.0
 40
0.2952264243862963
100
AcDbArc
 50
180.0
 51
0.0
  0
LINE
  5
1BA
330
1F
100
AcDbEntity
  8
0
  6
Continuous
 62
     7
370
    15
100
AcDbLine
 10
11.1214879337
 20
14.9108851877
 30
0.0
 11
11.1214879337
 21
14.5508851598
 31
0.0
  0
LINE
  5
1BB
330
1F
100
AcDbEntity
  8
0
  6
Continuous
 62
     7
370
    15
100
AcDbLine
 10
11.3462613904
 20
14.9108851877
 30
0.0
 11
11.1214879337
 21
14.9108851877
 31
0.0
  0
LINE
  5
1BC
330
1F
100
AcDbEntity
  8
0
  6
Continuous
 62
     7
370
    15
100
AcDbLine
 10
2.286261519
 20
14.2226378051
 30
0.0
 11
11.3462613904
 21
14.2226378051
 31
0.0
  0
LINE
  5
1BD
330
1F
100
AcDbEntity
  8
0
  6
Continuous
 62
     7
370
    15
100
AcDbLine
 10
11.3462613904
 20
14.0866916956
 30
0.0
 11
2.286261519
 21
14.0866916956
 31
0.0
  0
LINE
  5
1BE
330
1F
100
AcDbEntity
  8
0
  6
Continuous
 62
     7
370
    15
100
AcDbLine
 10
11.3862613283
 20
14.2226378051
 30
0.0
 11
11.3862613283
 21
14.1229440501
 31
0.0
  0
ARC
  5
1BF
330
1F
100
AcDbEntity
  8
0
  6
Continuous
 62
     7
370
    15
100
AcDbCircle
 10
11.3480474596
 20
14.1249146326
 30
0.0
 40
0.0382646436961556
100
AcDbArc
 50
267.3246471527
 51
357.0480314374
  0
LINE
  5
1C0
330
1F
100
AcDbEntity
  8
0
  6
Continuous
 62
     7
370
    15
100
AcDbLine
 10
2.246261581
 20
14.1229440501
 30
0.0
 11
2.246261581
 21
14.2226378051
 31
0.0
  0
ARC
  5
1C1
330
1F
100
AcDbEntity
  8
0
  6
Continuous
 62
     7
370
    15
100
AcDbCircle
 10
2.2844754498
 20
14.1249146326
 30
0.0
 40
0.0382646436961519
100
AcDbArc
 50
182.9519685626
 51
272.6753528473
  0
LINE
  5
1C2
330
1F
100
AcDbEntity
  8
0
  6
Continuous
 62
     7
370
    15
100
AcDbLine
 10
10.5610303281
 20
14.9108851877
 30
0.0
 11
10.5610303281
 21
14.5508851598
 31
0.0
  0
LINE
  5
1C3
330
1F
100
AcDbEntity
  8
0
  6
Continuous
 62
     7
370
    15
100
AcDbLine
 10
10.5610303281
 20
14.5508851598
 30
0.0
 11
10.5310349946
 21
14.5508851598
 31
0.0
  0
LINE
  5
1C4
330
1F
100
AcDbEntity
  8
0
  6
Continuous
 62
     7
370
    15
100
AcDbLine
 10
10.5310349946
 20
14.9108851877
 30
0.0
 11
10.5610303281
 21
14.9108851877
 31
0.0
  0
LINE
  5
1C5
330
1F
100
AcDbEntity
  8
0
  6
Continuous
 62
     7
370
    15
100
AcDbLine
 10
2.5110349757
 20
14.5508851598
 30
0.0
 11
2.5410306025
 21
14.5508851598
 31
0.0
  0
ARC
  5
1C6
330
1F
100
AcDbEntity
  8
0
  6
Continuous
 62
     7
370
    15
100
AcDbCircle
 10
2.8062614547
 20
14.5508852725
 30
0.0
 40
0.2652309935316013
100
AcDbArc
 50
180.0
 51
0.0
  0
LINE
  5
1C7
330
1F
100
AcDbEntity
  8
0
  6
Continuous
 62
     7
370
    15
100
AcDbLine
 10
3.1014879147
 20
14.5508851598
 30
0.0
 11
3.0714925812
 21
14.5508851598
 31
0.0
  0
LINE
  5
1C8
330
1F
100
AcDbEntity
  8
0
  6
Continuous
 62
     7
370
    15
100
AcDbLine
 10
11.0914923068
 20
14.5508851598
 30
0.0
 11
11.1214879337
 21
14.5508851598
 31
0.0
  0
LINE
  5
1C9
330
1F
100
AcDbEntity
  8
0
  6
Continuous
 62
     7
370
    15
100
AcDbLine
 10
11.0914923068
 20
14.5508851598
 30
0.0
 11
11.0914923068
 21
14.9108851877
 31
0.0
  0
LINE
  5
1CA
330
1F
100
AcDbEntity
  8
0
  6
Continuous
 62
     7
370
    15
100
AcDbLine
 10
11.0914923068
 20
14.9108851877
 30
0.0
 11
11.1214879337
 21
14.9108851877
 31
0.0
  0
LINE
  5
1CB
330
1F
100
AcDbEntity
  8
0
  6
Continuous
 62
     7
370
    15
100
AcDbLine
 10
2.5410306025
 20
14.9108851877
 30
0.0
 11
2.5410306025
 21
14.5508851598
 31
0.0
  0
LINE
  5
1CC
330
1F
100
AcDbEntity
  8
0
  6
Continuous
 62
     7
370
    15
100
AcDbLine
 10
2.5110349757
 20
14.9108851877
 30
0.0
 11
2.5410306025
 21
14.9108851877
 31
0.0
  0
ARC
  5
1CD
330
1F
100
AcDbEntity
  8
0
  6
Continuous
 62
     7
370
    15
100
AcDbCircle
 10
10.8262614547
 20
14.5508852725
 30
0.0
 40
0.2652309935316026
100
AcDbArc
 50
180.0
 51
0.0
  0
LINE
  5
1CE
330
1F
100
AcDbEntity
  8
0
  6
Continuous
 62
     7
370
    15
100
AcDbLine
 10
3.0714925812
 20
14.5508851598
 30
0.0
 11
3.0714925812
 21
14.9108851877
 31
0.0
  0
LINE
  5
1CF
330
1F
100
AcDbEntity
  8
0
  6
Continuous
 62
     7
370
    15
100
AcDbLine
 10
3.0714925812
 20
14.9108851877
 30
0.0
 11
3.1014879147
 21
14.9108851877
 31
0.0
  0
LINE
  5
1D0
330
1F
100
AcDbEntity
  8
0
  6
Continuous
 62
     7
370
    15
100
AcDbLine
 10
10.5622614339
 20
14.5508851598
 30
0.0
 11
10.5622614339
 21
14.9108851877
 31
0.0
  0
LINE
  5
1D1
330
1F
100
AcDbEntity
  8
0
  6
Continuous
 62
     7
370
    15
100
AcDbLine
 10
10.5622614339
 20
14.5508851598
 30
0.0
 11
10.5610303281
 21
14.5508851598
 31
0.0
  0
LINE
  5
1D2
330
1F
100
AcDbEntity
  8
0
  6
Continuous
 62
     7
370
    15
100
AcDbLine
 10
10.5622614339
 20
14.9108851877
 30
0.0
 11
10.5610303281
 21
14.9108851877
 31
0.0
  0
ARC
  5
1D3
330
1F
100
AcDbEntity
  8
0
  6
Continuous
 62
     7
370
    15
100
AcDbCircle
 10
2.8062614547
 20
14.5508852725
 30
0.0
 40
0.2640000000000007
100
AcDbArc
 50
180.0
 51
0.0
  0
LINE
  5
1D4
330
1F
100
AcDbEntity
  8
0
  6
Continuous
 62
     7
370
    15
100
AcDbLine
 10
3.0702614755
 20
14.5508851598
 30
0.0
 11
3.0714925812
 21
14.5508851598
 31
0.0
  0
LINE
  5
1D5
330
1F
100
AcDbEntity
  8
0
  6
Continuous
 62
     7
370
    15
100
AcDbLine
 10
2.542261415
 20
14.5508851598
 30
0.0
 11
2.5410306025
 21
14.5508851598
 31
0.0
  0
LINE
  5
1D6
330
1F
100
AcDbEntity
  8
0
  6
Continuous
 62
     7
370
    15
100
AcDbLine
 10
11.0902614944
 20
14.9108851877
 30
0.0
 11
11.0902614944
 21
14.5508851598
 31
0.0
  0
LINE
  5
1D7
330
1F
100
AcDbEntity
  8
0
  6
Continuous
 62
     7
370
    15
100
AcDbLine
 10
11.0902614944
 20
14.5508851598
 30
0.0
 11
11.0914923068
 21
14.5508851598
 31
0.0
  0
LINE
  5
1D8
330
1F
100
AcDbEntity
  8
0
  6
Continuous
 62
     7
370
    15
100
AcDbLine
 10
11.0902614944
 20
14.9108851877
 30
0.0
 11
11.0914923068
 21
14.9108851877
 31
0.0
  0
LINE
  5
1D9
330
1F
100
AcDbEntity
  8
0
  6
Continuous
 62
     7
370
    15
100
AcDbLine
 10
2.542261415
 20
14.9108851877
 30
0.0
 11
2.542261415
 21
14.5508851598
 31
0.0
  0
LINE
  5
1DA
330
1F
100
AcDbEntity
  8
0
  6
Continuous
 62
     7
370
    15
100
AcDbLine
 10
2.542261415
 20
14.9108851877
 30
0.0
 11
2.5410306025
 21
14.9108851877
 31
0.0
  0
ARC
  5
1DB
330
1F
100
AcDbEntity
  8
0
  6
Continuous
 62
     7
370
    15
100
AcDbCircle
 10
10.8262614547
 20
14.5508852725
 30
0.0
 40
0.2640000000000011
100
AcDbArc
 50
180.0
 51
0.0
  0
LINE
  5
1DC
330
1F
100
AcDbEntity
  8
0
  6
Continuous
 62
     7
370
    15
100
AcDbLine
 10
3.0702614755
 20
14.5508851598
 30
0.0
 11
3.0702614755
 21
14.9108851877
 31
0.0
  0
LINE
  5
1DD
330
1F
100
AcDbEntity
  8
0
  6
Continuous
 62
     7
370
    15
100
AcDbLine
 10
3.0702614755
 20
14.9108851877
 30
0.0
 11
3.0714925812
 21
14.9108851877
 31
0.0
  0
LINE
  5
1DE
330
1F
100
AcDbEntity
  8
0
  6
Continuous
 62
     7
370
    15
100
AcDbLine
 10
2.286261519
 20
12.4041150528
 30
0.0
 11
3.0262613971
 21
12.4041150528
 31
0.0
  0
LINE
  5
1DF
330
1F
100
AcDbEntity
  8
0
  6
Continuous
 62
     7
370
    15
100
AcDbLine
 10
10.6062615123
 20
12.4041150528
 30
0.0
 11
11.3462613904
 21
12.4041150528
 31
0.0
  0
LINE
  5
1E0
330
1F
100
AcDbEntity
  8
0
  6
Continuous
 62
     7
370
    15
100
AcDbLine
 10
10.6062615123
 20
12.385462715
 30
0.0
 11
10.6062615123
 21
12.4041150528
 31
0.0
  0
LINE
  5
1E1
330
1F
100
AcDbEntity
  8
0
  6
Continuous
 62
     7
370
    15
100
AcDbLine
 10
3.0262613971
 20
12.385462715
 30
0.0
 11
10.6062615123
 21
12.385462715
 31
0.0
  0
LINE
  5
1E2
330
1F
100
AcDbEntity
  8
0
  6
Continuous
 62
     7
370
    15
100
AcDbLine
 10
3.0262613971
 20
12.4041150528
 30
0.0
 11
3.0262613971
 21
12.385462715
 31
0.0
  0
LINE
  5
1E3
330
1F
100
AcDbEntity
  8
0
  6
Continuous
 62
     7
370
    15
100
AcDbLine
 10
5.9862614229
 20
13.7527443533
 30
0.0
 11
3.1062615662
 21
13.7527443533
 31
0.0
  0
LINE
  5
1E4
330
1F
100
AcDbEntity
  8
0
  6
Continuous
 62
     7
370
    15
100
AcDbLine
 10
3.1062615662
 20
13.7527443533
 30
0.0
 11
3.1062615662
 21
12.7490260417
 31
0.0
  0
LINE
  5
1E5
330
1F
100
AcDbEntity
  8
0
  6
Continuous
 62
     7
370
    15
100
AcDbLine
 10
3.1062615662
 20
12.7490260417
 30
0.0
 11
5.9862614229
 21
12.7490260417
 31
0.0
  0
LINE
  5
1E6
330
1F
100
AcDbEntity
  8
0
  6
Continuous
 62
     7
370
    15
100
AcDbLine
 10
5.9862614229
 20
12.7490260417
 30
0.0
 11
5.9862614229
 21
13.7527443533
 31
0.0
  0
LWPOLYLINE
  5
1E7
330
1F
100
AcDbEntity
  8
0
  6
Continuous
 62
     7
370
    15
100
AcDbPolyline
 90
       21
 70
   128
 43
0.0
 10
6.4522614696
 20
13.2179209983
 10
6.4763647945
 20
13.2195344597
 10
6.49810872
 20
13.2242165923
 10
6.515364789
 20
13.2315093614
 10
6.526443861
 20
13.2406988019
 10
6.5302614586
 20
13.2508852709
 10
6.526443861
 20
13.2610717399
 10
6.515364789
 20
13.2702611804
 10
6.49810872
 20
13.2775539495
 10
6.4763647945
 20
13.282236082
 10
6.4522614696
 20
13.2838495434
 10
6.4281581447
 20
13.282236082
 10
6.4064142193
 20
13.2775539495
 10
6.3891581319
 20
13.2702611804
 10
6.3780790599
 20
13.2610717399
 10
6.374261444
 20
13.2508852709
 10
6.3780790599
 20
13.2406988019
 10
6.3891581319
 20
13.2315093614
 10
6.4064142193
 20
13.2242165923
 10
6.4281581447
 20
13.2195344597
 10
6.4522614696
 20
13.2179209983
  0
LWPOLYLINE
  5
1E8
330
1F
100
AcDbEntity
  8
0
  6
Continuous
 62
     7
370
    15
100
AcDbPolyline
 90
       21
 70
   128
 43
0.0
 10
2.6402614829
 20
13.2179209983
 10
2.6643646977
 20
13.2195344597
 10
2.6861086599
 20
13.2242165923
 10
2.7033646739
 20
13.2315093614
 10
2.7144437459
 20
13.2406988019
 10
2.7182614351
 20
13.2508852709
 10
2.7144437459
 20
13.2610717399
 10
2.7033646739
 20
13.2702611804
 10
2.6861086599
 20
13.2775539495
 10
2.6643646977
 20
13.282236082
 10
2.6402614829
 20
13.2838495434
 10
2.616158268
 20
13.282236082
 10
2.5944143058
 20
13.2775539495
 10
2.5771579985
 20
13.2702611804
 10
2.5660789265
 20
13.2610717399
 10
2.5622615306
 20
13.2508852709
 10
2.5660789265
 20
13.2406988019
 10
2.5771579985
 20
13.2315093614
 10
2.5944143058
 20
13.2242165923
 10
2.616158268
 20
13.2195344597
 10
2.6402614829
 20
13.2179209983
  0
LINE
  5
1E9
330
1F
100
AcDbEntity
  8
0
  6
Continuous
 62
     7
370
    15
100
AcDbLine
 10
7.6462614864
 20
12.7490260417
 30
0.0
 11
7.6462614864
 21
13.7527443533
 31
0.0
  0
LINE
  5
1EA
330
1F
100
AcDbEntity
  8
0
  6
Continuous
 62
     7
370
    15
100
AcDbLine
 10
10.5262613431
 20
12.7490260417
 30
0.0
 11
7.6462614864
 21
12.7490260417
 31
0.0
  0
LINE
  5
1EB
330
1F
100
AcDbEntity
  8
0
  6
Continuous
 62
     7
370
    15
100
AcDbLine
 10
10.5262613431
 20
13.7527443533
 30
0.0
 11
10.5262613431
 21
12.7490260417
 31
0.0
  0
LINE
  5
1EC
330
1F
100
AcDbEntity
  8
0
  6
Continuous
 62
     7
370
    15
100
AcDbLine
 10
7.6462614864
 20
13.7527443533
 30
0.0
 11
10.5262613431
 21
13.7527443533
 31
0.0
  0
LWPOLYLINE
  5
1ED
330
1F
100
AcDbEntity
  8
0
  6
Continuous
 62
     7
370
    15
100
AcDbPolyline
 90
       21
 70
   128
 43
0.0
 10
7.1802614397
 20
13.2179209983
 10
7.1561581148
 20
13.2195344597
 10
7.1344141894
 20
13.2242165923
 10
7.1171581204
 20
13.2315093614
 10
7.1060790483
 20
13.2406988019
 10
7.1022614508
 20
13.2508852709
 10
7.1060790483
 20
13.2610717399
 10
7.1171581204
 20
13.2702611804
 10
7.1344141894
 20
13.2775539495
 10
7.1561581148
 20
13.282236082
 10
7.1802614397
 20
13.2838495434
 10
7.2043647646
 20
13.282236082
 10
7.2261086901
 20
13.2775539495
 10
7.2433647774
 20
13.2702611804
 10
7.2544438494
 20
13.2610717399
 10
7.2582614653
 20
13.2508852709
 10
7.2544438494
 20
13.2406988019
 10
7.2433647774
 20
13.2315093614
 10
7.2261086901
 20
13.2242165923
 10
7.2043647646
 20
13.2195344597
 10
7.1802614397
 20
13.2179209983
  0
LWPOLYLINE
  5
1EE
330
1F
100
AcDbEntity
  8
0
  6
Continuous
 62
     7
370
    15
100
AcDbPolyline
 90
       21
 70
   128
 43
0.0
 10
10.9922614265
 20
13.2179209983
 10
10.9681582116
 20
13.2195344597
 10
10.9464142495
 20
13.2242165923
 10
10.9291582355
 20
13.2315093614
 10
10.9180791635
 20
13.2406988019
 10
10.9142614742
 20
13.2508852709
 10
10.9180791635
 20
13.2610717399
 10
10.9291582355
 20
13.2702611804
 10
10.9464142495
 20
13.2775539495
 10
10.9681582116
 20
13.282236082
 10
10.9922614265
 20
13.2838495434
 10
11.0163646414
 20
13.282236082
 10
11.0381086035
 20
13.2775539495
 10
11.0553649109
 20
13.2702611804
 10
11.0664439829
 20
13.2610717399
 10
11.0702613788
 20
13.2508852709
 10
11.0664439829
 20
13.2406988019
 10
11.0553649109
 20
13.2315093614
 10
11.0381086035
 20
13.2242165923
 10
11.0163646414
 20
13.2195344597
 10
10.9922614265
 20
13.2179209983
  0
LWPOLYLINE
  5
1EF
330
1F
100
AcDbEntity
  8
0
  6
Continuous
 62
     7
370
    15
100
AcDbPolyline
 90
       23
 70
   128
 43
0.0
 10
2.9057614558
 20
13.289132269
 10
2.9312582812
 20
13.2875829003
 10
2.9546894772
 20
13.2830606325
 10
2.9741569057
 20
13.2759316882
 10
2.9880830381
 20
13.266773634
 10
2.9953403143
 20
13.256328448
 10
2.9953403143
 20
13.2454420937
 10
2.9880830381
 20
13.2349969077
 10
2.9741569057
 20
13.2258388535
 10
2.9546894772
 20
13.2187099092
 10
2.9312582812
 20
13.2141876415
 10
2.9057614558
 20
13.2126382727
 10
2.8802646303
 20
13.2141876415
 10
2.8568334343
 20
13.2187099092
 10
2.8373660059
 20
13.2258388535
 10
2.8234398734
 20
13.2349969077
 10
2.8161825973
 20
13.2454420937
 10
2.8161825973
 20
13.256328448
 10
2.8234398734
 20
13.266773634
 10
2.8373660059
 20
13.2759316882
 10
2.8568334343
 20
13.2830606325
 10
2.8802646303
 20
13.2875829003
 10
2.9057614558
 20
13.289132269
  0
LWPOLYLINE
  5
1F0
330
1F
100
AcDbEntity
  8
0
  6
Continuous
 62
     7
370
    15
100
AcDbPolyline
 90
       23
 70
   128
 43
0.0
 10
6.18676146
 20
13.289132269
 10
6.2122582488
 20
13.2875829003
 10
6.2356894448
 20
13.2830606325
 10
6.2551567999
 20
13.2759316882
 10
6.2690831524
 20
13.266773634
 10
6.2763402819
 20
13.256328448
 10
6.2763402819
 20
13.2454420937
 10
6.2690831524
 20
13.2349969077
 10
6.2551567999
 20
13.2258388535
 10
6.2356894448
 20
13.2187099092
 10
6.2122582488
 20
13.2141876415
 10
6.18676146
 20
13.2126382727
 10
6.1612646346
 20
13.2141876415
 10
6.1378334386
 20
13.2187099092
 10
6.1183660835
 20
13.2258388535
 10
6.104439731
 20
13.2349969077
 10
6.0971826015
 20
13.2454420937
 10
6.0971826015
 20
13.256328448
 10
6.104439731
 20
13.266773634
 10
6.1183660835
 20
13.2759316882
 10
6.1378334386
 20
13.2830606325
 10
6.1612646346
 20
13.2875829003
 10
6.18676146
 20
13.289132269
  0
LWPOLYLINE
  5
1F1
330
1F
100
AcDbEntity
  8
0
  6
Continuous
 62
     7
370
    15
100
AcDbPolyline
 90
       23
 70
   128
 43
0.0
 10
7.4457614493
 20
13.2892443211
 10
7.4713330006
 20
13.2876905524
 10
7.4948328358
 20
13.2831549381
 10
7.5143572435
 20
13.2760051673
 10
7.5283244422
 20
13.2668202734
 10
7.5356028381
 20
13.2563442878
 10
7.5356028381
 20
13.2454262539
 10
7.5283244422
 20
13.2349504149
 10
7.5143572435
 20
13.2257653744
 10
7.4948328358
 20
13.2186156036
 10
7.4713330006
 20
13.2140799894
 10
7.4457614493
 20
13.2125262207
 10
7.4201899347
 20
13.2140799894
 10
7.3966900629
 20
13.2186156036
 10
7.3771656551
 20
13.2257653744
 10
7.3631984564
 20
13.2349504149
 10
7.3559200605
 20
13.2454262539
 10
7.3559200605
 20
13.2563442878
 10
7.3631984564
 20
13.2668202734
 10
7.3771656551
 20
13.2760051673
 10
7.3966900629
 20
13.2831549381
 10
7.4201899347
 20
13.2876905524
 10
7.4457614493
 20
13.2892443211
  0
LWPOLYLINE
  5
1F2
330
1F
100
AcDbEntity
  8
0
  6
Continuous
 62
     7
370
    15
100
AcDbPolyline
 90
       23
 70
   128
 43
0.0
 10
10.7267614536
 20
13.2892443211
 10
10.7523330782
 20
13.2876905524
 10
10.7758329134
 20
13.2831549381
 10
10.7953572478
 20
13.2760051673
 10
10.8093244465
 20
13.2668202734
 10
10.8166028424
 20
13.2563442878
 10
10.8166028424
 20
13.2454262539
 10
10.8093244465
 20
13.2349504149
 10
10.7953572478
 20
13.2257653744
 10
10.7758329134
 20
13.2186156036
 10
10.7523330782
 20
13.2140799894
 10
10.7267614536
 20
13.2125262207
 10
10.701189829
 20
13.2140799894
 10
10.6776899938
 20
13.2186156036
 10
10.6581656593
 20
13.2257653744
 10
10.6441984607
 20
13.2349504149
 10
10.6369200648
 20
13.2454262539
 10
10.6369200648
 20
13.2563442878
 10
10.6441984607
 20
13.2668202734
 10
10.6581656593
 20
13.2760051673
 10
10.6776899938
 20
13.2831549381
 10
10.701189829
 20
13.2876905524
 10
10.7267614536
 20
13.2892443211
  0
LWPOLYLINE
  5
1F3
330
1F
100
AcDbEntity
  8
0
  6
Continuous
 62
     7
370
    15
100
AcDbPolyline
 90
       25
 70
   128
 43
0.0
 10
9.9162614832
 20
14.0445610089
 10
9.9433727967
 20
14.0430527063
 10
9.9686364248
 20
14.0386301708
 10
9.9903308142
 20
14.0315949454
 10
10.0069775819
 20
14.0224266246
 10
10.0174421277
 20
14.011749708
 10
10.0210113665
 20
14.000291947
 10
10.0174421277
 20
13.988834186
 10
10.0069775819
 20
13.9781572694
 10
9.9903308142
 20
13.9689886553
 10
9.9686364248
 20
13.9619537232
 10
9.9433727967
 20
13.9575311876
 10
9.9162614832
 20
13.9560225917
 10
9.8891501697
 20
13.9575311876
 10
9.8638865416
 20
13.9619537232
 10
9.8421921522
 20
13.9689886553
 10
9.8255453845
 20
13.9781572694
 10
9.8150808387
 20
13.988834186
 10
9.8115116
 20
14.000291947
 10
9.8150808387
 20
14.011749708
 10
9.8255453845
 20
14.0224266246
 10
9.8421921522
 20
14.0315949454
 10
9.8638865416
 20
14.0386301708
 10
9.8891501697
 20
14.0430527063
 10
9.9162614832
 20
14.0445610089
  0
LWPOLYLINE
  5
1F4
330
1F
100
AcDbEntity
  8
0
  6
Continuous
 62
     7
370
    15
100
AcDbPolyline
 90
       25
 70
   128
 43
0.0
 10
3.7162614261
 20
14.0445610089
 10
3.7433727396
 20
14.0430527063
 10
3.7686363678
 20
14.0386301708
 10
3.7903307572
 20
14.0315949454
 10
3.8069775248
 20
14.0224266246
 10
3.8174420706
 20
14.011749708
 10
3.8210113094
 20
14.000291947
 10
3.8174420706
 20
13.988834186
 10
3.8069775248
 20
13.9781572694
 10
3.7903307572
 20
13.9689886553
 10
3.7686363678
 20
13.9619537232
 10
3.7433727396
 20
13.9575311876
 10
3.7162614261
 20
13.9560225917
 10
3.6891501127
 20
13.9575311876
 10
3.6638864845
 20
13.9619537232
 10
3.6421920951
 20
13.9689886553
 10
3.6255453274
 20
13.9781572694
 10
3.6150807817
 20
13.988834186
 10
3.6115115429
 20
14.000291947
 10
3.6150807817
 20
14.011749708
 10
3.6255453274
 20
14.0224266246
 10
3.6421920951
 20
14.0315949454
 10
3.6638864845
 20
14.0386301708
 10
3.6891501127
 20
14.0430527063
 10
3.7162614261
 20
14.0445610089
  0
ELLIPSE
  5
1F5
330
1F
100
AcDbEntity
  8
0
  6
Continuous
 62
     7
370
    15
100
AcDbEllipse
 10
11.3462614547
 20
12.4188282996
 30
0.0
 11
0.03999999999999915
 21
0.0
 31
0.0
210
0.0
220
0.0
230
1.0
 40
0.3678327346
 41
4.712388980384695
 42
6.283185307179586
  0
LINE
  5
1F6
330
1F
100
AcDbEntity
  8
0
  6
Continuous
 62
     7
370
    15
100
AcDbLine
 10
11.3862613283
 20
14.1229440501
 30
0.0
 11
11.3862613283
 21
12.4188283362
 31
0.0
  0
ELLIPSE
  5
1F7
330
1F
100
AcDbEntity
  8
0
  6
Continuous
 62
     7
370
    15
100
AcDbEllipse
 10
2.2862614547
 20
12.4188282996
 30
0.0
 11
0.04000000000000004
 21
0.0
 31
0.0
210
0.0
220
0.0
230
1.0
 40
0.3678327346
 41
3.141592653589793
 42
4.712388980384695
  0
LINE
  5
1F8
330
1F
100
AcDbEntity
  8
0
  6
Continuous
 62
     7
370
    15
100
AcDbLine
 10
2.246261581
 20
12.4188283362
 30
0.0
 11
2.246261581
 21
14.1229440501
 31
0.0
  0
ELLIPSE
  5
1F9
330
1F
100
AcDbEntity
  8
0
  6
Continuous
 62
     7
370
    15
100
AcDbEllipse
 10
2.8062614547
 20
14.549187406
 30
0.0
 11
0.0
 21
-0.1202681931669112
 31
0.0
210
0.0
220
0.0
230
1.0
 40
0.906307787
 41
0.0
 42
6.283185307179586
  0
LINE
  5
1FA
330
1F
100
AcDbEntity
  8
0
  6
Continuous
 62
     7
370
    15
100
AcDbLine
 10
3.0702614755
 20
14.9108851877
 30
0.0
 11
2.542261415
 21
14.9108851877
 31
0.0
  0
ELLIPSE
  5
1FB
330
1F
100
AcDbEntity
  8
0
  6
Continuous
 62
     7
370
    15
100
AcDbEllipse
 10
10.8262614547
 20
14.549187406
 30
0.0
 11
0.0
 21
-0.1202681931669112
 31
0.0
210
0.0
220
0.0
230
1.0
 40
0.906307787
 41
0.0
 42
6.283185307179586
  0
LINE
  5
1FC
330
1F
100
AcDbEntity
  8
0
  6
Continuous
 62
     7
370
    15
100
AcDbLine
 10
10.5622614339
 20
14.9108851877
 30
0.0
 11
11.0902614944
 21
14.9108851877
 31
0.0
  0
ELLIPSE
  5
1FD
330
1F
100
AcDbEntity
  8
0
  6
Continuous
 62
     7
370
    15
100
AcDbEllipse
 10
10.8262614547
 20
14.5081523321
 30
0.0
 11
0.0
 21
-0.1202681931669112
 31
0.0
210
0.0
220
0.0
230
1.0
 40
0.906307787
 41
1.74223305834271
 42
4.540952248560001
  0
ELLIPSE
  5
1FE
330
1F
100
AcDbEntity
  8
0
  6
Continuous
 62
     7
370
    15
100
AcDbEllipse
 10
2.8062614547
 20
14.5081523321
 30
0.0
 11
0.0
 21
-0.1202681931669112
 31
0.0
210
0.0
220
0.0
230
1.0
 40
0.906307787
 41
1.742233058619601
 42
4.540952248836886
  0
LWPOLYLINE
  5
1FF
330
1F
100
AcDbEntity
  8
0
  6
Continuous
 62
     7
370
    15
100
AcDbPolyline
 90
       13
 70
   128
 43
0.0
 10
3.6423633998
 20
14.0316671045
 10
3.6417755666
 20
14.0277203501
 10
3.6454210712
 20
14.0179929425
 10
3.6560011889
 20
14.0092173905
 10
3.6724798786
 20
14.0022534443
 10
3.6932441187
 20
13.997782216
 10
3.7162614261
 20
13.9962413538
 10
3.7392787336
 20
13.997782216
 10
3.760043267
 20
14.0022534443
 10
3.7765216633
 20
14.0092173905
 10
3.7871017811
 20
14.0179929425
 10
3.7907472857
 20
14.0277203501
 10
3.7901594525
 20
14.0316671045
  0
LWPOLYLINE
  5
200
330
1F
100
AcDbEntity
  8
0
  6
Continuous
 62
     7
370
    15
100
AcDbPolyline
 90
       13
 70
   128
 43
0.0
 10
9.8423634569
 20
14.0316671045
 10
9.8417756237
 20
14.0277203501
 10
9.8454211282
 20
14.0179929425
 10
9.856001246
 20
14.0092173905
 10
9.8724796423
 20
14.0022534443
 10
9.8932441758
 20
13.997782216
 10
9.9162614832
 20
13.9962413538
 10
9.9392787906
 20
13.997782216
 10
9.9600430308
 20
14.0022534443
 10
9.9765217204
 20
14.0092173905
 10
9.9871018382
 20
14.0179929425
 10
9.9907473427
 20
14.0277203501
 10
9.9901595095
 20
14.0316671045
  0
LWPOLYLINE
  5
201
330
1F
100
AcDbEntity
  8
0
  6
Continuous
 62
     7
370
    15
100
AcDbPolyline
 90
        6
 70
   128
 43
0.0
 10
10.7267614536
 20
13.2526157709
 10
10.7473640689
 20
13.2541510598
 10
10.7654818863
 20
13.2585716887
 10
10.7789293043
 20
13.2653445305
 10
10.7860845016
 20
13.2736528079
 10
10.7868882257
 20
13.2796204589
  0
LWPOLYLINE
  5
202
330
1F
100
AcDbEntity
  8
0
  6
Continuous
 62
     7
370
    15
100
AcDbPolyline
 90
        6
 70
   128
 43
0.0
 10
10.6666346815
 20
13.2796204589
 10
10.6674384056
 20
13.2736528079
 10
10.6745936029
 20
13.2653445305
 10
10.6880410209
 20
13.2585716887
 10
10.7061588383
 20
13.2541510598
 10
10.7267614536
 20
13.2526157709
  0
LWPOLYLINE
  5
203
330
1F
100
AcDbEntity
  8
0
  6
Continuous
 62
     7
370
    15
100
AcDbPolyline
 90
        6
 70
   128
 43
0.0
 10
7.4457614493
 20
13.2526157709
 10
7.466364138
 20
13.2541510598
 10
7.4844818087
 20
13.2585716887
 10
7.4979293
 20
13.2653445305
 10
7.5050844973
 20
13.2736528079
 10
7.505888368
 20
13.2796204589
  0
LWPOLYLINE
  5
204
330
1F
100
AcDbEntity
  8
0
  6
Continuous
 62
     7
370
    15
100
AcDbPolyline
 90
        6
 70
   128
 43
0.0
 10
7.3856345672
 20
13.2796204589
 10
7.3864384013
 20
13.2736528079
 10
7.3935936353
 20
13.2653445305
 10
7.4070410899
 20
13.2585716887
 10
7.4251587606
 20
13.2541510598
 10
7.4457614493
 20
13.2526157709
  0
LWPOLYLINE
  5
205
330
1F
100
AcDbEntity
  8
0
  6
Continuous
 62
     7
370
    15
100
AcDbPolyline
 90
       11
 70
   128
 43
0.0
 10
2.8455856976
 20
13.2794523809
 10
2.8464407544
 20
13.2738933384
 10
2.8535956584
 20
13.265585501
 10
2.8670424897
 20
13.2588128059
 10
2.8851594271
 20
13.2543923237
 10
2.9057614558
 20
13.2528570348
 10
2.9263634844
 20
13.2543923237
 10
2.9444804218
 20
13.2588128059
 10
2.9579272532
 20
13.265585501
 10
2.9650821572
 20
13.2738933384
 10
2.965937214
 20
13.2794523809
  0
LWPOLYLINE
  5
206
330
1F
100
AcDbEntity
  8
0
  6
Continuous
 62
     7
370
    15
100
AcDbPolyline
 90
       11
 70
   128
 43
0.0
 10
6.1265858485
 20
13.2794523809
 10
6.1274406853
 20
13.2738933384
 10
6.1345956627
 20
13.265585501
 10
6.1480425673
 20
13.2588128059
 10
6.166159578
 20
13.2543923237
 10
6.18676146
 20
13.2528570348
 10
6.2073633421
 20
13.2543923237
 10
6.2254803528
 20
13.2588128059
 10
6.2389272574
 20
13.265585501
 10
6.2460822348
 20
13.2738933384
 10
6.2469370716
 20
13.2794523809
  0
LINE
  5
207
330
1F
100
AcDbEntity
  8
0
  6
Continuous
 62
     7
370
    15
100
AcDbLine
 10
10.5262613431
 20
12.9180251561
 30
0.0
 11
7.6462614864
 21
12.9180251561
 31
0.0
  0
LINE
  5
208
330
1F
100
AcDbEntity
  8
0
  6
Continuous
 62
     7
370
    15
100
AcDbLine
 10
3.1062615662
 20
12.9180251561
 30
0.0
 11
5.9862614229
 21
12.9180251561
 31
0.0
  0
LINE
  5
209
330
1F
100
AcDbEntity
  8
0
  6
Continuous
 62
     7
370
    15
100
AcDbLine
 10
2.97003122
 20
12.3678626983
 30
0.0
 11
2.286261519
 21
12.3678626983
 31
0.0
  0
ARC
  5
20A
330
1F
100
AcDbEntity
  8
0
  6
Continuous
 62
     7
370
    15
100
AcDbCircle
 10
3.0632092269
 20
12.2850713085
 30
0.0
 40
0.1246457186522684
100
AcDbArc
 50
107.2428727922
 51
138.3779717572
  0
ELLIPSE
  5
20B
330
1F
100
AcDbEntity
  8
0
  6
Continuous
 62
     7
370
    15
100
AcDbEllipse
 10
3.0262614547
 20
12.3050752557
 30
0.0
 11
0.0
 21
-0.08827023351699735
 31
0.0
210
0.0
220
0.0
230
1.0
 40
0.906307787
 41
3.921029996131232
 42
4.712388980384702
  0
ARC
  5
20C
330
1F
100
AcDbEntity
  8
0
  6
Continuous
 62
     7
370
    15
100
AcDbCircle
 10
3.0607893532
 20
12.2719802699
 30
0.0
 40
0.1186189069149323
100
AcDbArc
 50
106.9228092137
 51
129.7067590902
  0
ARC
  5
20D
330
1F
100
AcDbEntity
  8
0
  6
Continuous
 62
     7
370
    15
100
AcDbCircle
 10
3.0262614547
 20
12.2946931829
 30
0.0
 40
0.0800000000000005
100
AcDbArc
 50
121.04154966
 51
180.0
  0
LINE
  5
20E
330
1F
100
AcDbEntity
  8
0
  6
Continuous
 62
     7
370
    15
100
AcDbLine
 10
11.3462613904
 20
12.3678626983
 30
0.0
 11
10.6624916894
 21
12.3678626983
 31
0.0
  0
ARC
  5
20F
330
1F
100
AcDbEntity
  8
0
  6
Continuous
 62
     7
370
    15
100
AcDbCircle
 10
10.5693136825
 20
12.2850713085
 30
0.0
 40
0.1246457186520876
100
AcDbArc
 50
41.6220282427
 51
72.7571272079
  0
ELLIPSE
  5
210
330
1F
100
AcDbEntity
  8
0
  6
Continuous
 62
     7
370
    15
100
AcDbEllipse
 10
10.6062614547
 20
12.3050752557
 30
0.0
 11
0.0
 21
-0.08827023351699735
 31
0.0
210
0.0
220
0.0
230
1.0
 40
0.906307787
 41
1.570796326794897
 42
2.362155311048346
  0
ARC
  5
211
330
1F
100
AcDbEntity
  8
0
  6
Continuous
 62
     7
370
    15
100
AcDbCircle
 10
10.6062614547
 20
12.2946931829
 30
0.0
 40
0.0800000000000018
100
AcDbArc
 50
0.0
 51
58.95845034
  0
ARC
  5
212
330
1F
100
AcDbEntity
  8
0
  6
Continuous
 62
     7
370
    15
100
AcDbCircle
 10
10.5717335562
 20
12.2719802699
 30
0.0
 40
0.1186189069145641
100
AcDbArc
 50
50.2932409098
 51
73.0771907863
  0
ELLIPSE
  5
213
330
1F
100
AcDbEntity
  8
0
  6
Continuous
 62
     7
370
    15
100
AcDbEllipse
 10
2.2862614547
 20
12.4188282996
 30
0.0
 11
0.0
 21
0.05096562086459855
 31
0.0
210
0.0
220
0.0
230
1.0
 40
0.7848427886
 41
1.570796326794897
 42
3.141592653589793
  0
ELLIPSE
  5
214
330
1F
100
AcDbEntity
  8
0
  6
Continuous
 62
     7
370
    15
100
AcDbEllipse
 10
11.3462614547
 20
12.4188282996
 30
0.0
 11
0.0
 21
0.05096562086459855
 31
0.0
210
0.0
220
0.0
230
1.0
 40
0.7848427886
 41
3.141592653589793
 42
4.7123889803847
  0
LINE
  5
215
330
1F
100
AcDbEntity
  8
0
  6
Continuous
 62
     7
370
    15
100
AcDbLine
 10
2.286261519
 20
11.8708852861
 30
0.0
 11
2.246261581
 21
11.8708852861
 31
0.0
  0
LINE
  5
216
330
1F
100
AcDbEntity
  8
0
  6
Continuous
 62
     7
370
    15
100
AcDbLine
 10
2.246261581
 20
11.8708852861
 30
0.0
 11
2.246261581
 21
12.4188283362
 31
0.0
  0
LINE
  5
217
330
1F
100
AcDbEntity
  8
0
  6
Continuous
 62
     7
370
    15
100
AcDbLine
 10
2.9462615212
 20
12.3050752769
 30
0.0
 11
2.9462615212
 21
11.9508853086
 31
0.0
  0
ARC
  5
218
330
1F
100
AcDbEntity
  8
0
  6
Continuous
 62
     7
370
    15
100
AcDbCircle
 10
2.8662614547
 20
11.9508852725
 30
0.0
 40
0.0800000000000001
100
AcDbArc
 50
270.0
 51
0.0
  0
LINE
  5
219
330
1F
100
AcDbEntity
  8
0
  6
Continuous
 62
     7
370
    15
100
AcDbLine
 10
2.8662613521
 20
11.8708852861
 30
0.0
 11
2.286261519
 21
11.8708852861
 31
0.0
  0
ELLIPSE
  5
21A
330
1F
100
AcDbEntity
  8
0
  6
Continuous
 62
     7
370
    15
100
AcDbEllipse
 10
2.6162614547
 20
12.2136420904
 30
0.0
 11
0.0
 21
0.1067518136596206
 31
0.0
210
0.0
220
0.0
230
1.0
 40
0.906307787
 41
0.0
 42
6.283185307179586
  0
LINE
  5
21B
330
1F
100
AcDbEntity
  8
0
  6
Continuous
 62
     7
370
    15
100
AcDbLine
 10
11.3462613904
 20
11.8708852861
 30
0.0
 11
10.7662615573
 21
11.8708852861
 31
0.0
  0
ARC
  5
21C
330
1F
100
AcDbEntity
  8
0
  6
Continuous
 62
     7
370
    15
100
AcDbCircle
 10
10.7662614547
 20
11.9508852725
 30
0.0
 40
0.0799999999999983
100
AcDbArc
 50
180.0
 51
270.0
  0
LINE
  5
21D
330
1F
100
AcDbEntity
  8
0
  6
Continuous
 62
     7
370
    15
100
AcDbLine
 10
10.6862613881
 20
11.9508853086
 30
0.0
 11
10.6862613881
 21
12.3050752769
 31
0.0
  0
ELLIPSE
  5
21E
330
1F
100
AcDbEntity
  8
0
  6
Continuous
 62
     7
370
    15
100
AcDbEllipse
 10
11.0162614547
 20
12.2136420904
 30
0.0
 11
0.0
 21
0.1067518136596206
 31
0.0
210
0.0
220
0.0
230
1.0
 40
0.906307787
 41
0.0
 42
6.283185307179586
  0
LINE
  5
21F
330
1F
100
AcDbEntity
  8
0
  6
Continuous
 62
     7
370
    15
100
AcDbLine
 10
11.3862613283
 20
11.8708852861
 30
0.0
 11
11.3462613904
 21
11.8708852861
 31
0.0
  0
LINE
  5
220
330
1F
100
AcDbEntity
  8
0
  6
Continuous
 62
     7
370
    15
100
AcDbLine
 10
11.3862613283
 20
12.4188283362
 30
0.0
 11
11.3862613283
 21
11.8708852861
 31
0.0
  0
ELLIPSE
  5
221
330
1F
100
AcDbEntity
  8
0
  6
Continuous
 62
     7
370
    15
100
AcDbEllipse
 10
11.0162614547
 20
12.1483590182
 30
0.0
 11
0.0
 21
0.1067518136596206
 31
0.0
210
0.0
220
0.0
230
1.0
 40
0.906307787
 41
0.0
 42
1.26004893384506
  0
ELLIPSE
  5
222
330
1F
100
AcDbEntity
  8
0
  6
Continuous
 62
     7
370
    15
100
AcDbEllipse
 10
11.0162614547
 20
12.1483590182
 30
0.0
 11
0.0
 21
0.1067518136596206
 31
0.0
210
0.0
220
0.0
230
1.0
 40
0.906307787
 41
5.023136373334406
 42
6.283185307179586
  0
ELLIPSE
  5
223
330
1F
100
AcDbEntity
  8
0
  6
Continuous
 62
     7
370
    15
100
AcDbEllipse
 10
2.6162614547
 20
12.1483590182
 30
0.0
 11
0.0
 21
0.1067518136596206
 31
0.0
210
0.0
220
0.0
230
1.0
 40
0.906307787
 41
0.0
 42
1.260048933844034
  0
ELLIPSE
  5
224
330
1F
100
AcDbEntity
  8
0
  6
Continuous
 62
     7
370
    15
100
AcDbEllipse
 10
2.6162614547
 20
12.1483590182
 30
0.0
 11
0.0
 21
0.1067518136596206
 31
0.0
210
0.0
220
0.0
230
1.0
 40
0.906307787
 41
5.023136373335616
 42
6.283185307179586
  0
LWPOLYLINE
  5
225
330
1F
100
AcDbEntity
  8
0
  6
Continuous
 62
     7
370
    15
100
AcDbPolyline
 90
        3
 70
   128
 43
0.0
 10
10.6475142624
 20
12.3632366651
 10
10.6221045559
 20
12.3731086843
 10
10.6062615123
 20
12.3746931794
  0
LINE
  5
226
330
1F
100
AcDbEntity
  8
0
  6
Continuous
 62
     7
370
    15
100
AcDbLine
 10
10.6062615123
 20
12.3746931794
 30
0.0
 11
7.3962614711
 21
12.3746931794
 31
0.0
  0
ARC
  5
227
330
1F
100
AcDbEntity
  8
0
  6
Continuous
 62
     7
370
    15
100
AcDbCircle
 10
7.3962612906
 20
12.2946936028
 30
0.0
 40
0.0799995766054855
100
AcDbArc
 50
89.9998706676
 51
137.0419208792
  0
LINE
  5
228
330
1F
100
AcDbEntity
  8
0
  6
Continuous
 62
     7
370
    15
100
AcDbLine
 10
7.3377134008
 20
12.3492103604
 30
0.0
 11
6.9431374357
 21
12.3492103604
 31
0.0
  0
LWPOLYLINE
  5
229
330
1F
100
AcDbEntity
  8
0
  6
Continuous
 62
     7
370
    15
100
AcDbPolyline
 90
        3
 70
   128
 43
0.0
 10
6.9431374357
 20
12.3492103604
 10
6.9238074598
 20
12.3677612795
 10
6.9163673382
 20
12.3754806236
  0
LINE
  5
22A
330
1F
100
AcDbEntity
  8
0
  6
Continuous
 62
     7
370
    15
100
AcDbLine
 10
6.9163673382
 20
12.3754806236
 30
0.0
 11
6.7161555711
 21
12.3754806236
 31
0.0
  0
LWPOLYLINE
  5
22B
330
1F
100
AcDbEntity
  8
0
  6
Continuous
 62
     7
370
    15
100
AcDbPolyline
 90
        3
 70
   128
 43
0.0
 10
6.7161555711
 20
12.3754806236
 10
6.7028445332
 20
12.3620854917
 10
6.6893854737
 20
12.3492103604
  0
LINE
  5
22C
330
1F
100
AcDbEntity
  8
0
  6
Continuous
 62
     7
370
    15
100
AcDbLine
 10
6.6893854737
 20
12.3492103604
 30
0.0
 11
6.2948095085
 21
12.3492103604
 31
0.0
  0
ARC
  5
22D
330
1F
100
AcDbEntity
  8
0
  6
Continuous
 62
     7
370
    15
100
AcDbCircle
 10
6.2362614076
 20
12.2946931175
 30
0.0
 40
0.0800000618981175
100
AcDbArc
 50
42.958230398
 51
89.9999780553
  0
LINE
  5
22E
330
1F
100
AcDbEntity
  8
0
  6
Continuous
 62
     7
370
    15
100
AcDbLine
 10
6.2362614382
 20
12.3746931794
 30
0.0
 11
3.0262613971
 21
12.3746931794
 31
0.0
  0
LWPOLYLINE
  5
22F
330
1F
100
AcDbEntity
  8
0
  6
Continuous
 62
     7
370
    15
100
AcDbPolyline
 90
        3
 70
   128
 43
0.0
 10
3.0262613971
 20
12.3746931794
 10
3.0062615748
 20
12.3721528687
 10
2.985008647
 20
12.3632366651
  0
ELLIPSE
  5
230
330
1F
100
AcDbEntity
  8
0
  6
Continuous
 62
     7
370
    15
100
AcDbEllipse
 10
6.8162614547
 20
12.1428421286
 30
0.0
 11
0.0
 21
0.2124002494002806
 31
0.0
210
0.0
220
0.0
230
1.0
 40
0.906307787
 41
0.0
 42
1.460803695086853
  0
ELLIPSE
  5
231
330
1F
100
AcDbEntity
  8
0
  6
Continuous
 62
     7
370
    15
100
AcDbEllipse
 10
6.8162614547
 20
12.1428421286
 30
0.0
 11
0.0
 21
0.2124002494002806
 31
0.0
210
0.0
220
0.0
230
1.0
 40
0.906307787
 41
4.822381612092746
 42
6.283185307179586
  0
ELLIPSE
  5
232
330
1F
100
AcDbEntity
  8
0
  6
Continuous
 62
     7
370
    15
100
AcDbEllipse
 10
6.8162614547
 20
12.1894728944
 30
0.0
 11
0.0
 21
0.2124002494002788
 31
0.0
210
0.0
220
0.0
230
1.0
 40
0.906307787
 41
0.7196161081883583
 42
5.563569198991239
  0
LINE
  5
233
330
1F
100
AcDbEntity
  8
0
  6
Continuous
 62
     7
370
    15
100
AcDbLine
 10
7.3162614486
 20
12.2946931569
 30
0.0
 11
7.3162614486
 21
11.9508853086
 31
0.0
  0
ARC
  5
234
330
1F
100
AcDbEntity
  8
0
  6
Continuous
 62
     7
370
    15
100
AcDbCircle
 10
7.2362614547
 20
11.9508852725
 30
0.0
 40
0.0799999999999983
100
AcDbArc
 50
270.0
 51
0.0
  0
LINE
  5
235
330
1F
100
AcDbEntity
  8
0
  6
Continuous
 62
     7
370
    15
100
AcDbLine
 10
7.2362614628
 20
11.8708852861
 30
0.0
 11
6.3962614466
 21
11.8708852861
 31
0.0
  0
ARC
  5
236
330
1F
100
AcDbEntity
  8
0
  6
Continuous
 62
     7
370
    15
100
AcDbCircle
 10
6.3962614547
 20
11.9508852725
 30
0.0
 40
0.0799999999999992
100
AcDbArc
 50
180.0
 51
270.0
  0
LINE
  5
237
330
1F
100
AcDbEntity
  8
0
  6
Continuous
 62
     7
370
    15
100
AcDbLine
 10
6.3162614607
 20
11.9508853086
 30
0.0
 11
6.3162614607
 21
12.2946931569
 31
0.0
  0
ARC
  5
238
330
1F
100
AcDbEntity
  8
0
  6
Continuous
 62
     7
370
    15
100
AcDbCircle
 10
7.3962614547
 20
12.2946931829
 30
0.0
 40
0.080000000000001
100
AcDbArc
 50
137.0417805579
 51
180.0
  0
ARC
  5
239
330
1F
100
AcDbEntity
  8
0
  6
Continuous
 62
     7
370
    15
100
AcDbCircle
 10
6.2362614547
 20
12.2946931829
 30
0.0
 40
0.080000000000001
100
AcDbArc
 50
0.0
 51
42.9582194421
  0
DIMENSION
  5
23A
330
1F
100
AcDbEntity
  8
DEFAULT
 62
     7
100
AcDbDimension
  2
_D_2
 10
11.3862614547
 20
15.6982868473
 30
0.0
 11
6.8162614547
 21
15.6982868473
 31
0.0
 70
   160
  1
<>
 71
     2
 42
-1.0
  3
SLDDIMSTYLE0
100
AcDbAlignedDimension
 13
2.2462614547
 23
14.9108852725
 33
0.0
 14
11.3862614547
 24
14.9108852725
 34
0.0
100
AcDbRotatedDimension
  0
MTEXT
  5
245
330
1F
100
AcDbEntity
  8
DEFAULT
 62
     7
100
AcDbMText
 10
6.5226762836
 20
11.2169627436
 30
0.0
 40
0.25
 41
0.0
 71
     1
 72
     1
  1
TOP
  7
SLDTEXTSTYLE0
 73
     1
 44
1.0
  0
ENDSEC
  0
SECTION
  2
OBJECTS
  0
DICTIONARY
  5
C
330
0
100
AcDbDictionary
281
     1
  3
ACAD_GROUP
350
D
  3
ACAD_LAYOUT
350
1A
  3
ACAD_MLINESTYLE
350
17
  3
ACAD_PLOTSETTINGS
350
19
  3
ACAD_PLOTSTYLENAME
350
E
  0
DICTIONARY
  5
D
102
{ACAD_REACTORS
330
C
102
}
330
C
100
AcDbDictionary
281
     1
  0
DICTIONARY
  5
1A
102
{ACAD_REACTORS
330
C
102
}
330
C
100
AcDbDictionary
281
     1
  3
Layout1
350
1E
  3
Layout2
350
26
  3
Model
350
22
  0
DICTIONARY
  5
17
102
{ACAD_REACTORS
330
C
102
}
330
C
100
AcDbDictionary
281
     1
  3
Standard
350
18
  0
DICTIONARY
  5
19
102
{ACAD_REACTORS
330
C
102
}
330
C
100
AcDbDictionary
281
     1
  0
ACDBDICTIONARYWDFLT
  5
E
102
{ACAD_REACTORS
330
C
102
}
330
C
100
AcDbDictionary
281
     1
  3
Normal
350
F
100
AcDbDictionaryWithDefault
340
F
  0
LAYOUT
  5
1E
102
{ACAD_REACTORS
330
1A
102
}
330
1A
100
AcDbPlotSettings
  1

  2
none_device
  4

  6

 40
0.0
 41
0.0
 42
0.0
 43
0.0
 44
0.0
 45
0.0
 46
0.0
 47
0.0
 48
0.0
 49
0.0
140
0.0
141
0.0
142
1.0
143
1.0
 70
   688
 72
     0
 73
     0
 74
     5
  7

 75
    16
147
1.0
148
0.0
149
0.0
100
AcDbLayout
  1
Layout1
 70
     1
 71
     1
 10
0.0
 20
0.0
 11
12.0
 21
9.0
 12
0.0
 22
0.0
 32
0.0
 14
1.0000000000E+20
 24
1.0000000000E+20
 34
1.0000000000E+20
 15
-1.0000000000E+20
 25
-1.0000000000E+20
 35
-1.0000000000E+20
146
0.0
 13
0.0
 23
0.0
 33
0.0
 16
1.0
 26
0.0
 36
0.0
 17
0.0
 27
1.0
 37
0.0
 76
     0
330
1B
  0
LAYOUT
  5
26
102
{ACAD_REACTORS
330
1A
102
}
330
1A
100
AcDbPlotSettings
  1

  2
none_device
  4

  6

 40
0.0
 41
0.0
 42
0.0
 43
0.0
 44
0.0
 45
0.0
 46
0.0
 47
0.0
 48
0.0
 49
0.0
140
0.0
141
0.0
142
1.0
143
1.0
 70
   688
 72
     0
 73
     0
 74
     5
  7

 75
    16
147
1.0
148
0.0
149
0.0
100
AcDbLayout
  1
Layout2
 70
     1
 71
     2
 10
0.0
 20
0.0
 11
0.0
 21
0.0
 12
0.0
 22
0.0
 32
0.0
 14
0.0
 24
0.0
 34
0.0
 15
0.0
 25
0.0
 35
0.0
146
0.0
 13
0.0
 23
0.0
 33
0.0
 16
1.0
 26
0.0
 36
0.0
 17
0.0
 27
1.0
 37
0.0
 76
     0
330
23
  0
LAYOUT
  5
22
102
{ACAD_REACTORS
330
1A
102
}
330
1A
100
AcDbPlotSettings
  1

  2
none_device
  4

  6

 40
0.0
 41
0.0
 42
0.0
 43
0.0
 44
0.0
 45
0.0
 46
0.0
 47
0.0
 48
0.0
 49
0.0
140
0.0
141
0.0
142
1.0
143
1.0
 70
  1712
 72
     0
 73
     0
 74
     0
  7

 75
     0
147
1.0
148
0.0
149
0.0
100
AcDbLayout
  1
Model
 70
     1
 71
     0
 10
0.0
 20
0.0
 11
22.0
 21
17.0
 12
0.0
 22
0.0
 32
0.0
 14
0.0
 24
0.0
 34
0.0
 15
22.0
 25
17.0
 35
0.0
146
0.0
 13
0.0
 23
0.0
 33
0.0
 16
1.0
 26
0.0
 36
0.0
 17
0.0
 27
1.0
 37
0.0
 76
     0
330
1F
331
29
  0
MLINESTYLE
  5
18
102
{ACAD_REACTORS
330
17
102
}
330
17
100
AcDbMlineStyle
  2
Standard
 70
     0
  3

 62
   256
 51
90.0
 52
90.0
 71
     2
 49
0.5
 62
   256
  6
BYLAYER
 49
-0.5
 62
   256
  6
BYLAYER
  0
ACDBPLACEHOLDER
  5
F
102
{ACAD_REACTORS
330
E
102
}
330
E
  0
ENDSEC
  0
EOF
