  0
SECTION
  2
HEADER
  9
$ACADVER
  1
AC1015
  9
$ACADMAINTVER
 70
     6
  9
$DWGCODEPAGE
  3
ANSI_1252
  9
$INSBASE
 10
0.0
 20
0.0
 30
0.0
  9
$EXTMIN
 10
0.0
 20
0.0
 30
0.0
  9
$EXTMAX
 10
8.5
 20
11.0
 30
0.0
  9
$LIMMIN
 10
0.0
 20
0.0
  9
$LIMMAX
 10
8.5
 20
11.0
  9
$ORTHOMODE
 70
     0
  9
$REGENMODE
 70
     1
  9
$FILLMODE
 70
     1
  9
$QTEXTMODE
 70
     0
  9
$MIRRTEXT
 70
     1
  9
$LTSCALE
 40
1.0
  9
$ATTMODE
 70
     1
  9
$TEXTSIZE
 40
0.125
  9
$TRACEWID
 40
0.05
  9
$TEXTSTYLE
  7
Standard
  9
$CLAYER
  8
0
  9
$CELTYPE
  6
ByLayer
  9
$CECOLOR
 62
   256
  9
$CELTSCALE
 40
1.0
  9
$DISPSILH
 70
     0
  9
$DIMSCALE
 40
1.0
  9
$DIMASZ
 40
0.13
  9
$DIMEXO
 40
0.05
  9
$DIMDLI
 40
0.38
  9
$DIMRND
 40
0.0
  9
$DIMDLE
 40
0.0
  9
$DIMEXE
 40
0.125
  9
$DIMTP
 40
0.0
  9
$DIMTM
 40
0.0
  9
$DIMTXT
 40
0.125
  9
$DIMCEN
 40
0.09
  9
$DIMTSZ
 40
0.0
  9
$DIMTOL
 70
     0
  9
$DIMLIM
 70
     0
  9
$DIMTIH
 70
     1
  9
$DIMTOH
 70
     1
  9
$DIMSE1
 70
     0
  9
$DIMSE2
 70
     0
  9
$DIMTAD
 70
     1
  9
$DIMZIN
 70
     0
  9
$DIMBLK
  1

  9
$DIMASO
 70
     1
  9
$DIMSHO
 70
     1
  9
$DIMPOST
  1

  9
$DIMAPOST
  1

  9
$DIMALT
 70
     0
  9
$DIMALTD
 70
     2
  9
$DIMALTF
 40
25.4
  9
$DIMLFAC
 40
2.0
  9
$DIMTOFL
 70
     0
  9
$DIMTVP
 40
0.0
  9
$DIMTIX
 70
     0
  9
$DIMSOXD
 70
     0
  9
$DIMSAH
 70
     0
  9
$DIMBLK1
  1

  9
$DIMBLK2
  1

  9
$DIMSTYLE
  2
Standard
  9
$DIMCLRD
 70
     0
  9
$DIMCLRE
 70
     0
  9
$DIMCLRT
 70
     0
  9
$DIMTFAC
 40
1.0
  9
$DIMGAP
 40
0.06
  9
$DIMJUST
 70
     0
  9
$DIMSD1
 70
     0
  9
$DIMSD2
 70
     0
  9
$DIMTOLJ
 70
     1
  9
$DIMTZIN
 70
     0
  9
$DIMALTZ
 70
     0
  9
$DIMALTTZ
 70
     0
  9
$DIMUPT
 70
     0
  9
$DIMDEC
 70
     3
  9
$DIMTDEC
 70
     3
  9
$DIMALTU
 70
     2
  9
$DIMALTTD
 70
     2
  9
$DIMTXSTY
  7
Standard
  9
$DIMAUNIT
 70
     0
  9
$DIMADEC
 70
     0
  9
$DIMALTRND
 40
0.0
  9
$DIMAZIN
 70
     0
  9
$DIMDSEP
 70
    46
  9
$DIMATFIT
 70
     3
  9
$DIMFRAC
 70
     0
  9
$DIMLDRBLK
  1

  9
$DIMLUNIT
 70
     2
  9
$DIMLWD
 70
    -2
  9
$DIMLWE
 70
    -2
  9
$DIMTMOVE
 70
     0
  9
$LUNITS
 70
     2
  9
$LUPREC
 70
     3
  9
$SKETCHINC
 40
0.1
  9
$FILLETRAD
 40
0.5
  9
$AUNITS
 70
     0
  9
$AUPREC
 70
     0
  9
$MENU
  1
.
  9
$ELEVATION
 40
0.0
  9
$PELEVATION
 40
0.0
  9
$THICKNESS
 40
0.0
  9
$LIMCHECK
 70
     0
  9
$CHAMFERA
 40
0.5
  9
$CHAMFERB
 40
0.5
  9
$CHAMFERC
 40
1.0
  9
$CHAMFERD
 40
0.0
  9
$SKPOLY
 70
     0
  9
$TDCREATE
 40
2455768.48597397
  9
$TDUCREATE
 40
2455768.652640637
  9
$TDUPDATE
 40
2455768.485973982
  9
$TDUUPDATE
 40
2455768.652640648
  9
$TDINDWG
 40
0.0000000116
  9
$TDUSRTIMER
 40
0.0000000116
  9
$USRTIMER
 70
     1
  9
$ANGBASE
 50
0.0
  9
$ANGDIR
 70
     0
  9
$PDMODE
 70
     0
  9
$PDSIZE
 40
-1.0
  9
$PLINEWID
 40
0.0
  9
$SPLFRAME
 70
     0
  9
$SPLINETYPE
 70
     6
  9
$SPLINESEGS
 70
     8
  9
$HANDSEED
  5
112
  9
$SURFTAB1
 70
     6
  9
$SURFTAB2
 70
     6
  9
$SURFTYPE
 70
     6
  9
$SURFU
 70
     6
  9
$SURFV
 70
     6
  9
$UCSBASE
  2

  9
$UCSNAME
  2

  9
$UCSORG
 10
0.0
 20
0.0
 30
0.0
  9
$UCSXDIR
 10
1.0
 20
0.0
 30
0.0
  9
$UCSYDIR
 10
0.0
 20
1.0
 30
0.0
  9
$UCSORTHOREF
  2

  9
$UCSORTHOVIEW
 70
     0
  9
$UCSORGTOP
 10
0.0
 20
0.0
 30
0.0
  9
$UCSORGBOTTOM
 10
0.0
 20
0.0
 30
0.0
  9
$UCSORGLEFT
 10
0.0
 20
0.0
 30
0.0
  9
$UCSORGRIGHT
 10
0.0
 20
0.0
 30
0.0
  9
$UCSORGFRONT
 10
0.0
 20
0.0
 30
0.0
  9
$UCSORGBACK
 10
0.0
 20
0.0
 30
0.0
  9
$PUCSBASE
  2

  9
$PUCSNAME
  2

  9
$PUCSORG
 10
0.0
 20
0.0
 30
0.0
  9
$PUCSXDIR
 10
1.0
 20
0.0
 30
0.0
  9
$PUCSYDIR
 10
0.0
 20
1.0
 30
0.0
  9
$PUCSORTHOREF
  2

  9
$PUCSORTHOVIEW
 70
     0
  9
$PUCSORGTOP
 10
0.0
 20
0.0
 30
0.0
  9
$PUCSORGBOTTOM
 10
0.0
 20
0.0
 30
0.0
  9
$PUCSORGLEFT
 10
0.0
 20
0.0
 30
0.0
  9
$PUCSORGRIGHT
 10
0.0
 20
0.0
 30
0.0
  9
$PUCSORGFRONT
 10
0.0
 20
0.0
 30
0.0
  9
$PUCSORGBACK
 10
0.0
 20
0.0
 30
0.0
  9
$USERI1
 70
     0
  9
$USERI2
 70
     0
  9
$USERI3
 70
     0
  9
$USERI4
 70
     0
  9
$USERI5
 70
     0
  9
$USERR1
 40
0.0
  9
$USERR2
 40
0.0
  9
$USERR3
 40
0.0
  9
$USERR4
 40
0.0
  9
$USERR5
 40
0.0
  9
$WORLDVIEW
 70
     1
  9
$SHADEDGE
 70
     3
  9
$SHADEDIF
 70
    70
  9
$TILEMODE
 70
     1
  9
$MAXACTVP
 70
    64
  9
$PINSBASE
 10
0.0
 20
0.0
 30
0.0
  9
$PLIMCHECK
 70
     0
  9
$PEXTMIN
 10
1.0000000000E+20
 20
1.0000000000E+20
 30
1.0000000000E+20
  9
$PEXTMAX
 10
-1.0000000000E+20
 20
-1.0000000000E+20
 30
-1.0000000000E+20
  9
$PLIMMIN
 10
0.0
 20
0.0
  9
$PLIMMAX
 10
12.0
 20
9.0
  9
$UNITMODE
 70
     0
  9
$VISRETAIN
 70
     1
  9
$PLINEGEN
 70
     0
  9
$PSLTSCALE
 70
     1
  9
$TREEDEPTH
 70
  3020
  9
$CMLSTYLE
  2
Standard
  9
$CMLJUST
 70
     0
  9
$CMLSCALE
 40
1.0
  9
$PROXYGRAPHICS
 70
     1
  9
$MEASUREMENT
 70
     0
  9
$CELWEIGHT
370
    -1
  9
$ENDCAPS
280
     0
  9
$JOINSTYLE
280
     0
  9
$LWDISPLAY
290
     1
  9
$INSUNITS
 70
     1
  9
$HYPERLINKBASE
  1

  9
$STYLESHEET
  1

  9
$XEDIT
290
     1
  9
$CEPSNTYPE
380
     0
  9
$PSTYLEMODE
290
     1
  9
$FINGERPRINTGUID
  2
{E3E44AA3-7FB7-408D-8D6A-20517486FEA4}
  9
$VERSIONGUID
  2
{FAEB1C32-E019-11D5-929B-00C0DF256EC4}
  9
$EXTNAMES
290
     1
  9
$PSVPSCALE
 40
0.0
  9
$OLESTARTUP
290
     0
  0
ENDSEC
  0
SECTION
  2
CLASSES
  0
CLASS
  1
ACDBDICTIONARYWDFLT
  2
AcDbDictionaryWithDefault
  3
ObjectDBX Classes
 90
        0
280
     0
281
     0
  0
CLASS
  1
VISUALSTYLE
  2
AcDbVisualStyle
  3
ObjectDBX Classes
 90
     4095
280
     0
281
     0
  0
CLASS
  1
MATERIAL
  2
AcDbMaterial
  3
ObjectDBX Classes
 90
     1153
280
     0
281
     0
  0
CLASS
  1
ACDBPLACEHOLDER
  2
AcDbPlaceHolder
  3
ObjectDBX Classes
 90
        0
280
     0
281
     0
  0
CLASS
  1
LAYOUT
  2
AcDbLayout
  3
ObjectDBX Classes
 90
        0
280
     0
281
     0
  0
ENDSEC
  0
SECTION
  2
TABLES
  0
TABLE
  2
VPORT
  5
8
330
0
100
AcDbSymbolTable
 70
     1
  0
VPORT
  5
29
330
8
100
AcDbSymbolTableRecord
100
AcDbViewportTableRecord
  2
*Active
 70
     0
 10
0.0
 20
0.0
 11
1.0
 21
1.0
 12
4.25
 22
5.5
 13
0.0
 23
0.0
 14
0.5
 24
0.5
 15
0.5
 25
0.5
 16
0.0
 26
0.0
 36
1.0
 17
0.0
 27
0.0
 37
0.0
 40
11.0
 41
0.7727272727
 42
50.0
 43
0.0
 44
0.0
 50
0.0
 51
0.0
 71
     0
 72
  2000
 73
     1
 74
     3
 75
     0
 76
     0
 77
     0
 78
     0
281
     0
 65
     1
110
0.0
120
0.0
130
0.0
111
1.0
121
0.0
131
0.0
112
0.0
122
1.0
132
0.0
 79
     0
146
0.0
  0
ENDTAB
  0
TABLE
  2
LTYPE
  5
5
330
0
100
AcDbSymbolTable
 70
     6
  0
LTYPE
  5
14
330
5
100
AcDbSymbolTableRecord
100
AcDbLinetypeTableRecord
  2
ByBlock
 70
     0
  3

 72
    65
 73
     0
 40
0.0
  0
LTYPE
  5
15
330
5
100
AcDbSymbolTableRecord
100
AcDbLinetypeTableRecord
  2
ByLayer
 70
     0
  3

 72
    65
 73
     0
 40
0.0
  0
LTYPE
  5
16
330
5
100
AcDbSymbolTableRecord
100
AcDbLinetypeTableRecord
  2
Continuous
 70
     0
  3
Solid line
 72
    65
 73
     0
 40
0.0
  0
LTYPE
  5
3F
330
5
100
AcDbSymbolTableRecord
100
AcDbLinetypeTableRecord
  2
HIDDEN
 70
     0
  3
Hidden __ __ __ __ __ __ __ __ __ __ __ __ __ __
 72
    65
 73
     2
 40
0.075
 49
0.05
 74
     0
 49
-0.025
 74
     0
  0
LTYPE
  5
40
330
5
100
AcDbSymbolTableRecord
100
AcDbLinetypeTableRecord
  2
PHANTOM
 70
     0
  3
Phantom ______  __  __  ______  __  __  ______
 72
    65
 73
     6
 40
0.5
 49
0.25
 74
     0
 49
-0.05
 74
     0
 49
0.05
 74
     0
 49
-0.05
 74
     0
 49
0.05
 74
     0
 49
-0.05
 74
     0
  0
LTYPE
  5
41
330
5
100
AcDbSymbolTableRecord
100
AcDbLinetypeTableRecord
  2
CENTER
 70
     0
  3
Center ____ _ ____ _ ____ _ ____ _ ____ _ ____
 72
    65
 73
     4
 40
0.4
 49
0.25
 74
     0
 49
-0.05
 74
     0
 49
0.05
 74
     0
 49
-0.05
 74
     0
  0
LTYPE
  5
42
330
5
100
AcDbSymbolTableRecord
100
AcDbLinetypeTableRecord
  2
CENTERX2
 70
     0
  3
Center (2x) ________  __  ________  __  _____
 72
    65
 73
     4
 40
0.8
 49
0.5
 74
     0
 49
-0.1
 74
     0
 49
0.1
 74
     0
 49
-0.1
 74
     0
  0
LTYPE
  5
43
330
5
100
AcDbSymbolTableRecord
100
AcDbLinetypeTableRecord
  2
DOT2
 70
     0
  3
Dot (.5x) ........................................
 72
    65
 73
     2
 40
0.025
 49
0.0
 74
     0
 49
-0.025
 74
     0
  0
ENDTAB
  0
TABLE
  2
LAYER
  5
2
330
0
100
AcDbSymbolTable
 70
     8
  0
LAYER
  5
10
330
2
100
AcDbSymbolTableRecord
100
AcDbLayerTableRecord
  2
0
 70
     0
 62
     7
  6
Continuous
370
    -3
390
F
  0
LAYER
  5
44
330
2
100
AcDbSymbolTableRecord
100
AcDbLayerTableRecord
  2
FORMAT
 70
     0
 62
     7
  6
Continuous
370
    -3
390
F
  0
LAYER
  5
45
330
2
100
AcDbSymbolTableRecord
100
AcDbLayerTableRecord
  2
DEFAULT
 70
     0
 62
   179
  6
Continuous
370
    -3
390
F
  0
LAYER
  5
46
330
2
100
AcDbSymbolTableRecord
100
AcDbLayerTableRecord
  2
INSPECTION_TAGS
 70
     0
 62
     7
  6
Continuous
370
    -3
390
F
  0
LAYER
  5
47
330
2
100
AcDbSymbolTableRecord
100
AcDbLayerTableRecord
  2
REVISIONS
 70
     0
 62
     7
  6
Continuous
370
    -3
390
F
  0
LAYER
  5
48
330
2
100
AcDbSymbolTableRecord
100
AcDbLayerTableRecord
  2
DIMENSIONS_&_ANNOTATIONS
 70
     0
 62
     7
  6
Continuous
370
    -3
390
F
  0
LAYER
  5
49
330
2
100
AcDbSymbolTableRecord
100
AcDbLayerTableRecord
  2
HIDDEN
 70
     0
 62
    -7
  6
Continuous
370
    -3
390
F
  0
LAYER
  5
4A
330
2
100
AcDbSymbolTableRecord
100
AcDbLayerTableRecord
  2
DIMENSION_&_ANNOTATIONS
 70
     0
 62
     7
  6
Continuous
370
    -3
390
F
  0
ENDTAB
  0
TABLE
  2
STYLE
  5
3
330
0
100
AcDbSymbolTable
 70
     2
  0
STYLE
  5
11
330
3
100
AcDbSymbolTableRecord
100
AcDbTextStyleTableRecord
  2
Standard
 70
     0
 40
0.0
 41
1.0
 50
0.0
 71
     0
 42
0.2
  3
txt
  4

  0
STYLE
  5
4E
330
3
100
AcDbSymbolTableRecord
100
AcDbTextStyleTableRecord
  2
SLDTEXTSTYLE0
 70
     0
 40
0.0
 41
0.75
 50
0.0
 71
     0
 42
0.2
  3
TXT
  4

  0
ENDTAB
  0
TABLE
  2
VIEW
  5
6
330
0
100
AcDbSymbolTable
 70
     0
  0
ENDTAB
  0
TABLE
  2
UCS
  5
7
330
0
100
AcDbSymbolTable
 70
     0
  0
ENDTAB
  0
TABLE
  2
APPID
  5
9
330
0
100
AcDbSymbolTable
 70
     1
  0
APPID
  5
12
330
9
100
AcDbSymbolTableRecord
100
AcDbRegAppTableRecord
  2
ACAD
 70
     0
  0
ENDTAB
  0
TABLE
  2
DIMSTYLE
  5
A
330
0
100
AcDbSymbolTable
 70
     2
100
AcDbDimStyleTable
  0
DIMSTYLE
105
27
330
A
100
AcDbSymbolTableRecord
100
AcDbDimStyleTableRecord
  2
Standard
 70
     0
178
     0
340
11
  0
DIMSTYLE
105
80
102
{ACAD_REACTORS
330
7F
330
F4
330
103
102
}
330
A
100
AcDbSymbolTableRecord
100
AcDbDimStyleTableRecord
  2
SLDDIMSTYLE0
 70
     0
 41
0.13
 44
0.0
 45
0.000000001
 78
    12
 79
     3
140
0.125
144
1.3333333333
147
0.03125
173
     1
178
     0
271
     3
272
     3
276
     2
284
    12
340
4E
  0
ENDTAB
  0
TABLE
  2
BLOCK_RECORD
  5
1
330
0
100
AcDbSymbolTable
 70
     5
  0
BLOCK_RECORD
  5
1F
330
1
100
AcDbSymbolTableRecord
100
AcDbBlockTableRecord
  2
*Model_Space
340
22
  0
BLOCK_RECORD
  5
1B
330
1
100
AcDbSymbolTableRecord
100
AcDbBlockTableRecord
  2
*Paper_Space
340
1E
  0
BLOCK_RECORD
  5
23
330
1
100
AcDbSymbolTableRecord
100
AcDbBlockTableRecord
  2
*Paper_Space0
340
26
  0
BLOCK_RECORD
  5
4B
330
1
100
AcDbSymbolTableRecord
100
AcDbBlockTableRecord
  2
SW_NOTE_0
340
0
102
{BLKREFS
331
53
102
}
  0
BLOCK_RECORD
  5
81
330
1
100
AcDbSymbolTableRecord
100
AcDbBlockTableRecord
  2
*D2
340
0
  0
BLOCK_RECORD
  5
F5
330
1
100
AcDbSymbolTableRecord
100
AcDbBlockTableRecord
  2
*D3
340
0
  0
BLOCK_RECORD
  5
104
330
1
100
AcDbSymbolTableRecord
100
AcDbBlockTableRecord
  2
*D4
340
0
  0
ENDTAB
  0
ENDSEC
  0
SECTION
  2
BLOCKS
  0
BLOCK
  5
20
330
1F
100
AcDbEntity
  8
0
100
AcDbBlockBegin
  2
*Model_Space
 70
     0
 10
0.0
 20
0.0
 30
0.0
  3
*Model_Space
  1

  0
ENDBLK
  5
21
330
1F
100
AcDbEntity
  8
0
100
AcDbBlockEnd
  0
BLOCK
  5
1C
330
1B
100
AcDbEntity
 67
     1
  8
0
100
AcDbBlockBegin
  2
*Paper_Space
 70
     0
 10
0.0
 20
0.0
 30
0.0
  3
*Paper_Space
  1

  0
ENDBLK
  5
1D
330
1B
100
AcDbEntity
 67
     1
  8
0
100
AcDbBlockEnd
  0
BLOCK
  5
24
330
23
100
AcDbEntity
  8
0
100
AcDbBlockBegin
  2
*Paper_Space0
 70
     0
 10
0.0
 20
0.0
 30
0.0
  3
*Paper_Space0
  1

  0
ENDBLK
  5
25
330
23
100
AcDbEntity
  8
0
100
AcDbBlockEnd
  0
BLOCK
  5
4C
330
4B
100
AcDbEntity
  8
0
100
AcDbBlockBegin
  2
SW_NOTE_0
 70
     0
 10
0.0
 20
0.0
 30
0.0
  3
SW_NOTE_0
  1

  0
MTEXT
  5
4F
330
4B
100
AcDbEntity
  8
DEFAULT
 62
     0
100
AcDbMText
 10
1.7180989583
 20
0.3759780908
 30
0.0
 40
0.2916666667
 41
0.0
 71
     2
 72
     1
  1
Legrand/Wiremold
  7
SLDTEXTSTYLE0
 73
     1
 44
1.0
  0
MTEXT
  5
50
330
4B
100
AcDbEntity
  8
DEFAULT
 62
     0
100
AcDbMText
 10
1.7307916752
 20
-0.0129107934
 30
0.0
 40
0.2916666667
 41
0.0
 71
     2
 72
     1
  1
SYSTEM: Floor Boxes
  7
SLDTEXTSTYLE0
 73
     1
 44
1.0
  0
MTEXT
  5
51
330
4B
100
AcDbEntity
  8
DEFAULT
 62
     0
100
AcDbMText
 10
1.7073971359
 20
-0.4017996776
 30
0.0
 40
0.2916666667
 41
0.0
 71
     2
 72
     1
  1
Catalog Number: EFBFF-DIV
  7
SLDTEXTSTYLE0
 73
     1
 44
1.0
  0
MTEXT
  5
52
330
4B
100
AcDbEntity
  8
DEFAULT
 62
     0
100
AcDbMText
 10
1.7519580097
 20
-0.7906885618
 30
0.0
 40
0.2916666667
 41
0.0
 71
     2
 72
     1
  1
7/25/2011
  7
SLDTEXTSTYLE0
 73
     1
 44
1.0
  0
ENDBLK
  5
4D
330
4B
100
AcDbEntity
  8
0
100
AcDbBlockEnd
  0
BLOCK
  5
82
330
81
100
AcDbEntity
  8
0
100
AcDbBlockBegin
  2
*D2
 70
     1
 10
0.0
 20
0.0
 30
0.0
  3
*D2
  1

  0
SOLID
  5
84
330
81
100
AcDbEntity
  8
DEFAULT
100
AcDbTrace
 10
1.0119676493
 20
6.2137357336
 30
0.0
 11
1.1419676493
 21
6.1937357336
 31
0.0
 12
1.1419676493
 22
6.2337357336
 32
0.0
 13
1.1419676493
 23
6.2337357336
 33
0.0
  0
SOLID
  5
85
330
81
100
AcDbEntity
  8
DEFAULT
100
AcDbTrace
 10
5.1369676493
 20
6.2137357336
 30
0.0
 11
5.0069676493
 21
6.2337357336
 31
0.0
 12
5.0069676493
 22
6.1937357336
 32
0.0
 13
5.0069676493
 23
6.1937357336
 33
0.0
  0
LINE
  5
86
330
81
100
AcDbEntity
  8
DEFAULT
100
AcDbLine
 10
2.9795891574
 20
6.2265569082
 30
0.0
 11
3.1085822198
 21
6.2265569082
 31
0.0
  0
LINE
  5
87
330
81
100
AcDbEntity
  8
DEFAULT
100
AcDbLine
 10
1.0119676493
 20
5.768784208
 30
0.0
 11
1.0119676493
 21
6.3387357336
 31
0.0
  0
LINE
  5
88
330
81
100
AcDbEntity
  8
DEFAULT
100
AcDbLine
 10
5.1369676493
 20
5.768784208
 30
0.0
 11
5.1369676493
 21
6.3387357336
 31
0.0
  0
LINE
  5
89
330
81
100
AcDbEntity
  8
DEFAULT
100
AcDbLine
 10
1.0119676493
 20
6.2137357336
 30
0.0
 11
2.8689120705
 21
6.2137357336
 31
0.0
  0
LINE
  5
8A
330
81
100
AcDbEntity
  8
DEFAULT
100
AcDbLine
 10
5.1369676493
 20
6.2137357336
 30
0.0
 11
3.280023228
 21
6.2137357336
 31
0.0
  0
MTEXT
  5
8B
330
81
100
AcDbEntity
  8
DEFAULT
100
AcDbMText
 10
2.8689120705
 20
6.2853726514
 30
-1.4370472441
 40
0.125
 41
0.0
 71
     1
 72
     1
  1
5
  7
SLDTEXTSTYLE0
 73
     1
 44
1.0
  0
MTEXT
  5
8C
330
81
100
AcDbEntity
  8
DEFAULT
100
AcDbMText
 10
2.9979051329
 20
6.3767007945
 30
-1.4370472441
 40
0.125
 41
0.0
 71
     1
 72
     1
  1
1
  7
SLDTEXTSTYLE0
 73
     1
 44
1.0
  0
MTEXT
  5
8D
330
81
100
AcDbEntity
  8
DEFAULT
100
AcDbMText
 10
2.9979051329
 20
6.2114056498
 30
-1.4370472441
 40
0.125
 41
0.0
 71
     1
 72
     1
  1
2
  7
SLDTEXTSTYLE0
 73
     1
 44
1.0
  0
MTEXT
  5
8E
330
81
100
AcDbEntity
  8
DEFAULT
100
AcDbMText
 10
3.1268981953
 20
6.2853726514
 30
-1.4370472441
 40
0.125
 41
0.0
 71
     1
 72
     1
  1
"
  7
SLDTEXTSTYLE0
 73
     1
 44
1.0
  0
ENDBLK
  5
83
330
81
100
AcDbEntity
  8
0
100
AcDbBlockEnd
  0
BLOCK
  5
F6
330
F5
100
AcDbEntity
  8
0
100
AcDbBlockBegin
  2
*D3
 70
     1
 10
0.0
 20
0.0
 30
0.0
  3
*D3
  1

  0
SOLID
  5
F8
330
F5
100
AcDbEntity
  8
DEFAULT
100
AcDbTrace
 10
6.5997940817
 20
2.9247084206
 30
0.0
 11
6.7297940817
 21
2.9047084206
 31
0.0
 12
6.7297940817
 22
2.9447084206
 32
0.0
 13
6.7297940817
 23
2.9447084206
 33
0.0
  0
SOLID
  5
F9
330
F5
100
AcDbEntity
  8
DEFAULT
100
AcDbTrace
 10
7.4030440817
 20
2.9247084206
 30
0.0
 11
7.2730440817
 21
2.9447084206
 31
0.0
 12
7.2730440817
 22
2.9047084206
 32
0.0
 13
7.2730440817
 23
2.9047084206
 33
0.0
  0
LINE
  5
FA
330
F5
100
AcDbEntity
  8
DEFAULT
100
AcDbLine
 10
6.8603600433
 20
2.9375295952
 30
0.0
 11
7.0817142171
 21
2.9375295952
 31
0.0
  0
LINE
  5
FB
330
F5
100
AcDbEntity
  8
DEFAULT
100
AcDbLine
 10
6.5997940817
 20
3.268409208
 30
0.0
 11
6.5997940817
 21
2.7997084206
 31
0.0
  0
LINE
  5
FC
330
F5
100
AcDbEntity
  8
DEFAULT
100
AcDbLine
 10
7.4030440817
 20
3.268409208
 30
0.0
 11
7.4030440817
 21
2.7997084206
 31
0.0
  0
LINE
  5
FD
330
F5
100
AcDbEntity
  8
DEFAULT
100
AcDbLine
 10
6.5997940817
 20
2.9247084206
 30
0.0
 11
6.7496829565
 21
2.9247084206
 31
0.0
  0
LINE
  5
FE
330
F5
100
AcDbEntity
  8
DEFAULT
100
AcDbLine
 10
7.4030440817
 20
2.9247084206
 30
0.0
 11
7.253155207
 21
2.9247084206
 31
0.0
  0
MTEXT
  5
FF
330
F5
100
AcDbEntity
  8
DEFAULT
100
AcDbMText
 10
6.7496829565
 20
2.9963453384
 30
-1.3478955646
 40
0.125
 41
0.0
 71
     1
 72
     1
  1
1
  7
SLDTEXTSTYLE0
 73
     1
 44
1.0
  0
MTEXT
  5
100
330
F5
100
AcDbEntity
  8
DEFAULT
100
AcDbMText
 10
6.9248565745
 20
3.0876734815
 30
-1.3478955646
 40
0.125
 41
0.0
 71
     1
 72
     1
  1
1
  7
SLDTEXTSTYLE0
 73
     1
 44
1.0
  0
MTEXT
  5
101
330
F5
100
AcDbEntity
  8
DEFAULT
100
AcDbMText
 10
6.8786760188
 20
2.9223783368
 30
-1.3478955646
 40
0.125
 41
0.0
 71
     1
 72
     1
  1
16
  7
SLDTEXTSTYLE0
 73
     1
 44
1.0
  0
MTEXT
  5
102
330
F5
100
AcDbEntity
  8
DEFAULT
100
AcDbMText
 10
7.1000301926
 20
2.9963453384
 30
-1.3478955646
 40
0.125
 41
0.0
 71
     1
 72
     1
  1
"
  7
SLDTEXTSTYLE0
 73
     1
 44
1.0
  0
ENDBLK
  5
F7
330
F5
100
AcDbEntity
  8
0
100
AcDbBlockEnd
  0
BLOCK
  5
105
330
104
100
AcDbEntity
  8
0
100
AcDbBlockBegin
  2
*D4
 70
     1
 10
0.0
 20
0.0
 30
0.0
  3
*D4
  1

  0
SOLID
  5
107
330
104
100
AcDbEntity
  8
DEFAULT
100
AcDbTrace
 10
6.2531495548
 20
5.887159208
 30
0.0
 11
6.2331495548
 21
5.757159208
 31
0.0
 12
6.2731495548
 22
5.757159208
 32
0.0
 13
6.2731495548
 23
5.757159208
 33
0.0
  0
SOLID
  5
108
330
104
100
AcDbEntity
  8
DEFAULT
100
AcDbTrace
 10
6.2531495548
 20
3.318409208
 30
0.0
 11
6.2731495548
 21
3.448409208
 31
0.0
 12
6.2331495548
 22
3.448409208
 32
0.0
 13
6.2331495548
 23
3.448409208
 33
0.0
  0
LINE
  5
109
330
104
100
AcDbEntity
  8
DEFAULT
100
AcDbLine
 10
6.1120905164
 20
4.6156053826
 30
0.0
 11
6.3334446902
 21
4.6156053826
 31
0.0
  0
LINE
  5
10A
330
104
100
AcDbEntity
  8
DEFAULT
100
AcDbLine
 10
6.9247940817
 20
5.887159208
 30
0.0
 11
6.1281495548
 21
5.887159208
 31
0.0
  0
LINE
  5
10B
330
104
100
AcDbEntity
  8
DEFAULT
100
AcDbLine
 10
6.5497940817
 20
3.318409208
 30
0.0
 11
6.1281495548
 21
3.318409208
 31
0.0
  0
LINE
  5
10C
330
104
100
AcDbEntity
  8
DEFAULT
100
AcDbLine
 10
6.2531495548
 20
5.887159208
 30
0.0
 11
6.2531495548
 21
4.7662477463
 31
0.0
  0
LINE
  5
10D
330
104
100
AcDbEntity
  8
DEFAULT
100
AcDbLine
 10
6.2531495548
 20
3.318409208
 30
0.0
 11
6.2531495548
 21
4.4393206697
 31
0.0
  0
MTEXT
  5
10E
330
104
100
AcDbEntity
  8
DEFAULT
100
AcDbMText
 10
6.0014134296
 20
4.6744211258
 30
-1.3478955646
 40
0.125
 41
0.0
 71
     1
 72
     1
  1
3
  7
SLDTEXTSTYLE0
 73
     1
 44
1.0
  0
MTEXT
  5
10F
330
104
100
AcDbEntity
  8
DEFAULT
100
AcDbMText
 10
6.1765870476
 20
4.7657492689
 30
-1.3478955646
 40
0.125
 41
0.0
 71
     1
 72
     1
  1
7
  7
SLDTEXTSTYLE0
 73
     1
 44
1.0
  0
MTEXT
  5
110
330
104
100
AcDbEntity
  8
DEFAULT
100
AcDbMText
 10
6.1304064919
 20
4.6004541242
 30
-1.3478955646
 40
0.125
 41
0.0
 71
     1
 72
     1
  1
16
  7
SLDTEXTSTYLE0
 73
     1
 44
1.0
  0
MTEXT
  5
111
330
104
100
AcDbEntity
  8
DEFAULT
100
AcDbMText
 10
6.3517606657
 20
4.6744211258
 30
-1.3478955646
 40
0.125
 41
0.0
 71
     1
 72
     1
  1
"
  7
SLDTEXTSTYLE0
 73
     1
 44
1.0
  0
ENDBLK
  5
106
330
104
100
AcDbEntity
  8
0
100
AcDbBlockEnd
  0
ENDSEC
  0
SECTION
  2
ENTITIES
  0
INSERT
  5
53
330
1F
100
AcDbEntity
  8
DEFAULT
 62
     7
100
AcDbBlockReference
  2
SW_NOTE_0
 10
2.6449138338
 20
1.8558783866
 30
0.0
  0
LINE
  5
54
330
1F
100
AcDbEntity
  8
0
  6
Continuous
 62
     7
370
    15
100
AcDbLine
 10
2.0919676493
 20
3.251284208
 30
0.0
 11
2.0919676493
 21
3.304534208
 31
0.0
  0
LINE
  5
55
330
1F
100
AcDbEntity
  8
0
  6
Continuous
 62
     7
370
    15
100
AcDbLine
 10
2.0919676493
 20
3.304534208
 30
0.0
 11
2.1369676493
 21
3.304534208
 31
0.0
  0
LINE
  5
56
330
1F
100
AcDbEntity
  8
0
  6
Continuous
 62
     7
370
    15
100
AcDbLine
 10
2.1369676493
 20
3.304534208
 30
0.0
 11
2.1369676493
 21
3.251284208
 31
0.0
  0
LINE
  5
57
330
1F
100
AcDbEntity
  8
0
  6
Continuous
 62
     7
370
    15
100
AcDbLine
 10
2.1369676493
 20
3.251284208
 30
0.0
 11
2.0919676493
 21
3.251284208
 31
0.0
  0
LINE
  5
58
330
1F
100
AcDbEntity
  8
0
  6
Continuous
 62
     7
370
    15
100
AcDbLine
 10
1.8069676493
 20
3.304534208
 30
0.0
 11
1.8069676493
 21
3.251284208
 31
0.0
  0
LINE
  5
59
330
1F
100
AcDbEntity
  8
0
  6
Continuous
 62
     7
370
    15
100
AcDbLine
 10
2.0919676493
 20
3.251284208
 30
0.0
 11
1.8069676493
 21
3.251284208
 31
0.0
  0
LINE
  5
5A
330
1F
100
AcDbEntity
  8
0
  6
Continuous
 62
     7
370
    15
100
AcDbLine
 10
2.0919676493
 20
3.304534208
 30
0.0
 11
1.8069676493
 21
3.304534208
 31
0.0
  0
LINE
  5
5B
330
1F
100
AcDbEntity
  8
0
  6
Continuous
 62
     7
370
    15
100
AcDbLine
 10
1.7619676493
 20
3.251284208
 30
0.0
 11
1.7619676493
 21
3.304534208
 31
0.0
  0
LINE
  5
5C
330
1F
100
AcDbEntity
  8
0
  6
Continuous
 62
     7
370
    15
100
AcDbLine
 10
1.8069676493
 20
3.251284208
 30
0.0
 11
1.7619676493
 21
3.251284208
 31
0.0
  0
LINE
  5
5D
330
1F
100
AcDbEntity
  8
0
  6
Continuous
 62
     7
370
    15
100
AcDbLine
 10
1.7619676493
 20
3.304534208
 30
0.0
 11
1.8069676493
 21
3.304534208
 31
0.0
  0
LINE
  5
5E
330
1F
100
AcDbEntity
  8
0
  6
Continuous
 62
     7
370
    15
100
AcDbLine
 10
2.1369676493
 20
3.304534208
 30
0.0
 11
2.1369676493
 21
3.327034208
 31
0.0
  0
LINE
  5
5F
330
1F
100
AcDbEntity
  8
0
  6
Continuous
 62
     7
370
    15
100
AcDbLine
 10
1.7619676493
 20
3.327034208
 30
0.0
 11
1.7619676493
 21
3.304534208
 31
0.0
  0
LINE
  5
60
330
1F
100
AcDbEntity
  8
0
  6
Continuous
 62
     7
370
    15
100
AcDbLine
 10
1.8069676493
 20
5.820034208
 30
0.0
 11
1.8069676493
 21
5.763784208
 31
0.0
  0
LINE
  5
61
330
1F
100
AcDbEntity
  8
0
  6
Continuous
 62
     7
370
    15
100
AcDbLine
 10
4.3419676493
 20
5.820034208
 30
0.0
 11
1.8069676493
 21
5.820034208
 31
0.0
  0
LINE
  5
62
330
1F
100
AcDbEntity
  8
0
  6
Continuous
 62
     7
370
    15
100
AcDbLine
 10
4.3419676493
 20
5.763784208
 30
0.0
 11
4.3419676493
 21
5.820034208
 31
0.0
  0
LINE
  5
63
330
1F
100
AcDbEntity
  8
0
  6
Continuous
 62
     7
370
    15
100
AcDbLine
 10
4.3419676493
 20
5.763784208
 30
0.0
 11
5.0919676493
 21
5.763784208
 31
0.0
  0
LINE
  5
64
330
1F
100
AcDbEntity
  8
0
  6
Continuous
 62
     7
370
    15
100
AcDbLine
 10
5.1369676493
 20
5.718784208
 30
0.0
 11
5.0919676493
 21
5.763784208
 31
0.0
  0
LINE
  5
65
330
1F
100
AcDbEntity
  8
0
  6
Continuous
 62
     7
370
    15
100
AcDbLine
 10
5.1369676493
 20
5.718784208
 30
0.0
 11
5.1369676493
 21
3.296284208
 31
0.0
  0
LINE
  5
66
330
1F
100
AcDbEntity
  8
0
  6
Continuous
 62
     7
370
    15
100
AcDbLine
 10
5.0919676493
 20
3.251284208
 30
0.0
 11
5.1369676493
 21
3.296284208
 31
0.0
  0
LINE
  5
67
330
1F
100
AcDbEntity
  8
0
  6
Continuous
 62
     7
370
    15
100
AcDbLine
 10
5.0919676493
 20
3.251284208
 30
0.0
 11
4.4544676493
 21
3.251284208
 31
0.0
  0
LINE
  5
68
330
1F
100
AcDbEntity
  8
0
  6
Continuous
 62
     7
370
    15
100
AcDbLine
 10
4.4544676493
 20
3.251284208
 30
0.0
 11
4.4544676493
 21
3.356659208
 31
0.0
  0
LINE
  5
69
330
1F
100
AcDbEntity
  8
0
  6
Continuous
 62
     7
370
    15
100
AcDbLine
 10
4.4544676493
 20
3.356659208
 30
0.0
 11
4.3869676493
 21
3.356659208
 31
0.0
  0
LINE
  5
6A
330
1F
100
AcDbEntity
  8
0
  6
Continuous
 62
     7
370
    15
100
AcDbLine
 10
4.3869676493
 20
3.356659208
 30
0.0
 11
4.3869676493
 21
3.327034208
 31
0.0
  0
LINE
  5
6B
330
1F
100
AcDbEntity
  8
0
  6
Continuous
 62
     7
370
    15
100
AcDbLine
 10
4.0119676493
 20
3.327034208
 30
0.0
 11
4.0119676493
 21
3.356659208
 31
0.0
  0
LINE
  5
6C
330
1F
100
AcDbEntity
  8
0
  6
Continuous
 62
     7
370
    15
100
AcDbLine
 10
4.0119676493
 20
3.356659208
 30
0.0
 11
3.9444676493
 21
3.356659208
 31
0.0
  0
LINE
  5
6D
330
1F
100
AcDbEntity
  8
0
  6
Continuous
 62
     7
370
    15
100
AcDbLine
 10
3.9444676493
 20
3.356659208
 30
0.0
 11
3.9444676493
 21
3.251284208
 31
0.0
  0
LINE
  5
6E
330
1F
100
AcDbEntity
  8
0
  6
Continuous
 62
     7
370
    15
100
AcDbLine
 10
3.9444676493
 20
3.251284208
 30
0.0
 11
2.2044676493
 21
3.251284208
 31
0.0
  0
LINE
  5
6F
330
1F
100
AcDbEntity
  8
0
  6
Continuous
 62
     7
370
    15
100
AcDbLine
 10
2.2044676493
 20
3.251284208
 30
0.0
 11
2.2044676493
 21
3.356659208
 31
0.0
  0
LINE
  5
70
330
1F
100
AcDbEntity
  8
0
  6
Continuous
 62
     7
370
    15
100
AcDbLine
 10
2.2044676493
 20
3.356659208
 30
0.0
 11
2.1369676493
 21
3.356659208
 31
0.0
  0
LINE
  5
71
330
1F
100
AcDbEntity
  8
0
  6
Continuous
 62
     7
370
    15
100
AcDbLine
 10
2.1369676493
 20
3.356659208
 30
0.0
 11
2.1369676493
 21
3.327034208
 31
0.0
  0
LINE
  5
72
330
1F
100
AcDbEntity
  8
0
  6
Continuous
 62
     7
370
    15
100
AcDbLine
 10
1.7619676493
 20
3.327034208
 30
0.0
 11
1.7619676493
 21
3.356659208
 31
0.0
  0
LINE
  5
73
330
1F
100
AcDbEntity
  8
0
  6
Continuous
 62
     7
370
    15
100
AcDbLine
 10
1.7619676493
 20
3.356659208
 30
0.0
 11
1.6944676493
 21
3.356659208
 31
0.0
  0
LINE
  5
74
330
1F
100
AcDbEntity
  8
0
  6
Continuous
 62
     7
370
    15
100
AcDbLine
 10
1.6944676493
 20
3.356659208
 30
0.0
 11
1.6944676493
 21
3.251284208
 31
0.0
  0
LINE
  5
75
330
1F
100
AcDbEntity
  8
0
  6
Continuous
 62
     7
370
    15
100
AcDbLine
 10
1.6944676493
 20
3.251284208
 30
0.0
 11
1.0569676493
 21
3.251284208
 31
0.0
  0
LINE
  5
76
330
1F
100
AcDbEntity
  8
0
  6
Continuous
 62
     7
370
    15
100
AcDbLine
 10
1.0119676493
 20
3.296284208
 30
0.0
 11
1.0569676493
 21
3.251284208
 31
0.0
  0
LINE
  5
77
330
1F
100
AcDbEntity
  8
0
  6
Continuous
 62
     7
370
    15
100
AcDbLine
 10
1.0119676493
 20
3.296284208
 30
0.0
 11
1.0119676493
 21
5.718784208
 31
0.0
  0
LINE
  5
78
330
1F
100
AcDbEntity
  8
0
  6
Continuous
 62
     7
370
    15
100
AcDbLine
 10
1.0569676493
 20
5.763784208
 30
0.0
 11
1.0119676493
 21
5.718784208
 31
0.0
  0
LINE
  5
79
330
1F
100
AcDbEntity
  8
0
  6
Continuous
 62
     7
370
    15
100
AcDbLine
 10
1.0569676493
 20
5.763784208
 30
0.0
 11
1.8069676493
 21
5.763784208
 31
0.0
  0
LINE
  5
7A
330
1F
100
AcDbEntity
  8
0
  6
Continuous
 62
     7
370
    15
100
AcDbLine
 10
4.0119676493
 20
3.251284208
 30
0.0
 11
4.3869676493
 21
3.251284208
 31
0.0
  0
LINE
  5
7B
330
1F
100
AcDbEntity
  8
0
  6
Continuous
 62
     7
370
    15
100
AcDbLine
 10
4.0119676493
 20
3.251284208
 30
0.0
 11
4.0119676493
 21
3.327034208
 31
0.0
  0
LINE
  5
7C
330
1F
100
AcDbEntity
  8
0
  6
Continuous
 62
     7
370
    15
100
AcDbLine
 10
4.3869676493
 20
3.327034208
 30
0.0
 11
4.3869676493
 21
3.251284208
 31
0.0
  0
LINE
  5
7D
330
1F
100
AcDbEntity
  8
0
  6
PHANTOM
 62
     8
370
     0
100
AcDbLine
 10
2.1369676493
 20
3.327034208
 30
0.0
 11
1.7619676493
 21
3.327034208
 31
0.0
  0
LINE
  5
7E
330
1F
100
AcDbEntity
  8
0
  6
PHANTOM
 62
     8
370
     0
100
AcDbLine
 10
4.0119676493
 20
3.327034208
 30
0.0
 11
4.3869676493
 21
3.327034208
 31
0.0
  0
DIMENSION
  5
7F
330
1F
100
AcDbEntity
  8
DEFAULT
100
AcDbDimension
  2
*D2
 10
5.1369676493
 20
6.2137357336
 30
0.0
 11
3.0744676493
 21
6.2137357336
 31
0.0
 70
   160
 71
     2
 42
-1.0
  3
SLDDIMSTYLE0
100
AcDbAlignedDimension
 13
1.0119676493
 23
5.718784208
 33
0.0
 14
5.1369676493
 24
5.718784208
 34
0.0
 50
0.0
100
AcDbRotatedDimension
  0
LINE
  5
8F
330
1F
100
AcDbEntity
  8
0
  6
Continuous
 62
     7
370
    15
100
AcDbLine
 10
6.1719525038
 20
6.9401444251
 30
0.0
 11
6.4371175467
 21
6.7870679042
 31
0.0
  0
LINE
  5
90
330
1F
100
AcDbEntity
  8
0
  6
Continuous
 62
     7
370
    15
100
AcDbLine
 10
4.5970906346
 20
9.9105523565
 30
0.0
 11
4.5970906346
 21
9.8646219359
 31
0.0
  0
LINE
  5
91
330
1F
100
AcDbEntity
  8
0
  6
Continuous
 62
     7
370
    15
100
AcDbLine
 10
6.3896063249
 20
8.8757550748
 30
0.0
 11
4.5970906346
 21
9.9105523565
 31
0.0
  0
LINE
  5
92
330
1F
100
AcDbEntity
  8
0
  6
Continuous
 62
     7
370
    15
100
AcDbLine
 10
6.3896063249
 20
8.8298246541
 30
0.0
 11
6.3896063249
 21
8.8757550748
 31
0.0
  0
LINE
  5
93
330
1F
100
AcDbEntity
  8
0
  6
Continuous
 62
     7
370
    15
100
AcDbLine
 10
6.3896063249
 20
8.8298246541
 30
0.0
 11
6.9199364108
 21
8.5236716122
 31
0.0
  0
LINE
  5
94
330
1F
100
AcDbEntity
  8
0
  6
Continuous
 62
     7
370
    15
100
AcDbLine
 10
6.9517562159
 20
8.4685580932
 30
0.0
 11
6.9199364108
 21
8.5236716122
 31
0.0
  0
LINE
  5
95
330
1F
100
AcDbEntity
  8
0
  6
Continuous
 62
     7
370
    15
100
AcDbLine
 10
6.9517562159
 20
8.4685580932
 30
0.0
 11
6.9517562159
 21
6.4904879764
 31
0.0
  0
LINE
  5
96
330
1F
100
AcDbEntity
  8
0
  6
Continuous
 62
     7
370
    15
100
AcDbLine
 10
6.9199364108
 20
6.4721128223
 30
0.0
 11
6.9517562159
 21
6.4904879764
 31
0.0
  0
LINE
  5
97
330
1F
100
AcDbEntity
  8
0
  6
Continuous
 62
     7
370
    15
100
AcDbLine
 10
6.9199364108
 20
6.4721128223
 30
0.0
 11
6.4691558378
 21
6.732342908
 31
0.0
  0
LINE
  5
98
330
1F
100
AcDbEntity
  8
0
  6
Continuous
 62
     7
370
    15
100
AcDbLine
 10
6.4691558378
 20
6.732342908
 30
0.0
 11
6.4691558378
 21
6.818385896
 31
0.0
  0
LINE
  5
99
330
1F
100
AcDbEntity
  8
0
  6
Continuous
 62
     7
370
    15
100
AcDbLine
 10
6.4691558378
 20
6.818385896
 30
0.0
 11
6.42142613
 21
6.8459396698
 31
0.0
  0
LINE
  5
9A
330
1F
100
AcDbEntity
  8
0
  6
Continuous
 62
     7
370
    15
100
AcDbLine
 10
6.42142613
 20
6.8459396698
 30
0.0
 11
6.42142613
 21
6.8217496483
 31
0.0
  0
LINE
  5
9B
330
1F
100
AcDbEntity
  8
0
  6
Continuous
 62
     7
370
    15
100
AcDbLine
 10
6.1562610871
 20
6.9748261692
 30
0.0
 11
6.1562610871
 21
6.9990161908
 31
0.0
  0
LINE
  5
9C
330
1F
100
AcDbEntity
  8
0
  6
Continuous
 62
     7
370
    15
100
AcDbLine
 10
6.1562610871
 20
6.9990161908
 30
0.0
 11
6.1085313794
 21
7.0265699646
 31
0.0
  0
LINE
  5
9D
330
1F
100
AcDbEntity
  8
0
  6
Continuous
 62
     7
370
    15
100
AcDbLine
 10
6.1085313794
 20
7.0265699646
 30
0.0
 11
6.1085313794
 21
6.9405269765
 31
0.0
  0
LINE
  5
9E
330
1F
100
AcDbEntity
  8
0
  6
Continuous
 62
     7
370
    15
100
AcDbLine
 10
6.1085313794
 20
6.9405269765
 30
0.0
 11
4.8781655801
 21
7.6508020338
 31
0.0
  0
LINE
  5
9F
330
1F
100
AcDbEntity
  8
0
  6
Continuous
 62
     7
370
    15
100
AcDbLine
 10
4.8781655801
 20
7.6508020338
 30
0.0
 11
4.8781655801
 21
7.7368450218
 31
0.0
  0
LINE
  5
A0
330
1F
100
AcDbEntity
  8
0
  6
Continuous
 62
     7
370
    15
100
AcDbLine
 10
4.8781655801
 20
7.7368450218
 30
0.0
 11
4.8304358724
 21
7.7643987956
 31
0.0
  0
LINE
  5
A1
330
1F
100
AcDbEntity
  8
0
  6
Continuous
 62
     7
370
    15
100
AcDbLine
 10
4.8304358724
 20
7.7643987956
 30
0.0
 11
4.8304358724
 21
7.7402087741
 31
0.0
  0
LINE
  5
A2
330
1F
100
AcDbEntity
  8
0
  6
Continuous
 62
     7
370
    15
100
AcDbLine
 10
4.5652708294
 20
7.893285295
 30
0.0
 11
4.5652708294
 21
7.9174753166
 31
0.0
  0
LINE
  5
A3
330
1F
100
AcDbEntity
  8
0
  6
Continuous
 62
     7
370
    15
100
AcDbLine
 10
4.5652708294
 20
7.9174753166
 30
0.0
 11
4.5175411217
 21
7.9450290904
 31
0.0
  0
LINE
  5
A4
330
1F
100
AcDbEntity
  8
0
  6
Continuous
 62
     7
370
    15
100
AcDbLine
 10
4.5175411217
 20
7.9450290904
 30
0.0
 11
4.5175411217
 21
7.8589861023
 31
0.0
  0
LINE
  5
A5
330
1F
100
AcDbEntity
  8
0
  6
Continuous
 62
     7
370
    15
100
AcDbLine
 10
4.5175411217
 20
7.8589861023
 30
0.0
 11
4.0667605487
 21
8.1192161879
 31
0.0
  0
LINE
  5
A6
330
1F
100
AcDbEntity
  8
0
  6
Continuous
 62
     7
370
    15
100
AcDbLine
 10
4.0349407435
 20
8.174329707
 30
0.0
 11
4.0667605487
 21
8.1192161879
 31
0.0
  0
LINE
  5
A7
330
1F
100
AcDbEntity
  8
0
  6
Continuous
 62
     7
370
    15
100
AcDbLine
 10
4.0349407435
 20
8.174329707
 30
0.0
 11
4.0349407435
 21
10.1523998238
 31
0.0
  0
LINE
  5
A8
330
1F
100
AcDbEntity
  8
0
  6
Continuous
 62
     7
370
    15
100
AcDbLine
 10
4.0667605487
 20
10.1707749778
 30
0.0
 11
4.0349407435
 21
10.1523998238
 31
0.0
  0
LINE
  5
A9
330
1F
100
AcDbEntity
  8
0
  6
Continuous
 62
     7
370
    15
100
AcDbLine
 10
4.0667605487
 20
10.1707749778
 30
0.0
 11
4.5970906346
 21
9.8646219359
 31
0.0
  0
LINE
  5
AA
330
1F
100
AcDbEntity
  8
0
  6
Continuous
 62
     7
370
    15
100
AcDbLine
 10
6.989409652
 20
8.4902949591
 30
0.0
 11
6.9517562159
 21
8.4685580932
 31
0.0
  0
LINE
  5
AB
330
1F
100
AcDbEntity
  8
0
  6
Continuous
 62
     7
370
    15
100
AcDbLine
 10
6.9199364108
 20
8.5236716122
 30
0.0
 11
6.9575898469
 21
8.5454084782
 31
0.0
  0
LINE
  5
AC
330
1F
100
AcDbEntity
  8
0
  6
Continuous
 62
     7
370
    15
100
AcDbLine
 10
6.9575898469
 20
8.5454084782
 30
0.0
 11
6.989409652
 21
8.4902949591
 31
0.0
  0
LINE
  5
AD
330
1F
100
AcDbEntity
  8
0
  6
Continuous
 62
     7
370
    15
100
AcDbLine
 10
6.9517562159
 20
6.4904879764
 30
0.0
 11
6.989409652
 21
6.5122248423
 31
0.0
  0
LINE
  5
AE
330
1F
100
AcDbEntity
  8
0
  6
Continuous
 62
     7
370
    15
100
AcDbLine
 10
6.989409652
 20
8.4902949591
 30
0.0
 11
6.989409652
 21
6.5122248423
 31
0.0
  0
LINE
  5
AF
330
1F
100
AcDbEntity
  8
0
  6
Continuous
 62
     7
370
    15
100
AcDbLine
 10
6.3896063249
 20
8.8298246541
 30
0.0
 11
6.427259761
 21
8.8515615201
 31
0.0
  0
LINE
  5
B0
330
1F
100
AcDbEntity
  8
0
  6
Continuous
 62
     7
370
    15
100
AcDbLine
 10
6.427259761
 20
8.8515615201
 30
0.0
 11
6.9575898469
 21
8.5454084782
 31
0.0
  0
LINE
  5
B1
330
1F
100
AcDbEntity
  8
0
  6
Continuous
 62
     7
370
    15
100
AcDbLine
 10
6.3896063249
 20
8.8757550748
 30
0.0
 11
6.427259761
 21
8.8974919408
 31
0.0
  0
LINE
  5
B2
330
1F
100
AcDbEntity
  8
0
  6
Continuous
 62
     7
370
    15
100
AcDbLine
 10
6.427259761
 20
8.8974919408
 30
0.0
 11
6.427259761
 21
8.8515615201
 31
0.0
  0
LINE
  5
B3
330
1F
100
AcDbEntity
  8
0
  6
Continuous
 62
     7
370
    15
100
AcDbLine
 10
4.5970906346
 20
9.9105523565
 30
0.0
 11
4.6347440707
 21
9.9322892225
 31
0.0
  0
LINE
  5
B4
330
1F
100
AcDbEntity
  8
0
  6
Continuous
 62
     7
370
    15
100
AcDbLine
 10
4.6347440707
 20
9.9322892225
 30
0.0
 11
6.427259761
 21
8.8974919408
 31
0.0
  0
LINE
  5
B5
330
1F
100
AcDbEntity
  8
0
  6
Continuous
 62
     7
370
    15
100
AcDbLine
 10
6.9575898469
 20
6.4938496883
 30
0.0
 11
6.9199364108
 21
6.4721128223
 31
0.0
  0
LINE
  5
B6
330
1F
100
AcDbEntity
  8
0
  6
Continuous
 62
     7
370
    15
100
AcDbLine
 10
6.989409652
 20
6.5122248423
 30
0.0
 11
6.9575898469
 21
6.4938496883
 31
0.0
  0
LWPOLYLINE
  5
B7
330
1F
100
AcDbEntity
  8
0
  6
Continuous
 62
     7
370
    15
100
AcDbPolyline
 90
        9
 70
   128
 43
0.0
 10
6.42142613
 20
6.8217496483
 10
6.4224553346
 20
6.8102768802
 10
6.4255033964
 20
6.8004332985
 10
6.4304531803
 20
6.7925971864
 10
6.4371144687
 20
6.7870696814
 10
6.4452312722
 20
6.7840632022
 10
6.4544916664
 20
6.7836932863
 10
6.4645397797
 20
6.7859741494
 10
6.4691558378
 20
6.7878183869
  0
ARC
  5
B8
330
1F
100
AcDbEntity
  8
0
  6
Continuous
 62
     7
370
    15
100
AcDbCircle
 10
6.1933787312
 20
6.9707290989
 30
0.0
 40
0.0373430782013444
100
AcDbArc
 50
173.7011524849
 51
234.9866671217
  0
LINE
  5
B9
330
1F
100
AcDbEntity
  8
0
  6
Continuous
 62
     7
370
    15
100
AcDbLine
 10
4.1044139848
 20
10.1925118438
 30
0.0
 11
4.0667605487
 21
10.1707749778
 31
0.0
  0
LINE
  5
BA
330
1F
100
AcDbEntity
  8
0
  6
Continuous
 62
     7
370
    15
100
AcDbLine
 10
4.1044139848
 20
10.1925118438
 30
0.0
 11
4.5970906346
 21
9.9080956678
 31
0.0
  0
LINE
  5
BB
330
1F
100
AcDbEntity
  8
0
  6
Continuous
 62
     7
370
    15
100
AcDbLine
 10
6.1461848155
 20
6.9622638425
 30
0.0
 11
6.1085313794
 21
6.9405269765
 31
0.0
  0
LINE
  5
BC
330
1F
100
AcDbEntity
  8
0
  6
Continuous
 62
     7
370
    15
100
AcDbLine
 10
6.1461848155
 20
6.9622638425
 30
0.0
 11
6.1461848155
 21
7.0048330986
 31
0.0
  0
LINE
  5
BD
330
1F
100
AcDbEntity
  8
0
  6
Continuous
 62
     7
370
    15
100
AcDbLine
 10
4.3319255916
 20
7.7402057883
 30
0.0
 11
4.3319255916
 21
7.7034674233
 31
0.0
  0
LINE
  5
BE
330
1F
100
AcDbEntity
  8
0
  6
Continuous
 62
     7
370
    15
100
AcDbLine
 10
4.3319255916
 20
7.7402057883
 30
0.0
 11
4.5493609268
 21
7.8657285355
 31
0.0
  0
LINE
  5
BF
330
1F
100
AcDbEntity
  8
0
  6
Continuous
 62
     7
370
    15
100
AcDbLine
 10
4.8145259698
 20
7.7126520145
 30
0.0
 11
4.5970906346
 21
7.5871292673
 31
0.0
  0
LINE
  5
C0
330
1F
100
AcDbEntity
  8
0
  6
Continuous
 62
     7
370
    15
100
AcDbLine
 10
4.5334510243
 20
7.5871292673
 30
0.0
 11
4.5970906346
 21
7.5871292673
 31
0.0
  0
LINE
  5
C1
330
1F
100
AcDbEntity
  8
0
  6
Continuous
 62
     7
370
    15
100
AcDbLine
 10
4.5334510243
 20
7.5871292673
 30
0.0
 11
4.3319255916
 21
7.7034674233
 31
0.0
  0
LWPOLYLINE
  5
C2
330
1F
100
AcDbEntity
  8
0
  6
Continuous
 62
     7
370
    15
100
AcDbPolyline
 90
       21
 70
   128
 43
0.0
 10
4.6151218575
 20
7.7506149917
 10
4.5972771596
 20
7.7580994876
 10
4.5762994592
 20
7.7620343199
 10
4.5542421996
 20
7.7620343199
 10
4.5332644992
 20
7.7580994876
 10
4.5154198013
 20
7.7506149917
 10
4.5024548695
 20
7.7403134669
 10
4.4956388014
 20
7.7282032983
 10
4.4956388014
 20
7.7154699133
 10
4.5024548695
 20
7.7033597446
 10
4.5154198013
 20
7.6930582199
 10
4.5332644992
 20
7.685573724
 10
4.5542421996
 20
7.6816388917
 10
4.5762994592
 20
7.6816388917
 10
4.5972771596
 20
7.685573724
 10
4.6151218575
 20
7.6930582199
 10
4.6280867894
 20
7.7033597446
 10
4.6349028574
 20
7.7154699133
 10
4.6349028574
 20
7.7282032983
 10
4.6280867894
 20
7.7403134669
 10
4.6151218575
 20
7.7506149917
  0
LINE
  5
C3
330
1F
100
AcDbEntity
  8
0
  6
Continuous
 62
     7
370
    15
100
AcDbLine
 10
4.5334510243
 20
7.5436484691
 30
0.0
 11
4.5334510243
 21
7.5871292673
 31
0.0
  0
LINE
  5
C4
330
1F
100
AcDbEntity
  8
0
  6
Continuous
 62
     7
370
    15
100
AcDbLine
 10
4.5970906346
 20
7.5871292673
 30
0.0
 11
4.5970906346
 21
7.5436484691
 31
0.0
  0
LINE
  5
C5
330
1F
100
AcDbEntity
  8
0
  6
Continuous
 62
     7
370
    15
100
AcDbLine
 10
4.5970906346
 20
7.5436484691
 30
0.0
 11
4.5334510243
 21
7.5436484691
 31
0.0
  0
LINE
  5
C6
330
1F
100
AcDbEntity
  8
0
  6
Continuous
 62
     7
370
    15
100
AcDbLine
 10
4.8145259698
 20
7.6691712163
 30
0.0
 11
4.5970906346
 21
7.5436484691
 31
0.0
  0
LINE
  5
C7
330
1F
100
AcDbEntity
  8
0
  6
Continuous
 62
     7
370
    15
100
AcDbLine
 10
4.3319255916
 20
7.7034674233
 30
0.0
 11
4.3319255916
 21
7.659986625
 31
0.0
  0
LINE
  5
C8
330
1F
100
AcDbEntity
  8
0
  6
Continuous
 62
     7
370
    15
100
AcDbLine
 10
4.5334510243
 20
7.5436484691
 30
0.0
 11
4.3319255916
 21
7.659986625
 31
0.0
  0
ARC
  5
C9
330
1F
100
AcDbEntity
  8
0
  6
Continuous
 62
     7
370
    15
100
AcDbCircle
 10
4.5652708294
 20
7.6215172751
 30
0.0
 40
0.098623812056517
100
AcDbArc
 50
52.8212549209
 51
127.1787450791
  0
ARC
  5
CA
330
1F
100
AcDbEntity
  8
0
  6
Continuous
 62
     7
370
    15
100
AcDbCircle
 10
4.7958935101
 20
7.7417806432
 30
0.0
 40
0.0345781081703708
100
AcDbArc
 50
302.60547834
 51
357.3945215143
  0
ARC
  5
CB
330
1F
100
AcDbEntity
  8
0
  6
Continuous
 62
     7
370
    15
100
AcDbCircle
 10
4.5307284671
 20
7.8948571642
 30
0.0
 40
0.0345781081703744
100
AcDbArc
 50
302.60547834
 51
357.3945215143
  0
ARC
  5
CC
330
1F
100
AcDbEntity
  8
0
  6
Continuous
 62
     7
370
    15
100
AcDbCircle
 10
4.7495792258
 20
7.7690898385
 30
0.0
 40
0.1191713498312604
100
AcDbArc
 50
303.0237222567
 51
347.7684772831
  0
LINE
  5
CD
330
1F
100
AcDbEntity
  8
0
  6
Continuous
 62
     7
370
    15
100
AcDbLine
 10
4.5175411217
 20
7.8589861023
 30
0.0
 11
4.5551945578
 21
7.8807229683
 31
0.0
  0
LINE
  5
CE
330
1F
100
AcDbEntity
  8
0
  6
Continuous
 62
     7
370
    15
100
AcDbLine
 10
4.5551945578
 20
7.9232922244
 30
0.0
 11
4.5551945578
 21
7.8807229683
 31
0.0
  0
LINE
  5
CF
330
1F
100
AcDbEntity
  8
0
  6
PHANTOM
 62
     8
370
     0
100
AcDbLine
 10
6.1562610871
 20
6.9748261692
 30
0.0
 11
6.42142613
 21
6.8217496483
 31
0.0
  0
LINE
  5
D0
330
1F
100
AcDbEntity
  8
0
  6
PHANTOM
 62
     8
370
     0
100
AcDbLine
 10
4.8304358724
 20
7.7402087741
 30
0.0
 11
4.5652708294
 21
7.893285295
 31
0.0
  0
LINE
  5
D1
330
1F
100
AcDbEntity
  8
0
  6
PHANTOM
 62
     8
370
     0
100
AcDbLine
 10
6.4423775733
 20
6.833844659
 30
0.0
 11
6.42142613
 21
6.8217496483
 31
0.0
  0
LINE
  5
D2
330
1F
100
AcDbEntity
  8
0
  6
PHANTOM
 62
     8
370
     0
100
AcDbLine
 10
4.5493609268
 20
7.8657285355
 30
0.0
 11
4.8145259698
 21
7.7126520145
 31
0.0
  0
LINE
  5
D3
330
1F
100
AcDbEntity
  8
0
  6
PHANTOM
 62
     8
370
     0
100
AcDbLine
 10
4.8145259698
 20
7.7126520145
 30
0.0
 11
4.8145259698
 21
7.6691712163
 31
0.0
  0
LINE
  5
D4
330
1F
100
AcDbEntity
  8
0
  6
PHANTOM
 62
     8
370
     0
100
AcDbLine
 10
4.8304358724
 20
7.7402087741
 30
0.0
 11
4.8513873157
 21
7.7523037848
 31
0.0
  0
LINE
  5
D5
330
1F
100
AcDbEntity
  8
0
  6
Continuous
 62
     7
370
    15
100
AcDbLine
 10
6.9747940817
 20
3.363409208
 30
0.0
 11
7.0280440817
 21
3.363409208
 31
0.0
  0
LINE
  5
D6
330
1F
100
AcDbEntity
  8
0
  6
Continuous
 62
     7
370
    15
100
AcDbLine
 10
6.9747940817
 20
5.785909208
 30
0.0
 11
6.9747940817
 21
3.363409208
 31
0.0
  0
LINE
  5
D7
330
1F
100
AcDbEntity
  8
0
  6
Continuous
 62
     7
370
    15
100
AcDbLine
 10
7.0280440817
 20
5.785909208
 30
0.0
 11
6.9747940817
 21
5.785909208
 31
0.0
  0
LINE
  5
D8
330
1F
100
AcDbEntity
  8
0
  6
Continuous
 62
     7
370
    15
100
AcDbLine
 10
7.0280440817
 20
5.785909208
 30
0.0
 11
7.0280440817
 21
3.363409208
 31
0.0
  0
LINE
  5
D9
330
1F
100
AcDbEntity
  8
0
  6
Continuous
 62
     7
370
    15
100
AcDbLine
 10
6.9747940817
 20
5.785909208
 30
0.0
 11
6.9747940817
 21
5.830909208
 31
0.0
  0
LINE
  5
DA
330
1F
100
AcDbEntity
  8
0
  6
Continuous
 62
     7
370
    15
100
AcDbLine
 10
6.9747940817
 20
5.830909208
 30
0.0
 11
7.0280440817
 21
5.830909208
 31
0.0
  0
LINE
  5
DB
330
1F
100
AcDbEntity
  8
0
  6
Continuous
 62
     7
370
    15
100
AcDbLine
 10
7.0280440817
 20
5.830909208
 30
0.0
 11
7.0280440817
 21
5.785909208
 31
0.0
  0
LINE
  5
DC
330
1F
100
AcDbEntity
  8
0
  6
Continuous
 62
     7
370
    15
100
AcDbLine
 10
7.0280440817
 20
3.318409208
 30
0.0
 11
6.9747940817
 21
3.318409208
 31
0.0
  0
LINE
  5
DD
330
1F
100
AcDbEntity
  8
0
  6
Continuous
 62
     7
370
    15
100
AcDbLine
 10
6.9747940817
 20
3.318409208
 30
0.0
 11
6.9747940817
 21
3.363409208
 31
0.0
  0
LINE
  5
DE
330
1F
100
AcDbEntity
  8
0
  6
Continuous
 62
     7
370
    15
100
AcDbLine
 10
7.0280440817
 20
3.363409208
 30
0.0
 11
7.0280440817
 21
3.318409208
 31
0.0
  0
LINE
  5
DF
330
1F
100
AcDbEntity
  8
0
  6
Continuous
 62
     7
370
    15
100
AcDbLine
 10
7.3580440817
 20
3.318409208
 30
0.0
 11
7.3580440817
 21
3.371659208
 31
0.0
  0
LINE
  5
E0
330
1F
100
AcDbEntity
  8
0
  6
Continuous
 62
     7
370
    15
100
AcDbLine
 10
7.3580440817
 20
3.371659208
 30
0.0
 11
7.4030440817
 21
3.371659208
 31
0.0
  0
LINE
  5
E1
330
1F
100
AcDbEntity
  8
0
  6
Continuous
 62
     7
370
    15
100
AcDbLine
 10
7.4030440817
 20
3.371659208
 30
0.0
 11
7.4030440817
 21
3.318409208
 31
0.0
  0
LINE
  5
E2
330
1F
100
AcDbEntity
  8
0
  6
Continuous
 62
     7
370
    15
100
AcDbLine
 10
7.4030440817
 20
3.318409208
 30
0.0
 11
7.3580440817
 21
3.318409208
 31
0.0
  0
LINE
  5
E3
330
1F
100
AcDbEntity
  8
0
  6
Continuous
 62
     7
370
    15
100
AcDbLine
 10
7.3580440817
 20
3.371659208
 30
0.0
 11
7.0505440817
 21
3.371659208
 31
0.0
  0
LINE
  5
E4
330
1F
100
AcDbEntity
  8
0
  6
Continuous
 62
     7
370
    15
100
AcDbLine
 10
7.3580440817
 20
3.318409208
 30
0.0
 11
7.0505440817
 21
3.318409208
 31
0.0
  0
LWPOLYLINE
  5
E5
330
1F
100
AcDbEntity
  8
0
  6
Continuous
 62
     7
370
    15
100
AcDbPolyline
 90
        3
 70
   128
 43
0.0
 10
7.0280440817
 20
3.3218279388
 10
7.0357659898
 20
3.319864723
 10
7.0505440817
 20
3.318409208
  0
ARC
  5
E6
330
1F
100
AcDbEntity
  8
0
  6
Continuous
 62
     7
370
    15
100
AcDbCircle
 10
7.0505440817
 20
3.394159208
 30
0.0
 40
0.0225000000000004
100
AcDbArc
 50
180.0
 51
270.0
  0
LINE
  5
E7
330
1F
100
AcDbEntity
  8
0
  6
Continuous
 62
     7
370
    15
100
AcDbLine
 10
6.9747940817
 20
5.887159208
 30
0.0
 11
7.0280440817
 21
5.887159208
 31
0.0
  0
LINE
  5
E8
330
1F
100
AcDbEntity
  8
0
  6
Continuous
 62
     7
370
    15
100
AcDbLine
 10
6.9747940817
 20
5.830909208
 30
0.0
 11
6.9747940817
 21
5.887159208
 31
0.0
  0
LINE
  5
E9
330
1F
100
AcDbEntity
  8
0
  6
Continuous
 62
     7
370
    15
100
AcDbLine
 10
7.0280440817
 20
5.887159208
 30
0.0
 11
7.0280440817
 21
5.830909208
 31
0.0
  0
ARC
  5
EA
330
1F
100
AcDbEntity
  8
0
  6
Continuous
 62
     7
370
    15
100
AcDbCircle
 10
6.9522940817
 20
3.394159208
 30
0.0
 40
0.0225000000000004
100
AcDbArc
 50
270.0
 51
0.0
  0
LWPOLYLINE
  5
EB
330
1F
100
AcDbEntity
  8
0
  6
Continuous
 62
     7
370
    15
100
AcDbPolyline
 90
        3
 70
   128
 43
0.0
 10
6.9522940817
 20
3.318409208
 10
6.9670721736
 20
3.319864723
 10
6.9747940817
 20
3.3218279388
  0
LINE
  5
EC
330
1F
100
AcDbEntity
  8
0
  6
Continuous
 62
     7
370
    15
100
AcDbLine
 10
6.6447940817
 20
3.371659208
 30
0.0
 11
6.6447940817
 21
3.318409208
 31
0.0
  0
LINE
  5
ED
330
1F
100
AcDbEntity
  8
0
  6
Continuous
 62
     7
370
    15
100
AcDbLine
 10
6.9522940817
 20
3.371659208
 30
0.0
 11
6.6447940817
 21
3.371659208
 31
0.0
  0
LINE
  5
EE
330
1F
100
AcDbEntity
  8
0
  6
Continuous
 62
     7
370
    15
100
AcDbLine
 10
6.9522940817
 20
3.318409208
 30
0.0
 11
6.6447940817
 21
3.318409208
 31
0.0
  0
LINE
  5
EF
330
1F
100
AcDbEntity
  8
0
  6
Continuous
 62
     7
370
    15
100
AcDbLine
 10
6.5997940817
 20
3.318409208
 30
0.0
 11
6.5997940817
 21
3.371659208
 31
0.0
  0
LINE
  5
F0
330
1F
100
AcDbEntity
  8
0
  6
Continuous
 62
     7
370
    15
100
AcDbLine
 10
6.5997940817
 20
3.371659208
 30
0.0
 11
6.6447940817
 21
3.371659208
 31
0.0
  0
LINE
  5
F1
330
1F
100
AcDbEntity
  8
0
  6
Continuous
 62
     7
370
    15
100
AcDbLine
 10
6.6447940817
 20
3.318409208
 30
0.0
 11
6.5997940817
 21
3.318409208
 31
0.0
  0
LINE
  5
F2
330
1F
100
AcDbEntity
  8
0
  6
PHANTOM
 62
     8
370
     0
100
AcDbLine
 10
7.0505440817
 20
3.371659208
 30
0.0
 11
7.0505440817
 21
3.318409208
 31
0.0
  0
LINE
  5
F3
330
1F
100
AcDbEntity
  8
0
  6
PHANTOM
 62
     8
370
     0
100
AcDbLine
 10
6.9522940817
 20
3.371659208
 30
0.0
 11
6.9522940817
 21
3.318409208
 31
0.0
  0
DIMENSION
  5
F4
330
1F
100
AcDbEntity
  8
DEFAULT
100
AcDbDimension
  2
*D3
 10
7.4030440817
 20
2.9247084206
 30
0.0
 11
7.0014190817
 21
2.9247084206
 31
0.0
 70
   160
 71
     2
 42
-1.0
  3
SLDDIMSTYLE0
100
AcDbAlignedDimension
 13
6.5997940817
 23
3.318409208
 33
0.0
 14
7.4030440817
 24
3.318409208
 34
0.0
100
AcDbRotatedDimension
  0
DIMENSION
  5
103
330
1F
100
AcDbEntity
  8
DEFAULT
100
AcDbDimension
  2
*D4
 10
6.2531495548
 20
3.318409208
 30
0.0
 11
6.2531495548
 21
4.602784208
 31
0.0
 70
   160
 71
     2
 42
-1.0
  3
SLDDIMSTYLE0
100
AcDbAlignedDimension
 13
6.9747940817
 23
5.887159208
 33
0.0
 14
6.5997940817
 24
3.318409208
 34
0.0
 50
90.0
100
AcDbRotatedDimension
  0
ENDSEC
  0
SECTION
  2
OBJECTS
  0
DICTIONARY
  5
C
330
0
100
AcDbDictionary
281
     1
  3
ACAD_GROUP
350
D
  3
ACAD_LAYOUT
350
1A
  3
ACAD_MLINESTYLE
350
17
  3
ACAD_PLOTSETTINGS
350
19
  3
ACAD_PLOTSTYLENAME
350
E
  0
DICTIONARY
  5
D
102
{ACAD_REACTORS
330
C
102
}
330
C
100
AcDbDictionary
281
     1
  0
DICTIONARY
  5
1A
102
{ACAD_REACTORS
330
C
102
}
330
C
100
AcDbDictionary
281
     1
  3
Layout1
350
1E
  3
Layout2
350
26
  3
Model
350
22
  0
DICTIONARY
  5
17
102
{ACAD_REACTORS
330
C
102
}
330
C
100
AcDbDictionary
281
     1
  3
Standard
350
18
  0
DICTIONARY
  5
19
102
{ACAD_REACTORS
330
C
102
}
330
C
100
AcDbDictionary
281
     1
  0
ACDBDICTIONARYWDFLT
  5
E
102
{ACAD_REACTORS
330
C
102
}
330
C
100
AcDbDictionary
281
     1
  3
Normal
350
F
100
AcDbDictionaryWithDefault
340
F
  0
LAYOUT
  5
1E
102
{ACAD_REACTORS
330
1A
102
}
330
1A
100
AcDbPlotSettings
  1

  2
none_device
  4

  6

 40
0.0
 41
0.0
 42
0.0
 43
0.0
 44
0.0
 45
0.0
 46
0.0
 47
0.0
 48
0.0
 49
0.0
140
0.0
141
0.0
142
1.0
143
1.0
 70
   688
 72
     0
 73
     0
 74
     5
  7

 75
    16
147
1.0
148
0.0
149
0.0
100
AcDbLayout
  1
Layout1
 70
     1
 71
     1
 10
0.0
 20
0.0
 11
12.0
 21
9.0
 12
0.0
 22
0.0
 32
0.0
 14
1.0000000000E+20
 24
1.0000000000E+20
 34
1.0000000000E+20
 15
-1.0000000000E+20
 25
-1.0000000000E+20
 35
-1.0000000000E+20
146
0.0
 13
0.0
 23
0.0
 33
0.0
 16
1.0
 26
0.0
 36
0.0
 17
0.0
 27
1.0
 37
0.0
 76
     0
330
1B
  0
LAYOUT
  5
26
102
{ACAD_REACTORS
330
1A
102
}
330
1A
100
AcDbPlotSettings
  1

  2
none_device
  4

  6

 40
0.0
 41
0.0
 42
0.0
 43
0.0
 44
0.0
 45
0.0
 46
0.0
 47
0.0
 48
0.0
 49
0.0
140
0.0
141
0.0
142
1.0
143
1.0
 70
   688
 72
     0
 73
     0
 74
     5
  7

 75
    16
147
1.0
148
0.0
149
0.0
100
AcDbLayout
  1
Layout2
 70
     1
 71
     2
 10
0.0
 20
0.0
 11
0.0
 21
0.0
 12
0.0
 22
0.0
 32
0.0
 14
0.0
 24
0.0
 34
0.0
 15
0.0
 25
0.0
 35
0.0
146
0.0
 13
0.0
 23
0.0
 33
0.0
 16
1.0
 26
0.0
 36
0.0
 17
0.0
 27
1.0
 37
0.0
 76
     0
330
23
  0
LAYOUT
  5
22
102
{ACAD_REACTORS
330
1A
102
}
330
1A
100
AcDbPlotSettings
  1

  2
none_device
  4

  6

 40
0.0
 41
0.0
 42
0.0
 43
0.0
 44
0.0
 45
0.0
 46
0.0
 47
0.0
 48
0.0
 49
0.0
140
0.0
141
0.0
142
1.0
143
1.0
 70
  1712
 72
     0
 73
     0
 74
     0
  7

 75
     0
147
1.0
148
0.0
149
0.0
100
AcDbLayout
  1
Model
 70
     1
 71
     0
 10
0.0
 20
0.0
 11
8.5
 21
11.0
 12
0.0
 22
0.0
 32
0.0
 14
0.0
 24
0.0
 34
0.0
 15
8.5
 25
11.0
 35
0.0
146
0.0
 13
0.0
 23
0.0
 33
0.0
 16
1.0
 26
0.0
 36
0.0
 17
0.0
 27
1.0
 37
0.0
 76
     0
330
1F
331
29
  0
MLINESTYLE
  5
18
102
{ACAD_REACTORS
330
17
102
}
330
17
100
AcDbMlineStyle
  2
Standard
 70
     0
  3

 62
   256
 51
90.0
 52
90.0
 71
     2
 49
0.5
 62
   256
  6
BYLAYER
 49
-0.5
 62
   256
  6
BYLAYER
  0
ACDBPLACEHOLDER
  5
F
102
{ACAD_REACTORS
330
E
102
}
330
E
  0
ENDSEC
  0
EOF
