  0
SECTION
  2
HEADER
  9
$ACADVER
  1
AC1015
  9
$ACADMAINTVER
 70
     6
  9
$DWGCODEPAGE
  3
ANSI_1252
  9
$INSBASE
 10
0.0
 20
0.0
 30
0.0
  9
$EXTMIN
 10
0.0
 20
0.0
 30
0.0
  9
$EXTMAX
 10
10.999978
 20
8.499983
 30
0.0
  9
$LIMMIN
 10
0.0
 20
0.0
  9
$LIMMAX
 10
10.999978
 20
8.499983
  9
$ORTHOMODE
 70
     0
  9
$REGENMODE
 70
     1
  9
$FILLMODE
 70
     1
  9
$QTEXTMODE
 70
     0
  9
$MIRRTEXT
 70
     1
  9
$LTSCALE
 40
1.0
  9
$ATTMODE
 70
     1
  9
$TEXTSIZE
 40
0.2
  9
$TRACEWID
 40
0.05
  9
$TEXTSTYLE
  7
Standard
  9
$CLAYER
  8
0
  9
$CELTYPE
  6
ByLayer
  9
$CECOLOR
 62
   256
  9
$CELTSCALE
 40
1.0
  9
$DISPSILH
 70
     0
  9
$DIMSCALE
 40
1.0
  9
$DIMASZ
 40
0.18
  9
$DIMEXO
 40
0.0625
  9
$DIMDLI
 40
0.38
  9
$DIMRND
 40
0.0
  9
$DIMDLE
 40
0.0
  9
$DIMEXE
 40
0.18
  9
$DIMTP
 40
0.0
  9
$DIMTM
 40
0.0
  9
$DIMTXT
 40
0.18
  9
$DIMCEN
 40
0.09
  9
$DIMTSZ
 40
0.0
  9
$DIMTOL
 70
     0
  9
$DIMLIM
 70
     0
  9
$DIMTIH
 70
     1
  9
$DIMTOH
 70
     1
  9
$DIMSE1
 70
     0
  9
$DIMSE2
 70
     0
  9
$DIMTAD
 70
     0
  9
$DIMZIN
 70
     0
  9
$DIMBLK
  1

  9
$DIMASO
 70
     1
  9
$DIMSHO
 70
     1
  9
$DIMPOST
  1

  9
$DIMAPOST
  1

  9
$DIMALT
 70
     0
  9
$DIMALTD
 70
     2
  9
$DIMALTF
 40
25.4
  9
$DIMLFAC
 40
1.0
  9
$DIMTOFL
 70
     0
  9
$DIMTVP
 40
0.0
  9
$DIMTIX
 70
     0
  9
$DIMSOXD
 70
     0
  9
$DIMSAH
 70
     0
  9
$DIMBLK1
  1

  9
$DIMBLK2
  1

  9
$DIMSTYLE
  2
Standard
  9
$DIMCLRD
 70
     0
  9
$DIMCLRE
 70
     0
  9
$DIMCLRT
 70
     0
  9
$DIMTFAC
 40
1.0
  9
$DIMGAP
 40
0.09
  9
$DIMJUST
 70
     0
  9
$DIMSD1
 70
     0
  9
$DIMSD2
 70
     0
  9
$DIMTOLJ
 70
     1
  9
$DIMTZIN
 70
     0
  9
$DIMALTZ
 70
     0
  9
$DIMALTTZ
 70
     0
  9
$DIMUPT
 70
     0
  9
$DIMDEC
 70
     4
  9
$DIMTDEC
 70
     4
  9
$DIMALTU
 70
     2
  9
$DIMALTTD
 70
     2
  9
$DIMTXSTY
  7
Standard
  9
$DIMAUNIT
 70
     0
  9
$DIMADEC
 70
     0
  9
$DIMALTRND
 40
0.0
  9
$DIMAZIN
 70
     0
  9
$DIMDSEP
 70
    46
  9
$DIMATFIT
 70
     3
  9
$DIMFRAC
 70
     0
  9
$DIMLDRBLK
  1

  9
$DIMLUNIT
 70
     2
  9
$DIMLWD
 70
    -2
  9
$DIMLWE
 70
    -2
  9
$DIMTMOVE
 70
     0
  9
$LUNITS
 70
     2
  9
$LUPREC
 70
     4
  9
$SKETCHINC
 40
0.1
  9
$FILLETRAD
 40
0.5
  9
$AUNITS
 70
     0
  9
$AUPREC
 70
     0
  9
$MENU
  1
.
  9
$ELEVATION
 40
0.0
  9
$PELEVATION
 40
0.0
  9
$THICKNESS
 40
0.0
  9
$LIMCHECK
 70
     0
  9
$CHAMFERA
 40
0.5
  9
$CHAMFERB
 40
0.5
  9
$CHAMFERC
 40
1.0
  9
$CHAMFERD
 40
0.0
  9
$SKPOLY
 70
     0
  9
$TDCREATE
 40
2455957.425062581
  9
$TDUCREATE
 40
2455957.633395914
  9
$TDUPDATE
 40
2455957.425062593
  9
$TDUUPDATE
 40
2455957.633395926
  9
$TDINDWG
 40
0.0000000116
  9
$TDUSRTIMER
 40
0.0000000116
  9
$USRTIMER
 70
     1
  9
$ANGBASE
 50
0.0
  9
$ANGDIR
 70
     0
  9
$PDMODE
 70
     0
  9
$PDSIZE
 40
0.0
  9
$PLINEWID
 40
0.0
  9
$SPLFRAME
 70
     0
  9
$SPLINETYPE
 70
     6
  9
$SPLINESEGS
 70
     8
  9
$HANDSEED
  5
387
  9
$SURFTAB1
 70
     6
  9
$SURFTAB2
 70
     6
  9
$SURFTYPE
 70
     6
  9
$SURFU
 70
     6
  9
$SURFV
 70
     6
  9
$UCSBASE
  2

  9
$UCSNAME
  2

  9
$UCSORG
 10
0.0
 20
0.0
 30
0.0
  9
$UCSXDIR
 10
1.0
 20
0.0
 30
0.0
  9
$UCSYDIR
 10
0.0
 20
1.0
 30
0.0
  9
$UCSORTHOREF
  2

  9
$UCSORTHOVIEW
 70
     0
  9
$UCSORGTOP
 10
0.0
 20
0.0
 30
0.0
  9
$UCSORGBOTTOM
 10
0.0
 20
0.0
 30
0.0
  9
$UCSORGLEFT
 10
0.0
 20
0.0
 30
0.0
  9
$UCSORGRIGHT
 10
0.0
 20
0.0
 30
0.0
  9
$UCSORGFRONT
 10
0.0
 20
0.0
 30
0.0
  9
$UCSORGBACK
 10
0.0
 20
0.0
 30
0.0
  9
$PUCSBASE
  2

  9
$PUCSNAME
  2

  9
$PUCSORG
 10
0.0
 20
0.0
 30
0.0
  9
$PUCSXDIR
 10
1.0
 20
0.0
 30
0.0
  9
$PUCSYDIR
 10
0.0
 20
1.0
 30
0.0
  9
$PUCSORTHOREF
  2

  9
$PUCSORTHOVIEW
 70
     0
  9
$PUCSORGTOP
 10
0.0
 20
0.0
 30
0.0
  9
$PUCSORGBOTTOM
 10
0.0
 20
0.0
 30
0.0
  9
$PUCSORGLEFT
 10
0.0
 20
0.0
 30
0.0
  9
$PUCSORGRIGHT
 10
0.0
 20
0.0
 30
0.0
  9
$PUCSORGFRONT
 10
0.0
 20
0.0
 30
0.0
  9
$PUCSORGBACK
 10
0.0
 20
0.0
 30
0.0
  9
$USERI1
 70
     0
  9
$USERI2
 70
     0
  9
$USERI3
 70
     0
  9
$USERI4
 70
     0
  9
$USERI5
 70
     0
  9
$USERR1
 40
0.0
  9
$USERR2
 40
0.0
  9
$USERR3
 40
0.0
  9
$USERR4
 40
0.0
  9
$USERR5
 40
0.0
  9
$WORLDVIEW
 70
     1
  9
$SHADEDGE
 70
     3
  9
$SHADEDIF
 70
    70
  9
$TILEMODE
 70
     1
  9
$MAXACTVP
 70
    64
  9
$PINSBASE
 10
0.0
 20
0.0
 30
0.0
  9
$PLIMCHECK
 70
     0
  9
$PEXTMIN
 10
0.0
 20
0.0
 30
0.0
  9
$PEXTMAX
 10
10.999978
 20
8.499983
 30
0.0
  9
$PLIMMIN
 10
0.0
 20
0.0
  9
$PLIMMAX
 10
10.999978
 20
8.499983
  9
$UNITMODE
 70
     0
  9
$VISRETAIN
 70
     1
  9
$PLINEGEN
 70
     0
  9
$PSLTSCALE
 70
     1
  9
$TREEDEPTH
 70
  3020
  9
$CMLSTYLE
  2
Standard
  9
$CMLJUST
 70
     0
  9
$CMLSCALE
 40
1.0
  9
$PROXYGRAPHICS
 70
     1
  9
$MEASUREMENT
 70
     0
  9
$CELWEIGHT
370
    -1
  9
$ENDCAPS
280
     0
  9
$JOINSTYLE
280
     0
  9
$LWDISPLAY
290
     0
  9
$INSUNITS
 70
     1
  9
$HYPERLINKBASE
  1

  9
$STYLESHEET
  1

  9
$XEDIT
290
     1
  9
$CEPSNTYPE
380
     0
  9
$PSTYLEMODE
290
     1
  9
$FINGERPRINTGUID
  2
{E052D07B-C26F-4B35-A5E4-29B98CB3B5DE}
  9
$VERSIONGUID
  2
{FAEB1C32-E019-11D5-929B-00C0DF256EC4}
  9
$EXTNAMES
290
     1
  9
$PSVPSCALE
 40
0.0
  9
$OLESTARTUP
290
     0
  0
ENDSEC
  0
SECTION
  2
CLASSES
  0
CLASS
  1
ACDBDICTIONARYWDFLT
  2
AcDbDictionaryWithDefault
  3
ObjectDBX Classes
 90
        0
280
     0
281
     0
  0
CLASS
  1
ACDBPLACEHOLDER
  2
AcDbPlaceHolder
  3
ObjectDBX Classes
 90
        0
280
     0
281
     0
  0
CLASS
  1
LAYOUT
  2
AcDbLayout
  3
ObjectDBX Classes
 90
        0
280
     0
281
     0
  0
ENDSEC
  0
SECTION
  2
TABLES
  0
TABLE
  2
VPORT
  5
8
330
0
100
AcDbSymbolTable
 70
     1
  0
VPORT
  5
29
330
8
100
AcDbSymbolTableRecord
100
AcDbViewportTableRecord
  2
*Active
 70
     0
 10
0.0
 20
0.0
 11
1.0
 21
1.0
 12
10.4299065421
 22
4.5
 13
0.0
 23
0.0
 14
0.5
 24
0.5
 15
0.5
 25
0.5
 16
0.0
 26
0.0
 36
1.0
 17
0.0
 27
0.0
 37
0.0
 40
9.0
 41
1.9729729729
 42
50.0
 43
0.0
 44
0.0
 50
0.0
 51
0.0
 71
     0
 72
   100
 73
     1
 74
     3
 75
     0
 76
     0
 77
     0
 78
     0
281
     0
 65
     1
110
0.0
120
0.0
130
0.0
111
1.0
121
0.0
131
0.0
112
0.0
122
1.0
132
0.0
 79
     0
146
0.0
  0
ENDTAB
  0
TABLE
  2
LTYPE
  5
5
330
0
100
AcDbSymbolTable
 70
     1
  0
LTYPE
  5
14
330
5
100
AcDbSymbolTableRecord
100
AcDbLinetypeTableRecord
  2
ByBlock
 70
     0
  3

 72
    65
 73
     0
 40
0.0
  0
LTYPE
  5
15
330
5
100
AcDbSymbolTableRecord
100
AcDbLinetypeTableRecord
  2
ByLayer
 70
     0
  3

 72
    65
 73
     0
 40
0.0
  0
LTYPE
  5
16
330
5
100
AcDbSymbolTableRecord
100
AcDbLinetypeTableRecord
  2
Continuous
 70
     0
  3
Solid line
 72
    65
 73
     0
 40
0.0
  0
ENDTAB
  0
TABLE
  2
LAYER
  5
2
330
0
100
AcDbSymbolTable
 70
    10
  0
LAYER
  5
10
330
2
100
AcDbSymbolTableRecord
100
AcDbLayerTableRecord
  2
0
 70
     0
 62
     7
  6
Continuous
370
    -3
390
F
  0
LAYER
  5
2A
330
2
100
AcDbSymbolTableRecord
100
AcDbLayerTableRecord
  2
Revisions
 70
     1
 62
    -7
  6
Continuous
370
    -3
390
F
  0
LAYER
  5
33
330
2
100
AcDbSymbolTableRecord
100
AcDbLayerTableRecord
  2
Default
 70
     0
 62
     7
  6
Continuous
370
    -3
390
F
  0
LAYER
  5
3F
330
2
100
AcDbSymbolTableRecord
100
AcDbLayerTableRecord
  2
428003-032
 70
     0
 62
     7
  6
Continuous
370
    -3
390
F
  0
LAYER
  5
8B
330
2
100
AcDbSymbolTableRecord
100
AcDbLayerTableRecord
  2
83800X
 70
     0
 62
     7
  6
Continuous
370
    -3
390
F
  0
LAYER
  5
AA
330
2
100
AcDbSymbolTableRecord
100
AcDbLayerTableRecord
  2
81090X
 70
     0
 62
     7
  6
Continuous
370
    -3
390
F
  0
LAYER
  5
BA
330
2
100
AcDbSymbolTableRecord
100
AcDbLayerTableRecord
  2
43455M
 70
     0
 62
     7
  6
Continuous
370
    -3
390
F
  0
LAYER
  5
D1
330
2
100
AcDbSymbolTableRecord
100
AcDbLayerTableRecord
  2
43454M
 70
     0
 62
     7
  6
Continuous
370
    -3
390
F
  0
LAYER
  5
168
330
2
100
AcDbSymbolTableRecord
100
AcDbLayerTableRecord
  2
1031
 70
     0
 62
     7
  6
Continuous
370
    -3
390
F
  0
LAYER
  5
237
330
2
100
AcDbSymbolTableRecord
100
AcDbLayerTableRecord
  2
43514
 70
     0
 62
     7
  6
Continuous
370
    -3
390
F
  0
ENDTAB
  0
TABLE
  2
STYLE
  5
3
330
0
100
AcDbSymbolTable
 70
     4
  0
STYLE
  5
11
330
3
100
AcDbSymbolTableRecord
100
AcDbTextStyleTableRecord
  2
Standard
 70
     0
 40
0.0
 41
1.0
 50
0.0
 71
     0
 42
0.2
  3
txt
  4

  0
STYLE
  5
2F
330
3
100
AcDbSymbolTableRecord
100
AcDbTextStyleTableRecord
  2
SEACAD_arial_ttf
 70
     0
 40
0.125
 41
1.0
 50
0.0
 71
     0
 42
0.2
  3
arial.ttf
  4

  0
STYLE
  5
36
330
3
100
AcDbSymbolTableRecord
100
AcDbTextStyleTableRecord
  2
SEACAD_arial_ttfB
 70
     0
 40
0.2
 41
1.0
 50
0.0
 71
     0
 42
0.2
  3
arial.ttf
  4

  0
STYLE
  5
357
330
3
100
AcDbSymbolTableRecord
100
AcDbTextStyleTableRecord
  2
SEACAD_semeca1_ttf
 70
     0
 40
0.2
 41
1.0
 50
0.0
 71
     0
 42
0.2
  3
semeca1.ttf
  4

  0
ENDTAB
  0
TABLE
  2
VIEW
  5
6
330
0
100
AcDbSymbolTable
 70
     0
  0
ENDTAB
  0
TABLE
  2
UCS
  5
7
330
0
100
AcDbSymbolTable
 70
     0
  0
ENDTAB
  0
TABLE
  2
APPID
  5
9
330
0
100
AcDbSymbolTable
 70
     1
  0
APPID
  5
12
330
9
100
AcDbSymbolTableRecord
100
AcDbRegAppTableRecord
  2
ACAD
 70
     0
  0
ENDTAB
  0
TABLE
  2
DIMSTYLE
  5
A
330
0
100
AcDbSymbolTable
 70
     2
100
AcDbDimStyleTable
  0
DIMSTYLE
105
27
330
A
100
AcDbSymbolTableRecord
100
AcDbDimStyleTableRecord
  2
Standard
 70
     0
340
11
  0
DIMSTYLE
105
345
102
{ACAD_REACTORS
330
346
330
356
330
366
330
376
102
}
330
A
100
AcDbSymbolTableRecord
100
AcDbDimStyleTableRecord
  2
2_place_dec
 70
     0
  3
\X
 41
0.125
 44
0.0625
 78
     4
140
0.125
141
0.0625
147
0.0625
170
     1
173
     1
176
     7
177
     7
178
     7
277
     5
284
     4
285
     8
340
2F
343
340
344
340
  0
ENDTAB
  0
TABLE
  2
BLOCK_RECORD
  5
1
330
0
100
AcDbSymbolTable
 70
    12
  0
BLOCK_RECORD
  5
1F
330
1
100
AcDbSymbolTableRecord
100
AcDbBlockTableRecord
  2
*Model_Space
340
22
  0
BLOCK_RECORD
  5
1B
330
1
100
AcDbSymbolTableRecord
100
AcDbBlockTableRecord
  2
*Paper_Space
340
1E
  0
BLOCK_RECORD
  5
2B
330
1
100
AcDbSymbolTableRecord
100
AcDbBlockTableRecord
  2
SEANNOT_GROUP
340
0
102
{BLKREFS
331
2C
102
}
  0
BLOCK_RECORD
  5
34
330
1
100
AcDbSymbolTableRecord
100
AcDbBlockTableRecord
  2
SEANNOT_GROUP1
340
0
102
{BLKREFS
331
35
102
}
  0
BLOCK_RECORD
  5
3D
330
1
100
AcDbSymbolTableRecord
100
AcDbBlockTableRecord
  2
SE
340
0
102
{BLKREFS
331
3E
102
}
  0
BLOCK_RECORD
  5
142
330
1
100
AcDbSymbolTableRecord
100
AcDbBlockTableRecord
  2
SE1
340
0
102
{BLKREFS
331
143
102
}
  0
BLOCK_RECORD
  5
1A5
330
1
100
AcDbSymbolTableRecord
100
AcDbBlockTableRecord
  2
SE2
340
0
102
{BLKREFS
331
1A6
102
}
  0
BLOCK_RECORD
  5
276
330
1
100
AcDbSymbolTableRecord
100
AcDbBlockTableRecord
  2
SE3
340
0
102
{BLKREFS
331
277
102
}
  0
BLOCK_RECORD
  5
340
330
1
100
AcDbSymbolTableRecord
100
AcDbBlockTableRecord
  2
_SE_FILLED
340
0
  0
BLOCK_RECORD
  5
347
330
1
100
AcDbSymbolTableRecord
100
AcDbBlockTableRecord
  2
DMBLK5
340
0
  0
BLOCK_RECORD
  5
358
330
1
100
AcDbSymbolTableRecord
100
AcDbBlockTableRecord
  2
DMBLK6
340
0
  0
BLOCK_RECORD
  5
367
330
1
100
AcDbSymbolTableRecord
100
AcDbBlockTableRecord
  2
DMBLK7
340
0
  0
BLOCK_RECORD
  5
377
330
1
100
AcDbSymbolTableRecord
100
AcDbBlockTableRecord
  2
DMBLK8
340
0
  0
ENDTAB
  0
ENDSEC
  0
SECTION
  2
BLOCKS
  0
BLOCK
  5
20
330
1F
100
AcDbEntity
  8
0
100
AcDbBlockBegin
  2
*Model_Space
 70
     0
 71
     0
 10
0.0
 20
0.0
 30
0.0
  3
*Model_Space
  1

  0
ENDBLK
  5
21
330
1F
100
AcDbEntity
  8
0
100
AcDbBlockEnd
  0
BLOCK
  5
1C
330
1B
100
AcDbEntity
 67
     1
  8
0
100
AcDbBlockBegin
  2
*Paper_Space
 70
     0
 71
     0
 10
0.0
 20
0.0
 30
0.0
  3
*Paper_Space
  1

  0
ENDBLK
  5
1D
330
1B
100
AcDbEntity
 67
     1
  8
0
100
AcDbBlockEnd
  0
BLOCK
  5
31
330
2B
100
AcDbEntity
  8
0
100
AcDbBlockBegin
  2
SEANNOT_GROUP
 70
     0
 71
     0
 10
0.0
 20
0.0
 30
0.0
  3
SEANNOT_GROUP
  1

  0
LWPOLYLINE
  5
2D
330
2B
100
AcDbEntity
  8
Revisions
  6
Continuous
 62
     7
100
AcDbPolyline
 90
        3
 70
     0
 43
0.0
 10
5.4091174327
 20
9.0311433791
 10
5.5966174327
 20
8.7063838527
 10
5.2216174327
 20
8.7063838527
  0
LINE
  5
2E
330
2B
100
AcDbEntity
  8
Revisions
  6
Continuous
 62
     7
100
AcDbLine
 10
5.4091174327
 20
9.0311433791
 30
0.0
 11
5.2216174327
 21
8.7063838527
 31
0.0
  0
TEXT
  5
30
330
2B
100
AcDbEntity
  8
Revisions
  6
Continuous
 62
     7
100
AcDbText
 10
5.369986998
 20
8.7646370282
 30
0.0
 40
0.1
  1
3
  7
SEACAD_arial_ttf
 11
5.369986998
 21
8.8646370282
 31
0.0
100
AcDbText
 73
     3
  0
ENDBLK
  5
32
330
2B
100
AcDbEntity
  8
0
100
AcDbBlockEnd
  0
BLOCK
  5
3B
330
34
100
AcDbEntity
  8
0
100
AcDbBlockBegin
  2
SEANNOT_GROUP1
 70
     0
 71
     0
 10
0.0
 20
0.0
 30
0.0
  3
SEANNOT_GROUP1
  1

  0
TEXT
  5
37
330
34
100
AcDbEntity
  8
Default
  6
Continuous
 62
     7
100
AcDbText
 10
3.2322889525
 20
1.3166316375
 30
0.0
 40
0.2
  1
          Legrand/Wiremold
  7
SEACAD_arial_ttfB
 11
3.2322889525
 21
1.5166316375
 31
0.0
100
AcDbText
 73
     3
  0
TEXT
  5
38
330
34
100
AcDbEntity
  8
Default
  6
Continuous
 62
     7
100
AcDbText
 10
3.2322889525
 20
1.0166316375
 30
0.0
 40
0.2
  1
       SYSTEM: Floorboxes
  7
SEACAD_arial_ttfB
 11
3.2322889525
 21
1.2166316375
 31
0.0
100
AcDbText
 73
     3
  0
TEXT
  5
39
330
34
100
AcDbEntity
  8
Default
  6
Continuous
 62
     7
100
AcDbText
 10
3.2322889525
 20
0.7166316375
 30
0.0
 40
0.2
  1
Catalog Number: 828DLR_R0
  7
SEACAD_arial_ttfB
 11
3.2322889525
 21
0.9166316375
 31
0.0
100
AcDbText
 73
     3
  0
TEXT
  5
3A
330
34
100
AcDbEntity
  8
Default
  6
Continuous
 62
     7
100
AcDbText
 10
3.2322889525
 20
0.4166316375
 30
0.0
 40
0.2
  1
                  01/30/12
  7
SEACAD_arial_ttfB
 11
3.2322889525
 21
0.6166316375
 31
0.0
100
AcDbText
 73
     3
  0
ENDBLK
  5
3C
330
34
100
AcDbEntity
  8
0
100
AcDbBlockEnd
  0
BLOCK
  5
140
330
3D
100
AcDbEntity
  8
0
100
AcDbBlockBegin
  2
SE
 70
     0
 71
     0
 10
0.0
 20
0.0
 30
0.0
  3
SE
  1

  0
ELLIPSE
  5
40
330
3D
100
AcDbEntity
  8
428003-032
  6
Continuous
 62
     7
100
AcDbEllipse
 10
8.6226632335
 20
5.248037905
 30
0.0
 11
-0.1659999999999999
 21
-2.059804046837123E-16
 31
0.0
210
0.0
220
0.0
230
1.0
 40
0.5773502692
 41
2.519570926726944
 42
5.33441070724752
  0
ELLIPSE
  5
41
330
3D
100
AcDbEntity
  8
428003-032
  6
Continuous
 62
     7
100
AcDbEllipse
 10
8.6226632335
 20
5.248037905
 30
0.0
 11
0.1659999999999999
 21
-2.561107494060247E-17
 31
0.0
210
0.0
220
0.0
230
1.0
 40
0.5773502692
 41
2.519570926726963
 42
5.334410707247521
  0
ARC
  5
42
330
3D
100
AcDbEntity
  8
428003-032
  6
Continuous
 62
     7
100
AcDbCircle
 10
6.2988747077
 20
8.540981722
 30
0.0
 40
4.154464066072608
100
AcDbArc
 50
306.1491467573
 51
306.2863043649
  0
ELLIPSE
  5
43
330
3D
100
AcDbEntity
  8
428003-032
  6
Continuous
 62
     7
100
AcDbEllipse
 10
8.6226632335
 20
5.2112955589
 30
0.0
 11
-0.1268820967982938
 21
1.228402961207987E-14
 31
0.0
210
0.0
220
0.0
230
1.0
 40
0.5773502692
 41
5.283351553932693
 42
5.355442951331837
  0
ARC
  5
44
330
3D
100
AcDbEntity
  8
428003-032
  6
Continuous
 62
     7
100
AcDbCircle
 10
27.3239473013
 20
15.2777417114
 30
0.0
 40
21.26978478927357
100
AcDbArc
 50
207.897097908
 51
208.0587494347
  0
LINE
  5
45
330
3D
100
AcDbEntity
  8
428003-032
  6
Continuous
 62
     7
100
AcDbLine
 10
8.4877546849
 20
5.3038819842
 30
0.0
 11
8.7193880159
 21
5.1701484182
 31
0.0
  0
LINE
  5
46
330
3D
100
AcDbEntity
  8
428003-032
  6
Continuous
 62
     7
100
AcDbLine
 10
8.757571782
 20
5.1921938259
 30
0.0
 11
8.5259384511
 21
5.3259273919
 31
0.0
  0
LINE
  5
47
330
3D
100
AcDbEntity
  8
428003-032
  6
Continuous
 62
     7
100
AcDbLine
 10
8.7266229286
 20
5.1733198086
 30
0.0
 11
8.5540907952
 21
5.2729312823
 31
0.0
  0
ELLIPSE
  5
48
330
3D
100
AcDbEntity
  8
428003-032
  6
Continuous
 62
     7
100
AcDbEllipse
 10
8.6226632335
 20
4.8525473737
 30
0.0
 11
-0.082
 21
1.419527173322061E-16
 31
0.0
210
0.0
220
0.0
230
1.0
 40
0.5773502692
 41
6.010335750689258
 42
6.283185307179586
  0
ELLIPSE
  5
49
330
3D
100
AcDbEntity
  8
428003-032
  6
Continuous
 62
     7
100
AcDbEllipse
 10
8.6226632335
 20
4.8525473737
 30
0.0
 11
-0.082
 21
1.419527173322061E-16
 31
0.0
210
0.0
220
0.0
230
1.0
 40
0.5773502692
 41
0.0
 42
3.414442210080203
  0
ELLIPSE
  5
4A
330
3D
100
AcDbEntity
  8
428003-032
  6
Continuous
 62
     7
100
AcDbEllipse
 10
8.6226632335
 20
4.8780628918
 30
0.0
 11
-0.08200000000000011
 21
-2.561107494060247E-17
 31
0.0
210
0.0
220
0.0
230
1.0
 40
0.5773502692
 41
6.010335750690056
 42
6.283185307179586
  0
ELLIPSE
  5
4B
330
3D
100
AcDbEntity
  8
428003-032
  6
Continuous
 62
     7
100
AcDbEllipse
 10
8.6226632335
 20
4.8780628918
 30
0.0
 11
-0.08200000000000011
 21
-2.561107494060247E-17
 31
0.0
210
0.0
220
0.0
230
1.0
 40
0.5773502692
 41
0.0
 42
3.414442210079243
  0
ELLIPSE
  5
4C
330
3D
100
AcDbEntity
  8
428003-032
  6
Continuous
 62
     7
100
AcDbEllipse
 10
8.6226632335
 20
4.90357841
 30
0.0
 11
-0.082
 21
-3.041561919560217E-16
 31
0.0
210
0.0
220
0.0
230
1.0
 40
0.5773502692
 41
6.010335750689578
 42
6.283185307179586
  0
ELLIPSE
  5
4D
330
3D
100
AcDbEntity
  8
428003-032
  6
Continuous
 62
     7
100
AcDbEllipse
 10
8.6226632335
 20
4.90357841
 30
0.0
 11
-0.082
 21
-3.041561919560217E-16
 31
0.0
210
0.0
220
0.0
230
1.0
 40
0.5773502692
 41
0.0
 42
3.414442210079798
  0
ELLIPSE
  5
4E
330
3D
100
AcDbEntity
  8
428003-032
  6
Continuous
 62
     7
100
AcDbEllipse
 10
8.6226632335
 20
4.9290939281
 30
0.0
 11
-0.08200000000000011
 21
-2.561107494060247E-17
 31
0.0
210
0.0
220
0.0
230
1.0
 40
0.5773502692
 41
6.010335750690137
 42
6.283185307179586
  0
ELLIPSE
  5
4F
330
3D
100
AcDbEntity
  8
428003-032
  6
Continuous
 62
     7
100
AcDbEllipse
 10
8.6226632335
 20
4.9290939281
 30
0.0
 11
-0.08200000000000011
 21
-2.561107494060247E-17
 31
0.0
210
0.0
220
0.0
230
1.0
 40
0.5773502692
 41
0.0
 42
3.414442210079243
  0
ELLIPSE
  5
50
330
3D
100
AcDbEntity
  8
428003-032
  6
Continuous
 62
     7
100
AcDbEllipse
 10
8.6226632335
 20
4.9546094463
 30
0.0
 11
-0.082
 21
2.987958743070288E-17
 31
0.0
210
0.0
220
0.0
230
1.0
 40
0.5773502692
 41
6.010335750689499
 42
6.283185307179586
  0
ELLIPSE
  5
51
330
3D
100
AcDbEntity
  8
428003-032
  6
Continuous
 62
     7
100
AcDbEllipse
 10
8.6226632335
 20
4.9546094463
 30
0.0
 11
-0.082
 21
2.987958743070288E-17
 31
0.0
210
0.0
220
0.0
230
1.0
 40
0.5773502692
 41
0.0
 42
3.414442210079881
  0
ELLIPSE
  5
52
330
3D
100
AcDbEntity
  8
428003-032
  6
Continuous
 62
     7
100
AcDbEllipse
 10
8.6226632335
 20
4.9801249644
 30
0.0
 11
-0.08200000000000006
 21
0.0
 31
0.0
210
0.0
220
0.0
230
1.0
 40
0.5773502692
 41
6.010335750689577
 42
6.283185307179586
  0
ELLIPSE
  5
53
330
3D
100
AcDbEntity
  8
428003-032
  6
Continuous
 62
     7
100
AcDbEllipse
 10
8.6226632335
 20
4.9801249644
 30
0.0
 11
-0.08200000000000006
 21
0.0
 31
0.0
210
0.0
220
0.0
230
1.0
 40
0.5773502692
 41
0.0
 42
3.414442210079803
  0
ELLIPSE
  5
54
330
3D
100
AcDbEntity
  8
428003-032
  6
Continuous
 62
     7
100
AcDbEllipse
 10
8.6226632335
 20
5.0056404826
 30
0.0
 11
-0.08200000000000006
 21
0.0
 31
0.0
210
0.0
220
0.0
230
1.0
 40
0.5773502692
 41
6.010335750689737
 42
6.283185307179586
  0
ELLIPSE
  5
55
330
3D
100
AcDbEntity
  8
428003-032
  6
Continuous
 62
     7
100
AcDbEllipse
 10
8.6226632335
 20
5.0056404826
 30
0.0
 11
-0.08200000000000006
 21
0.0
 31
0.0
210
0.0
220
0.0
230
1.0
 40
0.5773502692
 41
0.0
 42
3.129815712524668
  0
ELLIPSE
  5
56
330
3D
100
AcDbEntity
  8
428003-032
  6
Continuous
 62
     7
100
AcDbEllipse
 10
8.6226632335
 20
5.0311560007
 30
0.0
 11
-0.08200000000000011
 21
-2.561107494060247E-17
 31
0.0
210
0.0
220
0.0
230
1.0
 40
0.5773502692
 41
6.281958500707651
 42
6.283185307179586
  0
ELLIPSE
  5
57
330
3D
100
AcDbEntity
  8
428003-032
  6
Continuous
 62
     7
100
AcDbEllipse
 10
8.6226632335
 20
5.0311560007
 30
0.0
 11
-0.08200000000000011
 21
-2.561107494060247E-17
 31
0.0
210
0.0
220
0.0
230
1.0
 40
0.5773502692
 41
0.0
 42
1.630631284012266
  0
ELLIPSE
  5
58
330
3D
100
AcDbEntity
  8
428003-032
  6
Continuous
 62
     7
100
AcDbEllipse
 10
10.5247804749
 20
6.3462258064
 30
0.0
 11
-0.1660000000000004
 21
-2.782721657256961E-16
 31
0.0
210
0.0
220
0.0
230
1.0
 40
0.5773502692
 41
2.519570926726959
 42
5.334410707247518
  0
ELLIPSE
  5
59
330
3D
100
AcDbEntity
  8
428003-032
  6
Continuous
 62
     7
100
AcDbEllipse
 10
10.5247804749
 20
6.3462258064
 30
0.0
 11
0.1660000000000004
 21
4.176811998782673E-16
 31
0.0
210
0.0
220
0.0
230
1.0
 40
0.5773502692
 41
2.519570926726958
 42
5.334410707247531
  0
ARC
  5
5A
330
3D
100
AcDbEntity
  8
428003-032
  6
Continuous
 62
     7
100
AcDbCircle
 10
8.2009919491
 20
9.6391696234
 30
0.0
 40
4.154464066068028
100
AcDbArc
 50
306.1491467573
 51
306.2863043649
  0
ELLIPSE
  5
5B
330
3D
100
AcDbEntity
  8
428003-032
  6
Continuous
 62
     7
100
AcDbEllipse
 10
10.5247804749
 20
6.3094834603
 30
0.0
 11
-0.1268820967982694
 21
-1.972575499859150E-16
 31
0.0
210
0.0
220
0.0
230
1.0
 40
0.5773502692
 41
5.283351553932543
 42
5.35544295133168
  0
ARC
  5
5C
330
3D
100
AcDbEntity
  8
428003-032
  6
Continuous
 62
     7
100
AcDbCircle
 10
29.2260645428
 20
16.3759296127
 30
0.0
 40
21.26978478933285
100
AcDbArc
 50
207.897097908
 51
208.0587494347
  0
LINE
  5
5D
330
3D
100
AcDbEntity
  8
428003-032
  6
Continuous
 62
     7
100
AcDbLine
 10
10.3898719263
 20
6.4020698855
 30
0.0
 11
10.6215052573
 21
6.2683363196
 31
0.0
  0
LINE
  5
5E
330
3D
100
AcDbEntity
  8
428003-032
  6
Continuous
 62
     7
100
AcDbLine
 10
10.6596890234
 20
6.2903817273
 30
0.0
 11
10.4280556925
 21
6.4241152932
 31
0.0
  0
LINE
  5
5F
330
3D
100
AcDbEntity
  8
428003-032
  6
Continuous
 62
     7
100
AcDbLine
 10
10.62874017
 20
6.27150771
 30
0.0
 11
10.4562080366
 21
6.3711191836
 31
0.0
  0
ELLIPSE
  5
60
330
3D
100
AcDbEntity
  8
428003-032
  6
Continuous
 62
     7
100
AcDbEllipse
 10
10.5247804749
 20
5.950735275
 30
0.0
 11
-0.08199999999999986
 21
1.667449384036392E-16
 31
0.0
210
0.0
220
0.0
230
1.0
 40
0.5773502692
 41
1.044800681357591
 42
3.414442210080599
  0
ELLIPSE
  5
61
330
3D
100
AcDbEntity
  8
428003-032
  6
Continuous
 62
     7
100
AcDbEllipse
 10
10.5247804749
 20
5.9762507932
 30
0.0
 11
-0.08200000000000006
 21
0.0
 31
0.0
210
0.0
220
0.0
230
1.0
 40
0.5773502692
 41
6.010335750689416
 42
6.106298109496489
  0
ELLIPSE
  5
62
330
3D
100
AcDbEntity
  8
428003-032
  6
Continuous
 62
     7
100
AcDbEllipse
 10
10.5247804749
 20
5.9762507932
 30
0.0
 11
-0.08200000000000006
 21
0.0
 31
0.0
210
0.0
220
0.0
230
1.0
 40
0.5773502692
 41
1.042721319086644
 42
3.414442210079803
  0
ELLIPSE
  5
63
330
3D
100
AcDbEntity
  8
428003-032
  6
Continuous
 62
     7
100
AcDbEllipse
 10
10.5247804749
 20
6.0017663113
 30
0.0
 11
-0.08200000000000006
 21
0.0
 31
0.0
210
0.0
220
0.0
230
1.0
 40
0.5773502692
 41
6.267708044974102
 42
6.283185307179586
  0
ELLIPSE
  5
64
330
3D
100
AcDbEntity
  8
428003-032
  6
Continuous
 62
     7
100
AcDbEllipse
 10
10.5247804749
 20
6.0017663113
 30
0.0
 11
-0.08200000000000006
 21
0.0
 31
0.0
210
0.0
220
0.0
230
1.0
 40
0.5773502692
 41
0.7729933973870345
 42
3.414442209772959
  0
ELLIPSE
  5
65
330
3D
100
AcDbEntity
  8
428003-032
  6
Continuous
 62
     7
100
AcDbEllipse
 10
10.5247804749
 20
6.0017663113
 30
0.0
 11
-0.08200000000000006
 21
0.0
 31
0.0
210
0.0
220
0.0
230
1.0
 40
0.5773502692
 41
0.0
 42
0.4864955086301844
  0
ELLIPSE
  5
66
330
3D
100
AcDbEntity
  8
428003-032
  6
Continuous
 62
     7
100
AcDbEllipse
 10
10.5247804749
 20
6.0272818295
 30
0.0
 11
-0.08200000000000006
 21
-5.576361366102848E-17
 31
0.0
210
0.0
220
0.0
230
1.0
 40
0.5773502692
 41
0.4017082518530093
 42
3.414442210079079
  0
ELLIPSE
  5
67
330
3D
100
AcDbEntity
  8
428003-032
  6
Continuous
 62
     7
100
AcDbEllipse
 10
10.5247804749
 20
6.0527973476
 30
0.0
 11
-0.08199999999999986
 21
1.667449384036392E-16
 31
0.0
210
0.0
220
0.0
230
1.0
 40
0.5773502692
 41
0.7459317249876688
 42
3.414442209763947
  0
ELLIPSE
  5
68
330
3D
100
AcDbEntity
  8
428003-032
  6
Continuous
 62
     7
100
AcDbEllipse
 10
10.5247804749
 20
6.0783128658
 30
0.0
 11
-0.08200000000000006
 21
5.576361366102848E-17
 31
0.0
210
0.0
220
0.0
230
1.0
 40
0.5773502692
 41
1.126247350181687
 42
3.414442210079642
  0
ELLIPSE
  5
69
330
3D
100
AcDbEntity
  8
428003-032
  6
Continuous
 62
     7
100
AcDbEllipse
 10
10.5247804749
 20
6.1038283839
 30
0.0
 11
-0.08200000000000006
 21
5.576361366102848E-17
 31
0.0
210
0.0
220
0.0
230
1.0
 40
0.5773502692
 41
1.582573267859336
 42
3.129815712528345
  0
ELLIPSE
  5
6A
330
3D
100
AcDbEntity
  8
428003-032
  6
Continuous
 62
     7
100
AcDbEllipse
 10
6.0403092686
 20
6.7389606618
 30
0.0
 11
-0.1660000000000001
 21
1.394090341525712E-16
 31
0.0
210
0.0
220
0.0
230
1.0
 40
0.5773502692
 41
2.519570926726962
 42
5.33441070724752
  0
ELLIPSE
  5
6B
330
3D
100
AcDbEntity
  8
428003-032
  6
Continuous
 62
     7
100
AcDbEllipse
 10
6.0403092686
 20
6.7389606618
 30
0.0
 11
0.1660000000000001
 21
8.364542049154271E-17
 31
0.0
210
0.0
220
0.0
230
1.0
 40
0.5773502692
 41
2.519570926726961
 42
5.334410707247519
  0
ARC
  5
6C
330
3D
100
AcDbEntity
  8
428003-032
  6
Continuous
 62
     7
100
AcDbCircle
 10
3.7165207428
 20
10.0319044788
 30
0.0
 40
4.154464066080708
100
AcDbArc
 50
306.1491467573
 51
306.2863043649
  0
ELLIPSE
  5
6D
330
3D
100
AcDbEntity
  8
428003-032
  6
Continuous
 62
     7
100
AcDbEllipse
 10
6.0403092686
 20
6.7022183157
 30
0.0
 11
-0.1268820967982705
 21
5.378165866462916E-16
 31
0.0
210
0.0
220
0.0
230
1.0
 40
0.5773502692
 41
5.283351553932574
 42
5.355442951331711
  0
ARC
  5
6E
330
3D
100
AcDbEntity
  8
428003-032
  6
Continuous
 62
     7
100
AcDbCircle
 10
24.7415933364
 20
16.7686644681
 30
0.0
 40
21.26978478925117
100
AcDbArc
 50
207.897097908
 51
208.0587494347
  0
LINE
  5
6F
330
3D
100
AcDbEntity
  8
428003-032
  6
Continuous
 62
     7
100
AcDbLine
 10
5.90540072
 20
6.794804741
 30
0.0
 11
6.137034051
 21
6.661071175
 31
0.0
  0
LINE
  5
70
330
3D
100
AcDbEntity
  8
428003-032
  6
Continuous
 62
     7
100
AcDbLine
 10
6.1752178172
 20
6.6831165827
 30
0.0
 11
5.9435844862
 21
6.8168501486
 31
0.0
  0
LINE
  5
71
330
3D
100
AcDbEntity
  8
428003-032
  6
Continuous
 62
     7
100
AcDbLine
 10
6.1442689637
 20
6.6642425654
 30
0.0
 11
5.9717368303
 21
6.7638540391
 31
0.0
  0
ELLIPSE
  5
72
330
3D
100
AcDbEntity
  8
428003-032
  6
Continuous
 62
     7
100
AcDbEllipse
 10
6.0403092686
 20
6.3434701304
 30
0.0
 11
-0.08200000000000006
 21
0.0
 31
0.0
210
0.0
220
0.0
230
1.0
 40
0.5773502692
 41
6.010335750801397
 42
6.283185307179586
  0
ELLIPSE
  5
73
330
3D
100
AcDbEntity
  8
428003-032
  6
Continuous
 62
     7
100
AcDbEllipse
 10
6.0403092686
 20
6.3434701304
 30
0.0
 11
-0.08200000000000006
 21
0.0
 31
0.0
210
0.0
220
0.0
230
1.0
 40
0.5773502692
 41
0.0
 42
2.462301787513267
  0
ELLIPSE
  5
74
330
3D
100
AcDbEntity
  8
428003-032
  6
Continuous
 62
     7
100
AcDbEllipse
 10
6.0403092686
 20
6.3689856486
 30
0.0
 11
-0.08199999999999986
 21
1.667449384036392E-16
 31
0.0
210
0.0
220
0.0
230
1.0
 40
0.5773502692
 41
6.010335750690793
 42
6.283185307179586
  0
ELLIPSE
  5
75
330
3D
100
AcDbEntity
  8
428003-032
  6
Continuous
 62
     7
100
AcDbEllipse
 10
6.0403092686
 20
6.3689856486
 30
0.0
 11
-0.08199999999999986
 21
1.667449384036392E-16
 31
0.0
210
0.0
220
0.0
230
1.0
 40
0.5773502692
 41
3.260464210308148
 42
3.41444221007871
  0
ELLIPSE
  5
76
330
3D
100
AcDbEntity
  8
428003-032
  6
Continuous
 62
     7
100
AcDbEllipse
 10
6.0403092686
 20
6.3689856486
 30
0.0
 11
-0.08199999999999986
 21
1.667449384036392E-16
 31
0.0
210
0.0
220
0.0
230
1.0
 40
0.5773502692
 41
0.0
 42
2.462907937374549
  0
ELLIPSE
  5
77
330
3D
100
AcDbEntity
  8
428003-032
  6
Continuous
 62
     7
100
AcDbEllipse
 10
6.0403092686
 20
6.3945011667
 30
0.0
 11
-0.08200000000000006
 21
2.788180683051424E-17
 31
0.0
210
0.0
220
0.0
230
1.0
 40
0.5773502692
 41
6.010335750906747
 42
6.283185307179586
  0
ELLIPSE
  5
78
330
3D
100
AcDbEntity
  8
428003-032
  6
Continuous
 62
     7
100
AcDbEllipse
 10
6.0403092686
 20
6.3945011667
 30
0.0
 11
-0.08200000000000006
 21
2.788180683051424E-17
 31
0.0
210
0.0
220
0.0
230
1.0
 40
0.5773502692
 41
0.0
 42
3.414442209890326
  0
ELLIPSE
  5
79
330
3D
100
AcDbEntity
  8
428003-032
  6
Continuous
 62
     7
100
AcDbEllipse
 10
6.0403092686
 20
6.4200166849
 30
0.0
 11
-0.08200000000000006
 21
0.0
 31
0.0
210
0.0
220
0.0
230
1.0
 40
0.5773502692
 41
6.010335750689978
 42
6.283185307179586
  0
ELLIPSE
  5
7A
330
3D
100
AcDbEntity
  8
428003-032
  6
Continuous
 62
     7
100
AcDbEllipse
 10
6.0403092686
 20
6.4200166849
 30
0.0
 11
-0.08200000000000006
 21
0.0
 31
0.0
210
0.0
220
0.0
230
1.0
 40
0.5773502692
 41
0.0
 42
3.278706209097496
  0
ELLIPSE
  5
7B
330
3D
100
AcDbEntity
  8
428003-032
  6
Continuous
 62
     7
100
AcDbEllipse
 10
6.0403092686
 20
6.445532203
 30
0.0
 11
-0.08200000000000006
 21
0.0
 31
0.0
210
0.0
220
0.0
230
1.0
 40
0.5773502692
 41
6.010335750690984
 42
6.283185307179586
  0
ELLIPSE
  5
7C
330
3D
100
AcDbEntity
  8
428003-032
  6
Continuous
 62
     7
100
AcDbEllipse
 10
6.0403092686
 20
6.445532203
 30
0.0
 11
-0.08200000000000006
 21
0.0
 31
0.0
210
0.0
220
0.0
230
1.0
 40
0.5773502692
 41
0.0
 42
2.808515065968126
  0
ELLIPSE
  5
7D
330
3D
100
AcDbEntity
  8
428003-032
  6
Continuous
 62
     7
100
AcDbEllipse
 10
6.0403092686
 20
6.4710477212
 30
0.0
 11
-0.08200000000000006
 21
0.0
 31
0.0
210
0.0
220
0.0
230
1.0
 40
0.5773502692
 41
6.010335750688411
 42
6.283185307179586
  0
ELLIPSE
  5
7E
330
3D
100
AcDbEntity
  8
428003-032
  6
Continuous
 62
     7
100
AcDbEllipse
 10
6.0403092686
 20
6.4710477212
 30
0.0
 11
-0.08200000000000006
 21
0.0
 31
0.0
210
0.0
220
0.0
230
1.0
 40
0.5773502692
 41
0.0
 42
2.41218008819948
  0
ELLIPSE
  5
7F
330
3D
100
AcDbEntity
  8
428003-032
  6
Continuous
 62
     7
100
AcDbEllipse
 10
6.0403092686
 20
6.4965632394
 30
0.0
 11
-0.08200000000000006
 21
0.0
 31
0.0
210
0.0
220
0.0
230
1.0
 40
0.5773502692
 41
6.010335750688612
 42
6.283185307179586
  0
ELLIPSE
  5
80
330
3D
100
AcDbEntity
  8
428003-032
  6
Continuous
 62
     7
100
AcDbEllipse
 10
6.0403092686
 20
6.4965632394
 30
0.0
 11
-0.08200000000000006
 21
0.0
 31
0.0
210
0.0
220
0.0
230
1.0
 40
0.5773502692
 41
0.0
 42
2.02503344765582
  0
ELLIPSE
  5
81
330
3D
100
AcDbEntity
  8
428003-032
  6
Continuous
 62
     7
100
AcDbEllipse
 10
6.0403092686
 20
6.5220787575
 30
0.0
 11
-0.08199999999999986
 21
1.528040349883821E-16
 31
0.0
210
0.0
220
0.0
230
1.0
 40
0.5773502692
 41
6.281958500727922
 42
6.283185307179586
  0
ELLIPSE
  5
82
330
3D
100
AcDbEntity
  8
428003-032
  6
Continuous
 62
     7
100
AcDbEllipse
 10
6.0403092686
 20
6.5220787575
 30
0.0
 11
-0.08199999999999986
 21
1.528040349883821E-16
 31
0.0
210
0.0
220
0.0
230
1.0
 40
0.5773502692
 41
0.0
 42
1.572023133258374
  0
ELLIPSE
  5
83
330
3D
100
AcDbEntity
  8
428003-032
  6
Continuous
 62
     7
100
AcDbEllipse
 10
7.94242651
 20
7.8371485632
 30
0.0
 11
-0.1659999999999999
 21
3.360219734135703E-17
 31
0.0
210
0.0
220
0.0
230
1.0
 40
0.5773502692
 41
2.519570926726945
 42
5.334410707247528
  0
ELLIPSE
  5
84
330
3D
100
AcDbEntity
  8
428003-032
  6
Continuous
 62
     7
100
AcDbEllipse
 10
7.94242651
 20
7.8371485632
 30
0.0
 11
0.166
 21
2.230544546441139E-16
 31
0.0
210
0.0
220
0.0
230
1.0
 40
0.5773502692
 41
2.519570926726944
 42
5.334410707247534
  0
ARC
  5
85
330
3D
100
AcDbEntity
  8
428003-032
  6
Continuous
 62
     7
100
AcDbCircle
 10
5.6186379842
 20
11.1300923801
 30
0.0
 40
4.154464066072567
100
AcDbArc
 50
306.1491467573
 51
306.2863043649
  0
ELLIPSE
  5
86
330
3D
100
AcDbEntity
  8
428003-032
  6
Continuous
 62
     7
100
AcDbEllipse
 10
7.94242651
 20
7.800406217
 30
0.0
 11
-0.126882096798283
 21
9.309323600913861E-15
 31
0.0
210
0.0
220
0.0
230
1.0
 40
0.5773502692
 41
5.283351553932659
 42
5.355442951331791
  0
ARC
  5
87
330
3D
100
AcDbEntity
  8
428003-032
  6
Continuous
 62
     7
100
AcDbCircle
 10
26.6437105778
 20
17.8668523695
 30
0.0
 40
21.26978478927146
100
AcDbArc
 50
207.897097908
 51
208.0587494347
  0
LINE
  5
88
330
3D
100
AcDbEntity
  8
428003-032
  6
Continuous
 62
     7
100
AcDbLine
 10
7.8075179614
 20
7.8929926423
 30
0.0
 11
8.0391512924
 21
7.7592590763
 31
0.0
  0
LINE
  5
89
330
3D
100
AcDbEntity
  8
428003-032
  6
Continuous
 62
     7
100
AcDbLine
 10
8.0773350585
 20
7.781304484
 30
0.0
 11
7.8457017276
 21
7.91503805
 31
0.0
  0
LINE
  5
8A
330
3D
100
AcDbEntity
  8
428003-032
  6
Continuous
 62
     7
100
AcDbLine
 10
8.0463862051
 20
7.7624304668
 30
0.0
 11
7.8738540717
 21
7.8620419404
 31
0.0
  0
LINE
  5
8C
330
3D
100
AcDbEntity
  8
83800X
  6
Continuous
 62
     7
100
AcDbLine
 10
8.7994399288
 20
5.0598055767
 30
0.0
 11
8.7994399288
 21
5.0439137598
 31
0.0
  0
LINE
  5
8D
330
3D
100
AcDbEntity
  8
83800X
  6
Continuous
 62
     7
100
AcDbLine
 10
8.8740655593
 20
5.1028907045
 30
0.0
 11
8.8984348781
 21
5.0888210718
 31
0.0
  0
LINE
  5
8E
330
3D
100
AcDbEntity
  8
83800X
  6
Continuous
 62
     7
100
AcDbLine
 10
8.4458865382
 20
5.0859334672
 30
0.0
 11
8.4458865382
 21
5.0439137598
 31
0.0
  0
ELLIPSE
  5
8F
330
3D
100
AcDbEntity
  8
83800X
  6
Continuous
 62
     7
100
AcDbEllipse
 10
8.6226632335
 20
4.9418516872
 30
0.0
 11
-0.2500000000000001
 21
-2.561107494060247E-17
 31
0.0
210
0.0
220
0.0
230
1.0
 40
0.5773502692
 41
5.290451148021941
 42
5.497787143782135
  0
ELLIPSE
  5
90
330
3D
100
AcDbEntity
  8
83800X
  6
Continuous
 62
     7
100
AcDbEllipse
 10
8.6226632335
 20
4.9418516872
 30
0.0
 11
-0.2500000000000001
 21
-2.561107494060247E-17
 31
0.0
210
0.0
220
0.0
230
1.0
 40
0.5773502692
 41
3.926990816987244
 42
4.004923364735803
  0
LINE
  5
91
330
3D
100
AcDbEntity
  8
83800X
  6
Continuous
 62
     7
100
AcDbLine
 10
8.7994399288
 20
5.0439137598
 30
0.0
 11
8.8984348781
 21
4.9867589991
 31
0.0
  0
LINE
  5
92
330
3D
100
AcDbEntity
  8
83800X
  6
Continuous
 62
     7
100
AcDbLine
 10
6.1569145169
 20
6.3980344428
 30
0.0
 11
6.1407184315
 21
6.3886836286
 31
0.0
  0
LINE
  5
93
330
3D
100
AcDbEntity
  8
83800X
  6
Continuous
 62
     7
100
AcDbLine
 10
10.4469987289
 20
5.9828848279
 30
0.0
 11
10.4322327459
 21
5.9914099722
 31
0.0
  0
LINE
  5
94
330
3D
100
AcDbEntity
  8
83800X
  6
Continuous
 62
     7
100
AcDbLine
 10
10.4469987289
 20
5.7787606826
 30
0.0
 11
9.0752115734
 21
4.9867589991
 31
0.0
  0
ELLIPSE
  5
95
330
3D
100
AcDbEntity
  8
83800X
  6
Continuous
 62
     7
100
AcDbEllipse
 10
10.3586103813
 20
5.829791719
 30
0.0
 11
-0.1250000000000003
 21
0.0
 31
0.0
210
0.0
220
0.0
230
1.0
 40
0.5773502692
 41
2.356194490192351
 42
3.141592653589793
  0
LINE
  5
96
330
3D
100
AcDbEntity
  8
83800X
  6
Continuous
 62
     7
100
AcDbLine
 10
10.4469987289
 20
5.8808227553
 30
0.0
 11
9.0752115734
 21
5.0888210718
 31
0.0
  0
LINE
  5
97
330
3D
100
AcDbEntity
  8
83800X
  6
Continuous
 62
     7
100
AcDbLine
 10
10.4469987289
 20
5.7787606826
 30
0.0
 11
10.4469987289
 21
5.8808227553
 31
0.0
  0
ELLIPSE
  5
98
330
3D
100
AcDbEntity
  8
83800X
  6
Continuous
 62
     7
100
AcDbEllipse
 10
10.3586103813
 20
5.9318537916
 30
0.0
 11
-0.1250000000000001
 21
-5.459025794462614E-19
 31
0.0
210
0.0
220
0.0
230
1.0
 40
0.5773502692
 41
2.356194490192332
 42
3.926990816987254
  0
LINE
  5
99
330
3D
100
AcDbEntity
  8
83800X
  6
Continuous
 62
     7
100
AcDbLine
 10
9.0752115734
 20
5.0888210718
 30
0.0
 11
9.0752115734
 21
4.9867589991
 31
0.0
  0
ELLIPSE
  5
9A
330
3D
100
AcDbEntity
  8
83800X
  6
Continuous
 62
     7
100
AcDbEllipse
 10
8.9868232258
 20
5.0377900355
 30
0.0
 11
0.1250000000000001
 21
-2.358599921144151E-16
 31
0.0
210
0.0
220
0.0
230
1.0
 40
0.5773502692
 41
3.926990816987235
 42
5.497787143782146
  0
LINE
  5
9B
330
3D
100
AcDbEntity
  8
83800X
  6
Continuous
 62
     7
100
AcDbLine
 10
8.8984348781
 20
4.9867589991
 30
0.0
 11
8.8984348781
 21
5.0888210718
 31
0.0
  0
ELLIPSE
  5
9C
330
3D
100
AcDbEntity
  8
83800X
  6
Continuous
 62
     7
100
AcDbEllipse
 10
8.9868232258
 20
5.1398521081
 30
0.0
 11
-0.125
 21
4.268512490100411E-17
 31
0.0
210
0.0
220
0.0
230
1.0
 40
0.5773502692
 41
0.7853981633974608
 42
2.356194490192353
  0
LINE
  5
9D
330
3D
100
AcDbEntity
  8
83800X
  6
Continuous
 62
     7
100
AcDbLine
 10
8.3695190058
 20
4.9998229444
 30
0.0
 11
8.4458865382
 21
5.0439137598
 31
0.0
  0
LINE
  5
9E
330
3D
100
AcDbEntity
  8
83800X
  6
Continuous
 62
     7
100
AcDbLine
 10
8.3695190058
 20
5.1018850171
 30
0.0
 11
8.3938883246
 21
5.1159546498
 31
0.0
  0
LINE
  5
9F
330
3D
100
AcDbEntity
  8
83800X
  6
Continuous
 62
     7
100
AcDbLine
 10
8.3695190058
 20
5.1018850171
 30
0.0
 11
8.3695190058
 21
4.9998229444
 31
0.0
  0
LINE
  5
A0
330
3D
100
AcDbEntity
  8
83800X
  6
Continuous
 62
     7
100
AcDbLine
 10
8.1927423105
 20
4.9998229444
 30
0.0
 11
6.1407184315
 21
6.1845594834
 31
0.0
  0
ELLIPSE
  5
A1
330
3D
100
AcDbEntity
  8
83800X
  6
Continuous
 62
     7
100
AcDbEllipse
 10
8.2811306582
 20
5.0508539808
 30
0.0
 11
0.1249999999999999
 21
-2.561107494060247E-17
 31
0.0
210
0.0
220
0.0
230
1.0
 40
0.5773502692
 41
3.926990816987252
 42
5.497787143782148
  0
LINE
  5
A2
330
3D
100
AcDbEntity
  8
83800X
  6
Continuous
 62
     7
100
AcDbLine
 10
8.1927423105
 20
5.1018850171
 30
0.0
 11
6.1407184315
 21
6.286621556
 31
0.0
  0
LINE
  5
A3
330
3D
100
AcDbEntity
  8
83800X
  6
Continuous
 62
     7
100
AcDbLine
 10
8.1927423105
 20
4.9998229444
 30
0.0
 11
8.1927423105
 21
5.1018850171
 31
0.0
  0
ELLIPSE
  5
A4
330
3D
100
AcDbEntity
  8
83800X
  6
Continuous
 62
     7
100
AcDbEllipse
 10
8.2811306582
 20
5.1529160534
 30
0.0
 11
-0.1249999999999999
 21
-1.371383022626594E-16
 31
0.0
210
0.0
220
0.0
230
1.0
 40
0.5773502692
 41
0.7853981633974586
 42
2.356194490192353
  0
LINE
  5
A5
330
3D
100
AcDbEntity
  8
83800X
  6
Continuous
 62
     7
100
AcDbLine
 10
6.1407184315
 20
6.286621556
 30
0.0
 11
6.1407184315
 21
6.1845594834
 31
0.0
  0
ELLIPSE
  5
A6
330
3D
100
AcDbEntity
  8
83800X
  6
Continuous
 62
     7
100
AcDbEllipse
 10
6.2291067792
 20
6.2355905197
 30
0.0
 11
0.1249999999999999
 21
1.661990358241929E-16
 31
0.0
210
0.0
220
0.0
230
1.0
 40
0.5773502692
 41
3.141592653589803
 42
3.926990816987242
  0
ELLIPSE
  5
A7
330
3D
100
AcDbEntity
  8
83800X
  6
Continuous
 62
     7
100
AcDbEllipse
 10
6.2291067792
 20
6.3376525923
 30
0.0
 11
0.1249999999999997
 21
-2.842770940996051E-17
 31
0.0
210
0.0
220
0.0
230
1.0
 40
0.5773502692
 41
2.356194490192345
 42
3.926990816987241
  0
LINE
  5
A8
330
3D
100
AcDbEntity
  8
83800X
  6
Continuous
 62
     7
100
AcDbLine
 10
10.4836103813
 20
5.829791719
 30
0.0
 11
10.4836103813
 21
5.9318537916
 31
0.0
  0
LINE
  5
A9
330
3D
100
AcDbEntity
  8
83800X
  6
Continuous
 62
     7
100
AcDbLine
 10
6.1041067792
 20
6.3376525923
 30
0.0
 11
6.1041067792
 21
6.2355905197
 31
0.0
  0
ELLIPSE
  5
AB
330
3D
100
AcDbEntity
  8
81090X
  6
Continuous
 62
     7
100
AcDbEllipse
 10
7.307888822
 20
7.0767337864
 30
0.0
 11
-0.2500000000000001
 21
-8.137468860163094E-17
 31
0.0
210
0.0
220
0.0
230
1.0
 40
0.5773502692
 41
1.452246131811419
 42
1.482215063308403
  0
ELLIPSE
  5
AC
330
3D
100
AcDbEntity
  8
81090X
  6
Continuous
 62
     7
100
AcDbEllipse
 10
7.307888822
 20
7.0767337864
 30
0.0
 11
-0.2500000000000001
 21
-8.137468860163094E-17
 31
0.0
210
0.0
220
0.0
230
1.0
 40
0.5773502692
 41
3.088290825845126
 42
3.141592653589793
  0
ELLIPSE
  5
AD
330
3D
100
AcDbEntity
  8
81090X
  6
Continuous
 62
     7
100
AcDbEllipse
 10
7.307888822
 20
7.1053111668
 30
0.0
 11
-0.2500000000000001
 21
2.526610907850936E-16
 31
0.0
210
0.0
220
0.0
230
1.0
 40
0.5773502692
 41
0.8755201084120438
 42
3.836868871972649
  0
LINE
  5
AE
330
3D
100
AcDbEntity
  8
81090X
  6
Continuous
 62
     7
100
AcDbLine
 10
7.1477394306
 20
6.9944776995
 30
0.0
 11
7.4998580186
 21
7.197773461
 31
0.0
  0
LINE
  5
AF
330
3D
100
AcDbEntity
  8
81090X
  6
Continuous
 62
     7
100
AcDbLine
 10
7.1477394306
 20
6.9944776995
 30
0.0
 11
7.1477394306
 21
6.988894641
 31
0.0
  0
ARC
  5
B0
330
3D
100
AcDbEntity
  8
81090X
  6
Continuous
 62
     7
100
AcDbCircle
 10
3.8779979575
 20
22.6781934204
 30
0.0
 40
16.02446012248832
100
AcDbArc
 50
281.7661598655
 51
281.7736879069
  0
LINE
  5
B1
330
3D
100
AcDbEntity
  8
81090X
  6
Continuous
 62
     7
100
AcDbLine
 10
7.1159196254
 20
7.0062252149
 30
0.0
 11
7.1159196254
 21
7.0128488725
 31
0.0
  0
LINE
  5
B2
330
3D
100
AcDbEntity
  8
81090X
  6
Continuous
 62
     7
100
AcDbLine
 10
7.1159196254
 20
7.0128488725
 30
0.0
 11
7.4680382134
 21
7.2161446341
 31
0.0
  0
ELLIPSE
  5
B3
330
3D
100
AcDbEntity
  8
81090X
  6
Continuous
 62
     7
100
AcDbEllipse
 10
7.307888822
 20
7.1053111668
 30
0.0
 11
0.2500000000000389
 21
2.396175620742123E-14
 31
0.0
210
0.0
220
0.0
230
1.0
 40
0.5773502692
 41
0.8755201084119508
 42
1.308996938995602
  0
ARC
  5
B4
330
3D
100
AcDbEntity
  8
81090X
  6
Continuous
 62
     7
100
AcDbCircle
 10
-19.4502499604
 20
35.5706308963
 30
0.0
 40
39.11767554380818
100
AcDbArc
 50
313.4381685771
 51
313.4827525678
  0
LINE
  5
B5
330
3D
100
AcDbEntity
  8
81090X
  6
Continuous
 62
     7
100
AcDbLine
 10
7.4680382134
 20
7.1875672538
 30
0.0
 11
7.4680382134
 21
7.2161446341
 31
0.0
  0
ELLIPSE
  5
B6
330
3D
100
AcDbEntity
  8
81090X
  6
Continuous
 62
     7
100
AcDbEllipse
 10
7.307888822
 20
7.1053111668
 30
0.0
 11
-0.2499999999999972
 21
1.674650841273390E-16
 31
0.0
210
0.0
220
0.0
230
1.0
 40
0.5773502692
 41
0.2617993877991583
 42
0.6952762183828585
  0
LINE
  5
B7
330
3D
100
AcDbEntity
  8
81090X
  6
Continuous
 62
     7
100
AcDbLine
 10
7.0664073654
 20
7.0536941278
 30
0.0
 11
7.0664073654
 21
7.0679538554
 31
0.0
  0
LINE
  5
B8
330
3D
100
AcDbEntity
  8
81090X
  6
Continuous
 62
     7
100
AcDbLine
 10
7.0664073654
 20
7.0679538554
 30
0.0
 11
7.3725935833
 21
7.2447305507
 31
0.0
  0
LINE
  5
B9
330
3D
100
AcDbEntity
  8
81090X
  6
Continuous
 62
     7
100
AcDbLine
 10
7.557888822
 20
7.0767337864
 30
0.0
 11
7.557888822
 21
7.1053111668
 31
0.0
  0
ELLIPSE
  5
BB
330
3D
100
AcDbEntity
  8
43455M
  6
Continuous
 62
     7
100
AcDbEllipse
 10
8.2825751695
 20
6.5425757417
 30
0.0
 11
1.204500000000001
 21
1.049650438916788E-15
 31
0.0
210
0.0
220
0.0
230
1.0
 40
0.5773502692
 41
2.503636181124046
 42
5.20295733885238
  0
LINE
  5
BC
330
3D
100
AcDbEntity
  8
43455M
  6
Continuous
 62
     7
100
AcDbLine
 10
8.8500479945
 20
5.9291713501
 30
0.0
 11
8.8476022936
 21
5.9085793532
 31
0.0
  0
LINE
  5
BD
330
3D
100
AcDbEntity
  8
43455M
  6
Continuous
 62
     7
100
AcDbLine
 10
9.3450227414
 20
6.2149451534
 30
0.0
 11
9.6363138616
 21
6.0467681467
 31
0.0
  0
ELLIPSE
  5
BE
330
3D
100
AcDbEntity
  8
43455M
  6
Continuous
 62
     7
100
AcDbEllipse
 10
8.2825751695
 20
6.5141006082
 30
0.0
 11
-1.200217916220212
 21
-8.879928668724185E-16
 31
0.0
210
0.0
220
0.0
230
1.0
 40
0.5773502692
 41
2.68263203444946
 42
3.005922233886277
  0
ELLIPSE
  5
BF
330
3D
100
AcDbEntity
  8
43455M
  6
Continuous
 62
     7
100
AcDbEllipse
 10
8.2825751695
 20
6.5141006082
 30
0.0
 11
-1.200217916220212
 21
-8.879928668724185E-16
 31
0.0
210
0.0
220
0.0
230
1.0
 40
0.5773502692
 41
3.005922233886277
 42
3.054661408812666
  0
LINE
  5
C0
330
3D
100
AcDbEntity
  8
43455M
  6
Continuous
 62
     7
100
AcDbLine
 10
9.6363311021
 20
6.0140983297
 30
0.0
 11
9.1979248978
 21
5.7609843896
 31
0.0
  0
ELLIPSE
  5
C1
330
3D
100
AcDbEntity
  8
43455M
  6
Continuous
 62
     7
100
AcDbEllipse
 10
9.6080295903
 20
6.0304382151
 30
0.0
 11
-0.04001219088597906
 21
2.111522605981767E-5
 31
0.0
210
0.0
220
0.0
230
1.0
 40
0.5773500548
 41
2.356803848530511
 42
3.927600175325375
  0
LINE
  5
C2
330
3D
100
AcDbEntity
  8
43455M
  6
Continuous
 62
     7
100
AcDbLine
 10
9.1413391148
 20
5.7609943434
 30
0.0
 11
8.8500479945
 21
5.9291713501
 31
0.0
  0
ELLIPSE
  5
C3
330
3D
100
AcDbEntity
  8
43455M
  6
Continuous
 62
     7
100
AcDbEllipse
 10
9.169623386
 20
5.777324275
 30
0.0
 11
-0.0400121908859792
 21
2.111522606006847E-5
 31
0.0
210
0.0
220
0.0
230
1.0
 40
0.5773500548
 41
0.7860075217355892
 42
2.356803848530511
  0
LINE
  5
C4
330
3D
100
AcDbEntity
  8
43455M
  6
Continuous
 62
     7
100
AcDbLine
 10
9.1979248978
 20
5.7609843896
 30
0.0
 11
9.1967116276
 21
5.7215665191
 31
0.0
  0
LINE
  5
C5
330
3D
100
AcDbEntity
  8
43455M
  6
Continuous
 62
     7
100
AcDbLine
 10
9.6348061644
 20
5.9645547103
 30
0.0
 11
9.6363311021
 21
6.0140983297
 31
0.0
  0
LINE
  5
C6
330
3D
100
AcDbEntity
  8
43455M
  6
Continuous
 62
     7
100
AcDbLine
 10
9.1409687241
 20
5.7489607398
 30
0.0
 11
9.1413391148
 21
5.7609943434
 31
0.0
  0
ELLIPSE
  5
C7
330
3D
100
AcDbEntity
  8
43455M
  6
Continuous
 62
     7
100
AcDbEllipse
 10
8.2825751695
 20
6.5141006082
 30
0.0
 11
1.200217916220216
 21
-5.040689229521295E-15
 31
0.0
210
0.0
220
0.0
230
1.0
 40
0.5773502692
 41
3.228523898366965
 42
3.277548848799787
  0
ELLIPSE
  5
C8
330
3D
100
AcDbEntity
  8
43455M
  6
Continuous
 62
     7
100
AcDbEllipse
 10
8.2825751695
 20
6.5141006082
 30
0.0
 11
1.200217916220216
 21
-5.040689229521295E-15
 31
0.0
210
0.0
220
0.0
230
1.0
 40
0.5773502692
 41
3.277548848799787
 42
4.046462260131139
  0
ELLIPSE
  5
C9
330
3D
100
AcDbEntity
  8
43455M
  6
Continuous
 62
     7
100
AcDbEllipse
 10
8.2825751695
 20
6.5425757417
 30
0.0
 11
-1.204499999999999
 21
1.080348880216660E-15
 31
0.0
210
0.0
220
0.0
230
1.0
 40
0.5773502692
 41
2.651024295122105
 42
5.350345452850437
  0
ELLIPSE
  5
CA
330
3D
100
AcDbEntity
  8
43455M
  6
Continuous
 62
     7
100
AcDbEllipse
 10
7.3078284717
 20
7.1053460101
 30
0.0
 11
0.2575000000000008
 21
-4.722658868082766E-17
 31
0.0
210
0.0
220
0.0
230
1.0
 40
0.5773502692
 41
4.740176718118448
 42
6.255397569445829
  0
LINE
  5
CB
330
3D
100
AcDbEntity
  8
43455M
  6
Continuous
 62
     7
100
AcDbLine
 10
9.4782608928
 20
6.4539377803
 30
0.0
 11
9.4825268068
 21
6.4821982675
 31
0.0
  0
SPLINE
  5
CC
330
3D
100
AcDbEntity
  8
43455M
  6
Continuous
 62
     7
100
AcDbSpline
210
0.0
220
0.0
230
1.0
 70
     8
 71
     3
 72
    17
 73
    13
 74
     0
 42
0.0000000065164399
 43
0.0000000001
 40
0.0
 40
0.0
 40
0.0
 40
0.0
 40
0.0126106467692813
 40
0.0355074285858216
 40
0.058475241298349
 40
0.0815249243680129
 40
0.1046615114109578
 40
0.127884580063082
 40
0.151189121209747
 40
0.1745667339274216
 40
0.198006927177183
 40
0.2209093031720815
 40
0.2209093031720815
 40
0.2209093031720815
 40
0.2209093031720815
 10
7.094136406075245
 20
6.418082383855918
 30
0.0
 10
7.095593744154338
 20
6.411672095432401
 30
0.0
 10
7.099126969410391
 20
6.396351711703812
 30
0.0
 10
7.108056130182047
 20
6.368990015757267
 30
0.0
 10
7.120271215039478
 20
6.338086260906872
 30
0.0
 10
7.134998022854481
 20
6.307279053487822
 30
0.0
 10
7.152000636916924
 20
6.276953525554982
 30
0.0
 10
7.171311363273813
 20
6.247085346966163
 30
0.0
 10
7.19288123865837
 20
6.217763092345912
 30
0.0
 10
7.216673419409443
 20
6.189046041465829
 30
0.0
 10
7.242420479593248
 20
6.161235815380127
 30
0.0
 10
7.26087225436344
 20
6.143267390563919
 30
0.0
 10
7.270308411169637
 20
6.134520310649648
 30
0.0
  0
SPLINE
  5
CD
330
3D
100
AcDbEntity
  8
43455M
  6
Continuous
 62
     7
100
AcDbSpline
210
0.0
220
0.0
230
1.0
 70
     8
 71
     3
 72
    15
 73
    11
 74
     0
 42
0.0000000054354667
 43
0.0000000001
 40
0.2375016249051849
 40
0.2375016249051849
 40
0.2375016249051849
 40
0.2375016249051849
 40
0.2450297032332304
 40
0.2685906108264852
 40
0.292171887603244
 40
0.3157658123632889
 40
0.3393661287558528
 40
0.3629672618685018
 40
0.38656523526098
 40
0.3886070518500053
 40
0.3886070518500053
 40
0.3886070518500053
 40
0.3886070518500053
 10
7.291313353327308
 20
6.115720707988011
 30
0.0
 10
7.294564518172416
 20
6.11290990672885
 30
0.0
 10
7.308129441425628
 20
6.101363394084991
 30
0.0
 10
7.332978727152978
 20
6.08151116057128
 30
0.0
 10
7.367017401562434
 20
6.056753426134628
 30
0.0
 10
7.402896059129203
 20
6.032951419962186
 30
0.0
 10
7.4405358798378
 20
6.010151939061657
 30
0.0
 10
7.479855202995767
 20
5.988398604326217
 30
0.0
 10
7.508314648376106
 20
5.974023333168691
 30
0.0
 10
7.52343252835444
 20
5.966758456145463
 30
0.0
 10
7.524638323286668
 20
5.966181320976189
 30
0.0
  0
ARC
  5
CE
330
3D
100
AcDbEntity
  8
43455M
  6
Continuous
 62
     7
100
AcDbCircle
 10
8.9479417284
 20
6.5514134526
 30
0.0
 40
0.5398996114869542
100
AcDbArc
 50
320.096380176
 51
345.7237728229
  0
LINE
  5
CF
330
3D
100
AcDbEntity
  8
43455M
  6
Continuous
 62
     7
100
AcDbLine
 10
9.6462235538
 20
5.9711465431
 30
0.0
 11
9.6480354669
 21
6.0300136888
 31
0.0
  0
LINE
  5
D0
330
3D
100
AcDbEntity
  8
43455M
  6
Continuous
 62
     7
100
AcDbLine
 10
7.0826235322
 20
6.4821982675
 30
0.0
 11
7.0868894463
 21
6.4539377803
 31
0.0
  0
LINE
  5
D2
330
3D
100
AcDbEntity
  8
43454M
  6
Continuous
 62
     7
100
AcDbLine
 10
6.2098000348
 20
6.2758830502
 30
0.0
 11
8.1657584
 21
5.1466099615
 31
0.0
  0
ELLIPSE
  5
D3
330
3D
100
AcDbEntity
  8
43454M
  6
Continuous
 62
     7
100
AcDbEllipse
 10
6.2988521635
 20
6.3272973207
 30
0.0
 11
0.1254693642877121
 21
0.0008129169522553159
 31
0.0
210
0.0
220
0.0
230
0.9999999999999999
 40
0.5773179535
 41
3.203133324433348
 42
3.919509538426668
  0
ELLIPSE
  5
D4
330
3D
100
AcDbEntity
  8
43454M
  6
Continuous
 62
     7
100
AcDbEllipse
 10
8.2596592677
 20
5.1952248112
 30
0.0
 11
0.1254693642877122
 21
0.0008129169522552021
 31
0.0
210
0.0
220
0.0
230
0.9999999999999999
 40
0.5773179535
 41
4.394289525739996
 42
5.473062918060051
  0
LINE
  5
D5
330
3D
100
AcDbEntity
  8
43454M
  6
Continuous
 62
     7
100
AcDbLine
 10
9.097578292
 20
5.1308802792
 30
0.0
 11
10.382643378
 21
5.8728129525
 31
0.0
  0
ELLIPSE
  5
D6
330
3D
100
AcDbEntity
  8
43454M
  6
Continuous
 62
     7
100
AcDbEllipse
 10
9.0085222573
 20
5.1822922946
 30
0.0
 11
0.1254721408423606
 21
-0.0008128559649233427
 31
0.0
210
0.0
220
0.0
230
0.9999999999999999
 40
0.5772924451
 41
3.951736411504531
 42
5.505289791137915
  0
ELLIPSE
  5
D7
330
3D
100
AcDbEntity
  8
43454M
  6
Continuous
 62
     7
100
AcDbEllipse
 10
10.2935704015
 20
5.9242151865
 30
0.0
 11
-0.1254842782363614
 21
0.0008124268828646862
 31
0.0
210
0.0
220
0.0
230
0.9999999999999999
 40
0.5771818318
 41
2.36378830244368
 42
3.07910652215244
  0
LINE
  5
D8
330
3D
100
AcDbEntity
  8
43454M
  6
Continuous
 62
     7
100
AcDbLine
 10
10.382643378
 20
5.8728129525
 30
0.0
 11
10.3913438901
 21
5.9484979626
 31
0.0
  0
LINE
  5
D9
330
3D
100
AcDbEntity
  8
43454M
  6
Continuous
 62
     7
100
AcDbLine
 10
5.7373513262
 20
6.7277122909
 30
0.0
 11
8.6031804836
 21
5.0731250555
 31
0.0
  0
ELLIPSE
  5
DA
330
3D
100
AcDbEntity
  8
43454M
  6
Continuous
 62
     7
100
AcDbEllipse
 10
5.7807312029
 20
6.7520246071
 30
0.0
 11
0.0608978451872644
 21
2.798605193913001E-16
 31
0.0
210
0.0
220
0.0
230
1.0
 40
0.5688381263
 41
2.363620831664847
 42
3.919564475514713
  0
LINE
  5
DB
330
3D
100
AcDbEntity
  8
43454M
  6
Continuous
 62
     7
100
AcDbLine
 10
5.7373513262
 20
6.7277122909
 30
0.0
 11
5.7544823223
 21
6.6471599387
 31
0.0
  0
LINE
  5
DC
330
3D
100
AcDbEntity
  8
43454M
  6
Continuous
 62
     7
100
AcDbLine
 10
7.8776889261
 20
8.0120614127
 30
0.0
 11
5.7373513262
 21
6.7763369233
 31
0.0
  0
ELLIPSE
  5
DD
330
3D
100
AcDbEntity
  8
43454M
  6
Continuous
 62
     7
100
AcDbEllipse
 10
7.919799093
 20
7.9870160293
 30
0.0
 11
0.06000000000000003
 21
-2.225085520646677E-16
 31
0.0
210
0.0
220
0.0
230
1.0
 40
0.5859897885
 41
0.7928245048699597
 42
2.348768148719817
  0
LINE
  5
DE
330
3D
100
AcDbEntity
  8
43454M
  6
Continuous
 62
     7
100
AcDbLine
 10
10.8277384172
 20
6.3574741773
 30
0.0
 11
7.9619092599
 21
8.0120614127
 31
0.0
  0
ELLIPSE
  5
DF
330
3D
100
AcDbEntity
  8
43454M
  6
Continuous
 62
     7
100
AcDbEllipse
 10
10.7843585405
 20
6.3331618611
 30
0.0
 11
-0.06089784518726498
 21
2.782721657256961E-16
 31
0.0
210
0.0
220
0.0
230
1.0
 40
0.5688381263
 41
2.363620831664864
 42
3.919564475514728
  0
LINE
  5
E0
330
3D
100
AcDbEntity
  8
43454M
  6
Continuous
 62
     7
100
AcDbLine
 10
8.6874008174
 20
5.0731250555
 30
0.0
 11
10.8277384172
 21
6.3088495449
 31
0.0
  0
ELLIPSE
  5
E1
330
3D
100
AcDbEntity
  8
43454M
  6
Continuous
 62
     7
100
AcDbEllipse
 10
8.6452906505
 20
5.098170439
 30
0.0
 11
-0.06000000000000003
 21
2.219626494852214E-16
 31
0.0
210
0.0
220
0.0
230
1.0
 40
0.5859897885
 41
0.7928245048699806
 42
2.348768148719859
  0
LINE
  5
E2
330
3D
100
AcDbEntity
  8
43454M
  6
Continuous
 62
     7
100
AcDbLine
 10
8.6874008174
 20
5.0731250555
 30
0.0
 11
8.6874008174
 21
5.0024632884
 31
0.0
  0
LINE
  5
E3
330
3D
100
AcDbEntity
  8
43454M
  6
Continuous
 62
     7
100
AcDbLine
 10
9.106169086
 20
5.2065019435
 30
0.0
 11
9.097578292
 21
5.1308802792
 31
0.0
  0
ELLIPSE
  5
E4
330
3D
100
AcDbEntity
  8
43454M
  6
Continuous
 62
     7
100
AcDbEllipse
 10
9.0167946864
 20
5.2551115073
 30
0.0
 11
0.1256951543209335
 21
0.001935841893369189
 31
0.0
210
0.0
220
0.0
230
0.9999999999999998
 40
0.5605363889
 41
4.694608332641724
 42
5.494696132338664
  0
LINE
  5
E5
330
3D
100
AcDbEntity
  8
43454M
  6
Continuous
 62
     7
100
AcDbLine
 10
8.6874008174
 20
5.0024632884
 30
0.0
 11
9.0284095672
 21
5.1993447819
 31
0.0
  0
LINE
  5
E6
330
3D
100
AcDbEntity
  8
43454M
  6
Continuous
 62
     7
100
AcDbLine
 10
8.6031804836
 20
5.0024632884
 30
0.0
 11
8.6031804836
 21
5.0731250555
 31
0.0
  0
ELLIPSE
  5
E7
330
3D
100
AcDbEntity
  8
43454M
  6
Continuous
 62
     7
100
AcDbEllipse
 10
8.6452906505
 20
5.0301273153
 30
0.0
 11
-0.0600000000000003
 21
1.803693297431098E-16
 31
0.0
210
0.0
220
0.0
230
1.0
 40
0.647258497
 41
0.7928245048700262
 42
2.348768148719854
  0
ELLIPSE
  5
E8
330
3D
100
AcDbEntity
  8
43454M
  6
Continuous
 62
     7
100
AcDbEllipse
 10
8.2514111971
 20
5.2680299606
 30
0.0
 11
0.1256910944772574
 21
-0.00192671641108734
 31
0.0
210
0.0
220
0.0
230
0.9999999999999999
 40
0.5605244742
 41
4.404843002988744
 42
4.730074215118011
  0
LINE
  5
E9
330
3D
100
AcDbEntity
  8
43454M
  6
Continuous
 62
     7
100
AcDbLine
 10
8.239799508
 20
5.2122613925
 30
0.0
 11
8.6031804836
 21
5.0024632884
 31
0.0
  0
ARC
  5
EA
330
3D
100
AcDbEntity
  8
43454M
  6
Continuous
 62
     7
100
AcDbCircle
 10
9.0746958213
 20
5.1224549447
 30
0.0
 40
0.0897466678343105
100
AcDbArc
 50
69.4704716912
 51
121.0471596797
  0
ARC
  5
EB
330
3D
100
AcDbEntity
  8
43454M
  6
Continuous
 62
     7
100
AcDbCircle
 10
8.1931593243
 20
5.1346852226
 30
0.0
 40
0.0905172296822747
100
AcDbArc
 50
58.9849608887
 51
86.9427855001
  0
ELLIPSE
  5
EC
330
3D
100
AcDbEntity
  8
43454M
  6
Continuous
 62
     7
100
AcDbEllipse
 10
8.2608545914
 20
5.2274027277
 30
0.0
 11
0.01500000000000005
 21
0.02598076211353353
 31
0.0
210
0.0
220
0.0
230
1.0
 40
0.5773502692
 41
2.478367537831961
 42
3.141592653589793
  0
ELLIPSE
  5
ED
330
3D
100
AcDbEntity
  8
43454M
  6
Continuous
 62
     7
100
AcDbEllipse
 10
8.624235567
 20
5.0176046236
 30
0.0
 11
0.01499999999999996
 21
0.02598076211353365
 31
0.0
210
0.0
220
0.0
230
1.0
 40
0.5773502692
 41
2.478367537831914
 42
3.142412831478644
  0
ARC
  5
EE
330
3D
100
AcDbEntity
  8
43454M
  6
Continuous
 62
     7
100
AcDbCircle
 10
8.1737710924
 20
4.8384346604
 30
0.0
 40
0.374732207462346
100
AcDbArc
 50
82.5900307508
 51
85.0010112977
  0
ELLIPSE
  5
EF
330
3D
100
AcDbEntity
  8
43454M
  6
Continuous
 62
     7
100
AcDbEllipse
 10
8.6663457339
 20
5.0176046236
 30
0.0
 11
-0.01500000000000006
 21
0.02598076211353337
 31
0.0
210
0.0
220
0.0
230
1.0
 40
0.5773502692
 41
3.140721469195242
 42
3.80481776934766
  0
ELLIPSE
  5
F0
330
3D
100
AcDbEntity
  8
43454M
  6
Continuous
 62
     7
100
AcDbEllipse
 10
9.0073544838
 20
5.2144861171
 30
0.0
 11
-0.01500000000000012
 21
0.02598076211353366
 31
0.0
210
0.0
220
0.0
230
1.0
 40
0.5773502692
 41
3.141592653589793
 42
3.804817769347632
  0
SPLINE
  5
F1
330
3D
100
AcDbEntity
  8
43454M
  6
Continuous
 62
     7
100
AcDbSpline
210
0.0
220
0.0
230
1.0
 70
     8
 71
     3
 72
    12
 73
     8
 74
     0
 42
0.0000001052961738
 43
0.0000000001
 40
0.0
 40
0.0
 40
0.0
 40
0.0
 40
0.25
 40
0.25
 40
0.5
 40
0.5
 40
0.6424506707696123
 40
0.6424506707696123
 40
0.6424506707696123
 40
0.6424506707696123
 10
9.106169085973061
 20
5.20650194345754
 30
0.0
 10
9.099513192681828
 20
5.2047557730955
 30
0.0
 10
9.092273060351049
 20
5.203263246766379
 30
0.0
 10
9.077044993644797
 20
5.200732420747299
 30
0.0
 10
9.069005988854192
 20
5.199687525485102
 30
0.0
 10
9.055818970458343
 20
5.1981123552771
 30
0.0
 10
9.050933272790038
 20
5.197557655364398
 30
0.0
 10
9.045971526081967
 20
5.196950501055738
 30
0.0
  0
LINE
  5
F2
330
3D
100
AcDbEntity
  8
43454M
  6
Continuous
 62
     7
100
AcDbLine
 10
6.2012345367
 20
6.3514901099
 30
0.0
 11
6.2098000348
 21
6.2758830502
 31
0.0
  0
ELLIPSE
  5
F3
330
3D
100
AcDbEntity
  8
43454M
  6
Continuous
 62
     7
100
AcDbEllipse
 10
6.2906040929
 20
6.4001024701
 30
0.0
 11
0.1256910944772578
 21
-0.001926716411088039
 31
0.0
210
0.0
220
0.0
230
1.0
 40
0.5605244742
 41
3.394538840200852
 42
3.930063015675429
  0
ELLIPSE
  5
F4
330
3D
100
AcDbEntity
  8
43454M
  6
Continuous
 62
     7
100
AcDbEllipse
 10
5.7972273441
 20
6.6744574319
 30
0.0
 11
0.05989956516927227
 21
0.006251492149978874
 31
0.0
210
0.0
220
0.0
230
1.0
 40
0.5731094183
 41
3.202239833537506
 42
3.859822379904583
  0
LINE
  5
F5
330
3D
100
AcDbEntity
  8
43454M
  6
Continuous
 62
     7
100
AcDbLine
 10
5.7544823223
 20
6.6471599387
 30
0.0
 11
6.114327764
 21
6.4394030761
 31
0.0
  0
ARC
  5
F6
330
3D
100
AcDbEntity
  8
43454M
  6
Continuous
 62
     7
100
AcDbCircle
 10
5.9263504817
 20
6.1666647261
 30
0.0
 40
0.3312426092708464
100
AcDbArc
 50
33.9159310591
 51
55.4245323867
  0
ELLIPSE
  5
F7
330
3D
100
AcDbEntity
  8
43454M
  6
Continuous
 62
     7
100
AcDbEllipse
 10
5.7755374058
 20
6.6623012738
 30
0.0
 11
0.01499999999999957
 21
0.02598076211353326
 31
0.0
210
0.0
220
0.0
230
1.0
 40
0.5773502692
 41
2.478367537832
 42
3.141592653589687
  0
ELLIPSE
  5
F8
330
3D
100
AcDbEntity
  8
43454M
  6
Continuous
 62
     7
100
AcDbEllipse
 10
6.1353828475
 20
6.4545444112
 30
0.0
 11
0.01500000000000015
 21
0.02598076211353369
 31
0.0
210
0.0
220
0.0
230
1.0
 40
0.5773502692
 41
2.478367537831977
 42
3.150011643569267
  0
SPLINE
  5
F9
330
3D
100
AcDbEntity
  8
43454M
  6
Continuous
 62
     7
100
AcDbSpline
210
0.0
220
0.0
230
1.0
 70
     8
 71
     3
 72
    10
 73
     6
 74
     0
 42
0.000000090231655
 43
0.0000000001
 40
0.0
 40
0.0
 40
0.0
 40
0.0
 40
0.25
 40
0.25
 40
0.3522272189067186
 40
0.3522272189067186
 40
0.3522272189067186
 40
0.3522272189067186
 10
6.201234536727163
 20
6.351490109855297
 30
0.0
 10
6.194070475894641
 20
6.357722856527857
 30
0.0
 10
6.187358795202294
 20
6.36428535896928
 30
0.0
 10
6.178676399302947
 20
6.373708752323443
 30
0.0
 10
6.176239096946102
 20
6.376473925131371
 30
0.0
 10
6.173875158474783
 20
6.379259892581322
 30
0.0
  0
ELLIPSE
  5
FA
330
3D
100
AcDbEntity
  8
43454M
  6
Continuous
 62
     7
100
AcDbEllipse
 10
10.3019484827
 20
5.9970953976
 30
0.0
 11
-0.1257128984647424
 21
-0.001975655673690298
 31
0.0
210
0.0
220
0.0
230
1.0
 40
0.5605880281
 41
2.353019736417061
 42
2.873337426841926
  0
LINE
  5
FB
330
3D
100
AcDbEntity
  8
43454M
  6
Continuous
 62
     7
100
AcDbLine
 10
10.8106074211
 20
6.2282971927
 30
0.0
 11
10.8277384172
 21
6.3088495449
 31
0.0
  0
LINE
  5
FC
330
3D
100
AcDbEntity
  8
43454M
  6
Continuous
 62
     7
100
AcDbLine
 10
10.4782420273
 20
6.0364059431
 30
0.0
 11
10.8106074211
 21
6.2282971927
 31
0.0
  0
ELLIPSE
  5
FD
330
3D
100
AcDbEntity
  8
43454M
  6
Continuous
 62
     7
100
AcDbEllipse
 10
10.7678623994
 20
6.2555946859
 30
0.0
 11
-0.05989956516927285
 21
0.006251492149978949
 31
0.0
210
0.0
220
0.0
230
0.9999999999999999
 40
0.5731094183
 41
2.423362927274997
 42
3.080945473643227
  0
ARC
  5
FE
330
3D
100
AcDbEntity
  8
43454M
  6
Continuous
 62
     7
100
AcDbCircle
 10
10.6662073219
 20
5.763695963
 30
0.0
 40
0.3312124472651616
100
AcDbArc
 50
124.5765451872
 51
146.0854352408
  0
ELLIPSE
  5
FF
330
3D
100
AcDbEntity
  8
43454M
  6
Continuous
 62
     7
100
AcDbEllipse
 10
10.7895523377
 20
6.2434385278
 30
0.0
 11
-0.01500000000000073
 21
0.02598076211353314
 31
0.0
210
0.0
220
0.0
230
1.0
 40
0.5773502692
 41
3.141592653589793
 42
3.804817769347652
  0
ELLIPSE
  5
100
330
3D
100
AcDbEntity
  8
43454M
  6
Continuous
 62
     7
100
AcDbEllipse
 10
10.4571869438
 20
6.0515472782
 30
0.0
 11
-0.01499999999999938
 21
0.02598076211353336
 31
0.0
210
0.0
220
0.0
230
1.0
 40
0.5773502692
 41
3.138179128496366
 42
3.804817769347746
  0
SPLINE
  5
101
330
3D
100
AcDbEntity
  8
43454M
  6
Continuous
 62
     7
100
AcDbSpline
210
0.0
220
0.0
230
1.0
 70
     8
 71
     3
 72
    10
 73
     6
 74
     0
 42
0.0000000902481511
 43
0.0000000001
 40
0.6468048523850449
 40
0.6468048523850449
 40
0.6468048523850449
 40
0.6468048523850449
 40
0.75
 40
0.75
 40
1.0
 40
1.0
 40
1.0
 40
1.0
 10
10.4187676411078
 20
5.976344420571339
 30
0.0
 10
10.41638301100271
 20
5.973531888379452
 30
0.0
 10
10.41392369807465
 20
5.970740469778729
 30
0.0
 10
10.40521835747055
 20
5.961291987615235
 30
0.0
 10
10.39850728401049
 20
5.954730126247175
 30
0.0
 10
10.39134389006328
 20
5.948497962554753
 30
0.0
  0
LINE
  5
102
330
3D
100
AcDbEntity
  8
43454M
  6
Continuous
 62
     7
100
AcDbLine
 10
9.3749049915
 20
6.209940077
 30
0.0
 11
9.6961523358
 21
6.0244678362
 31
0.0
  0
ELLIPSE
  5
103
330
3D
100
AcDbEntity
  8
43454M
  6
Continuous
 62
     7
100
AcDbEllipse
 10
8.2825448717
 20
6.5425932341
 30
0.0
 11
-1.235000000000003
 21
-4.837066678299621E-16
 31
0.0
210
0.0
220
0.0
230
1.0
 40
0.5773502692
 41
2.656222074353364
 42
3.781010240123189
  0
ELLIPSE
  5
104
330
3D
100
AcDbEntity
  8
43454M
  6
Continuous
 62
     7
100
AcDbEllipse
 10
8.2825448717
 20
6.5425932341
 30
0.0
 11
-1.234999999999999
 21
-1.253258618057810E-17
 31
0.0
210
0.0
220
0.0
230
1.0
 40
0.5773502692
 41
0.9313787402614961
 42
2.056166906031324
  0
ELLIPSE
  5
105
330
3D
100
AcDbEntity
  8
43454M
  6
Continuous
 62
     7
100
AcDbEllipse
 10
7.4623010056
 20
6.0690252172
 30
0.0
 11
0.1900000000000003
 21
-1.672908409830854E-16
 31
0.0
210
0.0
220
0.0
230
1.0
 40
0.5773502692
 41
2.687841976432941
 42
5.166139657541554
  0
ELLIPSE
  5
106
330
3D
100
AcDbEntity
  8
43454M
  6
Continuous
 62
     7
100
AcDbEllipse
 10
8.2825448717
 20
6.5425932341
 30
0.0
 11
1.235
 21
3.317650474968128E-16
 31
0.0
210
0.0
220
0.0
230
1.0
 40
0.5773502692
 41
0.931378740261496
 42
2.192071242308281
  0
ELLIPSE
  5
107
330
3D
100
AcDbEntity
  8
43454M
  6
Continuous
 62
     7
100
AcDbEllipse
 10
9.1027887379
 20
7.016161251
 30
0.0
 11
-0.1900000000000003
 21
-2.441240658048928E-16
 31
0.0
210
0.0
220
0.0
230
1.0
 40
0.5773502692
 41
2.687841976432908
 42
5.166139657541553
  0
LINE
  5
108
330
3D
100
AcDbEntity
  8
43454M
  6
Continuous
 62
     7
100
AcDbLine
 10
9.0195041848
 20
7.1147575377
 30
0.0
 11
9.0195041848
 21
7.0926532745
 31
0.0
  0
LINE
  5
109
330
3D
100
AcDbEntity
  8
43454M
  6
Continuous
 62
     7
100
AcDbLine
 10
9.6961523358
 20
5.9999729388
 30
0.0
 11
9.6961523358
 21
6.0244678362
 31
0.0
  0
LINE
  5
10A
330
3D
100
AcDbEntity
  8
43454M
  6
Continuous
 62
     7
100
AcDbLine
 10
9.6961523358
 20
5.9999729388
 30
0.0
 11
9.2223907924
 21
5.7264465842
 31
0.0
  0
LINE
  5
10B
330
3D
100
AcDbEntity
  8
43454M
  6
Continuous
 62
     7
100
AcDbLine
 10
9.1799643855
 20
5.7264465842
 30
0.0
 11
8.8587170412
 21
5.9119188249
 31
0.0
  0
ELLIPSE
  5
10C
330
3D
100
AcDbEntity
  8
43454M
  6
Continuous
 62
     7
100
AcDbEllipse
 10
9.6749391324
 20
6.0122203875
 30
0.0
 11
-0.03000000000000012
 21
-1.672661639467180E-16
 31
0.0
210
0.0
220
0.0
230
1.0
 40
0.5773502692
 41
2.356194490192353
 42
3.926990816987227
  0
ELLIPSE
  5
10D
330
3D
100
AcDbEntity
  8
43454M
  6
Continuous
 62
     7
100
AcDbEllipse
 10
9.201177589
 20
5.7386940329
 30
0.0
 11
0.03000000000000026
 21
-2.774533118565268E-17
 31
0.0
210
0.0
220
0.0
230
1.0
 40
0.5773502692
 41
3.926990816987236
 42
5.497787143782145
  0
ELLIPSE
  5
10E
330
3D
100
AcDbEntity
  8
43454M
  6
Continuous
 62
     7
100
AcDbEllipse
 10
8.2825448717
 20
6.4854384734
 30
0.0
 11
1.205000000000001
 21
-3.192324613162347E-16
 31
0.0
210
0.0
220
0.0
230
1.0
 40
0.5773502692
 41
3.095154711913605
 42
3.410565520093479
  0
ELLIPSE
  5
10F
330
3D
100
AcDbEntity
  8
43454M
  6
Continuous
 62
     7
100
AcDbEllipse
 10
8.2825448717
 20
6.4854384734
 30
0.0
 11
1.205000000000001
 21
-3.192324613162347E-16
 31
0.0
210
0.0
220
0.0
230
1.0
 40
0.5773502692
 41
3.746734730476341
 42
3.797031026596506
  0
ELLIPSE
  5
110
330
3D
100
AcDbEntity
  8
43454M
  6
Continuous
 62
     7
100
AcDbEllipse
 10
9.1027887379
 20
6.9590064904
 30
0.0
 11
-0.1600000000000002
 21
7.683322482180741E-17
 31
0.0
210
0.0
220
0.0
230
1.0
 40
0.5773502692
 41
3.018817979777119
 42
4.706977720843431
  0
ELLIPSE
  5
111
330
3D
100
AcDbEntity
  8
43454M
  6
Continuous
 62
     7
100
AcDbEllipse
 10
7.4623010056
 20
6.0118704565
 30
0.0
 11
0.1600000000000003
 21
1.115272273220570E-16
 31
0.0
210
0.0
220
0.0
230
1.0
 40
0.5773502692
 41
2.575692559706739
 42
3.163691539162626
  0
ELLIPSE
  5
112
330
3D
100
AcDbEntity
  8
43454M
  6
Continuous
 62
     7
100
AcDbEllipse
 10
8.2825448717
 20
6.4854384734
 30
0.0
 11
-1.205000000000004
 21
-5.087718401911184E-16
 31
0.0
210
0.0
220
0.0
230
1.0
 40
0.5773502692
 41
2.872619787086229
 42
3.187418299977705
  0
LINE
  5
113
330
3D
100
AcDbEntity
  8
43454M
  6
Continuous
 62
     7
100
AcDbLine
 10
9.2735625158
 20
6.937866491
 30
0.0
 11
9.2735625158
 21
6.9680768919
 31
0.0
  0
LINE
  5
114
330
3D
100
AcDbEntity
  8
43454M
  6
Continuous
 62
     7
100
AcDbLine
 10
9.3749049915
 20
6.1976926283
 30
0.0
 11
9.3749049915
 21
6.209940077
 31
0.0
  0
ELLIPSE
  5
115
330
3D
100
AcDbEntity
  8
43454M
  6
Continuous
 62
     7
100
AcDbEllipse
 10
8.2825448717
 20
6.5099333709
 30
0.0
 11
-1.235
 21
-1.115272273220570E-16
 31
0.0
210
0.0
220
0.0
230
1.0
 40
0.5773502692
 41
3.202455500504665
 42
3.730245155033017
  0
ELLIPSE
  5
116
330
3D
100
AcDbEntity
  8
43454M
  6
Continuous
 62
     7
100
AcDbEllipse
 10
8.2825448717
 20
6.5099333709
 30
0.0
 11
-1.235
 21
-1.115272273220570E-16
 31
0.0
210
0.0
220
0.0
230
1.0
 40
0.5773502692
 41
3.164496900074512
 42
3.202455500504665
  0
LINE
  5
117
330
3D
100
AcDbEntity
  8
43454M
  6
Continuous
 62
     7
100
AcDbLine
 10
7.2915272277
 20
6.0844497131
 30
0.0
 11
7.2915272277
 21
6.1171095763
 31
0.0
  0
ELLIPSE
  5
118
330
3D
100
AcDbEntity
  8
43454M
  6
Continuous
 62
     7
100
AcDbEllipse
 10
7.4623010056
 20
6.0363653539
 30
0.0
 11
0.1900000000000003
 21
-1.672908409830854E-16
 31
0.0
210
0.0
220
0.0
230
1.0
 40
0.5773502692
 41
2.687841976432941
 42
2.992172688611899
  0
ELLIPSE
  5
119
330
3D
100
AcDbEntity
  8
43454M
  6
Continuous
 62
     7
100
AcDbEllipse
 10
9.1027887379
 20
6.9835013878
 30
0.0
 11
-0.1900000000000004
 21
-4.068734430081547E-16
 31
0.0
210
0.0
220
0.0
230
1.0
 40
0.5773502692
 41
3.291012618567155
 42
5.08020512075792
  0
ELLIPSE
  5
11A
330
3D
100
AcDbEntity
  8
43454M
  6
Continuous
 62
     7
100
AcDbEllipse
 10
8.2825448717
 20
6.5099333709
 30
0.0
 11
1.235000000000001
 21
-2.731847993664263E-16
 31
0.0
210
0.0
220
0.0
230
1.0
 40
0.5773502692
 41
3.083019861606147
 42
3.118688407105113
  0
ELLIPSE
  5
11B
330
3D
100
AcDbEntity
  8
43454M
  6
Continuous
 62
     7
100
AcDbEllipse
 10
8.2825448717
 20
6.5099333709
 30
0.0
 11
1.235000000000001
 21
-2.731847993664263E-16
 31
0.0
210
0.0
220
0.0
230
1.0
 40
0.5773502692
 41
2.551868389371768
 42
3.083019861606147
  0
SPLINE
  5
11C
330
3D
100
AcDbEntity
  8
43454M
  6
Continuous
 62
     7
100
AcDbSpline
210
0.0
220
0.0
230
1.0
 70
     8
 71
     3
 72
    12
 73
     8
 74
     0
 42
0.0000002096123349
 43
0.0000000001
 40
0.0
 40
0.0
 40
0.0
 40
0.0
 40
0.5
 40
0.5
 40
0.75
 40
0.75
 40
1.0
 40
1.0
 40
1.0
 40
1.0
 10
7.327243992140789
 20
6.061400256042718
 30
0.0
 10
7.318650962506112
 20
6.061177133836091
 30
0.0
 10
7.309906342562886
 20
6.06289990534714
 30
0.0
 10
7.299625085808649
 20
6.068890993769311
 30
0.0
 10
7.296708641023209
 20
6.071457423231707
 30
0.0
 10
7.292657915253065
 20
6.077451205788823
 30
0.0
 10
7.291527227664037
 20
6.080883817409159
 30
0.0
 10
7.291527227664037
 20
6.084449713079851
 30
0.0
  0
ELLIPSE
  5
11D
330
3D
100
AcDbEntity
  8
43454M
  6
Continuous
 62
     7
100
AcDbEllipse
 10
6.0403092686
 20
6.7389606618
 30
0.0
 11
-0.1660000000000001
 21
2.788180683051424E-17
 31
0.0
210
0.0
220
0.0
230
1.0
 40
0.5773502692
 41
0.0
 42
6.283185307179586
  0
ELLIPSE
  5
11E
330
3D
100
AcDbEntity
  8
43454M
  6
Continuous
 62
     7
100
AcDbEllipse
 10
10.5247804749
 20
6.3462258064
 30
0.0
 11
-0.166
 21
1.667449384036392E-16
 31
0.0
210
0.0
220
0.0
230
1.0
 40
0.5773502692
 41
0.0
 42
6.283185307179586
  0
ELLIPSE
  5
11F
330
3D
100
AcDbEntity
  8
43454M
  6
Continuous
 62
     7
100
AcDbEllipse
 10
8.6226632335
 20
5.248037905
 30
0.0
 11
-0.1660000000000001
 21
0.0
 31
0.0
210
0.0
220
0.0
230
1.0
 40
0.5773502692
 41
0.0
 42
6.283185307179586
  0
ELLIPSE
  5
120
330
3D
100
AcDbEntity
  8
43454M
  6
Continuous
 62
     7
100
AcDbEllipse
 10
7.94242651
 20
7.8371485632
 30
0.0
 11
-0.1660000000000001
 21
1.707404996040165E-17
 31
0.0
210
0.0
220
0.0
230
1.0
 40
0.5773502692
 41
0.0
 42
6.283185307179586
  0
ELLIPSE
  5
121
330
3D
100
AcDbEntity
  8
43454M
  6
Continuous
 62
     7
100
AcDbEllipse
 10
8.2825448717
 20
6.5425932341
 30
0.0
 11
1.234999999999997
 21
1.115272273220570E-16
 31
0.0
210
0.0
220
0.0
230
1.0
 40
0.5773502692
 41
2.520317738076408
 42
3.781010240123195
  0
LINE
  5
122
330
3D
100
AcDbEntity
  8
43454M
  6
Continuous
 62
     7
100
AcDbLine
 10
7.2783206463
 20
6.9265432327
 30
0.0
 11
7.2783206463
 21
6.9576268492
 31
0.0
  0
LINE
  5
123
330
3D
100
AcDbEntity
  8
43454M
  6
Continuous
 62
     7
100
AcDbLine
 10
7.5636855636
 20
7.122382361
 30
0.0
 11
7.5636855636
 21
7.0897224978
 31
0.0
  0
ELLIPSE
  5
124
330
3D
100
AcDbEntity
  8
43454M
  6
Continuous
 62
     7
100
AcDbEllipse
 10
7.307888822
 20
7.0726513035
 30
0.0
 11
0.2575000000000005
 21
-4.882481316097856E-16
 31
0.0
210
0.0
220
0.0
230
1.0
 40
0.5773502692
 41
0.1150817187878163
 42
0.2428742801341475
  0
ELLIPSE
  5
125
330
3D
100
AcDbEntity
  8
43454M
  6
Continuous
 62
     7
100
AcDbEllipse
 10
7.307888822
 20
7.0726513035
 30
0.0
 11
0.2575000000000005
 21
-4.882481316097856E-16
 31
0.0
210
0.0
220
0.0
230
1.0
 40
0.5773502692
 41
0.8534117530780652
 42
0.8995793954663961
  0
ELLIPSE
  5
126
330
3D
100
AcDbEntity
  8
43454M
  6
Continuous
 62
     7
100
AcDbEllipse
 10
7.307888822
 20
7.0726513035
 30
0.0
 11
0.2575000000000005
 21
-4.882481316097856E-16
 31
0.0
210
0.0
220
0.0
230
1.0
 40
0.5773502692
 41
1.480907688501094
 42
3.031528737819657
  0
ELLIPSE
  5
127
330
3D
100
AcDbEntity
  8
43454M
  6
Continuous
 62
     7
100
AcDbEllipse
 10
7.307888822
 20
7.1053111668
 30
0.0
 11
0.2575000000000002
 21
-3.340357793867246E-16
 31
0.0
210
0.0
220
0.0
230
1.0
 40
0.5773502692
 41
0.1150817187878037
 42
4.597307261596884
  0
SPLINE
  5
128
330
3D
100
AcDbEntity
  8
43454M
  6
Continuous
 62
     7
100
AcDbSpline
210
0.0
220
0.0
230
1.0
 70
     8
 71
     3
 72
     8
 73
     4
 74
     0
 42
0.0000000255455668
 43
0.0000000001
 40
0.0
 40
0.0
 40
0.0
 40
0.0
 40
0.0185947671671694
 40
0.0185947671671694
 40
0.0185947671671694
 40
0.0185947671671694
 10
7.563685563553398
 20
7.089722497778455
 30
0.0
 10
7.561688708820356
 20
7.088327424095594
 30
0.0
 10
7.559710054640716
 20
7.086923010961259
 30
0.0
 10
7.557749063910908
 20
7.085510511561993
 30
0.0
  0
ARC
  5
129
330
3D
100
AcDbEntity
  8
43454M
  6
Continuous
 62
     7
100
AcDbCircle
 10
8.2582276556
 20
5.246690203
 30
0.0
 40
0.0640017650212057
100
AcDbArc
 50
199.7398329136
 51
207.5856690038
  0
ELLIPSE
  5
12A
330
3D
100
AcDbEntity
  8
43454M
  6
Continuous
 62
     7
100
AcDbEllipse
 10
8.1775330925
 20
5.2293422654
 30
0.0
 11
0.01861491726960213
 21
-0.02616085206135675
 31
0.0
210
0.0
220
0.0
230
1.0
 40
0.503068139
 41
1.07281277866523
 42
3.879172236410592
  0
LINE
  5
12B
330
3D
100
AcDbEntity
  8
43454M
  6
Continuous
 62
     7
100
AcDbLine
 10
8.1657584
 20
5.1466099615
 30
0.0
 11
8.2153063994
 21
5.1752165123
 31
0.0
  0
LINE
  5
12C
330
3D
100
AcDbEntity
  8
43454M
  6
Continuous
 62
     7
100
AcDbLine
 10
8.1549056756
 20
5.2424062107
 30
0.0
 11
8.1747547951
 21
5.2538661052
 31
0.0
  0
LINE
  5
12D
330
3D
100
AcDbEntity
  8
43454M
  6
Continuous
 62
     7
100
AcDbLine
 10
8.1549056756
 20
5.2424062107
 30
0.0
 11
8.1657584
 21
5.1466099615
 31
0.0
  0
LINE
  5
12E
330
3D
100
AcDbEntity
  8
43454M
  6
Continuous
 62
     7
100
AcDbLine
 10
8.2208629943
 20
5.1261688327
 30
0.0
 11
8.2123326058
 21
5.2014659823
 31
0.0
  0
LINE
  5
12F
330
3D
100
AcDbEntity
  8
43454M
  6
Continuous
 62
     7
100
AcDbLine
 10
8.2064245672
 20
5.2117414751
 30
0.0
 11
8.2015016476
 21
5.2170526266
 31
0.0
  0
ARC
  5
130
330
3D
100
AcDbEntity
  8
43454M
  6
Continuous
 62
     7
100
AcDbCircle
 10
8.1992569446
 20
5.2007841488
 30
0.0
 40
0.0130934263723804
100
AcDbArc
 50
2.9849987249
 51
56.8097062478
  0
LINE
  5
131
330
3D
100
AcDbEntity
  8
43454M
  6
Continuous
 62
     7
100
AcDbLine
 10
6.1661634625
 20
6.3881069244
 30
0.0
 11
6.1736491799
 21
6.3220310132
 31
0.0
  0
LINE
  5
132
330
3D
100
AcDbEntity
  8
43454M
  6
Continuous
 62
     7
100
AcDbLine
 10
10.4187804999
 20
5.9188815913
 30
0.0
 11
10.42638017
 21
5.9849904713
 31
0.0
  0
LINE
  5
133
330
3D
100
AcDbEntity
  8
43454M
  6
Continuous
 62
     7
100
AcDbLine
 10
5.7202741388
 20
6.747864267
 30
0.0
 11
5.7376550558
 21
6.6661367517
 31
0.0
  0
LINE
  5
134
330
3D
100
AcDbEntity
  8
43454M
  6
Continuous
 62
     7
100
AcDbLine
 10
10.8274346877
 20
6.2472740057
 30
0.0
 11
10.8448156047
 21
6.329001521
 31
0.0
  0
LINE
  5
135
330
3D
100
AcDbEntity
  8
43454M
  6
Continuous
 62
     7
100
AcDbLine
 10
8.2458545914
 20
5.2014219655
 30
0.0
 11
8.609235567
 21
4.9916238615
 31
0.0
  0
ARC
  5
136
330
3D
100
AcDbEntity
  8
43454M
  6
Continuous
 62
     7
100
AcDbCircle
 10
8.2154331677
 20
5.1532267441
 30
0.0
 40
0.0568849450158616
100
AcDbArc
 50
57.6070227259
 51
83.5907711721
  0
ARC
  5
137
330
3D
100
AcDbEntity
  8
43454M
  6
Continuous
 62
     7
100
AcDbCircle
 10
8.6452906505
 20
5.0585395196
 30
0.0
 40
0.0760110146604715
100
AcDbArc
 50
241.6835977633
 51
298.3164022367
  0
LINE
  5
138
330
3D
100
AcDbEntity
  8
43454M
  6
Continuous
 62
     7
100
AcDbLine
 10
8.6813457339
 20
4.9916238615
 30
0.0
 11
9.0223544838
 21
5.188505355
 31
0.0
  0
ARC
  5
139
330
3D
100
AcDbEntity
  8
43454M
  6
Continuous
 62
     7
100
AcDbCircle
 10
9.0530389216
 20
5.1397071606
 30
0.0
 40
0.0575344577279599
100
AcDbArc
 50
96.5824542847
 51
122.2865276419
  0
LINE
  5
13A
330
3D
100
AcDbEntity
  8
43454M
  6
Continuous
 62
     7
100
AcDbLine
 10
5.7605374058
 20
6.6363205117
 30
0.0
 11
6.1203828475
 21
6.4285636491
 31
0.0
  0
ARC
  5
13B
330
3D
100
AcDbEntity
  8
43454M
  6
Continuous
 62
     7
100
AcDbCircle
 10
5.7821722541
 20
6.6765209112
 30
0.0
 40
0.0456523688488732
100
AcDbArc
 50
192.7859297734
 51
241.711974912
  0
ARC
  5
13C
330
3D
100
AcDbEntity
  8
43454M
  6
Continuous
 62
     7
100
AcDbCircle
 10
6.0009416397
 20
6.2452778106
 30
0.0
 40
0.2186786686384782
100
AcDbArc
 50
37.7226347396
 51
56.874729154
  0
ARC
  5
13D
330
3D
100
AcDbEntity
  8
43454M
  6
Continuous
 62
     7
100
AcDbCircle
 10
10.7833898311
 20
6.257086924
 30
0.0
 40
0.0449257372938011
100
AcDbArc
 50
298.1028201447
 51
347.5142494768
  0
LINE
  5
13E
330
3D
100
AcDbEntity
  8
43454M
  6
Continuous
 62
     7
100
AcDbLine
 10
10.4721869438
 20
6.0255665161
 30
0.0
 11
10.8045523377
 21
6.2174577657
 31
0.0
  0
ARC
  5
13F
330
3D
100
AcDbEntity
  8
43454M
  6
Continuous
 62
     7
100
AcDbCircle
 10
10.5913861761
 20
5.8428059846
 30
0.0
 40
0.2181497766031104
100
AcDbArc
 50
123.1313892934
 51
142.3151434245
  0
ENDBLK
  5
141
330
3D
100
AcDbEntity
  8
0
100
AcDbBlockEnd
  0
BLOCK
  5
1A3
330
142
100
AcDbEntity
  8
0
100
AcDbBlockBegin
  2
SE1
 70
     0
 71
     0
 10
0.0
 20
0.0
 30
0.0
  3
SE1
  1

  0
ARC
  5
144
330
142
100
AcDbEntity
  8
428003-032
  6
Continuous
 62
     7
100
AcDbCircle
 10
4.6161272741
 20
4.7158551464
 30
0.0
 40
0.1660000000000001
100
AcDbArc
 50
9.3607802853
 51
170.6392197147
  0
ARC
  5
145
330
142
100
AcDbEntity
  8
428003-032
  6
Continuous
 62
     7
100
AcDbCircle
 10
4.6161272741
 20
4.7158551464
 30
0.0
 40
0.1660000000000001
100
AcDbArc
 50
189.3607802853
 51
350.6392197147
  0
ARC
  5
146
330
142
100
AcDbEntity
  8
428003-032
  6
Continuous
 62
     7
100
AcDbCircle
 10
4.6161272741
 20
4.7158551464
 30
0.0
 40
0.1268820967982698
100
AcDbArc
 50
347.7137457242
 51
12.2862542758
  0
ARC
  5
147
330
142
100
AcDbEntity
  8
428003-032
  6
Continuous
 62
     7
100
AcDbCircle
 10
4.6161272741
 20
4.7158551464
 30
0.0
 40
0.1268820967982698
100
AcDbArc
 50
167.7137457242
 51
192.2862542758
  0
LINE
  5
148
330
142
100
AcDbEntity
  8
428003-032
  6
Continuous
 62
     7
100
AcDbLine
 10
4.4523377751
 20
4.6888551464
 30
0.0
 11
4.7799167732
 21
4.6888551464
 31
0.0
  0
LINE
  5
149
330
142
100
AcDbEntity
  8
428003-032
  6
Continuous
 62
     7
100
AcDbLine
 10
4.7799167732
 20
4.7428551464
 30
0.0
 11
4.4523377751
 21
4.7428551464
 31
0.0
  0
ARC
  5
14A
330
142
100
AcDbEntity
  8
428003-032
  6
Continuous
 62
     7
100
AcDbCircle
 10
4.6161272741
 20
7.4058551464
 30
0.0
 40
0.1660000000000001
100
AcDbArc
 50
9.3607802853
 51
170.6392197147
  0
ARC
  5
14B
330
142
100
AcDbEntity
  8
428003-032
  6
Continuous
 62
     7
100
AcDbCircle
 10
4.6161272741
 20
7.4058551464
 30
0.0
 40
0.1660000000000001
100
AcDbArc
 50
189.3607802853
 51
350.6392197147
  0
ARC
  5
14C
330
142
100
AcDbEntity
  8
428003-032
  6
Continuous
 62
     7
100
AcDbCircle
 10
4.6161272741
 20
7.4058551464
 30
0.0
 40
0.1268820967982698
100
AcDbArc
 50
347.7137457242
 51
12.2862542758
  0
ARC
  5
14D
330
142
100
AcDbEntity
  8
428003-032
  6
Continuous
 62
     7
100
AcDbCircle
 10
4.6161272741
 20
7.4058551464
 30
0.0
 40
0.1268820967982698
100
AcDbArc
 50
167.7137457242
 51
192.2862542758
  0
LINE
  5
14E
330
142
100
AcDbEntity
  8
428003-032
  6
Continuous
 62
     7
100
AcDbLine
 10
4.4523377751
 20
7.3788551464
 30
0.0
 11
4.7799167732
 21
7.3788551464
 31
0.0
  0
LINE
  5
14F
330
142
100
AcDbEntity
  8
428003-032
  6
Continuous
 62
     7
100
AcDbLine
 10
4.7799167732
 20
7.4328551464
 30
0.0
 11
4.4523377751
 21
7.4328551464
 31
0.0
  0
ARC
  5
150
330
142
100
AcDbEntity
  8
428003-032
  6
Continuous
 62
     7
100
AcDbCircle
 10
0.9641272741
 20
4.7158551464
 30
0.0
 40
0.1660000000000001
100
AcDbArc
 50
9.3607802853
 51
170.6392197147
  0
ARC
  5
151
330
142
100
AcDbEntity
  8
428003-032
  6
Continuous
 62
     7
100
AcDbCircle
 10
0.9641272741
 20
4.7158551464
 30
0.0
 40
0.1660000000000001
100
AcDbArc
 50
189.3607802853
 51
350.6392197147
  0
ARC
  5
152
330
142
100
AcDbEntity
  8
428003-032
  6
Continuous
 62
     7
100
AcDbCircle
 10
0.9641272741
 20
4.7158551464
 30
0.0
 40
0.1268820967982698
100
AcDbArc
 50
347.7137457242
 51
12.2862542758
  0
ARC
  5
153
330
142
100
AcDbEntity
  8
428003-032
  6
Continuous
 62
     7
100
AcDbCircle
 10
0.9641272741
 20
4.7158551464
 30
0.0
 40
0.1268820967982698
100
AcDbArc
 50
167.7137457242
 51
192.2862542758
  0
LINE
  5
154
330
142
100
AcDbEntity
  8
428003-032
  6
Continuous
 62
     7
100
AcDbLine
 10
0.8003377751
 20
4.6888551464
 30
0.0
 11
1.1279167732
 21
4.6888551464
 31
0.0
  0
LINE
  5
155
330
142
100
AcDbEntity
  8
428003-032
  6
Continuous
 62
     7
100
AcDbLine
 10
1.1279167732
 20
4.7428551464
 30
0.0
 11
0.8003377751
 21
4.7428551464
 31
0.0
  0
ARC
  5
156
330
142
100
AcDbEntity
  8
428003-032
  6
Continuous
 62
     7
100
AcDbCircle
 10
0.9641272741
 20
7.4058551464
 30
0.0
 40
0.1660000000000001
100
AcDbArc
 50
9.3607802853
 51
170.6392197147
  0
ARC
  5
157
330
142
100
AcDbEntity
  8
428003-032
  6
Continuous
 62
     7
100
AcDbCircle
 10
0.9641272741
 20
7.4058551464
 30
0.0
 40
0.1660000000000001
100
AcDbArc
 50
189.3607802853
 51
350.6392197147
  0
ARC
  5
158
330
142
100
AcDbEntity
  8
428003-032
  6
Continuous
 62
     7
100
AcDbCircle
 10
0.9641272741
 20
7.4058551464
 30
0.0
 40
0.1268820967982698
100
AcDbArc
 50
347.7137457242
 51
12.2862542758
  0
ARC
  5
159
330
142
100
AcDbEntity
  8
428003-032
  6
Continuous
 62
     7
100
AcDbCircle
 10
0.9641272741
 20
7.4058551464
 30
0.0
 40
0.1268820967982698
100
AcDbArc
 50
167.7137457242
 51
192.2862542758
  0
LINE
  5
15A
330
142
100
AcDbEntity
  8
428003-032
  6
Continuous
 62
     7
100
AcDbLine
 10
0.8003377751
 20
7.3788551464
 30
0.0
 11
1.1279167732
 21
7.3788551464
 31
0.0
  0
LINE
  5
15B
330
142
100
AcDbEntity
  8
428003-032
  6
Continuous
 62
     7
100
AcDbLine
 10
1.1279167732
 20
7.4328551464
 30
0.0
 11
0.8003377751
 21
7.4328551464
 31
0.0
  0
LINE
  5
15C
330
142
100
AcDbEntity
  8
83800X
  6
Continuous
 62
     7
100
AcDbLine
 10
0.6991272741
 20
5.0908551464
 30
0.0
 11
0.6991272741
 21
7.0308551464
 31
0.0
  0
ARC
  5
15D
330
142
100
AcDbEntity
  8
83800X
  6
Continuous
 62
     7
100
AcDbCircle
 10
0.8241272741
 20
5.0908551464
 30
0.0
 40
0.1250000000000002
100
AcDbArc
 50
180.0
 51
196.2602047083
  0
ARC
  5
15E
330
142
100
AcDbEntity
  8
83800X
  6
Continuous
 62
     7
100
AcDbCircle
 10
0.8241272741
 20
7.0308551464
 30
0.0
 40
0.125
100
AcDbArc
 50
163.7397952917
 51
180.0
  0
LINE
  5
15F
330
142
100
AcDbEntity
  8
83800X
  6
Continuous
 62
     7
100
AcDbLine
 10
1.3391272741
 20
7.6388551464
 30
0.0
 11
4.2411272741
 21
7.6388551464
 31
0.0
  0
ARC
  5
160
330
142
100
AcDbEntity
  8
83800X
  6
Continuous
 62
     7
100
AcDbCircle
 10
1.3391272741
 20
7.5138551464
 30
0.0
 40
0.1249999999999999
100
AcDbArc
 50
90.0
 51
106.2602047083
  0
ARC
  5
161
330
142
100
AcDbEntity
  8
83800X
  6
Continuous
 62
     7
100
AcDbCircle
 10
4.2411272741
 20
7.5138551464
 30
0.0
 40
0.1249999999999999
100
AcDbArc
 50
73.7397952917
 51
90.0
  0
LINE
  5
162
330
142
100
AcDbEntity
  8
83800X
  6
Continuous
 62
     7
100
AcDbLine
 10
4.8811272741
 20
7.0308551464
 30
0.0
 11
4.8811272741
 21
5.0908551464
 31
0.0
  0
ARC
  5
163
330
142
100
AcDbEntity
  8
83800X
  6
Continuous
 62
     7
100
AcDbCircle
 10
4.7561272741
 20
7.0308551464
 30
0.0
 40
0.1250000000000002
100
AcDbArc
 50
0.0
 51
16.2602047083
  0
ARC
  5
164
330
142
100
AcDbEntity
  8
83800X
  6
Continuous
 62
     7
100
AcDbCircle
 10
4.7561272741
 20
5.0908551464
 30
0.0
 40
0.125
100
AcDbArc
 50
343.7397952917
 51
360.0
  0
LINE
  5
165
330
142
100
AcDbEntity
  8
83800X
  6
Continuous
 62
     7
100
AcDbLine
 10
4.2411272741
 20
4.4828551464
 30
0.0
 11
1.3391272741
 21
4.4828551464
 31
0.0
  0
ARC
  5
166
330
142
100
AcDbEntity
  8
83800X
  6
Continuous
 62
     7
100
AcDbCircle
 10
4.2411272741
 20
4.6078551464
 30
0.0
 40
0.1249999999999999
100
AcDbArc
 50
270.0
 51
286.2602047083
  0
ARC
  5
167
330
142
100
AcDbEntity
  8
83800X
  6
Continuous
 62
     7
100
AcDbCircle
 10
1.3391272741
 20
4.6078551464
 30
0.0
 40
0.1249999999999999
100
AcDbArc
 50
253.7397952917
 51
270.0
  0
LINE
  5
169
330
142
100
AcDbEntity
  8
1031
  6
Continuous
 62
     7
100
AcDbLine
 10
4.1702701217
 20
6.4258551464
 30
0.0
 11
4.1702701217
 21
6.4108551464
 31
0.0
  0
LINE
  5
16A
330
142
100
AcDbEntity
  8
1031
  6
Continuous
 62
     7
100
AcDbLine
 10
4.1702701217
 20
5.7108551464
 30
0.0
 11
4.1702701217
 21
5.6958551464
 31
0.0
  0
LINE
  5
16B
330
142
100
AcDbEntity
  8
1031
  6
Continuous
 62
     7
100
AcDbLine
 10
4.2282701217
 20
5.6958551464
 30
0.0
 11
4.2282701217
 21
5.7108551464
 31
0.0
  0
LINE
  5
16C
330
142
100
AcDbEntity
  8
1031
  6
Continuous
 62
     7
100
AcDbLine
 10
4.2282701217
 20
6.4108551464
 30
0.0
 11
4.2282701217
 21
6.4258551464
 31
0.0
  0
ARC
  5
16D
330
142
100
AcDbEntity
  8
81090X
  6
Continuous
 62
     7
100
AcDbCircle
 10
1.41175547
 20
6.0608551464
 30
0.0
 40
0.25
100
AcDbArc
 50
275.1636070908
 51
84.8363929092
  0
ARC
  5
16E
330
142
100
AcDbEntity
  8
81090X
  6
Continuous
 62
     7
100
AcDbCircle
 10
1.41175547
 20
6.0608551464
 30
0.0
 40
0.11
100
AcDbArc
 50
258.1971083097
 51
281.8028916903
  0
LINE
  5
16F
330
142
100
AcDbEntity
  8
81090X
  6
Continuous
 62
     7
100
AcDbLine
 10
1.43425547
 20
5.8118697051
 30
0.0
 11
1.43425547
 21
6.3098405878
 31
0.0
  0
LINE
  5
170
330
142
100
AcDbEntity
  8
81090X
  6
Continuous
 62
     7
100
AcDbLine
 10
1.38925547
 20
5.8118697051
 30
0.0
 11
1.38925547
 21
6.3098405878
 31
0.0
  0
ARC
  5
171
330
142
100
AcDbEntity
  8
81090X
  6
Continuous
 62
     7
100
AcDbCircle
 10
1.41175547
 20
6.0608551464
 30
0.0
 40
0.25
100
AcDbArc
 50
95.1636070908
 51
120.0
  0
ARC
  5
172
330
142
100
AcDbEntity
  8
81090X
  6
Continuous
 62
     7
100
AcDbCircle
 10
1.41175547
 20
6.0608551464
 30
0.0
 40
0.11
100
AcDbArc
 50
78.1971083097
 51
101.8028916903
  0
ARC
  5
173
330
142
100
AcDbEntity
  8
81090X
  6
Continuous
 62
     7
100
AcDbCircle
 10
1.41175547
 20
6.0608551464
 30
0.0
 40
0.2500000000000001
100
AcDbArc
 50
240.0
 51
264.8363929092
  0
LINE
  5
174
330
142
100
AcDbEntity
  8
81090X
  6
Continuous
 62
     7
100
AcDbLine
 10
1.28675547
 20
5.8443487955
 30
0.0
 11
1.28675547
 21
6.2773614974
 31
0.0
  0
ARC
  5
175
330
142
100
AcDbEntity
  8
43455M
  6
Continuous
 62
     7
100
AcDbCircle
 10
2.7901701217
 20
6.0608551464
 30
0.0
 40
1.204499999999999
100
AcDbArc
 50
188.4477866147
 51
343.1074965029
  0
LINE
  5
176
330
142
100
AcDbEntity
  8
43455M
  6
Continuous
 62
     7
100
AcDbLine
 10
3.9426978871
 20
6.4108551464
 30
0.0
 11
4.3546457399
 21
6.4108551464
 31
0.0
  0
LINE
  5
177
330
142
100
AcDbEntity
  8
43455M
  6
Continuous
 62
     7
100
AcDbLine
 10
4.3946701217
 20
6.3708551464
 30
0.0
 11
4.3946701217
 21
5.7508551464
 31
0.0
  0
ELLIPSE
  5
178
330
142
100
AcDbEntity
  8
43455M
  6
Continuous
 62
     7
100
AcDbEllipse
 10
4.3546457399
 20
6.3708551464
 30
0.0
 11
-0.04002438177195283
 21
0.0
 31
0.0
210
0.0
220
0.0
230
1.0
 40
0.999390827
 41
3.141592653589793
 42
4.71238898038469
  0
LINE
  5
179
330
142
100
AcDbEntity
  8
43455M
  6
Continuous
 62
     7
100
AcDbLine
 10
4.3546457399
 20
5.7108551464
 30
0.0
 11
3.9426978871
 21
5.7108551464
 31
0.0
  0
ELLIPSE
  5
17A
330
142
100
AcDbEntity
  8
43455M
  6
Continuous
 62
     7
100
AcDbEllipse
 10
4.3546457399
 20
5.7508551464
 30
0.0
 11
-0.04002438177195283
 21
0.0
 31
0.0
210
0.0
220
0.0
230
1.0
 40
0.999390827
 41
1.570796326794897
 42
3.141592653589793
  0
ARC
  5
17B
330
142
100
AcDbEntity
  8
43455M
  6
Continuous
 62
     7
100
AcDbCircle
 10
2.7901701217
 20
6.0608551464
 30
0.0
 40
1.204499999999999
100
AcDbArc
 50
16.8925034971
 51
171.5522133853
  0
ARC
  5
17C
330
142
100
AcDbEntity
  8
43455M
  6
Continuous
 62
     7
100
AcDbCircle
 10
1.4116701217
 20
6.0608551464
 30
0.0
 40
0.2575000000000007
100
AcDbArc
 50
316.5921200944
 51
43.4078799056
  0
SPLINE
  5
17D
330
142
100
AcDbEntity
  8
43455M
  6
Continuous
 62
     7
100
AcDbSpline
210
0.0
220
0.0
230
1.0
 70
     8
 71
     3
 72
     8
 73
     4
 74
     0
 42
0.0000000293383298
 43
0.0000000001
 40
0.0
 40
0.0
 40
0.0
 40
0.0
 40
0.0345062203921826
 40
0.0345062203921826
 40
0.0345062203921826
 40
0.0345062203921826
 10
1.603319654747718
 20
6.232833943031603
 30
0.0
 10
1.602995426163461
 20
6.228929819483793
 30
0.0
 10
1.602720741937657
 20
6.225019177504691
 30
0.0
 10
1.602490550369392
 20
6.221102295576284
 30
0.0
  0
SPLINE
  5
17E
330
142
100
AcDbEntity
  8
43455M
  6
Continuous
 62
     7
100
AcDbSpline
210
0.0
220
0.0
230
1.0
 70
     8
 71
     3
 72
     8
 73
     4
 74
     0
 42
0.0000000293683147
 43
0.0000000001
 40
0.9663046537291708
 40
0.9663046537291708
 40
0.9663046537291708
 40
0.9663046537291708
 40
1.0
 40
1.0
 40
1.0
 40
1.0
 10
1.602508059425571
 20
5.900320438663807
 30
0.0
 10
1.60273455730376
 20
5.896498162746206
 30
0.0
 10
1.603003516906993
 20
5.892683050581952
 30
0.0
 10
1.603319654747574
 20
5.888876349853601
 30
0.0
  0
LINE
  5
17F
330
142
100
AcDbEntity
  8
43454M
  6
Continuous
 62
     7
100
AcDbLine
 10
0.7636800432
 20
4.4878551464
 30
0.0
 11
4.816574505
 21
4.4878551464
 31
0.0
  0
ELLIPSE
  5
180
330
142
100
AcDbEntity
  8
43454M
  6
Continuous
 62
     7
100
AcDbEllipse
 10
0.7645778637
 20
4.548305736
 30
0.0
 11
0.04306127929156348
 21
0.04306127929156348
 31
0.0
210
0.0
220
0.0
230
1.0
 40
0.985256536
 41
2.363620831664857
 42
3.919564475514731
  0
LINE
  5
181
330
142
100
AcDbEntity
  8
43454M
  6
Continuous
 62
     7
100
AcDbLine
 10
0.7041272741
 20
7.5743023773
 30
0.0
 11
0.7041272741
 21
4.5474079155
 31
0.0
  0
ELLIPSE
  5
182
330
142
100
AcDbEntity
  8
43454M
  6
Continuous
 62
     7
100
AcDbEllipse
 10
0.7645778637
 20
7.5734045569
 30
0.0
 11
0.04306127929156348
 21
-0.04306127929156348
 31
0.0
210
0.0
220
0.0
230
1.0
 40
0.985256536
 41
2.36362083166487
 42
3.919564475514729
  0
LINE
  5
183
330
142
100
AcDbEntity
  8
43454M
  6
Continuous
 62
     7
100
AcDbLine
 10
4.816574505
 20
7.6338551464
 30
0.0
 11
0.7636800432
 21
7.6338551464
 31
0.0
  0
ELLIPSE
  5
184
330
142
100
AcDbEntity
  8
43454M
  6
Continuous
 62
     7
100
AcDbEllipse
 10
4.8156766846
 20
7.5734045569
 30
0.0
 11
-0.04306127929156348
 21
-0.04306127929156348
 31
0.0
210
0.0
220
0.0
230
1.0
 40
0.985256536
 41
2.363620831664846
 42
3.919564475514725
  0
LINE
  5
185
330
142
100
AcDbEntity
  8
43454M
  6
Continuous
 62
     7
100
AcDbLine
 10
4.8761272741
 20
4.5474079155
 30
0.0
 11
4.8761272741
 21
7.5743023773
 31
0.0
  0
ELLIPSE
  5
186
330
142
100
AcDbEntity
  8
43454M
  6
Continuous
 62
     7
100
AcDbEllipse
 10
4.8156766846
 20
4.548305736
 30
0.0
 11
-0.04306127929156348
 21
0.04306127929156348
 31
0.0
210
0.0
220
0.0
230
1.0
 40
0.985256536
 41
2.363620831664846
 42
3.91956447551474
  0
LINE
  5
187
330
142
100
AcDbEntity
  8
43454M
  6
Continuous
 62
     7
100
AcDbLine
 10
3.9699577704
 20
6.4258551464
 30
0.0
 11
4.4242701217
 21
6.4258551464
 31
0.0
  0
LINE
  5
188
330
142
100
AcDbEntity
  8
43454M
  6
Continuous
 62
     7
100
AcDbLine
 10
3.9380356408
 20
6.4258551464
 30
0.0
 11
3.9385174517
 21
6.4258551464
 31
0.0
  0
ARC
  5
189
330
142
100
AcDbEntity
  8
43454M
  6
Continuous
 62
     7
100
AcDbCircle
 10
2.7901272741
 20
6.0608551464
 30
0.0
 40
1.235000000000001
100
AcDbArc
 50
17.1903143099
 51
81.6359290548
  0
ARC
  5
18A
330
142
100
AcDbEntity
  8
43454M
  6
Continuous
 62
     7
100
AcDbCircle
 10
2.7901272741
 20
6.0608551464
 30
0.0
 40
1.235
100
AcDbArc
 50
278.3640709452
 51
342.8096856901
  0
ARC
  5
18B
330
142
100
AcDbEntity
  8
43454M
  6
Continuous
 62
     7
100
AcDbCircle
 10
2.7901272741
 20
4.9008551464
 30
0.0
 40
0.19
100
AcDbArc
 50
199.0020012477
 51
340.9979987523
  0
ARC
  5
18C
330
142
100
AcDbEntity
  8
43454M
  6
Continuous
 62
     7
100
AcDbCircle
 10
2.7901272741
 20
6.0608551464
 30
0.0
 40
1.235
100
AcDbArc
 50
98.3640709452
 51
170.5964305763
  0
ARC
  5
18D
330
142
100
AcDbEntity
  8
43454M
  6
Continuous
 62
     7
100
AcDbCircle
 10
2.7901272741
 20
7.2208551464
 30
0.0
 40
0.1899999999999999
100
AcDbArc
 50
19.0020012477
 51
160.9979987523
  0
LINE
  5
18E
330
142
100
AcDbEntity
  8
43454M
  6
Continuous
 62
     7
100
AcDbLine
 10
4.4542701217
 20
6.3958551464
 30
0.0
 11
4.4542701217
 21
5.7258551464
 31
0.0
  0
LINE
  5
18F
330
142
100
AcDbEntity
  8
43454M
  6
Continuous
 62
     7
100
AcDbLine
 10
4.4242701217
 20
5.6958551464
 30
0.0
 11
3.9699577704
 21
5.6958551464
 31
0.0
  0
ARC
  5
190
330
142
100
AcDbEntity
  8
43454M
  6
Continuous
 62
     7
100
AcDbCircle
 10
4.4242701217
 20
6.3958551464
 30
0.0
 40
0.03
100
AcDbArc
 50
0.0
 51
90.0
  0
ARC
  5
191
330
142
100
AcDbEntity
  8
43454M
  6
Continuous
 62
     7
100
AcDbCircle
 10
4.4242701217
 20
5.7258551464
 30
0.0
 40
0.0300000000000002
100
AcDbArc
 50
270.0
 51
360.0
  0
LINE
  5
192
330
142
100
AcDbEntity
  8
43454M
  6
Continuous
 62
     7
100
AcDbLine
 10
3.9385174517
 20
5.6958551464
 30
0.0
 11
3.9380356408
 21
5.6958551464
 31
0.0
  0
LINE
  5
193
330
142
100
AcDbEntity
  8
43454M
  6
Continuous
 62
     7
100
AcDbLine
 10
3.9385174517
 20
5.6958551464
 30
0.0
 11
3.9699577704
 21
5.6958551464
 31
0.0
  0
LINE
  5
194
330
142
100
AcDbEntity
  8
43454M
  6
Continuous
 62
     7
100
AcDbLine
 10
3.9699577704
 20
6.4258551464
 30
0.0
 11
3.9385174517
 21
6.4258551464
 31
0.0
  0
ARC
  5
195
330
142
100
AcDbEntity
  8
43454M
  6
Continuous
 62
     7
100
AcDbCircle
 10
2.3845192144
 20
7.7675838697
 30
0.0
 40
0.7600107423884325
100
AcDbArc
 50
317.6598667177
 51
320.3593428254
  0
ARC
  5
196
330
142
100
AcDbEntity
  8
43454M
  6
Continuous
 62
     7
100
AcDbCircle
 10
3.1957353339
 20
7.7675838697
 30
0.0
 40
0.7600107423893578
100
AcDbArc
 50
219.6406571746
 51
222.3401332823
  0
ARC
  5
197
330
142
100
AcDbEntity
  8
43454M
  6
Continuous
 62
     7
100
AcDbCircle
 10
3.1957353339
 20
4.3541264231
 30
0.0
 40
0.7600107423893578
100
AcDbArc
 50
137.6598667177
 51
140.3593428254
  0
ARC
  5
198
330
142
100
AcDbEntity
  8
43454M
  6
Continuous
 62
     7
100
AcDbCircle
 10
2.3845192144
 20
4.3541264231
 30
0.0
 40
0.7600107423884325
100
AcDbArc
 50
39.6406571746
 51
42.3401332823
  0
CIRCLE
  5
199
330
142
100
AcDbEntity
  8
43454M
  6
Continuous
 62
     7
100
AcDbCircle
 10
0.9641272741
 20
4.7158551464
 30
0.0
 40
0.166
  0
CIRCLE
  5
19A
330
142
100
AcDbEntity
  8
43454M
  6
Continuous
 62
     7
100
AcDbCircle
 10
4.6161272741
 20
7.4058551464
 30
0.0
 40
0.166
  0
CIRCLE
  5
19B
330
142
100
AcDbEntity
  8
43454M
  6
Continuous
 62
     7
100
AcDbCircle
 10
4.6161272741
 20
4.7158551464
 30
0.0
 40
0.166
  0
CIRCLE
  5
19C
330
142
100
AcDbEntity
  8
43454M
  6
Continuous
 62
     7
100
AcDbCircle
 10
0.9641272741
 20
7.4058551464
 30
0.0
 40
0.166
  0
ARC
  5
19D
330
142
100
AcDbEntity
  8
43454M
  6
Continuous
 62
     7
100
AcDbCircle
 10
2.7901272741
 20
6.0608551464
 30
0.0
 40
1.235
100
AcDbArc
 50
189.4035694237
 51
261.6359290548
  0
ARC
  5
19E
330
142
100
AcDbEntity
  8
43454M
  6
Continuous
 62
     7
100
AcDbCircle
 10
1.41175547
 20
6.0608551464
 30
0.0
 40
0.2575000000000006
100
AcDbArc
 50
51.5936967857
 51
308.4063032143
  0
ARC
  5
19F
330
142
100
AcDbEntity
  8
43454M
  6
Continuous
 62
     7
100
AcDbCircle
 10
1.41175547
 20
6.0608551464
 30
0.0
 40
0.114
100
AcDbArc
 50
78.6168865176
 51
101.3831134824
  0
ARC
  5
1A0
330
142
100
AcDbEntity
  8
43454M
  6
Continuous
 62
     7
100
AcDbCircle
 10
1.41175547
 20
6.0608551464
 30
0.0
 40
0.114
100
AcDbArc
 50
258.6168865176
 51
281.3831134824
  0
SPLINE
  5
1A1
330
142
100
AcDbEntity
  8
43454M
  6
Continuous
 62
     7
100
AcDbSpline
210
0.0
220
0.0
230
1.0
 70
     8
 71
     3
 72
     8
 73
     4
 74
     0
 42
0.0000000252291901
 43
0.0000000001
 40
0.0
 40
0.0
 40
0.0
 40
0.0
 40
0.0252675133618184
 40
0.0252675133618184
 40
0.0252675133618184
 40
0.0252675133618184
 10
1.571723222926613
 20
6.26263861457772
 30
0.0
 10
1.571178001242942
 20
6.259346470209662
 30
0.0
 10
1.570690688112317
 20
6.256043944584911
 30
0.0
 10
1.570258278936542
 20
6.252732136453433
 30
0.0
  0
SPLINE
  5
1A2
330
142
100
AcDbEntity
  8
43454M
  6
Continuous
 62
     7
100
AcDbSpline
210
0.0
220
0.0
230
1.0
 70
     8
 71
     3
 72
     8
 73
     4
 74
     0
 42
0.0000000248014291
 43
0.0000000001
 40
0.9775858834884901
 40
0.9775858834884901
 40
0.9775858834884901
 40
0.9775858834884901
 40
1.0
 40
1.0
 40
1.0
 40
1.0
 10
1.570383252786281
 20
5.868008513712612
 30
0.0
 10
1.570784118216514
 20
5.865028664810772
 30
0.0
 10
1.5712300073269
 20
5.862049800798852
 30
0.0
 10
1.571723222926613
 20
5.859071678307645
 30
0.0
  0
ENDBLK
  5
1A4
330
142
100
AcDbEntity
  8
0
100
AcDbBlockEnd
  0
BLOCK
  5
274
330
1A5
100
AcDbEntity
  8
0
100
AcDbBlockBegin
  2
SE2
 70
     0
 71
     0
 10
0.0
 20
0.0
 30
0.0
  3
SE2
  1

  0
LINE
  5
1A7
330
1A5
100
AcDbEntity
  8
428003-032
  6
Continuous
 62
     7
100
AcDbLine
 10
4.561190568
 20
2.512264214
 30
0.0
 11
4.6710639803
 21
2.512264214
 31
0.0
  0
LINE
  5
1A8
330
1A5
100
AcDbEntity
  8
428003-032
  6
Continuous
 62
     7
100
AcDbLine
 10
4.5341272741
 20
2.527889214
 30
0.0
 11
4.6981272741
 21
2.527889214
 31
0.0
  0
LINE
  5
1A9
330
1A5
100
AcDbEntity
  8
428003-032
  6
Continuous
 62
     7
100
AcDbLine
 10
4.561190568
 20
2.543514214
 30
0.0
 11
4.6710639803
 21
2.543514214
 31
0.0
  0
LINE
  5
1AA
330
1A5
100
AcDbEntity
  8
428003-032
  6
Continuous
 62
     7
100
AcDbLine
 10
4.5341272741
 20
2.559139214
 30
0.0
 11
4.6981272741
 21
2.559139214
 31
0.0
  0
LINE
  5
1AB
330
1A5
100
AcDbEntity
  8
428003-032
  6
Continuous
 62
     7
100
AcDbLine
 10
4.561190568
 20
2.574764214
 30
0.0
 11
4.6710639803
 21
2.574764214
 31
0.0
  0
LINE
  5
1AC
330
1A5
100
AcDbEntity
  8
428003-032
  6
Continuous
 62
     7
100
AcDbLine
 10
4.5341272741
 20
2.590389214
 30
0.0
 11
4.6981272741
 21
2.590389214
 31
0.0
  0
LINE
  5
1AD
330
1A5
100
AcDbEntity
  8
428003-032
  6
Continuous
 62
     7
100
AcDbLine
 10
4.561190568
 20
2.606014214
 30
0.0
 11
4.6710639803
 21
2.606014214
 31
0.0
  0
LINE
  5
1AE
330
1A5
100
AcDbEntity
  8
428003-032
  6
Continuous
 62
     7
100
AcDbLine
 10
4.5341272741
 20
2.621639214
 30
0.0
 11
4.6981272741
 21
2.621639214
 31
0.0
  0
LINE
  5
1AF
330
1A5
100
AcDbEntity
  8
428003-032
  6
Continuous
 62
     7
100
AcDbLine
 10
4.561190568
 20
2.637264214
 30
0.0
 11
4.6710639803
 21
2.637264214
 31
0.0
  0
LINE
  5
1B0
330
1A5
100
AcDbEntity
  8
428003-032
  6
Continuous
 62
     7
100
AcDbLine
 10
4.5341272741
 20
2.652889214
 30
0.0
 11
4.6981272741
 21
2.652889214
 31
0.0
  0
LINE
  5
1B1
330
1A5
100
AcDbEntity
  8
428003-032
  6
Continuous
 62
     7
100
AcDbLine
 10
4.561190568
 20
2.668514214
 30
0.0
 11
4.6710639803
 21
2.668514214
 31
0.0
  0
LINE
  5
1B2
330
1A5
100
AcDbEntity
  8
428003-032
  6
Continuous
 62
     7
100
AcDbLine
 10
4.5341272741
 20
2.684139214
 30
0.0
 11
4.6981272741
 21
2.684139214
 31
0.0
  0
LINE
  5
1B3
330
1A5
100
AcDbEntity
  8
428003-032
  6
Continuous
 62
     7
100
AcDbLine
 10
4.561190568
 20
2.699764214
 30
0.0
 11
4.6710639803
 21
2.699764214
 31
0.0
  0
LINE
  5
1B4
330
1A5
100
AcDbEntity
  8
428003-032
  6
Continuous
 62
     7
100
AcDbLine
 10
4.5341272741
 20
2.715389214
 30
0.0
 11
4.6981272741
 21
2.715389214
 31
0.0
  0
LINE
  5
1B5
330
1A5
100
AcDbEntity
  8
428003-032
  6
Continuous
 62
     7
100
AcDbLine
 10
4.561190568
 20
2.731014214
 30
0.0
 11
4.6710639803
 21
2.731014214
 31
0.0
  0
LINE
  5
1B6
330
1A5
100
AcDbEntity
  8
428003-032
  6
Continuous
 62
     7
100
AcDbLine
 10
4.5341272741
 20
2.746639214
 30
0.0
 11
4.6981272741
 21
2.746639214
 31
0.0
  0
LINE
  5
1B7
330
1A5
100
AcDbEntity
  8
428003-032
  6
Continuous
 62
     7
100
AcDbLine
 10
4.561190568
 20
2.762264214
 30
0.0
 11
4.6710639803
 21
2.762264214
 31
0.0
  0
LINE
  5
1B8
330
1A5
100
AcDbEntity
  8
428003-032
  6
Continuous
 62
     7
100
AcDbLine
 10
4.5341272741
 20
2.777889214
 30
0.0
 11
4.6981272741
 21
2.777889214
 31
0.0
  0
LINE
  5
1B9
330
1A5
100
AcDbEntity
  8
428003-032
  6
Continuous
 62
     7
100
AcDbLine
 10
4.561190568
 20
2.793514214
 30
0.0
 11
4.6710639803
 21
2.793514214
 31
0.0
  0
LINE
  5
1BA
330
1A5
100
AcDbEntity
  8
428003-032
  6
Continuous
 62
     7
100
AcDbLine
 10
4.5341272741
 20
2.809139214
 30
0.0
 11
4.6981272741
 21
2.809139214
 31
0.0
  0
LINE
  5
1BB
330
1A5
100
AcDbEntity
  8
428003-032
  6
Continuous
 62
     7
100
AcDbLine
 10
4.561190568
 20
2.824764214
 30
0.0
 11
4.6710639803
 21
2.824764214
 31
0.0
  0
LINE
  5
1BC
330
1A5
100
AcDbEntity
  8
428003-032
  6
Continuous
 62
     7
100
AcDbLine
 10
4.5341272741
 20
2.840389214
 30
0.0
 11
4.6981272741
 21
2.840389214
 31
0.0
  0
LINE
  5
1BD
330
1A5
100
AcDbEntity
  8
428003-032
  6
Continuous
 62
     7
100
AcDbLine
 10
4.561190568
 20
2.856014214
 30
0.0
 11
4.6710639803
 21
2.856014214
 31
0.0
  0
LINE
  5
1BE
330
1A5
100
AcDbEntity
  8
428003-032
  6
Continuous
 62
     7
100
AcDbLine
 10
4.5341272741
 20
2.871639214
 30
0.0
 11
4.6981272741
 21
2.871639214
 31
0.0
  0
LINE
  5
1BF
330
1A5
100
AcDbEntity
  8
428003-032
  6
Continuous
 62
     7
100
AcDbLine
 10
4.5341272741
 20
2.527889214
 30
0.0
 11
4.561190568
 21
2.512264214
 31
0.0
  0
LINE
  5
1C0
330
1A5
100
AcDbEntity
  8
428003-032
  6
Continuous
 62
     7
100
AcDbLine
 10
4.6710639803
 20
2.512264214
 30
0.0
 11
4.6981272741
 21
2.527889214
 31
0.0
  0
LINE
  5
1C1
330
1A5
100
AcDbEntity
  8
428003-032
  6
Continuous
 62
     7
100
AcDbLine
 10
4.6981272741
 20
2.527889214
 30
0.0
 11
4.6710639803
 21
2.543514214
 31
0.0
  0
LINE
  5
1C2
330
1A5
100
AcDbEntity
  8
428003-032
  6
Continuous
 62
     7
100
AcDbLine
 10
4.561190568
 20
2.543514214
 30
0.0
 11
4.5341272741
 21
2.527889214
 31
0.0
  0
LINE
  5
1C3
330
1A5
100
AcDbEntity
  8
428003-032
  6
Continuous
 62
     7
100
AcDbLine
 10
4.5341272741
 20
2.559139214
 30
0.0
 11
4.561190568
 21
2.543514214
 31
0.0
  0
LINE
  5
1C4
330
1A5
100
AcDbEntity
  8
428003-032
  6
Continuous
 62
     7
100
AcDbLine
 10
4.6710639803
 20
2.543514214
 30
0.0
 11
4.6981272741
 21
2.559139214
 31
0.0
  0
LINE
  5
1C5
330
1A5
100
AcDbEntity
  8
428003-032
  6
Continuous
 62
     7
100
AcDbLine
 10
4.6981272741
 20
2.559139214
 30
0.0
 11
4.6710639803
 21
2.574764214
 31
0.0
  0
LINE
  5
1C6
330
1A5
100
AcDbEntity
  8
428003-032
  6
Continuous
 62
     7
100
AcDbLine
 10
4.561190568
 20
2.574764214
 30
0.0
 11
4.5341272741
 21
2.559139214
 31
0.0
  0
LINE
  5
1C7
330
1A5
100
AcDbEntity
  8
428003-032
  6
Continuous
 62
     7
100
AcDbLine
 10
4.5341272741
 20
2.590389214
 30
0.0
 11
4.561190568
 21
2.574764214
 31
0.0
  0
LINE
  5
1C8
330
1A5
100
AcDbEntity
  8
428003-032
  6
Continuous
 62
     7
100
AcDbLine
 10
4.6710639803
 20
2.574764214
 30
0.0
 11
4.6981272741
 21
2.590389214
 31
0.0
  0
LINE
  5
1C9
330
1A5
100
AcDbEntity
  8
428003-032
  6
Continuous
 62
     7
100
AcDbLine
 10
4.6981272741
 20
2.590389214
 30
0.0
 11
4.6710639803
 21
2.606014214
 31
0.0
  0
LINE
  5
1CA
330
1A5
100
AcDbEntity
  8
428003-032
  6
Continuous
 62
     7
100
AcDbLine
 10
4.561190568
 20
2.606014214
 30
0.0
 11
4.5341272741
 21
2.590389214
 31
0.0
  0
LINE
  5
1CB
330
1A5
100
AcDbEntity
  8
428003-032
  6
Continuous
 62
     7
100
AcDbLine
 10
4.5341272741
 20
2.621639214
 30
0.0
 11
4.561190568
 21
2.606014214
 31
0.0
  0
LINE
  5
1CC
330
1A5
100
AcDbEntity
  8
428003-032
  6
Continuous
 62
     7
100
AcDbLine
 10
4.6710639803
 20
2.606014214
 30
0.0
 11
4.6981272741
 21
2.621639214
 31
0.0
  0
LINE
  5
1CD
330
1A5
100
AcDbEntity
  8
428003-032
  6
Continuous
 62
     7
100
AcDbLine
 10
4.6981272741
 20
2.621639214
 30
0.0
 11
4.6710639803
 21
2.637264214
 31
0.0
  0
LINE
  5
1CE
330
1A5
100
AcDbEntity
  8
428003-032
  6
Continuous
 62
     7
100
AcDbLine
 10
4.561190568
 20
2.637264214
 30
0.0
 11
4.5341272741
 21
2.621639214
 31
0.0
  0
LINE
  5
1CF
330
1A5
100
AcDbEntity
  8
428003-032
  6
Continuous
 62
     7
100
AcDbLine
 10
4.5341272741
 20
2.652889214
 30
0.0
 11
4.561190568
 21
2.637264214
 31
0.0
  0
LINE
  5
1D0
330
1A5
100
AcDbEntity
  8
428003-032
  6
Continuous
 62
     7
100
AcDbLine
 10
4.6710639803
 20
2.637264214
 30
0.0
 11
4.6981272741
 21
2.652889214
 31
0.0
  0
LINE
  5
1D1
330
1A5
100
AcDbEntity
  8
428003-032
  6
Continuous
 62
     7
100
AcDbLine
 10
4.6981272741
 20
2.652889214
 30
0.0
 11
4.6710639803
 21
2.668514214
 31
0.0
  0
LINE
  5
1D2
330
1A5
100
AcDbEntity
  8
428003-032
  6
Continuous
 62
     7
100
AcDbLine
 10
4.561190568
 20
2.668514214
 30
0.0
 11
4.5341272741
 21
2.652889214
 31
0.0
  0
LINE
  5
1D3
330
1A5
100
AcDbEntity
  8
428003-032
  6
Continuous
 62
     7
100
AcDbLine
 10
4.5341272741
 20
2.684139214
 30
0.0
 11
4.561190568
 21
2.668514214
 31
0.0
  0
LINE
  5
1D4
330
1A5
100
AcDbEntity
  8
428003-032
  6
Continuous
 62
     7
100
AcDbLine
 10
4.6710639803
 20
2.668514214
 30
0.0
 11
4.6981272741
 21
2.684139214
 31
0.0
  0
LINE
  5
1D5
330
1A5
100
AcDbEntity
  8
428003-032
  6
Continuous
 62
     7
100
AcDbLine
 10
4.6981272741
 20
2.684139214
 30
0.0
 11
4.6710639803
 21
2.699764214
 31
0.0
  0
LINE
  5
1D6
330
1A5
100
AcDbEntity
  8
428003-032
  6
Continuous
 62
     7
100
AcDbLine
 10
4.561190568
 20
2.699764214
 30
0.0
 11
4.5341272741
 21
2.684139214
 31
0.0
  0
LINE
  5
1D7
330
1A5
100
AcDbEntity
  8
428003-032
  6
Continuous
 62
     7
100
AcDbLine
 10
4.5341272741
 20
2.715389214
 30
0.0
 11
4.561190568
 21
2.699764214
 31
0.0
  0
LINE
  5
1D8
330
1A5
100
AcDbEntity
  8
428003-032
  6
Continuous
 62
     7
100
AcDbLine
 10
4.6710639803
 20
2.699764214
 30
0.0
 11
4.6981272741
 21
2.715389214
 31
0.0
  0
LINE
  5
1D9
330
1A5
100
AcDbEntity
  8
428003-032
  6
Continuous
 62
     7
100
AcDbLine
 10
4.6981272741
 20
2.715389214
 30
0.0
 11
4.6710639803
 21
2.731014214
 31
0.0
  0
LINE
  5
1DA
330
1A5
100
AcDbEntity
  8
428003-032
  6
Continuous
 62
     7
100
AcDbLine
 10
4.561190568
 20
2.731014214
 30
0.0
 11
4.5341272741
 21
2.715389214
 31
0.0
  0
LINE
  5
1DB
330
1A5
100
AcDbEntity
  8
428003-032
  6
Continuous
 62
     7
100
AcDbLine
 10
4.5341272741
 20
2.746639214
 30
0.0
 11
4.561190568
 21
2.731014214
 31
0.0
  0
LINE
  5
1DC
330
1A5
100
AcDbEntity
  8
428003-032
  6
Continuous
 62
     7
100
AcDbLine
 10
4.6710639803
 20
2.731014214
 30
0.0
 11
4.6981272741
 21
2.746639214
 31
0.0
  0
LINE
  5
1DD
330
1A5
100
AcDbEntity
  8
428003-032
  6
Continuous
 62
     7
100
AcDbLine
 10
4.6981272741
 20
2.746639214
 30
0.0
 11
4.6710639803
 21
2.762264214
 31
0.0
  0
LINE
  5
1DE
330
1A5
100
AcDbEntity
  8
428003-032
  6
Continuous
 62
     7
100
AcDbLine
 10
4.561190568
 20
2.762264214
 30
0.0
 11
4.5341272741
 21
2.746639214
 31
0.0
  0
LINE
  5
1DF
330
1A5
100
AcDbEntity
  8
428003-032
  6
Continuous
 62
     7
100
AcDbLine
 10
4.5341272741
 20
2.777889214
 30
0.0
 11
4.561190568
 21
2.762264214
 31
0.0
  0
LINE
  5
1E0
330
1A5
100
AcDbEntity
  8
428003-032
  6
Continuous
 62
     7
100
AcDbLine
 10
4.6710639803
 20
2.762264214
 30
0.0
 11
4.6981272741
 21
2.777889214
 31
0.0
  0
LINE
  5
1E1
330
1A5
100
AcDbEntity
  8
428003-032
  6
Continuous
 62
     7
100
AcDbLine
 10
4.6981272741
 20
2.777889214
 30
0.0
 11
4.6710639803
 21
2.793514214
 31
0.0
  0
LINE
  5
1E2
330
1A5
100
AcDbEntity
  8
428003-032
  6
Continuous
 62
     7
100
AcDbLine
 10
4.561190568
 20
2.793514214
 30
0.0
 11
4.5341272741
 21
2.777889214
 31
0.0
  0
LINE
  5
1E3
330
1A5
100
AcDbEntity
  8
428003-032
  6
Continuous
 62
     7
100
AcDbLine
 10
4.5341272741
 20
2.809139214
 30
0.0
 11
4.561190568
 21
2.793514214
 31
0.0
  0
LINE
  5
1E4
330
1A5
100
AcDbEntity
  8
428003-032
  6
Continuous
 62
     7
100
AcDbLine
 10
4.6710639803
 20
2.793514214
 30
0.0
 11
4.6981272741
 21
2.809139214
 31
0.0
  0
LINE
  5
1E5
330
1A5
100
AcDbEntity
  8
428003-032
  6
Continuous
 62
     7
100
AcDbLine
 10
4.6981272741
 20
2.809139214
 30
0.0
 11
4.6710639803
 21
2.824764214
 31
0.0
  0
LINE
  5
1E6
330
1A5
100
AcDbEntity
  8
428003-032
  6
Continuous
 62
     7
100
AcDbLine
 10
4.561190568
 20
2.824764214
 30
0.0
 11
4.5341272741
 21
2.809139214
 31
0.0
  0
LINE
  5
1E7
330
1A5
100
AcDbEntity
  8
428003-032
  6
Continuous
 62
     7
100
AcDbLine
 10
4.5341272741
 20
2.840389214
 30
0.0
 11
4.561190568
 21
2.824764214
 31
0.0
  0
LINE
  5
1E8
330
1A5
100
AcDbEntity
  8
428003-032
  6
Continuous
 62
     7
100
AcDbLine
 10
4.6710639803
 20
2.824764214
 30
0.0
 11
4.6981272741
 21
2.840389214
 31
0.0
  0
LINE
  5
1E9
330
1A5
100
AcDbEntity
  8
428003-032
  6
Continuous
 62
     7
100
AcDbLine
 10
4.6981272741
 20
2.840389214
 30
0.0
 11
4.6710639803
 21
2.856014214
 31
0.0
  0
LINE
  5
1EA
330
1A5
100
AcDbEntity
  8
428003-032
  6
Continuous
 62
     7
100
AcDbLine
 10
4.561190568
 20
2.856014214
 30
0.0
 11
4.5341272741
 21
2.840389214
 31
0.0
  0
LINE
  5
1EB
330
1A5
100
AcDbEntity
  8
428003-032
  6
Continuous
 62
     7
100
AcDbLine
 10
4.5341272741
 20
2.871639214
 30
0.0
 11
4.561190568
 21
2.856014214
 31
0.0
  0
LINE
  5
1EC
330
1A5
100
AcDbEntity
  8
428003-032
  6
Continuous
 62
     7
100
AcDbLine
 10
4.6710639803
 20
2.856014214
 30
0.0
 11
4.6981272741
 21
2.871639214
 31
0.0
  0
LINE
  5
1ED
330
1A5
100
AcDbEntity
  8
428003-032
  6
Continuous
 62
     7
100
AcDbLine
 10
4.6981272741
 20
2.871639214
 30
0.0
 11
4.6710639803
 21
2.887264214
 31
0.0
  0
LINE
  5
1EE
330
1A5
100
AcDbEntity
  8
428003-032
  6
Continuous
 62
     7
100
AcDbLine
 10
4.561190568
 20
2.887264214
 30
0.0
 11
4.5341272741
 21
2.871639214
 31
0.0
  0
LINE
  5
1EF
330
1A5
100
AcDbEntity
  8
428003-032
  6
Continuous
 62
     7
100
AcDbLine
 10
0.909190568
 20
2.512264214
 30
0.0
 11
1.0190639803
 21
2.512264214
 31
0.0
  0
LINE
  5
1F0
330
1A5
100
AcDbEntity
  8
428003-032
  6
Continuous
 62
     7
100
AcDbLine
 10
0.8821272741
 20
2.527889214
 30
0.0
 11
1.0461272741
 21
2.527889214
 31
0.0
  0
LINE
  5
1F1
330
1A5
100
AcDbEntity
  8
428003-032
  6
Continuous
 62
     7
100
AcDbLine
 10
0.909190568
 20
2.543514214
 30
0.0
 11
1.0190639803
 21
2.543514214
 31
0.0
  0
LINE
  5
1F2
330
1A5
100
AcDbEntity
  8
428003-032
  6
Continuous
 62
     7
100
AcDbLine
 10
0.8821272741
 20
2.559139214
 30
0.0
 11
1.0461272741
 21
2.559139214
 31
0.0
  0
LINE
  5
1F3
330
1A5
100
AcDbEntity
  8
428003-032
  6
Continuous
 62
     7
100
AcDbLine
 10
0.909190568
 20
2.574764214
 30
0.0
 11
1.0190639803
 21
2.574764214
 31
0.0
  0
LINE
  5
1F4
330
1A5
100
AcDbEntity
  8
428003-032
  6
Continuous
 62
     7
100
AcDbLine
 10
0.8821272741
 20
2.590389214
 30
0.0
 11
1.0461272741
 21
2.590389214
 31
0.0
  0
LINE
  5
1F5
330
1A5
100
AcDbEntity
  8
428003-032
  6
Continuous
 62
     7
100
AcDbLine
 10
0.909190568
 20
2.606014214
 30
0.0
 11
1.0190639803
 21
2.606014214
 31
0.0
  0
LINE
  5
1F6
330
1A5
100
AcDbEntity
  8
428003-032
  6
Continuous
 62
     7
100
AcDbLine
 10
0.8821272741
 20
2.621639214
 30
0.0
 11
1.0461272741
 21
2.621639214
 31
0.0
  0
LINE
  5
1F7
330
1A5
100
AcDbEntity
  8
428003-032
  6
Continuous
 62
     7
100
AcDbLine
 10
0.909190568
 20
2.637264214
 30
0.0
 11
1.0190639803
 21
2.637264214
 31
0.0
  0
LINE
  5
1F8
330
1A5
100
AcDbEntity
  8
428003-032
  6
Continuous
 62
     7
100
AcDbLine
 10
0.8821272741
 20
2.652889214
 30
0.0
 11
1.0461272741
 21
2.652889214
 31
0.0
  0
LINE
  5
1F9
330
1A5
100
AcDbEntity
  8
428003-032
  6
Continuous
 62
     7
100
AcDbLine
 10
0.909190568
 20
2.668514214
 30
0.0
 11
1.0190639803
 21
2.668514214
 31
0.0
  0
LINE
  5
1FA
330
1A5
100
AcDbEntity
  8
428003-032
  6
Continuous
 62
     7
100
AcDbLine
 10
0.8821272741
 20
2.684139214
 30
0.0
 11
1.0461272741
 21
2.684139214
 31
0.0
  0
LINE
  5
1FB
330
1A5
100
AcDbEntity
  8
428003-032
  6
Continuous
 62
     7
100
AcDbLine
 10
0.909190568
 20
2.699764214
 30
0.0
 11
1.0190639803
 21
2.699764214
 31
0.0
  0
LINE
  5
1FC
330
1A5
100
AcDbEntity
  8
428003-032
  6
Continuous
 62
     7
100
AcDbLine
 10
0.8821272741
 20
2.715389214
 30
0.0
 11
1.0461272741
 21
2.715389214
 31
0.0
  0
LINE
  5
1FD
330
1A5
100
AcDbEntity
  8
428003-032
  6
Continuous
 62
     7
100
AcDbLine
 10
0.909190568
 20
2.731014214
 30
0.0
 11
1.0190639803
 21
2.731014214
 31
0.0
  0
LINE
  5
1FE
330
1A5
100
AcDbEntity
  8
428003-032
  6
Continuous
 62
     7
100
AcDbLine
 10
0.8821272741
 20
2.746639214
 30
0.0
 11
1.0461272741
 21
2.746639214
 31
0.0
  0
LINE
  5
1FF
330
1A5
100
AcDbEntity
  8
428003-032
  6
Continuous
 62
     7
100
AcDbLine
 10
0.909190568
 20
2.762264214
 30
0.0
 11
1.0190639803
 21
2.762264214
 31
0.0
  0
LINE
  5
200
330
1A5
100
AcDbEntity
  8
428003-032
  6
Continuous
 62
     7
100
AcDbLine
 10
0.8821272741
 20
2.777889214
 30
0.0
 11
1.0461272741
 21
2.777889214
 31
0.0
  0
LINE
  5
201
330
1A5
100
AcDbEntity
  8
428003-032
  6
Continuous
 62
     7
100
AcDbLine
 10
0.909190568
 20
2.793514214
 30
0.0
 11
1.0190639803
 21
2.793514214
 31
0.0
  0
LINE
  5
202
330
1A5
100
AcDbEntity
  8
428003-032
  6
Continuous
 62
     7
100
AcDbLine
 10
0.8821272741
 20
2.809139214
 30
0.0
 11
1.0461272741
 21
2.809139214
 31
0.0
  0
LINE
  5
203
330
1A5
100
AcDbEntity
  8
428003-032
  6
Continuous
 62
     7
100
AcDbLine
 10
0.909190568
 20
2.824764214
 30
0.0
 11
1.0190639803
 21
2.824764214
 31
0.0
  0
LINE
  5
204
330
1A5
100
AcDbEntity
  8
428003-032
  6
Continuous
 62
     7
100
AcDbLine
 10
0.8821272741
 20
2.840389214
 30
0.0
 11
1.0461272741
 21
2.840389214
 31
0.0
  0
LINE
  5
205
330
1A5
100
AcDbEntity
  8
428003-032
  6
Continuous
 62
     7
100
AcDbLine
 10
0.909190568
 20
2.856014214
 30
0.0
 11
1.0190639803
 21
2.856014214
 31
0.0
  0
LINE
  5
206
330
1A5
100
AcDbEntity
  8
428003-032
  6
Continuous
 62
     7
100
AcDbLine
 10
0.8821272741
 20
2.871639214
 30
0.0
 11
1.0461272741
 21
2.871639214
 31
0.0
  0
LINE
  5
207
330
1A5
100
AcDbEntity
  8
428003-032
  6
Continuous
 62
     7
100
AcDbLine
 10
0.8821272741
 20
2.527889214
 30
0.0
 11
0.909190568
 21
2.512264214
 31
0.0
  0
LINE
  5
208
330
1A5
100
AcDbEntity
  8
428003-032
  6
Continuous
 62
     7
100
AcDbLine
 10
1.0190639803
 20
2.512264214
 30
0.0
 11
1.0461272741
 21
2.527889214
 31
0.0
  0
LINE
  5
209
330
1A5
100
AcDbEntity
  8
428003-032
  6
Continuous
 62
     7
100
AcDbLine
 10
1.0461272741
 20
2.527889214
 30
0.0
 11
1.0190639803
 21
2.543514214
 31
0.0
  0
LINE
  5
20A
330
1A5
100
AcDbEntity
  8
428003-032
  6
Continuous
 62
     7
100
AcDbLine
 10
0.909190568
 20
2.543514214
 30
0.0
 11
0.8821272741
 21
2.527889214
 31
0.0
  0
LINE
  5
20B
330
1A5
100
AcDbEntity
  8
428003-032
  6
Continuous
 62
     7
100
AcDbLine
 10
0.8821272741
 20
2.559139214
 30
0.0
 11
0.909190568
 21
2.543514214
 31
0.0
  0
LINE
  5
20C
330
1A5
100
AcDbEntity
  8
428003-032
  6
Continuous
 62
     7
100
AcDbLine
 10
1.0190639803
 20
2.543514214
 30
0.0
 11
1.0461272741
 21
2.559139214
 31
0.0
  0
LINE
  5
20D
330
1A5
100
AcDbEntity
  8
428003-032
  6
Continuous
 62
     7
100
AcDbLine
 10
1.0461272741
 20
2.559139214
 30
0.0
 11
1.0190639803
 21
2.574764214
 31
0.0
  0
LINE
  5
20E
330
1A5
100
AcDbEntity
  8
428003-032
  6
Continuous
 62
     7
100
AcDbLine
 10
0.909190568
 20
2.574764214
 30
0.0
 11
0.8821272741
 21
2.559139214
 31
0.0
  0
LINE
  5
20F
330
1A5
100
AcDbEntity
  8
428003-032
  6
Continuous
 62
     7
100
AcDbLine
 10
0.8821272741
 20
2.590389214
 30
0.0
 11
0.909190568
 21
2.574764214
 31
0.0
  0
LINE
  5
210
330
1A5
100
AcDbEntity
  8
428003-032
  6
Continuous
 62
     7
100
AcDbLine
 10
1.0190639803
 20
2.574764214
 30
0.0
 11
1.0461272741
 21
2.590389214
 31
0.0
  0
LINE
  5
211
330
1A5
100
AcDbEntity
  8
428003-032
  6
Continuous
 62
     7
100
AcDbLine
 10
1.0461272741
 20
2.590389214
 30
0.0
 11
1.0190639803
 21
2.606014214
 31
0.0
  0
LINE
  5
212
330
1A5
100
AcDbEntity
  8
428003-032
  6
Continuous
 62
     7
100
AcDbLine
 10
0.909190568
 20
2.606014214
 30
0.0
 11
0.8821272741
 21
2.590389214
 31
0.0
  0
LINE
  5
213
330
1A5
100
AcDbEntity
  8
428003-032
  6
Continuous
 62
     7
100
AcDbLine
 10
0.8821272741
 20
2.621639214
 30
0.0
 11
0.909190568
 21
2.606014214
 31
0.0
  0
LINE
  5
214
330
1A5
100
AcDbEntity
  8
428003-032
  6
Continuous
 62
     7
100
AcDbLine
 10
1.0190639803
 20
2.606014214
 30
0.0
 11
1.0461272741
 21
2.621639214
 31
0.0
  0
LINE
  5
215
330
1A5
100
AcDbEntity
  8
428003-032
  6
Continuous
 62
     7
100
AcDbLine
 10
1.0461272741
 20
2.621639214
 30
0.0
 11
1.0190639803
 21
2.637264214
 31
0.0
  0
LINE
  5
216
330
1A5
100
AcDbEntity
  8
428003-032
  6
Continuous
 62
     7
100
AcDbLine
 10
0.909190568
 20
2.637264214
 30
0.0
 11
0.8821272741
 21
2.621639214
 31
0.0
  0
LINE
  5
217
330
1A5
100
AcDbEntity
  8
428003-032
  6
Continuous
 62
     7
100
AcDbLine
 10
0.8821272741
 20
2.652889214
 30
0.0
 11
0.909190568
 21
2.637264214
 31
0.0
  0
LINE
  5
218
330
1A5
100
AcDbEntity
  8
428003-032
  6
Continuous
 62
     7
100
AcDbLine
 10
1.0190639803
 20
2.637264214
 30
0.0
 11
1.0461272741
 21
2.652889214
 31
0.0
  0
LINE
  5
219
330
1A5
100
AcDbEntity
  8
428003-032
  6
Continuous
 62
     7
100
AcDbLine
 10
1.0461272741
 20
2.652889214
 30
0.0
 11
1.0190639803
 21
2.668514214
 31
0.0
  0
LINE
  5
21A
330
1A5
100
AcDbEntity
  8
428003-032
  6
Continuous
 62
     7
100
AcDbLine
 10
0.909190568
 20
2.668514214
 30
0.0
 11
0.8821272741
 21
2.652889214
 31
0.0
  0
LINE
  5
21B
330
1A5
100
AcDbEntity
  8
428003-032
  6
Continuous
 62
     7
100
AcDbLine
 10
0.8821272741
 20
2.684139214
 30
0.0
 11
0.909190568
 21
2.668514214
 31
0.0
  0
LINE
  5
21C
330
1A5
100
AcDbEntity
  8
428003-032
  6
Continuous
 62
     7
100
AcDbLine
 10
1.0190639803
 20
2.668514214
 30
0.0
 11
1.0461272741
 21
2.684139214
 31
0.0
  0
LINE
  5
21D
330
1A5
100
AcDbEntity
  8
428003-032
  6
Continuous
 62
     7
100
AcDbLine
 10
1.0461272741
 20
2.684139214
 30
0.0
 11
1.0190639803
 21
2.699764214
 31
0.0
  0
LINE
  5
21E
330
1A5
100
AcDbEntity
  8
428003-032
  6
Continuous
 62
     7
100
AcDbLine
 10
0.909190568
 20
2.699764214
 30
0.0
 11
0.8821272741
 21
2.684139214
 31
0.0
  0
LINE
  5
21F
330
1A5
100
AcDbEntity
  8
428003-032
  6
Continuous
 62
     7
100
AcDbLine
 10
0.8821272741
 20
2.715389214
 30
0.0
 11
0.909190568
 21
2.699764214
 31
0.0
  0
LINE
  5
220
330
1A5
100
AcDbEntity
  8
428003-032
  6
Continuous
 62
     7
100
AcDbLine
 10
1.0190639803
 20
2.699764214
 30
0.0
 11
1.0461272741
 21
2.715389214
 31
0.0
  0
LINE
  5
221
330
1A5
100
AcDbEntity
  8
428003-032
  6
Continuous
 62
     7
100
AcDbLine
 10
1.0461272741
 20
2.715389214
 30
0.0
 11
1.0190639803
 21
2.731014214
 31
0.0
  0
LINE
  5
222
330
1A5
100
AcDbEntity
  8
428003-032
  6
Continuous
 62
     7
100
AcDbLine
 10
0.909190568
 20
2.731014214
 30
0.0
 11
0.8821272741
 21
2.715389214
 31
0.0
  0
LINE
  5
223
330
1A5
100
AcDbEntity
  8
428003-032
  6
Continuous
 62
     7
100
AcDbLine
 10
0.8821272741
 20
2.746639214
 30
0.0
 11
0.909190568
 21
2.731014214
 31
0.0
  0
LINE
  5
224
330
1A5
100
AcDbEntity
  8
428003-032
  6
Continuous
 62
     7
100
AcDbLine
 10
1.0190639803
 20
2.731014214
 30
0.0
 11
1.0461272741
 21
2.746639214
 31
0.0
  0
LINE
  5
225
330
1A5
100
AcDbEntity
  8
428003-032
  6
Continuous
 62
     7
100
AcDbLine
 10
1.0461272741
 20
2.746639214
 30
0.0
 11
1.0190639803
 21
2.762264214
 31
0.0
  0
LINE
  5
226
330
1A5
100
AcDbEntity
  8
428003-032
  6
Continuous
 62
     7
100
AcDbLine
 10
0.909190568
 20
2.762264214
 30
0.0
 11
0.8821272741
 21
2.746639214
 31
0.0
  0
LINE
  5
227
330
1A5
100
AcDbEntity
  8
428003-032
  6
Continuous
 62
     7
100
AcDbLine
 10
0.8821272741
 20
2.777889214
 30
0.0
 11
0.909190568
 21
2.762264214
 31
0.0
  0
LINE
  5
228
330
1A5
100
AcDbEntity
  8
428003-032
  6
Continuous
 62
     7
100
AcDbLine
 10
1.0190639803
 20
2.762264214
 30
0.0
 11
1.0461272741
 21
2.777889214
 31
0.0
  0
LINE
  5
229
330
1A5
100
AcDbEntity
  8
428003-032
  6
Continuous
 62
     7
100
AcDbLine
 10
1.0461272741
 20
2.777889214
 30
0.0
 11
1.0190639803
 21
2.793514214
 31
0.0
  0
LINE
  5
22A
330
1A5
100
AcDbEntity
  8
428003-032
  6
Continuous
 62
     7
100
AcDbLine
 10
0.909190568
 20
2.793514214
 30
0.0
 11
0.8821272741
 21
2.777889214
 31
0.0
  0
LINE
  5
22B
330
1A5
100
AcDbEntity
  8
428003-032
  6
Continuous
 62
     7
100
AcDbLine
 10
0.8821272741
 20
2.809139214
 30
0.0
 11
0.909190568
 21
2.793514214
 31
0.0
  0
LINE
  5
22C
330
1A5
100
AcDbEntity
  8
428003-032
  6
Continuous
 62
     7
100
AcDbLine
 10
1.0190639803
 20
2.793514214
 30
0.0
 11
1.0461272741
 21
2.809139214
 31
0.0
  0
LINE
  5
22D
330
1A5
100
AcDbEntity
  8
428003-032
  6
Continuous
 62
     7
100
AcDbLine
 10
1.0461272741
 20
2.809139214
 30
0.0
 11
1.0190639803
 21
2.824764214
 31
0.0
  0
LINE
  5
22E
330
1A5
100
AcDbEntity
  8
428003-032
  6
Continuous
 62
     7
100
AcDbLine
 10
0.909190568
 20
2.824764214
 30
0.0
 11
0.8821272741
 21
2.809139214
 31
0.0
  0
LINE
  5
22F
330
1A5
100
AcDbEntity
  8
428003-032
  6
Continuous
 62
     7
100
AcDbLine
 10
0.8821272741
 20
2.840389214
 30
0.0
 11
0.909190568
 21
2.824764214
 31
0.0
  0
LINE
  5
230
330
1A5
100
AcDbEntity
  8
428003-032
  6
Continuous
 62
     7
100
AcDbLine
 10
1.0190639803
 20
2.824764214
 30
0.0
 11
1.0461272741
 21
2.840389214
 31
0.0
  0
LINE
  5
231
330
1A5
100
AcDbEntity
  8
428003-032
  6
Continuous
 62
     7
100
AcDbLine
 10
1.0461272741
 20
2.840389214
 30
0.0
 11
1.0190639803
 21
2.856014214
 31
0.0
  0
LINE
  5
232
330
1A5
100
AcDbEntity
  8
428003-032
  6
Continuous
 62
     7
100
AcDbLine
 10
0.909190568
 20
2.856014214
 30
0.0
 11
0.8821272741
 21
2.840389214
 31
0.0
  0
LINE
  5
233
330
1A5
100
AcDbEntity
  8
428003-032
  6
Continuous
 62
     7
100
AcDbLine
 10
0.8821272741
 20
2.871639214
 30
0.0
 11
0.909190568
 21
2.856014214
 31
0.0
  0
LINE
  5
234
330
1A5
100
AcDbEntity
  8
428003-032
  6
Continuous
 62
     7
100
AcDbLine
 10
1.0190639803
 20
2.856014214
 30
0.0
 11
1.0461272741
 21
2.871639214
 31
0.0
  0
LINE
  5
235
330
1A5
100
AcDbEntity
  8
428003-032
  6
Continuous
 62
     7
100
AcDbLine
 10
1.0461272741
 20
2.871639214
 30
0.0
 11
1.0190639803
 21
2.887264214
 31
0.0
  0
LINE
  5
236
330
1A5
100
AcDbEntity
  8
428003-032
  6
Continuous
 62
     7
100
AcDbLine
 10
0.909190568
 20
2.887264214
 30
0.0
 11
0.8821272741
 21
2.871639214
 31
0.0
  0
LINE
  5
238
330
1A5
100
AcDbEntity
  8
43514
  6
Continuous
 62
     7
100
AcDbLine
 10
3.9460301233
 20
2.599264214
 30
0.0
 11
1.6342244249
 21
2.599264214
 31
0.0
  0
LINE
  5
239
330
1A5
100
AcDbEntity
  8
43514
  6
Continuous
 62
     7
100
AcDbLine
 10
4.0453356705
 20
2.599264214
 30
0.0
 11
4.549499225
 21
2.599264214
 31
0.0
  0
LINE
  5
23A
330
1A5
100
AcDbEntity
  8
43514
  6
Continuous
 62
     7
100
AcDbLine
 10
4.6827553232
 20
2.599264214
 30
0.0
 11
4.70189198
 21
2.599264214
 31
0.0
  0
LINE
  5
23B
330
1A5
100
AcDbEntity
  8
43514
  6
Continuous
 62
     7
100
AcDbLine
 10
0.8783625682
 20
2.599264214
 30
0.0
 11
0.897499225
 21
2.599264214
 31
0.0
  0
LINE
  5
23C
330
1A5
100
AcDbEntity
  8
43514
  6
Continuous
 62
     7
100
AcDbLine
 10
1.0307553232
 20
2.599264214
 30
0.0
 11
1.5349188778
 21
2.599264214
 31
0.0
  0
LINE
  5
23D
330
1A5
100
AcDbEntity
  8
43514
  6
Continuous
 62
     7
100
AcDbLine
 10
4.7901272741
 20
2.599264214
 30
0.0
 11
4.70189198
 21
2.599264214
 31
0.0
  0
LINE
  5
23E
330
1A5
100
AcDbEntity
  8
43514
  6
Continuous
 62
     7
100
AcDbLine
 10
4.0453356705
 20
2.599264214
 30
0.0
 11
3.9460301233
 21
2.599264214
 31
0.0
  0
LINE
  5
23F
330
1A5
100
AcDbEntity
  8
43514
  6
Continuous
 62
     7
100
AcDbLine
 10
0.8783625682
 20
2.599264214
 30
0.0
 11
0.7901272741
 21
2.599264214
 31
0.0
  0
LINE
  5
240
330
1A5
100
AcDbEntity
  8
43514
  6
Continuous
 62
     7
100
AcDbLine
 10
1.6342244249
 20
2.599264214
 30
0.0
 11
1.5349188778
 21
2.599264214
 31
0.0
  0
LINE
  5
241
330
1A5
100
AcDbEntity
  8
43514
  6
Continuous
 62
     7
100
AcDbLine
 10
0.7901272741
 20
2.599264214
 30
0.0
 11
0.7901272741
 21
2.637264214
 31
0.0
  0
LINE
  5
242
330
1A5
100
AcDbEntity
  8
43514
  6
Continuous
 62
     7
100
AcDbLine
 10
4.7901272741
 20
2.637264214
 30
0.0
 11
4.7901272741
 21
2.599264214
 31
0.0
  0
LINE
  5
243
330
1A5
100
AcDbEntity
  8
83800X
  6
Continuous
 62
     7
100
AcDbLine
 10
4.3661272741
 20
2.762264214
 30
0.0
 11
4.561190568
 21
2.762264214
 31
0.0
  0
LINE
  5
244
330
1A5
100
AcDbEntity
  8
83800X
  6
Continuous
 62
     7
100
AcDbLine
 10
4.6710639803
 20
2.762264214
 30
0.0
 11
4.7561272741
 21
2.762264214
 31
0.0
  0
LINE
  5
245
330
1A5
100
AcDbEntity
  8
83800X
  6
Continuous
 62
     7
100
AcDbLine
 10
4.3661272741
 20
2.637264214
 30
0.0
 11
4.561190568
 21
2.637264214
 31
0.0
  0
LINE
  5
246
330
1A5
100
AcDbEntity
  8
83800X
  6
Continuous
 62
     7
100
AcDbLine
 10
4.6710639803
 20
2.637264214
 30
0.0
 11
4.7561272741
 21
2.637264214
 31
0.0
  0
LINE
  5
247
330
1A5
100
AcDbEntity
  8
83800X
  6
Continuous
 62
     7
100
AcDbLine
 10
1.0190639803
 20
2.762264214
 30
0.0
 11
1.2141272741
 21
2.762264214
 31
0.0
  0
LINE
  5
248
330
1A5
100
AcDbEntity
  8
83800X
  6
Continuous
 62
     7
100
AcDbLine
 10
1.0190639803
 20
2.637264214
 30
0.0
 11
1.2141272741
 21
2.637264214
 31
0.0
  0
LINE
  5
249
330
1A5
100
AcDbEntity
  8
83800X
  6
Continuous
 62
     7
100
AcDbLine
 10
0.8241272741
 20
2.637264214
 30
0.0
 11
0.909190568
 21
2.637264214
 31
0.0
  0
LINE
  5
24A
330
1A5
100
AcDbEntity
  8
83800X
  6
Continuous
 62
     7
100
AcDbLine
 10
0.8241272741
 20
2.762264214
 30
0.0
 11
0.909190568
 21
2.762264214
 31
0.0
  0
LINE
  5
24B
330
1A5
100
AcDbEntity
  8
83800X
  6
Continuous
 62
     7
100
AcDbLine
 10
0.8241272741
 20
2.637264214
 30
0.0
 11
0.6991272741
 21
2.637264214
 31
0.0
  0
LINE
  5
24C
330
1A5
100
AcDbEntity
  8
83800X
  6
Continuous
 62
     7
100
AcDbLine
 10
0.6991272741
 20
2.637264214
 30
0.0
 11
0.6991272741
 21
2.762264214
 31
0.0
  0
LINE
  5
24D
330
1A5
100
AcDbEntity
  8
83800X
  6
Continuous
 62
     7
100
AcDbLine
 10
0.6991272741
 20
2.762264214
 30
0.0
 11
0.8241272741
 21
2.762264214
 31
0.0
  0
LINE
  5
24E
330
1A5
100
AcDbEntity
  8
83800X
  6
Continuous
 62
     7
100
AcDbLine
 10
4.8811272741
 20
2.762264214
 30
0.0
 11
4.8811272741
 21
2.637264214
 31
0.0
  0
LINE
  5
24F
330
1A5
100
AcDbEntity
  8
83800X
  6
Continuous
 62
     7
100
AcDbLine
 10
4.8811272741
 20
2.637264214
 30
0.0
 11
4.7561272741
 21
2.637264214
 31
0.0
  0
LINE
  5
250
330
1A5
100
AcDbEntity
  8
83800X
  6
Continuous
 62
     7
100
AcDbLine
 10
4.7561272741
 20
2.762264214
 30
0.0
 11
4.8811272741
 21
2.762264214
 31
0.0
  0
LINE
  5
251
330
1A5
100
AcDbEntity
  8
83800X
  6
Continuous
 62
     7
100
AcDbLine
 10
4.3661272741
 20
2.762264214
 30
0.0
 11
4.3661272741
 21
2.637264214
 31
0.0
  0
LINE
  5
252
330
1A5
100
AcDbEntity
  8
83800X
  6
Continuous
 62
     7
100
AcDbLine
 10
4.2411272741
 20
2.637264214
 30
0.0
 11
1.3391272741
 21
2.637264214
 31
0.0
  0
LINE
  5
253
330
1A5
100
AcDbEntity
  8
83800X
  6
Continuous
 62
     7
100
AcDbLine
 10
4.3661272741
 20
2.637264214
 30
0.0
 11
4.2411272741
 21
2.637264214
 31
0.0
  0
LINE
  5
254
330
1A5
100
AcDbEntity
  8
83800X
  6
Continuous
 62
     7
100
AcDbLine
 10
4.2411272741
 20
2.762264214
 30
0.0
 11
1.3391272741
 21
2.762264214
 31
0.0
  0
LINE
  5
255
330
1A5
100
AcDbEntity
  8
83800X
  6
Continuous
 62
     7
100
AcDbLine
 10
4.2411272741
 20
2.762264214
 30
0.0
 11
4.3661272741
 21
2.762264214
 31
0.0
  0
LINE
  5
256
330
1A5
100
AcDbEntity
  8
83800X
  6
Continuous
 62
     7
100
AcDbLine
 10
1.3391272741
 20
2.637264214
 30
0.0
 11
1.2141272741
 21
2.637264214
 31
0.0
  0
LINE
  5
257
330
1A5
100
AcDbEntity
  8
83800X
  6
Continuous
 62
     7
100
AcDbLine
 10
1.2141272741
 20
2.637264214
 30
0.0
 11
1.2141272741
 21
2.762264214
 31
0.0
  0
LINE
  5
258
330
1A5
100
AcDbEntity
  8
83800X
  6
Continuous
 62
     7
100
AcDbLine
 10
1.2141272741
 20
2.762264214
 30
0.0
 11
1.3391272741
 21
2.762264214
 31
0.0
  0
CIRCLE
  5
259
330
1A5
100
AcDbEntity
  8
1031
  6
Continuous
 62
     7
100
AcDbCircle
 10
4.1992701217
 20
2.887264214
 30
0.0
 40
0.029
  0
ARC
  5
25A
330
1A5
100
AcDbEntity
  8
43455M
  6
Continuous
 62
     7
100
AcDbCircle
 10
4.1992701217
 20
2.887264214
 30
0.0
 40
0.0320000000000001
100
AcDbArc
 50
13.3878420827
 51
19.2074472746
  0
LINE
  5
25B
330
1A5
100
AcDbEntity
  8
43454M
  6
Continuous
 62
     7
100
AcDbLine
 10
1.2761272741
 20
2.762264214
 30
0.0
 11
1.2761272741
 21
2.857264214
 31
0.0
  0
LINE
  5
25C
330
1A5
100
AcDbEntity
  8
43454M
  6
Continuous
 62
     7
100
AcDbLine
 10
0.7348234144
 20
2.762264214
 30
0.0
 11
0.7227099709
 21
2.8609202943
 31
0.0
  0
LINE
  5
25D
330
1A5
100
AcDbEntity
  8
43454M
  6
Continuous
 62
     7
100
AcDbLine
 10
0.7636800432
 20
3.012264214
 30
0.0
 11
4.816574505
 21
3.012264214
 31
0.0
  0
LINE
  5
25E
330
1A5
100
AcDbEntity
  8
43454M
  6
Continuous
 62
     7
100
AcDbLine
 10
0.7041272741
 20
3.012264214
 30
0.0
 11
0.7636800432
 21
3.012264214
 31
0.0
  0
LINE
  5
25F
330
1A5
100
AcDbEntity
  8
43454M
  6
Continuous
 62
     7
100
AcDbLine
 10
4.816574505
 20
3.012264214
 30
0.0
 11
4.8761272741
 21
3.012264214
 31
0.0
  0
LINE
  5
260
330
1A5
100
AcDbEntity
  8
43454M
  6
Continuous
 62
     7
100
AcDbLine
 10
4.8761272741
 20
3.012264214
 30
0.0
 11
4.8640138306
 21
2.9136081337
 31
0.0
  0
LINE
  5
261
330
1A5
100
AcDbEntity
  8
43454M
  6
Continuous
 62
     7
100
AcDbLine
 10
4.8044610615
 20
2.887264214
 30
0.0
 11
4.2905627575
 21
2.887264214
 31
0.0
  0
LINE
  5
262
330
1A5
100
AcDbEntity
  8
43454M
  6
Continuous
 62
     7
100
AcDbLine
 10
4.8342374461
 20
2.887264214
 30
0.0
 11
4.8044610615
 21
2.887264214
 31
0.0
  0
LINE
  5
263
330
1A5
100
AcDbEntity
  8
43454M
  6
Continuous
 62
     7
100
AcDbLine
 10
4.8575445774
 20
2.8609202943
 30
0.0
 11
4.8454311339
 21
2.762264214
 31
0.0
  0
LINE
  5
264
330
1A5
100
AcDbEntity
  8
43454M
  6
Continuous
 62
     7
100
AcDbLine
 10
4.2991272741
 20
2.857264214
 30
0.0
 11
4.2991272741
 21
2.762264214
 31
0.0
  0
LINE
  5
265
330
1A5
100
AcDbEntity
  8
43454M
  6
Continuous
 62
     7
100
AcDbLine
 10
4.8640138306
 20
2.9136081337
 30
0.0
 11
4.8575445774
 21
2.8609202943
 31
0.0
  0
ARC
  5
266
330
1A5
100
AcDbEntity
  8
43454M
  6
Continuous
 62
     7
100
AcDbCircle
 10
4.8342374461
 20
2.917264214
 30
0.0
 40
0.0300000000000005
100
AcDbArc
 50
270.0
 51
353.0
  0
ARC
  5
267
330
1A5
100
AcDbEntity
  8
43454M
  6
Continuous
 62
     7
100
AcDbCircle
 10
4.3291272741
 20
2.857264214
 30
0.0
 40
0.03
100
AcDbArc
 50
90.0
 51
180.0
  0
LINE
  5
268
330
1A5
100
AcDbEntity
  8
43454M
  6
Continuous
 62
     7
100
AcDbLine
 10
1.2846917907
 20
2.887264214
 30
0.0
 11
0.7757934867
 21
2.887264214
 31
0.0
  0
LINE
  5
269
330
1A5
100
AcDbEntity
  8
43454M
  6
Continuous
 62
     7
100
AcDbLine
 10
0.7757934867
 20
2.887264214
 30
0.0
 11
0.7460171022
 21
2.887264214
 31
0.0
  0
LINE
  5
26A
330
1A5
100
AcDbEntity
  8
43454M
  6
Continuous
 62
     7
100
AcDbLine
 10
0.7162407176
 20
2.9136081337
 30
0.0
 11
0.7041272741
 21
3.012264214
 31
0.0
  0
LINE
  5
26B
330
1A5
100
AcDbEntity
  8
43454M
  6
Continuous
 62
     7
100
AcDbLine
 10
0.7227099709
 20
2.8609202943
 30
0.0
 11
0.7162407176
 21
2.9136081337
 31
0.0
  0
ARC
  5
26C
330
1A5
100
AcDbEntity
  8
43454M
  6
Continuous
 62
     7
100
AcDbCircle
 10
0.7460171022
 20
2.917264214
 30
0.0
 40
0.03
100
AcDbArc
 50
187.0
 51
270.0
  0
ARC
  5
26D
330
1A5
100
AcDbEntity
  8
43454M
  6
Continuous
 62
     7
100
AcDbCircle
 10
1.2461272741
 20
2.857264214
 30
0.0
 40
0.03
100
AcDbArc
 50
0.0
 51
90.0
  0
ARC
  5
26E
330
1A5
100
AcDbEntity
  8
43454M
  6
Continuous
 62
     7
100
AcDbCircle
 10
4.1992522108
 20
2.8872611834
 30
0.0
 40
0.0320179110563161
100
AcDbArc
 50
0.0054232364
 51
19.2020240397
  0
ARC
  5
26F
330
1A5
100
AcDbEntity
  8
43454M
  6
Continuous
 62
     7
100
AcDbCircle
 10
4.1992701217
 20
2.887264214
 30
0.0
 40
0.0320000000000002
100
AcDbArc
 50
19.2074472746
 51
180.0
  0
LINE
  5
270
330
1A5
100
AcDbEntity
  8
43454M
  6
Continuous
 62
     7
100
AcDbLine
 10
4.1672701217
 20
2.887264214
 30
0.0
 11
4.1672701217
 21
2.762264214
 31
0.0
  0
LINE
  5
271
330
1A5
100
AcDbEntity
  8
43454M
  6
Continuous
 62
     7
100
AcDbLine
 10
4.2312701217
 20
2.762264214
 30
0.0
 11
4.2312701217
 21
2.8605159074
 31
0.0
  0
LINE
  5
272
330
1A5
100
AcDbEntity
  8
43454M
  6
Continuous
 62
     7
100
AcDbLine
 10
4.2312701217
 20
2.8772783787
 30
0.0
 11
4.2312701217
 21
2.887264214
 31
0.0
  0
LINE
  5
273
330
1A5
100
AcDbEntity
  8
43454M
  6
Continuous
 62
     7
100
AcDbLine
 10
4.2312701217
 20
2.8772783787
 30
0.0
 11
4.2312701217
 21
2.8605159074
 31
0.0
  0
ENDBLK
  5
275
330
1A5
100
AcDbEntity
  8
0
100
AcDbBlockEnd
  0
BLOCK
  5
33E
330
276
100
AcDbEntity
  8
0
100
AcDbBlockBegin
  2
SE3
 70
     0
 71
     0
 10
0.0
 20
0.0
 30
0.0
  3
SE3
  1

  0
LINE
  5
278
330
276
100
AcDbEntity
  8
428003-032
  6
Continuous
 62
     7
100
AcDbLine
 10
6.9962247038
 20
2.512264214
 30
0.0
 11
7.1060981161
 21
2.512264214
 31
0.0
  0
LINE
  5
279
330
276
100
AcDbEntity
  8
428003-032
  6
Continuous
 62
     7
100
AcDbLine
 10
6.9691614099
 20
2.527889214
 30
0.0
 11
7.1331614099
 21
2.527889214
 31
0.0
  0
LINE
  5
27A
330
276
100
AcDbEntity
  8
428003-032
  6
Continuous
 62
     7
100
AcDbLine
 10
6.9962247038
 20
2.543514214
 30
0.0
 11
7.1060981161
 21
2.543514214
 31
0.0
  0
LINE
  5
27B
330
276
100
AcDbEntity
  8
428003-032
  6
Continuous
 62
     7
100
AcDbLine
 10
6.9691614099
 20
2.559139214
 30
0.0
 11
7.1331614099
 21
2.559139214
 31
0.0
  0
LINE
  5
27C
330
276
100
AcDbEntity
  8
428003-032
  6
Continuous
 62
     7
100
AcDbLine
 10
6.9962247038
 20
2.574764214
 30
0.0
 11
7.1060981161
 21
2.574764214
 31
0.0
  0
LINE
  5
27D
330
276
100
AcDbEntity
  8
428003-032
  6
Continuous
 62
     7
100
AcDbLine
 10
6.9691614099
 20
2.590389214
 30
0.0
 11
7.1331614099
 21
2.590389214
 31
0.0
  0
LINE
  5
27E
330
276
100
AcDbEntity
  8
428003-032
  6
Continuous
 62
     7
100
AcDbLine
 10
6.9962247038
 20
2.606014214
 30
0.0
 11
7.1060981161
 21
2.606014214
 31
0.0
  0
LINE
  5
27F
330
276
100
AcDbEntity
  8
428003-032
  6
Continuous
 62
     7
100
AcDbLine
 10
6.9691614099
 20
2.621639214
 30
0.0
 11
7.1331614099
 21
2.621639214
 31
0.0
  0
LINE
  5
280
330
276
100
AcDbEntity
  8
428003-032
  6
Continuous
 62
     7
100
AcDbLine
 10
6.9962247038
 20
2.637264214
 30
0.0
 11
7.1060981161
 21
2.637264214
 31
0.0
  0
LINE
  5
281
330
276
100
AcDbEntity
  8
428003-032
  6
Continuous
 62
     7
100
AcDbLine
 10
6.9691614099
 20
2.652889214
 30
0.0
 11
7.1331614099
 21
2.652889214
 31
0.0
  0
LINE
  5
282
330
276
100
AcDbEntity
  8
428003-032
  6
Continuous
 62
     7
100
AcDbLine
 10
6.9962247038
 20
2.668514214
 30
0.0
 11
7.1060981161
 21
2.668514214
 31
0.0
  0
LINE
  5
283
330
276
100
AcDbEntity
  8
428003-032
  6
Continuous
 62
     7
100
AcDbLine
 10
6.9691614099
 20
2.684139214
 30
0.0
 11
7.1331614099
 21
2.684139214
 31
0.0
  0
LINE
  5
284
330
276
100
AcDbEntity
  8
428003-032
  6
Continuous
 62
     7
100
AcDbLine
 10
6.9962247038
 20
2.699764214
 30
0.0
 11
7.1060981161
 21
2.699764214
 31
0.0
  0
LINE
  5
285
330
276
100
AcDbEntity
  8
428003-032
  6
Continuous
 62
     7
100
AcDbLine
 10
6.9691614099
 20
2.715389214
 30
0.0
 11
7.1331614099
 21
2.715389214
 31
0.0
  0
LINE
  5
286
330
276
100
AcDbEntity
  8
428003-032
  6
Continuous
 62
     7
100
AcDbLine
 10
6.9962247038
 20
2.731014214
 30
0.0
 11
7.1060981161
 21
2.731014214
 31
0.0
  0
LINE
  5
287
330
276
100
AcDbEntity
  8
428003-032
  6
Continuous
 62
     7
100
AcDbLine
 10
6.9691614099
 20
2.746639214
 30
0.0
 11
7.1331614099
 21
2.746639214
 31
0.0
  0
LINE
  5
288
330
276
100
AcDbEntity
  8
428003-032
  6
Continuous
 62
     7
100
AcDbLine
 10
6.9962247038
 20
2.762264214
 30
0.0
 11
7.1060981161
 21
2.762264214
 31
0.0
  0
LINE
  5
289
330
276
100
AcDbEntity
  8
428003-032
  6
Continuous
 62
     7
100
AcDbLine
 10
6.9691614099
 20
2.777889214
 30
0.0
 11
7.1331614099
 21
2.777889214
 31
0.0
  0
LINE
  5
28A
330
276
100
AcDbEntity
  8
428003-032
  6
Continuous
 62
     7
100
AcDbLine
 10
6.9962247038
 20
2.793514214
 30
0.0
 11
7.1060981161
 21
2.793514214
 31
0.0
  0
LINE
  5
28B
330
276
100
AcDbEntity
  8
428003-032
  6
Continuous
 62
     7
100
AcDbLine
 10
6.9691614099
 20
2.809139214
 30
0.0
 11
7.1331614099
 21
2.809139214
 31
0.0
  0
LINE
  5
28C
330
276
100
AcDbEntity
  8
428003-032
  6
Continuous
 62
     7
100
AcDbLine
 10
6.9962247038
 20
2.824764214
 30
0.0
 11
7.1060981161
 21
2.824764214
 31
0.0
  0
LINE
  5
28D
330
276
100
AcDbEntity
  8
428003-032
  6
Continuous
 62
     7
100
AcDbLine
 10
6.9691614099
 20
2.840389214
 30
0.0
 11
7.1331614099
 21
2.840389214
 31
0.0
  0
LINE
  5
28E
330
276
100
AcDbEntity
  8
428003-032
  6
Continuous
 62
     7
100
AcDbLine
 10
6.9962247038
 20
2.856014214
 30
0.0
 11
7.1060981161
 21
2.856014214
 31
0.0
  0
LINE
  5
28F
330
276
100
AcDbEntity
  8
428003-032
  6
Continuous
 62
     7
100
AcDbLine
 10
6.9691614099
 20
2.871639214
 30
0.0
 11
7.1331614099
 21
2.871639214
 31
0.0
  0
LINE
  5
290
330
276
100
AcDbEntity
  8
428003-032
  6
Continuous
 62
     7
100
AcDbLine
 10
6.9691614099
 20
2.527889214
 30
0.0
 11
6.9962247038
 21
2.512264214
 31
0.0
  0
LINE
  5
291
330
276
100
AcDbEntity
  8
428003-032
  6
Continuous
 62
     7
100
AcDbLine
 10
7.1060981161
 20
2.512264214
 30
0.0
 11
7.1331614099
 21
2.527889214
 31
0.0
  0
LINE
  5
292
330
276
100
AcDbEntity
  8
428003-032
  6
Continuous
 62
     7
100
AcDbLine
 10
7.1331614099
 20
2.527889214
 30
0.0
 11
7.1060981161
 21
2.543514214
 31
0.0
  0
LINE
  5
293
330
276
100
AcDbEntity
  8
428003-032
  6
Continuous
 62
     7
100
AcDbLine
 10
6.9962247038
 20
2.543514214
 30
0.0
 11
6.9691614099
 21
2.527889214
 31
0.0
  0
LINE
  5
294
330
276
100
AcDbEntity
  8
428003-032
  6
Continuous
 62
     7
100
AcDbLine
 10
6.9691614099
 20
2.559139214
 30
0.0
 11
6.9962247038
 21
2.543514214
 31
0.0
  0
LINE
  5
295
330
276
100
AcDbEntity
  8
428003-032
  6
Continuous
 62
     7
100
AcDbLine
 10
7.1060981161
 20
2.543514214
 30
0.0
 11
7.1331614099
 21
2.559139214
 31
0.0
  0
LINE
  5
296
330
276
100
AcDbEntity
  8
428003-032
  6
Continuous
 62
     7
100
AcDbLine
 10
7.1331614099
 20
2.559139214
 30
0.0
 11
7.1060981161
 21
2.574764214
 31
0.0
  0
LINE
  5
297
330
276
100
AcDbEntity
  8
428003-032
  6
Continuous
 62
     7
100
AcDbLine
 10
6.9962247038
 20
2.574764214
 30
0.0
 11
6.9691614099
 21
2.559139214
 31
0.0
  0
LINE
  5
298
330
276
100
AcDbEntity
  8
428003-032
  6
Continuous
 62
     7
100
AcDbLine
 10
6.9691614099
 20
2.590389214
 30
0.0
 11
6.9962247038
 21
2.574764214
 31
0.0
  0
LINE
  5
299
330
276
100
AcDbEntity
  8
428003-032
  6
Continuous
 62
     7
100
AcDbLine
 10
7.1060981161
 20
2.574764214
 30
0.0
 11
7.1331614099
 21
2.590389214
 31
0.0
  0
LINE
  5
29A
330
276
100
AcDbEntity
  8
428003-032
  6
Continuous
 62
     7
100
AcDbLine
 10
7.1331614099
 20
2.590389214
 30
0.0
 11
7.1060981161
 21
2.606014214
 31
0.0
  0
LINE
  5
29B
330
276
100
AcDbEntity
  8
428003-032
  6
Continuous
 62
     7
100
AcDbLine
 10
6.9962247038
 20
2.606014214
 30
0.0
 11
6.9691614099
 21
2.590389214
 31
0.0
  0
LINE
  5
29C
330
276
100
AcDbEntity
  8
428003-032
  6
Continuous
 62
     7
100
AcDbLine
 10
6.9691614099
 20
2.621639214
 30
0.0
 11
6.9962247038
 21
2.606014214
 31
0.0
  0
LINE
  5
29D
330
276
100
AcDbEntity
  8
428003-032
  6
Continuous
 62
     7
100
AcDbLine
 10
7.1060981161
 20
2.606014214
 30
0.0
 11
7.1331614099
 21
2.621639214
 31
0.0
  0
LINE
  5
29E
330
276
100
AcDbEntity
  8
428003-032
  6
Continuous
 62
     7
100
AcDbLine
 10
7.1331614099
 20
2.621639214
 30
0.0
 11
7.1060981161
 21
2.637264214
 31
0.0
  0
LINE
  5
29F
330
276
100
AcDbEntity
  8
428003-032
  6
Continuous
 62
     7
100
AcDbLine
 10
6.9962247038
 20
2.637264214
 30
0.0
 11
6.9691614099
 21
2.621639214
 31
0.0
  0
LINE
  5
2A0
330
276
100
AcDbEntity
  8
428003-032
  6
Continuous
 62
     7
100
AcDbLine
 10
6.9691614099
 20
2.652889214
 30
0.0
 11
6.9962247038
 21
2.637264214
 31
0.0
  0
LINE
  5
2A1
330
276
100
AcDbEntity
  8
428003-032
  6
Continuous
 62
     7
100
AcDbLine
 10
7.1060981161
 20
2.637264214
 30
0.0
 11
7.1331614099
 21
2.652889214
 31
0.0
  0
LINE
  5
2A2
330
276
100
AcDbEntity
  8
428003-032
  6
Continuous
 62
     7
100
AcDbLine
 10
7.1331614099
 20
2.652889214
 30
0.0
 11
7.1060981161
 21
2.668514214
 31
0.0
  0
LINE
  5
2A3
330
276
100
AcDbEntity
  8
428003-032
  6
Continuous
 62
     7
100
AcDbLine
 10
6.9962247038
 20
2.668514214
 30
0.0
 11
6.9691614099
 21
2.652889214
 31
0.0
  0
LINE
  5
2A4
330
276
100
AcDbEntity
  8
428003-032
  6
Continuous
 62
     7
100
AcDbLine
 10
6.9691614099
 20
2.684139214
 30
0.0
 11
6.9962247038
 21
2.668514214
 31
0.0
  0
LINE
  5
2A5
330
276
100
AcDbEntity
  8
428003-032
  6
Continuous
 62
     7
100
AcDbLine
 10
7.1060981161
 20
2.668514214
 30
0.0
 11
7.1331614099
 21
2.684139214
 31
0.0
  0
LINE
  5
2A6
330
276
100
AcDbEntity
  8
428003-032
  6
Continuous
 62
     7
100
AcDbLine
 10
7.1331614099
 20
2.684139214
 30
0.0
 11
7.1060981161
 21
2.699764214
 31
0.0
  0
LINE
  5
2A7
330
276
100
AcDbEntity
  8
428003-032
  6
Continuous
 62
     7
100
AcDbLine
 10
6.9962247038
 20
2.699764214
 30
0.0
 11
6.9691614099
 21
2.684139214
 31
0.0
  0
LINE
  5
2A8
330
276
100
AcDbEntity
  8
428003-032
  6
Continuous
 62
     7
100
AcDbLine
 10
6.9691614099
 20
2.715389214
 30
0.0
 11
6.9962247038
 21
2.699764214
 31
0.0
  0
LINE
  5
2A9
330
276
100
AcDbEntity
  8
428003-032
  6
Continuous
 62
     7
100
AcDbLine
 10
7.1060981161
 20
2.699764214
 30
0.0
 11
7.1331614099
 21
2.715389214
 31
0.0
  0
LINE
  5
2AA
330
276
100
AcDbEntity
  8
428003-032
  6
Continuous
 62
     7
100
AcDbLine
 10
7.1331614099
 20
2.715389214
 30
0.0
 11
7.1060981161
 21
2.731014214
 31
0.0
  0
LINE
  5
2AB
330
276
100
AcDbEntity
  8
428003-032
  6
Continuous
 62
     7
100
AcDbLine
 10
6.9962247038
 20
2.731014214
 30
0.0
 11
6.9691614099
 21
2.715389214
 31
0.0
  0
LINE
  5
2AC
330
276
100
AcDbEntity
  8
428003-032
  6
Continuous
 62
     7
100
AcDbLine
 10
6.9691614099
 20
2.746639214
 30
0.0
 11
6.9962247038
 21
2.731014214
 31
0.0
  0
LINE
  5
2AD
330
276
100
AcDbEntity
  8
428003-032
  6
Continuous
 62
     7
100
AcDbLine
 10
7.1060981161
 20
2.731014214
 30
0.0
 11
7.1331614099
 21
2.746639214
 31
0.0
  0
LINE
  5
2AE
330
276
100
AcDbEntity
  8
428003-032
  6
Continuous
 62
     7
100
AcDbLine
 10
7.1331614099
 20
2.746639214
 30
0.0
 11
7.1060981161
 21
2.762264214
 31
0.0
  0
LINE
  5
2AF
330
276
100
AcDbEntity
  8
428003-032
  6
Continuous
 62
     7
100
AcDbLine
 10
6.9962247038
 20
2.762264214
 30
0.0
 11
6.9691614099
 21
2.746639214
 31
0.0
  0
LINE
  5
2B0
330
276
100
AcDbEntity
  8
428003-032
  6
Continuous
 62
     7
100
AcDbLine
 10
6.9691614099
 20
2.777889214
 30
0.0
 11
6.9962247038
 21
2.762264214
 31
0.0
  0
LINE
  5
2B1
330
276
100
AcDbEntity
  8
428003-032
  6
Continuous
 62
     7
100
AcDbLine
 10
7.1060981161
 20
2.762264214
 30
0.0
 11
7.1331614099
 21
2.777889214
 31
0.0
  0
LINE
  5
2B2
330
276
100
AcDbEntity
  8
428003-032
  6
Continuous
 62
     7
100
AcDbLine
 10
7.1331614099
 20
2.777889214
 30
0.0
 11
7.1060981161
 21
2.793514214
 31
0.0
  0
LINE
  5
2B3
330
276
100
AcDbEntity
  8
428003-032
  6
Continuous
 62
     7
100
AcDbLine
 10
6.9962247038
 20
2.793514214
 30
0.0
 11
6.9691614099
 21
2.777889214
 31
0.0
  0
LINE
  5
2B4
330
276
100
AcDbEntity
  8
428003-032
  6
Continuous
 62
     7
100
AcDbLine
 10
6.9691614099
 20
2.809139214
 30
0.0
 11
6.9962247038
 21
2.793514214
 31
0.0
  0
LINE
  5
2B5
330
276
100
AcDbEntity
  8
428003-032
  6
Continuous
 62
     7
100
AcDbLine
 10
7.1060981161
 20
2.793514214
 30
0.0
 11
7.1331614099
 21
2.809139214
 31
0.0
  0
LINE
  5
2B6
330
276
100
AcDbEntity
  8
428003-032
  6
Continuous
 62
     7
100
AcDbLine
 10
7.1331614099
 20
2.809139214
 30
0.0
 11
7.1060981161
 21
2.824764214
 31
0.0
  0
LINE
  5
2B7
330
276
100
AcDbEntity
  8
428003-032
  6
Continuous
 62
     7
100
AcDbLine
 10
6.9962247038
 20
2.824764214
 30
0.0
 11
6.9691614099
 21
2.809139214
 31
0.0
  0
LINE
  5
2B8
330
276
100
AcDbEntity
  8
428003-032
  6
Continuous
 62
     7
100
AcDbLine
 10
6.9691614099
 20
2.840389214
 30
0.0
 11
6.9962247038
 21
2.824764214
 31
0.0
  0
LINE
  5
2B9
330
276
100
AcDbEntity
  8
428003-032
  6
Continuous
 62
     7
100
AcDbLine
 10
7.1060981161
 20
2.824764214
 30
0.0
 11
7.1331614099
 21
2.840389214
 31
0.0
  0
LINE
  5
2BA
330
276
100
AcDbEntity
  8
428003-032
  6
Continuous
 62
     7
100
AcDbLine
 10
7.1331614099
 20
2.840389214
 30
0.0
 11
7.1060981161
 21
2.856014214
 31
0.0
  0
LINE
  5
2BB
330
276
100
AcDbEntity
  8
428003-032
  6
Continuous
 62
     7
100
AcDbLine
 10
6.9962247038
 20
2.856014214
 30
0.0
 11
6.9691614099
 21
2.840389214
 31
0.0
  0
LINE
  5
2BC
330
276
100
AcDbEntity
  8
428003-032
  6
Continuous
 62
     7
100
AcDbLine
 10
6.9691614099
 20
2.871639214
 30
0.0
 11
6.9962247038
 21
2.856014214
 31
0.0
  0
LINE
  5
2BD
330
276
100
AcDbEntity
  8
428003-032
  6
Continuous
 62
     7
100
AcDbLine
 10
7.1060981161
 20
2.856014214
 30
0.0
 11
7.1331614099
 21
2.871639214
 31
0.0
  0
LINE
  5
2BE
330
276
100
AcDbEntity
  8
428003-032
  6
Continuous
 62
     7
100
AcDbLine
 10
7.1331614099
 20
2.871639214
 30
0.0
 11
7.1060981161
 21
2.887264214
 31
0.0
  0
LINE
  5
2BF
330
276
100
AcDbEntity
  8
428003-032
  6
Continuous
 62
     7
100
AcDbLine
 10
6.9962247038
 20
2.887264214
 30
0.0
 11
6.9691614099
 21
2.871639214
 31
0.0
  0
LINE
  5
2C0
330
276
100
AcDbEntity
  8
428003-032
  6
Continuous
 62
     7
100
AcDbLine
 10
9.6862247038
 20
2.512264214
 30
0.0
 11
9.7960981161
 21
2.512264214
 31
0.0
  0
LINE
  5
2C1
330
276
100
AcDbEntity
  8
428003-032
  6
Continuous
 62
     7
100
AcDbLine
 10
9.6591614099
 20
2.527889214
 30
0.0
 11
9.8231614099
 21
2.527889214
 31
0.0
  0
LINE
  5
2C2
330
276
100
AcDbEntity
  8
428003-032
  6
Continuous
 62
     7
100
AcDbLine
 10
9.6862247038
 20
2.543514214
 30
0.0
 11
9.7960981161
 21
2.543514214
 31
0.0
  0
LINE
  5
2C3
330
276
100
AcDbEntity
  8
428003-032
  6
Continuous
 62
     7
100
AcDbLine
 10
9.6591614099
 20
2.559139214
 30
0.0
 11
9.8231614099
 21
2.559139214
 31
0.0
  0
LINE
  5
2C4
330
276
100
AcDbEntity
  8
428003-032
  6
Continuous
 62
     7
100
AcDbLine
 10
9.6862247038
 20
2.574764214
 30
0.0
 11
9.7960981161
 21
2.574764214
 31
0.0
  0
LINE
  5
2C5
330
276
100
AcDbEntity
  8
428003-032
  6
Continuous
 62
     7
100
AcDbLine
 10
9.6591614099
 20
2.590389214
 30
0.0
 11
9.8231614099
 21
2.590389214
 31
0.0
  0
LINE
  5
2C6
330
276
100
AcDbEntity
  8
428003-032
  6
Continuous
 62
     7
100
AcDbLine
 10
9.6862247038
 20
2.606014214
 30
0.0
 11
9.7960981161
 21
2.606014214
 31
0.0
  0
LINE
  5
2C7
330
276
100
AcDbEntity
  8
428003-032
  6
Continuous
 62
     7
100
AcDbLine
 10
9.6591614099
 20
2.621639214
 30
0.0
 11
9.8231614099
 21
2.621639214
 31
0.0
  0
LINE
  5
2C8
330
276
100
AcDbEntity
  8
428003-032
  6
Continuous
 62
     7
100
AcDbLine
 10
9.6862247038
 20
2.637264214
 30
0.0
 11
9.7960981161
 21
2.637264214
 31
0.0
  0
LINE
  5
2C9
330
276
100
AcDbEntity
  8
428003-032
  6
Continuous
 62
     7
100
AcDbLine
 10
9.6591614099
 20
2.652889214
 30
0.0
 11
9.8231614099
 21
2.652889214
 31
0.0
  0
LINE
  5
2CA
330
276
100
AcDbEntity
  8
428003-032
  6
Continuous
 62
     7
100
AcDbLine
 10
9.6862247038
 20
2.668514214
 30
0.0
 11
9.7960981161
 21
2.668514214
 31
0.0
  0
LINE
  5
2CB
330
276
100
AcDbEntity
  8
428003-032
  6
Continuous
 62
     7
100
AcDbLine
 10
9.6591614099
 20
2.684139214
 30
0.0
 11
9.8231614099
 21
2.684139214
 31
0.0
  0
LINE
  5
2CC
330
276
100
AcDbEntity
  8
428003-032
  6
Continuous
 62
     7
100
AcDbLine
 10
9.6862247038
 20
2.699764214
 30
0.0
 11
9.7960981161
 21
2.699764214
 31
0.0
  0
LINE
  5
2CD
330
276
100
AcDbEntity
  8
428003-032
  6
Continuous
 62
     7
100
AcDbLine
 10
9.6591614099
 20
2.715389214
 30
0.0
 11
9.8231614099
 21
2.715389214
 31
0.0
  0
LINE
  5
2CE
330
276
100
AcDbEntity
  8
428003-032
  6
Continuous
 62
     7
100
AcDbLine
 10
9.6862247038
 20
2.731014214
 30
0.0
 11
9.7960981161
 21
2.731014214
 31
0.0
  0
LINE
  5
2CF
330
276
100
AcDbEntity
  8
428003-032
  6
Continuous
 62
     7
100
AcDbLine
 10
9.6591614099
 20
2.746639214
 30
0.0
 11
9.8231614099
 21
2.746639214
 31
0.0
  0
LINE
  5
2D0
330
276
100
AcDbEntity
  8
428003-032
  6
Continuous
 62
     7
100
AcDbLine
 10
9.6862247038
 20
2.762264214
 30
0.0
 11
9.7960981161
 21
2.762264214
 31
0.0
  0
LINE
  5
2D1
330
276
100
AcDbEntity
  8
428003-032
  6
Continuous
 62
     7
100
AcDbLine
 10
9.6591614099
 20
2.777889214
 30
0.0
 11
9.8231614099
 21
2.777889214
 31
0.0
  0
LINE
  5
2D2
330
276
100
AcDbEntity
  8
428003-032
  6
Continuous
 62
     7
100
AcDbLine
 10
9.6862247038
 20
2.793514214
 30
0.0
 11
9.7960981161
 21
2.793514214
 31
0.0
  0
LINE
  5
2D3
330
276
100
AcDbEntity
  8
428003-032
  6
Continuous
 62
     7
100
AcDbLine
 10
9.6591614099
 20
2.809139214
 30
0.0
 11
9.8231614099
 21
2.809139214
 31
0.0
  0
LINE
  5
2D4
330
276
100
AcDbEntity
  8
428003-032
  6
Continuous
 62
     7
100
AcDbLine
 10
9.6862247038
 20
2.824764214
 30
0.0
 11
9.7960981161
 21
2.824764214
 31
0.0
  0
LINE
  5
2D5
330
276
100
AcDbEntity
  8
428003-032
  6
Continuous
 62
     7
100
AcDbLine
 10
9.6591614099
 20
2.840389214
 30
0.0
 11
9.8231614099
 21
2.840389214
 31
0.0
  0
LINE
  5
2D6
330
276
100
AcDbEntity
  8
428003-032
  6
Continuous
 62
     7
100
AcDbLine
 10
9.6862247038
 20
2.856014214
 30
0.0
 11
9.7960981161
 21
2.856014214
 31
0.0
  0
LINE
  5
2D7
330
276
100
AcDbEntity
  8
428003-032
  6
Continuous
 62
     7
100
AcDbLine
 10
9.6591614099
 20
2.871639214
 30
0.0
 11
9.8231614099
 21
2.871639214
 31
0.0
  0
LINE
  5
2D8
330
276
100
AcDbEntity
  8
428003-032
  6
Continuous
 62
     7
100
AcDbLine
 10
9.6591614099
 20
2.527889214
 30
0.0
 11
9.6862247038
 21
2.512264214
 31
0.0
  0
LINE
  5
2D9
330
276
100
AcDbEntity
  8
428003-032
  6
Continuous
 62
     7
100
AcDbLine
 10
9.7960981161
 20
2.512264214
 30
0.0
 11
9.8231614099
 21
2.527889214
 31
0.0
  0
LINE
  5
2DA
330
276
100
AcDbEntity
  8
428003-032
  6
Continuous
 62
     7
100
AcDbLine
 10
9.8231614099
 20
2.527889214
 30
0.0
 11
9.7960981161
 21
2.543514214
 31
0.0
  0
LINE
  5
2DB
330
276
100
AcDbEntity
  8
428003-032
  6
Continuous
 62
     7
100
AcDbLine
 10
9.6862247038
 20
2.543514214
 30
0.0
 11
9.6591614099
 21
2.527889214
 31
0.0
  0
LINE
  5
2DC
330
276
100
AcDbEntity
  8
428003-032
  6
Continuous
 62
     7
100
AcDbLine
 10
9.6591614099
 20
2.559139214
 30
0.0
 11
9.6862247038
 21
2.543514214
 31
0.0
  0
LINE
  5
2DD
330
276
100
AcDbEntity
  8
428003-032
  6
Continuous
 62
     7
100
AcDbLine
 10
9.7960981161
 20
2.543514214
 30
0.0
 11
9.8231614099
 21
2.559139214
 31
0.0
  0
LINE
  5
2DE
330
276
100
AcDbEntity
  8
428003-032
  6
Continuous
 62
     7
100
AcDbLine
 10
9.8231614099
 20
2.559139214
 30
0.0
 11
9.7960981161
 21
2.574764214
 31
0.0
  0
LINE
  5
2DF
330
276
100
AcDbEntity
  8
428003-032
  6
Continuous
 62
     7
100
AcDbLine
 10
9.6862247038
 20
2.574764214
 30
0.0
 11
9.6591614099
 21
2.559139214
 31
0.0
  0
LINE
  5
2E0
330
276
100
AcDbEntity
  8
428003-032
  6
Continuous
 62
     7
100
AcDbLine
 10
9.6591614099
 20
2.590389214
 30
0.0
 11
9.6862247038
 21
2.574764214
 31
0.0
  0
LINE
  5
2E1
330
276
100
AcDbEntity
  8
428003-032
  6
Continuous
 62
     7
100
AcDbLine
 10
9.7960981161
 20
2.574764214
 30
0.0
 11
9.8231614099
 21
2.590389214
 31
0.0
  0
LINE
  5
2E2
330
276
100
AcDbEntity
  8
428003-032
  6
Continuous
 62
     7
100
AcDbLine
 10
9.8231614099
 20
2.590389214
 30
0.0
 11
9.7960981161
 21
2.606014214
 31
0.0
  0
LINE
  5
2E3
330
276
100
AcDbEntity
  8
428003-032
  6
Continuous
 62
     7
100
AcDbLine
 10
9.6862247038
 20
2.606014214
 30
0.0
 11
9.6591614099
 21
2.590389214
 31
0.0
  0
LINE
  5
2E4
330
276
100
AcDbEntity
  8
428003-032
  6
Continuous
 62
     7
100
AcDbLine
 10
9.6591614099
 20
2.621639214
 30
0.0
 11
9.6862247038
 21
2.606014214
 31
0.0
  0
LINE
  5
2E5
330
276
100
AcDbEntity
  8
428003-032
  6
Continuous
 62
     7
100
AcDbLine
 10
9.7960981161
 20
2.606014214
 30
0.0
 11
9.8231614099
 21
2.621639214
 31
0.0
  0
LINE
  5
2E6
330
276
100
AcDbEntity
  8
428003-032
  6
Continuous
 62
     7
100
AcDbLine
 10
9.8231614099
 20
2.621639214
 30
0.0
 11
9.7960981161
 21
2.637264214
 31
0.0
  0
LINE
  5
2E7
330
276
100
AcDbEntity
  8
428003-032
  6
Continuous
 62
     7
100
AcDbLine
 10
9.6862247038
 20
2.637264214
 30
0.0
 11
9.6591614099
 21
2.621639214
 31
0.0
  0
LINE
  5
2E8
330
276
100
AcDbEntity
  8
428003-032
  6
Continuous
 62
     7
100
AcDbLine
 10
9.6591614099
 20
2.652889214
 30
0.0
 11
9.6862247038
 21
2.637264214
 31
0.0
  0
LINE
  5
2E9
330
276
100
AcDbEntity
  8
428003-032
  6
Continuous
 62
     7
100
AcDbLine
 10
9.7960981161
 20
2.637264214
 30
0.0
 11
9.8231614099
 21
2.652889214
 31
0.0
  0
LINE
  5
2EA
330
276
100
AcDbEntity
  8
428003-032
  6
Continuous
 62
     7
100
AcDbLine
 10
9.8231614099
 20
2.652889214
 30
0.0
 11
9.7960981161
 21
2.668514214
 31
0.0
  0
LINE
  5
2EB
330
276
100
AcDbEntity
  8
428003-032
  6
Continuous
 62
     7
100
AcDbLine
 10
9.6862247038
 20
2.668514214
 30
0.0
 11
9.6591614099
 21
2.652889214
 31
0.0
  0
LINE
  5
2EC
330
276
100
AcDbEntity
  8
428003-032
  6
Continuous
 62
     7
100
AcDbLine
 10
9.6591614099
 20
2.684139214
 30
0.0
 11
9.6862247038
 21
2.668514214
 31
0.0
  0
LINE
  5
2ED
330
276
100
AcDbEntity
  8
428003-032
  6
Continuous
 62
     7
100
AcDbLine
 10
9.7960981161
 20
2.668514214
 30
0.0
 11
9.8231614099
 21
2.684139214
 31
0.0
  0
LINE
  5
2EE
330
276
100
AcDbEntity
  8
428003-032
  6
Continuous
 62
     7
100
AcDbLine
 10
9.8231614099
 20
2.684139214
 30
0.0
 11
9.7960981161
 21
2.699764214
 31
0.0
  0
LINE
  5
2EF
330
276
100
AcDbEntity
  8
428003-032
  6
Continuous
 62
     7
100
AcDbLine
 10
9.6862247038
 20
2.699764214
 30
0.0
 11
9.6591614099
 21
2.684139214
 31
0.0
  0
LINE
  5
2F0
330
276
100
AcDbEntity
  8
428003-032
  6
Continuous
 62
     7
100
AcDbLine
 10
9.6591614099
 20
2.715389214
 30
0.0
 11
9.6862247038
 21
2.699764214
 31
0.0
  0
LINE
  5
2F1
330
276
100
AcDbEntity
  8
428003-032
  6
Continuous
 62
     7
100
AcDbLine
 10
9.7960981161
 20
2.699764214
 30
0.0
 11
9.8231614099
 21
2.715389214
 31
0.0
  0
LINE
  5
2F2
330
276
100
AcDbEntity
  8
428003-032
  6
Continuous
 62
     7
100
AcDbLine
 10
9.8231614099
 20
2.715389214
 30
0.0
 11
9.7960981161
 21
2.731014214
 31
0.0
  0
LINE
  5
2F3
330
276
100
AcDbEntity
  8
428003-032
  6
Continuous
 62
     7
100
AcDbLine
 10
9.6862247038
 20
2.731014214
 30
0.0
 11
9.6591614099
 21
2.715389214
 31
0.0
  0
LINE
  5
2F4
330
276
100
AcDbEntity
  8
428003-032
  6
Continuous
 62
     7
100
AcDbLine
 10
9.6591614099
 20
2.746639214
 30
0.0
 11
9.6862247038
 21
2.731014214
 31
0.0
  0
LINE
  5
2F5
330
276
100
AcDbEntity
  8
428003-032
  6
Continuous
 62
     7
100
AcDbLine
 10
9.7960981161
 20
2.731014214
 30
0.0
 11
9.8231614099
 21
2.746639214
 31
0.0
  0
LINE
  5
2F6
330
276
100
AcDbEntity
  8
428003-032
  6
Continuous
 62
     7
100
AcDbLine
 10
9.8231614099
 20
2.746639214
 30
0.0
 11
9.7960981161
 21
2.762264214
 31
0.0
  0
LINE
  5
2F7
330
276
100
AcDbEntity
  8
428003-032
  6
Continuous
 62
     7
100
AcDbLine
 10
9.6862247038
 20
2.762264214
 30
0.0
 11
9.6591614099
 21
2.746639214
 31
0.0
  0
LINE
  5
2F8
330
276
100
AcDbEntity
  8
428003-032
  6
Continuous
 62
     7
100
AcDbLine
 10
9.6591614099
 20
2.777889214
 30
0.0
 11
9.6862247038
 21
2.762264214
 31
0.0
  0
LINE
  5
2F9
330
276
100
AcDbEntity
  8
428003-032
  6
Continuous
 62
     7
100
AcDbLine
 10
9.7960981161
 20
2.762264214
 30
0.0
 11
9.8231614099
 21
2.777889214
 31
0.0
  0
LINE
  5
2FA
330
276
100
AcDbEntity
  8
428003-032
  6
Continuous
 62
     7
100
AcDbLine
 10
9.8231614099
 20
2.777889214
 30
0.0
 11
9.7960981161
 21
2.793514214
 31
0.0
  0
LINE
  5
2FB
330
276
100
AcDbEntity
  8
428003-032
  6
Continuous
 62
     7
100
AcDbLine
 10
9.6862247038
 20
2.793514214
 30
0.0
 11
9.6591614099
 21
2.777889214
 31
0.0
  0
LINE
  5
2FC
330
276
100
AcDbEntity
  8
428003-032
  6
Continuous
 62
     7
100
AcDbLine
 10
9.6591614099
 20
2.809139214
 30
0.0
 11
9.6862247038
 21
2.793514214
 31
0.0
  0
LINE
  5
2FD
330
276
100
AcDbEntity
  8
428003-032
  6
Continuous
 62
     7
100
AcDbLine
 10
9.7960981161
 20
2.793514214
 30
0.0
 11
9.8231614099
 21
2.809139214
 31
0.0
  0
LINE
  5
2FE
330
276
100
AcDbEntity
  8
428003-032
  6
Continuous
 62
     7
100
AcDbLine
 10
9.8231614099
 20
2.809139214
 30
0.0
 11
9.7960981161
 21
2.824764214
 31
0.0
  0
LINE
  5
2FF
330
276
100
AcDbEntity
  8
428003-032
  6
Continuous
 62
     7
100
AcDbLine
 10
9.6862247038
 20
2.824764214
 30
0.0
 11
9.6591614099
 21
2.809139214
 31
0.0
  0
LINE
  5
300
330
276
100
AcDbEntity
  8
428003-032
  6
Continuous
 62
     7
100
AcDbLine
 10
9.6591614099
 20
2.840389214
 30
0.0
 11
9.6862247038
 21
2.824764214
 31
0.0
  0
LINE
  5
301
330
276
100
AcDbEntity
  8
428003-032
  6
Continuous
 62
     7
100
AcDbLine
 10
9.7960981161
 20
2.824764214
 30
0.0
 11
9.8231614099
 21
2.840389214
 31
0.0
  0
LINE
  5
302
330
276
100
AcDbEntity
  8
428003-032
  6
Continuous
 62
     7
100
AcDbLine
 10
9.8231614099
 20
2.840389214
 30
0.0
 11
9.7960981161
 21
2.856014214
 31
0.0
  0
LINE
  5
303
330
276
100
AcDbEntity
  8
428003-032
  6
Continuous
 62
     7
100
AcDbLine
 10
9.6862247038
 20
2.856014214
 30
0.0
 11
9.6591614099
 21
2.840389214
 31
0.0
  0
LINE
  5
304
330
276
100
AcDbEntity
  8
428003-032
  6
Continuous
 62
     7
100
AcDbLine
 10
9.6591614099
 20
2.871639214
 30
0.0
 11
9.6862247038
 21
2.856014214
 31
0.0
  0
LINE
  5
305
330
276
100
AcDbEntity
  8
428003-032
  6
Continuous
 62
     7
100
AcDbLine
 10
9.7960981161
 20
2.856014214
 30
0.0
 11
9.8231614099
 21
2.871639214
 31
0.0
  0
LINE
  5
306
330
276
100
AcDbEntity
  8
428003-032
  6
Continuous
 62
     7
100
AcDbLine
 10
9.8231614099
 20
2.871639214
 30
0.0
 11
9.7960981161
 21
2.887264214
 31
0.0
  0
LINE
  5
307
330
276
100
AcDbEntity
  8
428003-032
  6
Continuous
 62
     7
100
AcDbLine
 10
9.6862247038
 20
2.887264214
 30
0.0
 11
9.6591614099
 21
2.871639214
 31
0.0
  0
LINE
  5
308
330
276
100
AcDbEntity
  8
43514
  6
Continuous
 62
     7
100
AcDbLine
 10
7.117789459
 20
2.599264214
 30
0.0
 11
7.7659530136
 21
2.599264214
 31
0.0
  0
LINE
  5
309
330
276
100
AcDbEntity
  8
43514
  6
Continuous
 62
     7
100
AcDbLine
 10
9.0263698063
 20
2.599264214
 30
0.0
 11
9.6745333608
 21
2.599264214
 31
0.0
  0
LINE
  5
30A
330
276
100
AcDbEntity
  8
43514
  6
Continuous
 62
     7
100
AcDbLine
 10
8.9270642591
 20
2.599264214
 30
0.0
 11
7.8652585607
 21
2.599264214
 31
0.0
  0
LINE
  5
30B
330
276
100
AcDbEntity
  8
43514
  6
Continuous
 62
     7
100
AcDbLine
 10
9.0263698063
 20
2.599264214
 30
0.0
 11
8.9270642591
 21
2.599264214
 31
0.0
  0
LINE
  5
30C
330
276
100
AcDbEntity
  8
43514
  6
Continuous
 62
     7
100
AcDbLine
 10
7.8652585607
 20
2.599264214
 30
0.0
 11
7.7659530136
 21
2.599264214
 31
0.0
  0
LINE
  5
30D
330
276
100
AcDbEntity
  8
83800X
  6
Continuous
 62
     7
100
AcDbLine
 10
7.1060981161
 20
2.762264214
 30
0.0
 11
7.3011614099
 21
2.762264214
 31
0.0
  0
LINE
  5
30E
330
276
100
AcDbEntity
  8
83800X
  6
Continuous
 62
     7
100
AcDbLine
 10
7.1060981161
 20
2.637264214
 30
0.0
 11
7.3011614099
 21
2.637264214
 31
0.0
  0
LINE
  5
30F
330
276
100
AcDbEntity
  8
83800X
  6
Continuous
 62
     7
100
AcDbLine
 10
9.4911614099
 20
2.762264214
 30
0.0
 11
9.6862247038
 21
2.762264214
 31
0.0
  0
LINE
  5
310
330
276
100
AcDbEntity
  8
83800X
  6
Continuous
 62
     7
100
AcDbLine
 10
9.7960981161
 20
2.762264214
 30
0.0
 11
9.8491614099
 21
2.762264214
 31
0.0
  0
LINE
  5
311
330
276
100
AcDbEntity
  8
83800X
  6
Continuous
 62
     7
100
AcDbLine
 10
9.4911614099
 20
2.637264214
 30
0.0
 11
9.6862247038
 21
2.637264214
 31
0.0
  0
LINE
  5
312
330
276
100
AcDbEntity
  8
83800X
  6
Continuous
 62
     7
100
AcDbLine
 10
9.7960981161
 20
2.637264214
 30
0.0
 11
9.8491614099
 21
2.637264214
 31
0.0
  0
LINE
  5
313
330
276
100
AcDbEntity
  8
83800X
  6
Continuous
 62
     7
100
AcDbLine
 10
9.9741614099
 20
2.762264214
 30
0.0
 11
9.9741614099
 21
2.637264214
 31
0.0
  0
LINE
  5
314
330
276
100
AcDbEntity
  8
83800X
  6
Continuous
 62
     7
100
AcDbLine
 10
9.9741614099
 20
2.637264214
 30
0.0
 11
9.8491614099
 21
2.637264214
 31
0.0
  0
LINE
  5
315
330
276
100
AcDbEntity
  8
83800X
  6
Continuous
 62
     7
100
AcDbLine
 10
9.8491614099
 20
2.762264214
 30
0.0
 11
9.9741614099
 21
2.762264214
 31
0.0
  0
LINE
  5
316
330
276
100
AcDbEntity
  8
83800X
  6
Continuous
 62
     7
100
AcDbLine
 10
9.4911614099
 20
2.762264214
 30
0.0
 11
9.4911614099
 21
2.637264214
 31
0.0
  0
LINE
  5
317
330
276
100
AcDbEntity
  8
83800X
  6
Continuous
 62
     7
100
AcDbLine
 10
9.3661614099
 20
2.637264214
 30
0.0
 11
7.4261614099
 21
2.637264214
 31
0.0
  0
LINE
  5
318
330
276
100
AcDbEntity
  8
83800X
  6
Continuous
 62
     7
100
AcDbLine
 10
9.4911614099
 20
2.637264214
 30
0.0
 11
9.3661614099
 21
2.637264214
 31
0.0
  0
LINE
  5
319
330
276
100
AcDbEntity
  8
83800X
  6
Continuous
 62
     7
100
AcDbLine
 10
9.3661614099
 20
2.762264214
 30
0.0
 11
7.4261614099
 21
2.762264214
 31
0.0
  0
LINE
  5
31A
330
276
100
AcDbEntity
  8
83800X
  6
Continuous
 62
     7
100
AcDbLine
 10
9.3661614099
 20
2.762264214
 30
0.0
 11
9.4911614099
 21
2.762264214
 31
0.0
  0
LINE
  5
31B
330
276
100
AcDbEntity
  8
83800X
  6
Continuous
 62
     7
100
AcDbLine
 10
7.4261614099
 20
2.637264214
 30
0.0
 11
7.3011614099
 21
2.637264214
 31
0.0
  0
LINE
  5
31C
330
276
100
AcDbEntity
  8
83800X
  6
Continuous
 62
     7
100
AcDbLine
 10
7.3011614099
 20
2.637264214
 30
0.0
 11
7.3011614099
 21
2.762264214
 31
0.0
  0
LINE
  5
31D
330
276
100
AcDbEntity
  8
83800X
  6
Continuous
 62
     7
100
AcDbLine
 10
7.3011614099
 20
2.762264214
 30
0.0
 11
7.4261614099
 21
2.762264214
 31
0.0
  0
LINE
  5
31E
330
276
100
AcDbEntity
  8
83800X
  6
Continuous
 62
     7
100
AcDbLine
 10
6.9431614099
 20
2.637264214
 30
0.0
 11
6.9962247038
 21
2.637264214
 31
0.0
  0
LINE
  5
31F
330
276
100
AcDbEntity
  8
83800X
  6
Continuous
 62
     7
100
AcDbLine
 10
6.9431614099
 20
2.762264214
 30
0.0
 11
6.9962247038
 21
2.762264214
 31
0.0
  0
LINE
  5
320
330
276
100
AcDbEntity
  8
83800X
  6
Continuous
 62
     7
100
AcDbLine
 10
6.9431614099
 20
2.637264214
 30
0.0
 11
6.8181614099
 21
2.637264214
 31
0.0
  0
LINE
  5
321
330
276
100
AcDbEntity
  8
83800X
  6
Continuous
 62
     7
100
AcDbLine
 10
6.8181614099
 20
2.637264214
 30
0.0
 11
6.8181614099
 21
2.762264214
 31
0.0
  0
LINE
  5
322
330
276
100
AcDbEntity
  8
83800X
  6
Continuous
 62
     7
100
AcDbLine
 10
6.8181614099
 20
2.762264214
 30
0.0
 11
6.9431614099
 21
2.762264214
 31
0.0
  0
LINE
  5
323
330
276
100
AcDbEntity
  8
43454M
  6
Continuous
 62
     7
100
AcDbLine
 10
9.9096086408
 20
3.012264214
 30
0.0
 11
9.9691614099
 21
3.012264214
 31
0.0
  0
LINE
  5
324
330
276
100
AcDbEntity
  8
43454M
  6
Continuous
 62
     7
100
AcDbLine
 10
9.9691614099
 20
3.012264214
 30
0.0
 11
9.9570479664
 21
2.9136081337
 31
0.0
  0
LINE
  5
325
330
276
100
AcDbEntity
  8
43454M
  6
Continuous
 62
     7
100
AcDbLine
 10
6.882714179
 20
3.012264214
 30
0.0
 11
9.9096086408
 21
3.012264214
 31
0.0
  0
LINE
  5
326
330
276
100
AcDbEntity
  8
43454M
  6
Continuous
 62
     7
100
AcDbLine
 10
6.8231614099
 20
3.012264214
 30
0.0
 11
6.882714179
 21
3.012264214
 31
0.0
  0
LINE
  5
327
330
276
100
AcDbEntity
  8
43454M
  6
Continuous
 62
     7
100
AcDbLine
 10
6.8948276225
 20
2.887264214
 30
0.0
 11
6.865051238
 21
2.887264214
 31
0.0
  0
LINE
  5
328
330
276
100
AcDbEntity
  8
43454M
  6
Continuous
 62
     7
100
AcDbLine
 10
7.3770868215
 20
2.887264214
 30
0.0
 11
6.8948276225
 21
2.887264214
 31
0.0
  0
LINE
  5
329
330
276
100
AcDbEntity
  8
43454M
  6
Continuous
 62
     7
100
AcDbLine
 10
6.8352748534
 20
2.9136081337
 30
0.0
 11
6.8231614099
 21
3.012264214
 31
0.0
  0
LINE
  5
32A
330
276
100
AcDbEntity
  8
43454M
  6
Continuous
 62
     7
100
AcDbLine
 10
6.8372168459
 20
2.8977918745
 30
0.0
 11
6.8352748534
 21
2.9136081337
 31
0.0
  0
ARC
  5
32B
330
276
100
AcDbEntity
  8
43454M
  6
Continuous
 62
     7
100
AcDbCircle
 10
6.865051238
 20
2.917264214
 30
0.0
 40
0.0300000000000005
100
AcDbArc
 50
187.0
 51
270.0
  0
LINE
  5
32C
330
276
100
AcDbEntity
  8
43454M
  6
Continuous
 62
     7
100
AcDbLine
 10
9.9272715819
 20
2.887264214
 30
0.0
 11
9.8974951973
 21
2.887264214
 31
0.0
  0
LINE
  5
32D
330
276
100
AcDbEntity
  8
43454M
  6
Continuous
 62
     7
100
AcDbLine
 10
9.8974951973
 20
2.887264214
 30
0.0
 11
9.4274595497
 21
2.887264214
 31
0.0
  0
LINE
  5
32E
330
276
100
AcDbEntity
  8
43454M
  6
Continuous
 62
     7
100
AcDbLine
 10
9.9570479664
 20
2.9136081337
 30
0.0
 11
9.9548343167
 21
2.8955794033
 31
0.0
  0
ARC
  5
32F
330
276
100
AcDbEntity
  8
43454M
  6
Continuous
 62
     7
100
AcDbCircle
 10
9.9272715819
 20
2.917264214
 30
0.0
 40
0.03
100
AcDbArc
 50
270.0
 51
353.0
  0
ARC
  5
330
330
276
100
AcDbEntity
  8
43454M
  6
Continuous
 62
     7
100
AcDbCircle
 10
6.8717762834
 20
2.9025145247
 30
0.0
 40
0.0348806271452906
100
AcDbArc
 50
187.7814409226
 51
205.9262803376
  0
LINE
  5
331
330
276
100
AcDbEntity
  8
43454M
  6
Continuous
 62
     7
100
AcDbLine
 10
6.8372654453
 20
2.8973960638
 30
0.0
 11
6.83850948
 21
2.887264214
 31
0.0
  0
LINE
  5
332
330
276
100
AcDbEntity
  8
43454M
  6
Continuous
 62
     7
100
AcDbLine
 10
9.9538133398
 20
2.887264214
 30
0.0
 11
9.9547866159
 21
2.8951909115
 31
0.0
  0
ARC
  5
333
330
276
100
AcDbEntity
  8
43454M
  6
Continuous
 62
     7
100
AcDbCircle
 10
9.9190954851
 20
2.900254419
 30
0.0
 40
0.0360433052686766
100
AcDbArc
 50
338.8748994395
 51
352.5474241591
  0
LINE
  5
334
330
276
100
AcDbEntity
  8
43454M
  6
Continuous
 62
     7
100
AcDbLine
 10
6.83850948
 20
2.887264214
 30
0.0
 11
6.8538575501
 21
2.762264214
 31
0.0
  0
LINE
  5
335
330
276
100
AcDbEntity
  8
43454M
  6
Continuous
 62
     7
100
AcDbLine
 10
9.9384652697
 20
2.762264214
 30
0.0
 11
9.9538133398
 21
2.887264214
 31
0.0
  0
LINE
  5
336
330
276
100
AcDbEntity
  8
43454M
  6
Continuous
 62
     7
100
AcDbLine
 10
6.8677872147
 20
2.762264214
 30
0.0
 11
6.8557234237
 21
2.8605159074
 31
0.0
  0
SPLINE
  5
337
330
276
100
AcDbEntity
  8
43454M
  6
Continuous
 62
     7
100
AcDbSpline
210
0.0
220
0.0
230
1.0
 70
     8
 71
     3
 72
     8
 73
     4
 74
     0
 42
0.0000008134546541
 43
0.0000000001
 40
0.0
 40
0.0
 40
0.0
 40
0.0
 40
1.0
 40
1.0
 40
1.0
 40
1.0
 10
6.847368195312897
 20
2.877278378650541
 30
0.0
 10
6.844463984256565
 20
2.880200160920384
 30
0.0
 10
6.842161569773409
 20
2.883541511861977
 30
0.0
 10
6.840406135636078
 20
2.887264213956767
 30
0.0
  0
LINE
  5
338
330
276
100
AcDbEntity
  8
43454M
  6
Continuous
 62
     7
100
AcDbLine
 10
9.9390573381
 20
2.8605870095
 30
0.0
 11
9.9269848168
 21
2.762264214
 31
0.0
  0
SPLINE
  5
339
330
276
100
AcDbEntity
  8
43454M
  6
Continuous
 62
     7
100
AcDbSpline
210
0.0
220
0.0
230
1.0
 70
     8
 71
     3
 72
     8
 73
     4
 74
     0
 42
0.0000007522413811
 43
0.0000000001
 40
0.0
 40
0.0
 40
0.0
 40
0.0
 40
1.0
 40
1.0
 40
1.0
 40
1.0
 10
9.952716526539255
 20
2.887264213956767
 30
0.0
 10
9.951147356306908
 20
2.883097516036762
 30
0.0
 10
9.948932782203297
 20
2.8793132689509
 30
0.0
 10
9.946010901596383
 20
2.875948154712308
 30
0.0
  0
SPLINE
  5
33A
330
276
100
AcDbEntity
  8
43454M
  6
Continuous
 62
     7
100
AcDbSpline
210
0.0
220
0.0
230
1.0
 70
     8
 71
     3
 72
     8
 73
     4
 74
     0
 42
0.0000005148555591
 43
0.0000000001
 40
0.0
 40
0.0
 40
0.0
 40
0.0
 40
1.0
 40
1.0
 40
1.0
 40
1.0
 10
6.847368195312897
 20
2.877278378650541
 30
0.0
 10
6.851840771920685
 20
2.872778741819856
 30
0.0
 10
6.854937519866598
 20
2.866916580266375
 30
0.0
 10
6.855723423679358
 20
2.860515907356201
 30
0.0
  0
SPLINE
  5
33B
330
276
100
AcDbEntity
  8
43454M
  6
Continuous
 62
     7
100
AcDbSpline
210
0.0
220
0.0
230
1.0
 70
     8
 71
     3
 72
     8
 73
     4
 74
     0
 42
0.0000005759405985
 43
0.0000000001
 40
0.0
 40
0.0
 40
0.0
 40
0.0
 40
1.0
 40
1.0
 40
1.0
 40
1.0
 10
9.939057338120199
 20
2.860587009508852
 30
0.0
 10
9.93975973875436
 20
2.866307603604692
 30
0.0
 10
9.942269868689037
 20
2.87163962715853
 30
0.0
 10
9.946010901596383
 20
2.875948154712308
 30
0.0
  0
LINE
  5
33C
330
276
100
AcDbEntity
  8
43454M
  6
Continuous
 62
     7
100
AcDbLine
 10
9.4358160909
 20
2.762264214
 30
0.0
 11
9.436000066
 21
2.8573222758
 31
0.0
  0
ARC
  5
33D
330
276
100
AcDbEntity
  8
43454M
  6
Continuous
 62
     7
100
AcDbCircle
 10
9.4660000098
 20
2.857264214
 30
0.0
 40
0.03
100
AcDbArc
 50
90.0
 51
179.902189632
  0
ENDBLK
  5
33F
330
276
100
AcDbEntity
  8
0
100
AcDbBlockEnd
  0
BLOCK
  5
343
330
340
100
AcDbEntity
  8
0
100
AcDbBlockBegin
  2
_SE_FILLED
 70
     0
 71
     0
 10
0.0
 20
0.0
 30
0.0
  3
_SE_FILLED
  1

  0
SOLID
  5
341
330
340
100
AcDbEntity
  8
0
100
AcDbTrace
 10
0.0
 20
0.0
 30
0.0
 11
-1.0
 21
-0.1665
 31
0.0
 12
-1.0
 22
0.1665
 32
0.0
 13
0.0
 23
0.0
 33
0.0
  0
LINE
  5
342
330
340
100
AcDbEntity
  8
0
100
AcDbLine
 10
0.0
 20
0.0
 30
0.0
 11
-1.0
 21
0.0
 31
0.0
  0
ENDBLK
  5
344
330
340
100
AcDbEntity
  8
0
100
AcDbBlockEnd
  0
BLOCK
  5
354
330
347
100
AcDbEntity
  8
0
100
AcDbBlockBegin
  2
DMBLK5
 70
     0
 71
     0
 10
0.0
 20
0.0
 30
0.0
  3
DMBLK5
  1

  0
HATCH
  5
348
330
347
100
AcDbEntity
  8
Default
  6
Continuous
 62
     7
100
AcDbHatch
 10
0.0
 20
0.0
 30
0.0
210
0.0
220
0.0
230
1.0
  2
SOLID
 70
     1
 71
     0
 91
        1
 92
        1
 93
        3
 72
     1
 10
0.8291272726187648
 20
8.00188574828128
 11
0.704127274129414
 21
7.981052415199722
 72
     1
 10
0.7041272741294141
 20
7.981052415199722
 11
0.829127272618765
 21
7.960219082118163
 72
     1
 10
0.8291272726187648
 20
7.960219082118163
 11
0.8291272726187648
 21
8.00188574828128
 97
        0
 75
     0
 76
     1
 98
        0
  0
LWPOLYLINE
  5
349
330
347
100
AcDbEntity
  8
Default
  6
Continuous
 62
     7
370
    25
100
AcDbPolyline
 90
        4
 70
     1
 43
0.0003
 10
0.8291272726
 20
8.0018857483
 10
0.7041272741
 20
7.9810524152
 10
0.8291272726
 20
7.9602190821
 10
0.8291272726
 20
8.0018857483
  0
HATCH
  5
34A
330
347
100
AcDbEntity
  8
Default
  6
Continuous
 62
     7
100
AcDbHatch
 10
0.0
 20
0.0
 30
0.0
210
0.0
220
0.0
230
1.0
  2
SOLID
 70
     1
 71
     0
 91
        1
 92
        1
 93
        3
 72
     1
 10
4.751127275640063
 20
8.00188574828128
 11
4.751127275640063
 21
7.960219082118163
 72
     1
 10
4.751127275640063
 20
7.960219082118163
 11
4.876127274129414
 21
7.981052415199722
 72
     1
 10
4.876127274129415
 20
7.981052415199722
 11
4.751127275640064
 21
8.00188574828128
 97
        0
 75
     0
 76
     1
 98
        0
  0
LWPOLYLINE
  5
34B
330
347
100
AcDbEntity
  8
Default
  6
Continuous
 62
     7
370
    25
100
AcDbPolyline
 90
        4
 70
     1
 43
0.0003
 10
4.7511272756
 20
8.0018857483
 10
4.8761272741
 20
7.9810524152
 10
4.7511272756
 20
7.9602190821
 10
4.7511272756
 20
8.0018857483
  0
LINE
  5
34C
330
347
100
AcDbEntity
  8
Default
  6
Continuous
 62
     7
100
AcDbLine
 10
0.7041272741
 20
7.6368023766
 30
0.0
 11
0.7041272741
 21
8.0435524144
 31
0.0
  0
LINE
  5
34D
330
347
100
AcDbEntity
  8
Default
  6
Continuous
 62
     7
100
AcDbLine
 10
4.8761272741
 20
7.6368023766
 30
0.0
 11
4.8761272741
 21
8.0435524144
 31
0.0
  0
LINE
  5
34E
330
347
100
AcDbEntity
  8
Default
  6
Continuous
 62
     7
100
AcDbLine
 10
0.7041272741
 20
7.9810524152
 30
0.0
 11
2.3577903842
 21
7.9810524152
 31
0.0
  0
LINE
  5
34F
330
347
100
AcDbEntity
  8
Default
  6
Continuous
 62
     7
100
AcDbLine
 10
3.2224643107
 20
7.9810524152
 30
0.0
 11
4.8761272741
 21
7.9810524152
 31
0.0
  0
TEXT
  5
350
330
347
100
AcDbEntity
  8
Default
  6
Continuous
 62
     7
100
AcDbText
 10
2.5211055973
 20
7.9935524152
 30
0.0
 40
0.125
  1
4 3/16
  7
SEACAD_arial_ttf
 11
2.5211055973
 21
8.1185524152
 31
0.0
100
AcDbText
 73
     3
  0
TEXT
  5
351
330
347
100
AcDbEntity
  8
Default
  6
Continuous
 62
     7
100
AcDbText
 10
2.40154038
 20
7.8435524152
 30
0.0
 40
0.125
  1
(
  7
SEACAD_arial_ttf
 11
2.40154038
 21
7.9685524152
 31
0.0
100
AcDbText
 73
     3
  0
TEXT
  5
352
330
347
100
AcDbEntity
  8
Default
  6
Continuous
 62
     7
100
AcDbText
 10
2.5211055973
 20
7.8435524152
 30
0.0
 40
0.125
  1
105.97
  7
SEACAD_arial_ttf
 11
2.5211055973
 21
7.9685524152
 31
0.0
100
AcDbText
 73
     3
  0
TEXT
  5
353
330
347
100
AcDbEntity
  8
Default
  6
Continuous
 62
     7
100
AcDbText
 10
3.1216490756
 20
7.8435524152
 30
0.0
 40
0.125
  1
)
  7
SEACAD_arial_ttf
 11
3.1216490756
 21
7.9685524152
 31
0.0
100
AcDbText
 73
     3
  0
ENDBLK
  5
355
330
347
100
AcDbEntity
  8
0
100
AcDbBlockEnd
  0
BLOCK
  5
364
330
358
100
AcDbEntity
  8
0
100
AcDbBlockBegin
  2
DMBLK6
 70
     0
 71
     0
 10
0.0
 20
0.0
 30
0.0
  3
DMBLK6
  1

  0
LINE
  5
359
330
358
100
AcDbEntity
  8
Default
  6
Continuous
 62
     7
100
AcDbLine
 10
3.5981607907
 20
5.167562737
 30
0.0
 11
2.9541123013
 21
5.8796051515
 31
0.0
  0
LINE
  5
35A
330
358
100
AcDbEntity
  8
Default
  6
Continuous
 62
     7
100
AcDbLine
 10
2.6262279421
 20
6.2421051413
 30
0.0
 11
1.9821794526
 21
6.9541475559
 31
0.0
  0
HATCH
  5
35B
330
358
100
AcDbEntity
  8
Default
  6
Continuous
 62
     7
100
AcDbHatch
 10
0.0
 20
0.0
 30
0.0
210
0.0
220
0.0
230
1.0
  2
SOLID
 70
     1
 71
     0
 91
        1
 92
        1
 93
        3
 72
     1
 10
3.498858930458185
 20
5.246291181277302
 11
3.598160790746021
 21
5.167562737033814
 72
     1
 10
3.598160790746021
 20
5.167562737033814
 11
3.529760148066226
 21
5.274241598438573
 72
     1
 10
3.529760148066226
 20
5.274241598438573
 11
3.498858930458185
 21
5.246291181277302
 97
        0
 75
     0
 76
     1
 98
        0
  0
LWPOLYLINE
  5
35C
330
358
100
AcDbEntity
  8
Default
  6
Continuous
 62
     7
370
    25
100
AcDbPolyline
 90
        4
 70
     1
 43
0.0003
 10
3.4988589305
 20
5.2462911813
 10
3.5981607907
 20
5.167562737
 10
3.5297601481
 20
5.2742415984
 10
3.4988589305
 20
5.2462911813
  0
HATCH
  5
35D
330
358
100
AcDbEntity
  8
Default
  6
Continuous
 62
     7
100
AcDbHatch
 10
0.0
 20
0.0
 30
0.0
210
0.0
220
0.0
230
1.0
  2
SOLID
 70
     1
 71
     0
 91
        1
 92
        1
 93
        3
 72
     1
 10
2.050580095300284
 20
6.847468694446792
 11
2.081481312908325
 21
6.875419111608063
 72
     1
 10
2.081481312908325
 20
6.875419111608063
 11
1.982179452620489
 21
6.954147555851551
 72
     1
 10
1.982179452620489
 20
6.954147555851551
 11
2.050580095300284
 21
6.847468694446792
 97
        0
 75
     0
 76
     1
 98
        0
  0
LWPOLYLINE
  5
35E
330
358
100
AcDbEntity
  8
Default
  6
Continuous
 62
     7
370
    25
100
AcDbPolyline
 90
        4
 70
     1
 43
0.0003
 10
2.0505800953
 20
6.8474686944
 10
1.9821794526
 20
6.9541475559
 10
2.0814813129
 20
6.8754191116
 10
2.0505800953
 20
6.8474686944
  0
TEXT
  5
35F
330
358
100
AcDbEntity
  8
Default
  6
Continuous
 62
     7
100
AcDbText
 10
2.3417242662
 20
5.9983551604
 30
0.0
 40
0.125
  1
O
  7
SEACAD_semeca1_ttf
 11
2.3417242662
 21
6.1233551604
 31
0.0
100
AcDbText
 73
     3
  0
TEXT
  5
360
330
358
100
AcDbEntity
  8
Default
  6
Continuous
 62
     7
100
AcDbText
 10
2.6788333432
 20
6.0733551604
 30
0.0
 40
0.125
  1
2 7/16
  7
SEACAD_arial_ttf
 11
2.6788333432
 21
6.1983551604
 31
0.0
100
AcDbText
 73
     3
  0
TEXT
  5
361
330
358
100
AcDbEntity
  8
Default
  6
Continuous
 62
     7
100
AcDbText
 10
2.5592681258
 20
5.9233551604
 30
0.0
 40
0.125
  1
(
  7
SEACAD_arial_ttf
 11
2.5592681258
 21
6.0483551604
 31
0.0
100
AcDbText
 73
     3
  0
TEXT
  5
362
330
358
100
AcDbEntity
  8
Default
  6
Continuous
 62
     7
100
AcDbText
 10
2.6788333432
 20
5.9233551604
 30
0.0
 40
0.125
  1
61.19
  7
SEACAD_arial_ttf
 11
2.6788333432
 21
6.0483551604
 31
0.0
100
AcDbText
 73
     3
  0
TEXT
  5
363
330
358
100
AcDbEntity
  8
Default
  6
Continuous
 62
     7
100
AcDbText
 10
3.1815507345
 20
5.9233551604
 30
0.0
 40
0.125
  1
)
  7
SEACAD_arial_ttf
 11
3.1815507345
 21
6.0483551604
 31
0.0
100
AcDbText
 73
     3
  0
ENDBLK
  5
365
330
358
100
AcDbEntity
  8
0
100
AcDbBlockEnd
  0
BLOCK
  5
374
330
367
100
AcDbEntity
  8
0
100
AcDbBlockBegin
  2
DMBLK7
 70
     0
 71
     0
 10
0.0
 20
0.0
 30
0.0
  3
DMBLK7
  1

  0
HATCH
  5
368
330
367
100
AcDbEntity
  8
Default
  6
Continuous
 62
     7
100
AcDbHatch
 10
0.0
 20
0.0
 30
0.0
210
0.0
220
0.0
230
1.0
  2
SOLID
 70
     1
 71
     0
 91
        1
 92
        1
 93
        3
 72
     1
 10
6.948161408412599
 20
3.475059021461659
 11
6.823161409923248
 21
3.454225688380101
 72
     1
 10
6.823161409923247
 20
3.454225688380101
 11
6.948161408412598
 21
3.433392355298542
 72
     1
 10
6.948161408412599
 20
3.433392355298542
 11
6.948161408412599
 21
3.475059021461659
 97
        0
 75
     0
 76
     1
 98
        0
  0
LWPOLYLINE
  5
369
330
367
100
AcDbEntity
  8
Default
  6
Continuous
 62
     7
370
    25
100
AcDbPolyline
 90
        4
 70
     1
 43
0.0003
 10
6.9481614084
 20
3.4750590215
 10
6.8231614099
 20
3.4542256884
 10
6.9481614084
 20
3.4333923553
 10
6.9481614084
 20
3.4750590215
  0
HATCH
  5
36A
330
367
100
AcDbEntity
  8
Default
  6
Continuous
 62
     7
100
AcDbHatch
 10
0.0
 20
0.0
 30
0.0
210
0.0
220
0.0
230
1.0
  2
SOLID
 70
     1
 71
     0
 91
        1
 92
        1
 93
        3
 72
     1
 10
9.844161411433896
 20
3.475059021461659
 11
9.844161411433896
 21
3.433392355298542
 72
     1
 10
9.844161411433896
 20
3.433392355298542
 11
9.969161409923247
 21
3.4542256883801
 72
     1
 10
9.969161409923247
 20
3.454225688380101
 11
9.844161411433896
 21
3.475059021461659
 97
        0
 75
     0
 76
     1
 98
        0
  0
LWPOLYLINE
  5
36B
330
367
100
AcDbEntity
  8
Default
  6
Continuous
 62
     7
370
    25
100
AcDbPolyline
 90
        4
 70
     1
 43
0.0003
 10
9.8441614114
 20
3.4750590215
 10
9.9691614099
 20
3.4542256884
 10
9.8441614114
 20
3.4333923553
 10
9.8441614114
 20
3.4750590215
  0
LINE
  5
36C
330
367
100
AcDbEntity
  8
Default
  6
Continuous
 62
     7
100
AcDbLine
 10
6.8231614099
 20
3.0747642132
 30
0.0
 11
6.8231614099
 21
3.5167256876
 31
0.0
  0
LINE
  5
36D
330
367
100
AcDbEntity
  8
Default
  6
Continuous
 62
     7
100
AcDbLine
 10
9.9691614099
 20
3.0747642132
 30
0.0
 11
9.9691614099
 21
3.5167256876
 31
0.0
  0
LINE
  5
36E
330
367
100
AcDbEntity
  8
Default
  6
Continuous
 62
     7
100
AcDbLine
 10
6.8231614099
 20
3.4542256884
 30
0.0
 11
8.0127375345
 21
3.4542256884
 31
0.0
  0
LINE
  5
36F
330
367
100
AcDbEntity
  8
Default
  6
Continuous
 62
     7
100
AcDbLine
 10
8.7795853587
 20
3.4542256884
 30
0.0
 11
9.9691614099
 21
3.4542256884
 31
0.0
  0
TEXT
  5
370
330
367
100
AcDbEntity
  8
Default
  6
Continuous
 62
     7
100
AcDbText
 10
8.1760527295
 20
3.4667256884
 30
0.0
 40
0.125
  1
3 1/8
  7
SEACAD_arial_ttf
 11
8.1760527295
 21
3.5917256884
 31
0.0
100
AcDbText
 73
     3
  0
TEXT
  5
371
330
367
100
AcDbEntity
  8
Default
  6
Continuous
 62
     7
100
AcDbText
 10
8.0564875121
 20
3.3167256884
 30
0.0
 40
0.125
  1
(
  7
SEACAD_arial_ttf
 11
8.0564875121
 21
3.4417256884
 31
0.0
100
AcDbText
 73
     3
  0
TEXT
  5
372
330
367
100
AcDbEntity
  8
Default
  6
Continuous
 62
     7
100
AcDbText
 10
8.1760527295
 20
3.3167256884
 30
0.0
 40
0.125
  1
79.91
  7
SEACAD_arial_ttf
 11
8.1760527295
 21
3.4417256884
 31
0.0
100
AcDbText
 73
     3
  0
TEXT
  5
373
330
367
100
AcDbEntity
  8
Default
  6
Continuous
 62
     7
100
AcDbText
 10
8.6787701208
 20
3.3167256884
 30
0.0
 40
0.125
  1
)
  7
SEACAD_arial_ttf
 11
8.6787701208
 21
3.4417256884
 31
0.0
100
AcDbText
 73
     3
  0
ENDBLK
  5
375
330
367
100
AcDbEntity
  8
0
100
AcDbBlockEnd
  0
BLOCK
  5
385
330
377
100
AcDbEntity
  8
0
100
AcDbBlockBegin
  2
DMBLK8
 70
     0
 71
     0
 10
0.0
 20
0.0
 30
0.0
  3
DMBLK8
  1

  0
HATCH
  5
378
330
377
100
AcDbEntity
  8
Default
  6
Continuous
 62
     7
100
AcDbHatch
 10
0.0
 20
0.0
 30
0.0
210
0.0
220
0.0
230
1.0
  2
SOLID
 70
     1
 71
     0
 91
        1
 92
        1
 93
        3
 72
     1
 10
5.284390688252281
 20
3.137264212446118
 11
5.242724022089164
 21
3.137264212446118
 72
     1
 10
5.242724022089164
 20
3.137264212446118
 11
5.263557355170723
 21
3.012264213956767
 72
     1
 10
5.263557355170723
 20
3.012264213956767
 11
5.284390688252281
 21
3.137264212446118
 97
        0
 75
     0
 76
     1
 98
        0
  0
LWPOLYLINE
  5
379
330
377
100
AcDbEntity
  8
Default
  6
Continuous
 62
     7
370
    25
100
AcDbPolyline
 90
        4
 70
     1
 43
0.0003
 10
5.2843906883
 20
3.1372642124
 10
5.2635573552
 20
3.012264214
 10
5.2427240221
 20
3.1372642124
 10
5.2843906883
 20
3.1372642124
  0
HATCH
  5
37A
330
377
100
AcDbEntity
  8
Default
  6
Continuous
 62
     7
100
AcDbHatch
 10
0.0
 20
0.0
 30
0.0
210
0.0
220
0.0
230
1.0
  2
SOLID
 70
     1
 71
     0
 91
        1
 92
        1
 93
        3
 72
     1
 10
5.284390688252281
 20
2.637264215467416
 11
5.263557355170723
 21
2.762264213956767
 72
     1
 10
5.263557355170723
 20
2.762264213956767
 11
5.242724022089164
 21
2.637264215467416
 72
     1
 10
5.242724022089164
 20
2.637264215467416
 11
5.284390688252281
 21
2.637264215467416
 97
        0
 75
     0
 76
     1
 98
        0
  0
LWPOLYLINE
  5
37B
330
377
100
AcDbEntity
  8
Default
  6
Continuous
 62
     7
370
    25
100
AcDbPolyline
 90
        4
 70
     1
 43
0.0003
 10
5.2843906883
 20
2.6372642155
 10
5.2635573552
 20
2.762264214
 10
5.2427240221
 20
2.6372642155
 10
5.2843906883
 20
2.6372642155
  0
LINE
  5
37C
330
377
100
AcDbEntity
  8
Default
  6
Continuous
 62
     7
100
AcDbLine
 10
4.9386272734
 20
3.012264214
 30
0.0
 11
5.3260573544
 21
3.012264214
 31
0.0
  0
LINE
  5
37D
330
377
100
AcDbEntity
  8
Default
  6
Continuous
 62
     7
100
AcDbLine
 10
4.9436272734
 20
2.762264214
 30
0.0
 11
5.3260573544
 21
2.762264214
 31
0.0
  0
LINE
  5
37E
330
377
100
AcDbEntity
  8
Default
  6
Continuous
 62
     7
100
AcDbLine
 10
5.2635573552
 20
3.6601592961
 30
0.0
 11
5.4510573575
 21
3.6601592961
 31
0.0
  0
LINE
  5
37F
330
377
100
AcDbEntity
  8
Default
  6
Continuous
 62
     7
100
AcDbLine
 10
5.2635573552
 20
3.6601592961
 30
0.0
 11
5.2635573552
 21
3.012264214
 31
0.0
  0
LINE
  5
380
330
377
100
AcDbEntity
  8
Default
  6
Continuous
 62
     7
100
AcDbLine
 10
5.2635573552
 20
2.762264214
 30
0.0
 11
5.2635573552
 21
2.512264217
 31
0.0
  0
TEXT
  5
381
330
377
100
AcDbEntity
  8
Default
  6
Continuous
 62
     7
100
AcDbText
 10
5.6143725749
 20
3.6726592961
 30
0.0
 40
0.125
  1
1/4
  7
SEACAD_arial_ttf
 11
5.6143725749
 21
3.7976592961
 31
0.0
100
AcDbText
 73
     3
  0
TEXT
  5
382
330
377
100
AcDbEntity
  8
Default
  6
Continuous
 62
     7
100
AcDbText
 10
5.4948073575
 20
3.5226592961
 30
0.0
 40
0.125
  1
(
  7
SEACAD_arial_ttf
 11
5.4948073575
 21
3.6476592961
 31
0.0
100
AcDbText
 73
     3
  0
TEXT
  5
383
330
377
100
AcDbEntity
  8
Default
  6
Continuous
 62
     7
100
AcDbText
 10
5.6143725749
 20
3.5226592961
 30
0.0
 40
0.125
  1
6.35
  7
SEACAD_arial_ttf
 11
5.6143725749
 21
3.6476592961
 31
0.0
100
AcDbText
 73
     3
  0
TEXT
  5
384
330
377
100
AcDbEntity
  8
Default
  6
Continuous
 62
     7
100
AcDbText
 10
6.0192638792
 20
3.5226592961
 30
0.0
 40
0.125
  1
)
  7
SEACAD_arial_ttf
 11
6.0192638792
 21
3.6476592961
 31
0.0
100
AcDbText
 73
     3
  0
ENDBLK
  5
386
330
377
100
AcDbEntity
  8
0
100
AcDbBlockEnd
  0
ENDSEC
  0
SECTION
  2
ENTITIES
  0
INSERT
  5
2C
330
1F
100
AcDbEntity
  8
Revisions
100
AcDbBlockReference
  2
SEANNOT_GROUP
 10
0.0
 20
0.0
 30
0.0
  0
INSERT
  5
35
330
1F
100
AcDbEntity
  8
Default
100
AcDbBlockReference
  2
SEANNOT_GROUP1
 10
0.0
 20
0.0
 30
0.0
  0
INSERT
  5
3E
330
1F
100
AcDbEntity
  8
Default
100
AcDbBlockReference
  2
SE
 10
0.0
 20
0.0
 30
0.0
  0
INSERT
  5
143
330
1F
100
AcDbEntity
  8
Default
100
AcDbBlockReference
  2
SE1
 10
0.0
 20
0.0
 30
0.0
  0
INSERT
  5
1A6
330
1F
100
AcDbEntity
  8
Default
100
AcDbBlockReference
  2
SE2
 10
0.0
 20
0.0
 30
0.0
  0
INSERT
  5
277
330
1F
100
AcDbEntity
  8
Default
100
AcDbBlockReference
  2
SE3
 10
0.0
 20
0.0
 30
0.0
  0
DIMENSION
  5
346
330
1F
100
AcDbEntity
  8
Default
  6
Continuous
 62
     7
100
AcDbDimension
  2
DMBLK5
 10
0.7041272741
 20
7.9810524152
 30
0.0
 11
2.7901273365
 21
7.9810524152
 31
0.0
 70
   161
  1
\A1;<>
 71
     5
 42
-1.0
  3
2_place_dec
100
AcDbAlignedDimension
 13
0.7041272741
 23
7.5743023773
 33
0.0
 14
4.8761272741
 24
7.5743023773
 34
0.0
  0
DIMENSION
  5
356
330
1F
100
AcDbEntity
  8
Default
  6
Continuous
 62
     7
100
AcDbDimension
  2
DMBLK6
 10
3.5981607907
 20
5.167562737
 30
0.0
 11
2.790170109
 21
6.0608551604
 31
0.0
 70
   163
  1
\A1;<>
 71
     5
 42
-1.0
  3
2_place_dec
100
AcDbDiametricDimension
 15
1.9821794526
 25
6.9541475559
 35
0.0
 40
0.0
1001
ACAD
1000
DSTYLE
1002
{
1070
   172
1070
     1
1070
   279
1070
     2
1070
     0
1002
}
  0
DIMENSION
  5
366
330
1F
100
AcDbEntity
  8
Default
  6
Continuous
 62
     7
100
AcDbDimension
  2
DMBLK7
 10
6.8231614099
 20
3.4542256884
 30
0.0
 11
8.3961614252
 21
3.4542256884
 31
0.0
 70
   161
  1
\A1;<>
 71
     5
 42
-1.0
  3
2_place_dec
100
AcDbAlignedDimension
 13
6.8231614099
 23
3.012264214
 33
0.0
 14
9.9691614099
 24
3.012264214
 34
0.0
  0
DIMENSION
  5
376
330
1F
100
AcDbEntity
  8
Default
  6
Continuous
 62
     7
100
AcDbDimension
  2
DMBLK8
 10
5.2635573552
 20
2.762264214
 30
0.0
 11
5.4510573575
 21
3.6601592961
 31
0.0
 70
   160
  1
\A1;<>
 71
     5
 42
-1.0
  3
2_place_dec
100
AcDbAlignedDimension
 13
4.8761272741
 23
3.012264214
 33
0.0
 14
4.8811272741
 24
2.762264214
 34
0.0
 50
90.0
100
AcDbRotatedDimension
  0
ENDSEC
  0
SECTION
  2
OBJECTS
  0
DICTIONARY
  5
C
330
0
100
AcDbDictionary
281
     1
  3
ACAD_GROUP
350
D
  3
ACAD_LAYOUT
350
1A
  3
ACAD_MLINESTYLE
350
17
  3
ACAD_PLOTSETTINGS
350
19
  3
ACAD_PLOTSTYLENAME
350
E
  0
DICTIONARY
  5
D
102
{ACAD_REACTORS
330
C
102
}
330
C
100
AcDbDictionary
281
     1
  0
DICTIONARY
  5
1A
102
{ACAD_REACTORS
330
C
102
}
330
C
100
AcDbDictionary
281
     1
  3
Layout1
350
1E
  3
Model
350
22
  0
DICTIONARY
  5
17
102
{ACAD_REACTORS
330
C
102
}
330
C
100
AcDbDictionary
281
     1
  3
Standard
350
18
  0
DICTIONARY
  5
19
102
{ACAD_REACTORS
330
C
102
}
330
C
100
AcDbDictionary
281
     1
  0
ACDBDICTIONARYWDFLT
  5
E
102
{ACAD_REACTORS
330
C
102
}
330
C
100
AcDbDictionary
281
     1
  3
Normal
350
F
100
AcDbDictionaryWithDefault
340
F
  0
LAYOUT
  5
1E
102
{ACAD_REACTORS
330
1A
102
}
330
1A
100
AcDbPlotSettings
  1

  2

  4

  6

 40
0.0
 41
0.0
 42
0.0
 43
0.0
 44
0.0
 45
0.0
 46
0.0
 47
0.0
 48
0.0
 49
0.0
140
0.0
141
0.0
142
1.0
143
1.0
 70
   688
 72
     0
 73
     0
 74
     5
  7

 75
    16
147
1.0
148
0.0
149
0.0
100
AcDbLayout
  1
Layout1
 70
     1
 71
     1
 10
0.0
 20
0.0
 11
10.999978
 21
8.499983
 12
0.0
 22
0.0
 32
0.0
 14
0.0
 24
0.0
 34
0.0
 15
10.999978
 25
8.499983
 35
0.0
146
0.0
 13
0.0
 23
0.0
 33
0.0
 16
1.0
 26
0.0
 36
0.0
 17
0.0
 27
1.0
 37
0.0
 76
     0
330
1B
  0
LAYOUT
  5
22
102
{ACAD_REACTORS
330
1A
102
}
330
1A
100
AcDbPlotSettings
  1

  2

  4

  6

 40
0.0
 41
0.0
 42
0.0
 43
0.0
 44
0.0
 45
0.0
 46
0.0
 47
0.0
 48
0.0
 49
0.0
140
0.0
141
0.0
142
1.0
143
1.0
 70
  1712
 72
     0
 73
     0
 74
     0
  7

 75
     0
147
1.0
148
0.0
149
0.0
100
AcDbLayout
  1
Model
 70
     1
 71
     0
 10
0.0
 20
0.0
 11
10.999978
 21
8.499983
 12
0.0
 22
0.0
 32
0.0
 14
0.0
 24
0.0
 34
0.0
 15
10.999978
 25
8.499983
 35
0.0
146
0.0
 13
0.0
 23
0.0
 33
0.0
 16
1.0
 26
0.0
 36
0.0
 17
0.0
 27
1.0
 37
0.0
 76
     0
330
1F
  0
MLINESTYLE
  5
18
102
{ACAD_REACTORS
330
17
102
}
330
17
100
AcDbMlineStyle
  2
Standard
 70
     0
  3

 62
   256
 51
90.0
 52
90.0
 71
     2
 49
0.5
 62
   256
  6
BYLAYER
 49
-0.5
 62
   256
  6
BYLAYER
  0
ACDBPLACEHOLDER
  5
F
102
{ACAD_REACTORS
330
E
102
}
330
E
  0
ENDSEC
  0
EOF
