999
DXF file: 1606-xle120e-2.dxf
999
Pro/ENGINEER 2010140 by Parametric Technology Corporation
  0
SECTION
  2
HEADER
  9
$ACADVER
  1
AC1018
  9
$DWGCODEPAGE
  3
ANSI_1252
  9
$EXTMAX
 10
17.0
 20
11.0
 30
0.0
  9
$EXTMIN
 10
0.0
 20
0.0
 30
0.0
  9
$LIMMIN
 10
0.0
 20
0.0
  9
$LIMMAX
 10
17.0
 20
11.0
  9
$VIEWCTR
 10
8.5
 20
5.5
  9
$VIEWSIZE
 40
11.0
  9
$CLAYER
  8
0
  9
$LTSCALE
 40
0.935
  9
$CELTYPE
  6
BYLAYER
  9
$DIMSCALE
 40
1.0
  9
$DIMASZ
 40
0.1875
  9
$DIMEXO
 40
0.10625
  9
$DIMDLI
 40
0.646
  9
$DIMEXE
 40
0.306
  9
$DIMCEN
 40
0.153
  9
$DIMLFAC
 40
1.0
  9
$DIMBLK
  1
_CLOSED
  9
$DIMTXT
 40
0.15625
  9
$DIMTOL
 70
0
  9
$DIMLIM
 70
0
  9
$DIMTFAC
 40
1.0
  9
$PDMODE
 70
3
  9
$PDSIZE
 40
0.3125
  9
$HANDSEED
  5
AD6
  9
$TILEMODE
 70
1
  9
$MEASUREMENT
 70
0
  9
$INSUNITS
 70
1
  0
ENDSEC
  0
SECTION
  2
CLASSES
  0
CLASS
  1
ACDBDICTIONARYWDFLT
  2
AcDbDictionaryWithDefault
  3
AutoCAD 2000
 90
0
 91
1
280
0
281
0
  0
CLASS
  1
ACDBPLACEHOLDER
  2
AcDbPlaceHolder
  3
AutoCAD 2000
 90
0
 91
1
280
0
281
0
  0
CLASS
  1
LAYOUT
  2
AcDbLayout
  3
AutoCAD 2000
 90
0
 91
0
280
0
281
0
  0
ENDSEC
  0
SECTION
  2
TABLES
  0
TABLE
  2
VPORT
  5
8
100
AcDbSymbolTable
 70
2
  0
VPORT
  5
1F4
100
AcDbSymbolTableRecord
100
AcDbViewportTableRecord
  2
*ACTIVE
 70
0
 10
0.0
 20
0.0
 11
1.0
 21
1.0
 12
8.5
 22
5.5
 13
0.0
 23
0.0
 14
1.0
 24
1.0
 15
0.0
 25
0.0
 16
0.0
 26
0.0
 36
1.0
 17
0.0
 27
0.0
 37
0.0
 40
11.0
 41
1.5454545455
 42
50.0
 43
0.0
 44
0.0
 50
0.0
 51
0.0
 71
0
 72
100
 73
1
 74
1
 75
0
 76
0
 77
0
 78
0
  0
ENDTAB
  0
TABLE
  2
LTYPE
  5
5
100
AcDbSymbolTable
 70
6
  0
LTYPE
  5
14
100
AcDbSymbolTableRecord
100
AcDbLinetypeTableRecord
  2
BYBLOCK
 70
0
  3

 72
65
 73
0
 40
0.0
  0
LTYPE
  5
15
100
AcDbSymbolTableRecord
100
AcDbLinetypeTableRecord
  2
BYLAYER
 70
0
  3

 72
65
 73
0
 40
0.0
  0
LTYPE
  5
16
100
AcDbSymbolTableRecord
100
AcDbLinetypeTableRecord
  2
CONTINUOUS
 70
64
  3
Solid line
 72
65
 73
0
 40
0.0
  0
LTYPE
  5
1F5
100
AcDbSymbolTableRecord
100
AcDbLinetypeTableRecord
  2
CENTER
 70
64
  3
____ _ ____ _ ____ _ ____ _ ____ _ ____ _ ____
 72
65
 73
4
 40
0.6
 49
0.375
 74
0
 49
-0.075
 74
0
 49
0.075
 74
0
 49
-0.075
 74
0
  0
LTYPE
  5
1F6
100
AcDbSymbolTableRecord
100
AcDbLinetypeTableRecord
  2
HIDDEN
 70
64
  3
- - - - - - - - - - - - - - - - - - - -
 72
65
 73
2
 40
0.2
 49
0.1
 74
0
 49
-0.1
 74
0
  0
LTYPE
  5
1F7
100
AcDbSymbolTableRecord
100
AcDbLinetypeTableRecord
  2
PHANTOM
 70
64
  3
_____ _ _ _____ _ _ _____ _ _ _____
 72
65
 73
6
 40
0.8
 49
0.45
 74
0
 49
-0.05
 74
0
 49
0.1
 74
0
 49
-0.05
 74
0
 49
0.1
 74
0
 49
-0.05
 74
0
  0
LTYPE
  5
1F8
100
AcDbSymbolTableRecord
100
AcDbLinetypeTableRecord
  2
DOT
 70
64
  3
. . . . . . . . . . . . . . . . . . . .
 72
65
 73
2
 40
0.2
 49
0.1
 74
0
 49
-0.1
 74
0
  0
LTYPE
  5
1F9
100
AcDbSymbolTableRecord
100
AcDbLinetypeTableRecord
  2
DASHED
 70
64
  3
- - - - - - - - - - - - - - - - - - - -
 72
65
 73
2
 40
0.2
 49
0.1
 74
0
 49
-0.1
 74
0
  0
ENDTAB
  0
TABLE
  2
LAYER
  5
2
100
AcDbSymbolTable
 70
36
  0
LAYER
  5
10
100
AcDbSymbolTableRecord
100
AcDbLayerTableRecord
  2
0
 70
0
 62
7
  6
CONTINUOUS
370
-3
390
F
  0
LAYER
  5
1FA
100
AcDbSymbolTableRecord
100
AcDbLayerTableRecord
  2
DEFAULT_1
 70
0
 62
7
  6
CENTER
370
-3
390
F
  0
LAYER
  5
1FB
100
AcDbSymbolTableRecord
100
AcDbLayerTableRecord
  2
DEFAULT_2
 70
0
 62
8
  6
HIDDEN
370
-3
390
F
  0
LAYER
  5
1FC
100
AcDbSymbolTableRecord
100
AcDbLayerTableRecord
  2
DEFAULT_3
 70
0
 62
7
  6
PHANTOM
370
-3
390
F
  0
ENDTAB
  0
TABLE
  2
STYLE
  5
3
100
AcDbSymbolTable
 70
1
  0
STYLE
  5
11
100
AcDbSymbolTableRecord
100
AcDbTextStyleTableRecord
  2
STANDARD
 70
0
 40
0.0
 41
0.8
 50
0.0
 71
0
 42
0.2
  3
txt
  4

  0
STYLE
  5
1FD
100
AcDbSymbolTableRecord
100
AcDbTextStyleTableRecord
  2
TEXTSTYLE_1
 70
0
 40
0.0
 41
0.8
 50
0.0
 71
0
 42
0.2
  3
gdt
  4

  0
ENDTAB
  0
TABLE
  2
VIEW
  5
6
100
AcDbSymbolTable
 70
0
  0
ENDTAB
  0
TABLE
  2
UCS
  5
7
100
AcDbSymbolTable
 70
0
  0
ENDTAB
  0
TABLE
  2
APPID
  5
9
100
AcDbSymbolTable
 70
1
  0
APPID
  5
1FE
100
AcDbSymbolTableRecord
100
AcDbRegAppTableRecord
  2
ACAD
 70
0
  0
ENDTAB
  0
TABLE
  2
BLOCK_RECORD
  5
1
100
AcDbSymbolTable
 70
0
  0
BLOCK_RECORD
  5
1FF
100
AcDbSymbolTableRecord
100
AcDbBlockTableRecord
  2
*Model_Space
  0
BLOCK_RECORD
  5
200
100
AcDbSymbolTableRecord
100
AcDbBlockTableRecord
  2
*Paper_Space
  0
BLOCK_RECORD
  5
201
100
AcDbSymbolTableRecord
100
AcDbBlockTableRecord
  2
_CLOSED
  0
BLOCK_RECORD
  5
202
100
AcDbSymbolTableRecord
100
AcDbBlockTableRecord
  2
*D0
  0
BLOCK_RECORD
  5
203
100
AcDbSymbolTableRecord
100
AcDbBlockTableRecord
  2
*D1
  0
BLOCK_RECORD
  5
204
100
AcDbSymbolTableRecord
100
AcDbBlockTableRecord
  2
*D2
  0
ENDTAB
  0
TABLE
  2
DIMSTYLE
  5
A
100
AcDbSymbolTable
 70
1
100
AcDbDimStyleTable
 71
0
  0
DIMSTYLE
105
205
100
AcDbSymbolTableRecord
100
AcDbDimStyleTableRecord
  2
STANDARD
 70
0
  3

  4

 40
1.0
 41
0.1875
 42
0.0625
 43
0.38
 44
0.18
 45
0.0
 46
0.0
 47
0.01
 48
0.01
140
0.15625
141
0.09
142
0.0
143
25.4
144
1.0
145
0.0
146
1.0
147
0.09
 71
0.0
 72
0.0
 73
1
 74
1
 75
0
 76
0
 77
0
 78
0
170
0
171
2
172
0
173
0
174
0
175
0
176
0
177
0
178
0
270
2
271
2
272
2
273
2
274
2
275
0
280
0
281
0
282
0
283
1
284
0
285
0
286
0
287
3
288
0
340
11
341
201
342
201
343
201
344
201
  0
DIMSTYLE
105
206
100
AcDbSymbolTableRecord
100
AcDbDimStyleTableRecord
  2
DIMSTYLE_1
 70
0
  3

  4

 40
1.0
 41
0.1875
 42
0.0625
 43
0.38
 44
0.18
 45
0.0
 46
0.0
 47
0.0
 48
0.0
140
0.15625
141
0.09
142
0.0
143
25.4
144
1.0
145
0.0
146
1.0
147
0.09
 71
0.0
 72
0.0
 73
1
 74
1
 75
0
 76
0
 77
0
 78
0
170
0
171
2
172
0
173
0
174
0
175
0
176
0
177
0
178
0
270
2
271
2
272
2
273
2
274
2
275
0
280
0
281
0
282
0
283
1
284
0
285
0
286
0
287
3
288
0
340
11
341
201
342
201
343
201
344
201
  0
ENDTAB
  0
ENDSEC
  0
SECTION
  2
BLOCKS
  0
BLOCK
  5
20
100
AcDbEntity
  8
0
100
AcDbBlockBegin
  2
*Model_Space
 70
0
 10
0.0
 20
0.0
 30
0.0
  3
*Model_Space
  1

  0
ENDBLK
  5
21
100
AcDbEntity
  8
0
100
AcDbBlockEnd
  0
BLOCK
  5
1C
100
AcDbEntity
  8
0
100
AcDbBlockBegin
  2
*Paper_Space
 70
0
 10
0.0
 20
0.0
 30
0.0
  3
*Paper_Space
  1

  0
ENDBLK
  5
1D
100
AcDbEntity
  8
0
100
AcDbBlockEnd
  0
BLOCK
  5
207
100
AcDbEntity
  8
0
100
AcDbBlockBegin
  2
_CLOSED
 70
64
 10
0.0
 20
0.0
  3
_CLOSED
  1

  0
LINE
  5
208
100
AcDbEntity
  8
0
  6
BYBLOCK
 62
0
100
AcDbLine
 10
0.0
 20
0.0
 11
-1.0
 21
0.1666666667
  0
LINE
  5
209
100
AcDbEntity
  8
0
  6
BYBLOCK
 62
0
100
AcDbLine
 10
-1.0
 20
0.1666666667
 11
-1.0
 21
-0.1666666667
  0
LINE
  5
20A
100
AcDbEntity
  8
0
  6
BYBLOCK
 62
0
100
AcDbLine
 10
-1.0
 20
-0.1666666667
 11
0.0
 21
0.0
  0
LINE
  5
20B
100
AcDbEntity
  8
0
  6
BYBLOCK
 62
0
100
AcDbLine
 10
-1.0
 20
0.0
 11
0.0
 21
0.0
  0
ENDBLK
  5
20C
100
AcDbEntity
  8
0
  6
BYBLOCK
 62
0
100
AcDbBlockEnd
  0
BLOCK
  5
20D
100
AcDbEntity
  8
0
100
AcDbBlockBegin
 62
7
  6
CONTINUOUS
  2
*D0
 70
65
 10
0.0
 20
0.0
  3
*D0
  1

  0
MTEXT
  5
20E
100
AcDbEntity
  8
0
100
AcDbMText
 62
7
  6
CONTINUOUS
  7
STANDARD
 71
2
 72
1
 10
9.9552383823
 20
3.7949854369
 30
0.0
 11
1.0
 21
0.0
 31
0.0
 44
0.9
  1
4.61\P[117.00]
 40
0.15625
 41
1.0
  0
LINE
  5
20F
100
AcDbEntity
  8
0
100
AcDbLine
 62
7
  6
CONTINUOUS
 10
9.3238585315
 20
1.4137118623
 11
10.3302383823
 21
1.4137118623
  0
LINE
  5
210
100
AcDbEntity
  8
0
100
AcDbLine
 62
7
  6
CONTINUOUS
 10
9.2238125544
 20
6.0200090116
 11
10.3302383823
 21
6.0200090116
  0
LINE
  5
211
100
AcDbEntity
  8
0
100
AcDbLine
 62
7
  6
CONTINUOUS
 10
10.2052383823
 20
1.4137118623
 11
10.2052383823
 21
3.3262354369
  0
LINE
  5
212
100
AcDbEntity
  8
0
100
AcDbLine
 62
7
  6
CONTINUOUS
 10
10.2052383823
 20
6.0200090116
 11
10.2052383823
 21
3.8731104369
  0
INSERT
  5
213
100
AcDbEntity
  8
0
100
AcDbBlockReference
 62
7
  6
CONTINUOUS
  2
_CLOSED
 10
10.2052383823
 20
1.4137118623
 41
0.1875
 42
0.1875
 43
0.1875
 50
270.0
  0
INSERT
  5
214
100
AcDbEntity
  8
0
100
AcDbBlockReference
 62
7
  6
CONTINUOUS
  2
_CLOSED
 10
10.2052383823
 20
6.0200090116
 41
0.1875
 42
0.1875
 43
0.1875
 50
90.0
  0
ENDBLK
  5
215
100
AcDbEntity
  8
0
  6
BYBLOCK
 62
0
100
AcDbBlockEnd
  0
BLOCK
  5
216
100
AcDbEntity
  8
0
100
AcDbBlockBegin
 62
7
  6
CONTINUOUS
  2
*D1
 70
65
 10
0.0
 20
0.0
  3
*D1
  1

  0
MTEXT
  5
217
100
AcDbEntity
  8
0
100
AcDbMText
 62
7
  6
CONTINUOUS
  7
STANDARD
 71
2
 72
1
 10
3.0845423464
 20
8.8333183152
 30
0.0
 11
1.0
 21
0.0
 31
0.0
 44
0.9
  1
1.57\P[40.00]
 40
0.15625
 41
0.875
  0
LINE
  5
218
100
AcDbEntity
  8
0
100
AcDbLine
 62
7
  6
CONTINUOUS
 10
4.2109399041
 20
7.9677917404
 11
3.1470423464
 21
7.9677917404
  0
LINE
  5
219
100
AcDbEntity
  8
0
100
AcDbLine
 62
7
  6
CONTINUOUS
 10
4.2109399041
 20
9.54259489
 11
3.1470423464
 21
9.54259489
  0
LINE
  5
21A
100
AcDbEntity
  8
0
100
AcDbLine
 62
7
  6
CONTINUOUS
 10
3.2720423464
 20
7.9677917404
 11
3.2720423464
 21
8.3645683152
  0
LINE
  5
21B
100
AcDbEntity
  8
0
100
AcDbLine
 62
7
  6
CONTINUOUS
 10
3.2720423464
 20
9.54259489
 11
3.2720423464
 21
8.9114433152
  0
INSERT
  5
21C
100
AcDbEntity
  8
0
100
AcDbBlockReference
 62
7
  6
CONTINUOUS
  2
_CLOSED
 10
3.2720423464
 20
7.9677917404
 41
0.1875
 42
0.1875
 43
0.1875
 50
270.0
  0
INSERT
  5
21D
100
AcDbEntity
  8
0
100
AcDbBlockReference
 62
7
  6
CONTINUOUS
  2
_CLOSED
 10
3.2720423464
 20
9.54259489
 41
0.1875
 42
0.1875
 43
0.1875
 50
90.0
  0
ENDBLK
  5
21E
100
AcDbEntity
  8
0
  6
BYBLOCK
 62
0
100
AcDbBlockEnd
  0
BLOCK
  5
21F
100
AcDbEntity
  8
0
100
AcDbBlockBegin
 62
7
  6
CONTINUOUS
  2
*D2
 70
65
 10
0.0
 20
0.0
  3
*D2
  1

  0
MTEXT
  5
220
100
AcDbEntity
  8
0
100
AcDbMText
 62
7
  6
CONTINUOUS
  7
STANDARD
 71
2
 72
1
 10
6.714384786
 20
10.3059112306
 30
0.0
 11
1.0
 21
0.0
 31
0.0
 44
0.9
  1
4.88{\Ftxt.shx;\W1.000000;\H0.156250; }[124.00]
 40
0.15625
 41
1.65625
  0
LINE
  5
221
100
AcDbEntity
  8
0
100
AcDbLine
 62
7
  6
CONTINUOUS
 10
4.2734399041
 20
9.60509489
 11
4.2734399041
 21
10.3527862306
  0
LINE
  5
222
100
AcDbEntity
  8
0
100
AcDbLine
 62
7
  6
CONTINUOUS
 10
9.1553296678
 20
9.60509489
 11
9.1553296678
 21
10.3527862306
  0
LINE
  5
223
100
AcDbEntity
  8
0
100
AcDbLine
 62
7
  6
CONTINUOUS
 10
4.2734399041
 20
10.2277862306
 11
5.808134786
 21
10.2277862306
  0
LINE
  5
224
100
AcDbEntity
  8
0
100
AcDbLine
 62
7
  6
CONTINUOUS
 10
9.1553296678
 20
10.2277862306
 11
7.620634786
 21
10.2277862306
  0
INSERT
  5
225
100
AcDbEntity
  8
0
100
AcDbBlockReference
 62
7
  6
CONTINUOUS
  2
_CLOSED
 10
4.2734399041
 20
10.2277862306
 41
0.1875
 42
0.1875
 43
0.1875
 50
180.0
  0
INSERT
  5
226
100
AcDbEntity
  8
0
100
AcDbBlockReference
 62
7
  6
CONTINUOUS
  2
_CLOSED
 10
9.1553296678
 20
10.2277862306
 41
0.1875
 42
0.1875
 43
0.1875
  0
ENDBLK
  5
227
100
AcDbEntity
  8
0
  6
BYBLOCK
 62
0
100
AcDbBlockEnd
  0
ENDSEC
  0
SECTION
  2
ENTITIES
  0
DIMENSION
  5
228
100
AcDbEntity
  8
0
100
AcDbDimension
 62
7
  6
CONTINUOUS
  2
*D0
 10
10.2052383823
 20
6.0200090116
 11
10.0489883823
 21
3.5996729369
 70
160
 71
2
 42
116.9999475918
  3
DIMSTYLE_1
100
AcDbAlignedDimension
 13
9.3238585315
 23
1.4137118623
 14
9.2238125544
 24
6.0200090116
 50
90.0
100
AcDbRotatedDimension
  0
DIMENSION
  5
229
100
AcDbEntity
  8
0
100
AcDbDimension
 62
7
  6
CONTINUOUS
  2
*D1
 10
3.2720423464
 20
9.54259489
 11
3.1157923464
 21
8.6380058152
 70
160
 71
2
 42
40.0
  3
DIMSTYLE_1
100
AcDbAlignedDimension
 13
4.2109399041
 23
7.9677917404
 14
4.2109399041
 24
9.54259489
 50
90.0
100
AcDbRotatedDimension
  0
DIMENSION
  5
22A
100
AcDbEntity
  8
0
100
AcDbDimension
 62
7
  6
CONTINUOUS
  2
*D2
 10
9.1553296678
 20
10.2277862306
 11
6.558134786
 21
10.2277862306
 70
160
 71
2
 42
124.0
  3
DIMSTYLE_1
100
AcDbAlignedDimension
 13
4.2734399041
 23
9.60509489
 14
9.1553296678
 24
9.60509489
100
AcDbRotatedDimension
  0
LINE
  5
22B
100
AcDbEntity
  8
0
100
AcDbLine
 62
7
  6
CONTINUOUS
 10
0.0
 20
0.0
 11
0.0
 21
11.0
  0
LINE
  5
22C
100
AcDbEntity
  8
0
100
AcDbLine
 62
7
  6
CONTINUOUS
 10
0.0
 20
0.0
 11
17.0
 21
0.0
  0
LINE
  5
22D
100
AcDbEntity
  8
0
100
AcDbLine
 62
7
  6
CONTINUOUS
 10
0.0
 20
11.0
 11
17.0
 21
11.0
  0
LINE
  5
22E
100
AcDbEntity
  8
0
100
AcDbLine
 62
7
  6
CONTINUOUS
 10
17.0
 20
0.0
 11
17.0
 21
11.0
  0
LINE
  5
22F
100
AcDbEntity
  8
0
100
AcDbLine
 62
7
  6
CONTINUOUS
 10
4.1897784867
 20
1.4137118623
 11
4.1897784867
 21
1.6017039883
  0
LINE
  5
230
100
AcDbEntity
  8
0
100
AcDbLine
 62
7
  6
CONTINUOUS
 10
4.2616288804
 20
5.4402866655
 11
4.2616288804
 21
5.0072157993
  0
LINE
  5
231
100
AcDbEntity
  8
0
100
AcDbLine
 62
7
  6
CONTINUOUS
 10
4.2734399041
 20
1.641074067
 11
4.2734399041
 21
5.6961921773
  0
LINE
  5
232
100
AcDbEntity
  8
0
100
AcDbLine
 62
7
  6
CONTINUOUS
 10
4.2931249434
 20
5.7013359451
 11
4.2931249434
 21
5.7115057802
  0
LINE
  5
233
100
AcDbEntity
  8
0
100
AcDbLine
 62
7
  6
CONTINUOUS
 10
4.3521800615
 20
5.8339874529
 11
4.3521800615
 21
5.726654106
  0
LINE
  5
234
100
AcDbEntity
  8
0
100
AcDbLine
 62
7
  6
CONTINUOUS
 10
9.2537548647
 20
1.2394992639
 11
7.4230462033
 21
1.2394992639
  0
LINE
  5
235
100
AcDbEntity
  8
0
100
AcDbLine
 62
7
  6
CONTINUOUS
 10
6.1238336049
 20
1.2394992639
 11
5.8482430537
 21
1.2394992639
  0
LINE
  5
236
100
AcDbEntity
  8
0
100
AcDbLine
 62
7
  6
CONTINUOUS
 10
4.6277706127
 20
5.8339874529
 11
4.6277706127
 21
5.7921177632
  0
LINE
  5
237
100
AcDbEntity
  8
0
100
AcDbLine
 62
7
  6
CONTINUOUS
 10
5.9761958096
 20
1.3487512324
 11
6.0549359671
 21
1.3487512324
  0
LINE
  5
238
100
AcDbEntity
  8
0
100
AcDbLine
 62
7
  6
CONTINUOUS
 10
7.4230462033
 20
1.4137118623
 11
5.9761958096
 21
1.4137118623
  0
LINE
  5
239
100
AcDbEntity
  8
0
100
AcDbLine
 62
7
  6
CONTINUOUS
 10
5.8482430537
 20
1.4137118623
 11
4.1897784867
 21
1.4137118623
  0
LINE
  5
23A
100
AcDbEntity
  8
0
100
AcDbLine
 62
7
  6
CONTINUOUS
 10
6.0549359671
 20
1.4146961143
 11
5.9761958096
 21
1.4146961143
  0
LINE
  5
23B
100
AcDbEntity
  8
0
100
AcDbLine
 62
7
  6
CONTINUOUS
 10
5.9761958096
 20
1.4934362718
 11
6.0549359671
 21
1.4934362718
  0
LINE
  5
23C
100
AcDbEntity
  8
0
100
AcDbLine
 62
7
  6
CONTINUOUS
 10
6.9112351797
 20
1.5121370592
 11
7.3049359671
 21
1.5121370592
  0
LINE
  5
23D
100
AcDbEntity
  8
0
100
AcDbLine
 62
7
  6
CONTINUOUS
 10
5.9761958096
 20
1.5426488702
 11
6.7498072191
 21
1.5426488702
  0
LINE
  5
23E
100
AcDbEntity
  8
0
100
AcDbLine
 62
7
  6
CONTINUOUS
 10
7.8758021088
 20
1.5623339096
 11
7.5608414789
 21
1.5623339096
  0
LINE
  5
23F
100
AcDbEntity
  8
0
100
AcDbLine
 62
7
  6
CONTINUOUS
 10
5.8482430537
 20
1.5623339096
 11
5.5332824237
 21
1.5623339096
  0
LINE
  5
240
100
AcDbEntity
  8
0
100
AcDbLine
 62
7
  6
CONTINUOUS
 10
6.0549359671
 20
1.3487512324
 11
6.1238336049
 21
1.299538634
  0
LINE
  5
241
100
AcDbEntity
  8
0
100
AcDbLine
 62
7
  6
CONTINUOUS
 10
4.8590698253
 20
1.6017039883
 11
4.8590698253
 21
1.641074067
  0
LINE
  5
242
100
AcDbEntity
  8
0
100
AcDbLine
 62
7
  6
CONTINUOUS
 10
4.8590698253
 20
1.6017039883
 11
4.1897784867
 21
1.6017039883
  0
LINE
  5
243
100
AcDbEntity
  8
0
100
AcDbLine
 62
7
  6
CONTINUOUS
 10
8.6041485655
 20
1.6017039883
 11
9.2537548647
 21
1.6017039883
  0
LINE
  5
244
100
AcDbEntity
  8
0
100
AcDbLine
 62
7
  6
CONTINUOUS
 10
7.8167469907
 20
1.6213890277
 11
7.619896597
 21
1.6213890277
  0
LINE
  5
245
100
AcDbEntity
  8
0
100
AcDbLine
 62
7
  6
CONTINUOUS
 10
5.7891879356
 20
1.6213890277
 11
5.5923375419
 21
1.6213890277
  0
LINE
  5
246
100
AcDbEntity
  8
0
100
AcDbLine
 62
7
  6
CONTINUOUS
 10
9.1553296678
 20
1.641074067
 11
4.2734399041
 21
1.641074067
  0
LINE
  5
247
100
AcDbEntity
  8
0
100
AcDbLine
 62
7
  6
CONTINUOUS
 10
8.7616288804
 20
1.798554382
 11
6.8718651009
 21
1.798554382
  0
LINE
  5
248
100
AcDbEntity
  8
0
100
AcDbLine
 62
7
  6
CONTINUOUS
 10
5.1395816363
 20
5.8913033966
 11
5.1395816363
 21
5.9717827285
  0
LINE
  5
249
100
AcDbEntity
  8
0
100
AcDbLine
 62
7
  6
CONTINUOUS
 10
6.8285473766
 20
1.4137118623
 11
6.8167363529
 21
1.4266055631
  0
LINE
  5
24A
100
AcDbEntity
  8
0
100
AcDbLine
 62
7
  6
CONTINUOUS
 10
6.8390660999
 20
1.4452079253
 11
6.7498072191
 21
1.5426488702
  0
LINE
  5
24B
100
AcDbEntity
  8
0
100
AcDbLine
 62
7
  6
CONTINUOUS
 10
5.4348572269
 20
6.0111528072
 11
5.4348572269
 21
5.9355761549
  0
LINE
  5
24C
100
AcDbEntity
  8
0
100
AcDbLine
 62
7
  6
CONTINUOUS
 10
5.5332824237
 20
1.5623339096
 11
5.5332824237
 21
1.641074067
  0
LINE
  5
24D
100
AcDbEntity
  8
0
100
AcDbLine
 62
7
  6
CONTINUOUS
 10
5.5923375419
 20
1.6213890277
 11
5.5923375419
 21
1.641074067
  0
LINE
  5
24E
100
AcDbEntity
  8
0
100
AcDbLine
 62
7
  6
CONTINUOUS
 10
6.7931249434
 20
1.641074067
 11
6.9112351797
 21
1.5121370592
  0
LINE
  5
24F
100
AcDbEntity
  8
0
100
AcDbLine
 62
7
  6
CONTINUOUS
 10
5.7891879356
 20
1.6213890277
 11
5.7891879356
 21
1.641074067
  0
LINE
  5
250
100
AcDbEntity
  8
0
100
AcDbLine
 62
7
  6
CONTINUOUS
 10
5.8482430537
 20
1.2394992639
 11
5.8482430537
 21
1.5623339096
  0
LINE
  5
251
100
AcDbEntity
  8
0
100
AcDbLine
 62
7
  6
CONTINUOUS
 10
5.9761958096
 20
1.5426488702
 11
5.9761958096
 21
1.4934362718
  0
LINE
  5
252
100
AcDbEntity
  8
0
100
AcDbLine
 62
7
  6
CONTINUOUS
 10
5.9761958096
 20
1.4146961143
 11
5.9761958096
 21
1.3487512324
  0
LINE
  5
253
100
AcDbEntity
  8
0
100
AcDbLine
 62
7
  6
CONTINUOUS
 10
6.0549359671
 20
1.4934362718
 11
6.0549359671
 21
1.4146961143
  0
LINE
  5
254
100
AcDbEntity
  8
0
100
AcDbLine
 62
7
  6
CONTINUOUS
 10
7.4230462033
 20
1.2394992639
 11
7.3443060458
 21
1.3519518628
  0
LINE
  5
255
100
AcDbEntity
  8
0
100
AcDbLine
 62
7
  6
CONTINUOUS
 10
6.1238336049
 20
1.299538634
 11
6.1238336049
 21
1.2394992639
  0
LINE
  5
256
100
AcDbEntity
  8
0
100
AcDbLine
 62
7
  6
CONTINUOUS
 10
6.7035612734
 20
6.011146716
 11
6.7035612734
 21
6.0209892419
  0
LINE
  5
257
100
AcDbEntity
  8
0
100
AcDbLine
 62
7
  6
CONTINUOUS
 10
6.8718651009
 20
1.798554382
 11
6.8718651009
 21
4.2645829673
  0
LINE
  5
258
100
AcDbEntity
  8
0
100
AcDbLine
 62
7
  6
CONTINUOUS
 10
7.3049359671
 20
1.5121370592
 11
7.3049359671
 21
1.641074067
  0
LINE
  5
259
100
AcDbEntity
  8
0
100
AcDbLine
 62
7
  6
CONTINUOUS
 10
7.4230462033
 20
1.2394992639
 11
7.4230462033
 21
1.4137118623
  0
LINE
  5
25A
100
AcDbEntity
  8
0
100
AcDbLine
 62
7
  6
CONTINUOUS
 10
7.5608414789
 20
1.5623339096
 11
7.5608414789
 21
1.2394992639
  0
LINE
  5
25B
100
AcDbEntity
  8
0
100
AcDbLine
 62
7
  6
CONTINUOUS
 10
7.619896597
 20
1.6213890277
 11
7.619896597
 21
1.641074067
  0
LINE
  5
25C
100
AcDbEntity
  8
0
100
AcDbLine
 62
7
  6
CONTINUOUS
 10
7.8167469907
 20
1.6213890277
 11
7.8167469907
 21
1.641074067
  0
LINE
  5
25D
100
AcDbEntity
  8
0
100
AcDbLine
 62
7
  6
CONTINUOUS
 10
7.8758021088
 20
1.641074067
 11
7.8758021088
 21
1.5623339096
  0
LINE
  5
25E
100
AcDbEntity
  8
0
100
AcDbLine
 62
7
  6
CONTINUOUS
 10
9.1553296678
 20
4.6332000513
 11
9.2045422663
 21
4.6332000513
  0
LINE
  5
25F
100
AcDbEntity
  8
0
100
AcDbLine
 62
7
  6
CONTINUOUS
 10
9.1553296678
 20
4.9481606812
 11
9.2045422663
 21
4.9481606812
  0
LINE
  5
260
100
AcDbEntity
  8
0
100
AcDbLine
 62
7
  6
CONTINUOUS
 10
9.1671406915
 20
5.0072157993
 11
9.1553296678
 21
5.0072157993
  0
LINE
  5
261
100
AcDbEntity
  8
0
100
AcDbLine
 62
7
  6
CONTINUOUS
 10
4.2616288804
 20
5.0072157993
 11
4.2734399041
 21
5.0072157993
  0
LINE
  5
262
100
AcDbEntity
  8
0
100
AcDbLine
 62
7
  6
CONTINUOUS
 10
8.6041485655
 20
1.641074067
 11
8.6041485655
 21
1.6017039883
  0
LINE
  5
263
100
AcDbEntity
  8
0
100
AcDbLine
 62
7
  6
CONTINUOUS
 10
6.8167363529
 20
1.4266055631
 11
6.8390660999
 21
1.4452079253
  0
LINE
  5
264
100
AcDbEntity
  8
0
100
AcDbLine
 62
7
  6
CONTINUOUS
 10
9.1671406915
 20
5.4402866655
 11
9.1553296678
 21
5.4402866655
  0
LINE
  5
265
100
AcDbEntity
  8
0
100
AcDbLine
 62
7
  6
CONTINUOUS
 10
4.2616288804
 20
5.4402866655
 11
4.2734399041
 21
5.4402866655
  0
LINE
  5
266
100
AcDbEntity
  8
0
100
AcDbLine
 62
7
  6
CONTINUOUS
 10
8.7616288804
 20
4.2645829673
 11
8.7616288804
 21
1.798554382
  0
LINE
  5
267
100
AcDbEntity
  8
0
100
AcDbLine
 62
7
  6
CONTINUOUS
 10
8.8009989592
 20
5.8339874529
 11
8.8009989592
 21
5.7921177632
  0
LINE
  5
268
100
AcDbEntity
  8
0
100
AcDbLine
 62
7
  6
CONTINUOUS
 10
9.0765895104
 20
5.8339874529
 11
9.0765895104
 21
5.726654106
  0
LINE
  5
269
100
AcDbEntity
  8
0
100
AcDbLine
 62
7
  6
CONTINUOUS
 10
7.3443060458
 20
1.3519518628
 11
7.4230462033
 21
1.3772945395
  0
LINE
  5
26A
100
AcDbEntity
  8
0
100
AcDbLine
 62
7
  6
CONTINUOUS
 10
9.0765895104
 20
5.8339874529
 11
8.8009989592
 21
5.8339874529
  0
LINE
  5
26B
100
AcDbEntity
  8
0
100
AcDbLine
 62
7
  6
CONTINUOUS
 10
4.6277706127
 20
5.8339874529
 11
4.3521800615
 21
5.8339874529
  0
LINE
  5
26C
100
AcDbEntity
  8
0
100
AcDbLine
 62
7
  6
CONTINUOUS
 10
9.1356446285
 20
5.7013359451
 11
9.1356446285
 21
5.7115057802
  0
LINE
  5
26D
100
AcDbEntity
  8
0
100
AcDbLine
 62
7
  6
CONTINUOUS
 10
9.1553296678
 20
5.6961921773
 11
9.1553296678
 21
1.641074067
  0
LINE
  5
26E
100
AcDbEntity
  8
0
100
AcDbLine
 62
7
  6
CONTINUOUS
 10
9.1671406915
 20
5.0072157993
 11
9.1671406915
 21
5.4402866655
  0
LINE
  5
26F
100
AcDbEntity
  8
0
100
AcDbLine
 62
7
  6
CONTINUOUS
 10
9.2537548647
 20
1.6017039883
 11
9.2537548647
 21
1.2394992639
  0
LINE
  5
270
100
AcDbEntity
  8
0
100
AcDbLine
 62
7
  6
CONTINUOUS
 10
9.2734399041
 20
4.7020976891
 11
9.2734399041
 21
4.7064332339
  0
LINE
  5
271
100
AcDbEntity
  8
0
100
AcDbLine
 62
7
  6
CONTINUOUS
 10
9.2734399041
 20
4.7136078193
 11
9.2734399041
 21
4.8677529131
  0
LINE
  5
272
100
AcDbEntity
  8
0
100
AcDbLine
 62
7
  6
CONTINUOUS
 10
9.2734399041
 20
4.8749274986
 11
9.2734399041
 21
4.8792626864
  0
LINE
  5
273
100
AcDbEntity
  8
0
100
AcDbLine
 62
7
  6
CONTINUOUS
 10
5.1395816363
 20
5.9717827285
 11
5.4348572269
 21
6.0111528072
  0
LINE
  5
274
100
AcDbEntity
  8
0
100
AcDbLine
 62
7
  6
CONTINUOUS
 10
4.1897784867
 20
8.5583429215
 11
4.1897784867
 21
8.9914137876
  0
LINE
  5
275
100
AcDbEntity
  8
0
100
AcDbLine
 62
7
  6
CONTINUOUS
 10
4.2616288804
 20
9.2866893782
 11
4.2616288804
 21
8.2236972522
  0
LINE
  5
276
100
AcDbEntity
  8
0
100
AcDbLine
 62
7
  6
CONTINUOUS
 10
4.2734399041
 20
7.9677917404
 11
4.2734399041
 21
9.54259489
  0
LINE
  5
277
100
AcDbEntity
  8
0
100
AcDbLine
 62
7
  6
CONTINUOUS
 10
4.2931249434
 20
7.9874767797
 11
4.2931249434
 21
8.2236972522
  0
LINE
  5
278
100
AcDbEntity
  8
0
100
AcDbLine
 62
7
  6
CONTINUOUS
 10
4.2931249434
 20
9.2866893782
 11
4.2931249434
 21
9.5229098506
  0
LINE
  5
279
100
AcDbEntity
  8
0
100
AcDbLine
 62
7
  6
CONTINUOUS
 10
4.3521800615
 20
8.2236972522
 11
4.3521800615
 21
9.2866893782
  0
LINE
  5
27A
100
AcDbEntity
  8
0
100
AcDbLine
 62
7
  6
CONTINUOUS
 10
4.3718651009
 20
8.2433822915
 11
4.3718651009
 21
9.2670043388
  0
LINE
  5
27B
100
AcDbEntity
  8
0
100
AcDbLine
 62
7
  6
CONTINUOUS
 10
4.6080855734
 20
9.2670043388
 11
4.6080855734
 21
8.2433822915
  0
LINE
  5
27C
100
AcDbEntity
  8
0
100
AcDbLine
 62
7
  6
CONTINUOUS
 10
4.6277706127
 20
9.2866893782
 11
4.6277706127
 21
8.2236972522
  0
LINE
  5
27D
100
AcDbEntity
  8
0
100
AcDbLine
 62
7
  6
CONTINUOUS
 10
4.5122464169
 20
9.1891615123
 11
4.4899753371
 21
9.1668904325
  0
LINE
  5
27E
100
AcDbEntity
  8
0
100
AcDbLine
 62
7
  6
CONTINUOUS
 10
4.4621364875
 20
9.1390515829
 11
4.4398654078
 21
9.1167805032
  0
LINE
  5
27F
100
AcDbEntity
  8
0
100
AcDbLine
 62
7
  6
CONTINUOUS
 10
4.4677042574
 20
9.0889416535
 11
4.4899753371
 21
9.1112127332
  0
LINE
  5
280
100
AcDbEntity
  8
0
100
AcDbLine
 62
7
  6
CONTINUOUS
 10
4.5178141868
 20
9.1390515829
 11
4.5400852665
 21
9.1613226626
  0
LINE
  5
281
100
AcDbEntity
  8
0
100
AcDbLine
 62
7
  6
CONTINUOUS
 10
4.4398654078
 20
8.3490639677
 11
4.4677042574
 21
8.3212251181
  0
LINE
  5
282
100
AcDbEntity
  8
0
100
AcDbLine
 62
7
  6
CONTINUOUS
 10
4.4149846837
 20
8.4184868512
 11
4.4621364875
 21
8.3713350475
  0
LINE
  5
283
100
AcDbEntity
  8
0
100
AcDbLine
 62
7
  6
CONTINUOUS
 10
4.4899753371
 20
8.3434961978
 11
4.5371271409
 21
8.2963443941
  0
LINE
  5
284
100
AcDbEntity
  8
0
100
AcDbLine
 62
7
  6
CONTINUOUS
 10
4.5649659905
 20
8.3241832437
 11
4.5178141868
 21
8.3713350475
  0
LINE
  5
285
100
AcDbEntity
  8
0
100
AcDbLine
 62
7
  6
CONTINUOUS
 10
4.4899753371
 20
8.3991738971
 11
4.4428235334
 21
8.4463257009
  0
LINE
  5
286
100
AcDbEntity
  8
0
100
AcDbLine
 62
7
  6
CONTINUOUS
 10
4.5400852665
 20
8.3936061272
 11
4.5122464169
 21
8.4214449768
  0
LINE
  5
287
100
AcDbEntity
  8
0
100
AcDbLine
 62
7
  6
CONTINUOUS
 10
5.1395816363
 20
8.8339334726
 11
5.1395816363
 21
9.1882641813
  0
LINE
  5
288
100
AcDbEntity
  8
0
100
AcDbLine
 62
7
  6
CONTINUOUS
 10
4.5122464169
 20
8.9332560005
 11
4.4899753371
 21
8.9109849207
  0
LINE
  5
289
100
AcDbEntity
  8
0
100
AcDbLine
 62
7
  6
CONTINUOUS
 10
4.4621364875
 20
8.8831460711
 11
4.4398654078
 21
8.8608749914
  0
LINE
  5
28A
100
AcDbEntity
  8
0
100
AcDbLine
 62
7
  6
CONTINUOUS
 10
4.4677042574
 20
8.8330361417
 11
4.4899753371
 21
8.8553072214
  0
LINE
  5
28B
100
AcDbEntity
  8
0
100
AcDbLine
 62
7
  6
CONTINUOUS
 10
4.5178141868
 20
8.8831460711
 11
4.5400852665
 21
8.9054171508
  0
LINE
  5
28C
100
AcDbEntity
  8
0
100
AcDbLine
 62
7
  6
CONTINUOUS
 10
4.4398654078
 20
8.6049694795
 11
4.4677042574
 21
8.5771306299
  0
LINE
  5
28D
100
AcDbEntity
  8
0
100
AcDbLine
 62
7
  6
CONTINUOUS
 10
4.4149846837
 20
8.674392363
 11
4.4621364875
 21
8.6272405593
  0
LINE
  5
28E
100
AcDbEntity
  8
0
100
AcDbLine
 62
7
  6
CONTINUOUS
 10
4.4899753371
 20
8.5994017096
 11
4.5371271409
 21
8.5522499059
  0
LINE
  5
28F
100
AcDbEntity
  8
0
100
AcDbLine
 62
7
  6
CONTINUOUS
 10
4.5649659905
 20
8.5800887555
 11
4.5178141868
 21
8.6272405593
  0
LINE
  5
290
100
AcDbEntity
  8
0
100
AcDbLine
 62
7
  6
CONTINUOUS
 10
4.4899753371
 20
8.6550794089
 11
4.4428235334
 21
8.7022312127
  0
LINE
  5
291
100
AcDbEntity
  8
0
100
AcDbLine
 62
7
  6
CONTINUOUS
 10
4.5400852665
 20
8.649511639
 11
4.5122464169
 21
8.6773504886
  0
LINE
  5
292
100
AcDbEntity
  8
0
100
AcDbLine
 62
7
  6
CONTINUOUS
 10
4.5122464169
 20
8.6773504886
 11
4.4899753371
 21
8.6550794089
  0
LINE
  5
293
100
AcDbEntity
  8
0
100
AcDbLine
 62
7
  6
CONTINUOUS
 10
4.4621364875
 20
8.6272405593
 11
4.4398654078
 21
8.6049694795
  0
LINE
  5
294
100
AcDbEntity
  8
0
100
AcDbLine
 62
7
  6
CONTINUOUS
 10
4.4677042574
 20
8.5771306299
 11
4.4899753371
 21
8.5994017096
  0
LINE
  5
295
100
AcDbEntity
  8
0
100
AcDbLine
 62
7
  6
CONTINUOUS
 10
4.5178141868
 20
8.6272405593
 11
4.5400852665
 21
8.649511639
  0
LINE
  5
296
100
AcDbEntity
  8
0
100
AcDbLine
 62
7
  6
CONTINUOUS
 10
4.4398654078
 20
8.8608749914
 11
4.4677042574
 21
8.8330361417
  0
LINE
  5
297
100
AcDbEntity
  8
0
100
AcDbLine
 62
7
  6
CONTINUOUS
 10
4.4149846837
 20
8.9302978748
 11
4.4621364875
 21
8.8831460711
  0
LINE
  5
298
100
AcDbEntity
  8
0
100
AcDbLine
 62
7
  6
CONTINUOUS
 10
4.4899753371
 20
8.8553072214
 11
4.5371271409
 21
8.8081554177
  0
LINE
  5
299
100
AcDbEntity
  8
0
100
AcDbLine
 62
7
  6
CONTINUOUS
 10
4.5649659905
 20
8.8359942673
 11
4.5178141868
 21
8.8831460711
  0
LINE
  5
29A
100
AcDbEntity
  8
0
100
AcDbLine
 62
7
  6
CONTINUOUS
 10
4.4899753371
 20
8.9109849207
 11
4.4428235334
 21
8.9581367245
  0
LINE
  5
29B
100
AcDbEntity
  8
0
100
AcDbLine
 62
7
  6
CONTINUOUS
 10
4.5400852665
 20
8.9054171508
 11
4.5122464169
 21
8.9332560005
  0
LINE
  5
29C
100
AcDbEntity
  8
0
100
AcDbLine
 62
7
  6
CONTINUOUS
 10
5.4348572269
 20
9.1882641813
 11
5.4348572269
 21
8.8339334726
  0
LINE
  5
29D
100
AcDbEntity
  8
0
100
AcDbLine
 62
7
  6
CONTINUOUS
 10
4.5122464169
 20
8.4214449768
 11
4.4899753371
 21
8.3991738971
  0
LINE
  5
29E
100
AcDbEntity
  8
0
100
AcDbLine
 62
7
  6
CONTINUOUS
 10
4.4621364875
 20
8.3713350475
 11
4.4398654078
 21
8.3490639677
  0
LINE
  5
29F
100
AcDbEntity
  8
0
100
AcDbLine
 62
7
  6
CONTINUOUS
 10
4.4677042574
 20
8.3212251181
 11
4.4899753371
 21
8.3434961978
  0
LINE
  5
2A0
100
AcDbEntity
  8
0
100
AcDbLine
 62
7
  6
CONTINUOUS
 10
4.5178141868
 20
8.3713350475
 11
4.5400852665
 21
8.3936061272
  0
LINE
  5
2A1
100
AcDbEntity
  8
0
100
AcDbLine
 62
7
  6
CONTINUOUS
 10
4.4398654078
 20
9.1167805032
 11
4.4677042574
 21
9.0889416535
  0
LINE
  5
2A2
100
AcDbEntity
  8
0
100
AcDbLine
 62
7
  6
CONTINUOUS
 10
4.4149846837
 20
9.1862033866
 11
4.4621364875
 21
9.1390515829
  0
LINE
  5
2A3
100
AcDbEntity
  8
0
100
AcDbLine
 62
7
  6
CONTINUOUS
 10
4.4899753371
 20
9.1112127332
 11
4.5371271409
 21
9.0640609295
  0
LINE
  5
2A4
100
AcDbEntity
  8
0
100
AcDbLine
 62
7
  6
CONTINUOUS
 10
4.5649659905
 20
9.0918997791
 11
4.5178141868
 21
9.1390515829
  0
LINE
  5
2A5
100
AcDbEntity
  8
0
100
AcDbLine
 62
7
  6
CONTINUOUS
 10
4.4899753371
 20
9.1668904325
 11
4.4428235334
 21
9.2140422363
  0
LINE
  5
2A6
100
AcDbEntity
  8
0
100
AcDbLine
 62
7
  6
CONTINUOUS
 10
4.5400852665
 20
9.1613226626
 11
4.5122464169
 21
9.1891615123
  0
LINE
  5
2A7
100
AcDbEntity
  8
0
100
AcDbLine
 62
7
  6
CONTINUOUS
 10
6.8718651009
 20
7.9579492207
 11
8.7616288804
 21
7.9579492207
  0
LINE
  5
2A8
100
AcDbEntity
  8
0
100
AcDbLine
 62
7
  6
CONTINUOUS
 10
4.2734399041
 20
7.9677917404
 11
9.1553296678
 21
7.9677917404
  0
LINE
  5
2A9
100
AcDbEntity
  8
0
100
AcDbLine
 62
7
  6
CONTINUOUS
 10
4.2931249434
 20
7.9874767797
 11
6.7035612734
 21
7.9874767797
  0
LINE
  5
2AA
100
AcDbEntity
  8
0
100
AcDbLine
 62
7
  6
CONTINUOUS
 10
6.8521800615
 20
7.9874767797
 11
9.1356446285
 21
7.9874767797
  0
LINE
  5
2AB
100
AcDbEntity
  8
0
100
AcDbLine
 62
7
  6
CONTINUOUS
 10
9.1671406915
 20
8.1843271734
 11
8.8009989592
 21
8.1843271734
  0
LINE
  5
2AC
100
AcDbEntity
  8
0
100
AcDbLine
 62
7
  6
CONTINUOUS
 10
9.056904471
 20
8.2040122128
 11
8.8206839986
 21
8.2040122128
  0
LINE
  5
2AD
100
AcDbEntity
  8
0
100
AcDbLine
 62
7
  6
CONTINUOUS
 10
4.2616288804
 20
8.2236972522
 11
4.6277706127
 21
8.2236972522
  0
LINE
  5
2AE
100
AcDbEntity
  8
0
100
AcDbLine
 62
7
  6
CONTINUOUS
 10
6.2813139198
 20
9.5229098506
 11
6.2813139198
 21
8.5386578821
  0
LINE
  5
2AF
100
AcDbEntity
  8
0
100
AcDbLine
 62
7
  6
CONTINUOUS
 10
6.3009989592
 20
8.5386578821
 11
6.3009989592
 21
9.5229098506
  0
LINE
  5
2B0
100
AcDbEntity
  8
0
100
AcDbLine
 62
7
  6
CONTINUOUS
 10
4.6080855734
 20
8.2433822915
 11
4.3718651009
 21
8.2433822915
  0
LINE
  5
2B1
100
AcDbEntity
  8
0
100
AcDbLine
 62
7
  6
CONTINUOUS
 10
4.2616288804
 20
8.5583429215
 11
4.1897784867
 21
8.5583429215
  0
LINE
  5
2B2
100
AcDbEntity
  8
0
100
AcDbLine
 62
7
  6
CONTINUOUS
 10
9.1671406915
 20
8.5583429215
 11
9.2537548647
 21
8.5583429215
  0
LINE
  5
2B3
100
AcDbEntity
  8
0
100
AcDbLine
 62
7
  6
CONTINUOUS
 10
6.8718651009
 20
7.9579492207
 11
6.8718651009
 21
7.9677917404
  0
LINE
  5
2B4
100
AcDbEntity
  8
0
100
AcDbLine
 62
7
  6
CONTINUOUS
 10
9.2045422663
 20
8.9323586695
 11
9.1671406915
 21
8.9323586695
  0
LINE
  5
2B5
100
AcDbEntity
  8
0
100
AcDbLine
 62
7
  6
CONTINUOUS
 10
4.2616288804
 20
8.9914137876
 11
4.1897784867
 21
8.9914137876
  0
LINE
  5
2B6
100
AcDbEntity
  8
0
100
AcDbLine
 62
7
  6
CONTINUOUS
 10
5.4348572269
 20
9.1882641813
 11
5.1395816363
 21
9.1882641813
  0
LINE
  5
2B7
100
AcDbEntity
  8
0
100
AcDbLine
 62
7
  6
CONTINUOUS
 10
8.8206839986
 20
9.2276342601
 11
9.056904471
 21
9.2276342601
  0
LINE
  5
2B8
100
AcDbEntity
  8
0
100
AcDbLine
 62
7
  6
CONTINUOUS
 10
8.8009989592
 20
9.2473192994
 11
9.2045422663
 21
9.2473192994
  0
LINE
  5
2B9
100
AcDbEntity
  8
0
100
AcDbLine
 62
7
  6
CONTINUOUS
 10
4.3718651009
 20
9.2670043388
 11
4.6080855734
 21
9.2670043388
  0
LINE
  5
2BA
100
AcDbEntity
  8
0
100
AcDbLine
 62
7
  6
CONTINUOUS
 10
4.2616288804
 20
9.2866893782
 11
4.6277706127
 21
9.2866893782
  0
LINE
  5
2BB
100
AcDbEntity
  8
0
100
AcDbLine
 62
7
  6
CONTINUOUS
 10
9.1356446285
 20
9.5229098506
 11
6.3009989592
 21
9.5229098506
  0
LINE
  5
2BC
100
AcDbEntity
  8
0
100
AcDbLine
 62
7
  6
CONTINUOUS
 10
6.2813139198
 20
9.5229098506
 11
4.2931249434
 21
9.5229098506
  0
LINE
  5
2BD
100
AcDbEntity
  8
0
100
AcDbLine
 62
7
  6
CONTINUOUS
 10
9.1553296678
 20
9.54259489
 11
4.2734399041
 21
9.54259489
  0
LINE
  5
2BE
100
AcDbEntity
  8
0
100
AcDbLine
 62
7
  6
CONTINUOUS
 10
8.8886843054
 20
8.3195364087
 11
8.916523155
 21
8.291697559
  0
LINE
  5
2BF
100
AcDbEntity
  8
0
100
AcDbLine
 62
7
  6
CONTINUOUS
 10
8.8638035814
 20
8.3889592921
 11
8.9109553851
 21
8.3418074884
  0
LINE
  5
2C0
100
AcDbEntity
  8
0
100
AcDbLine
 62
7
  6
CONTINUOUS
 10
8.9387942348
 20
8.3139686387
 11
8.9859460385
 21
8.266816835
  0
LINE
  5
2C1
100
AcDbEntity
  8
0
100
AcDbLine
 62
7
  6
CONTINUOUS
 10
8.9610653145
 20
9.1399489138
 11
8.9387942348
 21
9.1176778341
  0
LINE
  5
2C2
100
AcDbEntity
  8
0
100
AcDbLine
 62
7
  6
CONTINUOUS
 10
8.9109553851
 20
9.0898389845
 11
8.8886843054
 21
9.0675679047
  0
LINE
  5
2C3
100
AcDbEntity
  8
0
100
AcDbLine
 62
7
  6
CONTINUOUS
 10
8.9165231551
 20
9.0397290551
 11
8.9387942348
 21
9.0620001348
  0
LINE
  5
2C4
100
AcDbEntity
  8
0
100
AcDbLine
 62
7
  6
CONTINUOUS
 10
8.9666330844
 20
9.0898389845
 11
8.9889041641
 21
9.1121100642
  0
LINE
  5
2C5
100
AcDbEntity
  8
0
100
AcDbLine
 62
7
  6
CONTINUOUS
 10
9.0137848882
 20
8.2946556847
 11
8.9666330844
 21
8.3418074884
  0
LINE
  5
2C6
100
AcDbEntity
  8
0
100
AcDbLine
 62
7
  6
CONTINUOUS
 10
8.9387942348
 20
8.3696463381
 11
8.891642431
 21
8.4167981418
  0
LINE
  5
2C7
100
AcDbEntity
  8
0
100
AcDbLine
 62
7
  6
CONTINUOUS
 10
8.9889041641
 20
8.3640785681
 11
8.9610653145
 21
8.3919174178
  0
LINE
  5
2C8
100
AcDbEntity
  8
0
100
AcDbLine
 62
7
  6
CONTINUOUS
 10
8.9610653145
 20
8.7659331658
 11
8.9387942348
 21
8.7436620861
  0
LINE
  5
2C9
100
AcDbEntity
  8
0
100
AcDbLine
 62
7
  6
CONTINUOUS
 10
8.9109553851
 20
8.7158232364
 11
8.8886843054
 21
8.6935521567
  0
LINE
  5
2CA
100
AcDbEntity
  8
0
100
AcDbLine
 62
7
  6
CONTINUOUS
 10
8.9165231551
 20
8.6657133071
 11
8.9387942348
 21
8.6879843868
  0
LINE
  5
2CB
100
AcDbEntity
  8
0
100
AcDbLine
 62
7
  6
CONTINUOUS
 10
8.9666330844
 20
8.7158232364
 11
8.9889041641
 21
8.7380943162
  0
LINE
  5
2CC
100
AcDbEntity
  8
0
100
AcDbLine
 62
7
  6
CONTINUOUS
 10
8.8886843054
 20
8.6935521567
 11
8.9165231551
 21
8.6657133071
  0
LINE
  5
2CD
100
AcDbEntity
  8
0
100
AcDbLine
 62
7
  6
CONTINUOUS
 10
8.8638035814
 20
8.7629750402
 11
8.9109553851
 21
8.7158232364
  0
LINE
  5
2CE
100
AcDbEntity
  8
0
100
AcDbLine
 62
7
  6
CONTINUOUS
 10
8.9387942348
 20
8.6879843868
 11
8.9859460385
 21
8.640832583
  0
LINE
  5
2CF
100
AcDbEntity
  8
0
100
AcDbLine
 62
7
  6
CONTINUOUS
 10
9.0137848882
 20
8.6686714327
 11
8.9666330844
 21
8.7158232364
  0
LINE
  5
2D0
100
AcDbEntity
  8
0
100
AcDbLine
 62
7
  6
CONTINUOUS
 10
8.9387942348
 20
8.7436620861
 11
8.891642431
 21
8.7908138898
  0
LINE
  5
2D1
100
AcDbEntity
  8
0
100
AcDbLine
 62
7
  6
CONTINUOUS
 10
8.9889041641
 20
8.7380943162
 11
8.9610653145
 21
8.7659331658
  0
LINE
  5
2D2
100
AcDbEntity
  8
0
100
AcDbLine
 62
7
  6
CONTINUOUS
 10
8.8886843054
 20
9.0675679047
 11
8.9165231551
 21
9.0397290551
  0
LINE
  5
2D3
100
AcDbEntity
  8
0
100
AcDbLine
 62
7
  6
CONTINUOUS
 10
8.8638035814
 20
9.1369907882
 11
8.9109553851
 21
9.0898389845
  0
LINE
  5
2D4
100
AcDbEntity
  8
0
100
AcDbLine
 62
7
  6
CONTINUOUS
 10
8.9387942348
 20
9.0620001348
 11
8.9859460385
 21
9.0148483311
  0
LINE
  5
2D5
100
AcDbEntity
  8
0
100
AcDbLine
 62
7
  6
CONTINUOUS
 10
8.9610653145
 20
8.3919174178
 11
8.9387942348
 21
8.3696463381
  0
LINE
  5
2D6
100
AcDbEntity
  8
0
100
AcDbLine
 62
7
  6
CONTINUOUS
 10
8.9109553851
 20
8.3418074884
 11
8.8886843054
 21
8.3195364087
  0
LINE
  5
2D7
100
AcDbEntity
  8
0
100
AcDbLine
 62
7
  6
CONTINUOUS
 10
8.916523155
 20
8.291697559
 11
8.9387942348
 21
8.3139686387
  0
LINE
  5
2D8
100
AcDbEntity
  8
0
100
AcDbLine
 62
7
  6
CONTINUOUS
 10
8.9666330844
 20
8.3418074884
 11
8.9889041641
 21
8.3640785681
  0
LINE
  5
2D9
100
AcDbEntity
  8
0
100
AcDbLine
 62
7
  6
CONTINUOUS
 10
9.0137848882
 20
9.0426871807
 11
8.9666330844
 21
9.0898389845
  0
LINE
  5
2DA
100
AcDbEntity
  8
0
100
AcDbLine
 62
7
  6
CONTINUOUS
 10
8.9387942348
 20
9.1176778341
 11
8.891642431
 21
9.1648296379
  0
LINE
  5
2DB
100
AcDbEntity
  8
0
100
AcDbLine
 62
7
  6
CONTINUOUS
 10
8.9889041641
 20
9.1121100642
 11
8.9610653145
 21
9.1399489138
  0
LINE
  5
2DC
100
AcDbEntity
  8
0
100
AcDbLine
 62
7
  6
CONTINUOUS
 10
8.7616288804
 20
7.9677917404
 11
8.7616288804
 21
7.9579492207
  0
LINE
  5
2DD
100
AcDbEntity
  8
0
100
AcDbLine
 62
7
  6
CONTINUOUS
 10
8.8009989592
 20
8.1843271734
 11
8.8009989592
 21
9.2473192994
  0
LINE
  5
2DE
100
AcDbEntity
  8
0
100
AcDbLine
 62
7
  6
CONTINUOUS
 10
8.8206839986
 20
8.2040122128
 11
8.8206839986
 21
9.2276342601
  0
LINE
  5
2DF
100
AcDbEntity
  8
0
100
AcDbLine
 62
7
  6
CONTINUOUS
 10
9.056904471
 20
9.2276342601
 11
9.056904471
 21
8.2040122128
  0
LINE
  5
2E0
100
AcDbEntity
  8
0
100
AcDbLine
 62
7
  6
CONTINUOUS
 10
9.0765895104
 20
9.2473192994
 11
9.0765895104
 21
8.1843271734
  0
LINE
  5
2E1
100
AcDbEntity
  8
0
100
AcDbLine
 62
7
  6
CONTINUOUS
 10
9.1356446285
 20
9.5229098506
 11
9.1356446285
 21
9.2473192994
  0
LINE
  5
2E2
100
AcDbEntity
  8
0
100
AcDbLine
 62
7
  6
CONTINUOUS
 10
9.1356446285
 20
8.1843271734
 11
9.1356446285
 21
7.9874767797
  0
LINE
  5
2E3
100
AcDbEntity
  8
0
100
AcDbLine
 62
7
  6
CONTINUOUS
 10
9.1553296678
 20
7.9677917404
 11
9.1553296678
 21
9.54259489
  0
LINE
  5
2E4
100
AcDbEntity
  8
0
100
AcDbLine
 62
7
  6
CONTINUOUS
 10
9.1671406915
 20
8.1843271734
 11
9.1671406915
 21
9.2473192994
  0
LINE
  5
2E5
100
AcDbEntity
  8
0
100
AcDbLine
 62
7
  6
CONTINUOUS
 10
9.2537548647
 20
8.9542325305
 11
9.2537548647
 21
8.5583429215
  0
LINE
  5
2E6
100
AcDbEntity
  8
0
100
AcDbLine
 62
7
  6
CONTINUOUS
 10
9.2734399041
 20
9.0012563073
 11
9.2734399041
 21
9.007153092
  0
LINE
  5
2E7
100
AcDbEntity
  8
0
100
AcDbLine
 62
7
  6
CONTINUOUS
 10
9.2734399041
 20
9.0127664376
 11
9.2734399041
 21
9.1669115314
  0
LINE
  5
2E8
100
AcDbEntity
  8
0
100
AcDbLine
 62
7
  6
CONTINUOUS
 10
9.2734399041
 20
9.1771173015
 11
9.2734399041
 21
9.1784216616
  0
LINE
  5
2E9
100
AcDbEntity
  8
0
100
AcDbLine
 62
7
  6
CONTINUOUS
 10
1.6567822884
 20
1.2394992639
 11
1.1843413435
 21
1.2394992639
  0
LINE
  5
2EA
100
AcDbEntity
  8
0
100
AcDbLine
 62
7
  6
CONTINUOUS
 10
1.7158374065
 20
1.2394992639
 11
2.1489082726
 21
1.2394992639
  0
LINE
  5
2EB
100
AcDbEntity
  8
0
100
AcDbLine
 62
7
  6
CONTINUOUS
 10
2.2473334695
 20
1.2394992639
 11
2.7197744144
 21
1.2394992639
  0
LINE
  5
2EC
100
AcDbEntity
  8
0
100
AcDbLine
 62
7
  6
CONTINUOUS
 10
1.7552074852
 20
1.3519518628
 11
2.0701681152
 21
1.3519518628
  0
LINE
  5
2ED
100
AcDbEntity
  8
0
100
AcDbLine
 62
7
  6
CONTINUOUS
 10
1.7552074852
 20
1.3772945395
 11
2.0701681152
 21
1.3772945395
  0
LINE
  5
2EE
100
AcDbEntity
  8
0
100
AcDbLine
 62
7
  6
CONTINUOUS
 10
1.7158374065
 20
1.4137118623
 11
2.1489082726
 21
1.4137118623
  0
LINE
  5
2EF
100
AcDbEntity
  8
0
100
AcDbLine
 62
7
  6
CONTINUOUS
 10
1.6567822884
 20
1.5623339096
 11
1.1843413435
 21
1.5623339096
  0
LINE
  5
2F0
100
AcDbEntity
  8
0
100
AcDbLine
 62
7
  6
CONTINUOUS
 10
2.2473334695
 20
1.5623339096
 11
2.7197744144
 21
1.5623339096
  0
LINE
  5
2F1
100
AcDbEntity
  8
0
100
AcDbLine
 62
7
  6
CONTINUOUS
 10
2.1489082726
 20
1.6017039883
 11
1.7158374065
 21
1.6017039883
  0
LINE
  5
2F2
100
AcDbEntity
  8
0
100
AcDbLine
 62
7
  6
CONTINUOUS
 10
2.7394594537
 20
1.641074067
 11
1.1646563041
 21
1.641074067
  0
LINE
  5
2F3
100
AcDbEntity
  8
0
100
AcDbLine
 62
7
  6
CONTINUOUS
 10
2.7493019734
 20
1.798554382
 11
2.7394594537
 21
1.798554382
  0
LINE
  5
2F4
100
AcDbEntity
  8
0
100
AcDbLine
 62
7
  6
CONTINUOUS
 10
2.6567822884
 20
1.8379244607
 11
2.5150500049
 21
1.8379244607
  0
LINE
  5
2F5
100
AcDbEntity
  8
0
100
AcDbLine
 62
7
  6
CONTINUOUS
 10
2.4756799262
 20
1.8379244607
 11
2.3339476427
 21
1.8379244607
  0
LINE
  5
2F6
100
AcDbEntity
  8
0
100
AcDbLine
 62
7
  6
CONTINUOUS
 10
2.294577564
 20
1.8379244607
 11
2.1528452805
 21
1.8379244607
  0
LINE
  5
2F7
100
AcDbEntity
  8
0
100
AcDbLine
 62
7
  6
CONTINUOUS
 10
2.1134752018
 20
1.8379244607
 11
1.9717429183
 21
1.8379244607
  0
LINE
  5
2F8
100
AcDbEntity
  8
0
100
AcDbLine
 62
7
  6
CONTINUOUS
 10
1.9323728396
 20
1.8379244607
 11
1.7906405561
 21
1.8379244607
  0
LINE
  5
2F9
100
AcDbEntity
  8
0
100
AcDbLine
 62
7
  6
CONTINUOUS
 10
1.7512704774
 20
1.8379244607
 11
1.6095381939
 21
1.8379244607
  0
LINE
  5
2FA
100
AcDbEntity
  8
0
100
AcDbLine
 62
7
  6
CONTINUOUS
 10
1.5701681152
 20
1.8379244607
 11
1.4284358317
 21
1.8379244607
  0
LINE
  5
2FB
100
AcDbEntity
  8
0
100
AcDbLine
 62
7
  6
CONTINUOUS
 10
1.389065753
 20
1.8379244607
 11
1.2473334695
 21
1.8379244607
  0
LINE
  5
2FC
100
AcDbEntity
  8
0
100
AcDbLine
 62
7
  6
CONTINUOUS
 10
2.6567822884
 20
1.9796567442
 11
2.5150500049
 21
1.9796567442
  0
LINE
  5
2FD
100
AcDbEntity
  8
0
100
AcDbLine
 62
7
  6
CONTINUOUS
 10
2.4756799262
 20
1.9796567442
 11
2.3339476427
 21
1.9796567442
  0
LINE
  5
2FE
100
AcDbEntity
  8
0
100
AcDbLine
 62
7
  6
CONTINUOUS
 10
2.294577564
 20
1.9796567442
 11
2.1528452805
 21
1.9796567442
  0
LINE
  5
2FF
100
AcDbEntity
  8
0
100
AcDbLine
 62
7
  6
CONTINUOUS
 10
2.1134752018
 20
1.9796567442
 11
1.9717429183
 21
1.9796567442
  0
LINE
  5
300
100
AcDbEntity
  8
0
100
AcDbLine
 62
7
  6
CONTINUOUS
 10
1.9323728396
 20
1.9796567442
 11
1.7906405561
 21
1.9796567442
  0
LINE
  5
301
100
AcDbEntity
  8
0
100
AcDbLine
 62
7
  6
CONTINUOUS
 10
1.7512704774
 20
1.9796567442
 11
1.6095381939
 21
1.9796567442
  0
LINE
  5
302
100
AcDbEntity
  8
0
100
AcDbLine
 62
7
  6
CONTINUOUS
 10
1.5701681152
 20
1.9796567442
 11
1.4284358317
 21
1.9796567442
  0
LINE
  5
303
100
AcDbEntity
  8
0
100
AcDbLine
 62
7
  6
CONTINUOUS
 10
1.389065753
 20
1.9796567442
 11
1.2473334695
 21
1.9796567442
  0
LINE
  5
304
100
AcDbEntity
  8
0
100
AcDbLine
 62
7
  6
CONTINUOUS
 10
1.2473334695
 20
2.0190268229
 11
1.389065753
 21
2.0190268229
  0
LINE
  5
305
100
AcDbEntity
  8
0
100
AcDbLine
 62
7
  6
CONTINUOUS
 10
1.4284358317
 20
2.0190268229
 11
1.5701681152
 21
2.0190268229
  0
LINE
  5
306
100
AcDbEntity
  8
0
100
AcDbLine
 62
7
  6
CONTINUOUS
 10
1.6095381939
 20
2.0190268229
 11
1.7512704774
 21
2.0190268229
  0
LINE
  5
307
100
AcDbEntity
  8
0
100
AcDbLine
 62
7
  6
CONTINUOUS
 10
1.7906405561
 20
2.0190268229
 11
1.9323728396
 21
2.0190268229
  0
LINE
  5
308
100
AcDbEntity
  8
0
100
AcDbLine
 62
7
  6
CONTINUOUS
 10
1.9717429183
 20
2.0190268229
 11
2.1134752018
 21
2.0190268229
  0
LINE
  5
309
100
AcDbEntity
  8
0
100
AcDbLine
 62
7
  6
CONTINUOUS
 10
2.1528452805
 20
2.0190268229
 11
2.294577564
 21
2.0190268229
  0
LINE
  5
30A
100
AcDbEntity
  8
0
100
AcDbLine
 62
7
  6
CONTINUOUS
 10
2.3339476427
 20
2.0190268229
 11
2.4756799262
 21
2.0190268229
  0
LINE
  5
30B
100
AcDbEntity
  8
0
100
AcDbLine
 62
7
  6
CONTINUOUS
 10
2.5150500049
 20
2.0190268229
 11
2.6567822884
 21
2.0190268229
  0
LINE
  5
30C
100
AcDbEntity
  8
0
100
AcDbLine
 62
7
  6
CONTINUOUS
 10
1.6882783514
 20
5.391074067
 11
1.6489082726
 21
5.3517039883
  0
LINE
  5
30D
100
AcDbEntity
  8
0
100
AcDbLine
 62
7
  6
CONTINUOUS
 10
1.4599318947
 20
5.0564283977
 11
1.4993019734
 21
5.0957984765
  0
LINE
  5
30E
100
AcDbEntity
  8
0
100
AcDbLine
 62
7
  6
CONTINUOUS
 10
2.6567822884
 20
2.1607591064
 11
2.5150500049
 21
2.1607591064
  0
LINE
  5
30F
100
AcDbEntity
  8
0
100
AcDbLine
 62
7
  6
CONTINUOUS
 10
2.4756799262
 20
2.1607591064
 11
2.3339476427
 21
2.1607591064
  0
LINE
  5
310
100
AcDbEntity
  8
0
100
AcDbLine
 62
7
  6
CONTINUOUS
 10
2.294577564
 20
2.1607591064
 11
2.1528452805
 21
2.1607591064
  0
LINE
  5
311
100
AcDbEntity
  8
0
100
AcDbLine
 62
7
  6
CONTINUOUS
 10
2.1134752018
 20
2.1607591064
 11
1.9717429183
 21
2.1607591064
  0
LINE
  5
312
100
AcDbEntity
  8
0
100
AcDbLine
 62
7
  6
CONTINUOUS
 10
1.9323728396
 20
2.1607591064
 11
1.7906405561
 21
2.1607591064
  0
LINE
  5
313
100
AcDbEntity
  8
0
100
AcDbLine
 62
7
  6
CONTINUOUS
 10
1.7512704774
 20
2.1607591064
 11
1.6095381939
 21
2.1607591064
  0
LINE
  5
314
100
AcDbEntity
  8
0
100
AcDbLine
 62
7
  6
CONTINUOUS
 10
1.5701681152
 20
2.1607591064
 11
1.4284358317
 21
2.1607591064
  0
LINE
  5
315
100
AcDbEntity
  8
0
100
AcDbLine
 62
7
  6
CONTINUOUS
 10
1.389065753
 20
2.1607591064
 11
1.2473334695
 21
2.1607591064
  0
LINE
  5
316
100
AcDbEntity
  8
0
100
AcDbLine
 62
7
  6
CONTINUOUS
 10
1.2473334695
 20
2.2001291851
 11
1.389065753
 21
2.2001291851
  0
LINE
  5
317
100
AcDbEntity
  8
0
100
AcDbLine
 62
7
  6
CONTINUOUS
 10
1.4284358317
 20
2.2001291851
 11
1.5701681152
 21
2.2001291851
  0
LINE
  5
318
100
AcDbEntity
  8
0
100
AcDbLine
 62
7
  6
CONTINUOUS
 10
1.6095381939
 20
2.2001291851
 11
1.7512704774
 21
2.2001291851
  0
LINE
  5
319
100
AcDbEntity
  8
0
100
AcDbLine
 62
7
  6
CONTINUOUS
 10
1.7906405561
 20
2.2001291851
 11
1.9323728396
 21
2.2001291851
  0
LINE
  5
31A
100
AcDbEntity
  8
0
100
AcDbLine
 62
7
  6
CONTINUOUS
 10
1.9717429183
 20
2.2001291851
 11
2.1134752018
 21
2.2001291851
  0
LINE
  5
31B
100
AcDbEntity
  8
0
100
AcDbLine
 62
7
  6
CONTINUOUS
 10
2.1528452805
 20
2.2001291851
 11
2.294577564
 21
2.2001291851
  0
LINE
  5
31C
100
AcDbEntity
  8
0
100
AcDbLine
 62
7
  6
CONTINUOUS
 10
2.3339476427
 20
2.2001291851
 11
2.4756799262
 21
2.2001291851
  0
LINE
  5
31D
100
AcDbEntity
  8
0
100
AcDbLine
 62
7
  6
CONTINUOUS
 10
2.5150500049
 20
2.2001291851
 11
2.6567822884
 21
2.2001291851
  0
LINE
  5
31E
100
AcDbEntity
  8
0
100
AcDbLine
 62
7
  6
CONTINUOUS
 10
1.9402468553
 20
5.391074067
 11
1.9008767766
 21
5.3517039883
  0
LINE
  5
31F
100
AcDbEntity
  8
0
100
AcDbLine
 62
7
  6
CONTINUOUS
 10
1.7119003986
 20
5.0564283977
 11
1.7512704774
 21
5.0957984765
  0
LINE
  5
320
100
AcDbEntity
  8
0
100
AcDbLine
 62
7
  6
CONTINUOUS
 10
2.6567822884
 20
2.3418614686
 11
2.5150500049
 21
2.3418614686
  0
LINE
  5
321
100
AcDbEntity
  8
0
100
AcDbLine
 62
7
  6
CONTINUOUS
 10
2.4756799262
 20
2.3418614686
 11
2.3339476427
 21
2.3418614686
  0
LINE
  5
322
100
AcDbEntity
  8
0
100
AcDbLine
 62
7
  6
CONTINUOUS
 10
2.294577564
 20
2.3418614686
 11
2.1528452805
 21
2.3418614686
  0
LINE
  5
323
100
AcDbEntity
  8
0
100
AcDbLine
 62
7
  6
CONTINUOUS
 10
2.1134752018
 20
2.3418614686
 11
1.9717429183
 21
2.3418614686
  0
LINE
  5
324
100
AcDbEntity
  8
0
100
AcDbLine
 62
7
  6
CONTINUOUS
 10
1.9323728396
 20
2.3418614686
 11
1.7906405561
 21
2.3418614686
  0
LINE
  5
325
100
AcDbEntity
  8
0
100
AcDbLine
 62
7
  6
CONTINUOUS
 10
1.7512704774
 20
2.3418614686
 11
1.6095381939
 21
2.3418614686
  0
LINE
  5
326
100
AcDbEntity
  8
0
100
AcDbLine
 62
7
  6
CONTINUOUS
 10
1.5701681152
 20
2.3418614686
 11
1.4284358317
 21
2.3418614686
  0
LINE
  5
327
100
AcDbEntity
  8
0
100
AcDbLine
 62
7
  6
CONTINUOUS
 10
1.389065753
 20
2.3418614686
 11
1.2473334695
 21
2.3418614686
  0
LINE
  5
328
100
AcDbEntity
  8
0
100
AcDbLine
 62
7
  6
CONTINUOUS
 10
1.2473334695
 20
2.3812315473
 11
1.389065753
 21
2.3812315473
  0
LINE
  5
329
100
AcDbEntity
  8
0
100
AcDbLine
 62
7
  6
CONTINUOUS
 10
1.4284358317
 20
2.3812315473
 11
1.5701681152
 21
2.3812315473
  0
LINE
  5
32A
100
AcDbEntity
  8
0
100
AcDbLine
 62
7
  6
CONTINUOUS
 10
1.6095381939
 20
2.3812315473
 11
1.7512704774
 21
2.3812315473
  0
LINE
  5
32B
100
AcDbEntity
  8
0
100
AcDbLine
 62
7
  6
CONTINUOUS
 10
1.7906405561
 20
2.3812315473
 11
1.9323728396
 21
2.3812315473
  0
LINE
  5
32C
100
AcDbEntity
  8
0
100
AcDbLine
 62
7
  6
CONTINUOUS
 10
1.9717429183
 20
2.3812315473
 11
2.1134752018
 21
2.3812315473
  0
LINE
  5
32D
100
AcDbEntity
  8
0
100
AcDbLine
 62
7
  6
CONTINUOUS
 10
2.1528452805
 20
2.3812315473
 11
2.294577564
 21
2.3812315473
  0
LINE
  5
32E
100
AcDbEntity
  8
0
100
AcDbLine
 62
7
  6
CONTINUOUS
 10
2.3339476427
 20
2.3812315473
 11
2.4756799262
 21
2.3812315473
  0
LINE
  5
32F
100
AcDbEntity
  8
0
100
AcDbLine
 62
7
  6
CONTINUOUS
 10
2.5150500049
 20
2.3812315473
 11
2.6567822884
 21
2.3812315473
  0
LINE
  5
330
100
AcDbEntity
  8
0
100
AcDbLine
 62
7
  6
CONTINUOUS
 10
2.1922153593
 20
5.391074067
 11
2.1528452805
 21
5.3517039883
  0
LINE
  5
331
100
AcDbEntity
  8
0
100
AcDbLine
 62
7
  6
CONTINUOUS
 10
1.9638689026
 20
5.0564283977
 11
2.0032389813
 21
5.0957984765
  0
LINE
  5
332
100
AcDbEntity
  8
0
100
AcDbLine
 62
7
  6
CONTINUOUS
 10
2.6567822884
 20
2.5229638308
 11
2.5150500049
 21
2.5229638308
  0
LINE
  5
333
100
AcDbEntity
  8
0
100
AcDbLine
 62
7
  6
CONTINUOUS
 10
2.4756799262
 20
2.5229638308
 11
2.3339476427
 21
2.5229638308
  0
LINE
  5
334
100
AcDbEntity
  8
0
100
AcDbLine
 62
7
  6
CONTINUOUS
 10
2.294577564
 20
2.5229638308
 11
2.1528452805
 21
2.5229638308
  0
LINE
  5
335
100
AcDbEntity
  8
0
100
AcDbLine
 62
7
  6
CONTINUOUS
 10
2.1134752018
 20
2.5229638308
 11
1.9717429183
 21
2.5229638308
  0
LINE
  5
336
100
AcDbEntity
  8
0
100
AcDbLine
 62
7
  6
CONTINUOUS
 10
1.9323728396
 20
2.5229638308
 11
1.7906405561
 21
2.5229638308
  0
LINE
  5
337
100
AcDbEntity
  8
0
100
AcDbLine
 62
7
  6
CONTINUOUS
 10
1.7512704774
 20
2.5229638308
 11
1.6095381939
 21
2.5229638308
  0
LINE
  5
338
100
AcDbEntity
  8
0
100
AcDbLine
 62
7
  6
CONTINUOUS
 10
1.5701681152
 20
2.5229638308
 11
1.4284358317
 21
2.5229638308
  0
LINE
  5
339
100
AcDbEntity
  8
0
100
AcDbLine
 62
7
  6
CONTINUOUS
 10
1.389065753
 20
2.5229638308
 11
1.2473334695
 21
2.5229638308
  0
LINE
  5
33A
100
AcDbEntity
  8
0
100
AcDbLine
 62
7
  6
CONTINUOUS
 10
1.2473334695
 20
2.5623339096
 11
1.389065753
 21
2.5623339096
  0
LINE
  5
33B
100
AcDbEntity
  8
0
100
AcDbLine
 62
7
  6
CONTINUOUS
 10
1.4284358317
 20
2.5623339096
 11
1.5701681152
 21
2.5623339096
  0
LINE
  5
33C
100
AcDbEntity
  8
0
100
AcDbLine
 62
7
  6
CONTINUOUS
 10
1.6095381939
 20
2.5623339096
 11
1.7512704774
 21
2.5623339096
  0
LINE
  5
33D
100
AcDbEntity
  8
0
100
AcDbLine
 62
7
  6
CONTINUOUS
 10
1.7906405561
 20
2.5623339096
 11
1.9323728396
 21
2.5623339096
  0
LINE
  5
33E
100
AcDbEntity
  8
0
100
AcDbLine
 62
7
  6
CONTINUOUS
 10
1.9717429183
 20
2.5623339096
 11
2.1134752018
 21
2.5623339096
  0
LINE
  5
33F
100
AcDbEntity
  8
0
100
AcDbLine
 62
7
  6
CONTINUOUS
 10
2.1528452805
 20
2.5623339096
 11
2.294577564
 21
2.5623339096
  0
LINE
  5
340
100
AcDbEntity
  8
0
100
AcDbLine
 62
7
  6
CONTINUOUS
 10
2.3339476427
 20
2.5623339096
 11
2.4756799262
 21
2.5623339096
  0
LINE
  5
341
100
AcDbEntity
  8
0
100
AcDbLine
 62
7
  6
CONTINUOUS
 10
2.5150500049
 20
2.5623339096
 11
2.6567822884
 21
2.5623339096
  0
LINE
  5
342
100
AcDbEntity
  8
0
100
AcDbLine
 62
7
  6
CONTINUOUS
 10
2.4441838632
 20
5.391074067
 11
2.4048137844
 21
5.3517039883
  0
LINE
  5
343
100
AcDbEntity
  8
0
100
AcDbLine
 62
7
  6
CONTINUOUS
 10
2.2158374065
 20
5.0564283977
 11
2.2552074852
 21
5.0957984765
  0
LINE
  5
344
100
AcDbEntity
  8
0
100
AcDbLine
 62
7
  6
CONTINUOUS
 10
2.6567822884
 20
2.704066193
 11
2.5150500049
 21
2.704066193
  0
LINE
  5
345
100
AcDbEntity
  8
0
100
AcDbLine
 62
7
  6
CONTINUOUS
 10
2.4756799262
 20
2.704066193
 11
2.3339476427
 21
2.704066193
  0
LINE
  5
346
100
AcDbEntity
  8
0
100
AcDbLine
 62
7
  6
CONTINUOUS
 10
2.294577564
 20
2.704066193
 11
2.1528452805
 21
2.704066193
  0
LINE
  5
347
100
AcDbEntity
  8
0
100
AcDbLine
 62
7
  6
CONTINUOUS
 10
2.1134752018
 20
2.704066193
 11
1.9717429183
 21
2.704066193
  0
LINE
  5
348
100
AcDbEntity
  8
0
100
AcDbLine
 62
7
  6
CONTINUOUS
 10
1.9323728396
 20
2.704066193
 11
1.7906405561
 21
2.704066193
  0
LINE
  5
349
100
AcDbEntity
  8
0
100
AcDbLine
 62
7
  6
CONTINUOUS
 10
1.7512704774
 20
2.704066193
 11
1.6095381939
 21
2.704066193
  0
LINE
  5
34A
100
AcDbEntity
  8
0
100
AcDbLine
 62
7
  6
CONTINUOUS
 10
1.5701681152
 20
2.704066193
 11
1.4284358317
 21
2.704066193
  0
LINE
  5
34B
100
AcDbEntity
  8
0
100
AcDbLine
 62
7
  6
CONTINUOUS
 10
1.389065753
 20
2.704066193
 11
1.2473334695
 21
2.704066193
  0
LINE
  5
34C
100
AcDbEntity
  8
0
100
AcDbLine
 62
7
  6
CONTINUOUS
 10
1.2473334695
 20
2.7434362718
 11
1.389065753
 21
2.7434362718
  0
LINE
  5
34D
100
AcDbEntity
  8
0
100
AcDbLine
 62
7
  6
CONTINUOUS
 10
1.4284358317
 20
2.7434362718
 11
1.5701681152
 21
2.7434362718
  0
LINE
  5
34E
100
AcDbEntity
  8
0
100
AcDbLine
 62
7
  6
CONTINUOUS
 10
1.6095381939
 20
2.7434362718
 11
1.7512704774
 21
2.7434362718
  0
LINE
  5
34F
100
AcDbEntity
  8
0
100
AcDbLine
 62
7
  6
CONTINUOUS
 10
1.7906405561
 20
2.7434362718
 11
1.9323728396
 21
2.7434362718
  0
LINE
  5
350
100
AcDbEntity
  8
0
100
AcDbLine
 62
7
  6
CONTINUOUS
 10
1.9717429183
 20
2.7434362718
 11
2.1134752018
 21
2.7434362718
  0
LINE
  5
351
100
AcDbEntity
  8
0
100
AcDbLine
 62
7
  6
CONTINUOUS
 10
2.1528452805
 20
2.7434362718
 11
2.294577564
 21
2.7434362718
  0
LINE
  5
352
100
AcDbEntity
  8
0
100
AcDbLine
 62
7
  6
CONTINUOUS
 10
2.3339476427
 20
2.7434362718
 11
2.4756799262
 21
2.7434362718
  0
LINE
  5
353
100
AcDbEntity
  8
0
100
AcDbLine
 62
7
  6
CONTINUOUS
 10
2.5150500049
 20
2.7434362718
 11
2.6567822884
 21
2.7434362718
  0
LINE
  5
354
100
AcDbEntity
  8
0
100
AcDbLine
 62
7
  6
CONTINUOUS
 10
1.1646563041
 20
1.641074067
 11
1.1646563041
 21
6.0111459707
  0
LINE
  5
355
100
AcDbEntity
  8
0
100
AcDbLine
 62
7
  6
CONTINUOUS
 10
1.1843413435
 20
1.641074067
 11
1.1843413435
 21
1.2394992639
  0
LINE
  5
356
100
AcDbEntity
  8
0
100
AcDbLine
 62
7
  6
CONTINUOUS
 10
1.1843413435
 20
5.7013359451
 11
1.1843413435
 21
6.0209900107
  0
LINE
  5
357
100
AcDbEntity
  8
0
100
AcDbLine
 62
7
  6
CONTINUOUS
 10
1.2473334695
 20
1.8379244607
 11
1.2473334695
 21
1.9796567442
  0
LINE
  5
358
100
AcDbEntity
  8
0
100
AcDbLine
 62
7
  6
CONTINUOUS
 10
1.2473334695
 20
2.0190268229
 11
1.2473334695
 21
2.1607591064
  0
LINE
  5
359
100
AcDbEntity
  8
0
100
AcDbLine
 62
7
  6
CONTINUOUS
 10
1.2473334695
 20
2.2001291851
 11
1.2473334695
 21
2.3418614686
  0
LINE
  5
35A
100
AcDbEntity
  8
0
100
AcDbLine
 62
7
  6
CONTINUOUS
 10
1.2473334695
 20
2.3812315473
 11
1.2473334695
 21
2.5229638308
  0
LINE
  5
35B
100
AcDbEntity
  8
0
100
AcDbLine
 62
7
  6
CONTINUOUS
 10
1.2473334695
 20
2.5623339096
 11
1.2473334695
 21
2.704066193
  0
LINE
  5
35C
100
AcDbEntity
  8
0
100
AcDbLine
 62
7
  6
CONTINUOUS
 10
1.2473334695
 20
2.7434362718
 11
1.2473334695
 21
2.8851685552
  0
LINE
  5
35D
100
AcDbEntity
  8
0
100
AcDbLine
 62
7
  6
CONTINUOUS
 10
1.2473334695
 20
2.924538634
 11
1.2473334695
 21
3.0662709174
  0
LINE
  5
35E
100
AcDbEntity
  8
0
100
AcDbLine
 62
7
  6
CONTINUOUS
 10
1.2473334695
 20
3.1056409962
 11
1.2473334695
 21
3.2473732796
  0
LINE
  5
35F
100
AcDbEntity
  8
0
100
AcDbLine
 62
7
  6
CONTINUOUS
 10
1.2473334695
 20
3.2867433584
 11
1.2473334695
 21
3.4284756418
  0
LINE
  5
360
100
AcDbEntity
  8
0
100
AcDbLine
 62
7
  6
CONTINUOUS
 10
1.2473334695
 20
3.4678457206
 11
1.2473334695
 21
3.609578004
  0
LINE
  5
361
100
AcDbEntity
  8
0
100
AcDbLine
 62
7
  6
CONTINUOUS
 10
1.2473334695
 20
3.6489480828
 11
1.2473334695
 21
3.7906803662
  0
LINE
  5
362
100
AcDbEntity
  8
0
100
AcDbLine
 62
7
  6
CONTINUOUS
 10
1.2473334695
 20
3.830050445
 11
1.2473334695
 21
3.9717827285
  0
LINE
  5
363
100
AcDbEntity
  8
0
100
AcDbLine
 62
7
  6
CONTINUOUS
 10
1.2473334695
 20
4.0111528072
 11
1.2473334695
 21
4.1528850907
  0
LINE
  5
364
100
AcDbEntity
  8
0
100
AcDbLine
 62
7
  6
CONTINUOUS
 10
1.2473334695
 20
4.1922551694
 11
1.2473334695
 21
4.3339874529
  0
LINE
  5
365
100
AcDbEntity
  8
0
100
AcDbLine
 62
7
  6
CONTINUOUS
 10
1.2473334695
 20
4.3733575316
 11
1.2473334695
 21
4.5150898151
  0
LINE
  5
366
100
AcDbEntity
  8
0
100
AcDbLine
 62
7
  6
CONTINUOUS
 10
1.2473334695
 20
4.5544598938
 11
1.2473334695
 21
4.6961921773
  0
LINE
  5
367
100
AcDbEntity
  8
0
100
AcDbLine
 62
7
  6
CONTINUOUS
 10
1.2473334695
 20
4.735562256
 11
1.2473334695
 21
4.8694205237
  0
LINE
  5
368
100
AcDbEntity
  8
0
100
AcDbLine
 62
7
  6
CONTINUOUS
 10
1.2473334695
 20
4.9087906025
 11
1.2473334695
 21
5.0505228859
  0
LINE
  5
369
100
AcDbEntity
  8
0
100
AcDbLine
 62
7
  6
CONTINUOUS
 10
1.2473334695
 20
5.0898929647
 11
1.2473334695
 21
5.2316252481
  0
LINE
  5
36A
100
AcDbEntity
  8
0
100
AcDbLine
 62
7
  6
CONTINUOUS
 10
1.2473334695
 20
5.2709953269
 11
1.2473334695
 21
5.4127276103
  0
LINE
  5
36B
100
AcDbEntity
  8
0
100
AcDbLine
 62
7
  6
CONTINUOUS
 10
2.6567822884
 20
2.8851685552
 11
2.5150500049
 21
2.8851685552
  0
LINE
  5
36C
100
AcDbEntity
  8
0
100
AcDbLine
 62
7
  6
CONTINUOUS
 10
2.4756799262
 20
2.8851685552
 11
2.3339476427
 21
2.8851685552
  0
LINE
  5
36D
100
AcDbEntity
  8
0
100
AcDbLine
 62
7
  6
CONTINUOUS
 10
2.294577564
 20
2.8851685552
 11
2.1528452805
 21
2.8851685552
  0
LINE
  5
36E
100
AcDbEntity
  8
0
100
AcDbLine
 62
7
  6
CONTINUOUS
 10
2.1134752018
 20
2.8851685552
 11
1.9717429183
 21
2.8851685552
  0
LINE
  5
36F
100
AcDbEntity
  8
0
100
AcDbLine
 62
7
  6
CONTINUOUS
 10
1.9323728396
 20
2.8851685552
 11
1.7906405561
 21
2.8851685552
  0
LINE
  5
370
100
AcDbEntity
  8
0
100
AcDbLine
 62
7
  6
CONTINUOUS
 10
1.7512704774
 20
2.8851685552
 11
1.6095381939
 21
2.8851685552
  0
LINE
  5
371
100
AcDbEntity
  8
0
100
AcDbLine
 62
7
  6
CONTINUOUS
 10
1.5701681152
 20
2.8851685552
 11
1.4284358317
 21
2.8851685552
  0
LINE
  5
372
100
AcDbEntity
  8
0
100
AcDbLine
 62
7
  6
CONTINUOUS
 10
1.389065753
 20
2.8851685552
 11
1.2473334695
 21
2.8851685552
  0
LINE
  5
373
100
AcDbEntity
  8
0
100
AcDbLine
 62
7
  6
CONTINUOUS
 10
1.2473334695
 20
2.924538634
 11
1.389065753
 21
2.924538634
  0
LINE
  5
374
100
AcDbEntity
  8
0
100
AcDbLine
 62
7
  6
CONTINUOUS
 10
1.4284358317
 20
2.924538634
 11
1.5701681152
 21
2.924538634
  0
LINE
  5
375
100
AcDbEntity
  8
0
100
AcDbLine
 62
7
  6
CONTINUOUS
 10
1.6095381939
 20
2.924538634
 11
1.7512704774
 21
2.924538634
  0
LINE
  5
376
100
AcDbEntity
  8
0
100
AcDbLine
 62
7
  6
CONTINUOUS
 10
1.7906405561
 20
2.924538634
 11
1.9323728396
 21
2.924538634
  0
LINE
  5
377
100
AcDbEntity
  8
0
100
AcDbLine
 62
7
  6
CONTINUOUS
 10
1.9717429183
 20
2.924538634
 11
2.1134752018
 21
2.924538634
  0
LINE
  5
378
100
AcDbEntity
  8
0
100
AcDbLine
 62
7
  6
CONTINUOUS
 10
2.1528452805
 20
2.924538634
 11
2.294577564
 21
2.924538634
  0
LINE
  5
379
100
AcDbEntity
  8
0
100
AcDbLine
 62
7
  6
CONTINUOUS
 10
2.3339476427
 20
2.924538634
 11
2.4756799262
 21
2.924538634
  0
LINE
  5
37A
100
AcDbEntity
  8
0
100
AcDbLine
 62
7
  6
CONTINUOUS
 10
2.5150500049
 20
2.924538634
 11
2.6567822884
 21
2.924538634
  0
LINE
  5
37B
100
AcDbEntity
  8
0
100
AcDbLine
 62
7
  6
CONTINUOUS
 10
1.389065753
 20
5.4127276103
 11
1.389065753
 21
5.2709953269
  0
LINE
  5
37C
100
AcDbEntity
  8
0
100
AcDbLine
 62
7
  6
CONTINUOUS
 10
1.389065753
 20
5.2316252481
 11
1.389065753
 21
5.0898929647
  0
LINE
  5
37D
100
AcDbEntity
  8
0
100
AcDbLine
 62
7
  6
CONTINUOUS
 10
1.389065753
 20
5.0505228859
 11
1.389065753
 21
4.9087906025
  0
LINE
  5
37E
100
AcDbEntity
  8
0
100
AcDbLine
 62
7
  6
CONTINUOUS
 10
1.389065753
 20
1.8379244607
 11
1.389065753
 21
1.9796567442
  0
LINE
  5
37F
100
AcDbEntity
  8
0
100
AcDbLine
 62
7
  6
CONTINUOUS
 10
1.389065753
 20
2.0190268229
 11
1.389065753
 21
2.1607591064
  0
LINE
  5
380
100
AcDbEntity
  8
0
100
AcDbLine
 62
7
  6
CONTINUOUS
 10
1.389065753
 20
2.2001291851
 11
1.389065753
 21
2.3418614686
  0
LINE
  5
381
100
AcDbEntity
  8
0
100
AcDbLine
 62
7
  6
CONTINUOUS
 10
1.389065753
 20
2.3812315473
 11
1.389065753
 21
2.5229638308
  0
LINE
  5
382
100
AcDbEntity
  8
0
100
AcDbLine
 62
7
  6
CONTINUOUS
 10
1.389065753
 20
2.5623339096
 11
1.389065753
 21
2.704066193
  0
LINE
  5
383
100
AcDbEntity
  8
0
100
AcDbLine
 62
7
  6
CONTINUOUS
 10
1.389065753
 20
2.7434362718
 11
1.389065753
 21
2.8851685552
  0
LINE
  5
384
100
AcDbEntity
  8
0
100
AcDbLine
 62
7
  6
CONTINUOUS
 10
1.389065753
 20
2.924538634
 11
1.389065753
 21
3.0662709174
  0
LINE
  5
385
100
AcDbEntity
  8
0
100
AcDbLine
 62
7
  6
CONTINUOUS
 10
1.389065753
 20
3.1056409962
 11
1.389065753
 21
3.2473732796
  0
LINE
  5
386
100
AcDbEntity
  8
0
100
AcDbLine
 62
7
  6
CONTINUOUS
 10
1.389065753
 20
3.2867433584
 11
1.389065753
 21
3.4284756418
  0
LINE
  5
387
100
AcDbEntity
  8
0
100
AcDbLine
 62
7
  6
CONTINUOUS
 10
1.389065753
 20
3.4678457206
 11
1.389065753
 21
3.609578004
  0
LINE
  5
388
100
AcDbEntity
  8
0
100
AcDbLine
 62
7
  6
CONTINUOUS
 10
1.389065753
 20
3.6489480828
 11
1.389065753
 21
3.7906803662
  0
LINE
  5
389
100
AcDbEntity
  8
0
100
AcDbLine
 62
7
  6
CONTINUOUS
 10
1.389065753
 20
3.830050445
 11
1.389065753
 21
3.9717827285
  0
LINE
  5
38A
100
AcDbEntity
  8
0
100
AcDbLine
 62
7
  6
CONTINUOUS
 10
1.389065753
 20
4.0111528072
 11
1.389065753
 21
4.1528850907
  0
LINE
  5
38B
100
AcDbEntity
  8
0
100
AcDbLine
 62
7
  6
CONTINUOUS
 10
1.389065753
 20
4.1922551694
 11
1.389065753
 21
4.3339874529
  0
LINE
  5
38C
100
AcDbEntity
  8
0
100
AcDbLine
 62
7
  6
CONTINUOUS
 10
1.389065753
 20
4.3733575316
 11
1.389065753
 21
4.5150898151
  0
LINE
  5
38D
100
AcDbEntity
  8
0
100
AcDbLine
 62
7
  6
CONTINUOUS
 10
1.389065753
 20
4.5544598938
 11
1.389065753
 21
4.6961921773
  0
LINE
  5
38E
100
AcDbEntity
  8
0
100
AcDbLine
 62
7
  6
CONTINUOUS
 10
1.389065753
 20
4.735562256
 11
1.389065753
 21
4.8694205237
  0
LINE
  5
38F
100
AcDbEntity
  8
0
100
AcDbLine
 62
7
  6
CONTINUOUS
 10
1.4205618159
 20
5.0072157993
 11
1.4205618159
 21
5.8339874529
  0
LINE
  5
390
100
AcDbEntity
  8
0
100
AcDbLine
 62
7
  6
CONTINUOUS
 10
1.4284358317
 20
4.8694205237
 11
1.4284358317
 21
4.735562256
  0
LINE
  5
391
100
AcDbEntity
  8
0
100
AcDbLine
 62
7
  6
CONTINUOUS
 10
1.4284358317
 20
4.6961921773
 11
1.4284358317
 21
4.5544598938
  0
LINE
  5
392
100
AcDbEntity
  8
0
100
AcDbLine
 62
7
  6
CONTINUOUS
 10
1.4284358317
 20
4.5150898151
 11
1.4284358317
 21
4.3733575316
  0
LINE
  5
393
100
AcDbEntity
  8
0
100
AcDbLine
 62
7
  6
CONTINUOUS
 10
1.4284358317
 20
4.3339874529
 11
1.4284358317
 21
4.1922551694
  0
LINE
  5
394
100
AcDbEntity
  8
0
100
AcDbLine
 62
7
  6
CONTINUOUS
 10
1.4284358317
 20
4.1528850907
 11
1.4284358317
 21
4.0111528072
  0
LINE
  5
395
100
AcDbEntity
  8
0
100
AcDbLine
 62
7
  6
CONTINUOUS
 10
1.4284358317
 20
3.9717827285
 11
1.4284358317
 21
3.830050445
  0
LINE
  5
396
100
AcDbEntity
  8
0
100
AcDbLine
 62
7
  6
CONTINUOUS
 10
1.4284358317
 20
3.7906803662
 11
1.4284358317
 21
3.6489480828
  0
LINE
  5
397
100
AcDbEntity
  8
0
100
AcDbLine
 62
7
  6
CONTINUOUS
 10
1.4284358317
 20
3.609578004
 11
1.4284358317
 21
3.4678457206
  0
LINE
  5
398
100
AcDbEntity
  8
0
100
AcDbLine
 62
7
  6
CONTINUOUS
 10
1.4284358317
 20
3.4284756418
 11
1.4284358317
 21
3.2867433584
  0
LINE
  5
399
100
AcDbEntity
  8
0
100
AcDbLine
 62
7
  6
CONTINUOUS
 10
1.4284358317
 20
3.2473732796
 11
1.4284358317
 21
3.1056409962
  0
LINE
  5
39A
100
AcDbEntity
  8
0
100
AcDbLine
 62
7
  6
CONTINUOUS
 10
1.4284358317
 20
3.0662709174
 11
1.4284358317
 21
2.924538634
  0
LINE
  5
39B
100
AcDbEntity
  8
0
100
AcDbLine
 62
7
  6
CONTINUOUS
 10
1.4284358317
 20
2.8851685552
 11
1.4284358317
 21
2.7434362718
  0
LINE
  5
39C
100
AcDbEntity
  8
0
100
AcDbLine
 62
7
  6
CONTINUOUS
 10
1.4284358317
 20
2.704066193
 11
1.4284358317
 21
2.5623339096
  0
LINE
  5
39D
100
AcDbEntity
  8
0
100
AcDbLine
 62
7
  6
CONTINUOUS
 10
1.4284358317
 20
2.5229638308
 11
1.4284358317
 21
2.3812315473
  0
LINE
  5
39E
100
AcDbEntity
  8
0
100
AcDbLine
 62
7
  6
CONTINUOUS
 10
1.4284358317
 20
2.3418614686
 11
1.4284358317
 21
2.2001291851
  0
LINE
  5
39F
100
AcDbEntity
  8
0
100
AcDbLine
 62
7
  6
CONTINUOUS
 10
1.4284358317
 20
2.1607591064
 11
1.4284358317
 21
2.0190268229
  0
LINE
  5
3A0
100
AcDbEntity
  8
0
100
AcDbLine
 62
7
  6
CONTINUOUS
 10
1.4284358317
 20
1.9796567442
 11
1.4284358317
 21
1.8379244607
  0
LINE
  5
3A1
100
AcDbEntity
  8
0
100
AcDbLine
 62
7
  6
CONTINUOUS
 10
1.4599318947
 20
5.0564283977
 11
1.4599318947
 21
5.391074067
  0
LINE
  5
3A2
100
AcDbEntity
  8
0
100
AcDbLine
 62
7
  6
CONTINUOUS
 10
2.6567822884
 20
3.0662709174
 11
2.5150500049
 21
3.0662709174
  0
LINE
  5
3A3
100
AcDbEntity
  8
0
100
AcDbLine
 62
7
  6
CONTINUOUS
 10
2.4756799262
 20
3.0662709174
 11
2.3339476427
 21
3.0662709174
  0
LINE
  5
3A4
100
AcDbEntity
  8
0
100
AcDbLine
 62
7
  6
CONTINUOUS
 10
2.294577564
 20
3.0662709174
 11
2.1528452805
 21
3.0662709174
  0
LINE
  5
3A5
100
AcDbEntity
  8
0
100
AcDbLine
 62
7
  6
CONTINUOUS
 10
2.1134752018
 20
3.0662709174
 11
1.9717429183
 21
3.0662709174
  0
LINE
  5
3A6
100
AcDbEntity
  8
0
100
AcDbLine
 62
7
  6
CONTINUOUS
 10
1.9323728396
 20
3.0662709174
 11
1.7906405561
 21
3.0662709174
  0
LINE
  5
3A7
100
AcDbEntity
  8
0
100
AcDbLine
 62
7
  6
CONTINUOUS
 10
1.7512704774
 20
3.0662709174
 11
1.6095381939
 21
3.0662709174
  0
LINE
  5
3A8
100
AcDbEntity
  8
0
100
AcDbLine
 62
7
  6
CONTINUOUS
 10
1.5701681152
 20
3.0662709174
 11
1.4284358317
 21
3.0662709174
  0
LINE
  5
3A9
100
AcDbEntity
  8
0
100
AcDbLine
 62
7
  6
CONTINUOUS
 10
1.389065753
 20
3.0662709174
 11
1.2473334695
 21
3.0662709174
  0
LINE
  5
3AA
100
AcDbEntity
  8
0
100
AcDbLine
 62
7
  6
CONTINUOUS
 10
1.2473334695
 20
3.1056409962
 11
1.389065753
 21
3.1056409962
  0
LINE
  5
3AB
100
AcDbEntity
  8
0
100
AcDbLine
 62
7
  6
CONTINUOUS
 10
1.4284358317
 20
3.1056409962
 11
1.5701681152
 21
3.1056409962
  0
LINE
  5
3AC
100
AcDbEntity
  8
0
100
AcDbLine
 62
7
  6
CONTINUOUS
 10
1.6095381939
 20
3.1056409962
 11
1.7512704774
 21
3.1056409962
  0
LINE
  5
3AD
100
AcDbEntity
  8
0
100
AcDbLine
 62
7
  6
CONTINUOUS
 10
1.7906405561
 20
3.1056409962
 11
1.9323728396
 21
3.1056409962
  0
LINE
  5
3AE
100
AcDbEntity
  8
0
100
AcDbLine
 62
7
  6
CONTINUOUS
 10
1.9717429183
 20
3.1056409962
 11
2.1134752018
 21
3.1056409962
  0
LINE
  5
3AF
100
AcDbEntity
  8
0
100
AcDbLine
 62
7
  6
CONTINUOUS
 10
2.1528452805
 20
3.1056409962
 11
2.294577564
 21
3.1056409962
  0
LINE
  5
3B0
100
AcDbEntity
  8
0
100
AcDbLine
 62
7
  6
CONTINUOUS
 10
2.3339476427
 20
3.1056409962
 11
2.4756799262
 21
3.1056409962
  0
LINE
  5
3B1
100
AcDbEntity
  8
0
100
AcDbLine
 62
7
  6
CONTINUOUS
 10
2.5150500049
 20
3.1056409962
 11
2.6567822884
 21
3.1056409962
  0
LINE
  5
3B2
100
AcDbEntity
  8
0
100
AcDbLine
 62
7
  6
CONTINUOUS
 10
1.4993019734
 20
5.0957984765
 11
1.4993019734
 21
5.3517039883
  0
LINE
  5
3B3
100
AcDbEntity
  8
0
100
AcDbLine
 62
7
  6
CONTINUOUS
 10
1.5189870128
 20
5.8913033966
 11
1.5189870128
 21
6.0111528072
  0
LINE
  5
3B4
100
AcDbEntity
  8
0
100
AcDbLine
 62
7
  6
CONTINUOUS
 10
1.5701681152
 20
1.8379244607
 11
1.5701681152
 21
1.9796567442
  0
LINE
  5
3B5
100
AcDbEntity
  8
0
100
AcDbLine
 62
7
  6
CONTINUOUS
 10
1.5701681152
 20
2.0190268229
 11
1.5701681152
 21
2.1607591064
  0
LINE
  5
3B6
100
AcDbEntity
  8
0
100
AcDbLine
 62
7
  6
CONTINUOUS
 10
1.5701681152
 20
2.2001291851
 11
1.5701681152
 21
2.3418614686
  0
LINE
  5
3B7
100
AcDbEntity
  8
0
100
AcDbLine
 62
7
  6
CONTINUOUS
 10
1.5701681152
 20
2.3812315473
 11
1.5701681152
 21
2.5229638308
  0
LINE
  5
3B8
100
AcDbEntity
  8
0
100
AcDbLine
 62
7
  6
CONTINUOUS
 10
1.5701681152
 20
2.5623339096
 11
1.5701681152
 21
2.704066193
  0
LINE
  5
3B9
100
AcDbEntity
  8
0
100
AcDbLine
 62
7
  6
CONTINUOUS
 10
1.5701681152
 20
2.7434362718
 11
1.5701681152
 21
2.8851685552
  0
LINE
  5
3BA
100
AcDbEntity
  8
0
100
AcDbLine
 62
7
  6
CONTINUOUS
 10
1.5701681152
 20
2.924538634
 11
1.5701681152
 21
3.0662709174
  0
LINE
  5
3BB
100
AcDbEntity
  8
0
100
AcDbLine
 62
7
  6
CONTINUOUS
 10
1.5701681152
 20
3.1056409962
 11
1.5701681152
 21
3.2473732796
  0
LINE
  5
3BC
100
AcDbEntity
  8
0
100
AcDbLine
 62
7
  6
CONTINUOUS
 10
1.5701681152
 20
3.2867433584
 11
1.5701681152
 21
3.4284756418
  0
LINE
  5
3BD
100
AcDbEntity
  8
0
100
AcDbLine
 62
7
  6
CONTINUOUS
 10
1.5701681152
 20
3.4678457206
 11
1.5701681152
 21
3.609578004
  0
LINE
  5
3BE
100
AcDbEntity
  8
0
100
AcDbLine
 62
7
  6
CONTINUOUS
 10
1.5701681152
 20
3.6489480828
 11
1.5701681152
 21
3.7906803662
  0
LINE
  5
3BF
100
AcDbEntity
  8
0
100
AcDbLine
 62
7
  6
CONTINUOUS
 10
1.5701681152
 20
3.830050445
 11
1.5701681152
 21
3.9717827285
  0
LINE
  5
3C0
100
AcDbEntity
  8
0
100
AcDbLine
 62
7
  6
CONTINUOUS
 10
1.5701681152
 20
4.0111528072
 11
1.5701681152
 21
4.1528850907
  0
LINE
  5
3C1
100
AcDbEntity
  8
0
100
AcDbLine
 62
7
  6
CONTINUOUS
 10
1.5701681152
 20
4.1922551694
 11
1.5701681152
 21
4.3339874529
  0
LINE
  5
3C2
100
AcDbEntity
  8
0
100
AcDbLine
 62
7
  6
CONTINUOUS
 10
1.5701681152
 20
4.3733575316
 11
1.5701681152
 21
4.5150898151
  0
LINE
  5
3C3
100
AcDbEntity
  8
0
100
AcDbLine
 62
7
  6
CONTINUOUS
 10
1.5701681152
 20
4.5544598938
 11
1.5701681152
 21
4.6961921773
  0
LINE
  5
3C4
100
AcDbEntity
  8
0
100
AcDbLine
 62
7
  6
CONTINUOUS
 10
1.5701681152
 20
4.735562256
 11
1.5701681152
 21
4.8694205237
  0
LINE
  5
3C5
100
AcDbEntity
  8
0
100
AcDbLine
 62
7
  6
CONTINUOUS
 10
1.6095381939
 20
4.8694205237
 11
1.6095381939
 21
4.735562256
  0
LINE
  5
3C6
100
AcDbEntity
  8
0
100
AcDbLine
 62
7
  6
CONTINUOUS
 10
1.6095381939
 20
4.6961921773
 11
1.6095381939
 21
4.5544598938
  0
LINE
  5
3C7
100
AcDbEntity
  8
0
100
AcDbLine
 62
7
  6
CONTINUOUS
 10
1.6095381939
 20
4.5150898151
 11
1.6095381939
 21
4.3733575316
  0
LINE
  5
3C8
100
AcDbEntity
  8
0
100
AcDbLine
 62
7
  6
CONTINUOUS
 10
1.6095381939
 20
4.3339874529
 11
1.6095381939
 21
4.1922551694
  0
LINE
  5
3C9
100
AcDbEntity
  8
0
100
AcDbLine
 62
7
  6
CONTINUOUS
 10
1.6095381939
 20
4.1528850907
 11
1.6095381939
 21
4.0111528072
  0
LINE
  5
3CA
100
AcDbEntity
  8
0
100
AcDbLine
 62
7
  6
CONTINUOUS
 10
1.6095381939
 20
3.9717827285
 11
1.6095381939
 21
3.830050445
  0
LINE
  5
3CB
100
AcDbEntity
  8
0
100
AcDbLine
 62
7
  6
CONTINUOUS
 10
1.6095381939
 20
3.7906803662
 11
1.6095381939
 21
3.6489480828
  0
LINE
  5
3CC
100
AcDbEntity
  8
0
100
AcDbLine
 62
7
  6
CONTINUOUS
 10
1.6095381939
 20
3.609578004
 11
1.6095381939
 21
3.4678457206
  0
LINE
  5
3CD
100
AcDbEntity
  8
0
100
AcDbLine
 62
7
  6
CONTINUOUS
 10
1.6095381939
 20
3.4284756418
 11
1.6095381939
 21
3.2867433584
  0
LINE
  5
3CE
100
AcDbEntity
  8
0
100
AcDbLine
 62
7
  6
CONTINUOUS
 10
1.6095381939
 20
3.2473732796
 11
1.6095381939
 21
3.1056409962
  0
LINE
  5
3CF
100
AcDbEntity
  8
0
100
AcDbLine
 62
7
  6
CONTINUOUS
 10
1.6095381939
 20
3.0662709174
 11
1.6095381939
 21
2.924538634
  0
LINE
  5
3D0
100
AcDbEntity
  8
0
100
AcDbLine
 62
7
  6
CONTINUOUS
 10
1.6095381939
 20
2.8851685552
 11
1.6095381939
 21
2.7434362718
  0
LINE
  5
3D1
100
AcDbEntity
  8
0
100
AcDbLine
 62
7
  6
CONTINUOUS
 10
1.6095381939
 20
2.704066193
 11
1.6095381939
 21
2.5623339096
  0
LINE
  5
3D2
100
AcDbEntity
  8
0
100
AcDbLine
 62
7
  6
CONTINUOUS
 10
1.6095381939
 20
2.5229638308
 11
1.6095381939
 21
2.3812315473
  0
LINE
  5
3D3
100
AcDbEntity
  8
0
100
AcDbLine
 62
7
  6
CONTINUOUS
 10
1.6095381939
 20
2.3418614686
 11
1.6095381939
 21
2.2001291851
  0
LINE
  5
3D4
100
AcDbEntity
  8
0
100
AcDbLine
 62
7
  6
CONTINUOUS
 10
1.6095381939
 20
2.1607591064
 11
1.6095381939
 21
2.0190268229
  0
LINE
  5
3D5
100
AcDbEntity
  8
0
100
AcDbLine
 62
7
  6
CONTINUOUS
 10
1.6095381939
 20
1.9796567442
 11
1.6095381939
 21
1.8379244607
  0
LINE
  5
3D6
100
AcDbEntity
  8
0
100
AcDbLine
 62
7
  6
CONTINUOUS
 10
2.6567822884
 20
3.2473732796
 11
2.5150500049
 21
3.2473732796
  0
LINE
  5
3D7
100
AcDbEntity
  8
0
100
AcDbLine
 62
7
  6
CONTINUOUS
 10
2.4756799262
 20
3.2473732796
 11
2.3339476427
 21
3.2473732796
  0
LINE
  5
3D8
100
AcDbEntity
  8
0
100
AcDbLine
 62
7
  6
CONTINUOUS
 10
2.294577564
 20
3.2473732796
 11
2.1528452805
 21
3.2473732796
  0
LINE
  5
3D9
100
AcDbEntity
  8
0
100
AcDbLine
 62
7
  6
CONTINUOUS
 10
2.1134752018
 20
3.2473732796
 11
1.9717429183
 21
3.2473732796
  0
LINE
  5
3DA
100
AcDbEntity
  8
0
100
AcDbLine
 62
7
  6
CONTINUOUS
 10
1.9323728396
 20
3.2473732796
 11
1.7906405561
 21
3.2473732796
  0
LINE
  5
3DB
100
AcDbEntity
  8
0
100
AcDbLine
 62
7
  6
CONTINUOUS
 10
1.7512704774
 20
3.2473732796
 11
1.6095381939
 21
3.2473732796
  0
LINE
  5
3DC
100
AcDbEntity
  8
0
100
AcDbLine
 62
7
  6
CONTINUOUS
 10
1.5701681152
 20
3.2473732796
 11
1.4284358317
 21
3.2473732796
  0
LINE
  5
3DD
100
AcDbEntity
  8
0
100
AcDbLine
 62
7
  6
CONTINUOUS
 10
1.389065753
 20
3.2473732796
 11
1.2473334695
 21
3.2473732796
  0
LINE
  5
3DE
100
AcDbEntity
  8
0
100
AcDbLine
 62
7
  6
CONTINUOUS
 10
1.2473334695
 20
3.2867433584
 11
1.389065753
 21
3.2867433584
  0
LINE
  5
3DF
100
AcDbEntity
  8
0
100
AcDbLine
 62
7
  6
CONTINUOUS
 10
1.4284358317
 20
3.2867433584
 11
1.5701681152
 21
3.2867433584
  0
LINE
  5
3E0
100
AcDbEntity
  8
0
100
AcDbLine
 62
7
  6
CONTINUOUS
 10
1.6095381939
 20
3.2867433584
 11
1.7512704774
 21
3.2867433584
  0
LINE
  5
3E1
100
AcDbEntity
  8
0
100
AcDbLine
 62
7
  6
CONTINUOUS
 10
1.7906405561
 20
3.2867433584
 11
1.9323728396
 21
3.2867433584
  0
LINE
  5
3E2
100
AcDbEntity
  8
0
100
AcDbLine
 62
7
  6
CONTINUOUS
 10
1.9717429183
 20
3.2867433584
 11
2.1134752018
 21
3.2867433584
  0
LINE
  5
3E3
100
AcDbEntity
  8
0
100
AcDbLine
 62
7
  6
CONTINUOUS
 10
2.1528452805
 20
3.2867433584
 11
2.294577564
 21
3.2867433584
  0
LINE
  5
3E4
100
AcDbEntity
  8
0
100
AcDbLine
 62
7
  6
CONTINUOUS
 10
2.3339476427
 20
3.2867433584
 11
2.4756799262
 21
3.2867433584
  0
LINE
  5
3E5
100
AcDbEntity
  8
0
100
AcDbLine
 62
7
  6
CONTINUOUS
 10
2.5150500049
 20
3.2867433584
 11
2.6567822884
 21
3.2867433584
  0
LINE
  5
3E6
100
AcDbEntity
  8
0
100
AcDbLine
 62
7
  6
CONTINUOUS
 10
1.6489082726
 20
5.3517039883
 11
1.6489082726
 21
5.0957984765
  0
LINE
  5
3E7
100
AcDbEntity
  8
0
100
AcDbLine
 62
7
  6
CONTINUOUS
 10
1.6567822884
 20
1.641074067
 11
1.6567822884
 21
1.2394992639
  0
LINE
  5
3E8
100
AcDbEntity
  8
0
100
AcDbLine
 62
7
  6
CONTINUOUS
 10
1.6882783514
 20
5.391074067
 11
1.6882783514
 21
5.0564283977
  0
LINE
  5
3E9
100
AcDbEntity
  8
0
100
AcDbLine
 62
7
  6
CONTINUOUS
 10
1.7119003986
 20
5.0564283977
 11
1.7119003986
 21
5.391074067
  0
LINE
  5
3EA
100
AcDbEntity
  8
0
100
AcDbLine
 62
7
  6
CONTINUOUS
 10
1.7158374065
 20
1.2394992639
 11
1.7158374065
 21
1.641074067
  0
LINE
  5
3EB
100
AcDbEntity
  8
0
100
AcDbLine
 62
7
  6
CONTINUOUS
 10
1.7512704774
 20
1.8379244607
 11
1.7512704774
 21
1.9796567442
  0
LINE
  5
3EC
100
AcDbEntity
  8
0
100
AcDbLine
 62
7
  6
CONTINUOUS
 10
1.7512704774
 20
2.0190268229
 11
1.7512704774
 21
2.1607591064
  0
LINE
  5
3ED
100
AcDbEntity
  8
0
100
AcDbLine
 62
7
  6
CONTINUOUS
 10
1.7512704774
 20
2.2001291851
 11
1.7512704774
 21
2.3418614686
  0
LINE
  5
3EE
100
AcDbEntity
  8
0
100
AcDbLine
 62
7
  6
CONTINUOUS
 10
1.7512704774
 20
2.3812315473
 11
1.7512704774
 21
2.5229638308
  0
LINE
  5
3EF
100
AcDbEntity
  8
0
100
AcDbLine
 62
7
  6
CONTINUOUS
 10
1.7512704774
 20
2.5623339096
 11
1.7512704774
 21
2.704066193
  0
LINE
  5
3F0
100
AcDbEntity
  8
0
100
AcDbLine
 62
7
  6
CONTINUOUS
 10
1.7512704774
 20
2.7434362718
 11
1.7512704774
 21
2.8851685552
  0
LINE
  5
3F1
100
AcDbEntity
  8
0
100
AcDbLine
 62
7
  6
CONTINUOUS
 10
1.7512704774
 20
2.924538634
 11
1.7512704774
 21
3.0662709174
  0
LINE
  5
3F2
100
AcDbEntity
  8
0
100
AcDbLine
 62
7
  6
CONTINUOUS
 10
1.7512704774
 20
3.1056409962
 11
1.7512704774
 21
3.2473732796
  0
LINE
  5
3F3
100
AcDbEntity
  8
0
100
AcDbLine
 62
7
  6
CONTINUOUS
 10
1.7512704774
 20
3.2867433584
 11
1.7512704774
 21
3.4284756418
  0
LINE
  5
3F4
100
AcDbEntity
  8
0
100
AcDbLine
 62
7
  6
CONTINUOUS
 10
1.7512704774
 20
3.4678457206
 11
1.7512704774
 21
3.609578004
  0
LINE
  5
3F5
100
AcDbEntity
  8
0
100
AcDbLine
 62
7
  6
CONTINUOUS
 10
1.7512704774
 20
3.6489480828
 11
1.7512704774
 21
3.7906803662
  0
LINE
  5
3F6
100
AcDbEntity
  8
0
100
AcDbLine
 62
7
  6
CONTINUOUS
 10
1.7512704774
 20
3.830050445
 11
1.7512704774
 21
3.9717827285
  0
LINE
  5
3F7
100
AcDbEntity
  8
0
100
AcDbLine
 62
7
  6
CONTINUOUS
 10
1.7512704774
 20
4.0111528072
 11
1.7512704774
 21
4.1528850907
  0
LINE
  5
3F8
100
AcDbEntity
  8
0
100
AcDbLine
 62
7
  6
CONTINUOUS
 10
1.7512704774
 20
4.1922551694
 11
1.7512704774
 21
4.3339874529
  0
LINE
  5
3F9
100
AcDbEntity
  8
0
100
AcDbLine
 62
7
  6
CONTINUOUS
 10
1.7512704774
 20
4.3733575316
 11
1.7512704774
 21
4.5150898151
  0
LINE
  5
3FA
100
AcDbEntity
  8
0
100
AcDbLine
 62
7
  6
CONTINUOUS
 10
1.7512704774
 20
4.5544598938
 11
1.7512704774
 21
4.6961921773
  0
LINE
  5
3FB
100
AcDbEntity
  8
0
100
AcDbLine
 62
7
  6
CONTINUOUS
 10
1.7512704774
 20
4.735562256
 11
1.7512704774
 21
4.8694205237
  0
LINE
  5
3FC
100
AcDbEntity
  8
0
100
AcDbLine
 62
7
  6
CONTINUOUS
 10
1.7512704774
 20
5.0957984765
 11
1.7512704774
 21
5.3517039883
  0
LINE
  5
3FD
100
AcDbEntity
  8
0
100
AcDbLine
 62
7
  6
CONTINUOUS
 10
1.7552074852
 20
1.3772945395
 11
1.7552074852
 21
1.2394992639
  0
LINE
  5
3FE
100
AcDbEntity
  8
0
100
AcDbLine
 62
7
  6
CONTINUOUS
 10
1.7906405561
 20
4.8694205237
 11
1.7906405561
 21
4.735562256
  0
LINE
  5
3FF
100
AcDbEntity
  8
0
100
AcDbLine
 62
7
  6
CONTINUOUS
 10
1.7906405561
 20
4.6961921773
 11
1.7906405561
 21
4.5544598938
  0
LINE
  5
400
100
AcDbEntity
  8
0
100
AcDbLine
 62
7
  6
CONTINUOUS
 10
1.7906405561
 20
4.5150898151
 11
1.7906405561
 21
4.3733575316
  0
LINE
  5
401
100
AcDbEntity
  8
0
100
AcDbLine
 62
7
  6
CONTINUOUS
 10
1.7906405561
 20
4.3339874529
 11
1.7906405561
 21
4.1922551694
  0
LINE
  5
402
100
AcDbEntity
  8
0
100
AcDbLine
 62
7
  6
CONTINUOUS
 10
1.7906405561
 20
4.1528850907
 11
1.7906405561
 21
4.0111528072
  0
LINE
  5
403
100
AcDbEntity
  8
0
100
AcDbLine
 62
7
  6
CONTINUOUS
 10
1.7906405561
 20
3.9717827285
 11
1.7906405561
 21
3.830050445
  0
LINE
  5
404
100
AcDbEntity
  8
0
100
AcDbLine
 62
7
  6
CONTINUOUS
 10
1.7906405561
 20
3.7906803662
 11
1.7906405561
 21
3.6489480828
  0
LINE
  5
405
100
AcDbEntity
  8
0
100
AcDbLine
 62
7
  6
CONTINUOUS
 10
1.7906405561
 20
3.609578004
 11
1.7906405561
 21
3.4678457206
  0
LINE
  5
406
100
AcDbEntity
  8
0
100
AcDbLine
 62
7
  6
CONTINUOUS
 10
1.7906405561
 20
3.4284756418
 11
1.7906405561
 21
3.2867433584
  0
LINE
  5
407
100
AcDbEntity
  8
0
100
AcDbLine
 62
7
  6
CONTINUOUS
 10
1.7906405561
 20
3.2473732796
 11
1.7906405561
 21
3.1056409962
  0
LINE
  5
408
100
AcDbEntity
  8
0
100
AcDbLine
 62
7
  6
CONTINUOUS
 10
1.7906405561
 20
3.0662709174
 11
1.7906405561
 21
2.924538634
  0
LINE
  5
409
100
AcDbEntity
  8
0
100
AcDbLine
 62
7
  6
CONTINUOUS
 10
1.7906405561
 20
2.8851685552
 11
1.7906405561
 21
2.7434362718
  0
LINE
  5
40A
100
AcDbEntity
  8
0
100
AcDbLine
 62
7
  6
CONTINUOUS
 10
1.7906405561
 20
2.704066193
 11
1.7906405561
 21
2.5623339096
  0
LINE
  5
40B
100
AcDbEntity
  8
0
100
AcDbLine
 62
7
  6
CONTINUOUS
 10
1.7906405561
 20
2.5229638308
 11
1.7906405561
 21
2.3812315473
  0
LINE
  5
40C
100
AcDbEntity
  8
0
100
AcDbLine
 62
7
  6
CONTINUOUS
 10
1.7906405561
 20
2.3418614686
 11
1.7906405561
 21
2.2001291851
  0
LINE
  5
40D
100
AcDbEntity
  8
0
100
AcDbLine
 62
7
  6
CONTINUOUS
 10
1.7906405561
 20
2.1607591064
 11
1.7906405561
 21
2.0190268229
  0
LINE
  5
40E
100
AcDbEntity
  8
0
100
AcDbLine
 62
7
  6
CONTINUOUS
 10
1.7906405561
 20
1.9796567442
 11
1.7906405561
 21
1.8379244607
  0
LINE
  5
40F
100
AcDbEntity
  8
0
100
AcDbLine
 62
7
  6
CONTINUOUS
 10
2.6567822884
 20
3.4284756418
 11
2.5150500049
 21
3.4284756418
  0
LINE
  5
410
100
AcDbEntity
  8
0
100
AcDbLine
 62
7
  6
CONTINUOUS
 10
2.4756799262
 20
3.4284756418
 11
2.3339476427
 21
3.4284756418
  0
LINE
  5
411
100
AcDbEntity
  8
0
100
AcDbLine
 62
7
  6
CONTINUOUS
 10
2.294577564
 20
3.4284756418
 11
2.1528452805
 21
3.4284756418
  0
LINE
  5
412
100
AcDbEntity
  8
0
100
AcDbLine
 62
7
  6
CONTINUOUS
 10
2.1134752018
 20
3.4284756418
 11
1.9717429183
 21
3.4284756418
  0
LINE
  5
413
100
AcDbEntity
  8
0
100
AcDbLine
 62
7
  6
CONTINUOUS
 10
1.9323728396
 20
3.4284756418
 11
1.7906405561
 21
3.4284756418
  0
LINE
  5
414
100
AcDbEntity
  8
0
100
AcDbLine
 62
7
  6
CONTINUOUS
 10
1.7512704774
 20
3.4284756418
 11
1.6095381939
 21
3.4284756418
  0
LINE
  5
415
100
AcDbEntity
  8
0
100
AcDbLine
 62
7
  6
CONTINUOUS
 10
1.5701681152
 20
3.4284756418
 11
1.4284358317
 21
3.4284756418
  0
LINE
  5
416
100
AcDbEntity
  8
0
100
AcDbLine
 62
7
  6
CONTINUOUS
 10
1.389065753
 20
3.4284756418
 11
1.2473334695
 21
3.4284756418
  0
LINE
  5
417
100
AcDbEntity
  8
0
100
AcDbLine
 62
7
  6
CONTINUOUS
 10
1.2473334695
 20
3.4678457206
 11
1.389065753
 21
3.4678457206
  0
LINE
  5
418
100
AcDbEntity
  8
0
100
AcDbLine
 62
7
  6
CONTINUOUS
 10
1.4284358317
 20
3.4678457206
 11
1.5701681152
 21
3.4678457206
  0
LINE
  5
419
100
AcDbEntity
  8
0
100
AcDbLine
 62
7
  6
CONTINUOUS
 10
1.6095381939
 20
3.4678457206
 11
1.7512704774
 21
3.4678457206
  0
LINE
  5
41A
100
AcDbEntity
  8
0
100
AcDbLine
 62
7
  6
CONTINUOUS
 10
1.7906405561
 20
3.4678457206
 11
1.9323728396
 21
3.4678457206
  0
LINE
  5
41B
100
AcDbEntity
  8
0
100
AcDbLine
 62
7
  6
CONTINUOUS
 10
1.9717429183
 20
3.4678457206
 11
2.1134752018
 21
3.4678457206
  0
LINE
  5
41C
100
AcDbEntity
  8
0
100
AcDbLine
 62
7
  6
CONTINUOUS
 10
2.1528452805
 20
3.4678457206
 11
2.294577564
 21
3.4678457206
  0
LINE
  5
41D
100
AcDbEntity
  8
0
100
AcDbLine
 62
7
  6
CONTINUOUS
 10
2.3339476427
 20
3.4678457206
 11
2.4756799262
 21
3.4678457206
  0
LINE
  5
41E
100
AcDbEntity
  8
0
100
AcDbLine
 62
7
  6
CONTINUOUS
 10
2.5150500049
 20
3.4678457206
 11
2.6567822884
 21
3.4678457206
  0
LINE
  5
41F
100
AcDbEntity
  8
0
100
AcDbLine
 62
7
  6
CONTINUOUS
 10
1.8733177215
 20
5.8913033966
 11
1.8733177215
 21
5.9717827285
  0
LINE
  5
420
100
AcDbEntity
  8
0
100
AcDbLine
 62
7
  6
CONTINUOUS
 10
1.9008767766
 20
5.3517039883
 11
1.9008767766
 21
5.0957984765
  0
LINE
  5
421
100
AcDbEntity
  8
0
100
AcDbLine
 62
7
  6
CONTINUOUS
 10
1.9323728396
 20
1.8379244607
 11
1.9323728396
 21
1.9796567442
  0
LINE
  5
422
100
AcDbEntity
  8
0
100
AcDbLine
 62
7
  6
CONTINUOUS
 10
1.9323728396
 20
2.0190268229
 11
1.9323728396
 21
2.1607591064
  0
LINE
  5
423
100
AcDbEntity
  8
0
100
AcDbLine
 62
7
  6
CONTINUOUS
 10
1.9323728396
 20
2.2001291851
 11
1.9323728396
 21
2.3418614686
  0
LINE
  5
424
100
AcDbEntity
  8
0
100
AcDbLine
 62
7
  6
CONTINUOUS
 10
1.9323728396
 20
2.3812315473
 11
1.9323728396
 21
2.5229638308
  0
LINE
  5
425
100
AcDbEntity
  8
0
100
AcDbLine
 62
7
  6
CONTINUOUS
 10
1.9323728396
 20
2.5623339096
 11
1.9323728396
 21
2.704066193
  0
LINE
  5
426
100
AcDbEntity
  8
0
100
AcDbLine
 62
7
  6
CONTINUOUS
 10
1.9323728396
 20
2.7434362718
 11
1.9323728396
 21
2.8851685552
  0
LINE
  5
427
100
AcDbEntity
  8
0
100
AcDbLine
 62
7
  6
CONTINUOUS
 10
1.9323728396
 20
2.924538634
 11
1.9323728396
 21
3.0662709174
  0
LINE
  5
428
100
AcDbEntity
  8
0
100
AcDbLine
 62
7
  6
CONTINUOUS
 10
1.9323728396
 20
3.1056409962
 11
1.9323728396
 21
3.2473732796
  0
LINE
  5
429
100
AcDbEntity
  8
0
100
AcDbLine
 62
7
  6
CONTINUOUS
 10
1.9323728396
 20
3.2867433584
 11
1.9323728396
 21
3.4284756418
  0
LINE
  5
42A
100
AcDbEntity
  8
0
100
AcDbLine
 62
7
  6
CONTINUOUS
 10
1.9323728396
 20
3.4678457206
 11
1.9323728396
 21
3.609578004
  0
LINE
  5
42B
100
AcDbEntity
  8
0
100
AcDbLine
 62
7
  6
CONTINUOUS
 10
1.9323728396
 20
3.6489480828
 11
1.9323728396
 21
3.7906803662
  0
LINE
  5
42C
100
AcDbEntity
  8
0
100
AcDbLine
 62
7
  6
CONTINUOUS
 10
1.9323728396
 20
3.830050445
 11
1.9323728396
 21
3.9717827285
  0
LINE
  5
42D
100
AcDbEntity
  8
0
100
AcDbLine
 62
7
  6
CONTINUOUS
 10
1.9323728396
 20
4.0111528072
 11
1.9323728396
 21
4.1528850907
  0
LINE
  5
42E
100
AcDbEntity
  8
0
100
AcDbLine
 62
7
  6
CONTINUOUS
 10
1.9323728396
 20
4.1922551694
 11
1.9323728396
 21
4.3339874529
  0
LINE
  5
42F
100
AcDbEntity
  8
0
100
AcDbLine
 62
7
  6
CONTINUOUS
 10
1.9323728396
 20
4.3733575316
 11
1.9323728396
 21
4.5150898151
  0
LINE
  5
430
100
AcDbEntity
  8
0
100
AcDbLine
 62
7
  6
CONTINUOUS
 10
1.9323728396
 20
4.5544598938
 11
1.9323728396
 21
4.6961921773
  0
LINE
  5
431
100
AcDbEntity
  8
0
100
AcDbLine
 62
7
  6
CONTINUOUS
 10
1.9323728396
 20
4.735562256
 11
1.9323728396
 21
4.8694205237
  0
LINE
  5
432
100
AcDbEntity
  8
0
100
AcDbLine
 62
7
  6
CONTINUOUS
 10
1.9402468553
 20
5.391074067
 11
1.9402468553
 21
5.0564283977
  0
LINE
  5
433
100
AcDbEntity
  8
0
100
AcDbLine
 62
7
  6
CONTINUOUS
 10
1.9520578789
 20
5.9146103276
 11
1.9520578789
 21
5.9914668134
  0
LINE
  5
434
100
AcDbEntity
  8
0
100
AcDbLine
 62
7
  6
CONTINUOUS
 10
1.9638689026
 20
5.0564283977
 11
1.9638689026
 21
5.391074067
  0
LINE
  5
435
100
AcDbEntity
  8
0
100
AcDbLine
 62
7
  6
CONTINUOUS
 10
1.9717429183
 20
4.8694205237
 11
1.9717429183
 21
4.735562256
  0
LINE
  5
436
100
AcDbEntity
  8
0
100
AcDbLine
 62
7
  6
CONTINUOUS
 10
1.9717429183
 20
4.6961921773
 11
1.9717429183
 21
4.5544598938
  0
LINE
  5
437
100
AcDbEntity
  8
0
100
AcDbLine
 62
7
  6
CONTINUOUS
 10
1.9717429183
 20
4.5150898151
 11
1.9717429183
 21
4.3733575316
  0
LINE
  5
438
100
AcDbEntity
  8
0
100
AcDbLine
 62
7
  6
CONTINUOUS
 10
1.9717429183
 20
4.3339874529
 11
1.9717429183
 21
4.1922551694
  0
LINE
  5
439
100
AcDbEntity
  8
0
100
AcDbLine
 62
7
  6
CONTINUOUS
 10
1.9717429183
 20
4.1528850907
 11
1.9717429183
 21
4.0111528072
  0
LINE
  5
43A
100
AcDbEntity
  8
0
100
AcDbLine
 62
7
  6
CONTINUOUS
 10
1.9717429183
 20
3.9717827285
 11
1.9717429183
 21
3.830050445
  0
LINE
  5
43B
100
AcDbEntity
  8
0
100
AcDbLine
 62
7
  6
CONTINUOUS
 10
1.9717429183
 20
3.7906803662
 11
1.9717429183
 21
3.6489480828
  0
LINE
  5
43C
100
AcDbEntity
  8
0
100
AcDbLine
 62
7
  6
CONTINUOUS
 10
1.9717429183
 20
3.609578004
 11
1.9717429183
 21
3.4678457206
  0
LINE
  5
43D
100
AcDbEntity
  8
0
100
AcDbLine
 62
7
  6
CONTINUOUS
 10
1.9717429183
 20
3.4284756418
 11
1.9717429183
 21
3.2867433584
  0
LINE
  5
43E
100
AcDbEntity
  8
0
100
AcDbLine
 62
7
  6
CONTINUOUS
 10
1.9717429183
 20
3.2473732796
 11
1.9717429183
 21
3.1056409962
  0
LINE
  5
43F
100
AcDbEntity
  8
0
100
AcDbLine
 62
7
  6
CONTINUOUS
 10
1.9717429183
 20
3.0662709174
 11
1.9717429183
 21
2.924538634
  0
LINE
  5
440
100
AcDbEntity
  8
0
100
AcDbLine
 62
7
  6
CONTINUOUS
 10
1.9717429183
 20
2.8851685552
 11
1.9717429183
 21
2.7434362718
  0
LINE
  5
441
100
AcDbEntity
  8
0
100
AcDbLine
 62
7
  6
CONTINUOUS
 10
1.9717429183
 20
2.704066193
 11
1.9717429183
 21
2.5623339096
  0
LINE
  5
442
100
AcDbEntity
  8
0
100
AcDbLine
 62
7
  6
CONTINUOUS
 10
1.9717429183
 20
2.5229638308
 11
1.9717429183
 21
2.3812315473
  0
LINE
  5
443
100
AcDbEntity
  8
0
100
AcDbLine
 62
7
  6
CONTINUOUS
 10
1.9717429183
 20
2.3418614686
 11
1.9717429183
 21
2.2001291851
  0
LINE
  5
444
100
AcDbEntity
  8
0
100
AcDbLine
 62
7
  6
CONTINUOUS
 10
1.9717429183
 20
2.1607591064
 11
1.9717429183
 21
2.0190268229
  0
LINE
  5
445
100
AcDbEntity
  8
0
100
AcDbLine
 62
7
  6
CONTINUOUS
 10
1.9717429183
 20
1.9796567442
 11
1.9717429183
 21
1.8379244607
  0
LINE
  5
446
100
AcDbEntity
  8
0
100
AcDbLine
 62
7
  6
CONTINUOUS
 10
2.6567822884
 20
3.609578004
 11
2.5150500049
 21
3.609578004
  0
LINE
  5
447
100
AcDbEntity
  8
0
100
AcDbLine
 62
7
  6
CONTINUOUS
 10
2.4756799262
 20
3.609578004
 11
2.3339476427
 21
3.609578004
  0
LINE
  5
448
100
AcDbEntity
  8
0
100
AcDbLine
 62
7
  6
CONTINUOUS
 10
2.294577564
 20
3.609578004
 11
2.1528452805
 21
3.609578004
  0
LINE
  5
449
100
AcDbEntity
  8
0
100
AcDbLine
 62
7
  6
CONTINUOUS
 10
2.1134752018
 20
3.609578004
 11
1.9717429183
 21
3.609578004
  0
LINE
  5
44A
100
AcDbEntity
  8
0
100
AcDbLine
 62
7
  6
CONTINUOUS
 10
1.9323728396
 20
3.609578004
 11
1.7906405561
 21
3.609578004
  0
LINE
  5
44B
100
AcDbEntity
  8
0
100
AcDbLine
 62
7
  6
CONTINUOUS
 10
1.7512704774
 20
3.609578004
 11
1.6095381939
 21
3.609578004
  0
LINE
  5
44C
100
AcDbEntity
  8
0
100
AcDbLine
 62
7
  6
CONTINUOUS
 10
1.5701681152
 20
3.609578004
 11
1.4284358317
 21
3.609578004
  0
LINE
  5
44D
100
AcDbEntity
  8
0
100
AcDbLine
 62
7
  6
CONTINUOUS
 10
1.389065753
 20
3.609578004
 11
1.2473334695
 21
3.609578004
  0
LINE
  5
44E
100
AcDbEntity
  8
0
100
AcDbLine
 62
7
  6
CONTINUOUS
 10
1.2473334695
 20
3.6489480828
 11
1.389065753
 21
3.6489480828
  0
LINE
  5
44F
100
AcDbEntity
  8
0
100
AcDbLine
 62
7
  6
CONTINUOUS
 10
1.4284358317
 20
3.6489480828
 11
1.5701681152
 21
3.6489480828
  0
LINE
  5
450
100
AcDbEntity
  8
0
100
AcDbLine
 62
7
  6
CONTINUOUS
 10
1.6095381939
 20
3.6489480828
 11
1.7512704774
 21
3.6489480828
  0
LINE
  5
451
100
AcDbEntity
  8
0
100
AcDbLine
 62
7
  6
CONTINUOUS
 10
1.7906405561
 20
3.6489480828
 11
1.9323728396
 21
3.6489480828
  0
LINE
  5
452
100
AcDbEntity
  8
0
100
AcDbLine
 62
7
  6
CONTINUOUS
 10
1.9717429183
 20
3.6489480828
 11
2.1134752018
 21
3.6489480828
  0
LINE
  5
453
100
AcDbEntity
  8
0
100
AcDbLine
 62
7
  6
CONTINUOUS
 10
2.1528452805
 20
3.6489480828
 11
2.294577564
 21
3.6489480828
  0
LINE
  5
454
100
AcDbEntity
  8
0
100
AcDbLine
 62
7
  6
CONTINUOUS
 10
2.3339476427
 20
3.6489480828
 11
2.4756799262
 21
3.6489480828
  0
LINE
  5
455
100
AcDbEntity
  8
0
100
AcDbLine
 62
7
  6
CONTINUOUS
 10
2.5150500049
 20
3.6489480828
 11
2.6567822884
 21
3.6489480828
  0
LINE
  5
456
100
AcDbEntity
  8
0
100
AcDbLine
 62
7
  6
CONTINUOUS
 10
2.0032389813
 20
5.0957984765
 11
2.0032389813
 21
5.3517039883
  0
LINE
  5
457
100
AcDbEntity
  8
0
100
AcDbLine
 62
7
  6
CONTINUOUS
 10
2.0701681152
 20
1.2394992639
 11
2.0701681152
 21
1.3772945395
  0
LINE
  5
458
100
AcDbEntity
  8
0
100
AcDbLine
 62
7
  6
CONTINUOUS
 10
2.1134752018
 20
1.8379244607
 11
2.1134752018
 21
1.9796567442
  0
LINE
  5
459
100
AcDbEntity
  8
0
100
AcDbLine
 62
7
  6
CONTINUOUS
 10
2.1134752018
 20
2.0190268229
 11
2.1134752018
 21
2.1607591064
  0
LINE
  5
45A
100
AcDbEntity
  8
0
100
AcDbLine
 62
7
  6
CONTINUOUS
 10
2.1134752018
 20
2.2001291851
 11
2.1134752018
 21
2.3418614686
  0
LINE
  5
45B
100
AcDbEntity
  8
0
100
AcDbLine
 62
7
  6
CONTINUOUS
 10
2.1134752018
 20
2.3812315473
 11
2.1134752018
 21
2.5229638308
  0
LINE
  5
45C
100
AcDbEntity
  8
0
100
AcDbLine
 62
7
  6
CONTINUOUS
 10
2.1134752018
 20
2.5623339096
 11
2.1134752018
 21
2.704066193
  0
LINE
  5
45D
100
AcDbEntity
  8
0
100
AcDbLine
 62
7
  6
CONTINUOUS
 10
2.1134752018
 20
2.7434362718
 11
2.1134752018
 21
2.8851685552
  0
LINE
  5
45E
100
AcDbEntity
  8
0
100
AcDbLine
 62
7
  6
CONTINUOUS
 10
2.1134752018
 20
2.924538634
 11
2.1134752018
 21
3.0662709174
  0
LINE
  5
45F
100
AcDbEntity
  8
0
100
AcDbLine
 62
7
  6
CONTINUOUS
 10
2.1134752018
 20
3.1056409962
 11
2.1134752018
 21
3.2473732796
  0
LINE
  5
460
100
AcDbEntity
  8
0
100
AcDbLine
 62
7
  6
CONTINUOUS
 10
2.1134752018
 20
3.2867433584
 11
2.1134752018
 21
3.4284756418
  0
LINE
  5
461
100
AcDbEntity
  8
0
100
AcDbLine
 62
7
  6
CONTINUOUS
 10
2.1134752018
 20
3.4678457206
 11
2.1134752018
 21
3.609578004
  0
LINE
  5
462
100
AcDbEntity
  8
0
100
AcDbLine
 62
7
  6
CONTINUOUS
 10
2.1134752018
 20
3.6489480828
 11
2.1134752018
 21
3.7906803662
  0
LINE
  5
463
100
AcDbEntity
  8
0
100
AcDbLine
 62
7
  6
CONTINUOUS
 10
2.1134752018
 20
3.830050445
 11
2.1134752018
 21
3.9717827285
  0
LINE
  5
464
100
AcDbEntity
  8
0
100
AcDbLine
 62
7
  6
CONTINUOUS
 10
2.1134752018
 20
4.0111528072
 11
2.1134752018
 21
4.1528850907
  0
LINE
  5
465
100
AcDbEntity
  8
0
100
AcDbLine
 62
7
  6
CONTINUOUS
 10
2.1134752018
 20
4.1922551694
 11
2.1134752018
 21
4.3339874529
  0
LINE
  5
466
100
AcDbEntity
  8
0
100
AcDbLine
 62
7
  6
CONTINUOUS
 10
2.1134752018
 20
4.3733575316
 11
2.1134752018
 21
4.5150898151
  0
LINE
  5
467
100
AcDbEntity
  8
0
100
AcDbLine
 62
7
  6
CONTINUOUS
 10
2.1134752018
 20
4.5544598938
 11
2.1134752018
 21
4.6961921773
  0
LINE
  5
468
100
AcDbEntity
  8
0
100
AcDbLine
 62
7
  6
CONTINUOUS
 10
2.1134752018
 20
4.735562256
 11
2.1134752018
 21
4.8694205237
  0
LINE
  5
469
100
AcDbEntity
  8
0
100
AcDbLine
 62
7
  6
CONTINUOUS
 10
2.6567822884
 20
3.7906803662
 11
2.5150500049
 21
3.7906803662
  0
LINE
  5
46A
100
AcDbEntity
  8
0
100
AcDbLine
 62
7
  6
CONTINUOUS
 10
2.4756799262
 20
3.7906803662
 11
2.3339476427
 21
3.7906803662
  0
LINE
  5
46B
100
AcDbEntity
  8
0
100
AcDbLine
 62
7
  6
CONTINUOUS
 10
2.294577564
 20
3.7906803662
 11
2.1528452805
 21
3.7906803662
  0
LINE
  5
46C
100
AcDbEntity
  8
0
100
AcDbLine
 62
7
  6
CONTINUOUS
 10
2.1134752018
 20
3.7906803662
 11
1.9717429183
 21
3.7906803662
  0
LINE
  5
46D
100
AcDbEntity
  8
0
100
AcDbLine
 62
7
  6
CONTINUOUS
 10
1.9323728396
 20
3.7906803662
 11
1.7906405561
 21
3.7906803662
  0
LINE
  5
46E
100
AcDbEntity
  8
0
100
AcDbLine
 62
7
  6
CONTINUOUS
 10
1.7512704774
 20
3.7906803662
 11
1.6095381939
 21
3.7906803662
  0
LINE
  5
46F
100
AcDbEntity
  8
0
100
AcDbLine
 62
7
  6
CONTINUOUS
 10
1.5701681152
 20
3.7906803662
 11
1.4284358317
 21
3.7906803662
  0
LINE
  5
470
100
AcDbEntity
  8
0
100
AcDbLine
 62
7
  6
CONTINUOUS
 10
1.389065753
 20
3.7906803662
 11
1.2473334695
 21
3.7906803662
  0
LINE
  5
471
100
AcDbEntity
  8
0
100
AcDbLine
 62
7
  6
CONTINUOUS
 10
2.1489082726
 20
1.2394992639
 11
2.1489082726
 21
1.641074067
  0
LINE
  5
472
100
AcDbEntity
  8
0
100
AcDbLine
 62
7
  6
CONTINUOUS
 10
2.1528452805
 20
5.3517039883
 11
2.1528452805
 21
5.0957984765
  0
LINE
  5
473
100
AcDbEntity
  8
0
100
AcDbLine
 62
7
  6
CONTINUOUS
 10
2.1528452805
 20
4.8694205237
 11
2.1528452805
 21
4.735562256
  0
LINE
  5
474
100
AcDbEntity
  8
0
100
AcDbLine
 62
7
  6
CONTINUOUS
 10
2.1528452805
 20
4.6961921773
 11
2.1528452805
 21
4.5544598938
  0
LINE
  5
475
100
AcDbEntity
  8
0
100
AcDbLine
 62
7
  6
CONTINUOUS
 10
2.1528452805
 20
4.5150898151
 11
2.1528452805
 21
4.3733575316
  0
LINE
  5
476
100
AcDbEntity
  8
0
100
AcDbLine
 62
7
  6
CONTINUOUS
 10
2.1528452805
 20
4.3339874529
 11
2.1528452805
 21
4.1922551694
  0
LINE
  5
477
100
AcDbEntity
  8
0
100
AcDbLine
 62
7
  6
CONTINUOUS
 10
2.1528452805
 20
4.1528850907
 11
2.1528452805
 21
4.0111528072
  0
LINE
  5
478
100
AcDbEntity
  8
0
100
AcDbLine
 62
7
  6
CONTINUOUS
 10
2.1528452805
 20
3.9717827285
 11
2.1528452805
 21
3.830050445
  0
LINE
  5
479
100
AcDbEntity
  8
0
100
AcDbLine
 62
7
  6
CONTINUOUS
 10
2.1528452805
 20
3.7906803662
 11
2.1528452805
 21
3.6489480828
  0
LINE
  5
47A
100
AcDbEntity
  8
0
100
AcDbLine
 62
7
  6
CONTINUOUS
 10
2.1528452805
 20
3.609578004
 11
2.1528452805
 21
3.4678457206
  0
LINE
  5
47B
100
AcDbEntity
  8
0
100
AcDbLine
 62
7
  6
CONTINUOUS
 10
2.1528452805
 20
3.4284756418
 11
2.1528452805
 21
3.2867433584
  0
LINE
  5
47C
100
AcDbEntity
  8
0
100
AcDbLine
 62
7
  6
CONTINUOUS
 10
2.1528452805
 20
3.2473732796
 11
2.1528452805
 21
3.1056409962
  0
LINE
  5
47D
100
AcDbEntity
  8
0
100
AcDbLine
 62
7
  6
CONTINUOUS
 10
2.1528452805
 20
3.0662709174
 11
2.1528452805
 21
2.924538634
  0
LINE
  5
47E
100
AcDbEntity
  8
0
100
AcDbLine
 62
7
  6
CONTINUOUS
 10
2.1528452805
 20
2.8851685552
 11
2.1528452805
 21
2.7434362718
  0
LINE
  5
47F
100
AcDbEntity
  8
0
100
AcDbLine
 62
7
  6
CONTINUOUS
 10
2.1528452805
 20
2.704066193
 11
2.1528452805
 21
2.5623339096
  0
LINE
  5
480
100
AcDbEntity
  8
0
100
AcDbLine
 62
7
  6
CONTINUOUS
 10
2.1528452805
 20
2.5229638308
 11
2.1528452805
 21
2.3812315473
  0
LINE
  5
481
100
AcDbEntity
  8
0
100
AcDbLine
 62
7
  6
CONTINUOUS
 10
2.1528452805
 20
2.3418614686
 11
2.1528452805
 21
2.2001291851
  0
LINE
  5
482
100
AcDbEntity
  8
0
100
AcDbLine
 62
7
  6
CONTINUOUS
 10
2.1528452805
 20
2.1607591064
 11
2.1528452805
 21
2.0190268229
  0
LINE
  5
483
100
AcDbEntity
  8
0
100
AcDbLine
 62
7
  6
CONTINUOUS
 10
2.1528452805
 20
1.9796567442
 11
2.1528452805
 21
1.8379244607
  0
LINE
  5
484
100
AcDbEntity
  8
0
100
AcDbLine
 62
7
  6
CONTINUOUS
 10
2.1922153593
 20
5.391074067
 11
2.1922153593
 21
5.0564283977
  0
LINE
  5
485
100
AcDbEntity
  8
0
100
AcDbLine
 62
7
  6
CONTINUOUS
 10
2.2158374065
 20
5.0564283977
 11
2.2158374065
 21
5.391074067
  0
LINE
  5
486
100
AcDbEntity
  8
0
100
AcDbLine
 62
7
  6
CONTINUOUS
 10
2.2473334695
 20
1.2394992639
 11
2.2473334695
 21
1.641074067
  0
LINE
  5
487
100
AcDbEntity
  8
0
100
AcDbLine
 62
7
  6
CONTINUOUS
 10
2.2552074852
 20
5.0957984765
 11
2.2552074852
 21
5.3517039883
  0
LINE
  5
488
100
AcDbEntity
  8
0
100
AcDbLine
 62
7
  6
CONTINUOUS
 10
2.294577564
 20
1.8379244607
 11
2.294577564
 21
1.9796567442
  0
LINE
  5
489
100
AcDbEntity
  8
0
100
AcDbLine
 62
7
  6
CONTINUOUS
 10
2.294577564
 20
2.0190268229
 11
2.294577564
 21
2.1607591064
  0
LINE
  5
48A
100
AcDbEntity
  8
0
100
AcDbLine
 62
7
  6
CONTINUOUS
 10
2.294577564
 20
2.2001291851
 11
2.294577564
 21
2.3418614686
  0
LINE
  5
48B
100
AcDbEntity
  8
0
100
AcDbLine
 62
7
  6
CONTINUOUS
 10
2.294577564
 20
2.3812315473
 11
2.294577564
 21
2.5229638308
  0
LINE
  5
48C
100
AcDbEntity
  8
0
100
AcDbLine
 62
7
  6
CONTINUOUS
 10
2.294577564
 20
2.5623339096
 11
2.294577564
 21
2.704066193
  0
LINE
  5
48D
100
AcDbEntity
  8
0
100
AcDbLine
 62
7
  6
CONTINUOUS
 10
2.294577564
 20
2.7434362718
 11
2.294577564
 21
2.8851685552
  0
LINE
  5
48E
100
AcDbEntity
  8
0
100
AcDbLine
 62
7
  6
CONTINUOUS
 10
2.294577564
 20
2.924538634
 11
2.294577564
 21
3.0662709174
  0
LINE
  5
48F
100
AcDbEntity
  8
0
100
AcDbLine
 62
7
  6
CONTINUOUS
 10
2.294577564
 20
3.1056409962
 11
2.294577564
 21
3.2473732796
  0
LINE
  5
490
100
AcDbEntity
  8
0
100
AcDbLine
 62
7
  6
CONTINUOUS
 10
2.294577564
 20
3.2867433584
 11
2.294577564
 21
3.4284756418
  0
LINE
  5
491
100
AcDbEntity
  8
0
100
AcDbLine
 62
7
  6
CONTINUOUS
 10
2.294577564
 20
3.4678457206
 11
2.294577564
 21
3.609578004
  0
LINE
  5
492
100
AcDbEntity
  8
0
100
AcDbLine
 62
7
  6
CONTINUOUS
 10
2.294577564
 20
3.6489480828
 11
2.294577564
 21
3.7906803662
  0
LINE
  5
493
100
AcDbEntity
  8
0
100
AcDbLine
 62
7
  6
CONTINUOUS
 10
2.294577564
 20
3.830050445
 11
2.294577564
 21
3.9717827285
  0
LINE
  5
494
100
AcDbEntity
  8
0
100
AcDbLine
 62
7
  6
CONTINUOUS
 10
2.294577564
 20
4.0111528072
 11
2.294577564
 21
4.1528850907
  0
LINE
  5
495
100
AcDbEntity
  8
0
100
AcDbLine
 62
7
  6
CONTINUOUS
 10
2.294577564
 20
4.1922551694
 11
2.294577564
 21
4.3339874529
  0
LINE
  5
496
100
AcDbEntity
  8
0
100
AcDbLine
 62
7
  6
CONTINUOUS
 10
2.294577564
 20
4.3733575316
 11
2.294577564
 21
4.5150898151
  0
LINE
  5
497
100
AcDbEntity
  8
0
100
AcDbLine
 62
7
  6
CONTINUOUS
 10
2.294577564
 20
4.5544598938
 11
2.294577564
 21
4.6961921773
  0
LINE
  5
498
100
AcDbEntity
  8
0
100
AcDbLine
 62
7
  6
CONTINUOUS
 10
2.294577564
 20
4.735562256
 11
2.294577564
 21
4.8694205237
  0
LINE
  5
499
100
AcDbEntity
  8
0
100
AcDbLine
 62
7
  6
CONTINUOUS
 10
1.2473334695
 20
3.830050445
 11
1.389065753
 21
3.830050445
  0
LINE
  5
49A
100
AcDbEntity
  8
0
100
AcDbLine
 62
7
  6
CONTINUOUS
 10
1.4284358317
 20
3.830050445
 11
1.5701681152
 21
3.830050445
  0
LINE
  5
49B
100
AcDbEntity
  8
0
100
AcDbLine
 62
7
  6
CONTINUOUS
 10
1.6095381939
 20
3.830050445
 11
1.7512704774
 21
3.830050445
  0
LINE
  5
49C
100
AcDbEntity
  8
0
100
AcDbLine
 62
7
  6
CONTINUOUS
 10
1.7906405561
 20
3.830050445
 11
1.9323728396
 21
3.830050445
  0
LINE
  5
49D
100
AcDbEntity
  8
0
100
AcDbLine
 62
7
  6
CONTINUOUS
 10
1.9717429183
 20
3.830050445
 11
2.1134752018
 21
3.830050445
  0
LINE
  5
49E
100
AcDbEntity
  8
0
100
AcDbLine
 62
7
  6
CONTINUOUS
 10
2.1528452805
 20
3.830050445
 11
2.294577564
 21
3.830050445
  0
LINE
  5
49F
100
AcDbEntity
  8
0
100
AcDbLine
 62
7
  6
CONTINUOUS
 10
2.3339476427
 20
3.830050445
 11
2.4756799262
 21
3.830050445
  0
LINE
  5
4A0
100
AcDbEntity
  8
0
100
AcDbLine
 62
7
  6
CONTINUOUS
 10
2.5150500049
 20
3.830050445
 11
2.6567822884
 21
3.830050445
  0
LINE
  5
4A1
100
AcDbEntity
  8
0
100
AcDbLine
 62
7
  6
CONTINUOUS
 10
2.6567822884
 20
3.9717827285
 11
2.5150500049
 21
3.9717827285
  0
LINE
  5
4A2
100
AcDbEntity
  8
0
100
AcDbLine
 62
7
  6
CONTINUOUS
 10
2.4756799262
 20
3.9717827285
 11
2.3339476427
 21
3.9717827285
  0
LINE
  5
4A3
100
AcDbEntity
  8
0
100
AcDbLine
 62
7
  6
CONTINUOUS
 10
2.294577564
 20
3.9717827285
 11
2.1528452805
 21
3.9717827285
  0
LINE
  5
4A4
100
AcDbEntity
  8
0
100
AcDbLine
 62
7
  6
CONTINUOUS
 10
2.1134752018
 20
3.9717827285
 11
1.9717429183
 21
3.9717827285
  0
LINE
  5
4A5
100
AcDbEntity
  8
0
100
AcDbLine
 62
7
  6
CONTINUOUS
 10
1.9323728396
 20
3.9717827285
 11
1.7906405561
 21
3.9717827285
  0
LINE
  5
4A6
100
AcDbEntity
  8
0
100
AcDbLine
 62
7
  6
CONTINUOUS
 10
1.7512704774
 20
3.9717827285
 11
1.6095381939
 21
3.9717827285
  0
LINE
  5
4A7
100
AcDbEntity
  8
0
100
AcDbLine
 62
7
  6
CONTINUOUS
 10
1.5701681152
 20
3.9717827285
 11
1.4284358317
 21
3.9717827285
  0
LINE
  5
4A8
100
AcDbEntity
  8
0
100
AcDbLine
 62
7
  6
CONTINUOUS
 10
1.389065753
 20
3.9717827285
 11
1.2473334695
 21
3.9717827285
  0
LINE
  5
4A9
100
AcDbEntity
  8
0
100
AcDbLine
 62
7
  6
CONTINUOUS
 10
2.3339476427
 20
4.8694205237
 11
2.3339476427
 21
4.735562256
  0
LINE
  5
4AA
100
AcDbEntity
  8
0
100
AcDbLine
 62
7
  6
CONTINUOUS
 10
2.3339476427
 20
4.6961921773
 11
2.3339476427
 21
4.5544598938
  0
LINE
  5
4AB
100
AcDbEntity
  8
0
100
AcDbLine
 62
7
  6
CONTINUOUS
 10
2.3339476427
 20
4.5150898151
 11
2.3339476427
 21
4.3733575316
  0
LINE
  5
4AC
100
AcDbEntity
  8
0
100
AcDbLine
 62
7
  6
CONTINUOUS
 10
2.3339476427
 20
4.3339874529
 11
2.3339476427
 21
4.1922551694
  0
LINE
  5
4AD
100
AcDbEntity
  8
0
100
AcDbLine
 62
7
  6
CONTINUOUS
 10
2.3339476427
 20
4.1528850907
 11
2.3339476427
 21
4.0111528072
  0
LINE
  5
4AE
100
AcDbEntity
  8
0
100
AcDbLine
 62
7
  6
CONTINUOUS
 10
2.3339476427
 20
3.9717827285
 11
2.3339476427
 21
3.830050445
  0
LINE
  5
4AF
100
AcDbEntity
  8
0
100
AcDbLine
 62
7
  6
CONTINUOUS
 10
2.3339476427
 20
3.7906803662
 11
2.3339476427
 21
3.6489480828
  0
LINE
  5
4B0
100
AcDbEntity
  8
0
100
AcDbLine
 62
7
  6
CONTINUOUS
 10
2.3339476427
 20
3.609578004
 11
2.3339476427
 21
3.4678457206
  0
LINE
  5
4B1
100
AcDbEntity
  8
0
100
AcDbLine
 62
7
  6
CONTINUOUS
 10
2.3339476427
 20
3.4284756418
 11
2.3339476427
 21
3.2867433584
  0
LINE
  5
4B2
100
AcDbEntity
  8
0
100
AcDbLine
 62
7
  6
CONTINUOUS
 10
2.3339476427
 20
3.2473732796
 11
2.3339476427
 21
3.1056409962
  0
LINE
  5
4B3
100
AcDbEntity
  8
0
100
AcDbLine
 62
7
  6
CONTINUOUS
 10
2.3339476427
 20
3.0662709174
 11
2.3339476427
 21
2.924538634
  0
LINE
  5
4B4
100
AcDbEntity
  8
0
100
AcDbLine
 62
7
  6
CONTINUOUS
 10
2.3339476427
 20
2.8851685552
 11
2.3339476427
 21
2.7434362718
  0
LINE
  5
4B5
100
AcDbEntity
  8
0
100
AcDbLine
 62
7
  6
CONTINUOUS
 10
2.3339476427
 20
2.704066193
 11
2.3339476427
 21
2.5623339096
  0
LINE
  5
4B6
100
AcDbEntity
  8
0
100
AcDbLine
 62
7
  6
CONTINUOUS
 10
2.3339476427
 20
2.5229638308
 11
2.3339476427
 21
2.3812315473
  0
LINE
  5
4B7
100
AcDbEntity
  8
0
100
AcDbLine
 62
7
  6
CONTINUOUS
 10
2.3339476427
 20
2.3418614686
 11
2.3339476427
 21
2.2001291851
  0
LINE
  5
4B8
100
AcDbEntity
  8
0
100
AcDbLine
 62
7
  6
CONTINUOUS
 10
2.3339476427
 20
2.1607591064
 11
2.3339476427
 21
2.0190268229
  0
LINE
  5
4B9
100
AcDbEntity
  8
0
100
AcDbLine
 62
7
  6
CONTINUOUS
 10
2.3339476427
 20
1.9796567442
 11
2.3339476427
 21
1.8379244607
  0
LINE
  5
4BA
100
AcDbEntity
  8
0
100
AcDbLine
 62
7
  6
CONTINUOUS
 10
2.4048137844
 20
5.3517039883
 11
2.4048137844
 21
5.0957984765
  0
LINE
  5
4BB
100
AcDbEntity
  8
0
100
AcDbLine
 62
7
  6
CONTINUOUS
 10
2.4441838632
 20
5.391074067
 11
2.4441838632
 21
5.0564283977
  0
LINE
  5
4BC
100
AcDbEntity
  8
0
100
AcDbLine
 62
7
  6
CONTINUOUS
 10
2.4756799262
 20
1.8379244607
 11
2.4756799262
 21
1.9796567442
  0
LINE
  5
4BD
100
AcDbEntity
  8
0
100
AcDbLine
 62
7
  6
CONTINUOUS
 10
2.4756799262
 20
2.0190268229
 11
2.4756799262
 21
2.1607591064
  0
LINE
  5
4BE
100
AcDbEntity
  8
0
100
AcDbLine
 62
7
  6
CONTINUOUS
 10
2.4756799262
 20
2.2001291851
 11
2.4756799262
 21
2.3418614686
  0
LINE
  5
4BF
100
AcDbEntity
  8
0
100
AcDbLine
 62
7
  6
CONTINUOUS
 10
2.4756799262
 20
2.3812315473
 11
2.4756799262
 21
2.5229638308
  0
LINE
  5
4C0
100
AcDbEntity
  8
0
100
AcDbLine
 62
7
  6
CONTINUOUS
 10
2.4756799262
 20
2.5623339096
 11
2.4756799262
 21
2.704066193
  0
LINE
  5
4C1
100
AcDbEntity
  8
0
100
AcDbLine
 62
7
  6
CONTINUOUS
 10
2.4756799262
 20
2.7434362718
 11
2.4756799262
 21
2.8851685552
  0
LINE
  5
4C2
100
AcDbEntity
  8
0
100
AcDbLine
 62
7
  6
CONTINUOUS
 10
2.4756799262
 20
2.924538634
 11
2.4756799262
 21
3.0662709174
  0
LINE
  5
4C3
100
AcDbEntity
  8
0
100
AcDbLine
 62
7
  6
CONTINUOUS
 10
2.4756799262
 20
3.1056409962
 11
2.4756799262
 21
3.2473732796
  0
LINE
  5
4C4
100
AcDbEntity
  8
0
100
AcDbLine
 62
7
  6
CONTINUOUS
 10
2.4756799262
 20
3.2867433584
 11
2.4756799262
 21
3.4284756418
  0
LINE
  5
4C5
100
AcDbEntity
  8
0
100
AcDbLine
 62
7
  6
CONTINUOUS
 10
2.4756799262
 20
3.4678457206
 11
2.4756799262
 21
3.609578004
  0
LINE
  5
4C6
100
AcDbEntity
  8
0
100
AcDbLine
 62
7
  6
CONTINUOUS
 10
2.4756799262
 20
3.6489480828
 11
2.4756799262
 21
3.7906803662
  0
LINE
  5
4C7
100
AcDbEntity
  8
0
100
AcDbLine
 62
7
  6
CONTINUOUS
 10
2.4756799262
 20
3.830050445
 11
2.4756799262
 21
3.9717827285
  0
LINE
  5
4C8
100
AcDbEntity
  8
0
100
AcDbLine
 62
7
  6
CONTINUOUS
 10
2.4756799262
 20
4.0111528072
 11
2.4756799262
 21
4.1528850907
  0
LINE
  5
4C9
100
AcDbEntity
  8
0
100
AcDbLine
 62
7
  6
CONTINUOUS
 10
2.4756799262
 20
4.1922551694
 11
2.4756799262
 21
4.3339874529
  0
LINE
  5
4CA
100
AcDbEntity
  8
0
100
AcDbLine
 62
7
  6
CONTINUOUS
 10
2.4756799262
 20
4.3733575316
 11
2.4756799262
 21
4.5150898151
  0
LINE
  5
4CB
100
AcDbEntity
  8
0
100
AcDbLine
 62
7
  6
CONTINUOUS
 10
2.4756799262
 20
4.5544598938
 11
2.4756799262
 21
4.6961921773
  0
LINE
  5
4CC
100
AcDbEntity
  8
0
100
AcDbLine
 62
7
  6
CONTINUOUS
 10
2.4756799262
 20
4.735562256
 11
2.4756799262
 21
4.8694205237
  0
LINE
  5
4CD
100
AcDbEntity
  8
0
100
AcDbLine
 62
7
  6
CONTINUOUS
 10
1.2473334695
 20
4.0111528072
 11
1.389065753
 21
4.0111528072
  0
LINE
  5
4CE
100
AcDbEntity
  8
0
100
AcDbLine
 62
7
  6
CONTINUOUS
 10
1.4284358317
 20
4.0111528072
 11
1.5701681152
 21
4.0111528072
  0
LINE
  5
4CF
100
AcDbEntity
  8
0
100
AcDbLine
 62
7
  6
CONTINUOUS
 10
1.6095381939
 20
4.0111528072
 11
1.7512704774
 21
4.0111528072
  0
LINE
  5
4D0
100
AcDbEntity
  8
0
100
AcDbLine
 62
7
  6
CONTINUOUS
 10
1.7906405561
 20
4.0111528072
 11
1.9323728396
 21
4.0111528072
  0
LINE
  5
4D1
100
AcDbEntity
  8
0
100
AcDbLine
 62
7
  6
CONTINUOUS
 10
1.9717429183
 20
4.0111528072
 11
2.1134752018
 21
4.0111528072
  0
LINE
  5
4D2
100
AcDbEntity
  8
0
100
AcDbLine
 62
7
  6
CONTINUOUS
 10
2.1528452805
 20
4.0111528072
 11
2.294577564
 21
4.0111528072
  0
LINE
  5
4D3
100
AcDbEntity
  8
0
100
AcDbLine
 62
7
  6
CONTINUOUS
 10
2.3339476427
 20
4.0111528072
 11
2.4756799262
 21
4.0111528072
  0
LINE
  5
4D4
100
AcDbEntity
  8
0
100
AcDbLine
 62
7
  6
CONTINUOUS
 10
2.5150500049
 20
4.0111528072
 11
2.6567822884
 21
4.0111528072
  0
LINE
  5
4D5
100
AcDbEntity
  8
0
100
AcDbLine
 62
7
  6
CONTINUOUS
 10
2.6567822884
 20
4.1528850907
 11
2.5150500049
 21
4.1528850907
  0
LINE
  5
4D6
100
AcDbEntity
  8
0
100
AcDbLine
 62
7
  6
CONTINUOUS
 10
2.4756799262
 20
4.1528850907
 11
2.3339476427
 21
4.1528850907
  0
LINE
  5
4D7
100
AcDbEntity
  8
0
100
AcDbLine
 62
7
  6
CONTINUOUS
 10
2.294577564
 20
4.1528850907
 11
2.1528452805
 21
4.1528850907
  0
LINE
  5
4D8
100
AcDbEntity
  8
0
100
AcDbLine
 62
7
  6
CONTINUOUS
 10
2.1134752018
 20
4.1528850907
 11
1.9717429183
 21
4.1528850907
  0
LINE
  5
4D9
100
AcDbEntity
  8
0
100
AcDbLine
 62
7
  6
CONTINUOUS
 10
1.9323728396
 20
4.1528850907
 11
1.7906405561
 21
4.1528850907
  0
LINE
  5
4DA
100
AcDbEntity
  8
0
100
AcDbLine
 62
7
  6
CONTINUOUS
 10
1.7512704774
 20
4.1528850907
 11
1.6095381939
 21
4.1528850907
  0
LINE
  5
4DB
100
AcDbEntity
  8
0
100
AcDbLine
 62
7
  6
CONTINUOUS
 10
1.5701681152
 20
4.1528850907
 11
1.4284358317
 21
4.1528850907
  0
LINE
  5
4DC
100
AcDbEntity
  8
0
100
AcDbLine
 62
7
  6
CONTINUOUS
 10
1.389065753
 20
4.1528850907
 11
1.2473334695
 21
4.1528850907
  0
LINE
  5
4DD
100
AcDbEntity
  8
0
100
AcDbLine
 62
7
  6
CONTINUOUS
 10
2.4835539419
 20
5.0072157993
 11
2.4835539419
 21
5.8339874529
  0
LINE
  5
4DE
100
AcDbEntity
  8
0
100
AcDbLine
 62
7
  6
CONTINUOUS
 10
2.5150500049
 20
4.8694205237
 11
2.5150500049
 21
4.735562256
  0
LINE
  5
4DF
100
AcDbEntity
  8
0
100
AcDbLine
 62
7
  6
CONTINUOUS
 10
2.5150500049
 20
4.6961921773
 11
2.5150500049
 21
4.5544598938
  0
LINE
  5
4E0
100
AcDbEntity
  8
0
100
AcDbLine
 62
7
  6
CONTINUOUS
 10
2.5150500049
 20
4.5150898151
 11
2.5150500049
 21
4.3733575316
  0
LINE
  5
4E1
100
AcDbEntity
  8
0
100
AcDbLine
 62
7
  6
CONTINUOUS
 10
2.5150500049
 20
4.3339874529
 11
2.5150500049
 21
4.1922551694
  0
LINE
  5
4E2
100
AcDbEntity
  8
0
100
AcDbLine
 62
7
  6
CONTINUOUS
 10
2.5150500049
 20
4.1528850907
 11
2.5150500049
 21
4.0111528072
  0
LINE
  5
4E3
100
AcDbEntity
  8
0
100
AcDbLine
 62
7
  6
CONTINUOUS
 10
2.5150500049
 20
3.9717827285
 11
2.5150500049
 21
3.830050445
  0
LINE
  5
4E4
100
AcDbEntity
  8
0
100
AcDbLine
 62
7
  6
CONTINUOUS
 10
2.5150500049
 20
3.7906803662
 11
2.5150500049
 21
3.6489480828
  0
LINE
  5
4E5
100
AcDbEntity
  8
0
100
AcDbLine
 62
7
  6
CONTINUOUS
 10
2.5150500049
 20
3.609578004
 11
2.5150500049
 21
3.4678457206
  0
LINE
  5
4E6
100
AcDbEntity
  8
0
100
AcDbLine
 62
7
  6
CONTINUOUS
 10
2.5150500049
 20
3.4284756418
 11
2.5150500049
 21
3.2867433584
  0
LINE
  5
4E7
100
AcDbEntity
  8
0
100
AcDbLine
 62
7
  6
CONTINUOUS
 10
2.5150500049
 20
3.2473732796
 11
2.5150500049
 21
3.1056409962
  0
LINE
  5
4E8
100
AcDbEntity
  8
0
100
AcDbLine
 62
7
  6
CONTINUOUS
 10
2.5150500049
 20
3.0662709174
 11
2.5150500049
 21
2.924538634
  0
LINE
  5
4E9
100
AcDbEntity
  8
0
100
AcDbLine
 62
7
  6
CONTINUOUS
 10
2.5150500049
 20
2.8851685552
 11
2.5150500049
 21
2.7434362718
  0
LINE
  5
4EA
100
AcDbEntity
  8
0
100
AcDbLine
 62
7
  6
CONTINUOUS
 10
2.5150500049
 20
2.704066193
 11
2.5150500049
 21
2.5623339096
  0
LINE
  5
4EB
100
AcDbEntity
  8
0
100
AcDbLine
 62
7
  6
CONTINUOUS
 10
2.5150500049
 20
2.5229638308
 11
2.5150500049
 21
2.3812315473
  0
LINE
  5
4EC
100
AcDbEntity
  8
0
100
AcDbLine
 62
7
  6
CONTINUOUS
 10
2.5150500049
 20
2.3418614686
 11
2.5150500049
 21
2.2001291851
  0
LINE
  5
4ED
100
AcDbEntity
  8
0
100
AcDbLine
 62
7
  6
CONTINUOUS
 10
2.5150500049
 20
2.1607591064
 11
2.5150500049
 21
2.0190268229
  0
LINE
  5
4EE
100
AcDbEntity
  8
0
100
AcDbLine
 62
7
  6
CONTINUOUS
 10
2.5150500049
 20
1.9796567442
 11
2.5150500049
 21
1.8379244607
  0
LINE
  5
4EF
100
AcDbEntity
  8
0
100
AcDbLine
 62
7
  6
CONTINUOUS
 10
2.5150500049
 20
4.9087906025
 11
2.5150500049
 21
5.0505228859
  0
LINE
  5
4F0
100
AcDbEntity
  8
0
100
AcDbLine
 62
7
  6
CONTINUOUS
 10
2.5150500049
 20
5.0898929647
 11
2.5150500049
 21
5.2316252481
  0
LINE
  5
4F1
100
AcDbEntity
  8
0
100
AcDbLine
 62
7
  6
CONTINUOUS
 10
2.5150500049
 20
5.2709953269
 11
2.5150500049
 21
5.4127276103
  0
LINE
  5
4F2
100
AcDbEntity
  8
0
100
AcDbLine
 62
7
  6
CONTINUOUS
 10
1.2473334695
 20
4.1922551694
 11
1.389065753
 21
4.1922551694
  0
LINE
  5
4F3
100
AcDbEntity
  8
0
100
AcDbLine
 62
7
  6
CONTINUOUS
 10
1.4284358317
 20
4.1922551694
 11
1.5701681152
 21
4.1922551694
  0
LINE
  5
4F4
100
AcDbEntity
  8
0
100
AcDbLine
 62
7
  6
CONTINUOUS
 10
1.6095381939
 20
4.1922551694
 11
1.7512704774
 21
4.1922551694
  0
LINE
  5
4F5
100
AcDbEntity
  8
0
100
AcDbLine
 62
7
  6
CONTINUOUS
 10
1.7906405561
 20
4.1922551694
 11
1.9323728396
 21
4.1922551694
  0
LINE
  5
4F6
100
AcDbEntity
  8
0
100
AcDbLine
 62
7
  6
CONTINUOUS
 10
1.9717429183
 20
4.1922551694
 11
2.1134752018
 21
4.1922551694
  0
LINE
  5
4F7
100
AcDbEntity
  8
0
100
AcDbLine
 62
7
  6
CONTINUOUS
 10
2.1528452805
 20
4.1922551694
 11
2.294577564
 21
4.1922551694
  0
LINE
  5
4F8
100
AcDbEntity
  8
0
100
AcDbLine
 62
7
  6
CONTINUOUS
 10
2.3339476427
 20
4.1922551694
 11
2.4756799262
 21
4.1922551694
  0
LINE
  5
4F9
100
AcDbEntity
  8
0
100
AcDbLine
 62
7
  6
CONTINUOUS
 10
2.5150500049
 20
4.1922551694
 11
2.6567822884
 21
4.1922551694
  0
LINE
  5
4FA
100
AcDbEntity
  8
0
100
AcDbLine
 62
7
  6
CONTINUOUS
 10
2.6567822884
 20
5.4127276103
 11
2.6567822884
 21
5.2709953269
  0
LINE
  5
4FB
100
AcDbEntity
  8
0
100
AcDbLine
 62
7
  6
CONTINUOUS
 10
2.6567822884
 20
5.2316252481
 11
2.6567822884
 21
5.0898929647
  0
LINE
  5
4FC
100
AcDbEntity
  8
0
100
AcDbLine
 62
7
  6
CONTINUOUS
 10
2.6567822884
 20
5.0505228859
 11
2.6567822884
 21
4.9087906025
  0
LINE
  5
4FD
100
AcDbEntity
  8
0
100
AcDbLine
 62
7
  6
CONTINUOUS
 10
2.6567822884
 20
4.8694205237
 11
2.6567822884
 21
4.735562256
  0
LINE
  5
4FE
100
AcDbEntity
  8
0
100
AcDbLine
 62
7
  6
CONTINUOUS
 10
2.6567822884
 20
4.6961921773
 11
2.6567822884
 21
4.5544598938
  0
LINE
  5
4FF
100
AcDbEntity
  8
0
100
AcDbLine
 62
7
  6
CONTINUOUS
 10
2.6567822884
 20
4.5150898151
 11
2.6567822884
 21
4.3733575316
  0
LINE
  5
500
100
AcDbEntity
  8
0
100
AcDbLine
 62
7
  6
CONTINUOUS
 10
2.6567822884
 20
4.3339874529
 11
2.6567822884
 21
4.1922551694
  0
LINE
  5
501
100
AcDbEntity
  8
0
100
AcDbLine
 62
7
  6
CONTINUOUS
 10
2.6567822884
 20
4.1528850907
 11
2.6567822884
 21
4.0111528072
  0
LINE
  5
502
100
AcDbEntity
  8
0
100
AcDbLine
 62
7
  6
CONTINUOUS
 10
2.6567822884
 20
3.9717827285
 11
2.6567822884
 21
3.830050445
  0
LINE
  5
503
100
AcDbEntity
  8
0
100
AcDbLine
 62
7
  6
CONTINUOUS
 10
2.6567822884
 20
3.7906803662
 11
2.6567822884
 21
3.6489480828
  0
LINE
  5
504
100
AcDbEntity
  8
0
100
AcDbLine
 62
7
  6
CONTINUOUS
 10
2.6567822884
 20
3.609578004
 11
2.6567822884
 21
3.4678457206
  0
LINE
  5
505
100
AcDbEntity
  8
0
100
AcDbLine
 62
7
  6
CONTINUOUS
 10
2.6567822884
 20
3.4284756418
 11
2.6567822884
 21
3.2867433584
  0
LINE
  5
506
100
AcDbEntity
  8
0
100
AcDbLine
 62
7
  6
CONTINUOUS
 10
2.6567822884
 20
3.2473732796
 11
2.6567822884
 21
3.1056409962
  0
LINE
  5
507
100
AcDbEntity
  8
0
100
AcDbLine
 62
7
  6
CONTINUOUS
 10
2.6567822884
 20
3.0662709174
 11
2.6567822884
 21
2.924538634
  0
LINE
  5
508
100
AcDbEntity
  8
0
100
AcDbLine
 62
7
  6
CONTINUOUS
 10
2.6567822884
 20
2.8851685552
 11
2.6567822884
 21
2.7434362718
  0
LINE
  5
509
100
AcDbEntity
  8
0
100
AcDbLine
 62
7
  6
CONTINUOUS
 10
2.6567822884
 20
2.704066193
 11
2.6567822884
 21
2.5623339096
  0
LINE
  5
50A
100
AcDbEntity
  8
0
100
AcDbLine
 62
7
  6
CONTINUOUS
 10
2.6567822884
 20
2.5229638308
 11
2.6567822884
 21
2.3812315473
  0
LINE
  5
50B
100
AcDbEntity
  8
0
100
AcDbLine
 62
7
  6
CONTINUOUS
 10
2.6567822884
 20
2.3418614686
 11
2.6567822884
 21
2.2001291851
  0
LINE
  5
50C
100
AcDbEntity
  8
0
100
AcDbLine
 62
7
  6
CONTINUOUS
 10
2.6567822884
 20
2.1607591064
 11
2.6567822884
 21
2.0190268229
  0
LINE
  5
50D
100
AcDbEntity
  8
0
100
AcDbLine
 62
7
  6
CONTINUOUS
 10
2.6567822884
 20
1.9796567442
 11
2.6567822884
 21
1.8379244607
  0
LINE
  5
50E
100
AcDbEntity
  8
0
100
AcDbLine
 62
7
  6
CONTINUOUS
 10
2.7197744144
 20
1.2394992639
 11
2.7197744144
 21
1.641074067
  0
LINE
  5
50F
100
AcDbEntity
  8
0
100
AcDbLine
 62
7
  6
CONTINUOUS
 10
2.7197744144
 20
5.7013359451
 11
2.7197744144
 21
6.0209892419
  0
LINE
  5
510
100
AcDbEntity
  8
0
100
AcDbLine
 62
7
  6
CONTINUOUS
 10
2.7394594537
 20
1.641074067
 11
2.7394594537
 21
6.0111459707
  0
LINE
  5
511
100
AcDbEntity
  8
0
100
AcDbLine
 62
7
  6
CONTINUOUS
 10
2.7493019734
 20
1.798554382
 11
2.7493019734
 21
4.4757191832
  0
LINE
  5
512
100
AcDbEntity
  8
0
100
AcDbLine
 62
7
  6
CONTINUOUS
 10
2.6567822884
 20
4.3339874529
 11
2.5150500049
 21
4.3339874529
  0
LINE
  5
513
100
AcDbEntity
  8
0
100
AcDbLine
 62
7
  6
CONTINUOUS
 10
2.4756799262
 20
4.3339874529
 11
2.3339476427
 21
4.3339874529
  0
LINE
  5
514
100
AcDbEntity
  8
0
100
AcDbLine
 62
7
  6
CONTINUOUS
 10
2.294577564
 20
4.3339874529
 11
2.1528452805
 21
4.3339874529
  0
LINE
  5
515
100
AcDbEntity
  8
0
100
AcDbLine
 62
7
  6
CONTINUOUS
 10
2.1134752018
 20
4.3339874529
 11
1.9717429183
 21
4.3339874529
  0
LINE
  5
516
100
AcDbEntity
  8
0
100
AcDbLine
 62
7
  6
CONTINUOUS
 10
1.9323728396
 20
4.3339874529
 11
1.7906405561
 21
4.3339874529
  0
LINE
  5
517
100
AcDbEntity
  8
0
100
AcDbLine
 62
7
  6
CONTINUOUS
 10
1.7512704774
 20
4.3339874529
 11
1.6095381939
 21
4.3339874529
  0
LINE
  5
518
100
AcDbEntity
  8
0
100
AcDbLine
 62
7
  6
CONTINUOUS
 10
1.5701681152
 20
4.3339874529
 11
1.4284358317
 21
4.3339874529
  0
LINE
  5
519
100
AcDbEntity
  8
0
100
AcDbLine
 62
7
  6
CONTINUOUS
 10
1.389065753
 20
4.3339874529
 11
1.2473334695
 21
4.3339874529
  0
LINE
  5
51A
100
AcDbEntity
  8
0
100
AcDbLine
 62
7
  6
CONTINUOUS
 10
1.2473334695
 20
4.3733575316
 11
1.389065753
 21
4.3733575316
  0
LINE
  5
51B
100
AcDbEntity
  8
0
100
AcDbLine
 62
7
  6
CONTINUOUS
 10
1.4284358317
 20
4.3733575316
 11
1.5701681152
 21
4.3733575316
  0
LINE
  5
51C
100
AcDbEntity
  8
0
100
AcDbLine
 62
7
  6
CONTINUOUS
 10
1.6095381939
 20
4.3733575316
 11
1.7512704774
 21
4.3733575316
  0
LINE
  5
51D
100
AcDbEntity
  8
0
100
AcDbLine
 62
7
  6
CONTINUOUS
 10
1.7906405561
 20
4.3733575316
 11
1.9323728396
 21
4.3733575316
  0
LINE
  5
51E
100
AcDbEntity
  8
0
100
AcDbLine
 62
7
  6
CONTINUOUS
 10
1.9717429183
 20
4.3733575316
 11
2.1134752018
 21
4.3733575316
  0
LINE
  5
51F
100
AcDbEntity
  8
0
100
AcDbLine
 62
7
  6
CONTINUOUS
 10
2.1528452805
 20
4.3733575316
 11
2.294577564
 21
4.3733575316
  0
LINE
  5
520
100
AcDbEntity
  8
0
100
AcDbLine
 62
7
  6
CONTINUOUS
 10
2.3339476427
 20
4.3733575316
 11
2.4756799262
 21
4.3733575316
  0
LINE
  5
521
100
AcDbEntity
  8
0
100
AcDbLine
 62
7
  6
CONTINUOUS
 10
2.5150500049
 20
4.3733575316
 11
2.6567822884
 21
4.3733575316
  0
LINE
  5
522
100
AcDbEntity
  8
0
100
AcDbLine
 62
7
  6
CONTINUOUS
 10
2.7394594537
 20
4.4757197363
 11
2.7493019734
 21
4.4757197363
  0
LINE
  5
523
100
AcDbEntity
  8
0
100
AcDbLine
 62
7
  6
CONTINUOUS
 10
1.6882783514
 20
5.0564283977
 11
1.6489082726
 21
5.0957984765
  0
LINE
  5
524
100
AcDbEntity
  8
0
100
AcDbLine
 62
7
  6
CONTINUOUS
 10
2.6567822884
 20
4.5150898151
 11
2.5150500049
 21
4.5150898151
  0
LINE
  5
525
100
AcDbEntity
  8
0
100
AcDbLine
 62
7
  6
CONTINUOUS
 10
2.4756799262
 20
4.5150898151
 11
2.3339476427
 21
4.5150898151
  0
LINE
  5
526
100
AcDbEntity
  8
0
100
AcDbLine
 62
7
  6
CONTINUOUS
 10
2.294577564
 20
4.5150898151
 11
2.1528452805
 21
4.5150898151
  0
LINE
  5
527
100
AcDbEntity
  8
0
100
AcDbLine
 62
7
  6
CONTINUOUS
 10
2.1134752018
 20
4.5150898151
 11
1.9717429183
 21
4.5150898151
  0
LINE
  5
528
100
AcDbEntity
  8
0
100
AcDbLine
 62
7
  6
CONTINUOUS
 10
1.9323728396
 20
4.5150898151
 11
1.7906405561
 21
4.5150898151
  0
LINE
  5
529
100
AcDbEntity
  8
0
100
AcDbLine
 62
7
  6
CONTINUOUS
 10
1.7512704774
 20
4.5150898151
 11
1.6095381939
 21
4.5150898151
  0
LINE
  5
52A
100
AcDbEntity
  8
0
100
AcDbLine
 62
7
  6
CONTINUOUS
 10
1.5701681152
 20
4.5150898151
 11
1.4284358317
 21
4.5150898151
  0
LINE
  5
52B
100
AcDbEntity
  8
0
100
AcDbLine
 62
7
  6
CONTINUOUS
 10
1.389065753
 20
4.5150898151
 11
1.2473334695
 21
4.5150898151
  0
LINE
  5
52C
100
AcDbEntity
  8
0
100
AcDbLine
 62
7
  6
CONTINUOUS
 10
1.2473334695
 20
4.5544598938
 11
1.389065753
 21
4.5544598938
  0
LINE
  5
52D
100
AcDbEntity
  8
0
100
AcDbLine
 62
7
  6
CONTINUOUS
 10
1.4284358317
 20
4.5544598938
 11
1.5701681152
 21
4.5544598938
  0
LINE
  5
52E
100
AcDbEntity
  8
0
100
AcDbLine
 62
7
  6
CONTINUOUS
 10
1.6095381939
 20
4.5544598938
 11
1.7512704774
 21
4.5544598938
  0
LINE
  5
52F
100
AcDbEntity
  8
0
100
AcDbLine
 62
7
  6
CONTINUOUS
 10
1.7906405561
 20
4.5544598938
 11
1.9323728396
 21
4.5544598938
  0
LINE
  5
530
100
AcDbEntity
  8
0
100
AcDbLine
 62
7
  6
CONTINUOUS
 10
1.9717429183
 20
4.5544598938
 11
2.1134752018
 21
4.5544598938
  0
LINE
  5
531
100
AcDbEntity
  8
0
100
AcDbLine
 62
7
  6
CONTINUOUS
 10
2.1528452805
 20
4.5544598938
 11
2.294577564
 21
4.5544598938
  0
LINE
  5
532
100
AcDbEntity
  8
0
100
AcDbLine
 62
7
  6
CONTINUOUS
 10
2.3339476427
 20
4.5544598938
 11
2.4756799262
 21
4.5544598938
  0
LINE
  5
533
100
AcDbEntity
  8
0
100
AcDbLine
 62
7
  6
CONTINUOUS
 10
2.5150500049
 20
4.5544598938
 11
2.6567822884
 21
4.5544598938
  0
LINE
  5
534
100
AcDbEntity
  8
0
100
AcDbLine
 62
7
  6
CONTINUOUS
 10
1.4599318947
 20
5.391074067
 11
1.4993019734
 21
5.3517039883
  0
LINE
  5
535
100
AcDbEntity
  8
0
100
AcDbLine
 62
7
  6
CONTINUOUS
 10
1.9402468553
 20
5.0564283977
 11
1.9008767766
 21
5.0957984765
  0
LINE
  5
536
100
AcDbEntity
  8
0
100
AcDbLine
 62
7
  6
CONTINUOUS
 10
2.6567822884
 20
4.6961921773
 11
2.5150500049
 21
4.6961921773
  0
LINE
  5
537
100
AcDbEntity
  8
0
100
AcDbLine
 62
7
  6
CONTINUOUS
 10
2.4756799262
 20
4.6961921773
 11
2.3339476427
 21
4.6961921773
  0
LINE
  5
538
100
AcDbEntity
  8
0
100
AcDbLine
 62
7
  6
CONTINUOUS
 10
2.294577564
 20
4.6961921773
 11
2.1528452805
 21
4.6961921773
  0
LINE
  5
539
100
AcDbEntity
  8
0
100
AcDbLine
 62
7
  6
CONTINUOUS
 10
2.1134752018
 20
4.6961921773
 11
1.9717429183
 21
4.6961921773
  0
LINE
  5
53A
100
AcDbEntity
  8
0
100
AcDbLine
 62
7
  6
CONTINUOUS
 10
1.9323728396
 20
4.6961921773
 11
1.7906405561
 21
4.6961921773
  0
LINE
  5
53B
100
AcDbEntity
  8
0
100
AcDbLine
 62
7
  6
CONTINUOUS
 10
1.7512704774
 20
4.6961921773
 11
1.6095381939
 21
4.6961921773
  0
LINE
  5
53C
100
AcDbEntity
  8
0
100
AcDbLine
 62
7
  6
CONTINUOUS
 10
1.5701681152
 20
4.6961921773
 11
1.4284358317
 21
4.6961921773
  0
LINE
  5
53D
100
AcDbEntity
  8
0
100
AcDbLine
 62
7
  6
CONTINUOUS
 10
1.389065753
 20
4.6961921773
 11
1.2473334695
 21
4.6961921773
  0
LINE
  5
53E
100
AcDbEntity
  8
0
100
AcDbLine
 62
7
  6
CONTINUOUS
 10
1.2473334695
 20
4.735562256
 11
1.389065753
 21
4.735562256
  0
LINE
  5
53F
100
AcDbEntity
  8
0
100
AcDbLine
 62
7
  6
CONTINUOUS
 10
1.4284358317
 20
4.735562256
 11
1.5701681152
 21
4.735562256
  0
LINE
  5
540
100
AcDbEntity
  8
0
100
AcDbLine
 62
7
  6
CONTINUOUS
 10
1.6095381939
 20
4.735562256
 11
1.7512704774
 21
4.735562256
  0
LINE
  5
541
100
AcDbEntity
  8
0
100
AcDbLine
 62
7
  6
CONTINUOUS
 10
1.7906405561
 20
4.735562256
 11
1.9323728396
 21
4.735562256
  0
LINE
  5
542
100
AcDbEntity
  8
0
100
AcDbLine
 62
7
  6
CONTINUOUS
 10
1.9717429183
 20
4.735562256
 11
2.1134752018
 21
4.735562256
  0
LINE
  5
543
100
AcDbEntity
  8
0
100
AcDbLine
 62
7
  6
CONTINUOUS
 10
2.1528452805
 20
4.735562256
 11
2.294577564
 21
4.735562256
  0
LINE
  5
544
100
AcDbEntity
  8
0
100
AcDbLine
 62
7
  6
CONTINUOUS
 10
2.3339476427
 20
4.735562256
 11
2.4756799262
 21
4.735562256
  0
LINE
  5
545
100
AcDbEntity
  8
0
100
AcDbLine
 62
7
  6
CONTINUOUS
 10
2.5150500049
 20
4.735562256
 11
2.6567822884
 21
4.735562256
  0
LINE
  5
546
100
AcDbEntity
  8
0
100
AcDbLine
 62
7
  6
CONTINUOUS
 10
1.7119003986
 20
5.391074067
 11
1.7512704774
 21
5.3517039883
  0
LINE
  5
547
100
AcDbEntity
  8
0
100
AcDbLine
 62
7
  6
CONTINUOUS
 10
2.1922153593
 20
5.0564283977
 11
2.1528452805
 21
5.0957984765
  0
LINE
  5
548
100
AcDbEntity
  8
0
100
AcDbLine
 62
7
  6
CONTINUOUS
 10
1.2473334695
 20
4.8694205237
 11
1.389065753
 21
4.8694205237
  0
LINE
  5
549
100
AcDbEntity
  8
0
100
AcDbLine
 62
7
  6
CONTINUOUS
 10
1.4284358317
 20
4.8694205237
 11
1.5701681152
 21
4.8694205237
  0
LINE
  5
54A
100
AcDbEntity
  8
0
100
AcDbLine
 62
7
  6
CONTINUOUS
 10
1.6095381939
 20
4.8694205237
 11
1.7512704774
 21
4.8694205237
  0
LINE
  5
54B
100
AcDbEntity
  8
0
100
AcDbLine
 62
7
  6
CONTINUOUS
 10
1.7906405561
 20
4.8694205237
 11
1.9323728396
 21
4.8694205237
  0
LINE
  5
54C
100
AcDbEntity
  8
0
100
AcDbLine
 62
7
  6
CONTINUOUS
 10
1.9717429183
 20
4.8694205237
 11
2.1134752018
 21
4.8694205237
  0
LINE
  5
54D
100
AcDbEntity
  8
0
100
AcDbLine
 62
7
  6
CONTINUOUS
 10
2.1528452805
 20
4.8694205237
 11
2.294577564
 21
4.8694205237
  0
LINE
  5
54E
100
AcDbEntity
  8
0
100
AcDbLine
 62
7
  6
CONTINUOUS
 10
2.3339476427
 20
4.8694205237
 11
2.4756799262
 21
4.8694205237
  0
LINE
  5
54F
100
AcDbEntity
  8
0
100
AcDbLine
 62
7
  6
CONTINUOUS
 10
2.5150500049
 20
4.8694205237
 11
2.6567822884
 21
4.8694205237
  0
LINE
  5
550
100
AcDbEntity
  8
0
100
AcDbLine
 62
7
  6
CONTINUOUS
 10
2.6567822884
 20
4.9087906025
 11
2.5150500049
 21
4.9087906025
  0
LINE
  5
551
100
AcDbEntity
  8
0
100
AcDbLine
 62
7
  6
CONTINUOUS
 10
1.389065753
 20
4.9087906025
 11
1.2473334695
 21
4.9087906025
  0
LINE
  5
552
100
AcDbEntity
  8
0
100
AcDbLine
 62
7
  6
CONTINUOUS
 10
1.9638689026
 20
5.391074067
 11
2.0032389813
 21
5.3517039883
  0
LINE
  5
553
100
AcDbEntity
  8
0
100
AcDbLine
 62
7
  6
CONTINUOUS
 10
2.4441838632
 20
5.0564283977
 11
2.4048137844
 21
5.0957984765
  0
LINE
  5
554
100
AcDbEntity
  8
0
100
AcDbLine
 62
7
  6
CONTINUOUS
 10
2.4835539419
 20
5.0072157993
 11
1.4205618159
 21
5.0072157993
  0
LINE
  5
555
100
AcDbEntity
  8
0
100
AcDbLine
 62
7
  6
CONTINUOUS
 10
1.2473334695
 20
5.0505228859
 11
1.389065753
 21
5.0505228859
  0
LINE
  5
556
100
AcDbEntity
  8
0
100
AcDbLine
 62
7
  6
CONTINUOUS
 10
2.5150500049
 20
5.0505228859
 11
2.6567822884
 21
5.0505228859
  0
LINE
  5
557
100
AcDbEntity
  8
0
100
AcDbLine
 62
7
  6
CONTINUOUS
 10
2.4441838632
 20
5.0564283977
 11
2.2158374065
 21
5.0564283977
  0
LINE
  5
558
100
AcDbEntity
  8
0
100
AcDbLine
 62
7
  6
CONTINUOUS
 10
2.1922153593
 20
5.0564283977
 11
1.9638689026
 21
5.0564283977
  0
LINE
  5
559
100
AcDbEntity
  8
0
100
AcDbLine
 62
7
  6
CONTINUOUS
 10
1.9402468553
 20
5.0564283977
 11
1.7119003986
 21
5.0564283977
  0
LINE
  5
55A
100
AcDbEntity
  8
0
100
AcDbLine
 62
7
  6
CONTINUOUS
 10
1.6882783514
 20
5.0564283977
 11
1.4599318947
 21
5.0564283977
  0
LINE
  5
55B
100
AcDbEntity
  8
0
100
AcDbLine
 62
7
  6
CONTINUOUS
 10
2.6567822884
 20
5.0898929647
 11
2.5150500049
 21
5.0898929647
  0
LINE
  5
55C
100
AcDbEntity
  8
0
100
AcDbLine
 62
7
  6
CONTINUOUS
 10
1.389065753
 20
5.0898929647
 11
1.2473334695
 21
5.0898929647
  0
LINE
  5
55D
100
AcDbEntity
  8
0
100
AcDbLine
 62
7
  6
CONTINUOUS
 10
2.4048137844
 20
5.0957984765
 11
2.2552074852
 21
5.0957984765
  0
LINE
  5
55E
100
AcDbEntity
  8
0
100
AcDbLine
 62
7
  6
CONTINUOUS
 10
2.1528452805
 20
5.0957984765
 11
2.0032389813
 21
5.0957984765
  0
LINE
  5
55F
100
AcDbEntity
  8
0
100
AcDbLine
 62
7
  6
CONTINUOUS
 10
1.9008767766
 20
5.0957984765
 11
1.7512704774
 21
5.0957984765
  0
LINE
  5
560
100
AcDbEntity
  8
0
100
AcDbLine
 62
7
  6
CONTINUOUS
 10
1.6489082726
 20
5.0957984765
 11
1.4993019734
 21
5.0957984765
  0
LINE
  5
561
100
AcDbEntity
  8
0
100
AcDbLine
 62
7
  6
CONTINUOUS
 10
2.2158374065
 20
5.391074067
 11
2.2552074852
 21
5.3517039883
  0
LINE
  5
562
100
AcDbEntity
  8
0
100
AcDbLine
 62
7
  6
CONTINUOUS
 10
1.2473334695
 20
5.2316252481
 11
1.389065753
 21
5.2316252481
  0
LINE
  5
563
100
AcDbEntity
  8
0
100
AcDbLine
 62
7
  6
CONTINUOUS
 10
2.5150500049
 20
5.2316252481
 11
2.6567822884
 21
5.2316252481
  0
LINE
  5
564
100
AcDbEntity
  8
0
100
AcDbLine
 62
7
  6
CONTINUOUS
 10
2.6567822884
 20
5.2709953269
 11
2.5150500049
 21
5.2709953269
  0
LINE
  5
565
100
AcDbEntity
  8
0
100
AcDbLine
 62
7
  6
CONTINUOUS
 10
1.389065753
 20
5.2709953269
 11
1.2473334695
 21
5.2709953269
  0
LINE
  5
566
100
AcDbEntity
  8
0
100
AcDbLine
 62
7
  6
CONTINUOUS
 10
1.4993019734
 20
5.3517039883
 11
1.6489082726
 21
5.3517039883
  0
LINE
  5
567
100
AcDbEntity
  8
0
100
AcDbLine
 62
7
  6
CONTINUOUS
 10
1.7512704774
 20
5.3517039883
 11
1.9008767766
 21
5.3517039883
  0
LINE
  5
568
100
AcDbEntity
  8
0
100
AcDbLine
 62
7
  6
CONTINUOUS
 10
2.0032389813
 20
5.3517039883
 11
2.1528452805
 21
5.3517039883
  0
LINE
  5
569
100
AcDbEntity
  8
0
100
AcDbLine
 62
7
  6
CONTINUOUS
 10
2.2552074852
 20
5.3517039883
 11
2.4048137844
 21
5.3517039883
  0
LINE
  5
56A
100
AcDbEntity
  8
0
100
AcDbLine
 62
7
  6
CONTINUOUS
 10
1.4599318947
 20
5.391074067
 11
1.6882783514
 21
5.391074067
  0
LINE
  5
56B
100
AcDbEntity
  8
0
100
AcDbLine
 62
7
  6
CONTINUOUS
 10
1.7119003986
 20
5.391074067
 11
1.9402468553
 21
5.391074067
  0
LINE
  5
56C
100
AcDbEntity
  8
0
100
AcDbLine
 62
7
  6
CONTINUOUS
 10
1.9638689026
 20
5.391074067
 11
2.1922153593
 21
5.391074067
  0
LINE
  5
56D
100
AcDbEntity
  8
0
100
AcDbLine
 62
7
  6
CONTINUOUS
 10
2.2158374065
 20
5.391074067
 11
2.4441838632
 21
5.391074067
  0
LINE
  5
56E
100
AcDbEntity
  8
0
100
AcDbLine
 62
7
  6
CONTINUOUS
 10
1.2473334695
 20
5.4127276103
 11
1.389065753
 21
5.4127276103
  0
LINE
  5
56F
100
AcDbEntity
  8
0
100
AcDbLine
 62
7
  6
CONTINUOUS
 10
2.5150500049
 20
5.4127276103
 11
2.6567822884
 21
5.4127276103
  0
LINE
  5
570
100
AcDbEntity
  8
0
100
AcDbLine
 62
7
  6
CONTINUOUS
 10
1.4205618159
 20
5.4402866655
 11
2.4835539419
 21
5.4402866655
  0
LINE
  5
571
100
AcDbEntity
  8
0
100
AcDbLine
 62
7
  6
CONTINUOUS
 10
2.4835539419
 20
5.6765071379
 11
1.4205618159
 21
5.6765071379
  0
LINE
  5
572
100
AcDbEntity
  8
0
100
AcDbLine
 62
7
  6
CONTINUOUS
 10
2.7394594537
 20
5.6961921773
 11
2.4835539419
 21
5.6961921773
  0
LINE
  5
573
100
AcDbEntity
  8
0
100
AcDbLine
 62
7
  6
CONTINUOUS
 10
1.4205618159
 20
5.6961921773
 11
1.1646563041
 21
5.6961921773
  0
LINE
  5
574
100
AcDbEntity
  8
0
100
AcDbLine
 62
7
  6
CONTINUOUS
 10
1.1843413435
 20
5.7013359451
 11
1.4205618159
 21
5.7013359451
  0
LINE
  5
575
100
AcDbEntity
  8
0
100
AcDbLine
 62
7
  6
CONTINUOUS
 10
2.4835539419
 20
5.7013359451
 11
2.7197744144
 21
5.7013359451
  0
LINE
  5
576
100
AcDbEntity
  8
0
100
AcDbLine
 62
7
  6
CONTINUOUS
 10
2.7197744144
 20
5.7115057802
 11
2.4835539419
 21
5.7115057802
  0
LINE
  5
577
100
AcDbEntity
  8
0
100
AcDbLine
 62
7
  6
CONTINUOUS
 10
1.4205618159
 20
5.7115057802
 11
1.1843413435
 21
5.7115057802
  0
LINE
  5
578
100
AcDbEntity
  8
0
100
AcDbLine
 62
7
  6
CONTINUOUS
 10
2.4835539419
 20
5.8339874529
 11
1.4205618159
 21
5.8339874529
  0
LINE
  5
579
100
AcDbEntity
  8
0
100
AcDbLine
 62
7
  6
CONTINUOUS
 10
1.5189870128
 20
5.8913033966
 11
1.8733177215
 21
5.8913033966
  0
LINE
  5
57A
100
AcDbEntity
  8
0
100
AcDbLine
 62
7
  6
CONTINUOUS
 10
1.8733177215
 20
5.9717827285
 11
1.5189870128
 21
5.9717827285
  0
LINE
  5
57B
100
AcDbEntity
  8
0
100
AcDbLine
 62
7
  6
CONTINUOUS
 10
2.7197744144
 20
6.0111528072
 11
2.7394594537
 21
6.0111528072
  0
LINE
  5
57C
100
AcDbEntity
  8
0
100
AcDbLine
 62
7
  6
CONTINUOUS
 10
1.1646563041
 20
6.0111528072
 11
2.168593312
 21
6.0112485119
  0
LINE
  5
57D
100
AcDbEntity
  8
0
100
AcDbLine
 62
7
  6
CONTINUOUS
 10
2.168593312
 20
6.0121148477
 11
1.1843413435
 21
6.0121148477
  0
LINE
  5
57E
100
AcDbEntity
  8
0
100
AcDbLine
 62
7
  6
CONTINUOUS
 10
1.1843413435
 20
6.0209953269
 11
2.7000395375
 21
6.0209953269
  0
LINE
  5
57F
100
AcDbEntity
  8
0
100
AcDbLine
 62
7
  6
CONTINUOUS
 10
11.8181512755
 20
9.0389959608
 11
12.5698002161
 21
9.473342032
  0
LINE
  5
580
100
AcDbEntity
  8
0
100
AcDbLine
 62
7
  6
CONTINUOUS
 10
11.8459901251
 20
9.0389959608
 11
12.5698002161
 21
9.4572551404
  0
LINE
  5
581
100
AcDbEntity
  8
0
100
AcDbLine
 62
7
  6
CONTINUOUS
 10
11.5815210534
 20
8.8541450448
 11
11.7624735762
 21
8.9587098397
  0
LINE
  5
582
100
AcDbEntity
  8
0
100
AcDbLine
 62
7
  6
CONTINUOUS
 10
12.6114301402
 20
9.449285863
 11
12.6950750396
 21
9.4976207058
  0
LINE
  5
583
100
AcDbEntity
  8
0
100
AcDbLine
 62
7
  6
CONTINUOUS
 10
11.6093599031
 20
8.8666430518
 11
11.776393001
 21
8.9631644009
  0
LINE
  5
584
100
AcDbEntity
  8
0
100
AcDbLine
 62
7
  6
CONTINUOUS
 10
12.6145354765
 20
9.4474914207
 11
12.6950750396
 21
9.4940318213
  0
LINE
  5
585
100
AcDbEntity
  8
0
100
AcDbLine
 62
7
  6
CONTINUOUS
 10
12.736833314
 20
9.3607337913
 11
12.0130232231
 21
8.9424746116
  0
LINE
  5
586
100
AcDbEntity
  8
0
100
AcDbLine
 62
7
  6
CONTINUOUS
 10
12.7646721637
 20
9.3607337913
 11
12.0130232231
 21
8.9263877201
  0
LINE
  5
587
100
AcDbEntity
  8
0
100
AcDbLine
 62
7
  6
CONTINUOUS
 10
12.0130232231
 20
8.8922162925
 11
12.7646721637
 21
9.3265623637
  0
LINE
  5
588
100
AcDbEntity
  8
0
100
AcDbLine
 62
7
  6
CONTINUOUS
 10
12.8064304382
 20
9.079064853
 11
13.0569800851
 21
9.2238468768
  0
LINE
  5
589
100
AcDbEntity
  8
0
100
AcDbLine
 62
7
  6
CONTINUOUS
 10
13.2657714574
 20
9.1353265915
 11
13.0152218106
 21
8.9905445678
  0
LINE
  5
58A
100
AcDbEntity
  8
0
100
AcDbLine
 62
7
  6
CONTINUOUS
 10
13.0152218106
 20
8.9288636209
 11
13.2657714574
 21
9.0736456446
  0
LINE
  5
58B
100
AcDbEntity
  8
0
100
AcDbLine
 62
7
  6
CONTINUOUS
 10
11.5815210534
 20
5.5446107228
 11
11.5815210534
 21
8.8541450448
  0
LINE
  5
58C
100
AcDbEntity
  8
0
100
AcDbLine
 62
7
  6
CONTINUOUS
 10
11.6093599031
 20
8.8583430671
 11
11.6093599031
 21
8.8666430518
  0
LINE
  5
58D
100
AcDbEntity
  8
0
100
AcDbLine
 62
7
  6
CONTINUOUS
 10
11.8181512755
 20
9.0389959608
 11
11.8181512755
 21
8.9513971817
  0
LINE
  5
58E
100
AcDbEntity
  8
0
100
AcDbLine
 62
7
  6
CONTINUOUS
 10
14.100936947
 20
8.9262751099
 11
13.4049657057
 21
8.5241028217
  0
LINE
  5
58F
100
AcDbEntity
  8
0
100
AcDbLine
 62
7
  6
CONTINUOUS
 10
13.4049657057
 20
8.5160618211
 11
14.100936947
 21
8.9182341093
  0
LINE
  5
590
100
AcDbEntity
  8
0
100
AcDbLine
 62
7
  6
CONTINUOUS
 10
13.4188851305
 20
8.5167664252
 11
14.1148563719
 21
8.9189387134
  0
LINE
  5
591
100
AcDbEntity
  8
0
100
AcDbLine
 62
7
  6
CONTINUOUS
 10
13.9199844243
 20
3.881658434
 11
13.8225484505
 21
3.9379625544
  0
LINE
  5
592
100
AcDbEntity
  8
0
100
AcDbLine
 62
7
  6
CONTINUOUS
 10
12.903866412
 20
4.4688299747
 11
12.7089944644
 21
4.5814382154
  0
LINE
  5
593
100
AcDbEntity
  8
0
100
AcDbLine
 62
7
  6
CONTINUOUS
 10
12.7994707258
 20
4.6183204562
 11
12.8551484251
 21
4.5861466732
  0
LINE
  5
594
100
AcDbEntity
  8
0
100
AcDbLine
 62
7
  6
CONTINUOUS
 10
13.8225484505
 20
4.0801440046
 11
13.4021742987
 21
4.3230604133
  0
LINE
  5
595
100
AcDbEntity
  8
0
100
AcDbLine
 62
7
  6
CONTINUOUS
 10
12.8551484251
 20
4.6399667702
 11
12.7994707258
 21
4.6721405532
  0
LINE
  5
596
100
AcDbEntity
  8
0
100
AcDbLine
 62
7
  6
CONTINUOUS
 10
12.7994707258
 20
4.7364033556
 11
12.8551484251
 21
4.7042295725
  0
LINE
  5
597
100
AcDbEntity
  8
0
100
AcDbLine
 62
7
  6
CONTINUOUS
 10
13.460643405
 20
4.3696020974
 11
13.7390319015
 21
4.2087331822
  0
LINE
  5
598
100
AcDbEntity
  8
0
100
AcDbLine
 62
7
  6
CONTINUOUS
 10
11.9038412032
 20
9.0055662742
 11
11.9038412032
 21
9.0430176837
  0
LINE
  5
599
100
AcDbEntity
  8
0
100
AcDbLine
 62
7
  6
CONTINUOUS
 10
12.0002978961
 20
9.0286631497
 11
12.0002978961
 21
8.9935699502
  0
LINE
  5
59A
100
AcDbEntity
  8
0
100
AcDbLine
 62
7
  6
CONTINUOUS
 10
12.0130232231
 20
8.9263877201
 11
12.0130232231
 21
8.8922162925
  0
LINE
  5
59B
100
AcDbEntity
  8
0
100
AcDbLine
 62
7
  6
CONTINUOUS
 10
12.0396679748
 20
8.9935505818
 11
12.0396679748
 21
9.0286631497
  0
LINE
  5
59C
100
AcDbEntity
  8
0
100
AcDbLine
 62
7
  6
CONTINUOUS
 10
12.0847937259
 20
9.0979460812
 11
12.0847937259
 21
9.1475824786
  0
LINE
  5
59D
100
AcDbEntity
  8
0
100
AcDbLine
 62
7
  6
CONTINUOUS
 10
12.7994707258
 20
4.7765676071
 11
13.3464965994
 21
4.4604645352
  0
LINE
  5
59E
100
AcDbEntity
  8
0
100
AcDbLine
 62
7
  6
CONTINUOUS
 10
14.1426952215
 20
4.0164407915
 11
13.9199844243
 21
4.1451359237
  0
LINE
  5
59F
100
AcDbEntity
  8
0
100
AcDbLine
 62
7
  6
CONTINUOUS
 10
12.7089944644
 20
4.8449157051
 11
12.4862836672
 21
4.9736108373
  0
LINE
  5
5A0
100
AcDbEntity
  8
0
100
AcDbLine
 62
7
  6
CONTINUOUS
 10
15.0335384104
 20
3.5498361735
 11
11.5815210534
 21
5.5446107228
  0
LINE
  5
5A1
100
AcDbEntity
  8
0
100
AcDbLine
 62
7
  6
CONTINUOUS
 10
14.7481902015
 20
3.8352089707
 11
13.4119254181
 21
4.6073797639
  0
LINE
  5
5A2
100
AcDbEntity
  8
0
100
AcDbLine
 62
7
  6
CONTINUOUS
 10
15.5207182793
 20
3.4231820255
 11
15.1675389385
 21
3.6272694004
  0
LINE
  5
5A3
100
AcDbEntity
  8
0
100
AcDbLine
 62
7
  6
CONTINUOUS
 10
12.8551484251
 20
4.5861466732
 11
12.903866412
 21
4.5178303615
  0
LINE
  5
5A4
100
AcDbEntity
  8
0
100
AcDbLine
 62
7
  6
CONTINUOUS
 10
12.1361246678
 20
9.01360972
 11
12.1361246678
 21
9.0430176837
  0
LINE
  5
5A5
100
AcDbEntity
  8
0
100
AcDbLine
 62
7
  6
CONTINUOUS
 10
12.1812504189
 20
9.1332279447
 11
12.1812504189
 21
9.0981347451
  0
LINE
  5
5A6
100
AcDbEntity
  8
0
100
AcDbLine
 62
7
  6
CONTINUOUS
 10
12.2206204976
 20
9.0981153768
 11
12.2206204976
 21
9.1332279447
  0
LINE
  5
5A7
100
AcDbEntity
  8
0
100
AcDbLine
 62
7
  6
CONTINUOUS
 10
12.2657462487
 20
9.2025108762
 11
12.2657462487
 21
9.2521472735
  0
LINE
  5
5A8
100
AcDbEntity
  8
0
100
AcDbLine
 62
7
  6
CONTINUOUS
 10
12.3170771905
 20
9.1181745149
 11
12.3170771905
 21
9.1475824786
  0
LINE
  5
5A9
100
AcDbEntity
  8
0
100
AcDbLine
 62
7
  6
CONTINUOUS
 10
12.3622029416
 20
9.2377927396
 11
12.3622029416
 21
9.20269954
  0
LINE
  5
5AA
100
AcDbEntity
  8
0
100
AcDbLine
 62
7
  6
CONTINUOUS
 10
12.8064304382
 20
9.079064853
 11
12.80309101
 21
9.0615517228
  0
LINE
  5
5AB
100
AcDbEntity
  8
0
100
AcDbLine
 62
7
  6
CONTINUOUS
 10
15.1783004286
 20
3.7941450154
 11
15.1643810038
 21
3.8021884612
  0
LINE
  5
5AC
100
AcDbEntity
  8
0
100
AcDbLine
 62
7
  6
CONTINUOUS
 10
15.4233189771
 20
3.7750738458
 11
15.5207182793
 21
3.7187909164
  0
LINE
  5
5AD
100
AcDbEntity
  8
0
100
AcDbLine
 62
7
  6
CONTINUOUS
 10
15.1783004286
 20
3.9419494609
 11
15.1643810038
 21
3.9499929066
  0
LINE
  5
5AE
100
AcDbEntity
  8
0
100
AcDbLine
 62
7
  6
CONTINUOUS
 10
15.306359137
 20
3.8681447164
 11
15.2924397122
 21
3.8761881622
  0
LINE
  5
5AF
100
AcDbEntity
  8
0
100
AcDbLine
 62
7
  6
CONTINUOUS
 10
12.4015730203
 20
9.2026801717
 11
12.4015730203
 21
9.2377927396
  0
LINE
  5
5B0
100
AcDbEntity
  8
0
100
AcDbLine
 62
7
  6
CONTINUOUS
 10
12.4466987714
 20
9.3070756711
 11
12.4466987714
 21
9.3567120684
  0
LINE
  5
5B1
100
AcDbEntity
  8
0
100
AcDbLine
 62
7
  6
CONTINUOUS
 10
12.4862836672
 20
4.9736108373
 11
12.4862836672
 21
5.0217867482
  0
LINE
  5
5B2
100
AcDbEntity
  8
0
100
AcDbLine
 62
7
  6
CONTINUOUS
 10
12.4980297132
 20
9.2227393098
 11
12.4980297132
 21
9.2521472735
  0
LINE
  5
5B3
100
AcDbEntity
  8
0
100
AcDbLine
 62
7
  6
CONTINUOUS
 10
12.5431554643
 20
9.3423575345
 11
12.5431554643
 21
9.307264335
  0
LINE
  5
5B4
100
AcDbEntity
  8
0
100
AcDbLine
 62
7
  6
CONTINUOUS
 10
12.5698002161
 20
9.4230182988
 11
12.5698002161
 21
9.4572551404
  0
LINE
  5
5B5
100
AcDbEntity
  8
0
100
AcDbLine
 62
7
  6
CONTINUOUS
 10
12.5825255431
 20
9.3072449666
 11
12.5825255431
 21
9.3423575345
  0
LINE
  5
5B6
100
AcDbEntity
  8
0
100
AcDbLine
 62
7
  6
CONTINUOUS
 10
15.1783004286
 20
4.0897539063
 11
15.1643810038
 21
4.0977973521
  0
LINE
  5
5B7
100
AcDbEntity
  8
0
100
AcDbLine
 62
7
  6
CONTINUOUS
 10
15.306359137
 20
4.0159491619
 11
15.2924397122
 21
4.0239926076
  0
LINE
  5
5B8
100
AcDbEntity
  8
0
100
AcDbLine
 62
7
  6
CONTINUOUS
 10
15.4344178454
 20
3.9421444174
 11
15.4204984206
 21
3.9501878632
  0
LINE
  5
5B9
100
AcDbEntity
  8
0
100
AcDbLine
 62
7
  6
CONTINUOUS
 10
15.1783004286
 20
4.2375583517
 11
15.1643810038
 21
4.2456017975
  0
LINE
  5
5BA
100
AcDbEntity
  8
0
100
AcDbLine
 62
7
  6
CONTINUOUS
 10
15.306359137
 20
4.1637536073
 11
15.2924397122
 21
4.1717970531
  0
LINE
  5
5BB
100
AcDbEntity
  8
0
100
AcDbLine
 62
7
  6
CONTINUOUS
 10
15.4344178454
 20
4.0899488629
 11
15.4204984206
 21
4.0979923087
  0
LINE
  5
5BC
100
AcDbEntity
  8
0
100
AcDbLine
 62
7
  6
CONTINUOUS
 10
15.5624765538
 20
4.0161441185
 11
15.548557129
 21
4.0241875642
  0
LINE
  5
5BD
100
AcDbEntity
  8
0
100
AcDbLine
 62
7
  6
CONTINUOUS
 10
15.7295463233
 20
3.9520296526
 11
15.8269456255
 21
3.8957467232
  0
LINE
  5
5BE
100
AcDbEntity
  8
0
100
AcDbLine
 62
7
  6
CONTINUOUS
 10
13.4021742987
 20
4.3230604133
 11
13.3938226438
 21
4.3384095147
  0
LINE
  5
5BF
100
AcDbEntity
  8
0
100
AcDbLine
 62
7
  6
CONTINUOUS
 10
13.4096121593
 20
4.3444675098
 11
13.3464965994
 21
4.4604645352
  0
LINE
  5
5C0
100
AcDbEntity
  8
0
100
AcDbLine
 62
7
  6
CONTINUOUS
 10
13.3898942925
 20
4.4996284589
 11
13.460643405
 21
4.3696020974
  0
LINE
  5
5C1
100
AcDbEntity
  8
0
100
AcDbLine
 62
7
  6
CONTINUOUS
 10
12.678982236
 20
9.3273041048
 11
12.678982236
 21
9.3567120684
  0
LINE
  5
5C2
100
AcDbEntity
  8
0
100
AcDbLine
 62
7
  6
CONTINUOUS
 10
12.7089944644
 20
4.5814382154
 11
12.7089944644
 21
4.8449157051
  0
LINE
  5
5C3
100
AcDbEntity
  8
0
100
AcDbLine
 62
7
  6
CONTINUOUS
 10
12.7646721637
 20
9.3607337913
 11
12.7646721637
 21
9.3265623637
  0
LINE
  5
5C4
100
AcDbEntity
  8
0
100
AcDbLine
 62
7
  6
CONTINUOUS
 10
12.7994707258
 20
4.7765676071
 11
12.7994707258
 21
4.7364033556
  0
LINE
  5
5C5
100
AcDbEntity
  8
0
100
AcDbLine
 62
7
  6
CONTINUOUS
 10
12.7994707258
 20
4.6721405532
 11
12.7994707258
 21
4.6183204562
  0
LINE
  5
5C6
100
AcDbEntity
  8
0
100
AcDbLine
 62
7
  6
CONTINUOUS
 10
12.8030777187
 20
8.9965505281
 11
12.8030777187
 21
9.0616181772
  0
LINE
  5
5C7
100
AcDbEntity
  8
0
100
AcDbLine
 62
7
  6
CONTINUOUS
 10
12.8551484251
 20
4.7042295725
 11
12.8551484251
 21
4.6399667702
  0
LINE
  5
5C8
100
AcDbEntity
  8
0
100
AcDbLine
 62
7
  6
CONTINUOUS
 10
15.1783004286
 20
4.3853627972
 11
15.1643810038
 21
4.393406243
  0
LINE
  5
5C9
100
AcDbEntity
  8
0
100
AcDbLine
 62
7
  6
CONTINUOUS
 10
15.306359137
 20
4.3115580528
 11
15.2924397122
 21
4.3196014985
  0
LINE
  5
5CA
100
AcDbEntity
  8
0
100
AcDbLine
 62
7
  6
CONTINUOUS
 10
15.4344178454
 20
4.2377533083
 11
15.4204984206
 21
4.2457967541
  0
LINE
  5
5CB
100
AcDbEntity
  8
0
100
AcDbLine
 62
7
  6
CONTINUOUS
 10
15.5624765538
 20
4.1639485639
 11
15.548557129
 21
4.1719920097
  0
LINE
  5
5CC
100
AcDbEntity
  8
0
100
AcDbLine
 62
7
  6
CONTINUOUS
 10
15.6905352622
 20
4.0901438195
 11
15.6766158374
 21
4.0981872652
  0
LINE
  5
5CD
100
AcDbEntity
  8
0
100
AcDbLine
 62
7
  6
CONTINUOUS
 10
15.1783004286
 20
4.5331672426
 11
15.1643810038
 21
4.5412106884
  0
LINE
  5
5CE
100
AcDbEntity
  8
0
100
AcDbLine
 62
7
  6
CONTINUOUS
 10
15.306359137
 20
4.4593624982
 11
15.2924397122
 21
4.467405944
  0
LINE
  5
5CF
100
AcDbEntity
  8
0
100
AcDbLine
 62
7
  6
CONTINUOUS
 10
15.4344178454
 20
4.3855577538
 11
15.4204984206
 21
4.3936011995
  0
LINE
  5
5D0
100
AcDbEntity
  8
0
100
AcDbLine
 62
7
  6
CONTINUOUS
 10
15.5624765538
 20
4.3117530094
 11
15.548557129
 21
4.3197964551
  0
LINE
  5
5D1
100
AcDbEntity
  8
0
100
AcDbLine
 62
7
  6
CONTINUOUS
 10
15.6905352622
 20
4.2379482649
 11
15.6766158374
 21
4.2459917107
  0
LINE
  5
5D2
100
AcDbEntity
  8
0
100
AcDbLine
 62
7
  6
CONTINUOUS
 10
15.8185939706
 20
4.1641435205
 11
15.8046745458
 21
4.1721869663
  0
LINE
  5
5D3
100
AcDbEntity
  8
0
100
AcDbLine
 62
7
  6
CONTINUOUS
 10
12.903866412
 20
4.5178303615
 11
12.903866412
 21
4.4688299747
  0
LINE
  5
5D4
100
AcDbEntity
  8
0
100
AcDbLine
 62
7
  6
CONTINUOUS
 10
13.0152218106
 20
8.9905445678
 11
13.0152218106
 21
8.9288636209
  0
LINE
  5
5D5
100
AcDbEntity
  8
0
100
AcDbLine
 62
7
  6
CONTINUOUS
 10
15.1783004286
 20
4.6809716881
 11
15.1643810038
 21
4.6890151339
  0
LINE
  5
5D6
100
AcDbEntity
  8
0
100
AcDbLine
 62
7
  6
CONTINUOUS
 10
15.306359137
 20
4.6071669437
 11
15.2924397122
 21
4.6152103894
  0
LINE
  5
5D7
100
AcDbEntity
  8
0
100
AcDbLine
 62
7
  6
CONTINUOUS
 10
15.4344178454
 20
4.5333621992
 11
15.4204984206
 21
4.541405645
  0
LINE
  5
5D8
100
AcDbEntity
  8
0
100
AcDbLine
 62
7
  6
CONTINUOUS
 10
15.5624765538
 20
4.4595574548
 11
15.548557129
 21
4.4676009006
  0
LINE
  5
5D9
100
AcDbEntity
  8
0
100
AcDbLine
 62
7
  6
CONTINUOUS
 10
15.6905352622
 20
4.3857527104
 11
15.6766158374
 21
4.3937961561
  0
LINE
  5
5DA
100
AcDbEntity
  8
0
100
AcDbLine
 62
7
  6
CONTINUOUS
 10
15.8185939706
 20
4.311947966
 11
15.8046745458
 21
4.3199914117
  0
LINE
  5
5DB
100
AcDbEntity
  8
0
100
AcDbLine
 62
7
  6
CONTINUOUS
 10
15.946652679
 20
4.2381432215
 11
15.9327332542
 21
4.2461866673
  0
LINE
  5
5DC
100
AcDbEntity
  8
0
100
AcDbLine
 62
7
  6
CONTINUOUS
 10
15.1783004286
 20
4.8287761335
 11
15.1643810038
 21
4.8368195793
  0
LINE
  5
5DD
100
AcDbEntity
  8
0
100
AcDbLine
 62
7
  6
CONTINUOUS
 10
15.306359137
 20
4.7549713891
 11
15.2924397122
 21
4.7630148349
  0
LINE
  5
5DE
100
AcDbEntity
  8
0
100
AcDbLine
 62
7
  6
CONTINUOUS
 10
15.4344178454
 20
4.6811666447
 11
15.4204984206
 21
4.6892100904
  0
LINE
  5
5DF
100
AcDbEntity
  8
0
100
AcDbLine
 62
7
  6
CONTINUOUS
 10
15.5624765538
 20
4.6073619003
 11
15.548557129
 21
4.615405346
  0
LINE
  5
5E0
100
AcDbEntity
  8
0
100
AcDbLine
 62
7
  6
CONTINUOUS
 10
15.6905352622
 20
4.5335571558
 11
15.6766158374
 21
4.5416006016
  0
LINE
  5
5E1
100
AcDbEntity
  8
0
100
AcDbLine
 62
7
  6
CONTINUOUS
 10
15.8185939706
 20
4.4597524114
 11
15.8046745458
 21
4.4677958572
  0
LINE
  5
5E2
100
AcDbEntity
  8
0
100
AcDbLine
 62
7
  6
CONTINUOUS
 10
15.946652679
 20
4.385947667
 11
15.9327332542
 21
4.3939911127
  0
LINE
  5
5E3
100
AcDbEntity
  8
0
100
AcDbLine
 62
7
  6
CONTINUOUS
 10
16.0607919626
 20
4.3201863683
 11
16.0747113874
 21
4.3121429225
  0
LINE
  5
5E4
100
AcDbEntity
  8
0
100
AcDbLine
 62
7
  6
CONTINUOUS
 10
13.2657714574
 20
9.0736456446
 11
13.2657714574
 21
9.1353265915
  0
LINE
  5
5E5
100
AcDbEntity
  8
0
100
AcDbLine
 62
7
  6
CONTINUOUS
 10
13.3137957777
 20
8.1262700175
 11
13.3137957777
 21
8.1343028729
  0
LINE
  5
5E6
100
AcDbEntity
  8
0
100
AcDbLine
 62
7
  6
CONTINUOUS
 10
15.1783004286
 20
4.976580579
 11
15.1643810038
 21
4.9846240247
  0
LINE
  5
5E7
100
AcDbEntity
  8
0
100
AcDbLine
 62
7
  6
CONTINUOUS
 10
15.306359137
 20
4.9027758346
 11
15.2924397122
 21
4.9108192803
  0
LINE
  5
5E8
100
AcDbEntity
  8
0
100
AcDbLine
 62
7
  6
CONTINUOUS
 10
15.4344178454
 20
4.8289710901
 11
15.4204984206
 21
4.8370145359
  0
LINE
  5
5E9
100
AcDbEntity
  8
0
100
AcDbLine
 62
7
  6
CONTINUOUS
 10
15.5624765538
 20
4.7551663457
 11
15.548557129
 21
4.7632097915
  0
LINE
  5
5EA
100
AcDbEntity
  8
0
100
AcDbLine
 62
7
  6
CONTINUOUS
 10
15.6905352622
 20
4.6813616013
 11
15.6766158374
 21
4.689405047
  0
LINE
  5
5EB
100
AcDbEntity
  8
0
100
AcDbLine
 62
7
  6
CONTINUOUS
 10
15.8185939706
 20
4.6075568568
 11
15.8046745458
 21
4.6156003026
  0
LINE
  5
5EC
100
AcDbEntity
  8
0
100
AcDbLine
 62
7
  6
CONTINUOUS
 10
15.946652679
 20
4.5337521124
 11
15.9327332542
 21
4.5417955582
  0
LINE
  5
5ED
100
AcDbEntity
  8
0
100
AcDbLine
 62
7
  6
CONTINUOUS
 10
16.0747113874
 20
4.459947368
 11
16.0607919626
 21
4.4679908138
  0
LINE
  5
5EE
100
AcDbEntity
  8
0
100
AcDbLine
 62
7
  6
CONTINUOUS
 10
15.1783004286
 20
5.1243850244
 11
15.1643810038
 21
5.1324284702
  0
LINE
  5
5EF
100
AcDbEntity
  8
0
100
AcDbLine
 62
7
  6
CONTINUOUS
 10
15.306359137
 20
5.05058028
 11
15.2924397122
 21
5.0586237258
  0
LINE
  5
5F0
100
AcDbEntity
  8
0
100
AcDbLine
 62
7
  6
CONTINUOUS
 10
15.4344178454
 20
4.9767755356
 11
15.4204984206
 21
4.9848189813
  0
LINE
  5
5F1
100
AcDbEntity
  8
0
100
AcDbLine
 62
7
  6
CONTINUOUS
 10
15.5624765538
 20
4.9029707911
 11
15.548557129
 21
4.9110142369
  0
LINE
  5
5F2
100
AcDbEntity
  8
0
100
AcDbLine
 62
7
  6
CONTINUOUS
 10
15.6905352622
 20
4.8291660467
 11
15.6766158374
 21
4.8372094925
  0
LINE
  5
5F3
100
AcDbEntity
  8
0
100
AcDbLine
 62
7
  6
CONTINUOUS
 10
15.8185939706
 20
4.7553613023
 11
15.8046745458
 21
4.7634047481
  0
LINE
  5
5F4
100
AcDbEntity
  8
0
100
AcDbLine
 62
7
  6
CONTINUOUS
 10
15.946652679
 20
4.6815565579
 11
15.9327332542
 21
4.6896000036
  0
LINE
  5
5F5
100
AcDbEntity
  8
0
100
AcDbLine
 62
7
  6
CONTINUOUS
 10
16.0747113874
 20
4.6077518134
 11
16.0607919626
 21
4.6157952592
  0
LINE
  5
5F6
100
AcDbEntity
  8
0
100
AcDbLine
 62
7
  6
CONTINUOUS
 10
13.4119254181
 20
4.6073797639
 11
13.4119254181
 21
6.6199983906
  0
LINE
  5
5F7
100
AcDbEntity
  8
0
100
AcDbLine
 62
7
  6
CONTINUOUS
 10
15.1783004286
 20
5.2721894699
 11
15.1643810038
 21
5.2802329156
  0
LINE
  5
5F8
100
AcDbEntity
  8
0
100
AcDbLine
 62
7
  6
CONTINUOUS
 10
15.306359137
 20
5.1983847255
 11
15.2924397122
 21
5.2064281712
  0
LINE
  5
5F9
100
AcDbEntity
  8
0
100
AcDbLine
 62
7
  6
CONTINUOUS
 10
15.4344178454
 20
5.124579981
 11
15.4204984206
 21
5.1326234268
  0
LINE
  5
5FA
100
AcDbEntity
  8
0
100
AcDbLine
 62
7
  6
CONTINUOUS
 10
15.5624765538
 20
5.0507752366
 11
15.548557129
 21
5.0588186824
  0
LINE
  5
5FB
100
AcDbEntity
  8
0
100
AcDbLine
 62
7
  6
CONTINUOUS
 10
15.6905352622
 20
4.9769704922
 11
15.6766158374
 21
4.9850139379
  0
LINE
  5
5FC
100
AcDbEntity
  8
0
100
AcDbLine
 62
7
  6
CONTINUOUS
 10
15.8185939706
 20
4.9031657477
 11
15.8046745458
 21
4.9112091935
  0
LINE
  5
5FD
100
AcDbEntity
  8
0
100
AcDbLine
 62
7
  6
CONTINUOUS
 10
15.946652679
 20
4.8293610033
 11
15.9327332542
 21
4.8374044491
  0
LINE
  5
5FE
100
AcDbEntity
  8
0
100
AcDbLine
 62
7
  6
CONTINUOUS
 10
16.0747113874
 20
4.7555562589
 11
16.0607919626
 21
4.7635997046
  0
LINE
  5
5FF
100
AcDbEntity
  8
0
100
AcDbLine
 62
7
  6
CONTINUOUS
 10
15.1783004286
 20
5.4199939153
 11
15.1643810038
 21
5.4280373611
  0
LINE
  5
600
100
AcDbEntity
  8
0
100
AcDbLine
 62
7
  6
CONTINUOUS
 10
15.306359137
 20
5.3461891709
 11
15.2924397122
 21
5.3542326167
  0
LINE
  5
601
100
AcDbEntity
  8
0
100
AcDbLine
 62
7
  6
CONTINUOUS
 10
15.4344178454
 20
5.2723844265
 11
15.4204984206
 21
5.2804278722
  0
LINE
  5
602
100
AcDbEntity
  8
0
100
AcDbLine
 62
7
  6
CONTINUOUS
 10
15.5624765538
 20
5.198579682
 11
15.548557129
 21
5.2066231278
  0
LINE
  5
603
100
AcDbEntity
  8
0
100
AcDbLine
 62
7
  6
CONTINUOUS
 10
15.6905352622
 20
5.1247749376
 11
15.6766158374
 21
5.1328183834
  0
LINE
  5
604
100
AcDbEntity
  8
0
100
AcDbLine
 62
7
  6
CONTINUOUS
 10
15.8185939706
 20
5.0509701932
 11
15.8046745458
 21
5.059013639
  0
LINE
  5
605
100
AcDbEntity
  8
0
100
AcDbLine
 62
7
  6
CONTINUOUS
 10
15.946652679
 20
4.9771654488
 11
15.9327332542
 21
4.9852088945
  0
LINE
  5
606
100
AcDbEntity
  8
0
100
AcDbLine
 62
7
  6
CONTINUOUS
 10
16.0747113874
 20
4.9033607043
 11
16.0607919626
 21
4.9114041501
  0
LINE
  5
607
100
AcDbEntity
  8
0
100
AcDbLine
 62
7
  6
CONTINUOUS
 10
13.7390319015
 20
4.2087331822
 11
13.7390319015
 21
4.2978766295
  0
LINE
  5
608
100
AcDbEntity
  8
0
100
AcDbLine
 62
7
  6
CONTINUOUS
 10
13.8225484505
 20
3.9379625544
 11
13.8225484505
 21
4.0801440046
  0
LINE
  5
609
100
AcDbEntity
  8
0
100
AcDbLine
 62
7
  6
CONTINUOUS
 10
14.9361024366
 20
7.2050903268
 11
15.6877513773
 21
7.639436398
  0
LINE
  5
60A
100
AcDbEntity
  8
0
100
AcDbLine
 62
7
  6
CONTINUOUS
 10
14.9639412863
 20
7.2050903268
 11
15.6877513773
 21
7.6233495065
  0
LINE
  5
60B
100
AcDbEntity
  8
0
100
AcDbLine
 62
7
  6
CONTINUOUS
 10
15.2493116847
 20
7.2414681826
 11
15.2932211484
 21
7.266841601
  0
LINE
  5
60C
100
AcDbEntity
  8
0
100
AcDbLine
 62
7
  6
CONTINUOUS
 10
15.5137807564
 20
7.3942936521
 11
15.5576902202
 21
7.4196670705
  0
LINE
  5
60D
100
AcDbEntity
  8
0
100
AcDbLine
 62
7
  6
CONTINUOUS
 10
15.1783004286
 20
5.5677983608
 11
15.1643810038
 21
5.5758418065
  0
LINE
  5
60E
100
AcDbEntity
  8
0
100
AcDbLine
 62
7
  6
CONTINUOUS
 10
15.306359137
 20
5.4939936163
 11
15.2924397122
 21
5.5020370621
  0
LINE
  5
60F
100
AcDbEntity
  8
0
100
AcDbLine
 62
7
  6
CONTINUOUS
 10
15.4344178454
 20
5.4201888719
 11
15.4204984206
 21
5.4282323177
  0
LINE
  5
610
100
AcDbEntity
  8
0
100
AcDbLine
 62
7
  6
CONTINUOUS
 10
15.5624765538
 20
5.3463841275
 11
15.548557129
 21
5.3544275733
  0
LINE
  5
611
100
AcDbEntity
  8
0
100
AcDbLine
 62
7
  6
CONTINUOUS
 10
15.6905352622
 20
5.2725793831
 11
15.6766158374
 21
5.2806228288
  0
LINE
  5
612
100
AcDbEntity
  8
0
100
AcDbLine
 62
7
  6
CONTINUOUS
 10
15.8185939706
 20
5.1987746386
 11
15.8046745458
 21
5.2068180844
  0
LINE
  5
613
100
AcDbEntity
  8
0
100
AcDbLine
 62
7
  6
CONTINUOUS
 10
15.946652679
 20
5.1249698942
 11
15.9327332542
 21
5.13301334
  0
LINE
  5
614
100
AcDbEntity
  8
0
100
AcDbLine
 62
7
  6
CONTINUOUS
 10
16.0747113874
 20
5.0511651498
 11
16.0607919626
 21
5.0592085955
  0
LINE
  5
615
100
AcDbEntity
  8
0
100
AcDbLine
 62
7
  6
CONTINUOUS
 10
15.1783004286
 20
5.7156028062
 11
15.1643810038
 21
5.723646252
  0
LINE
  5
616
100
AcDbEntity
  8
0
100
AcDbLine
 62
7
  6
CONTINUOUS
 10
15.306359137
 20
5.6417980618
 11
15.2924397122
 21
5.6498415076
  0
LINE
  5
617
100
AcDbEntity
  8
0
100
AcDbLine
 62
7
  6
CONTINUOUS
 10
15.4344178454
 20
5.5679933174
 11
15.4204984206
 21
5.5760367631
  0
LINE
  5
618
100
AcDbEntity
  8
0
100
AcDbLine
 62
7
  6
CONTINUOUS
 10
15.5624765538
 20
5.4941885729
 11
15.548557129
 21
5.5022320187
  0
LINE
  5
619
100
AcDbEntity
  8
0
100
AcDbLine
 62
7
  6
CONTINUOUS
 10
15.6905352622
 20
5.4203838285
 11
15.6766158374
 21
5.4284272743
  0
LINE
  5
61A
100
AcDbEntity
  8
0
100
AcDbLine
 62
7
  6
CONTINUOUS
 10
15.8185939706
 20
5.3465790841
 11
15.8046745458
 21
5.3546225298
  0
LINE
  5
61B
100
AcDbEntity
  8
0
100
AcDbLine
 62
7
  6
CONTINUOUS
 10
15.946652679
 20
5.2727743397
 11
15.9327332542
 21
5.2808177854
  0
LINE
  5
61C
100
AcDbEntity
  8
0
100
AcDbLine
 62
7
  6
CONTINUOUS
 10
16.0747113874
 20
5.1989695952
 11
16.0607919626
 21
5.207013041
  0
LINE
  5
61D
100
AcDbEntity
  8
0
100
AcDbLine
 62
7
  6
CONTINUOUS
 10
13.9199844243
 20
4.1451359237
 11
13.9199844243
 21
3.881658434
  0
LINE
  5
61E
100
AcDbEntity
  8
0
100
AcDbLine
 62
7
  6
CONTINUOUS
 10
14.100936947
 20
8.9182341093
 11
14.100936947
 21
8.9262751099
  0
LINE
  5
61F
100
AcDbEntity
  8
0
100
AcDbLine
 62
7
  6
CONTINUOUS
 10
14.1426952215
 20
4.0646167024
 11
14.1426952215
 21
4.0164407915
  0
LINE
  5
620
100
AcDbEntity
  8
0
100
AcDbLine
 62
7
  6
CONTINUOUS
 10
15.8547844752
 20
7.5268281573
 11
15.1309743842
 21
7.1085689776
  0
LINE
  5
621
100
AcDbEntity
  8
0
100
AcDbLine
 62
7
  6
CONTINUOUS
 10
15.8826233248
 20
7.5268281573
 11
15.1309743842
 21
7.0924820861
  0
LINE
  5
622
100
AcDbEntity
  8
0
100
AcDbLine
 62
7
  6
CONTINUOUS
 10
15.8826233248
 20
7.3983025526
 11
15.1591894313
 21
6.9802607615
  0
LINE
  5
623
100
AcDbEntity
  8
0
100
AcDbLine
 62
7
  6
CONTINUOUS
 10
16.1192535469
 20
7.5153441636
 11
15.9243815993
 21
7.4027359229
  0
LINE
  5
624
100
AcDbEntity
  8
0
100
AcDbLine
 62
7
  6
CONTINUOUS
 10
15.1727326587
 20
6.9683898517
 11
15.0335384104
 21
6.8879553941
  0
LINE
  5
625
100
AcDbEntity
  8
0
100
AcDbLine
 62
7
  6
CONTINUOUS
 10
15.0335384104
 20
6.8796554094
 11
15.1727326587
 21
6.960089867
  0
LINE
  5
626
100
AcDbEntity
  8
0
100
AcDbLine
 62
7
  6
CONTINUOUS
 10
15.9243815993
 20
7.3944359382
 11
16.1192535469
 21
7.5070441789
  0
LINE
  5
627
100
AcDbEntity
  8
0
100
AcDbLine
 62
7
  6
CONTINUOUS
 10
16.1470923965
 20
7.5028461566
 11
15.9383010241
 21
7.3821944701
  0
LINE
  5
628
100
AcDbEntity
  8
0
100
AcDbLine
 62
7
  6
CONTINUOUS
 10
15.1866520835
 20
6.9478483989
 11
15.0335384104
 21
6.8593704955
  0
LINE
  5
629
100
AcDbEntity
  8
0
100
AcDbLine
 62
7
  6
CONTINUOUS
 10
15.1783004286
 20
5.8634072517
 11
15.1643810038
 21
5.8714506974
  0
LINE
  5
62A
100
AcDbEntity
  8
0
100
AcDbLine
 62
7
  6
CONTINUOUS
 10
15.306359137
 20
5.7896025072
 11
15.2924397122
 21
5.797645953
  0
LINE
  5
62B
100
AcDbEntity
  8
0
100
AcDbLine
 62
7
  6
CONTINUOUS
 10
15.4344178454
 20
5.7157977628
 11
15.4204984206
 21
5.7238412086
  0
LINE
  5
62C
100
AcDbEntity
  8
0
100
AcDbLine
 62
7
  6
CONTINUOUS
 10
15.5624765538
 20
5.6419930184
 11
15.548557129
 21
5.6500364642
  0
LINE
  5
62D
100
AcDbEntity
  8
0
100
AcDbLine
 62
7
  6
CONTINUOUS
 10
15.6905352622
 20
5.568188274
 11
15.6766158374
 21
5.5762317197
  0
LINE
  5
62E
100
AcDbEntity
  8
0
100
AcDbLine
 62
7
  6
CONTINUOUS
 10
15.8185939706
 20
5.4943835295
 11
15.8046745458
 21
5.5024269753
  0
LINE
  5
62F
100
AcDbEntity
  8
0
100
AcDbLine
 62
7
  6
CONTINUOUS
 10
15.946652679
 20
5.4205787851
 11
15.9327332542
 21
5.4286222309
  0
LINE
  5
630
100
AcDbEntity
  8
0
100
AcDbLine
 62
7
  6
CONTINUOUS
 10
16.0747113874
 20
5.3467740407
 11
16.0607919626
 21
5.3548174864
  0
LINE
  5
631
100
AcDbEntity
  8
0
100
AcDbLine
 62
7
  6
CONTINUOUS
 10
15.1783004286
 20
6.0112116971
 11
15.1643810038
 21
6.0192551429
  0
LINE
  5
632
100
AcDbEntity
  8
0
100
AcDbLine
 62
7
  6
CONTINUOUS
 10
15.306359137
 20
5.9374069527
 11
15.2924397122
 21
5.9454503985
  0
LINE
  5
633
100
AcDbEntity
  8
0
100
AcDbLine
 62
7
  6
CONTINUOUS
 10
15.4344178454
 20
5.8636022083
 11
15.4204984206
 21
5.871645654
  0
LINE
  5
634
100
AcDbEntity
  8
0
100
AcDbLine
 62
7
  6
CONTINUOUS
 10
15.5624765538
 20
5.7897974638
 11
15.548557129
 21
5.7978409096
  0
LINE
  5
635
100
AcDbEntity
  8
0
100
AcDbLine
 62
7
  6
CONTINUOUS
 10
15.6905352622
 20
5.7159927194
 11
15.6766158374
 21
5.7240361652
  0
LINE
  5
636
100
AcDbEntity
  8
0
100
AcDbLine
 62
7
  6
CONTINUOUS
 10
15.8185939706
 20
5.642187975
 11
15.8046745458
 21
5.6502314207
  0
LINE
  5
637
100
AcDbEntity
  8
0
100
AcDbLine
 62
7
  6
CONTINUOUS
 10
15.946652679
 20
5.5683832306
 11
15.9327332542
 21
5.5764266763
  0
LINE
  5
638
100
AcDbEntity
  8
0
100
AcDbLine
 62
7
  6
CONTINUOUS
 10
16.0747113874
 20
5.4945784861
 11
16.0607919626
 21
5.5026219319
  0
LINE
  5
639
100
AcDbEntity
  8
0
100
AcDbLine
 62
7
  6
CONTINUOUS
 10
15.1866520835
 20
6.7389942912
 11
15.9383010241
 21
7.1733403624
  0
LINE
  5
63A
100
AcDbEntity
  8
0
100
AcDbLine
 62
7
  6
CONTINUOUS
 10
15.1950037384
 20
6.7341682238
 11
15.946652679
 21
7.168514295
  0
LINE
  5
63B
100
AcDbEntity
  8
0
100
AcDbLine
 62
7
  6
CONTINUOUS
 10
15.9744915287
 20
7.1781876208
 11
16.0747113874
 21
7.2361004303
  0
LINE
  5
63C
100
AcDbEntity
  8
0
100
AcDbLine
 62
7
  6
CONTINUOUS
 10
15.2228425881
 20
6.7100908638
 11
15.4177145356
 21
6.8226991045
  0
LINE
  5
63D
100
AcDbEntity
  8
0
100
AcDbLine
 62
7
  6
CONTINUOUS
 10
15.4733922349
 20
6.8548728875
 11
15.6682641825
 21
6.9674811282
  0
LINE
  5
63E
100
AcDbEntity
  8
0
100
AcDbLine
 62
7
  6
CONTINUOUS
 10
15.7239418818
 20
6.9996549113
 11
15.9188138294
 21
7.112263152
  0
LINE
  5
63F
100
AcDbEntity
  8
0
100
AcDbLine
 62
7
  6
CONTINUOUS
 10
16.0607919626
 20
7.1284708318
 11
15.9744915287
 21
7.0786014681
  0
LINE
  5
640
100
AcDbEntity
  8
0
100
AcDbLine
 62
7
  6
CONTINUOUS
 10
16.0747113874
 20
7.120427386
 11
15.9744915287
 21
7.0625145766
  0
LINE
  5
641
100
AcDbEntity
  8
0
100
AcDbLine
 62
7
  6
CONTINUOUS
 10
15.9704538051
 20
6.6091693677
 11
15.9427283653
 21
6.6138378659
  0
LINE
  5
642
100
AcDbEntity
  8
0
100
AcDbLine
 62
7
  6
CONTINUOUS
 10
15.1783004286
 20
6.1590161426
 11
15.1643810038
 21
6.1670595883
  0
LINE
  5
643
100
AcDbEntity
  8
0
100
AcDbLine
 62
7
  6
CONTINUOUS
 10
15.306359137
 20
6.0852113981
 11
15.2924397122
 21
6.0932548439
  0
LINE
  5
644
100
AcDbEntity
  8
0
100
AcDbLine
 62
7
  6
CONTINUOUS
 10
15.4344178454
 20
6.0114066537
 11
15.4204984206
 21
6.0194500995
  0
LINE
  5
645
100
AcDbEntity
  8
0
100
AcDbLine
 62
7
  6
CONTINUOUS
 10
15.5624765538
 20
5.9376019093
 11
15.548557129
 21
5.945645355
  0
LINE
  5
646
100
AcDbEntity
  8
0
100
AcDbLine
 62
7
  6
CONTINUOUS
 10
15.6905352622
 20
5.8637971649
 11
15.6766158374
 21
5.8718406106
  0
LINE
  5
647
100
AcDbEntity
  8
0
100
AcDbLine
 62
7
  6
CONTINUOUS
 10
15.8185939706
 20
5.7899924204
 11
15.8046745458
 21
5.7980358662
  0
LINE
  5
648
100
AcDbEntity
  8
0
100
AcDbLine
 62
7
  6
CONTINUOUS
 10
15.946652679
 20
5.716187676
 11
15.9327332542
 21
5.7242311218
  0
LINE
  5
649
100
AcDbEntity
  8
0
100
AcDbLine
 62
7
  6
CONTINUOUS
 10
16.0747113874
 20
5.6423829316
 11
16.0607919626
 21
5.6504263773
  0
LINE
  5
64A
100
AcDbEntity
  8
0
100
AcDbLine
 62
7
  6
CONTINUOUS
 10
15.306359137
 20
6.2330158436
 11
15.2924397122
 21
6.2410592893
  0
LINE
  5
64B
100
AcDbEntity
  8
0
100
AcDbLine
 62
7
  6
CONTINUOUS
 10
15.4344178454
 20
6.1592110992
 11
15.4204984206
 21
6.1672545449
  0
LINE
  5
64C
100
AcDbEntity
  8
0
100
AcDbLine
 62
7
  6
CONTINUOUS
 10
15.5624765538
 20
6.0854063547
 11
15.548557129
 21
6.0934498005
  0
LINE
  5
64D
100
AcDbEntity
  8
0
100
AcDbLine
 62
7
  6
CONTINUOUS
 10
15.6905352622
 20
6.0116016103
 11
15.6766158374
 21
6.0196450561
  0
LINE
  5
64E
100
AcDbEntity
  8
0
100
AcDbLine
 62
7
  6
CONTINUOUS
 10
15.8185939706
 20
5.9377968659
 11
15.8046745458
 21
5.9458403116
  0
LINE
  5
64F
100
AcDbEntity
  8
0
100
AcDbLine
 62
7
  6
CONTINUOUS
 10
15.946652679
 20
5.8639921214
 11
15.9327332542
 21
5.8720355672
  0
LINE
  5
650
100
AcDbEntity
  8
0
100
AcDbLine
 62
7
  6
CONTINUOUS
 10
16.0747113874
 20
5.790187377
 11
16.0607919626
 21
5.7982308228
  0
LINE
  5
651
100
AcDbEntity
  8
0
100
AcDbLine
 62
7
  6
CONTINUOUS
 10
15.9744915287
 20
7.0303831754
 11
16.0747113874
 21
7.0882959849
  0
LINE
  5
652
100
AcDbEntity
  8
0
100
AcDbLine
 62
7
  6
CONTINUOUS
 10
15.7935390059
 20
6.8954079804
 11
15.7239418818
 21
6.8551907516
  0
LINE
  5
653
100
AcDbEntity
  8
0
100
AcDbLine
 62
7
  6
CONTINUOUS
 10
15.5429893591
 20
6.7506259566
 11
15.4733922349
 21
6.7104087278
  0
LINE
  5
654
100
AcDbEntity
  8
0
100
AcDbLine
 62
7
  6
CONTINUOUS
 10
15.2924397122
 20
6.6058439329
 11
15.2228425881
 21
6.5656267041
  0
LINE
  5
655
100
AcDbEntity
  8
0
100
AcDbLine
 62
7
  6
CONTINUOUS
 10
16.0607919626
 20
6.9806663864
 11
15.9744915287
 21
6.9307970226
  0
LINE
  5
656
100
AcDbEntity
  8
0
100
AcDbLine
 62
7
  6
CONTINUOUS
 10
16.0747113874
 20
6.9726229406
 11
15.9744915287
 21
6.9147101311
  0
LINE
  5
657
100
AcDbEntity
  8
0
100
AcDbLine
 62
7
  6
CONTINUOUS
 10
15.9744915287
 20
6.8825787299
 11
16.0747113874
 21
6.9404915394
  0
LINE
  5
658
100
AcDbEntity
  8
0
100
AcDbLine
 62
7
  6
CONTINUOUS
 10
15.9188138294
 20
6.8391462419
 11
15.7239418818
 21
6.7265380012
  0
LINE
  5
659
100
AcDbEntity
  8
0
100
AcDbLine
 62
7
  6
CONTINUOUS
 10
15.6682641825
 20
6.6943642182
 11
15.4733922349
 21
6.5817559775
  0
LINE
  5
65A
100
AcDbEntity
  8
0
100
AcDbLine
 62
7
  6
CONTINUOUS
 10
15.4177145356
 20
6.5495821944
 11
15.2228425881
 21
6.4369739537
  0
LINE
  5
65B
100
AcDbEntity
  8
0
100
AcDbLine
 62
7
  6
CONTINUOUS
 10
15.946652679
 20
6.8150688819
 11
15.1950037384
 21
6.3807228107
  0
LINE
  5
65C
100
AcDbEntity
  8
0
100
AcDbLine
 62
7
  6
CONTINUOUS
 10
16.0607919626
 20
6.8328619409
 11
15.9744915287
 21
6.7829925772
  0
LINE
  5
65D
100
AcDbEntity
  8
0
100
AcDbLine
 62
7
  6
CONTINUOUS
 10
16.0747113874
 20
6.8248184952
 11
15.9744915287
 21
6.7669056857
  0
LINE
  5
65E
100
AcDbEntity
  8
0
100
AcDbLine
 62
7
  6
CONTINUOUS
 10
15.9104621745
 20
6.5578284002
 11
15.8687039
 21
6.5728706048
  0
LINE
  5
65F
100
AcDbEntity
  8
0
100
AcDbLine
 62
7
  6
CONTINUOUS
 10
15.4177145356
 20
6.5495821944
 11
15.2924397122
 21
6.6058439329
  0
LINE
  5
660
100
AcDbEntity
  8
0
100
AcDbLine
 62
7
  6
CONTINUOUS
 10
15.1950037384
 20
6.3807228107
 11
15.1866520835
 21
6.3855488782
  0
LINE
  5
661
100
AcDbEntity
  8
0
100
AcDbLine
 62
7
  6
CONTINUOUS
 10
15.4344178454
 20
6.3070155446
 11
15.4204984206
 21
6.3150589904
  0
LINE
  5
662
100
AcDbEntity
  8
0
100
AcDbLine
 62
7
  6
CONTINUOUS
 10
15.5624765538
 20
6.2332108002
 11
15.548557129
 21
6.2412542459
  0
LINE
  5
663
100
AcDbEntity
  8
0
100
AcDbLine
 62
7
  6
CONTINUOUS
 10
15.6905352622
 20
6.1594060557
 11
15.6766158374
 21
6.1674495015
  0
LINE
  5
664
100
AcDbEntity
  8
0
100
AcDbLine
 62
7
  6
CONTINUOUS
 10
15.8185939706
 20
6.0856013113
 11
15.8046745458
 21
6.0936447571
  0
LINE
  5
665
100
AcDbEntity
  8
0
100
AcDbLine
 62
7
  6
CONTINUOUS
 10
15.946652679
 20
6.0117965669
 11
15.9327332542
 21
6.0198400127
  0
LINE
  5
666
100
AcDbEntity
  8
0
100
AcDbLine
 62
7
  6
CONTINUOUS
 10
16.0747113874
 20
5.9379918225
 11
16.0607919626
 21
5.9460352682
  0
LINE
  5
667
100
AcDbEntity
  8
0
100
AcDbLine
 62
7
  6
CONTINUOUS
 10
15.5624765538
 20
6.3810152456
 11
15.548557129
 21
6.3890586914
  0
LINE
  5
668
100
AcDbEntity
  8
0
100
AcDbLine
 62
7
  6
CONTINUOUS
 10
15.6766158374
 20
6.315253947
 11
15.6905352622
 21
6.3072105012
  0
LINE
  5
669
100
AcDbEntity
  8
0
100
AcDbLine
 62
7
  6
CONTINUOUS
 10
15.8185939706
 20
6.2334057568
 11
15.8046745458
 21
6.2414492025
  0
LINE
  5
66A
100
AcDbEntity
  8
0
100
AcDbLine
 62
7
  6
CONTINUOUS
 10
15.946652679
 20
6.1596010123
 11
15.9327332542
 21
6.1676444581
  0
LINE
  5
66B
100
AcDbEntity
  8
0
100
AcDbLine
 62
7
  6
CONTINUOUS
 10
16.0747113874
 20
6.0857962679
 11
16.0607919626
 21
6.0938397137
  0
LINE
  5
66C
100
AcDbEntity
  8
0
100
AcDbLine
 62
7
  6
CONTINUOUS
 10
14.7481902015
 20
5.8478275974
 11
14.7481902015
 21
3.8352089707
  0
LINE
  5
66D
100
AcDbEntity
  8
0
100
AcDbLine
 62
7
  6
CONTINUOUS
 10
14.7551499139
 20
5.8518493203
 11
14.7551499139
 21
3.8392306935
  0
LINE
  5
66E
100
AcDbEntity
  8
0
100
AcDbLine
 62
7
  6
CONTINUOUS
 10
15.0780805699
 20
6.2167763773
 11
15.1783004286
 21
6.2746891868
  0
LINE
  5
66F
100
AcDbEntity
  8
0
100
AcDbLine
 62
7
  6
CONTINUOUS
 10
15.2061392783
 20
6.2907760784
 11
15.306359137
 21
6.3486888878
  0
LINE
  5
670
100
AcDbEntity
  8
0
100
AcDbLine
 62
7
  6
CONTINUOUS
 10
15.3341979867
 20
6.3647757794
 11
15.4344178454
 21
6.4226885889
  0
LINE
  5
671
100
AcDbEntity
  8
0
100
AcDbLine
 62
7
  6
CONTINUOUS
 10
15.4622566951
 20
6.4387754804
 11
15.5624765538
 21
6.4966882899
  0
LINE
  5
672
100
AcDbEntity
  8
0
100
AcDbLine
 62
7
  6
CONTINUOUS
 10
15.5903154035
 20
6.5127751814
 11
15.6905352622
 21
6.5706879909
  0
LINE
  5
673
100
AcDbEntity
  8
0
100
AcDbLine
 62
7
  6
CONTINUOUS
 10
15.9744915287
 20
6.7347742845
 11
16.0747113874
 21
6.792687094
  0
LINE
  5
674
100
AcDbEntity
  8
0
100
AcDbLine
 62
7
  6
CONTINUOUS
 10
16.0607919626
 20
6.6850574955
 11
15.9843654351
 21
6.6408938439
  0
LINE
  5
675
100
AcDbEntity
  8
0
100
AcDbLine
 62
7
  6
CONTINUOUS
 10
15.6766158374
 20
6.4630583924
 11
15.5903154035
 21
6.4131890287
  0
LINE
  5
676
100
AcDbEntity
  8
0
100
AcDbLine
 62
7
  6
CONTINUOUS
 10
15.548557129
 20
6.3890586914
 11
15.4622566951
 21
6.3391893277
  0
LINE
  5
677
100
AcDbEntity
  8
0
100
AcDbLine
 62
7
  6
CONTINUOUS
 10
15.4204984206
 20
6.3150589904
 11
15.3341979867
 21
6.2651896266
  0
LINE
  5
678
100
AcDbEntity
  8
0
100
AcDbLine
 62
7
  6
CONTINUOUS
 10
15.2924397122
 20
6.2410592893
 11
15.2061392783
 21
6.1911899256
  0
LINE
  5
679
100
AcDbEntity
  8
0
100
AcDbLine
 62
7
  6
CONTINUOUS
 10
15.1643810038
 20
6.1670595883
 11
15.0780805699
 21
6.1171902246
  0
LINE
  5
67A
100
AcDbEntity
  8
0
100
AcDbLine
 62
7
  6
CONTINUOUS
 10
16.0747113874
 20
6.6770140497
 11
15.9893694523
 21
6.6276985618
  0
LINE
  5
67B
100
AcDbEntity
  8
0
100
AcDbLine
 62
7
  6
CONTINUOUS
 10
15.0780805699
 20
6.1011033331
 11
15.1783004286
 21
6.1590161426
  0
LINE
  5
67C
100
AcDbEntity
  8
0
100
AcDbLine
 62
7
  6
CONTINUOUS
 10
15.2061392783
 20
6.1751030341
 11
15.306359137
 21
6.2330158436
  0
LINE
  5
67D
100
AcDbEntity
  8
0
100
AcDbLine
 62
7
  6
CONTINUOUS
 10
15.3341979867
 20
6.2491027351
 11
15.4344178454
 21
6.3070155446
  0
LINE
  5
67E
100
AcDbEntity
  8
0
100
AcDbLine
 62
7
  6
CONTINUOUS
 10
15.4622566951
 20
6.3231024361
 11
15.5624765538
 21
6.3810152456
  0
LINE
  5
67F
100
AcDbEntity
  8
0
100
AcDbLine
 62
7
  6
CONTINUOUS
 10
15.5903154035
 20
6.3971021372
 11
15.6905352622
 21
6.4550149466
  0
LINE
  5
680
100
AcDbEntity
  8
0
100
AcDbLine
 62
7
  6
CONTINUOUS
 10
15.6905352622
 20
6.4228835455
 11
15.5903154035
 21
6.364970736
  0
LINE
  5
681
100
AcDbEntity
  8
0
100
AcDbLine
 62
7
  6
CONTINUOUS
 10
15.5624765538
 20
6.3488838444
 11
15.4622566951
 21
6.2909710349
  0
LINE
  5
682
100
AcDbEntity
  8
0
100
AcDbLine
 62
7
  6
CONTINUOUS
 10
15.4344178454
 20
6.2748841434
 11
15.3341979867
 21
6.2169713339
  0
LINE
  5
683
100
AcDbEntity
  8
0
100
AcDbLine
 62
7
  6
CONTINUOUS
 10
15.306359137
 20
6.2008844424
 11
15.2061392783
 21
6.1429716329
  0
LINE
  5
684
100
AcDbEntity
  8
0
100
AcDbLine
 62
7
  6
CONTINUOUS
 10
15.1783004286
 20
6.1268847414
 11
15.0780805699
 21
6.0689719319
  0
LINE
  5
685
100
AcDbEntity
  8
0
100
AcDbLine
 62
7
  6
CONTINUOUS
 10
15.9929540501
 20
6.5976385478
 11
16.0747113874
 21
6.6448826485
  0
LINE
  5
686
100
AcDbEntity
  8
0
100
AcDbLine
 62
7
  6
CONTINUOUS
 10
12.7994707258
 20
4.7364033556
 11
12.8342234484
 21
4.7564854813
  0
LINE
  5
687
100
AcDbEntity
  8
0
100
AcDbLine
 62
7
  6
CONTINUOUS
 10
12.8899011477
 20
4.7243116983
 11
12.8551484251
 21
4.7042295725
  0
LINE
  5
688
100
AcDbEntity
  8
0
100
AcDbLine
 62
7
  6
CONTINUOUS
 10
16.0607919626
 20
6.53725305
 11
15.9744915287
 21
6.4873836863
  0
LINE
  5
689
100
AcDbEntity
  8
0
100
AcDbLine
 62
7
  6
CONTINUOUS
 10
15.6766158374
 20
6.315253947
 11
15.5903154035
 21
6.2653845832
  0
LINE
  5
68A
100
AcDbEntity
  8
0
100
AcDbLine
 62
7
  6
CONTINUOUS
 10
15.548557129
 20
6.2412542459
 11
15.4622566951
 21
6.1913848822
  0
LINE
  5
68B
100
AcDbEntity
  8
0
100
AcDbLine
 62
7
  6
CONTINUOUS
 10
15.4204984206
 20
6.1672545449
 11
15.3341979867
 21
6.1173851812
  0
LINE
  5
68C
100
AcDbEntity
  8
0
100
AcDbLine
 62
7
  6
CONTINUOUS
 10
15.2924397122
 20
6.0932548439
 11
15.2061392783
 21
6.0433854802
  0
LINE
  5
68D
100
AcDbEntity
  8
0
100
AcDbLine
 62
7
  6
CONTINUOUS
 10
15.1643810038
 20
6.0192551429
 11
15.0780805699
 21
5.9693857792
  0
LINE
  5
68E
100
AcDbEntity
  8
0
100
AcDbLine
 62
7
  6
CONTINUOUS
 10
16.0747113874
 20
6.5292096043
 11
15.9744915287
 21
6.4712967948
  0
LINE
  5
68F
100
AcDbEntity
  8
0
100
AcDbLine
 62
7
  6
CONTINUOUS
 10
15.6905352622
 20
6.3072105012
 11
15.5903154035
 21
6.2492976917
  0
LINE
  5
690
100
AcDbEntity
  8
0
100
AcDbLine
 62
7
  6
CONTINUOUS
 10
15.5624765538
 20
6.2332108002
 11
15.4622566951
 21
6.1752979907
  0
LINE
  5
691
100
AcDbEntity
  8
0
100
AcDbLine
 62
7
  6
CONTINUOUS
 10
15.4344178454
 20
6.1592110992
 11
15.3341979867
 21
6.1012982897
  0
LINE
  5
692
100
AcDbEntity
  8
0
100
AcDbLine
 62
7
  6
CONTINUOUS
 10
15.306359137
 20
6.0852113981
 11
15.2061392783
 21
6.0272985886
  0
LINE
  5
693
100
AcDbEntity
  8
0
100
AcDbLine
 62
7
  6
CONTINUOUS
 10
15.1783004286
 20
6.0112116971
 11
15.0780805699
 21
5.9532988876
  0
LINE
  5
694
100
AcDbEntity
  8
0
100
AcDbLine
 62
7
  6
CONTINUOUS
 10
15.9340842217
 20
6.5442141823
 11
15.8844519315
 21
6.5637944596
  0
LINE
  5
695
100
AcDbEntity
  8
0
100
AcDbLine
 62
7
  6
CONTINUOUS
 10
15.9704538051
 20
6.5230854179
 11
15.9159479945
 21
6.545642169
  0
LINE
  5
696
100
AcDbEntity
  8
0
100
AcDbLine
 62
7
  6
CONTINUOUS
 10
15.6682641825
 20
6.6943642182
 11
15.5429893591
 21
6.7506259566
  0
LINE
  5
697
100
AcDbEntity
  8
0
100
AcDbLine
 62
7
  6
CONTINUOUS
 10
15.1950037384
 20
6.7341682238
 11
15.1866520835
 21
6.7389942912
  0
LINE
  5
698
100
AcDbEntity
  8
0
100
AcDbLine
 62
7
  6
CONTINUOUS
 10
15.6905352622
 20
6.4550149466
 11
15.6766158374
 21
6.4630583924
  0
LINE
  5
699
100
AcDbEntity
  8
0
100
AcDbLine
 62
7
  6
CONTINUOUS
 10
15.946652679
 20
6.3074054578
 11
15.9327332542
 21
6.3154489036
  0
LINE
  5
69A
100
AcDbEntity
  8
0
100
AcDbLine
 62
7
  6
CONTINUOUS
 10
16.0747113874
 20
6.2336007134
 11
16.0607919626
 21
6.2416441591
  0
LINE
  5
69B
100
AcDbEntity
  8
0
100
AcDbLine
 62
7
  6
CONTINUOUS
 10
15.7481535896
 20
6.4424726886
 11
15.7829521516
 21
6.4223640742
  0
LINE
  5
69C
100
AcDbEntity
  8
0
100
AcDbLine
 62
7
  6
CONTINUOUS
 10
16.0747113874
 20
6.3814051588
 11
16.0607919626
 21
6.3894486046
  0
LINE
  5
69D
100
AcDbEntity
  8
0
100
AcDbLine
 62
7
  6
CONTINUOUS
 10
14.9361024366
 20
7.2050903268
 11
14.9361024366
 21
7.1709188992
  0
LINE
  5
69E
100
AcDbEntity
  8
0
100
AcDbLine
 62
7
  6
CONTINUOUS
 10
15.0287520767
 20
7.1676389174
 11
15.0287520767
 21
7.2131337726
  0
LINE
  5
69F
100
AcDbEntity
  8
0
100
AcDbLine
 62
7
  6
CONTINUOUS
 10
15.0335384104
 20
6.8593704955
 11
15.0335384104
 21
3.5498361735
  0
LINE
  5
6A0
100
AcDbEntity
  8
0
100
AcDbLine
 62
7
  6
CONTINUOUS
 10
15.0335384104
 20
6.8796554094
 11
15.0335384104
 21
6.8879553941
  0
LINE
  5
6A1
100
AcDbEntity
  8
0
100
AcDbLine
 62
7
  6
CONTINUOUS
 10
15.0780805699
 20
3.7362322059
 11
15.0780805699
 21
3.8519052502
  0
LINE
  5
6A2
100
AcDbEntity
  8
0
100
AcDbLine
 62
7
  6
CONTINUOUS
 10
15.0780805699
 20
3.8840366514
 11
15.0780805699
 21
3.9997096956
  0
LINE
  5
6A3
100
AcDbEntity
  8
0
100
AcDbLine
 62
7
  6
CONTINUOUS
 10
15.0780805699
 20
4.0318410968
 11
15.0780805699
 21
4.1475141411
  0
LINE
  5
6A4
100
AcDbEntity
  8
0
100
AcDbLine
 62
7
  6
CONTINUOUS
 10
15.0780805699
 20
4.1796455423
 11
15.0780805699
 21
4.2953185865
  0
LINE
  5
6A5
100
AcDbEntity
  8
0
100
AcDbLine
 62
7
  6
CONTINUOUS
 10
15.0780805699
 20
4.3274499877
 11
15.0780805699
 21
4.443123032
  0
LINE
  5
6A6
100
AcDbEntity
  8
0
100
AcDbLine
 62
7
  6
CONTINUOUS
 10
15.0780805699
 20
4.4752544331
 11
15.0780805699
 21
4.5909274774
  0
LINE
  5
6A7
100
AcDbEntity
  8
0
100
AcDbLine
 62
7
  6
CONTINUOUS
 10
15.0780805699
 20
4.6230588786
 11
15.0780805699
 21
4.7387319229
  0
LINE
  5
6A8
100
AcDbEntity
  8
0
100
AcDbLine
 62
7
  6
CONTINUOUS
 10
15.0780805699
 20
4.770863324
 11
15.0780805699
 21
4.8865363683
  0
LINE
  5
6A9
100
AcDbEntity
  8
0
100
AcDbLine
 62
7
  6
CONTINUOUS
 10
15.0780805699
 20
4.9186677695
 11
15.0780805699
 21
5.0343408138
  0
LINE
  5
6AA
100
AcDbEntity
  8
0
100
AcDbLine
 62
7
  6
CONTINUOUS
 10
15.0780805699
 20
5.0664722149
 11
15.0780805699
 21
5.1821452592
  0
LINE
  5
6AB
100
AcDbEntity
  8
0
100
AcDbLine
 62
7
  6
CONTINUOUS
 10
15.0780805699
 20
5.2142766604
 11
15.0780805699
 21
5.3299497046
  0
LINE
  5
6AC
100
AcDbEntity
  8
0
100
AcDbLine
 62
7
  6
CONTINUOUS
 10
15.0780805699
 20
5.3620811058
 11
15.0780805699
 21
5.4777541501
  0
LINE
  5
6AD
100
AcDbEntity
  8
0
100
AcDbLine
 62
7
  6
CONTINUOUS
 10
15.0780805699
 20
5.5098855513
 11
15.0780805699
 21
5.6255585955
  0
LINE
  5
6AE
100
AcDbEntity
  8
0
100
AcDbLine
 62
7
  6
CONTINUOUS
 10
15.0780805699
 20
5.6576899967
 11
15.0780805699
 21
5.773363041
  0
LINE
  5
6AF
100
AcDbEntity
  8
0
100
AcDbLine
 62
7
  6
CONTINUOUS
 10
15.0780805699
 20
5.8054944422
 11
15.0780805699
 21
5.9211674864
  0
LINE
  5
6B0
100
AcDbEntity
  8
0
100
AcDbLine
 62
7
  6
CONTINUOUS
 10
15.0780805699
 20
5.9532988876
 11
15.0780805699
 21
6.0689719319
  0
LINE
  5
6B1
100
AcDbEntity
  8
0
100
AcDbLine
 62
7
  6
CONTINUOUS
 10
15.0780805699
 20
6.1011033331
 11
15.0780805699
 21
6.2167763773
  0
LINE
  5
6B2
100
AcDbEntity
  8
0
100
AcDbLine
 62
7
  6
CONTINUOUS
 10
15.1252087697
 20
7.1987792386
 11
15.1252087697
 21
7.1636860391
  0
LINE
  5
6B3
100
AcDbEntity
  8
0
100
AcDbLine
 62
7
  6
CONTINUOUS
 10
15.1309743842
 20
7.0924820861
 11
15.1309743842
 21
7.004883307
  0
LINE
  5
6B4
100
AcDbEntity
  8
0
100
AcDbLine
 62
7
  6
CONTINUOUS
 10
15.1643810038
 20
6.2666457411
 11
15.1643810038
 21
6.1670595883
  0
LINE
  5
6B5
100
AcDbEntity
  8
0
100
AcDbLine
 62
7
  6
CONTINUOUS
 10
15.1643810038
 20
6.1188412956
 11
15.1643810038
 21
6.0192551429
  0
LINE
  5
6B6
100
AcDbEntity
  8
0
100
AcDbLine
 62
7
  6
CONTINUOUS
 10
15.1643810038
 20
5.9710368502
 11
15.1643810038
 21
5.8714506974
  0
LINE
  5
6B7
100
AcDbEntity
  8
0
100
AcDbLine
 62
7
  6
CONTINUOUS
 10
15.1643810038
 20
5.8232324047
 11
15.1643810038
 21
5.723646252
  0
LINE
  5
6B8
100
AcDbEntity
  8
0
100
AcDbLine
 62
7
  6
CONTINUOUS
 10
15.1643810038
 20
5.6754279593
 11
15.1643810038
 21
5.5758418065
  0
LINE
  5
6B9
100
AcDbEntity
  8
0
100
AcDbLine
 62
7
  6
CONTINUOUS
 10
15.1643810038
 20
5.5276235138
 11
15.1643810038
 21
5.4280373611
  0
LINE
  5
6BA
100
AcDbEntity
  8
0
100
AcDbLine
 62
7
  6
CONTINUOUS
 10
15.1643810038
 20
5.3798190684
 11
15.1643810038
 21
5.2802329156
  0
LINE
  5
6BB
100
AcDbEntity
  8
0
100
AcDbLine
 62
7
  6
CONTINUOUS
 10
15.1643810038
 20
5.2320146229
 11
15.1643810038
 21
5.1324284702
  0
LINE
  5
6BC
100
AcDbEntity
  8
0
100
AcDbLine
 62
7
  6
CONTINUOUS
 10
15.1643810038
 20
5.0842101775
 11
15.1643810038
 21
4.9846240247
  0
LINE
  5
6BD
100
AcDbEntity
  8
0
100
AcDbLine
 62
7
  6
CONTINUOUS
 10
15.1643810038
 20
4.936405732
 11
15.1643810038
 21
4.8368195793
  0
LINE
  5
6BE
100
AcDbEntity
  8
0
100
AcDbLine
 62
7
  6
CONTINUOUS
 10
15.1643810038
 20
4.7886012866
 11
15.1643810038
 21
4.6890151339
  0
LINE
  5
6BF
100
AcDbEntity
  8
0
100
AcDbLine
 62
7
  6
CONTINUOUS
 10
15.1643810038
 20
4.6407968411
 11
15.1643810038
 21
4.5412106884
  0
LINE
  5
6C0
100
AcDbEntity
  8
0
100
AcDbLine
 62
7
  6
CONTINUOUS
 10
15.1643810038
 20
4.4929923957
 11
15.1643810038
 21
4.393406243
  0
LINE
  5
6C1
100
AcDbEntity
  8
0
100
AcDbLine
 62
7
  6
CONTINUOUS
 10
15.1643810038
 20
4.3451879502
 11
15.1643810038
 21
4.2456017975
  0
LINE
  5
6C2
100
AcDbEntity
  8
0
100
AcDbLine
 62
7
  6
CONTINUOUS
 10
15.1643810038
 20
4.1973835048
 11
15.1643810038
 21
4.0977973521
  0
LINE
  5
6C3
100
AcDbEntity
  8
0
100
AcDbLine
 62
7
  6
CONTINUOUS
 10
15.1643810038
 20
4.0495790594
 11
15.1643810038
 21
3.9499929066
  0
LINE
  5
6C4
100
AcDbEntity
  8
0
100
AcDbLine
 62
7
  6
CONTINUOUS
 10
15.1643810038
 20
3.9017746139
 11
15.1643810038
 21
3.8021884612
  0
LINE
  5
6C5
100
AcDbEntity
  8
0
100
AcDbLine
 62
7
  6
CONTINUOUS
 10
15.1645788484
 20
7.1636666707
 11
15.1645788484
 21
7.1987792386
  0
LINE
  5
6C6
100
AcDbEntity
  8
0
100
AcDbLine
 62
7
  6
CONTINUOUS
 10
12.8460393741
 20
4.6452305047
 11
12.7994707258
 21
4.6183204562
  0
LINE
  5
6C7
100
AcDbEntity
  8
0
100
AcDbLine
 62
7
  6
CONTINUOUS
 10
12.9455055039
 20
4.6921802971
 11
12.8551484251
 21
4.6399667702
  0
LINE
  5
6C8
100
AcDbEntity
  8
0
100
AcDbLine
 62
7
  6
CONTINUOUS
 10
15.0780805699
 20
5.9211674864
 11
15.1783004286
 21
5.9790802959
  0
LINE
  5
6C9
100
AcDbEntity
  8
0
100
AcDbLine
 62
7
  6
CONTINUOUS
 10
15.2061392783
 20
5.9951671875
 11
15.306359137
 21
6.053079997
  0
LINE
  5
6CA
100
AcDbEntity
  8
0
100
AcDbLine
 62
7
  6
CONTINUOUS
 10
15.3341979867
 20
6.0691668885
 11
15.4344178454
 21
6.127079698
  0
LINE
  5
6CB
100
AcDbEntity
  8
0
100
AcDbLine
 62
7
  6
CONTINUOUS
 10
15.4622566951
 20
6.1431665895
 11
15.5624765538
 21
6.201079399
  0
LINE
  5
6CC
100
AcDbEntity
  8
0
100
AcDbLine
 62
7
  6
CONTINUOUS
 10
15.5903154035
 20
6.2171662905
 11
15.6905352622
 21
6.2750791
  0
LINE
  5
6CD
100
AcDbEntity
  8
0
100
AcDbLine
 62
7
  6
CONTINUOUS
 10
15.7183741119
 20
6.2911659915
 11
15.8185939706
 21
6.349078801
  0
LINE
  5
6CE
100
AcDbEntity
  8
0
100
AcDbLine
 62
7
  6
CONTINUOUS
 10
15.8464328203
 20
6.3651656926
 11
15.946652679
 21
6.4230785021
  0
LINE
  5
6CF
100
AcDbEntity
  8
0
100
AcDbLine
 62
7
  6
CONTINUOUS
 10
15.9744915287
 20
6.4391653936
 11
16.0747113874
 21
6.4970782031
  0
LINE
  5
6D0
100
AcDbEntity
  8
0
100
AcDbLine
 62
7
  6
CONTINUOUS
 10
12.8551484251
 20
4.5861466732
 11
12.9920741522
 21
4.6652702486
  0
LINE
  5
6D1
100
AcDbEntity
  8
0
100
AcDbLine
 62
7
  6
CONTINUOUS
 10
16.0607919626
 20
6.3894486046
 11
15.9744915287
 21
6.3395792408
  0
LINE
  5
6D2
100
AcDbEntity
  8
0
100
AcDbLine
 62
7
  6
CONTINUOUS
 10
15.9327332542
 20
6.3154489036
 11
15.8464328203
 21
6.2655795398
  0
LINE
  5
6D3
100
AcDbEntity
  8
0
100
AcDbLine
 62
7
  6
CONTINUOUS
 10
15.8046745458
 20
6.2414492025
 11
15.7183741119
 21
6.1915798388
  0
LINE
  5
6D4
100
AcDbEntity
  8
0
100
AcDbLine
 62
7
  6
CONTINUOUS
 10
15.6766158374
 20
6.1674495015
 11
15.5903154035
 21
6.1175801378
  0
LINE
  5
6D5
100
AcDbEntity
  8
0
100
AcDbLine
 62
7
  6
CONTINUOUS
 10
15.548557129
 20
6.0934498005
 11
15.4622566951
 21
6.0435804368
  0
LINE
  5
6D6
100
AcDbEntity
  8
0
100
AcDbLine
 62
7
  6
CONTINUOUS
 10
15.4204984206
 20
6.0194500995
 11
15.3341979867
 21
5.9695807357
  0
LINE
  5
6D7
100
AcDbEntity
  8
0
100
AcDbLine
 62
7
  6
CONTINUOUS
 10
15.2924397122
 20
5.9454503985
 11
15.2061392783
 21
5.8955810347
  0
LINE
  5
6D8
100
AcDbEntity
  8
0
100
AcDbLine
 62
7
  6
CONTINUOUS
 10
15.1643810038
 20
5.8714506974
 11
15.0780805699
 21
5.8215813337
  0
LINE
  5
6D9
100
AcDbEntity
  8
0
100
AcDbLine
 62
7
  6
CONTINUOUS
 10
15.0780805699
 20
5.8054944422
 11
15.1783004286
 21
5.8634072517
  0
LINE
  5
6DA
100
AcDbEntity
  8
0
100
AcDbLine
 62
7
  6
CONTINUOUS
 10
15.2061392783
 20
5.8794941432
 11
15.306359137
 21
5.9374069527
  0
LINE
  5
6DB
100
AcDbEntity
  8
0
100
AcDbLine
 62
7
  6
CONTINUOUS
 10
15.3341979867
 20
5.9534938442
 11
15.4344178454
 21
6.0114066537
  0
LINE
  5
6DC
100
AcDbEntity
  8
0
100
AcDbLine
 62
7
  6
CONTINUOUS
 10
15.4622566951
 20
6.0274935452
 11
15.5624765538
 21
6.0854063547
  0
LINE
  5
6DD
100
AcDbEntity
  8
0
100
AcDbLine
 62
7
  6
CONTINUOUS
 10
15.5903154035
 20
6.1014932463
 11
15.6905352622
 21
6.1594060557
  0
LINE
  5
6DE
100
AcDbEntity
  8
0
100
AcDbLine
 62
7
  6
CONTINUOUS
 10
15.7183741119
 20
6.1754929473
 11
15.8185939706
 21
6.2334057568
  0
LINE
  5
6DF
100
AcDbEntity
  8
0
100
AcDbLine
 62
7
  6
CONTINUOUS
 10
15.8464328203
 20
6.2494926483
 11
15.946652679
 21
6.3074054578
  0
LINE
  5
6E0
100
AcDbEntity
  8
0
100
AcDbLine
 62
7
  6
CONTINUOUS
 10
15.9744915287
 20
6.3234923493
 11
16.0747113874
 21
6.3814051588
  0
LINE
  5
6E1
100
AcDbEntity
  8
0
100
AcDbLine
 62
7
  6
CONTINUOUS
 10
12.903866412
 20
4.5178303615
 11
13.0755448618
 21
4.6170360627
  0
LINE
  5
6E2
100
AcDbEntity
  8
0
100
AcDbLine
 62
7
  6
CONTINUOUS
 10
16.0747113874
 20
6.3492737576
 11
15.9744915287
 21
6.2913609481
  0
LINE
  5
6E3
100
AcDbEntity
  8
0
100
AcDbLine
 62
7
  6
CONTINUOUS
 10
15.946652679
 20
6.2752740566
 11
15.8464328203
 21
6.2173612471
  0
LINE
  5
6E4
100
AcDbEntity
  8
0
100
AcDbLine
 62
7
  6
CONTINUOUS
 10
15.8185939706
 20
6.2012743556
 11
15.7183741119
 21
6.1433615461
  0
LINE
  5
6E5
100
AcDbEntity
  8
0
100
AcDbLine
 62
7
  6
CONTINUOUS
 10
15.6905352622
 20
6.1272746546
 11
15.5903154035
 21
6.0693618451
  0
LINE
  5
6E6
100
AcDbEntity
  8
0
100
AcDbLine
 62
7
  6
CONTINUOUS
 10
15.5624765538
 20
6.0532749535
 11
15.4622566951
 21
5.9953621441
  0
LINE
  5
6E7
100
AcDbEntity
  8
0
100
AcDbLine
 62
7
  6
CONTINUOUS
 10
15.4344178454
 20
5.9792752525
 11
15.3341979867
 21
5.921362443
  0
LINE
  5
6E8
100
AcDbEntity
  8
0
100
AcDbLine
 62
7
  6
CONTINUOUS
 10
15.306359137
 20
5.9052755515
 11
15.2061392783
 21
5.847362742
  0
LINE
  5
6E9
100
AcDbEntity
  8
0
100
AcDbLine
 62
7
  6
CONTINUOUS
 10
15.1783004286
 20
5.8312758505
 11
15.0780805699
 21
5.773363041
  0
LINE
  5
6EA
100
AcDbEntity
  8
0
100
AcDbLine
 62
7
  6
CONTINUOUS
 10
13.1179431834
 20
4.5925358693
 11
12.903866412
 21
4.4688299747
  0
LINE
  5
6EB
100
AcDbEntity
  8
0
100
AcDbLine
 62
7
  6
CONTINUOUS
 10
16.0607919626
 20
6.2416441591
 11
15.9744915287
 21
6.1917747954
  0
LINE
  5
6EC
100
AcDbEntity
  8
0
100
AcDbLine
 62
7
  6
CONTINUOUS
 10
15.9327332542
 20
6.1676444581
 11
15.8464328203
 21
6.1177750944
  0
LINE
  5
6ED
100
AcDbEntity
  8
0
100
AcDbLine
 62
7
  6
CONTINUOUS
 10
15.8046745458
 20
6.0936447571
 11
15.7183741119
 21
6.0437753934
  0
LINE
  5
6EE
100
AcDbEntity
  8
0
100
AcDbLine
 62
7
  6
CONTINUOUS
 10
15.6766158374
 20
6.0196450561
 11
15.5903154035
 21
5.9697756923
  0
LINE
  5
6EF
100
AcDbEntity
  8
0
100
AcDbLine
 62
7
  6
CONTINUOUS
 10
15.548557129
 20
5.945645355
 11
15.4622566951
 21
5.8957759913
  0
LINE
  5
6F0
100
AcDbEntity
  8
0
100
AcDbLine
 62
7
  6
CONTINUOUS
 10
15.4204984206
 20
5.871645654
 11
15.3341979867
 21
5.8217762903
  0
LINE
  5
6F1
100
AcDbEntity
  8
0
100
AcDbLine
 62
7
  6
CONTINUOUS
 10
15.2924397122
 20
5.797645953
 11
15.2061392783
 21
5.7477765893
  0
LINE
  5
6F2
100
AcDbEntity
  8
0
100
AcDbLine
 62
7
  6
CONTINUOUS
 10
15.1643810038
 20
5.723646252
 11
15.0780805699
 21
5.6737768883
  0
LINE
  5
6F3
100
AcDbEntity
  8
0
100
AcDbLine
 62
7
  6
CONTINUOUS
 10
15.9188138294
 20
6.8391462419
 11
15.7935390059
 21
6.8954079804
  0
LINE
  5
6F4
100
AcDbEntity
  8
0
100
AcDbLine
 62
7
  6
CONTINUOUS
 10
15.8559636539
 20
6.5347090213
 11
15.8868401272
 21
6.5169138221
  0
LINE
  5
6F5
100
AcDbEntity
  8
0
100
AcDbLine
 62
7
  6
CONTINUOUS
 10
15.9104621745
 20
6.5032996042
 11
15.9413386478
 21
6.485504405
  0
LINE
  5
6F6
100
AcDbEntity
  8
0
100
AcDbLine
 62
7
  6
CONTINUOUS
 10
15.900199963
 20
6.5183657836
 11
15.8687039
 21
6.5365180742
  0
LINE
  5
6F7
100
AcDbEntity
  8
0
100
AcDbLine
 62
7
  6
CONTINUOUS
 10
15.8844519315
 20
6.5637944596
 11
15.9159479945
 21
6.545642169
  0
LINE
  5
6F8
100
AcDbEntity
  8
0
100
AcDbLine
 62
7
  6
CONTINUOUS
 10
15.964960695
 20
6.5264189831
 11
15.9340842217
 21
6.5442141823
  0
LINE
  5
6F9
100
AcDbEntity
  8
0
100
AcDbLine
 62
7
  6
CONTINUOUS
 10
15.9104621745
 20
6.5578284002
 11
15.8795857012
 21
6.5756235994
  0
LINE
  5
6FA
100
AcDbEntity
  8
0
100
AcDbLine
 62
7
  6
CONTINUOUS
 10
16.0607919626
 20
6.53725305
 11
16.0747113874
 21
6.5292096043
  0
LINE
  5
6FB
100
AcDbEntity
  8
0
100
AcDbLine
 62
7
  6
CONTINUOUS
 10
15.1309743842
 20
7.0924820861
 11
14.9361024366
 21
7.2050903268
  0
LINE
  5
6FC
100
AcDbEntity
  8
0
100
AcDbLine
 62
7
  6
CONTINUOUS
 10
15.1309743842
 20
7.1085689776
 11
14.9639412863
 21
7.2050903268
  0
LINE
  5
6FD
100
AcDbEntity
  8
0
100
AcDbLine
 62
7
  6
CONTINUOUS
 10
12.0130232231
 20
8.9263877201
 11
11.8181512755
 21
9.0389959608
  0
LINE
  5
6FE
100
AcDbEntity
  8
0
100
AcDbLine
 62
7
  6
CONTINUOUS
 10
12.0130232231
 20
8.9424746116
 11
11.8459901251
 21
9.0389959608
  0
LINE
  5
6FF
100
AcDbEntity
  8
0
100
AcDbLine
 62
7
  6
CONTINUOUS
 10
15.9057376615
 20
6.7151766649
 11
15.9405362235
 21
6.6950680505
  0
LINE
  5
700
100
AcDbEntity
  8
0
100
AcDbLine
 62
7
  6
CONTINUOUS
 10
16.0607919626
 20
6.6850574955
 11
16.0747113874
 21
6.6770140497
  0
LINE
  5
701
100
AcDbEntity
  8
0
100
AcDbLine
 62
7
  6
CONTINUOUS
 10
15.9469780711
 20
6.4824242618
 11
15.900199963
 21
6.5183657836
  0
LINE
  5
702
100
AcDbEntity
  8
0
100
AcDbLine
 62
7
  6
CONTINUOUS
 10
15.1727326587
 20
6.9683898517
 11
15.1727326587
 21
6.960089867
  0
LINE
  5
703
100
AcDbEntity
  8
0
100
AcDbLine
 62
7
  6
CONTINUOUS
 10
15.1783004286
 20
3.7941450154
 11
15.1783004286
 21
3.9098180597
  0
LINE
  5
704
100
AcDbEntity
  8
0
100
AcDbLine
 62
7
  6
CONTINUOUS
 10
15.1783004286
 20
3.9419494609
 11
15.1783004286
 21
4.0576225051
  0
LINE
  5
705
100
AcDbEntity
  8
0
100
AcDbLine
 62
7
  6
CONTINUOUS
 10
15.1783004286
 20
4.0897539063
 11
15.1783004286
 21
4.2054269506
  0
LINE
  5
706
100
AcDbEntity
  8
0
100
AcDbLine
 62
7
  6
CONTINUOUS
 10
15.1783004286
 20
4.2375583517
 11
15.1783004286
 21
4.353231396
  0
LINE
  5
707
100
AcDbEntity
  8
0
100
AcDbLine
 62
7
  6
CONTINUOUS
 10
15.1783004286
 20
4.3853627972
 11
15.1783004286
 21
4.5010358415
  0
LINE
  5
708
100
AcDbEntity
  8
0
100
AcDbLine
 62
7
  6
CONTINUOUS
 10
15.1783004286
 20
4.5331672426
 11
15.1783004286
 21
4.6488402869
  0
LINE
  5
709
100
AcDbEntity
  8
0
100
AcDbLine
 62
7
  6
CONTINUOUS
 10
15.1783004286
 20
4.6809716881
 11
15.1783004286
 21
4.7966447324
  0
LINE
  5
70A
100
AcDbEntity
  8
0
100
AcDbLine
 62
7
  6
CONTINUOUS
 10
15.1783004286
 20
4.8287761335
 11
15.1783004286
 21
4.9444491778
  0
LINE
  5
70B
100
AcDbEntity
  8
0
100
AcDbLine
 62
7
  6
CONTINUOUS
 10
15.1783004286
 20
4.976580579
 11
15.1783004286
 21
5.0922536232
  0
LINE
  5
70C
100
AcDbEntity
  8
0
100
AcDbLine
 62
7
  6
CONTINUOUS
 10
15.1783004286
 20
5.1243850244
 11
15.1783004286
 21
5.2400580687
  0
LINE
  5
70D
100
AcDbEntity
  8
0
100
AcDbLine
 62
7
  6
CONTINUOUS
 10
15.1783004286
 20
5.2721894699
 11
15.1783004286
 21
5.3878625141
  0
LINE
  5
70E
100
AcDbEntity
  8
0
100
AcDbLine
 62
7
  6
CONTINUOUS
 10
15.1783004286
 20
5.4199939153
 11
15.1783004286
 21
5.5356669596
  0
LINE
  5
70F
100
AcDbEntity
  8
0
100
AcDbLine
 62
7
  6
CONTINUOUS
 10
15.1783004286
 20
5.5677983608
 11
15.1783004286
 21
5.683471405
  0
LINE
  5
710
100
AcDbEntity
  8
0
100
AcDbLine
 62
7
  6
CONTINUOUS
 10
15.1783004286
 20
5.7156028062
 11
15.1783004286
 21
5.8312758505
  0
LINE
  5
711
100
AcDbEntity
  8
0
100
AcDbLine
 62
7
  6
CONTINUOUS
 10
15.1783004286
 20
5.8634072517
 11
15.1783004286
 21
5.9790802959
  0
LINE
  5
712
100
AcDbEntity
  8
0
100
AcDbLine
 62
7
  6
CONTINUOUS
 10
15.1783004286
 20
6.0112116971
 11
15.1783004286
 21
6.1268847414
  0
LINE
  5
713
100
AcDbEntity
  8
0
100
AcDbLine
 62
7
  6
CONTINUOUS
 10
15.1783004286
 20
6.1590161426
 11
15.1783004286
 21
6.2746891868
  0
LINE
  5
714
100
AcDbEntity
  8
0
100
AcDbLine
 62
7
  6
CONTINUOUS
 10
15.1866520835
 20
6.3855488782
 11
15.1866520835
 21
6.9478483989
  0
LINE
  5
715
100
AcDbEntity
  8
0
100
AcDbLine
 62
7
  6
CONTINUOUS
 10
15.1950037384
 20
6.3807228107
 11
15.1950037384
 21
6.7341682238
  0
LINE
  5
716
100
AcDbEntity
  8
0
100
AcDbLine
 62
7
  6
CONTINUOUS
 10
15.2061392783
 20
6.2907760784
 11
15.2061392783
 21
6.1751030341
  0
LINE
  5
717
100
AcDbEntity
  8
0
100
AcDbLine
 62
7
  6
CONTINUOUS
 10
15.2061392783
 20
6.1429716329
 11
15.2061392783
 21
6.0272985886
  0
LINE
  5
718
100
AcDbEntity
  8
0
100
AcDbLine
 62
7
  6
CONTINUOUS
 10
15.2061392783
 20
5.9951671875
 11
15.2061392783
 21
5.8794941432
  0
LINE
  5
719
100
AcDbEntity
  8
0
100
AcDbLine
 62
7
  6
CONTINUOUS
 10
15.2061392783
 20
5.847362742
 11
15.2061392783
 21
5.7316896977
  0
LINE
  5
71A
100
AcDbEntity
  8
0
100
AcDbLine
 62
7
  6
CONTINUOUS
 10
15.2061392783
 20
5.6995582966
 11
15.2061392783
 21
5.5838852523
  0
LINE
  5
71B
100
AcDbEntity
  8
0
100
AcDbLine
 62
7
  6
CONTINUOUS
 10
15.2061392783
 20
5.5517538511
 11
15.2061392783
 21
5.4360808069
  0
LINE
  5
71C
100
AcDbEntity
  8
0
100
AcDbLine
 62
7
  6
CONTINUOUS
 10
15.2061392783
 20
5.4039494057
 11
15.2061392783
 21
5.2882763614
  0
LINE
  5
71D
100
AcDbEntity
  8
0
100
AcDbLine
 62
7
  6
CONTINUOUS
 10
15.2061392783
 20
5.2561449602
 11
15.2061392783
 21
5.140471916
  0
LINE
  5
71E
100
AcDbEntity
  8
0
100
AcDbLine
 62
7
  6
CONTINUOUS
 10
15.2061392783
 20
5.1083405148
 11
15.2061392783
 21
4.9926674705
  0
LINE
  5
71F
100
AcDbEntity
  8
0
100
AcDbLine
 62
7
  6
CONTINUOUS
 10
15.2061392783
 20
4.9605360693
 11
15.2061392783
 21
4.8448630251
  0
LINE
  5
720
100
AcDbEntity
  8
0
100
AcDbLine
 62
7
  6
CONTINUOUS
 10
15.2061392783
 20
4.8127316239
 11
15.2061392783
 21
4.6970585796
  0
LINE
  5
721
100
AcDbEntity
  8
0
100
AcDbLine
 62
7
  6
CONTINUOUS
 10
15.2061392783
 20
4.6649271784
 11
15.2061392783
 21
4.5492541342
  0
LINE
  5
722
100
AcDbEntity
  8
0
100
AcDbLine
 62
7
  6
CONTINUOUS
 10
15.2061392783
 20
4.517122733
 11
15.2061392783
 21
4.4014496887
  0
LINE
  5
723
100
AcDbEntity
  8
0
100
AcDbLine
 62
7
  6
CONTINUOUS
 10
15.2061392783
 20
4.3693182875
 11
15.2061392783
 21
4.2536452433
  0
LINE
  5
724
100
AcDbEntity
  8
0
100
AcDbLine
 62
7
  6
CONTINUOUS
 10
15.2061392783
 20
4.2215138421
 11
15.2061392783
 21
4.1058407978
  0
LINE
  5
725
100
AcDbEntity
  8
0
100
AcDbLine
 62
7
  6
CONTINUOUS
 10
15.2061392783
 20
4.0737093966
 11
15.2061392783
 21
3.9580363524
  0
LINE
  5
726
100
AcDbEntity
  8
0
100
AcDbLine
 62
7
  6
CONTINUOUS
 10
15.2061392783
 20
3.9259049512
 11
15.2061392783
 21
3.8102319069
  0
LINE
  5
727
100
AcDbEntity
  8
0
100
AcDbLine
 62
7
  6
CONTINUOUS
 10
15.2228425881
 20
6.4369739537
 11
15.2228425881
 21
6.7100908638
  0
LINE
  5
728
100
AcDbEntity
  8
0
100
AcDbLine
 62
7
  6
CONTINUOUS
 10
15.2610355413
 20
7.1837258089
 11
15.2610355413
 21
7.2131337726
  0
LINE
  5
729
100
AcDbEntity
  8
0
100
AcDbLine
 62
7
  6
CONTINUOUS
 10
15.2924397122
 20
6.7503080926
 11
15.2924397122
 21
6.6058439329
  0
LINE
  5
72A
100
AcDbEntity
  8
0
100
AcDbLine
 62
7
  6
CONTINUOUS
 10
15.2924397122
 20
6.3406454421
 11
15.2924397122
 21
6.2410592893
  0
LINE
  5
72B
100
AcDbEntity
  8
0
100
AcDbLine
 62
7
  6
CONTINUOUS
 10
15.2924397122
 20
6.1928409966
 11
15.2924397122
 21
6.0932548439
  0
LINE
  5
72C
100
AcDbEntity
  8
0
100
AcDbLine
 62
7
  6
CONTINUOUS
 10
15.2924397122
 20
6.0450365512
 11
15.2924397122
 21
5.9454503985
  0
LINE
  5
72D
100
AcDbEntity
  8
0
100
AcDbLine
 62
7
  6
CONTINUOUS
 10
15.2924397122
 20
5.8972321057
 11
15.2924397122
 21
5.797645953
  0
LINE
  5
72E
100
AcDbEntity
  8
0
100
AcDbLine
 62
7
  6
CONTINUOUS
 10
15.2924397122
 20
5.7494276603
 11
15.2924397122
 21
5.6498415076
  0
LINE
  5
72F
100
AcDbEntity
  8
0
100
AcDbLine
 62
7
  6
CONTINUOUS
 10
15.2924397122
 20
5.6016232148
 11
15.2924397122
 21
5.5020370621
  0
LINE
  5
730
100
AcDbEntity
  8
0
100
AcDbLine
 62
7
  6
CONTINUOUS
 10
15.2924397122
 20
5.4538187694
 11
15.2924397122
 21
5.3542326167
  0
LINE
  5
731
100
AcDbEntity
  8
0
100
AcDbLine
 62
7
  6
CONTINUOUS
 10
15.2924397122
 20
5.306014324
 11
15.2924397122
 21
5.2064281712
  0
LINE
  5
732
100
AcDbEntity
  8
0
100
AcDbLine
 62
7
  6
CONTINUOUS
 10
15.2924397122
 20
5.1582098785
 11
15.2924397122
 21
5.0586237258
  0
LINE
  5
733
100
AcDbEntity
  8
0
100
AcDbLine
 62
7
  6
CONTINUOUS
 10
15.2924397122
 20
5.0104054331
 11
15.2924397122
 21
4.9108192803
  0
LINE
  5
734
100
AcDbEntity
  8
0
100
AcDbLine
 62
7
  6
CONTINUOUS
 10
15.2924397122
 20
4.8626009876
 11
15.2924397122
 21
4.7630148349
  0
LINE
  5
735
100
AcDbEntity
  8
0
100
AcDbLine
 62
7
  6
CONTINUOUS
 10
15.2924397122
 20
4.7147965422
 11
15.2924397122
 21
4.6152103894
  0
LINE
  5
736
100
AcDbEntity
  8
0
100
AcDbLine
 62
7
  6
CONTINUOUS
 10
15.2924397122
 20
4.5669920967
 11
15.2924397122
 21
4.467405944
  0
LINE
  5
737
100
AcDbEntity
  8
0
100
AcDbLine
 62
7
  6
CONTINUOUS
 10
15.2924397122
 20
4.4191876513
 11
15.2924397122
 21
4.3196014985
  0
LINE
  5
738
100
AcDbEntity
  8
0
100
AcDbLine
 62
7
  6
CONTINUOUS
 10
15.2924397122
 20
4.2713832058
 11
15.2924397122
 21
4.1717970531
  0
LINE
  5
739
100
AcDbEntity
  8
0
100
AcDbLine
 62
7
  6
CONTINUOUS
 10
15.2924397122
 20
4.1235787604
 11
15.2924397122
 21
4.0239926076
  0
LINE
  5
73A
100
AcDbEntity
  8
0
100
AcDbLine
 62
7
  6
CONTINUOUS
 10
15.2924397122
 20
3.9757743149
 11
15.2924397122
 21
3.8761881622
  0
LINE
  5
73B
100
AcDbEntity
  8
0
100
AcDbLine
 62
7
  6
CONTINUOUS
 10
15.2932211484
 20
7.2374336373
 11
15.2932211484
 21
7.3659592421
  0
LINE
  5
73C
100
AcDbEntity
  8
0
100
AcDbLine
 62
7
  6
CONTINUOUS
 10
15.306359137
 20
3.8681447164
 11
15.306359137
 21
3.9838177607
  0
LINE
  5
73D
100
AcDbEntity
  8
0
100
AcDbLine
 62
7
  6
CONTINUOUS
 10
15.306359137
 20
4.0159491619
 11
15.306359137
 21
4.1316222061
  0
LINE
  5
73E
100
AcDbEntity
  8
0
100
AcDbLine
 62
7
  6
CONTINUOUS
 10
15.306359137
 20
4.1637536073
 11
15.306359137
 21
4.2794266516
  0
LINE
  5
73F
100
AcDbEntity
  8
0
100
AcDbLine
 62
7
  6
CONTINUOUS
 10
15.306359137
 20
4.3115580528
 11
15.306359137
 21
4.427231097
  0
LINE
  5
740
100
AcDbEntity
  8
0
100
AcDbLine
 62
7
  6
CONTINUOUS
 10
15.306359137
 20
4.4593624982
 11
15.306359137
 21
4.5750355425
  0
LINE
  5
741
100
AcDbEntity
  8
0
100
AcDbLine
 62
7
  6
CONTINUOUS
 10
15.306359137
 20
4.6071669437
 11
15.306359137
 21
4.7228399879
  0
LINE
  5
742
100
AcDbEntity
  8
0
100
AcDbLine
 62
7
  6
CONTINUOUS
 10
15.306359137
 20
4.7549713891
 11
15.306359137
 21
4.8706444334
  0
LINE
  5
743
100
AcDbEntity
  8
0
100
AcDbLine
 62
7
  6
CONTINUOUS
 10
15.306359137
 20
4.9027758346
 11
15.306359137
 21
5.0184488788
  0
LINE
  5
744
100
AcDbEntity
  8
0
100
AcDbLine
 62
7
  6
CONTINUOUS
 10
15.306359137
 20
5.05058028
 11
15.306359137
 21
5.1662533243
  0
LINE
  5
745
100
AcDbEntity
  8
0
100
AcDbLine
 62
7
  6
CONTINUOUS
 10
15.306359137
 20
5.1983847255
 11
15.306359137
 21
5.3140577697
  0
LINE
  5
746
100
AcDbEntity
  8
0
100
AcDbLine
 62
7
  6
CONTINUOUS
 10
15.306359137
 20
5.3461891709
 11
15.306359137
 21
5.4618622152
  0
LINE
  5
747
100
AcDbEntity
  8
0
100
AcDbLine
 62
7
  6
CONTINUOUS
 10
15.306359137
 20
5.4939936163
 11
15.306359137
 21
5.6096666606
  0
LINE
  5
748
100
AcDbEntity
  8
0
100
AcDbLine
 62
7
  6
CONTINUOUS
 10
15.306359137
 20
5.6417980618
 11
15.306359137
 21
5.7574711061
  0
LINE
  5
749
100
AcDbEntity
  8
0
100
AcDbLine
 62
7
  6
CONTINUOUS
 10
15.306359137
 20
5.7896025072
 11
15.306359137
 21
5.9052755515
  0
LINE
  5
74A
100
AcDbEntity
  8
0
100
AcDbLine
 62
7
  6
CONTINUOUS
 10
15.306359137
 20
5.9374069527
 11
15.306359137
 21
6.053079997
  0
LINE
  5
74B
100
AcDbEntity
  8
0
100
AcDbLine
 62
7
  6
CONTINUOUS
 10
15.306359137
 20
6.0852113981
 11
15.306359137
 21
6.2008844424
  0
LINE
  5
74C
100
AcDbEntity
  8
0
100
AcDbLine
 62
7
  6
CONTINUOUS
 10
15.306359137
 20
6.2330158436
 11
15.306359137
 21
6.3486888878
  0
LINE
  5
74D
100
AcDbEntity
  8
0
100
AcDbLine
 62
7
  6
CONTINUOUS
 10
15.3341979867
 20
6.3647757794
 11
15.3341979867
 21
6.2491027351
  0
LINE
  5
74E
100
AcDbEntity
  8
0
100
AcDbLine
 62
7
  6
CONTINUOUS
 10
15.3341979867
 20
6.2169713339
 11
15.3341979867
 21
6.1012982897
  0
LINE
  5
74F
100
AcDbEntity
  8
0
100
AcDbLine
 62
7
  6
CONTINUOUS
 10
15.3341979867
 20
6.0691668885
 11
15.3341979867
 21
5.9534938442
  0
LINE
  5
750
100
AcDbEntity
  8
0
100
AcDbLine
 62
7
  6
CONTINUOUS
 10
15.3341979867
 20
5.921362443
 11
15.3341979867
 21
5.8056893988
  0
LINE
  5
751
100
AcDbEntity
  8
0
100
AcDbLine
 62
7
  6
CONTINUOUS
 10
15.3341979867
 20
5.7735579976
 11
15.3341979867
 21
5.6578849533
  0
LINE
  5
752
100
AcDbEntity
  8
0
100
AcDbLine
 62
7
  6
CONTINUOUS
 10
15.3341979867
 20
5.6257535521
 11
15.3341979867
 21
5.5100805079
  0
LINE
  5
753
100
AcDbEntity
  8
0
100
AcDbLine
 62
7
  6
CONTINUOUS
 10
15.3341979867
 20
5.4779491067
 11
15.3341979867
 21
5.3622760624
  0
LINE
  5
754
100
AcDbEntity
  8
0
100
AcDbLine
 62
7
  6
CONTINUOUS
 10
15.3341979867
 20
5.3301446612
 11
15.3341979867
 21
5.214471617
  0
LINE
  5
755
100
AcDbEntity
  8
0
100
AcDbLine
 62
7
  6
CONTINUOUS
 10
15.3341979867
 20
5.1823402158
 11
15.3341979867
 21
5.0666671715
  0
LINE
  5
756
100
AcDbEntity
  8
0
100
AcDbLine
 62
7
  6
CONTINUOUS
 10
15.3341979867
 20
5.0345357703
 11
15.3341979867
 21
4.9188627261
  0
LINE
  5
757
100
AcDbEntity
  8
0
100
AcDbLine
 62
7
  6
CONTINUOUS
 10
15.3341979867
 20
4.8867313249
 11
15.3341979867
 21
4.7710582806
  0
LINE
  5
758
100
AcDbEntity
  8
0
100
AcDbLine
 62
7
  6
CONTINUOUS
 10
15.3341979867
 20
4.7389268795
 11
15.3341979867
 21
4.6232538352
  0
LINE
  5
759
100
AcDbEntity
  8
0
100
AcDbLine
 62
7
  6
CONTINUOUS
 10
15.3341979867
 20
4.591122434
 11
15.3341979867
 21
4.4754493897
  0
LINE
  5
75A
100
AcDbEntity
  8
0
100
AcDbLine
 62
7
  6
CONTINUOUS
 10
15.3341979867
 20
4.4433179886
 11
15.3341979867
 21
4.3276449443
  0
LINE
  5
75B
100
AcDbEntity
  8
0
100
AcDbLine
 62
7
  6
CONTINUOUS
 10
15.3341979867
 20
4.2955135431
 11
15.3341979867
 21
4.1798404988
  0
LINE
  5
75C
100
AcDbEntity
  8
0
100
AcDbLine
 62
7
  6
CONTINUOUS
 10
15.3341979867
 20
4.1477090977
 11
15.3341979867
 21
4.0320360534
  0
LINE
  5
75D
100
AcDbEntity
  8
0
100
AcDbLine
 62
7
  6
CONTINUOUS
 10
15.3341979867
 20
3.9999046522
 11
15.3341979867
 21
3.884231608
  0
LINE
  5
75E
100
AcDbEntity
  8
0
100
AcDbLine
 62
7
  6
CONTINUOUS
 10
15.3896778414
 20
7.3516047081
 11
15.3896778414
 21
7.3165115086
  0
LINE
  5
75F
100
AcDbEntity
  8
0
100
AcDbLine
 62
7
  6
CONTINUOUS
 10
15.4177145356
 20
6.8226991045
 11
15.4177145356
 21
6.5495821944
  0
LINE
  5
760
100
AcDbEntity
  8
0
100
AcDbLine
 62
7
  6
CONTINUOUS
 10
15.0780805699
 20
5.6576899967
 11
15.1783004286
 21
5.7156028062
  0
LINE
  5
761
100
AcDbEntity
  8
0
100
AcDbLine
 62
7
  6
CONTINUOUS
 10
15.2061392783
 20
5.7316896977
 11
15.306359137
 21
5.7896025072
  0
LINE
  5
762
100
AcDbEntity
  8
0
100
AcDbLine
 62
7
  6
CONTINUOUS
 10
15.3341979867
 20
5.8056893988
 11
15.4344178454
 21
5.8636022083
  0
LINE
  5
763
100
AcDbEntity
  8
0
100
AcDbLine
 62
7
  6
CONTINUOUS
 10
15.4622566951
 20
5.8796890998
 11
15.5624765538
 21
5.9376019093
  0
LINE
  5
764
100
AcDbEntity
  8
0
100
AcDbLine
 62
7
  6
CONTINUOUS
 10
15.5903154035
 20
5.9536888008
 11
15.6905352622
 21
6.0116016103
  0
LINE
  5
765
100
AcDbEntity
  8
0
100
AcDbLine
 62
7
  6
CONTINUOUS
 10
15.7183741119
 20
6.0276885018
 11
15.8185939706
 21
6.0856013113
  0
LINE
  5
766
100
AcDbEntity
  8
0
100
AcDbLine
 62
7
  6
CONTINUOUS
 10
15.8464328203
 20
6.1016882028
 11
15.946652679
 21
6.1596010123
  0
LINE
  5
767
100
AcDbEntity
  8
0
100
AcDbLine
 62
7
  6
CONTINUOUS
 10
15.9744915287
 20
6.1756879039
 11
16.0747113874
 21
6.2336007134
  0
LINE
  5
768
100
AcDbEntity
  8
0
100
AcDbLine
 62
7
  6
CONTINUOUS
 10
16.0747113874
 20
6.2014693122
 11
15.9744915287
 21
6.1435565027
  0
LINE
  5
769
100
AcDbEntity
  8
0
100
AcDbLine
 62
7
  6
CONTINUOUS
 10
15.946652679
 20
6.1274696112
 11
15.8464328203
 21
6.0695568017
  0
LINE
  5
76A
100
AcDbEntity
  8
0
100
AcDbLine
 62
7
  6
CONTINUOUS
 10
15.8185939706
 20
6.0534699101
 11
15.7183741119
 21
5.9955571006
  0
LINE
  5
76B
100
AcDbEntity
  8
0
100
AcDbLine
 62
7
  6
CONTINUOUS
 10
15.6905352622
 20
5.9794702091
 11
15.5903154035
 21
5.9215573996
  0
LINE
  5
76C
100
AcDbEntity
  8
0
100
AcDbLine
 62
7
  6
CONTINUOUS
 10
15.5624765538
 20
5.9054705081
 11
15.4622566951
 21
5.8475576986
  0
LINE
  5
76D
100
AcDbEntity
  8
0
100
AcDbLine
 62
7
  6
CONTINUOUS
 10
15.4344178454
 20
5.8314708071
 11
15.3341979867
 21
5.7735579976
  0
LINE
  5
76E
100
AcDbEntity
  8
0
100
AcDbLine
 62
7
  6
CONTINUOUS
 10
15.306359137
 20
5.7574711061
 11
15.2061392783
 21
5.6995582966
  0
LINE
  5
76F
100
AcDbEntity
  8
0
100
AcDbLine
 62
7
  6
CONTINUOUS
 10
15.1783004286
 20
5.683471405
 11
15.0780805699
 21
5.6255585955
  0
LINE
  5
770
100
AcDbEntity
  8
0
100
AcDbLine
 62
7
  6
CONTINUOUS
 10
16.0607919626
 20
6.0938397137
 11
15.9744915287
 21
6.0439703499
  0
LINE
  5
771
100
AcDbEntity
  8
0
100
AcDbLine
 62
7
  6
CONTINUOUS
 10
15.9327332542
 20
6.0198400127
 11
15.8464328203
 21
5.9699706489
  0
LINE
  5
772
100
AcDbEntity
  8
0
100
AcDbLine
 62
7
  6
CONTINUOUS
 10
15.8046745458
 20
5.9458403116
 11
15.7183741119
 21
5.8959709479
  0
LINE
  5
773
100
AcDbEntity
  8
0
100
AcDbLine
 62
7
  6
CONTINUOUS
 10
15.6766158374
 20
5.8718406106
 11
15.5903154035
 21
5.8219712469
  0
LINE
  5
774
100
AcDbEntity
  8
0
100
AcDbLine
 62
7
  6
CONTINUOUS
 10
15.548557129
 20
5.7978409096
 11
15.4622566951
 21
5.7479715459
  0
LINE
  5
775
100
AcDbEntity
  8
0
100
AcDbLine
 62
7
  6
CONTINUOUS
 10
15.4204984206
 20
5.7238412086
 11
15.3341979867
 21
5.6739718448
  0
LINE
  5
776
100
AcDbEntity
  8
0
100
AcDbLine
 62
7
  6
CONTINUOUS
 10
15.2924397122
 20
5.6498415076
 11
15.2061392783
 21
5.5999721438
  0
LINE
  5
777
100
AcDbEntity
  8
0
100
AcDbLine
 62
7
  6
CONTINUOUS
 10
15.1643810038
 20
5.5758418065
 11
15.0780805699
 21
5.5259724428
  0
LINE
  5
778
100
AcDbEntity
  8
0
100
AcDbLine
 62
7
  6
CONTINUOUS
 10
15.0780805699
 20
5.5098855513
 11
15.1783004286
 21
5.5677983608
  0
LINE
  5
779
100
AcDbEntity
  8
0
100
AcDbLine
 62
7
  6
CONTINUOUS
 10
15.2061392783
 20
5.5838852523
 11
15.306359137
 21
5.6417980618
  0
LINE
  5
77A
100
AcDbEntity
  8
0
100
AcDbLine
 62
7
  6
CONTINUOUS
 10
15.3341979867
 20
5.6578849533
 11
15.4344178454
 21
5.7157977628
  0
LINE
  5
77B
100
AcDbEntity
  8
0
100
AcDbLine
 62
7
  6
CONTINUOUS
 10
15.4622566951
 20
5.7318846543
 11
15.5624765538
 21
5.7897974638
  0
LINE
  5
77C
100
AcDbEntity
  8
0
100
AcDbLine
 62
7
  6
CONTINUOUS
 10
15.5903154035
 20
5.8058843554
 11
15.6905352622
 21
5.8637971649
  0
LINE
  5
77D
100
AcDbEntity
  8
0
100
AcDbLine
 62
7
  6
CONTINUOUS
 10
15.7183741119
 20
5.8798840564
 11
15.8185939706
 21
5.9377968659
  0
LINE
  5
77E
100
AcDbEntity
  8
0
100
AcDbLine
 62
7
  6
CONTINUOUS
 10
15.8464328203
 20
5.9538837574
 11
15.946652679
 21
6.0117965669
  0
LINE
  5
77F
100
AcDbEntity
  8
0
100
AcDbLine
 62
7
  6
CONTINUOUS
 10
15.9744915287
 20
6.0278834584
 11
16.0747113874
 21
6.0857962679
  0
LINE
  5
780
100
AcDbEntity
  8
0
100
AcDbLine
 62
7
  6
CONTINUOUS
 10
16.0747113874
 20
6.0536648667
 11
15.9744915287
 21
5.9957520572
  0
LINE
  5
781
100
AcDbEntity
  8
0
100
AcDbLine
 62
7
  6
CONTINUOUS
 10
15.946652679
 20
5.9796651657
 11
15.8464328203
 21
5.9217523562
  0
LINE
  5
782
100
AcDbEntity
  8
0
100
AcDbLine
 62
7
  6
CONTINUOUS
 10
15.8185939706
 20
5.9056654647
 11
15.7183741119
 21
5.8477526552
  0
LINE
  5
783
100
AcDbEntity
  8
0
100
AcDbLine
 62
7
  6
CONTINUOUS
 10
15.6905352622
 20
5.8316657637
 11
15.5903154035
 21
5.7737529542
  0
LINE
  5
784
100
AcDbEntity
  8
0
100
AcDbLine
 62
7
  6
CONTINUOUS
 10
15.5624765538
 20
5.7576660627
 11
15.4622566951
 21
5.6997532532
  0
LINE
  5
785
100
AcDbEntity
  8
0
100
AcDbLine
 62
7
  6
CONTINUOUS
 10
15.4344178454
 20
5.6836663616
 11
15.3341979867
 21
5.6257535521
  0
LINE
  5
786
100
AcDbEntity
  8
0
100
AcDbLine
 62
7
  6
CONTINUOUS
 10
15.306359137
 20
5.6096666606
 11
15.2061392783
 21
5.5517538511
  0
LINE
  5
787
100
AcDbEntity
  8
0
100
AcDbLine
 62
7
  6
CONTINUOUS
 10
15.1783004286
 20
5.5356669596
 11
15.0780805699
 21
5.4777541501
  0
LINE
  5
788
100
AcDbEntity
  8
0
100
AcDbLine
 62
7
  6
CONTINUOUS
 10
16.0607919626
 20
5.9460352682
 11
15.9744915287
 21
5.8961659045
  0
LINE
  5
789
100
AcDbEntity
  8
0
100
AcDbLine
 62
7
  6
CONTINUOUS
 10
15.9327332542
 20
5.8720355672
 11
15.8464328203
 21
5.8221662035
  0
LINE
  5
78A
100
AcDbEntity
  8
0
100
AcDbLine
 62
7
  6
CONTINUOUS
 10
15.8046745458
 20
5.7980358662
 11
15.7183741119
 21
5.7481665025
  0
LINE
  5
78B
100
AcDbEntity
  8
0
100
AcDbLine
 62
7
  6
CONTINUOUS
 10
15.6766158374
 20
5.7240361652
 11
15.5903154035
 21
5.6741668014
  0
LINE
  5
78C
100
AcDbEntity
  8
0
100
AcDbLine
 62
7
  6
CONTINUOUS
 10
15.548557129
 20
5.6500364642
 11
15.4622566951
 21
5.6001671004
  0
LINE
  5
78D
100
AcDbEntity
  8
0
100
AcDbLine
 62
7
  6
CONTINUOUS
 10
15.4204984206
 20
5.5760367631
 11
15.3341979867
 21
5.5261673994
  0
LINE
  5
78E
100
AcDbEntity
  8
0
100
AcDbLine
 62
7
  6
CONTINUOUS
 10
15.2924397122
 20
5.5020370621
 11
15.2061392783
 21
5.4521676984
  0
LINE
  5
78F
100
AcDbEntity
  8
0
100
AcDbLine
 62
7
  6
CONTINUOUS
 10
15.1643810038
 20
5.4280373611
 11
15.0780805699
 21
5.3781679974
  0
LINE
  5
790
100
AcDbEntity
  8
0
100
AcDbLine
 62
7
  6
CONTINUOUS
 10
16.0607919626
 20
6.8328619409
 11
16.0747113874
 21
6.8248184952
  0
LINE
  5
791
100
AcDbEntity
  8
0
100
AcDbLine
 62
7
  6
CONTINUOUS
 10
16.0607919626
 20
6.9806663864
 11
16.0747113874
 21
6.9726229406
  0
LINE
  5
792
100
AcDbEntity
  8
0
100
AcDbLine
 62
7
  6
CONTINUOUS
 10
15.9104621745
 20
6.5032996042
 11
15.8687039
 21
6.5365180742
  0
LINE
  5
793
100
AcDbEntity
  8
0
100
AcDbLine
 62
7
  6
CONTINUOUS
 10
15.8868401272
 20
6.5169138221
 11
15.8529558685
 21
6.5455942194
  0
LINE
  5
794
100
AcDbEntity
  8
0
100
AcDbLine
 62
7
  6
CONTINUOUS
 10
15.8723943914
 20
6.4393255138
 11
15.8544968825
 21
6.4610140828
  0
LINE
  5
795
100
AcDbEntity
  8
0
100
AcDbLine
 62
7
  6
CONTINUOUS
 10
15.4204984206
 20
6.4146451431
 11
15.4204984206
 21
6.3150589904
  0
LINE
  5
796
100
AcDbEntity
  8
0
100
AcDbLine
 62
7
  6
CONTINUOUS
 10
15.4204984206
 20
6.2668406977
 11
15.4204984206
 21
6.1672545449
  0
LINE
  5
797
100
AcDbEntity
  8
0
100
AcDbLine
 62
7
  6
CONTINUOUS
 10
15.4204984206
 20
6.1190362522
 11
15.4204984206
 21
6.0194500995
  0
LINE
  5
798
100
AcDbEntity
  8
0
100
AcDbLine
 62
7
  6
CONTINUOUS
 10
15.4204984206
 20
5.9712318068
 11
15.4204984206
 21
5.871645654
  0
LINE
  5
799
100
AcDbEntity
  8
0
100
AcDbLine
 62
7
  6
CONTINUOUS
 10
15.4204984206
 20
5.8234273613
 11
15.4204984206
 21
5.7238412086
  0
LINE
  5
79A
100
AcDbEntity
  8
0
100
AcDbLine
 62
7
  6
CONTINUOUS
 10
15.4204984206
 20
5.6756229159
 11
15.4204984206
 21
5.5760367631
  0
LINE
  5
79B
100
AcDbEntity
  8
0
100
AcDbLine
 62
7
  6
CONTINUOUS
 10
15.4204984206
 20
5.5278184704
 11
15.4204984206
 21
5.4282323177
  0
LINE
  5
79C
100
AcDbEntity
  8
0
100
AcDbLine
 62
7
  6
CONTINUOUS
 10
15.4204984206
 20
5.380014025
 11
15.4204984206
 21
5.2804278722
  0
LINE
  5
79D
100
AcDbEntity
  8
0
100
AcDbLine
 62
7
  6
CONTINUOUS
 10
15.4204984206
 20
5.2322095795
 11
15.4204984206
 21
5.1326234268
  0
LINE
  5
79E
100
AcDbEntity
  8
0
100
AcDbLine
 62
7
  6
CONTINUOUS
 10
15.4204984206
 20
5.0844051341
 11
15.4204984206
 21
4.9848189813
  0
LINE
  5
79F
100
AcDbEntity
  8
0
100
AcDbLine
 62
7
  6
CONTINUOUS
 10
15.4204984206
 20
4.9366006886
 11
15.4204984206
 21
4.8370145359
  0
LINE
  5
7A0
100
AcDbEntity
  8
0
100
AcDbLine
 62
7
  6
CONTINUOUS
 10
15.4204984206
 20
4.7887962432
 11
15.4204984206
 21
4.6892100904
  0
LINE
  5
7A1
100
AcDbEntity
  8
0
100
AcDbLine
 62
7
  6
CONTINUOUS
 10
15.4204984206
 20
4.6409917977
 11
15.4204984206
 21
4.541405645
  0
LINE
  5
7A2
100
AcDbEntity
  8
0
100
AcDbLine
 62
7
  6
CONTINUOUS
 10
15.4204984206
 20
4.4931873523
 11
15.4204984206
 21
4.3936011995
  0
LINE
  5
7A3
100
AcDbEntity
  8
0
100
AcDbLine
 62
7
  6
CONTINUOUS
 10
15.4204984206
 20
4.3453829068
 11
15.4204984206
 21
4.2457967541
  0
LINE
  5
7A4
100
AcDbEntity
  8
0
100
AcDbLine
 62
7
  6
CONTINUOUS
 10
15.4204984206
 20
4.1975784614
 11
15.4204984206
 21
4.0979923087
  0
LINE
  5
7A5
100
AcDbEntity
  8
0
100
AcDbLine
 62
7
  6
CONTINUOUS
 10
15.4204984206
 20
4.0497740159
 11
15.4204984206
 21
3.9501878632
  0
LINE
  5
7A6
100
AcDbEntity
  8
0
100
AcDbLine
 62
7
  6
CONTINUOUS
 10
15.4290479201
 20
7.3164921402
 11
15.4290479201
 21
7.3516047081
  0
LINE
  5
7A7
100
AcDbEntity
  8
0
100
AcDbLine
 62
7
  6
CONTINUOUS
 10
15.4344178454
 20
3.9421444174
 11
15.4344178454
 21
4.0578174617
  0
LINE
  5
7A8
100
AcDbEntity
  8
0
100
AcDbLine
 62
7
  6
CONTINUOUS
 10
15.4344178454
 20
4.0899488629
 11
15.4344178454
 21
4.2056219072
  0
LINE
  5
7A9
100
AcDbEntity
  8
0
100
AcDbLine
 62
7
  6
CONTINUOUS
 10
15.4344178454
 20
4.2377533083
 11
15.4344178454
 21
4.3534263526
  0
LINE
  5
7AA
100
AcDbEntity
  8
0
100
AcDbLine
 62
7
  6
CONTINUOUS
 10
15.4344178454
 20
4.3855577538
 11
15.4344178454
 21
4.501230798
  0
LINE
  5
7AB
100
AcDbEntity
  8
0
100
AcDbLine
 62
7
  6
CONTINUOUS
 10
15.4344178454
 20
4.5333621992
 11
15.4344178454
 21
4.6490352435
  0
LINE
  5
7AC
100
AcDbEntity
  8
0
100
AcDbLine
 62
7
  6
CONTINUOUS
 10
15.4344178454
 20
4.6811666447
 11
15.4344178454
 21
4.7968396889
  0
LINE
  5
7AD
100
AcDbEntity
  8
0
100
AcDbLine
 62
7
  6
CONTINUOUS
 10
15.4344178454
 20
4.8289710901
 11
15.4344178454
 21
4.9446441344
  0
LINE
  5
7AE
100
AcDbEntity
  8
0
100
AcDbLine
 62
7
  6
CONTINUOUS
 10
15.4344178454
 20
4.9767755356
 11
15.4344178454
 21
5.0924485798
  0
LINE
  5
7AF
100
AcDbEntity
  8
0
100
AcDbLine
 62
7
  6
CONTINUOUS
 10
15.4344178454
 20
5.124579981
 11
15.4344178454
 21
5.2402530253
  0
LINE
  5
7B0
100
AcDbEntity
  8
0
100
AcDbLine
 62
7
  6
CONTINUOUS
 10
15.4344178454
 20
5.2723844265
 11
15.4344178454
 21
5.3880574707
  0
LINE
  5
7B1
100
AcDbEntity
  8
0
100
AcDbLine
 62
7
  6
CONTINUOUS
 10
15.4344178454
 20
5.4201888719
 11
15.4344178454
 21
5.5358619162
  0
LINE
  5
7B2
100
AcDbEntity
  8
0
100
AcDbLine
 62
7
  6
CONTINUOUS
 10
15.4344178454
 20
5.5679933174
 11
15.4344178454
 21
5.6836663616
  0
LINE
  5
7B3
100
AcDbEntity
  8
0
100
AcDbLine
 62
7
  6
CONTINUOUS
 10
15.4344178454
 20
5.7157977628
 11
15.4344178454
 21
5.8314708071
  0
LINE
  5
7B4
100
AcDbEntity
  8
0
100
AcDbLine
 62
7
  6
CONTINUOUS
 10
15.4344178454
 20
5.8636022083
 11
15.4344178454
 21
5.9792752525
  0
LINE
  5
7B5
100
AcDbEntity
  8
0
100
AcDbLine
 62
7
  6
CONTINUOUS
 10
15.4344178454
 20
6.0114066537
 11
15.4344178454
 21
6.127079698
  0
LINE
  5
7B6
100
AcDbEntity
  8
0
100
AcDbLine
 62
7
  6
CONTINUOUS
 10
15.4344178454
 20
6.1592110992
 11
15.4344178454
 21
6.2748841434
  0
LINE
  5
7B7
100
AcDbEntity
  8
0
100
AcDbLine
 62
7
  6
CONTINUOUS
 10
15.4344178454
 20
6.3070155446
 11
15.4344178454
 21
6.4226885889
  0
LINE
  5
7B8
100
AcDbEntity
  8
0
100
AcDbLine
 62
7
  6
CONTINUOUS
 10
15.4622566951
 20
6.4387754804
 11
15.4622566951
 21
6.3231024361
  0
LINE
  5
7B9
100
AcDbEntity
  8
0
100
AcDbLine
 62
7
  6
CONTINUOUS
 10
15.4622566951
 20
6.2909710349
 11
15.4622566951
 21
6.1752979907
  0
LINE
  5
7BA
100
AcDbEntity
  8
0
100
AcDbLine
 62
7
  6
CONTINUOUS
 10
15.4622566951
 20
6.1431665895
 11
15.4622566951
 21
6.0274935452
  0
LINE
  5
7BB
100
AcDbEntity
  8
0
100
AcDbLine
 62
7
  6
CONTINUOUS
 10
15.4622566951
 20
5.9953621441
 11
15.4622566951
 21
5.8796890998
  0
LINE
  5
7BC
100
AcDbEntity
  8
0
100
AcDbLine
 62
7
  6
CONTINUOUS
 10
15.4622566951
 20
5.8475576986
 11
15.4622566951
 21
5.7318846543
  0
LINE
  5
7BD
100
AcDbEntity
  8
0
100
AcDbLine
 62
7
  6
CONTINUOUS
 10
15.4622566951
 20
5.6997532532
 11
15.4622566951
 21
5.5840802089
  0
LINE
  5
7BE
100
AcDbEntity
  8
0
100
AcDbLine
 62
7
  6
CONTINUOUS
 10
15.4622566951
 20
5.5519488077
 11
15.4622566951
 21
5.4362757634
  0
LINE
  5
7BF
100
AcDbEntity
  8
0
100
AcDbLine
 62
7
  6
CONTINUOUS
 10
15.4622566951
 20
5.4041443623
 11
15.4622566951
 21
5.288471318
  0
LINE
  5
7C0
100
AcDbEntity
  8
0
100
AcDbLine
 62
7
  6
CONTINUOUS
 10
15.4622566951
 20
5.2563399168
 11
15.4622566951
 21
5.1406668726
  0
LINE
  5
7C1
100
AcDbEntity
  8
0
100
AcDbLine
 62
7
  6
CONTINUOUS
 10
15.4622566951
 20
5.1085354714
 11
15.4622566951
 21
4.9928624271
  0
LINE
  5
7C2
100
AcDbEntity
  8
0
100
AcDbLine
 62
7
  6
CONTINUOUS
 10
15.4622566951
 20
4.9607310259
 11
15.4622566951
 21
4.8450579817
  0
LINE
  5
7C3
100
AcDbEntity
  8
0
100
AcDbLine
 62
7
  6
CONTINUOUS
 10
15.4622566951
 20
4.8129265805
 11
15.4622566951
 21
4.6972535362
  0
LINE
  5
7C4
100
AcDbEntity
  8
0
100
AcDbLine
 62
7
  6
CONTINUOUS
 10
15.4622566951
 20
4.665122135
 11
15.4622566951
 21
4.5494490908
  0
LINE
  5
7C5
100
AcDbEntity
  8
0
100
AcDbLine
 62
7
  6
CONTINUOUS
 10
15.4622566951
 20
4.5173176896
 11
15.4622566951
 21
4.4016446453
  0
LINE
  5
7C6
100
AcDbEntity
  8
0
100
AcDbLine
 62
7
  6
CONTINUOUS
 10
15.4622566951
 20
4.3695132441
 11
15.4622566951
 21
4.2538401999
  0
LINE
  5
7C7
100
AcDbEntity
  8
0
100
AcDbLine
 62
7
  6
CONTINUOUS
 10
15.4622566951
 20
4.2217087987
 11
15.4622566951
 21
4.1060357544
  0
LINE
  5
7C8
100
AcDbEntity
  8
0
100
AcDbLine
 62
7
  6
CONTINUOUS
 10
15.4622566951
 20
4.0739043532
 11
15.4622566951
 21
3.958231309
  0
LINE
  5
7C9
100
AcDbEntity
  8
0
100
AcDbLine
 62
7
  6
CONTINUOUS
 10
15.4733922349
 20
6.5817559775
 11
15.4733922349
 21
6.8548728875
  0
LINE
  5
7CA
100
AcDbEntity
  8
0
100
AcDbLine
 62
7
  6
CONTINUOUS
 10
15.5207182793
 20
3.7187909164
 11
15.5207182793
 21
3.4231820255
  0
LINE
  5
7CB
100
AcDbEntity
  8
0
100
AcDbLine
 62
7
  6
CONTINUOUS
 10
15.525504613
 20
7.3365512784
 11
15.525504613
 21
7.3659592421
  0
LINE
  5
7CC
100
AcDbEntity
  8
0
100
AcDbLine
 62
7
  6
CONTINUOUS
 10
15.5429893591
 20
6.8950901164
 11
15.5429893591
 21
6.7506259566
  0
LINE
  5
7CD
100
AcDbEntity
  8
0
100
AcDbLine
 62
7
  6
CONTINUOUS
 10
15.548557129
 20
6.4886448441
 11
15.548557129
 21
6.3890586914
  0
LINE
  5
7CE
100
AcDbEntity
  8
0
100
AcDbLine
 62
7
  6
CONTINUOUS
 10
15.548557129
 20
6.3408403987
 11
15.548557129
 21
6.2412542459
  0
LINE
  5
7CF
100
AcDbEntity
  8
0
100
AcDbLine
 62
7
  6
CONTINUOUS
 10
15.548557129
 20
6.1930359532
 11
15.548557129
 21
6.0934498005
  0
LINE
  5
7D0
100
AcDbEntity
  8
0
100
AcDbLine
 62
7
  6
CONTINUOUS
 10
15.548557129
 20
6.0452315078
 11
15.548557129
 21
5.945645355
  0
LINE
  5
7D1
100
AcDbEntity
  8
0
100
AcDbLine
 62
7
  6
CONTINUOUS
 10
15.548557129
 20
5.8974270623
 11
15.548557129
 21
5.7978409096
  0
LINE
  5
7D2
100
AcDbEntity
  8
0
100
AcDbLine
 62
7
  6
CONTINUOUS
 10
15.548557129
 20
5.7496226169
 11
15.548557129
 21
5.6500364642
  0
LINE
  5
7D3
100
AcDbEntity
  8
0
100
AcDbLine
 62
7
  6
CONTINUOUS
 10
15.548557129
 20
5.6018181714
 11
15.548557129
 21
5.5022320187
  0
LINE
  5
7D4
100
AcDbEntity
  8
0
100
AcDbLine
 62
7
  6
CONTINUOUS
 10
15.548557129
 20
5.454013726
 11
15.548557129
 21
5.3544275733
  0
LINE
  5
7D5
100
AcDbEntity
  8
0
100
AcDbLine
 62
7
  6
CONTINUOUS
 10
15.548557129
 20
5.3062092805
 11
15.548557129
 21
5.2066231278
  0
LINE
  5
7D6
100
AcDbEntity
  8
0
100
AcDbLine
 62
7
  6
CONTINUOUS
 10
15.548557129
 20
5.1584048351
 11
15.548557129
 21
5.0588186824
  0
LINE
  5
7D7
100
AcDbEntity
  8
0
100
AcDbLine
 62
7
  6
CONTINUOUS
 10
15.548557129
 20
5.0106003896
 11
15.548557129
 21
4.9110142369
  0
LINE
  5
7D8
100
AcDbEntity
  8
0
100
AcDbLine
 62
7
  6
CONTINUOUS
 10
15.548557129
 20
4.8627959442
 11
15.548557129
 21
4.7632097915
  0
LINE
  5
7D9
100
AcDbEntity
  8
0
100
AcDbLine
 62
7
  6
CONTINUOUS
 10
15.548557129
 20
4.7149914988
 11
15.548557129
 21
4.615405346
  0
LINE
  5
7DA
100
AcDbEntity
  8
0
100
AcDbLine
 62
7
  6
CONTINUOUS
 10
15.548557129
 20
4.5671870533
 11
15.548557129
 21
4.4676009006
  0
LINE
  5
7DB
100
AcDbEntity
  8
0
100
AcDbLine
 62
7
  6
CONTINUOUS
 10
15.548557129
 20
4.4193826079
 11
15.548557129
 21
4.3197964551
  0
LINE
  5
7DC
100
AcDbEntity
  8
0
100
AcDbLine
 62
7
  6
CONTINUOUS
 10
15.548557129
 20
4.2715781624
 11
15.548557129
 21
4.1719920097
  0
LINE
  5
7DD
100
AcDbEntity
  8
0
100
AcDbLine
 62
7
  6
CONTINUOUS
 10
15.548557129
 20
4.123773717
 11
15.548557129
 21
4.0241875642
  0
LINE
  5
7DE
100
AcDbEntity
  8
0
100
AcDbLine
 62
7
  6
CONTINUOUS
 10
15.5576902202
 20
7.3902591068
 11
15.5576902202
 21
7.5187847116
  0
LINE
  5
7DF
100
AcDbEntity
  8
0
100
AcDbLine
 62
7
  6
CONTINUOUS
 10
15.5624765538
 20
4.0161441185
 11
15.5624765538
 21
4.1318171627
  0
LINE
  5
7E0
100
AcDbEntity
  8
0
100
AcDbLine
 62
7
  6
CONTINUOUS
 10
15.5624765538
 20
4.1639485639
 11
15.5624765538
 21
4.2796216082
  0
LINE
  5
7E1
100
AcDbEntity
  8
0
100
AcDbLine
 62
7
  6
CONTINUOUS
 10
15.5624765538
 20
4.3117530094
 11
15.5624765538
 21
4.4274260536
  0
LINE
  5
7E2
100
AcDbEntity
  8
0
100
AcDbLine
 62
7
  6
CONTINUOUS
 10
15.5624765538
 20
4.4595574548
 11
15.5624765538
 21
4.5752304991
  0
LINE
  5
7E3
100
AcDbEntity
  8
0
100
AcDbLine
 62
7
  6
CONTINUOUS
 10
15.5624765538
 20
4.6073619003
 11
15.5624765538
 21
4.7230349445
  0
LINE
  5
7E4
100
AcDbEntity
  8
0
100
AcDbLine
 62
7
  6
CONTINUOUS
 10
15.5624765538
 20
4.7551663457
 11
15.5624765538
 21
4.87083939
  0
LINE
  5
7E5
100
AcDbEntity
  8
0
100
AcDbLine
 62
7
  6
CONTINUOUS
 10
15.5624765538
 20
4.9029707911
 11
15.5624765538
 21
5.0186438354
  0
LINE
  5
7E6
100
AcDbEntity
  8
0
100
AcDbLine
 62
7
  6
CONTINUOUS
 10
15.5624765538
 20
5.0507752366
 11
15.5624765538
 21
5.1664482809
  0
LINE
  5
7E7
100
AcDbEntity
  8
0
100
AcDbLine
 62
7
  6
CONTINUOUS
 10
15.5624765538
 20
5.198579682
 11
15.5624765538
 21
5.3142527263
  0
LINE
  5
7E8
100
AcDbEntity
  8
0
100
AcDbLine
 62
7
  6
CONTINUOUS
 10
15.5624765538
 20
5.3463841275
 11
15.5624765538
 21
5.4620571718
  0
LINE
  5
7E9
100
AcDbEntity
  8
0
100
AcDbLine
 62
7
  6
CONTINUOUS
 10
15.5624765538
 20
5.4941885729
 11
15.5624765538
 21
5.6098616172
  0
LINE
  5
7EA
100
AcDbEntity
  8
0
100
AcDbLine
 62
7
  6
CONTINUOUS
 10
15.5624765538
 20
5.6419930184
 11
15.5624765538
 21
5.7576660627
  0
LINE
  5
7EB
100
AcDbEntity
  8
0
100
AcDbLine
 62
7
  6
CONTINUOUS
 10
15.5624765538
 20
5.7897974638
 11
15.5624765538
 21
5.9054705081
  0
LINE
  5
7EC
100
AcDbEntity
  8
0
100
AcDbLine
 62
7
  6
CONTINUOUS
 10
15.5624765538
 20
5.9376019093
 11
15.5624765538
 21
6.0532749535
  0
LINE
  5
7ED
100
AcDbEntity
  8
0
100
AcDbLine
 62
7
  6
CONTINUOUS
 10
15.5624765538
 20
6.0854063547
 11
15.5624765538
 21
6.201079399
  0
LINE
  5
7EE
100
AcDbEntity
  8
0
100
AcDbLine
 62
7
  6
CONTINUOUS
 10
15.5624765538
 20
6.2332108002
 11
15.5624765538
 21
6.3488838444
  0
LINE
  5
7EF
100
AcDbEntity
  8
0
100
AcDbLine
 62
7
  6
CONTINUOUS
 10
15.5624765538
 20
6.3810152456
 11
15.5624765538
 21
6.4966882899
  0
LINE
  5
7F0
100
AcDbEntity
  8
0
100
AcDbLine
 62
7
  6
CONTINUOUS
 10
15.5903154035
 20
6.5127751814
 11
15.5903154035
 21
6.3971021372
  0
LINE
  5
7F1
100
AcDbEntity
  8
0
100
AcDbLine
 62
7
  6
CONTINUOUS
 10
15.5903154035
 20
6.364970736
 11
15.5903154035
 21
6.2492976917
  0
LINE
  5
7F2
100
AcDbEntity
  8
0
100
AcDbLine
 62
7
  6
CONTINUOUS
 10
15.5903154035
 20
6.2171662905
 11
15.5903154035
 21
6.1014932463
  0
LINE
  5
7F3
100
AcDbEntity
  8
0
100
AcDbLine
 62
7
  6
CONTINUOUS
 10
15.5903154035
 20
6.0693618451
 11
15.5903154035
 21
5.9536888008
  0
LINE
  5
7F4
100
AcDbEntity
  8
0
100
AcDbLine
 62
7
  6
CONTINUOUS
 10
15.5903154035
 20
5.9215573996
 11
15.5903154035
 21
5.8058843554
  0
LINE
  5
7F5
100
AcDbEntity
  8
0
100
AcDbLine
 62
7
  6
CONTINUOUS
 10
15.5903154035
 20
5.7737529542
 11
15.5903154035
 21
5.6580799099
  0
LINE
  5
7F6
100
AcDbEntity
  8
0
100
AcDbLine
 62
7
  6
CONTINUOUS
 10
15.5903154035
 20
5.6259485087
 11
15.5903154035
 21
5.5102754645
  0
LINE
  5
7F7
100
AcDbEntity
  8
0
100
AcDbLine
 62
7
  6
CONTINUOUS
 10
15.5903154035
 20
5.4781440633
 11
15.5903154035
 21
5.362471019
  0
LINE
  5
7F8
100
AcDbEntity
  8
0
100
AcDbLine
 62
7
  6
CONTINUOUS
 10
15.5903154035
 20
5.3303396178
 11
15.5903154035
 21
5.2146665736
  0
LINE
  5
7F9
100
AcDbEntity
  8
0
100
AcDbLine
 62
7
  6
CONTINUOUS
 10
15.5903154035
 20
5.1825351724
 11
15.5903154035
 21
5.0668621281
  0
LINE
  5
7FA
100
AcDbEntity
  8
0
100
AcDbLine
 62
7
  6
CONTINUOUS
 10
15.5903154035
 20
5.0347307269
 11
15.5903154035
 21
4.9190576827
  0
LINE
  5
7FB
100
AcDbEntity
  8
0
100
AcDbLine
 62
7
  6
CONTINUOUS
 10
15.5903154035
 20
4.8869262815
 11
15.5903154035
 21
4.7712532372
  0
LINE
  5
7FC
100
AcDbEntity
  8
0
100
AcDbLine
 62
7
  6
CONTINUOUS
 10
15.5903154035
 20
4.739121836
 11
15.5903154035
 21
4.6234487918
  0
LINE
  5
7FD
100
AcDbEntity
  8
0
100
AcDbLine
 62
7
  6
CONTINUOUS
 10
15.5903154035
 20
4.5913173906
 11
15.5903154035
 21
4.4756443463
  0
LINE
  5
7FE
100
AcDbEntity
  8
0
100
AcDbLine
 62
7
  6
CONTINUOUS
 10
15.5903154035
 20
4.4435129451
 11
15.5903154035
 21
4.3278399009
  0
LINE
  5
7FF
100
AcDbEntity
  8
0
100
AcDbLine
 62
7
  6
CONTINUOUS
 10
15.5903154035
 20
4.2957084997
 11
15.5903154035
 21
4.1800354554
  0
LINE
  5
800
100
AcDbEntity
  8
0
100
AcDbLine
 62
7
  6
CONTINUOUS
 10
15.5903154035
 20
4.1479040543
 11
15.5903154035
 21
4.03223101
  0
LINE
  5
801
100
AcDbEntity
  8
0
100
AcDbLine
 62
7
  6
CONTINUOUS
 10
15.6541469131
 20
7.5044301776
 11
15.6541469131
 21
7.4693369781
  0
LINE
  5
802
100
AcDbEntity
  8
0
100
AcDbLine
 62
7
  6
CONTINUOUS
 10
15.6682641825
 20
6.9674811282
 11
15.6682641825
 21
6.6943642182
  0
LINE
  5
803
100
AcDbEntity
  8
0
100
AcDbLine
 62
7
  6
CONTINUOUS
 10
15.8860785726
 20
6.566611884
 11
15.8844519315
 21
6.5637944596
  0
LINE
  5
804
100
AcDbEntity
  8
0
100
AcDbLine
 62
7
  6
CONTINUOUS
 10
15.8687039
 20
6.5365180742
 11
15.8670543414
 21
6.5336609554
  0
LINE
  5
805
100
AcDbEntity
  8
0
100
AcDbLine
 62
7
  6
CONTINUOUS
 10
15.9413386478
 20
6.6113080104
 11
15.9104621745
 21
6.5578284002
  0
LINE
  5
806
100
AcDbEntity
  8
0
100
AcDbLine
 62
7
  6
CONTINUOUS
 10
15.8868401272
 20
6.5169138221
 11
15.8559636539
 21
6.4634342119
  0
LINE
  5
807
100
AcDbEntity
  8
0
100
AcDbLine
 62
7
  6
CONTINUOUS
 10
15.9159479945
 20
6.545642169
 11
15.900199963
 21
6.5183657836
  0
LINE
  5
808
100
AcDbEntity
  8
0
100
AcDbLine
 62
7
  6
CONTINUOUS
 10
15.8795857012
 20
6.449819994
 11
15.9104621745
 21
6.5032996042
  0
LINE
  5
809
100
AcDbEntity
  8
0
100
AcDbLine
 62
7
  6
CONTINUOUS
 10
15.9340842217
 20
6.5442141823
 11
15.964960695
 21
6.5976937925
  0
LINE
  5
80A
100
AcDbEntity
  8
0
100
AcDbLine
 62
7
  6
CONTINUOUS
 10
15.0780805699
 20
5.3620811058
 11
15.1783004286
 21
5.4199939153
  0
LINE
  5
80B
100
AcDbEntity
  8
0
100
AcDbLine
 62
7
  6
CONTINUOUS
 10
15.2061392783
 20
5.4360808069
 11
15.306359137
 21
5.4939936163
  0
LINE
  5
80C
100
AcDbEntity
  8
0
100
AcDbLine
 62
7
  6
CONTINUOUS
 10
15.3341979867
 20
5.5100805079
 11
15.4344178454
 21
5.5679933174
  0
LINE
  5
80D
100
AcDbEntity
  8
0
100
AcDbLine
 62
7
  6
CONTINUOUS
 10
15.4622566951
 20
5.5840802089
 11
15.5624765538
 21
5.6419930184
  0
LINE
  5
80E
100
AcDbEntity
  8
0
100
AcDbLine
 62
7
  6
CONTINUOUS
 10
15.5903154035
 20
5.6580799099
 11
15.6905352622
 21
5.7159927194
  0
LINE
  5
80F
100
AcDbEntity
  8
0
100
AcDbLine
 62
7
  6
CONTINUOUS
 10
15.7183741119
 20
5.7320796109
 11
15.8185939706
 21
5.7899924204
  0
LINE
  5
810
100
AcDbEntity
  8
0
100
AcDbLine
 62
7
  6
CONTINUOUS
 10
15.8464328203
 20
5.806079312
 11
15.946652679
 21
5.8639921214
  0
LINE
  5
811
100
AcDbEntity
  8
0
100
AcDbLine
 62
7
  6
CONTINUOUS
 10
15.9744915287
 20
5.880079013
 11
16.0747113874
 21
5.9379918225
  0
LINE
  5
812
100
AcDbEntity
  8
0
100
AcDbLine
 62
7
  6
CONTINUOUS
 10
16.0747113874
 20
5.9058604213
 11
15.9744915287
 21
5.8479476118
  0
LINE
  5
813
100
AcDbEntity
  8
0
100
AcDbLine
 62
7
  6
CONTINUOUS
 10
15.946652679
 20
5.8318607203
 11
15.8464328203
 21
5.7739479108
  0
LINE
  5
814
100
AcDbEntity
  8
0
100
AcDbLine
 62
7
  6
CONTINUOUS
 10
15.8185939706
 20
5.7578610192
 11
15.7183741119
 21
5.6999482097
  0
LINE
  5
815
100
AcDbEntity
  8
0
100
AcDbLine
 62
7
  6
CONTINUOUS
 10
15.6905352622
 20
5.6838613182
 11
15.5903154035
 21
5.6259485087
  0
LINE
  5
816
100
AcDbEntity
  8
0
100
AcDbLine
 62
7
  6
CONTINUOUS
 10
15.5624765538
 20
5.6098616172
 11
15.4622566951
 21
5.5519488077
  0
LINE
  5
817
100
AcDbEntity
  8
0
100
AcDbLine
 62
7
  6
CONTINUOUS
 10
15.4344178454
 20
5.5358619162
 11
15.3341979867
 21
5.4779491067
  0
LINE
  5
818
100
AcDbEntity
  8
0
100
AcDbLine
 62
7
  6
CONTINUOUS
 10
15.306359137
 20
5.4618622152
 11
15.2061392783
 21
5.4039494057
  0
LINE
  5
819
100
AcDbEntity
  8
0
100
AcDbLine
 62
7
  6
CONTINUOUS
 10
15.1783004286
 20
5.3878625141
 11
15.0780805699
 21
5.3299497046
  0
LINE
  5
81A
100
AcDbEntity
  8
0
100
AcDbLine
 62
7
  6
CONTINUOUS
 10
13.4082839176
 20
4.346766072
 11
13.3938226438
 21
4.3384095147
  0
LINE
  5
81B
100
AcDbEntity
  8
0
100
AcDbLine
 62
7
  6
CONTINUOUS
 10
13.460643405
 20
4.3696020974
 11
13.5377761135
 21
4.4141738211
  0
LINE
  5
81C
100
AcDbEntity
  8
0
100
AcDbLine
 62
7
  6
CONTINUOUS
 10
16.0607919626
 20
5.7982308228
 11
15.9744915287
 21
5.7483614591
  0
LINE
  5
81D
100
AcDbEntity
  8
0
100
AcDbLine
 62
7
  6
CONTINUOUS
 10
15.9327332542
 20
5.7242311218
 11
15.8464328203
 21
5.674361758
  0
LINE
  5
81E
100
AcDbEntity
  8
0
100
AcDbLine
 62
7
  6
CONTINUOUS
 10
15.8046745458
 20
5.6502314207
 11
15.7183741119
 21
5.600362057
  0
LINE
  5
81F
100
AcDbEntity
  8
0
100
AcDbLine
 62
7
  6
CONTINUOUS
 10
15.6766158374
 20
5.5762317197
 11
15.5903154035
 21
5.526362356
  0
LINE
  5
820
100
AcDbEntity
  8
0
100
AcDbLine
 62
7
  6
CONTINUOUS
 10
15.548557129
 20
5.5022320187
 11
15.4622566951
 21
5.452362655
  0
LINE
  5
821
100
AcDbEntity
  8
0
100
AcDbLine
 62
7
  6
CONTINUOUS
 10
15.4204984206
 20
5.4282323177
 11
15.3341979867
 21
5.378362954
  0
LINE
  5
822
100
AcDbEntity
  8
0
100
AcDbLine
 62
7
  6
CONTINUOUS
 10
15.2924397122
 20
5.3542326167
 11
15.2061392783
 21
5.3043632529
  0
LINE
  5
823
100
AcDbEntity
  8
0
100
AcDbLine
 62
7
  6
CONTINUOUS
 10
15.1643810038
 20
5.2802329156
 11
15.0780805699
 21
5.2303635519
  0
LINE
  5
824
100
AcDbEntity
  8
0
100
AcDbLine
 62
7
  6
CONTINUOUS
 10
15.0780805699
 20
5.2142766604
 11
15.1783004286
 21
5.2721894699
  0
LINE
  5
825
100
AcDbEntity
  8
0
100
AcDbLine
 62
7
  6
CONTINUOUS
 10
15.2061392783
 20
5.2882763614
 11
15.306359137
 21
5.3461891709
  0
LINE
  5
826
100
AcDbEntity
  8
0
100
AcDbLine
 62
7
  6
CONTINUOUS
 10
15.3341979867
 20
5.3622760624
 11
15.4344178454
 21
5.4201888719
  0
LINE
  5
827
100
AcDbEntity
  8
0
100
AcDbLine
 62
7
  6
CONTINUOUS
 10
15.4622566951
 20
5.4362757634
 11
15.5624765538
 21
5.4941885729
  0
LINE
  5
828
100
AcDbEntity
  8
0
100
AcDbLine
 62
7
  6
CONTINUOUS
 10
15.5903154035
 20
5.5102754645
 11
15.6905352622
 21
5.568188274
  0
LINE
  5
829
100
AcDbEntity
  8
0
100
AcDbLine
 62
7
  6
CONTINUOUS
 10
15.7183741119
 20
5.5842751655
 11
15.8185939706
 21
5.642187975
  0
LINE
  5
82A
100
AcDbEntity
  8
0
100
AcDbLine
 62
7
  6
CONTINUOUS
 10
15.8464328203
 20
5.6582748665
 11
15.946652679
 21
5.716187676
  0
LINE
  5
82B
100
AcDbEntity
  8
0
100
AcDbLine
 62
7
  6
CONTINUOUS
 10
15.9744915287
 20
5.7322745675
 11
16.0747113874
 21
5.790187377
  0
LINE
  5
82C
100
AcDbEntity
  8
0
100
AcDbLine
 62
7
  6
CONTINUOUS
 10
16.0747113874
 20
5.7580559758
 11
15.9744915287
 21
5.7001431663
  0
LINE
  5
82D
100
AcDbEntity
  8
0
100
AcDbLine
 62
7
  6
CONTINUOUS
 10
15.946652679
 20
5.6840562748
 11
15.8464328203
 21
5.6261434653
  0
LINE
  5
82E
100
AcDbEntity
  8
0
100
AcDbLine
 62
7
  6
CONTINUOUS
 10
15.8185939706
 20
5.6100565738
 11
15.7183741119
 21
5.5521437643
  0
LINE
  5
82F
100
AcDbEntity
  8
0
100
AcDbLine
 62
7
  6
CONTINUOUS
 10
15.6905352622
 20
5.5360568728
 11
15.5903154035
 21
5.4781440633
  0
LINE
  5
830
100
AcDbEntity
  8
0
100
AcDbLine
 62
7
  6
CONTINUOUS
 10
15.5624765538
 20
5.4620571718
 11
15.4622566951
 21
5.4041443623
  0
LINE
  5
831
100
AcDbEntity
  8
0
100
AcDbLine
 62
7
  6
CONTINUOUS
 10
15.4344178454
 20
5.3880574707
 11
15.3341979867
 21
5.3301446612
  0
LINE
  5
832
100
AcDbEntity
  8
0
100
AcDbLine
 62
7
  6
CONTINUOUS
 10
15.306359137
 20
5.3140577697
 11
15.2061392783
 21
5.2561449602
  0
LINE
  5
833
100
AcDbEntity
  8
0
100
AcDbLine
 62
7
  6
CONTINUOUS
 10
15.1783004286
 20
5.2400580687
 11
15.0780805699
 21
5.1821452592
  0
LINE
  5
834
100
AcDbEntity
  8
0
100
AcDbLine
 62
7
  6
CONTINUOUS
 10
16.0607919626
 20
5.6504263773
 11
15.9744915287
 21
5.6005570136
  0
LINE
  5
835
100
AcDbEntity
  8
0
100
AcDbLine
 62
7
  6
CONTINUOUS
 10
15.9327332542
 20
5.5764266763
 11
15.8464328203
 21
5.5265573126
  0
LINE
  5
836
100
AcDbEntity
  8
0
100
AcDbLine
 62
7
  6
CONTINUOUS
 10
15.8046745458
 20
5.5024269753
 11
15.7183741119
 21
5.4525576116
  0
LINE
  5
837
100
AcDbEntity
  8
0
100
AcDbLine
 62
7
  6
CONTINUOUS
 10
15.6766158374
 20
5.4284272743
 11
15.5903154035
 21
5.3785579105
  0
LINE
  5
838
100
AcDbEntity
  8
0
100
AcDbLine
 62
7
  6
CONTINUOUS
 10
15.548557129
 20
5.3544275733
 11
15.4622566951
 21
5.3045582095
  0
LINE
  5
839
100
AcDbEntity
  8
0
100
AcDbLine
 62
7
  6
CONTINUOUS
 10
15.4204984206
 20
5.2804278722
 11
15.3341979867
 21
5.2305585085
  0
LINE
  5
83A
100
AcDbEntity
  8
0
100
AcDbLine
 62
7
  6
CONTINUOUS
 10
15.2924397122
 20
5.2064281712
 11
15.2061392783
 21
5.1565588075
  0
LINE
  5
83B
100
AcDbEntity
  8
0
100
AcDbLine
 62
7
  6
CONTINUOUS
 10
15.1643810038
 20
5.1324284702
 11
15.0780805699
 21
5.0825591065
  0
LINE
  5
83C
100
AcDbEntity
  8
0
100
AcDbLine
 62
7
  6
CONTINUOUS
 10
15.946652679
 20
7.168514295
 11
15.9383010241
 21
7.1733403624
  0
LINE
  5
83D
100
AcDbEntity
  8
0
100
AcDbLine
 62
7
  6
CONTINUOUS
 10
16.0607919626
 20
7.1284708318
 11
16.0747113874
 21
7.120427386
  0
LINE
  5
83E
100
AcDbEntity
  8
0
100
AcDbLine
 62
7
  6
CONTINUOUS
 10
15.6766158374
 20
6.5626445451
 11
15.6766158374
 21
6.4630583924
  0
LINE
  5
83F
100
AcDbEntity
  8
0
100
AcDbLine
 62
7
  6
CONTINUOUS
 10
15.6766158374
 20
6.4148400997
 11
15.6766158374
 21
6.315253947
  0
LINE
  5
840
100
AcDbEntity
  8
0
100
AcDbLine
 62
7
  6
CONTINUOUS
 10
15.6766158374
 20
6.2670356543
 11
15.6766158374
 21
6.1674495015
  0
LINE
  5
841
100
AcDbEntity
  8
0
100
AcDbLine
 62
7
  6
CONTINUOUS
 10
15.6766158374
 20
6.1192312088
 11
15.6766158374
 21
6.0196450561
  0
LINE
  5
842
100
AcDbEntity
  8
0
100
AcDbLine
 62
7
  6
CONTINUOUS
 10
15.6766158374
 20
5.9714267634
 11
15.6766158374
 21
5.8718406106
  0
LINE
  5
843
100
AcDbEntity
  8
0
100
AcDbLine
 62
7
  6
CONTINUOUS
 10
15.6766158374
 20
5.8236223179
 11
15.6766158374
 21
5.7240361652
  0
LINE
  5
844
100
AcDbEntity
  8
0
100
AcDbLine
 62
7
  6
CONTINUOUS
 10
15.6766158374
 20
5.6758178725
 11
15.6766158374
 21
5.5762317197
  0
LINE
  5
845
100
AcDbEntity
  8
0
100
AcDbLine
 62
7
  6
CONTINUOUS
 10
15.6766158374
 20
5.528013427
 11
15.6766158374
 21
5.4284272743
  0
LINE
  5
846
100
AcDbEntity
  8
0
100
AcDbLine
 62
7
  6
CONTINUOUS
 10
15.6766158374
 20
5.3802089816
 11
15.6766158374
 21
5.2806228288
  0
LINE
  5
847
100
AcDbEntity
  8
0
100
AcDbLine
 62
7
  6
CONTINUOUS
 10
15.6766158374
 20
5.2324045361
 11
15.6766158374
 21
5.1328183834
  0
LINE
  5
848
100
AcDbEntity
  8
0
100
AcDbLine
 62
7
  6
CONTINUOUS
 10
15.6766158374
 20
5.0846000907
 11
15.6766158374
 21
4.9850139379
  0
LINE
  5
849
100
AcDbEntity
  8
0
100
AcDbLine
 62
7
  6
CONTINUOUS
 10
15.6766158374
 20
4.9367956452
 11
15.6766158374
 21
4.8372094925
  0
LINE
  5
84A
100
AcDbEntity
  8
0
100
AcDbLine
 62
7
  6
CONTINUOUS
 10
15.6766158374
 20
4.7889911998
 11
15.6766158374
 21
4.689405047
  0
LINE
  5
84B
100
AcDbEntity
  8
0
100
AcDbLine
 62
7
  6
CONTINUOUS
 10
15.6766158374
 20
4.6411867543
 11
15.6766158374
 21
4.5416006016
  0
LINE
  5
84C
100
AcDbEntity
  8
0
100
AcDbLine
 62
7
  6
CONTINUOUS
 10
15.6766158374
 20
4.4933823089
 11
15.6766158374
 21
4.3937961561
  0
LINE
  5
84D
100
AcDbEntity
  8
0
100
AcDbLine
 62
7
  6
CONTINUOUS
 10
15.6766158374
 20
4.3455778634
 11
15.6766158374
 21
4.2459917107
  0
LINE
  5
84E
100
AcDbEntity
  8
0
100
AcDbLine
 62
7
  6
CONTINUOUS
 10
15.6766158374
 20
4.197773418
 11
15.6766158374
 21
4.0981872652
  0
LINE
  5
84F
100
AcDbEntity
  8
0
100
AcDbLine
 62
7
  6
CONTINUOUS
 10
15.6877513773
 20
7.584824348
 11
15.6877513773
 21
7.6233495065
  0
LINE
  5
850
100
AcDbEntity
  8
0
100
AcDbLine
 62
7
  6
CONTINUOUS
 10
15.6905352622
 20
6.5706879909
 11
15.6905352622
 21
6.4550149466
  0
LINE
  5
851
100
AcDbEntity
  8
0
100
AcDbLine
 62
7
  6
CONTINUOUS
 10
15.6905352622
 20
6.4228835455
 11
15.6905352622
 21
6.3072105012
  0
LINE
  5
852
100
AcDbEntity
  8
0
100
AcDbLine
 62
7
  6
CONTINUOUS
 10
15.6905352622
 20
4.0901438195
 11
15.6905352622
 21
4.2058168637
  0
LINE
  5
853
100
AcDbEntity
  8
0
100
AcDbLine
 62
7
  6
CONTINUOUS
 10
15.6905352622
 20
4.2379482649
 11
15.6905352622
 21
4.3536213092
  0
LINE
  5
854
100
AcDbEntity
  8
0
100
AcDbLine
 62
7
  6
CONTINUOUS
 10
15.6905352622
 20
4.3857527104
 11
15.6905352622
 21
4.5014257546
  0
LINE
  5
855
100
AcDbEntity
  8
0
100
AcDbLine
 62
7
  6
CONTINUOUS
 10
15.6905352622
 20
4.5335571558
 11
15.6905352622
 21
4.6492302001
  0
LINE
  5
856
100
AcDbEntity
  8
0
100
AcDbLine
 62
7
  6
CONTINUOUS
 10
15.6905352622
 20
4.6813616013
 11
15.6905352622
 21
4.7970346455
  0
LINE
  5
857
100
AcDbEntity
  8
0
100
AcDbLine
 62
7
  6
CONTINUOUS
 10
15.6905352622
 20
4.8291660467
 11
15.6905352622
 21
4.944839091
  0
LINE
  5
858
100
AcDbEntity
  8
0
100
AcDbLine
 62
7
  6
CONTINUOUS
 10
15.6905352622
 20
4.9769704922
 11
15.6905352622
 21
5.0926435364
  0
LINE
  5
859
100
AcDbEntity
  8
0
100
AcDbLine
 62
7
  6
CONTINUOUS
 10
15.6905352622
 20
5.1247749376
 11
15.6905352622
 21
5.2404479819
  0
LINE
  5
85A
100
AcDbEntity
  8
0
100
AcDbLine
 62
7
  6
CONTINUOUS
 10
15.6905352622
 20
5.2725793831
 11
15.6905352622
 21
5.3882524273
  0
LINE
  5
85B
100
AcDbEntity
  8
0
100
AcDbLine
 62
7
  6
CONTINUOUS
 10
15.6905352622
 20
5.4203838285
 11
15.6905352622
 21
5.5360568728
  0
LINE
  5
85C
100
AcDbEntity
  8
0
100
AcDbLine
 62
7
  6
CONTINUOUS
 10
15.6905352622
 20
5.568188274
 11
15.6905352622
 21
5.6838613182
  0
LINE
  5
85D
100
AcDbEntity
  8
0
100
AcDbLine
 62
7
  6
CONTINUOUS
 10
15.6905352622
 20
5.7159927194
 11
15.6905352622
 21
5.8316657637
  0
LINE
  5
85E
100
AcDbEntity
  8
0
100
AcDbLine
 62
7
  6
CONTINUOUS
 10
15.6905352622
 20
5.8637971649
 11
15.6905352622
 21
5.9794702091
  0
LINE
  5
85F
100
AcDbEntity
  8
0
100
AcDbLine
 62
7
  6
CONTINUOUS
 10
15.6905352622
 20
6.0116016103
 11
15.6905352622
 21
6.1272746546
  0
LINE
  5
860
100
AcDbEntity
  8
0
100
AcDbLine
 62
7
  6
CONTINUOUS
 10
15.6905352622
 20
6.1594060557
 11
15.6905352622
 21
6.2750791
  0
LINE
  5
861
100
AcDbEntity
  8
0
100
AcDbLine
 62
7
  6
CONTINUOUS
 10
15.6935169918
 20
7.4693176097
 11
15.6935169918
 21
7.5044301776
  0
LINE
  5
862
100
AcDbEntity
  8
0
100
AcDbLine
 62
7
  6
CONTINUOUS
 10
15.7183741119
 20
6.2911659915
 11
15.7183741119
 21
6.1754929473
  0
LINE
  5
863
100
AcDbEntity
  8
0
100
AcDbLine
 62
7
  6
CONTINUOUS
 10
15.7183741119
 20
6.1433615461
 11
15.7183741119
 21
6.0276885018
  0
LINE
  5
864
100
AcDbEntity
  8
0
100
AcDbLine
 62
7
  6
CONTINUOUS
 10
15.7183741119
 20
5.9955571006
 11
15.7183741119
 21
5.8798840564
  0
LINE
  5
865
100
AcDbEntity
  8
0
100
AcDbLine
 62
7
  6
CONTINUOUS
 10
15.7183741119
 20
5.8477526552
 11
15.7183741119
 21
5.7320796109
  0
LINE
  5
866
100
AcDbEntity
  8
0
100
AcDbLine
 62
7
  6
CONTINUOUS
 10
15.7183741119
 20
5.6999482097
 11
15.7183741119
 21
5.5842751655
  0
LINE
  5
867
100
AcDbEntity
  8
0
100
AcDbLine
 62
7
  6
CONTINUOUS
 10
15.7183741119
 20
5.5521437643
 11
15.7183741119
 21
5.43647072
  0
LINE
  5
868
100
AcDbEntity
  8
0
100
AcDbLine
 62
7
  6
CONTINUOUS
 10
15.7183741119
 20
5.4043393189
 11
15.7183741119
 21
5.2886662746
  0
LINE
  5
869
100
AcDbEntity
  8
0
100
AcDbLine
 62
7
  6
CONTINUOUS
 10
15.7183741119
 20
5.2565348734
 11
15.7183741119
 21
5.1408618291
  0
LINE
  5
86A
100
AcDbEntity
  8
0
100
AcDbLine
 62
7
  6
CONTINUOUS
 10
15.7183741119
 20
5.108730428
 11
15.7183741119
 21
4.9930573837
  0
LINE
  5
86B
100
AcDbEntity
  8
0
100
AcDbLine
 62
7
  6
CONTINUOUS
 10
15.7183741119
 20
4.9609259825
 11
15.7183741119
 21
4.8452529382
  0
LINE
  5
86C
100
AcDbEntity
  8
0
100
AcDbLine
 62
7
  6
CONTINUOUS
 10
15.7183741119
 20
4.8131215371
 11
15.7183741119
 21
4.6974484928
  0
LINE
  5
86D
100
AcDbEntity
  8
0
100
AcDbLine
 62
7
  6
CONTINUOUS
 10
15.7183741119
 20
4.6653170916
 11
15.7183741119
 21
4.5496440474
  0
LINE
  5
86E
100
AcDbEntity
  8
0
100
AcDbLine
 62
7
  6
CONTINUOUS
 10
15.7183741119
 20
4.5175126462
 11
15.7183741119
 21
4.4018396019
  0
LINE
  5
86F
100
AcDbEntity
  8
0
100
AcDbLine
 62
7
  6
CONTINUOUS
 10
15.7183741119
 20
4.3697082007
 11
15.7183741119
 21
4.2540351565
  0
LINE
  5
870
100
AcDbEntity
  8
0
100
AcDbLine
 62
7
  6
CONTINUOUS
 10
15.7183741119
 20
4.2219037553
 11
15.7183741119
 21
4.106230711
  0
LINE
  5
871
100
AcDbEntity
  8
0
100
AcDbLine
 62
7
  6
CONTINUOUS
 10
15.7239418818
 20
6.7265380012
 11
15.7239418818
 21
6.9996549113
  0
LINE
  5
872
100
AcDbEntity
  8
0
100
AcDbLine
 62
7
  6
CONTINUOUS
 10
15.7899736847
 20
7.4893767479
 11
15.7899736847
 21
7.5187847116
  0
LINE
  5
873
100
AcDbEntity
  8
0
100
AcDbLine
 62
7
  6
CONTINUOUS
 10
15.7935390059
 20
7.0398721401
 11
15.7935390059
 21
6.8954079804
  0
LINE
  5
874
100
AcDbEntity
  8
0
100
AcDbLine
 62
7
  6
CONTINUOUS
 10
15.8046745458
 20
6.3410353553
 11
15.8046745458
 21
6.2414492025
  0
LINE
  5
875
100
AcDbEntity
  8
0
100
AcDbLine
 62
7
  6
CONTINUOUS
 10
15.8046745458
 20
6.1932309098
 11
15.8046745458
 21
6.0936447571
  0
LINE
  5
876
100
AcDbEntity
  8
0
100
AcDbLine
 62
7
  6
CONTINUOUS
 10
15.8046745458
 20
6.0454264644
 11
15.8046745458
 21
5.9458403116
  0
LINE
  5
877
100
AcDbEntity
  8
0
100
AcDbLine
 62
7
  6
CONTINUOUS
 10
15.8046745458
 20
5.8976220189
 11
15.8046745458
 21
5.7980358662
  0
LINE
  5
878
100
AcDbEntity
  8
0
100
AcDbLine
 62
7
  6
CONTINUOUS
 10
15.8046745458
 20
5.7498175735
 11
15.8046745458
 21
5.6502314207
  0
LINE
  5
879
100
AcDbEntity
  8
0
100
AcDbLine
 62
7
  6
CONTINUOUS
 10
15.8046745458
 20
5.602013128
 11
15.8046745458
 21
5.5024269753
  0
LINE
  5
87A
100
AcDbEntity
  8
0
100
AcDbLine
 62
7
  6
CONTINUOUS
 10
15.8046745458
 20
5.4542086826
 11
15.8046745458
 21
5.3546225298
  0
LINE
  5
87B
100
AcDbEntity
  8
0
100
AcDbLine
 62
7
  6
CONTINUOUS
 10
15.8046745458
 20
5.3064042371
 11
15.8046745458
 21
5.2068180844
  0
LINE
  5
87C
100
AcDbEntity
  8
0
100
AcDbLine
 62
7
  6
CONTINUOUS
 10
15.8046745458
 20
5.1585997917
 11
15.8046745458
 21
5.059013639
  0
LINE
  5
87D
100
AcDbEntity
  8
0
100
AcDbLine
 62
7
  6
CONTINUOUS
 10
15.8046745458
 20
5.0107953462
 11
15.8046745458
 21
4.9112091935
  0
LINE
  5
87E
100
AcDbEntity
  8
0
100
AcDbLine
 62
7
  6
CONTINUOUS
 10
15.8046745458
 20
4.8629909008
 11
15.8046745458
 21
4.7634047481
  0
LINE
  5
87F
100
AcDbEntity
  8
0
100
AcDbLine
 62
7
  6
CONTINUOUS
 10
15.8046745458
 20
4.7151864553
 11
15.8046745458
 21
4.6156003026
  0
LINE
  5
880
100
AcDbEntity
  8
0
100
AcDbLine
 62
7
  6
CONTINUOUS
 10
15.8046745458
 20
4.5673820099
 11
15.8046745458
 21
4.4677958572
  0
LINE
  5
881
100
AcDbEntity
  8
0
100
AcDbLine
 62
7
  6
CONTINUOUS
 10
15.8046745458
 20
4.4195775645
 11
15.8046745458
 21
4.3199914117
  0
LINE
  5
882
100
AcDbEntity
  8
0
100
AcDbLine
 62
7
  6
CONTINUOUS
 10
15.8046745458
 20
4.271773119
 11
15.8046745458
 21
4.1721869663
  0
LINE
  5
883
100
AcDbEntity
  8
0
100
AcDbLine
 62
7
  6
CONTINUOUS
 10
15.8185939706
 20
4.1641435205
 11
15.8185939706
 21
4.2798165648
  0
LINE
  5
884
100
AcDbEntity
  8
0
100
AcDbLine
 62
7
  6
CONTINUOUS
 10
15.8185939706
 20
4.311947966
 11
15.8185939706
 21
4.4276210102
  0
LINE
  5
885
100
AcDbEntity
  8
0
100
AcDbLine
 62
7
  6
CONTINUOUS
 10
15.8185939706
 20
4.4597524114
 11
15.8185939706
 21
4.5754254557
  0
LINE
  5
886
100
AcDbEntity
  8
0
100
AcDbLine
 62
7
  6
CONTINUOUS
 10
15.8185939706
 20
4.6075568568
 11
15.8185939706
 21
4.7232299011
  0
LINE
  5
887
100
AcDbEntity
  8
0
100
AcDbLine
 62
7
  6
CONTINUOUS
 10
15.8185939706
 20
4.7553613023
 11
15.8185939706
 21
4.8710343466
  0
LINE
  5
888
100
AcDbEntity
  8
0
100
AcDbLine
 62
7
  6
CONTINUOUS
 10
15.8185939706
 20
4.9031657477
 11
15.8185939706
 21
5.018838792
  0
LINE
  5
889
100
AcDbEntity
  8
0
100
AcDbLine
 62
7
  6
CONTINUOUS
 10
15.8185939706
 20
5.0509701932
 11
15.8185939706
 21
5.1666432375
  0
LINE
  5
88A
100
AcDbEntity
  8
0
100
AcDbLine
 62
7
  6
CONTINUOUS
 10
15.8185939706
 20
5.1987746386
 11
15.8185939706
 21
5.3144476829
  0
LINE
  5
88B
100
AcDbEntity
  8
0
100
AcDbLine
 62
7
  6
CONTINUOUS
 10
15.8185939706
 20
5.3465790841
 11
15.8185939706
 21
5.4622521283
  0
LINE
  5
88C
100
AcDbEntity
  8
0
100
AcDbLine
 62
7
  6
CONTINUOUS
 10
15.8185939706
 20
5.4943835295
 11
15.8185939706
 21
5.6100565738
  0
LINE
  5
88D
100
AcDbEntity
  8
0
100
AcDbLine
 62
7
  6
CONTINUOUS
 10
15.8185939706
 20
5.642187975
 11
15.8185939706
 21
5.7578610192
  0
LINE
  5
88E
100
AcDbEntity
  8
0
100
AcDbLine
 62
7
  6
CONTINUOUS
 10
15.8185939706
 20
5.7899924204
 11
15.8185939706
 21
5.9056654647
  0
LINE
  5
88F
100
AcDbEntity
  8
0
100
AcDbLine
 62
7
  6
CONTINUOUS
 10
15.8185939706
 20
5.9377968659
 11
15.8185939706
 21
6.0534699101
  0
LINE
  5
890
100
AcDbEntity
  8
0
100
AcDbLine
 62
7
  6
CONTINUOUS
 10
15.8185939706
 20
6.0856013113
 11
15.8185939706
 21
6.2012743556
  0
LINE
  5
891
100
AcDbEntity
  8
0
100
AcDbLine
 62
7
  6
CONTINUOUS
 10
15.8185939706
 20
6.2334057568
 11
15.8185939706
 21
6.349078801
  0
LINE
  5
892
100
AcDbEntity
  8
0
100
AcDbLine
 62
7
  6
CONTINUOUS
 10
15.8269456255
 20
3.8957467232
 11
15.8269456255
 21
3.6001378323
  0
LINE
  5
893
100
AcDbEntity
  8
0
100
AcDbLine
 62
7
  6
CONTINUOUS
 10
15.8464328203
 20
6.3651656926
 11
15.8464328203
 21
6.2494926483
  0
LINE
  5
894
100
AcDbEntity
  8
0
100
AcDbLine
 62
7
  6
CONTINUOUS
 10
15.8464328203
 20
6.2173612471
 11
15.8464328203
 21
6.1016882028
  0
LINE
  5
895
100
AcDbEntity
  8
0
100
AcDbLine
 62
7
  6
CONTINUOUS
 10
15.8464328203
 20
6.0695568017
 11
15.8464328203
 21
5.9538837574
  0
LINE
  5
896
100
AcDbEntity
  8
0
100
AcDbLine
 62
7
  6
CONTINUOUS
 10
15.8464328203
 20
5.9217523562
 11
15.8464328203
 21
5.806079312
  0
LINE
  5
897
100
AcDbEntity
  8
0
100
AcDbLine
 62
7
  6
CONTINUOUS
 10
15.8464328203
 20
5.7739479108
 11
15.8464328203
 21
5.6582748665
  0
LINE
  5
898
100
AcDbEntity
  8
0
100
AcDbLine
 62
7
  6
CONTINUOUS
 10
15.8464328203
 20
5.6261434653
 11
15.8464328203
 21
5.5104704211
  0
LINE
  5
899
100
AcDbEntity
  8
0
100
AcDbLine
 62
7
  6
CONTINUOUS
 10
15.8464328203
 20
5.4783390199
 11
15.8464328203
 21
5.3626659756
  0
LINE
  5
89A
100
AcDbEntity
  8
0
100
AcDbLine
 62
7
  6
CONTINUOUS
 10
15.8464328203
 20
5.3305345744
 11
15.8464328203
 21
5.2148615302
  0
LINE
  5
89B
100
AcDbEntity
  8
0
100
AcDbLine
 62
7
  6
CONTINUOUS
 10
15.8464328203
 20
5.182730129
 11
15.8464328203
 21
5.0670570847
  0
LINE
  5
89C
100
AcDbEntity
  8
0
100
AcDbLine
 62
7
  6
CONTINUOUS
 10
15.8464328203
 20
5.0349256835
 11
15.8464328203
 21
4.9192526393
  0
LINE
  5
89D
100
AcDbEntity
  8
0
100
AcDbLine
 62
7
  6
CONTINUOUS
 10
15.8464328203
 20
4.8871212381
 11
15.8464328203
 21
4.7714481938
  0
LINE
  5
89E
100
AcDbEntity
  8
0
100
AcDbLine
 62
7
  6
CONTINUOUS
 10
15.8464328203
 20
4.7393167926
 11
15.8464328203
 21
4.6236437484
  0
LINE
  5
89F
100
AcDbEntity
  8
0
100
AcDbLine
 62
7
  6
CONTINUOUS
 10
15.8464328203
 20
4.5915123472
 11
15.8464328203
 21
4.4758393029
  0
LINE
  5
8A0
100
AcDbEntity
  8
0
100
AcDbLine
 62
7
  6
CONTINUOUS
 10
15.8464328203
 20
4.4437079017
 11
15.8464328203
 21
4.3280348575
  0
LINE
  5
8A1
100
AcDbEntity
  8
0
100
AcDbLine
 62
7
  6
CONTINUOUS
 10
15.8464328203
 20
4.2959034563
 11
15.8464328203
 21
4.180230412
  0
LINE
  5
8A2
100
AcDbEntity
  8
0
100
AcDbLine
 62
7
  6
CONTINUOUS
 10
15.8826233248
 20
7.3983025526
 11
15.8826233248
 21
7.5268281573
  0
LINE
  5
8A3
100
AcDbEntity
  8
0
100
AcDbLine
 62
7
  6
CONTINUOUS
 10
15.9188138294
 20
7.112263152
 11
15.9188138294
 21
6.8391462419
  0
LINE
  5
8A4
100
AcDbEntity
  8
0
100
AcDbLine
 62
7
  6
CONTINUOUS
 10
15.9243815993
 20
7.4027359229
 11
15.9243815993
 21
7.3944359382
  0
LINE
  5
8A5
100
AcDbEntity
  8
0
100
AcDbLine
 62
7
  6
CONTINUOUS
 10
15.0780805699
 20
5.0664722149
 11
15.1783004286
 21
5.1243850244
  0
LINE
  5
8A6
100
AcDbEntity
  8
0
100
AcDbLine
 62
7
  6
CONTINUOUS
 10
15.2061392783
 20
5.140471916
 11
15.306359137
 21
5.1983847255
  0
LINE
  5
8A7
100
AcDbEntity
  8
0
100
AcDbLine
 62
7
  6
CONTINUOUS
 10
15.3341979867
 20
5.214471617
 11
15.4344178454
 21
5.2723844265
  0
LINE
  5
8A8
100
AcDbEntity
  8
0
100
AcDbLine
 62
7
  6
CONTINUOUS
 10
15.4622566951
 20
5.288471318
 11
15.5624765538
 21
5.3463841275
  0
LINE
  5
8A9
100
AcDbEntity
  8
0
100
AcDbLine
 62
7
  6
CONTINUOUS
 10
15.5903154035
 20
5.362471019
 11
15.6905352622
 21
5.4203838285
  0
LINE
  5
8AA
100
AcDbEntity
  8
0
100
AcDbLine
 62
7
  6
CONTINUOUS
 10
15.7183741119
 20
5.43647072
 11
15.8185939706
 21
5.4943835295
  0
LINE
  5
8AB
100
AcDbEntity
  8
0
100
AcDbLine
 62
7
  6
CONTINUOUS
 10
15.8464328203
 20
5.5104704211
 11
15.946652679
 21
5.5683832306
  0
LINE
  5
8AC
100
AcDbEntity
  8
0
100
AcDbLine
 62
7
  6
CONTINUOUS
 10
15.9744915287
 20
5.5844701221
 11
16.0747113874
 21
5.6423829316
  0
LINE
  5
8AD
100
AcDbEntity
  8
0
100
AcDbLine
 62
7
  6
CONTINUOUS
 10
16.0747113874
 20
5.6102515304
 11
15.9744915287
 21
5.5523387209
  0
LINE
  5
8AE
100
AcDbEntity
  8
0
100
AcDbLine
 62
7
  6
CONTINUOUS
 10
15.946652679
 20
5.5362518294
 11
15.8464328203
 21
5.4783390199
  0
LINE
  5
8AF
100
AcDbEntity
  8
0
100
AcDbLine
 62
7
  6
CONTINUOUS
 10
15.8185939706
 20
5.4622521283
 11
15.7183741119
 21
5.4043393189
  0
LINE
  5
8B0
100
AcDbEntity
  8
0
100
AcDbLine
 62
7
  6
CONTINUOUS
 10
15.6905352622
 20
5.3882524273
 11
15.5903154035
 21
5.3303396178
  0
LINE
  5
8B1
100
AcDbEntity
  8
0
100
AcDbLine
 62
7
  6
CONTINUOUS
 10
15.5624765538
 20
5.3142527263
 11
15.4622566951
 21
5.2563399168
  0
LINE
  5
8B2
100
AcDbEntity
  8
0
100
AcDbLine
 62
7
  6
CONTINUOUS
 10
15.4344178454
 20
5.2402530253
 11
15.3341979867
 21
5.1823402158
  0
LINE
  5
8B3
100
AcDbEntity
  8
0
100
AcDbLine
 62
7
  6
CONTINUOUS
 10
15.306359137
 20
5.1662533243
 11
15.2061392783
 21
5.1083405148
  0
LINE
  5
8B4
100
AcDbEntity
  8
0
100
AcDbLine
 62
7
  6
CONTINUOUS
 10
15.1783004286
 20
5.0922536232
 11
15.0780805699
 21
5.0343408138
  0
LINE
  5
8B5
100
AcDbEntity
  8
0
100
AcDbLine
 62
7
  6
CONTINUOUS
 10
16.0607919626
 20
5.5026219319
 11
15.9744915287
 21
5.4527525682
  0
LINE
  5
8B6
100
AcDbEntity
  8
0
100
AcDbLine
 62
7
  6
CONTINUOUS
 10
15.9327332542
 20
5.4286222309
 11
15.8464328203
 21
5.3787528671
  0
LINE
  5
8B7
100
AcDbEntity
  8
0
100
AcDbLine
 62
7
  6
CONTINUOUS
 10
15.8046745458
 20
5.3546225298
 11
15.7183741119
 21
5.3047531661
  0
LINE
  5
8B8
100
AcDbEntity
  8
0
100
AcDbLine
 62
7
  6
CONTINUOUS
 10
15.6766158374
 20
5.2806228288
 11
15.5903154035
 21
5.2307534651
  0
LINE
  5
8B9
100
AcDbEntity
  8
0
100
AcDbLine
 62
7
  6
CONTINUOUS
 10
15.548557129
 20
5.2066231278
 11
15.4622566951
 21
5.1567537641
  0
LINE
  5
8BA
100
AcDbEntity
  8
0
100
AcDbLine
 62
7
  6
CONTINUOUS
 10
15.4204984206
 20
5.1326234268
 11
15.3341979867
 21
5.0827540631
  0
LINE
  5
8BB
100
AcDbEntity
  8
0
100
AcDbLine
 62
7
  6
CONTINUOUS
 10
15.2924397122
 20
5.0586237258
 11
15.2061392783
 21
5.008754362
  0
LINE
  5
8BC
100
AcDbEntity
  8
0
100
AcDbLine
 62
7
  6
CONTINUOUS
 10
15.1643810038
 20
4.9846240247
 11
15.0780805699
 21
4.934754661
  0
LINE
  5
8BD
100
AcDbEntity
  8
0
100
AcDbLine
 62
7
  6
CONTINUOUS
 10
15.0780805699
 20
4.9186677695
 11
15.1783004286
 21
4.976580579
  0
LINE
  5
8BE
100
AcDbEntity
  8
0
100
AcDbLine
 62
7
  6
CONTINUOUS
 10
15.2061392783
 20
4.9926674705
 11
15.306359137
 21
5.05058028
  0
LINE
  5
8BF
100
AcDbEntity
  8
0
100
AcDbLine
 62
7
  6
CONTINUOUS
 10
15.3341979867
 20
5.0666671715
 11
15.4344178454
 21
5.124579981
  0
LINE
  5
8C0
100
AcDbEntity
  8
0
100
AcDbLine
 62
7
  6
CONTINUOUS
 10
15.4622566951
 20
5.1406668726
 11
15.5624765538
 21
5.198579682
  0
LINE
  5
8C1
100
AcDbEntity
  8
0
100
AcDbLine
 62
7
  6
CONTINUOUS
 10
15.5903154035
 20
5.2146665736
 11
15.6905352622
 21
5.2725793831
  0
LINE
  5
8C2
100
AcDbEntity
  8
0
100
AcDbLine
 62
7
  6
CONTINUOUS
 10
15.7183741119
 20
5.2886662746
 11
15.8185939706
 21
5.3465790841
  0
LINE
  5
8C3
100
AcDbEntity
  8
0
100
AcDbLine
 62
7
  6
CONTINUOUS
 10
15.8464328203
 20
5.3626659756
 11
15.946652679
 21
5.4205787851
  0
LINE
  5
8C4
100
AcDbEntity
  8
0
100
AcDbLine
 62
7
  6
CONTINUOUS
 10
15.9744915287
 20
5.4366656766
 11
16.0747113874
 21
5.4945784861
  0
LINE
  5
8C5
100
AcDbEntity
  8
0
100
AcDbLine
 62
7
  6
CONTINUOUS
 10
16.0747113874
 20
5.4624470849
 11
15.9744915287
 21
5.4045342754
  0
LINE
  5
8C6
100
AcDbEntity
  8
0
100
AcDbLine
 62
7
  6
CONTINUOUS
 10
15.946652679
 20
5.3884473839
 11
15.8464328203
 21
5.3305345744
  0
LINE
  5
8C7
100
AcDbEntity
  8
0
100
AcDbLine
 62
7
  6
CONTINUOUS
 10
15.8185939706
 20
5.3144476829
 11
15.7183741119
 21
5.2565348734
  0
LINE
  5
8C8
100
AcDbEntity
  8
0
100
AcDbLine
 62
7
  6
CONTINUOUS
 10
15.6905352622
 20
5.2404479819
 11
15.5903154035
 21
5.1825351724
  0
LINE
  5
8C9
100
AcDbEntity
  8
0
100
AcDbLine
 62
7
  6
CONTINUOUS
 10
15.5624765538
 20
5.1664482809
 11
15.4622566951
 21
5.1085354714
  0
LINE
  5
8CA
100
AcDbEntity
  8
0
100
AcDbLine
 62
7
  6
CONTINUOUS
 10
15.4344178454
 20
5.0924485798
 11
15.3341979867
 21
5.0345357703
  0
LINE
  5
8CB
100
AcDbEntity
  8
0
100
AcDbLine
 62
7
  6
CONTINUOUS
 10
15.306359137
 20
5.0184488788
 11
15.2061392783
 21
4.9605360693
  0
LINE
  5
8CC
100
AcDbEntity
  8
0
100
AcDbLine
 62
7
  6
CONTINUOUS
 10
15.1783004286
 20
4.9444491778
 11
15.0780805699
 21
4.8865363683
  0
LINE
  5
8CD
100
AcDbEntity
  8
0
100
AcDbLine
 62
7
  6
CONTINUOUS
 10
16.0607919626
 20
5.3548174864
 11
15.9744915287
 21
5.3049481227
  0
LINE
  5
8CE
100
AcDbEntity
  8
0
100
AcDbLine
 62
7
  6
CONTINUOUS
 10
15.9327332542
 20
5.2808177854
 11
15.8464328203
 21
5.2309484217
  0
LINE
  5
8CF
100
AcDbEntity
  8
0
100
AcDbLine
 62
7
  6
CONTINUOUS
 10
15.8046745458
 20
5.2068180844
 11
15.7183741119
 21
5.1569487207
  0
LINE
  5
8D0
100
AcDbEntity
  8
0
100
AcDbLine
 62
7
  6
CONTINUOUS
 10
15.6766158374
 20
5.1328183834
 11
15.5903154035
 21
5.0829490196
  0
LINE
  5
8D1
100
AcDbEntity
  8
0
100
AcDbLine
 62
7
  6
CONTINUOUS
 10
15.548557129
 20
5.0588186824
 11
15.4622566951
 21
5.0089493186
  0
LINE
  5
8D2
100
AcDbEntity
  8
0
100
AcDbLine
 62
7
  6
CONTINUOUS
 10
15.4204984206
 20
4.9848189813
 11
15.3341979867
 21
4.9349496176
  0
LINE
  5
8D3
100
AcDbEntity
  8
0
100
AcDbLine
 62
7
  6
CONTINUOUS
 10
15.2924397122
 20
4.9108192803
 11
15.2061392783
 21
4.8609499166
  0
LINE
  5
8D4
100
AcDbEntity
  8
0
100
AcDbLine
 62
7
  6
CONTINUOUS
 10
15.1643810038
 20
4.8368195793
 11
15.0780805699
 21
4.7869502156
  0
LINE
  5
8D5
100
AcDbEntity
  8
0
100
AcDbLine
 62
7
  6
CONTINUOUS
 10
13.3938226438
 20
4.3384095147
 11
13.4096121593
 21
4.3444675098
  0
LINE
  5
8D6
100
AcDbEntity
  8
0
100
AcDbLine
 62
7
  6
CONTINUOUS
 10
15.6877513773
 20
7.6233495065
 11
15.8547844752
 21
7.5268281573
  0
LINE
  5
8D7
100
AcDbEntity
  8
0
100
AcDbLine
 62
7
  6
CONTINUOUS
 10
15.6877513773
 20
7.639436398
 11
15.8826233248
 21
7.5268281573
  0
LINE
  5
8D8
100
AcDbEntity
  8
0
100
AcDbLine
 62
7
  6
CONTINUOUS
 10
12.5698002161
 20
9.4572551404
 11
12.736833314
 21
9.3607337913
  0
LINE
  5
8D9
100
AcDbEntity
  8
0
100
AcDbLine
 62
7
  6
CONTINUOUS
 10
12.5698002161
 20
9.473342032
 11
12.7646721637
 21
9.3607337913
  0
LINE
  5
8DA
100
AcDbEntity
  8
0
100
AcDbLine
 62
7
  6
CONTINUOUS
 10
15.9327332542
 20
6.4150350563
 11
15.9327332542
 21
6.3154489036
  0
LINE
  5
8DB
100
AcDbEntity
  8
0
100
AcDbLine
 62
7
  6
CONTINUOUS
 10
15.9327332542
 20
6.2672306108
 11
15.9327332542
 21
6.1676444581
  0
LINE
  5
8DC
100
AcDbEntity
  8
0
100
AcDbLine
 62
7
  6
CONTINUOUS
 10
15.9327332542
 20
6.1194261654
 11
15.9327332542
 21
6.0198400127
  0
LINE
  5
8DD
100
AcDbEntity
  8
0
100
AcDbLine
 62
7
  6
CONTINUOUS
 10
15.9327332542
 20
5.9716217199
 11
15.9327332542
 21
5.8720355672
  0
LINE
  5
8DE
100
AcDbEntity
  8
0
100
AcDbLine
 62
7
  6
CONTINUOUS
 10
15.9327332542
 20
5.8238172745
 11
15.9327332542
 21
5.7242311218
  0
LINE
  5
8DF
100
AcDbEntity
  8
0
100
AcDbLine
 62
7
  6
CONTINUOUS
 10
15.9327332542
 20
5.6760128291
 11
15.9327332542
 21
5.5764266763
  0
LINE
  5
8E0
100
AcDbEntity
  8
0
100
AcDbLine
 62
7
  6
CONTINUOUS
 10
15.9327332542
 20
5.5282083836
 11
15.9327332542
 21
5.4286222309
  0
LINE
  5
8E1
100
AcDbEntity
  8
0
100
AcDbLine
 62
7
  6
CONTINUOUS
 10
15.9327332542
 20
5.3804039382
 11
15.9327332542
 21
5.2808177854
  0
LINE
  5
8E2
100
AcDbEntity
  8
0
100
AcDbLine
 62
7
  6
CONTINUOUS
 10
15.9327332542
 20
5.2325994927
 11
15.9327332542
 21
5.13301334
  0
LINE
  5
8E3
100
AcDbEntity
  8
0
100
AcDbLine
 62
7
  6
CONTINUOUS
 10
15.9327332542
 20
5.0847950473
 11
15.9327332542
 21
4.9852088945
  0
LINE
  5
8E4
100
AcDbEntity
  8
0
100
AcDbLine
 62
7
  6
CONTINUOUS
 10
15.9327332542
 20
4.9369906018
 11
15.9327332542
 21
4.8374044491
  0
LINE
  5
8E5
100
AcDbEntity
  8
0
100
AcDbLine
 62
7
  6
CONTINUOUS
 10
15.9327332542
 20
4.7891861564
 11
15.9327332542
 21
4.6896000036
  0
LINE
  5
8E6
100
AcDbEntity
  8
0
100
AcDbLine
 62
7
  6
CONTINUOUS
 10
15.9327332542
 20
4.6413817109
 11
15.9327332542
 21
4.5417955582
  0
LINE
  5
8E7
100
AcDbEntity
  8
0
100
AcDbLine
 62
7
  6
CONTINUOUS
 10
15.9327332542
 20
4.4935772655
 11
15.9327332542
 21
4.3939911127
  0
LINE
  5
8E8
100
AcDbEntity
  8
0
100
AcDbLine
 62
7
  6
CONTINUOUS
 10
15.9327332542
 20
4.34577282
 11
15.9327332542
 21
4.2461866673
  0
LINE
  5
8E9
100
AcDbEntity
  8
0
100
AcDbLine
 62
7
  6
CONTINUOUS
 10
15.9383010241
 20
7.1733403624
 11
15.9383010241
 21
7.3821944701
  0
LINE
  5
8EA
100
AcDbEntity
  8
0
100
AcDbLine
 62
7
  6
CONTINUOUS
 10
15.946652679
 20
7.168514295
 11
15.946652679
 21
6.8150688819
  0
LINE
  5
8EB
100
AcDbEntity
  8
0
100
AcDbLine
 62
7
  6
CONTINUOUS
 10
15.946652679
 20
4.2381432215
 11
15.946652679
 21
4.3538162658
  0
LINE
  5
8EC
100
AcDbEntity
  8
0
100
AcDbLine
 62
7
  6
CONTINUOUS
 10
15.946652679
 20
4.385947667
 11
15.946652679
 21
4.5016207112
  0
LINE
  5
8ED
100
AcDbEntity
  8
0
100
AcDbLine
 62
7
  6
CONTINUOUS
 10
15.946652679
 20
4.5337521124
 11
15.946652679
 21
4.6494251567
  0
LINE
  5
8EE
100
AcDbEntity
  8
0
100
AcDbLine
 62
7
  6
CONTINUOUS
 10
15.946652679
 20
4.6815565579
 11
15.946652679
 21
4.7972296021
  0
LINE
  5
8EF
100
AcDbEntity
  8
0
100
AcDbLine
 62
7
  6
CONTINUOUS
 10
15.946652679
 20
4.8293610033
 11
15.946652679
 21
4.9450340476
  0
LINE
  5
8F0
100
AcDbEntity
  8
0
100
AcDbLine
 62
7
  6
CONTINUOUS
 10
15.946652679
 20
4.9771654488
 11
15.946652679
 21
5.092838493
  0
LINE
  5
8F1
100
AcDbEntity
  8
0
100
AcDbLine
 62
7
  6
CONTINUOUS
 10
15.946652679
 20
5.1249698942
 11
15.946652679
 21
5.2406429385
  0
LINE
  5
8F2
100
AcDbEntity
  8
0
100
AcDbLine
 62
7
  6
CONTINUOUS
 10
15.946652679
 20
5.2727743397
 11
15.946652679
 21
5.3884473839
  0
LINE
  5
8F3
100
AcDbEntity
  8
0
100
AcDbLine
 62
7
  6
CONTINUOUS
 10
15.946652679
 20
5.4205787851
 11
15.946652679
 21
5.5362518294
  0
LINE
  5
8F4
100
AcDbEntity
  8
0
100
AcDbLine
 62
7
  6
CONTINUOUS
 10
15.946652679
 20
5.5683832306
 11
15.946652679
 21
5.6840562748
  0
LINE
  5
8F5
100
AcDbEntity
  8
0
100
AcDbLine
 62
7
  6
CONTINUOUS
 10
15.946652679
 20
5.716187676
 11
15.946652679
 21
5.8318607203
  0
LINE
  5
8F6
100
AcDbEntity
  8
0
100
AcDbLine
 62
7
  6
CONTINUOUS
 10
15.946652679
 20
5.8639921214
 11
15.946652679
 21
5.9796651657
  0
LINE
  5
8F7
100
AcDbEntity
  8
0
100
AcDbLine
 62
7
  6
CONTINUOUS
 10
15.946652679
 20
6.0117965669
 11
15.946652679
 21
6.1274696112
  0
LINE
  5
8F8
100
AcDbEntity
  8
0
100
AcDbLine
 62
7
  6
CONTINUOUS
 10
15.946652679
 20
6.1596010123
 11
15.946652679
 21
6.2752740566
  0
LINE
  5
8F9
100
AcDbEntity
  8
0
100
AcDbLine
 62
7
  6
CONTINUOUS
 10
15.946652679
 20
6.3074054578
 11
15.946652679
 21
6.4230785021
  0
LINE
  5
8FA
100
AcDbEntity
  8
0
100
AcDbLine
 62
7
  6
CONTINUOUS
 10
15.9744915287
 20
6.4391653936
 11
15.9744915287
 21
6.3234923493
  0
LINE
  5
8FB
100
AcDbEntity
  8
0
100
AcDbLine
 62
7
  6
CONTINUOUS
 10
15.9744915287
 20
6.2913609481
 11
15.9744915287
 21
6.1756879039
  0
LINE
  5
8FC
100
AcDbEntity
  8
0
100
AcDbLine
 62
7
  6
CONTINUOUS
 10
15.9744915287
 20
6.1435565027
 11
15.9744915287
 21
6.0278834584
  0
LINE
  5
8FD
100
AcDbEntity
  8
0
100
AcDbLine
 62
7
  6
CONTINUOUS
 10
15.9744915287
 20
5.9957520572
 11
15.9744915287
 21
5.880079013
  0
LINE
  5
8FE
100
AcDbEntity
  8
0
100
AcDbLine
 62
7
  6
CONTINUOUS
 10
15.9744915287
 20
5.8479476118
 11
15.9744915287
 21
5.7322745675
  0
LINE
  5
8FF
100
AcDbEntity
  8
0
100
AcDbLine
 62
7
  6
CONTINUOUS
 10
15.9744915287
 20
5.7001431663
 11
15.9744915287
 21
5.5844701221
  0
LINE
  5
900
100
AcDbEntity
  8
0
100
AcDbLine
 62
7
  6
CONTINUOUS
 10
15.9744915287
 20
5.5523387209
 11
15.9744915287
 21
5.4366656766
  0
LINE
  5
901
100
AcDbEntity
  8
0
100
AcDbLine
 62
7
  6
CONTINUOUS
 10
15.9744915287
 20
5.4045342754
 11
15.9744915287
 21
5.2888612312
  0
LINE
  5
902
100
AcDbEntity
  8
0
100
AcDbLine
 62
7
  6
CONTINUOUS
 10
15.9744915287
 20
5.25672983
 11
15.9744915287
 21
5.1410567857
  0
LINE
  5
903
100
AcDbEntity
  8
0
100
AcDbLine
 62
7
  6
CONTINUOUS
 10
15.9744915287
 20
5.1089253846
 11
15.9744915287
 21
4.9932523403
  0
LINE
  5
904
100
AcDbEntity
  8
0
100
AcDbLine
 62
7
  6
CONTINUOUS
 10
15.9744915287
 20
4.9611209391
 11
15.9744915287
 21
4.8454478948
  0
LINE
  5
905
100
AcDbEntity
  8
0
100
AcDbLine
 62
7
  6
CONTINUOUS
 10
15.9744915287
 20
4.8133164937
 11
15.9744915287
 21
4.6976434494
  0
LINE
  5
906
100
AcDbEntity
  8
0
100
AcDbLine
 62
7
  6
CONTINUOUS
 10
15.9744915287
 20
4.6655120482
 11
15.9744915287
 21
4.5498390039
  0
LINE
  5
907
100
AcDbEntity
  8
0
100
AcDbLine
 62
7
  6
CONTINUOUS
 10
15.9744915287
 20
4.5177076028
 11
15.9744915287
 21
4.4020345585
  0
LINE
  5
908
100
AcDbEntity
  8
0
100
AcDbLine
 62
7
  6
CONTINUOUS
 10
15.9744915287
 20
4.3699031573
 11
15.9744915287
 21
4.254230113
  0
LINE
  5
909
100
AcDbEntity
  8
0
100
AcDbLine
 62
7
  6
CONTINUOUS
 10
15.9744915287
 20
6.4712967948
 11
15.9744915287
 21
6.5163042724
  0
LINE
  5
90A
100
AcDbEntity
  8
0
100
AcDbLine
 62
7
  6
CONTINUOUS
 10
15.9744915287
 20
6.6614482799
 11
15.9744915287
 21
6.7347742845
  0
LINE
  5
90B
100
AcDbEntity
  8
0
100
AcDbLine
 62
7
  6
CONTINUOUS
 10
15.9744915287
 20
6.7669056857
 11
15.9744915287
 21
6.8825787299
  0
LINE
  5
90C
100
AcDbEntity
  8
0
100
AcDbLine
 62
7
  6
CONTINUOUS
 10
15.9744915287
 20
6.9147101311
 11
15.9744915287
 21
7.0303831754
  0
LINE
  5
90D
100
AcDbEntity
  8
0
100
AcDbLine
 62
7
  6
CONTINUOUS
 10
15.9744915287
 20
7.0625145766
 11
15.9744915287
 21
7.1781876208
  0
LINE
  5
90E
100
AcDbEntity
  8
0
100
AcDbLine
 62
7
  6
CONTINUOUS
 10
16.0607919626
 20
7.2280569845
 11
16.0607919626
 21
7.1284708318
  0
LINE
  5
90F
100
AcDbEntity
  8
0
100
AcDbLine
 62
7
  6
CONTINUOUS
 10
16.0607919626
 20
7.0802525391
 11
16.0607919626
 21
6.9806663864
  0
LINE
  5
910
100
AcDbEntity
  8
0
100
AcDbLine
 62
7
  6
CONTINUOUS
 10
16.0607919626
 20
6.9324480937
 11
16.0607919626
 21
6.8328619409
  0
LINE
  5
911
100
AcDbEntity
  8
0
100
AcDbLine
 62
7
  6
CONTINUOUS
 10
16.0607919626
 20
6.7846436482
 11
16.0607919626
 21
6.6850574955
  0
LINE
  5
912
100
AcDbEntity
  8
0
100
AcDbLine
 62
7
  6
CONTINUOUS
 10
16.0607919626
 20
6.6368392028
 11
16.0607919626
 21
6.53725305
  0
LINE
  5
913
100
AcDbEntity
  8
0
100
AcDbLine
 62
7
  6
CONTINUOUS
 10
16.0607919626
 20
6.4890347573
 11
16.0607919626
 21
6.3894486046
  0
LINE
  5
914
100
AcDbEntity
  8
0
100
AcDbLine
 62
7
  6
CONTINUOUS
 10
16.0607919626
 20
6.3412303119
 11
16.0607919626
 21
6.2416441591
  0
LINE
  5
915
100
AcDbEntity
  8
0
100
AcDbLine
 62
7
  6
CONTINUOUS
 10
16.0607919626
 20
6.1934258664
 11
16.0607919626
 21
6.0938397137
  0
LINE
  5
916
100
AcDbEntity
  8
0
100
AcDbLine
 62
7
  6
CONTINUOUS
 10
16.0607919626
 20
6.045621421
 11
16.0607919626
 21
5.9460352682
  0
LINE
  5
917
100
AcDbEntity
  8
0
100
AcDbLine
 62
7
  6
CONTINUOUS
 10
16.0607919626
 20
5.8978169755
 11
16.0607919626
 21
5.7982308228
  0
LINE
  5
918
100
AcDbEntity
  8
0
100
AcDbLine
 62
7
  6
CONTINUOUS
 10
16.0607919626
 20
5.7500125301
 11
16.0607919626
 21
5.6504263773
  0
LINE
  5
919
100
AcDbEntity
  8
0
100
AcDbLine
 62
7
  6
CONTINUOUS
 10
16.0607919626
 20
5.6022080846
 11
16.0607919626
 21
5.5026219319
  0
LINE
  5
91A
100
AcDbEntity
  8
0
100
AcDbLine
 62
7
  6
CONTINUOUS
 10
16.0607919626
 20
5.4544036392
 11
16.0607919626
 21
5.3548174864
  0
LINE
  5
91B
100
AcDbEntity
  8
0
100
AcDbLine
 62
7
  6
CONTINUOUS
 10
16.0607919626
 20
5.3065991937
 11
16.0607919626
 21
5.207013041
  0
LINE
  5
91C
100
AcDbEntity
  8
0
100
AcDbLine
 62
7
  6
CONTINUOUS
 10
16.0607919626
 20
5.1587947483
 11
16.0607919626
 21
5.0592085955
  0
LINE
  5
91D
100
AcDbEntity
  8
0
100
AcDbLine
 62
7
  6
CONTINUOUS
 10
16.0607919626
 20
5.0109903028
 11
16.0607919626
 21
4.9114041501
  0
LINE
  5
91E
100
AcDbEntity
  8
0
100
AcDbLine
 62
7
  6
CONTINUOUS
 10
16.0607919626
 20
4.8631858574
 11
16.0607919626
 21
4.7635997046
  0
LINE
  5
91F
100
AcDbEntity
  8
0
100
AcDbLine
 62
7
  6
CONTINUOUS
 10
16.0607919626
 20
4.7153814119
 11
16.0607919626
 21
4.6157952592
  0
LINE
  5
920
100
AcDbEntity
  8
0
100
AcDbLine
 62
7
  6
CONTINUOUS
 10
16.0607919626
 20
4.5675769665
 11
16.0607919626
 21
4.4679908138
  0
LINE
  5
921
100
AcDbEntity
  8
0
100
AcDbLine
 62
7
  6
CONTINUOUS
 10
16.0607919626
 20
4.419772521
 11
16.0607919626
 21
4.3201863683
  0
LINE
  5
922
100
AcDbEntity
  8
0
100
AcDbLine
 62
7
  6
CONTINUOUS
 10
16.0747113874
 20
7.2361004303
 11
16.0747113874
 21
7.120427386
  0
LINE
  5
923
100
AcDbEntity
  8
0
100
AcDbLine
 62
7
  6
CONTINUOUS
 10
16.0747113874
 20
7.0882959849
 11
16.0747113874
 21
6.9726229406
  0
LINE
  5
924
100
AcDbEntity
  8
0
100
AcDbLine
 62
7
  6
CONTINUOUS
 10
16.0747113874
 20
6.9404915394
 11
16.0747113874
 21
6.8248184952
  0
LINE
  5
925
100
AcDbEntity
  8
0
100
AcDbLine
 62
7
  6
CONTINUOUS
 10
16.0747113874
 20
6.792687094
 11
16.0747113874
 21
6.6770140497
  0
LINE
  5
926
100
AcDbEntity
  8
0
100
AcDbLine
 62
7
  6
CONTINUOUS
 10
16.0747113874
 20
6.6448826485
 11
16.0747113874
 21
6.5292096043
  0
LINE
  5
927
100
AcDbEntity
  8
0
100
AcDbLine
 62
7
  6
CONTINUOUS
 10
16.0747113874
 20
6.4970782031
 11
16.0747113874
 21
6.3814051588
  0
LINE
  5
928
100
AcDbEntity
  8
0
100
AcDbLine
 62
7
  6
CONTINUOUS
 10
16.0747113874
 20
6.3492737576
 11
16.0747113874
 21
6.2336007134
  0
LINE
  5
929
100
AcDbEntity
  8
0
100
AcDbLine
 62
7
  6
CONTINUOUS
 10
16.0747113874
 20
6.2014693122
 11
16.0747113874
 21
6.0857962679
  0
LINE
  5
92A
100
AcDbEntity
  8
0
100
AcDbLine
 62
7
  6
CONTINUOUS
 10
16.0747113874
 20
6.0536648667
 11
16.0747113874
 21
5.9379918225
  0
LINE
  5
92B
100
AcDbEntity
  8
0
100
AcDbLine
 62
7
  6
CONTINUOUS
 10
16.0747113874
 20
5.9058604213
 11
16.0747113874
 21
5.790187377
  0
LINE
  5
92C
100
AcDbEntity
  8
0
100
AcDbLine
 62
7
  6
CONTINUOUS
 10
16.0747113874
 20
5.7580559758
 11
16.0747113874
 21
5.6423829316
  0
LINE
  5
92D
100
AcDbEntity
  8
0
100
AcDbLine
 62
7
  6
CONTINUOUS
 10
16.0747113874
 20
5.6102515304
 11
16.0747113874
 21
5.4945784861
  0
LINE
  5
92E
100
AcDbEntity
  8
0
100
AcDbLine
 62
7
  6
CONTINUOUS
 10
16.0747113874
 20
5.4624470849
 11
16.0747113874
 21
5.3467740407
  0
LINE
  5
92F
100
AcDbEntity
  8
0
100
AcDbLine
 62
7
  6
CONTINUOUS
 10
16.0747113874
 20
5.3146426395
 11
16.0747113874
 21
5.1989695952
  0
LINE
  5
930
100
AcDbEntity
  8
0
100
AcDbLine
 62
7
  6
CONTINUOUS
 10
16.0747113874
 20
5.166838194
 11
16.0747113874
 21
5.0511651498
  0
LINE
  5
931
100
AcDbEntity
  8
0
100
AcDbLine
 62
7
  6
CONTINUOUS
 10
16.0747113874
 20
5.0190337486
 11
16.0747113874
 21
4.9033607043
  0
LINE
  5
932
100
AcDbEntity
  8
0
100
AcDbLine
 62
7
  6
CONTINUOUS
 10
16.0747113874
 20
4.8712293031
 11
16.0747113874
 21
4.7555562589
  0
LINE
  5
933
100
AcDbEntity
  8
0
100
AcDbLine
 62
7
  6
CONTINUOUS
 10
16.0747113874
 20
4.7234248577
 11
16.0747113874
 21
4.6077518134
  0
LINE
  5
934
100
AcDbEntity
  8
0
100
AcDbLine
 62
7
  6
CONTINUOUS
 10
16.0747113874
 20
4.5756204123
 11
16.0747113874
 21
4.459947368
  0
LINE
  5
935
100
AcDbEntity
  8
0
100
AcDbLine
 62
7
  6
CONTINUOUS
 10
16.0747113874
 20
4.4278159668
 11
16.0747113874
 21
4.3121429225
  0
LINE
  5
936
100
AcDbEntity
  8
0
100
AcDbLine
 62
7
  6
CONTINUOUS
 10
16.1192535469
 20
7.5070441789
 11
16.1192535469
 21
7.5153441636
  0
LINE
  5
937
100
AcDbEntity
  8
0
100
AcDbLine
 62
7
  6
CONTINUOUS
 10
16.1470923965
 20
7.5028461566
 11
16.1470923965
 21
4.1933118346
  0
LINE
  5
938
100
AcDbEntity
  8
0
100
AcDbLine
 62
7
  6
CONTINUOUS
 10
15.0780805699
 20
4.770863324
 11
15.1783004286
 21
4.8287761335
  0
LINE
  5
939
100
AcDbEntity
  8
0
100
AcDbLine
 62
7
  6
CONTINUOUS
 10
15.2061392783
 20
4.8448630251
 11
15.306359137
 21
4.9027758346
  0
LINE
  5
93A
100
AcDbEntity
  8
0
100
AcDbLine
 62
7
  6
CONTINUOUS
 10
15.3341979867
 20
4.9188627261
 11
15.4344178454
 21
4.9767755356
  0
LINE
  5
93B
100
AcDbEntity
  8
0
100
AcDbLine
 62
7
  6
CONTINUOUS
 10
15.4622566951
 20
4.9928624271
 11
15.5624765538
 21
5.0507752366
  0
LINE
  5
93C
100
AcDbEntity
  8
0
100
AcDbLine
 62
7
  6
CONTINUOUS
 10
15.5903154035
 20
5.0668621281
 11
15.6905352622
 21
5.1247749376
  0
LINE
  5
93D
100
AcDbEntity
  8
0
100
AcDbLine
 62
7
  6
CONTINUOUS
 10
15.7183741119
 20
5.1408618291
 11
15.8185939706
 21
5.1987746386
  0
LINE
  5
93E
100
AcDbEntity
  8
0
100
AcDbLine
 62
7
  6
CONTINUOUS
 10
15.8464328203
 20
5.2148615302
 11
15.946652679
 21
5.2727743397
  0
LINE
  5
93F
100
AcDbEntity
  8
0
100
AcDbLine
 62
7
  6
CONTINUOUS
 10
15.9744915287
 20
5.2888612312
 11
16.0747113874
 21
5.3467740407
  0
LINE
  5
940
100
AcDbEntity
  8
0
100
AcDbLine
 62
7
  6
CONTINUOUS
 10
16.0747113874
 20
5.3146426395
 11
15.9744915287
 21
5.25672983
  0
LINE
  5
941
100
AcDbEntity
  8
0
100
AcDbLine
 62
7
  6
CONTINUOUS
 10
15.946652679
 20
5.2406429385
 11
15.8464328203
 21
5.182730129
  0
LINE
  5
942
100
AcDbEntity
  8
0
100
AcDbLine
 62
7
  6
CONTINUOUS
 10
15.8185939706
 20
5.1666432375
 11
15.7183741119
 21
5.108730428
  0
LINE
  5
943
100
AcDbEntity
  8
0
100
AcDbLine
 62
7
  6
CONTINUOUS
 10
15.6905352622
 20
5.0926435364
 11
15.5903154035
 21
5.0347307269
  0
LINE
  5
944
100
AcDbEntity
  8
0
100
AcDbLine
 62
7
  6
CONTINUOUS
 10
15.5624765538
 20
5.0186438354
 11
15.4622566951
 21
4.9607310259
  0
LINE
  5
945
100
AcDbEntity
  8
0
100
AcDbLine
 62
7
  6
CONTINUOUS
 10
15.4344178454
 20
4.9446441344
 11
15.3341979867
 21
4.8867313249
  0
LINE
  5
946
100
AcDbEntity
  8
0
100
AcDbLine
 62
7
  6
CONTINUOUS
 10
15.306359137
 20
4.8706444334
 11
15.2061392783
 21
4.8127316239
  0
LINE
  5
947
100
AcDbEntity
  8
0
100
AcDbLine
 62
7
  6
CONTINUOUS
 10
15.1783004286
 20
4.7966447324
 11
15.0780805699
 21
4.7387319229
  0
LINE
  5
948
100
AcDbEntity
  8
0
100
AcDbLine
 62
7
  6
CONTINUOUS
 10
16.0607919626
 20
5.207013041
 11
15.9744915287
 21
5.1571436773
  0
LINE
  5
949
100
AcDbEntity
  8
0
100
AcDbLine
 62
7
  6
CONTINUOUS
 10
15.9327332542
 20
5.13301334
 11
15.8464328203
 21
5.0831439762
  0
LINE
  5
94A
100
AcDbEntity
  8
0
100
AcDbLine
 62
7
  6
CONTINUOUS
 10
15.8046745458
 20
5.059013639
 11
15.7183741119
 21
5.0091442752
  0
LINE
  5
94B
100
AcDbEntity
  8
0
100
AcDbLine
 62
7
  6
CONTINUOUS
 10
15.6766158374
 20
4.9850139379
 11
15.5903154035
 21
4.9351445742
  0
LINE
  5
94C
100
AcDbEntity
  8
0
100
AcDbLine
 62
7
  6
CONTINUOUS
 10
15.548557129
 20
4.9110142369
 11
15.4622566951
 21
4.8611448732
  0
LINE
  5
94D
100
AcDbEntity
  8
0
100
AcDbLine
 62
7
  6
CONTINUOUS
 10
15.4204984206
 20
4.8370145359
 11
15.3341979867
 21
4.7871451722
  0
LINE
  5
94E
100
AcDbEntity
  8
0
100
AcDbLine
 62
7
  6
CONTINUOUS
 10
15.2924397122
 20
4.7630148349
 11
15.2061392783
 21
4.7131454711
  0
LINE
  5
94F
100
AcDbEntity
  8
0
100
AcDbLine
 62
7
  6
CONTINUOUS
 10
15.1643810038
 20
4.6890151339
 11
15.0780805699
 21
4.6391457701
  0
LINE
  5
950
100
AcDbEntity
  8
0
100
AcDbLine
 62
7
  6
CONTINUOUS
 10
15.0780805699
 20
4.6230588786
 11
15.1783004286
 21
4.6809716881
  0
LINE
  5
951
100
AcDbEntity
  8
0
100
AcDbLine
 62
7
  6
CONTINUOUS
 10
15.2061392783
 20
4.6970585796
 11
15.306359137
 21
4.7549713891
  0
LINE
  5
952
100
AcDbEntity
  8
0
100
AcDbLine
 62
7
  6
CONTINUOUS
 10
15.3341979867
 20
4.7710582806
 11
15.4344178454
 21
4.8289710901
  0
LINE
  5
953
100
AcDbEntity
  8
0
100
AcDbLine
 62
7
  6
CONTINUOUS
 10
15.4622566951
 20
4.8450579817
 11
15.5624765538
 21
4.9029707911
  0
LINE
  5
954
100
AcDbEntity
  8
0
100
AcDbLine
 62
7
  6
CONTINUOUS
 10
15.5903154035
 20
4.9190576827
 11
15.6905352622
 21
4.9769704922
  0
LINE
  5
955
100
AcDbEntity
  8
0
100
AcDbLine
 62
7
  6
CONTINUOUS
 10
15.7183741119
 20
4.9930573837
 11
15.8185939706
 21
5.0509701932
  0
LINE
  5
956
100
AcDbEntity
  8
0
100
AcDbLine
 62
7
  6
CONTINUOUS
 10
15.8464328203
 20
5.0670570847
 11
15.946652679
 21
5.1249698942
  0
LINE
  5
957
100
AcDbEntity
  8
0
100
AcDbLine
 62
7
  6
CONTINUOUS
 10
15.9744915287
 20
5.1410567857
 11
16.0747113874
 21
5.1989695952
  0
LINE
  5
958
100
AcDbEntity
  8
0
100
AcDbLine
 62
7
  6
CONTINUOUS
 10
16.0747113874
 20
5.166838194
 11
15.9744915287
 21
5.1089253846
  0
LINE
  5
959
100
AcDbEntity
  8
0
100
AcDbLine
 62
7
  6
CONTINUOUS
 10
15.946652679
 20
5.092838493
 11
15.8464328203
 21
5.0349256835
  0
LINE
  5
95A
100
AcDbEntity
  8
0
100
AcDbLine
 62
7
  6
CONTINUOUS
 10
15.8185939706
 20
5.018838792
 11
15.7183741119
 21
4.9609259825
  0
LINE
  5
95B
100
AcDbEntity
  8
0
100
AcDbLine
 62
7
  6
CONTINUOUS
 10
15.6905352622
 20
4.944839091
 11
15.5903154035
 21
4.8869262815
  0
LINE
  5
95C
100
AcDbEntity
  8
0
100
AcDbLine
 62
7
  6
CONTINUOUS
 10
15.5624765538
 20
4.87083939
 11
15.4622566951
 21
4.8129265805
  0
LINE
  5
95D
100
AcDbEntity
  8
0
100
AcDbLine
 62
7
  6
CONTINUOUS
 10
15.4344178454
 20
4.7968396889
 11
15.3341979867
 21
4.7389268795
  0
LINE
  5
95E
100
AcDbEntity
  8
0
100
AcDbLine
 62
7
  6
CONTINUOUS
 10
15.306359137
 20
4.7228399879
 11
15.2061392783
 21
4.6649271784
  0
LINE
  5
95F
100
AcDbEntity
  8
0
100
AcDbLine
 62
7
  6
CONTINUOUS
 10
15.1783004286
 20
4.6488402869
 11
15.0780805699
 21
4.5909274774
  0
LINE
  5
960
100
AcDbEntity
  8
0
100
AcDbLine
 62
7
  6
CONTINUOUS
 10
14.1843801529
 20
4.040528747
 11
14.1426952215
 21
4.0164407915
  0
LINE
  5
961
100
AcDbEntity
  8
0
100
AcDbLine
 62
7
  6
CONTINUOUS
 10
14.1896472161
 20
4.0374851343
 11
13.9199844243
 21
3.881658434
  0
LINE
  5
962
100
AcDbEntity
  8
0
100
AcDbLine
 62
7
  6
CONTINUOUS
 10
16.0607919626
 20
5.0592085955
 11
15.9744915287
 21
5.0093392318
  0
LINE
  5
963
100
AcDbEntity
  8
0
100
AcDbLine
 62
7
  6
CONTINUOUS
 10
15.9327332542
 20
4.9852088945
 11
15.8464328203
 21
4.9353395308
  0
LINE
  5
964
100
AcDbEntity
  8
0
100
AcDbLine
 62
7
  6
CONTINUOUS
 10
15.8046745458
 20
4.9112091935
 11
15.7183741119
 21
4.8613398298
  0
LINE
  5
965
100
AcDbEntity
  8
0
100
AcDbLine
 62
7
  6
CONTINUOUS
 10
15.6766158374
 20
4.8372094925
 11
15.5903154035
 21
4.7873401288
  0
LINE
  5
966
100
AcDbEntity
  8
0
100
AcDbLine
 62
7
  6
CONTINUOUS
 10
15.548557129
 20
4.7632097915
 11
15.4622566951
 21
4.7133404277
  0
LINE
  5
967
100
AcDbEntity
  8
0
100
AcDbLine
 62
7
  6
CONTINUOUS
 10
15.4204984206
 20
4.6892100904
 11
15.3341979867
 21
4.6393407267
  0
LINE
  5
968
100
AcDbEntity
  8
0
100
AcDbLine
 62
7
  6
CONTINUOUS
 10
15.2924397122
 20
4.6152103894
 11
15.2061392783
 21
4.5653410257
  0
LINE
  5
969
100
AcDbEntity
  8
0
100
AcDbLine
 62
7
  6
CONTINUOUS
 10
15.1643810038
 20
4.5412106884
 11
15.0780805699
 21
4.4913413247
  0
LINE
  5
96A
100
AcDbEntity
  8
0
100
AcDbLine
 62
7
  6
CONTINUOUS
 10
13.2657714574
 20
9.1353265915
 11
13.0569800851
 21
9.2238468768
  0
LINE
  5
96B
100
AcDbEntity
  8
0
100
AcDbLine
 62
7
  6
CONTINUOUS
 10
15.9383010241
 20
7.1733403624
 11
15.8826233248
 21
7.3983025526
  0
LINE
  5
96C
100
AcDbEntity
  8
0
100
AcDbLine
 62
7
  6
CONTINUOUS
 10
15.0780805699
 20
4.4752544331
 11
15.1783004286
 21
4.5331672426
  0
LINE
  5
96D
100
AcDbEntity
  8
0
100
AcDbLine
 62
7
  6
CONTINUOUS
 10
15.2061392783
 20
4.5492541342
 11
15.306359137
 21
4.6071669437
  0
LINE
  5
96E
100
AcDbEntity
  8
0
100
AcDbLine
 62
7
  6
CONTINUOUS
 10
15.3341979867
 20
4.6232538352
 11
15.4344178454
 21
4.6811666447
  0
LINE
  5
96F
100
AcDbEntity
  8
0
100
AcDbLine
 62
7
  6
CONTINUOUS
 10
15.4622566951
 20
4.6972535362
 11
15.5624765538
 21
4.7551663457
  0
LINE
  5
970
100
AcDbEntity
  8
0
100
AcDbLine
 62
7
  6
CONTINUOUS
 10
15.5903154035
 20
4.7712532372
 11
15.6905352622
 21
4.8291660467
  0
LINE
  5
971
100
AcDbEntity
  8
0
100
AcDbLine
 62
7
  6
CONTINUOUS
 10
15.7183741119
 20
4.8452529382
 11
15.8185939706
 21
4.9031657477
  0
LINE
  5
972
100
AcDbEntity
  8
0
100
AcDbLine
 62
7
  6
CONTINUOUS
 10
15.8464328203
 20
4.9192526393
 11
15.946652679
 21
4.9771654488
  0
LINE
  5
973
100
AcDbEntity
  8
0
100
AcDbLine
 62
7
  6
CONTINUOUS
 10
15.9744915287
 20
4.9932523403
 11
16.0747113874
 21
5.0511651498
  0
LINE
  5
974
100
AcDbEntity
  8
0
100
AcDbLine
 62
7
  6
CONTINUOUS
 10
16.0747113874
 20
5.0190337486
 11
15.9744915287
 21
4.9611209391
  0
LINE
  5
975
100
AcDbEntity
  8
0
100
AcDbLine
 62
7
  6
CONTINUOUS
 10
15.946652679
 20
4.9450340476
 11
15.8464328203
 21
4.8871212381
  0
LINE
  5
976
100
AcDbEntity
  8
0
100
AcDbLine
 62
7
  6
CONTINUOUS
 10
15.8185939706
 20
4.8710343466
 11
15.7183741119
 21
4.8131215371
  0
LINE
  5
977
100
AcDbEntity
  8
0
100
AcDbLine
 62
7
  6
CONTINUOUS
 10
15.6905352622
 20
4.7970346455
 11
15.5903154035
 21
4.739121836
  0
LINE
  5
978
100
AcDbEntity
  8
0
100
AcDbLine
 62
7
  6
CONTINUOUS
 10
15.5624765538
 20
4.7230349445
 11
15.4622566951
 21
4.665122135
  0
LINE
  5
979
100
AcDbEntity
  8
0
100
AcDbLine
 62
7
  6
CONTINUOUS
 10
15.4344178454
 20
4.6490352435
 11
15.3341979867
 21
4.591122434
  0
LINE
  5
97A
100
AcDbEntity
  8
0
100
AcDbLine
 62
7
  6
CONTINUOUS
 10
15.306359137
 20
4.5750355425
 11
15.2061392783
 21
4.517122733
  0
LINE
  5
97B
100
AcDbEntity
  8
0
100
AcDbLine
 62
7
  6
CONTINUOUS
 10
15.1783004286
 20
4.5010358415
 11
15.0780805699
 21
4.443123032
  0
LINE
  5
97C
100
AcDbEntity
  8
0
100
AcDbLine
 62
7
  6
CONTINUOUS
 10
16.0607919626
 20
4.9114041501
 11
15.9744915287
 21
4.8615347864
  0
LINE
  5
97D
100
AcDbEntity
  8
0
100
AcDbLine
 62
7
  6
CONTINUOUS
 10
15.9327332542
 20
4.8374044491
 11
15.8464328203
 21
4.7875350853
  0
LINE
  5
97E
100
AcDbEntity
  8
0
100
AcDbLine
 62
7
  6
CONTINUOUS
 10
15.8046745458
 20
4.7634047481
 11
15.7183741119
 21
4.7135353843
  0
LINE
  5
97F
100
AcDbEntity
  8
0
100
AcDbLine
 62
7
  6
CONTINUOUS
 10
15.6766158374
 20
4.689405047
 11
15.5903154035
 21
4.6395356833
  0
LINE
  5
980
100
AcDbEntity
  8
0
100
AcDbLine
 62
7
  6
CONTINUOUS
 10
15.548557129
 20
4.615405346
 11
15.4622566951
 21
4.5655359823
  0
LINE
  5
981
100
AcDbEntity
  8
0
100
AcDbLine
 62
7
  6
CONTINUOUS
 10
15.4204984206
 20
4.541405645
 11
15.3341979867
 21
4.4915362813
  0
LINE
  5
982
100
AcDbEntity
  8
0
100
AcDbLine
 62
7
  6
CONTINUOUS
 10
15.2924397122
 20
4.467405944
 11
15.2061392783
 21
4.4175365802
  0
LINE
  5
983
100
AcDbEntity
  8
0
100
AcDbLine
 62
7
  6
CONTINUOUS
 10
15.1643810038
 20
4.393406243
 11
15.0780805699
 21
4.3435368792
  0
LINE
  5
984
100
AcDbEntity
  8
0
100
AcDbLine
 62
7
  6
CONTINUOUS
 10
15.0780805699
 20
4.3274499877
 11
15.1783004286
 21
4.3853627972
  0
LINE
  5
985
100
AcDbEntity
  8
0
100
AcDbLine
 62
7
  6
CONTINUOUS
 10
15.2061392783
 20
4.4014496887
 11
15.306359137
 21
4.4593624982
  0
LINE
  5
986
100
AcDbEntity
  8
0
100
AcDbLine
 62
7
  6
CONTINUOUS
 10
15.3341979867
 20
4.4754493897
 11
15.4344178454
 21
4.5333621992
  0
LINE
  5
987
100
AcDbEntity
  8
0
100
AcDbLine
 62
7
  6
CONTINUOUS
 10
15.4622566951
 20
4.5494490908
 11
15.5624765538
 21
4.6073619003
  0
LINE
  5
988
100
AcDbEntity
  8
0
100
AcDbLine
 62
7
  6
CONTINUOUS
 10
15.5903154035
 20
4.6234487918
 11
15.6905352622
 21
4.6813616013
  0
LINE
  5
989
100
AcDbEntity
  8
0
100
AcDbLine
 62
7
  6
CONTINUOUS
 10
15.7183741119
 20
4.6974484928
 11
15.8185939706
 21
4.7553613023
  0
LINE
  5
98A
100
AcDbEntity
  8
0
100
AcDbLine
 62
7
  6
CONTINUOUS
 10
15.8464328203
 20
4.7714481938
 11
15.946652679
 21
4.8293610033
  0
LINE
  5
98B
100
AcDbEntity
  8
0
100
AcDbLine
 62
7
  6
CONTINUOUS
 10
15.9744915287
 20
4.8454478948
 11
16.0747113874
 21
4.9033607043
  0
LINE
  5
98C
100
AcDbEntity
  8
0
100
AcDbLine
 62
7
  6
CONTINUOUS
 10
16.0747113874
 20
4.8712293031
 11
15.9744915287
 21
4.8133164937
  0
LINE
  5
98D
100
AcDbEntity
  8
0
100
AcDbLine
 62
7
  6
CONTINUOUS
 10
15.946652679
 20
4.7972296021
 11
15.8464328203
 21
4.7393167926
  0
LINE
  5
98E
100
AcDbEntity
  8
0
100
AcDbLine
 62
7
  6
CONTINUOUS
 10
15.8185939706
 20
4.7232299011
 11
15.7183741119
 21
4.6653170916
  0
LINE
  5
98F
100
AcDbEntity
  8
0
100
AcDbLine
 62
7
  6
CONTINUOUS
 10
15.6905352622
 20
4.6492302001
 11
15.5903154035
 21
4.5913173906
  0
LINE
  5
990
100
AcDbEntity
  8
0
100
AcDbLine
 62
7
  6
CONTINUOUS
 10
15.5624765538
 20
4.5752304991
 11
15.4622566951
 21
4.5173176896
  0
LINE
  5
991
100
AcDbEntity
  8
0
100
AcDbLine
 62
7
  6
CONTINUOUS
 10
15.4344178454
 20
4.501230798
 11
15.3341979867
 21
4.4433179886
  0
LINE
  5
992
100
AcDbEntity
  8
0
100
AcDbLine
 62
7
  6
CONTINUOUS
 10
15.306359137
 20
4.427231097
 11
15.2061392783
 21
4.3693182875
  0
LINE
  5
993
100
AcDbEntity
  8
0
100
AcDbLine
 62
7
  6
CONTINUOUS
 10
15.1783004286
 20
4.353231396
 11
15.0780805699
 21
4.2953185865
  0
LINE
  5
994
100
AcDbEntity
  8
0
100
AcDbLine
 62
7
  6
CONTINUOUS
 10
16.0607919626
 20
4.7635997046
 11
15.9744915287
 21
4.7137303409
  0
LINE
  5
995
100
AcDbEntity
  8
0
100
AcDbLine
 62
7
  6
CONTINUOUS
 10
15.9327332542
 20
4.6896000036
 11
15.8464328203
 21
4.6397306399
  0
LINE
  5
996
100
AcDbEntity
  8
0
100
AcDbLine
 62
7
  6
CONTINUOUS
 10
15.8046745458
 20
4.6156003026
 11
15.7183741119
 21
4.5657309389
  0
LINE
  5
997
100
AcDbEntity
  8
0
100
AcDbLine
 62
7
  6
CONTINUOUS
 10
15.6766158374
 20
4.5416006016
 11
15.5903154035
 21
4.4917312379
  0
LINE
  5
998
100
AcDbEntity
  8
0
100
AcDbLine
 62
7
  6
CONTINUOUS
 10
15.548557129
 20
4.4676009006
 11
15.4622566951
 21
4.4177315368
  0
LINE
  5
999
100
AcDbEntity
  8
0
100
AcDbLine
 62
7
  6
CONTINUOUS
 10
15.4204984206
 20
4.3936011995
 11
15.3341979867
 21
4.3437318358
  0
LINE
  5
99A
100
AcDbEntity
  8
0
100
AcDbLine
 62
7
  6
CONTINUOUS
 10
15.2924397122
 20
4.3196014985
 11
15.2061392783
 21
4.2697321348
  0
LINE
  5
99B
100
AcDbEntity
  8
0
100
AcDbLine
 62
7
  6
CONTINUOUS
 10
15.1643810038
 20
4.2456017975
 11
15.0780805699
 21
4.1957324338
  0
LINE
  5
99C
100
AcDbEntity
  8
0
100
AcDbLine
 62
7
  6
CONTINUOUS
 10
15.0780805699
 20
4.1796455423
 11
15.1783004286
 21
4.2375583517
  0
LINE
  5
99D
100
AcDbEntity
  8
0
100
AcDbLine
 62
7
  6
CONTINUOUS
 10
15.2061392783
 20
4.2536452433
 11
15.306359137
 21
4.3115580528
  0
LINE
  5
99E
100
AcDbEntity
  8
0
100
AcDbLine
 62
7
  6
CONTINUOUS
 10
15.3341979867
 20
4.3276449443
 11
15.4344178454
 21
4.3855577538
  0
LINE
  5
99F
100
AcDbEntity
  8
0
100
AcDbLine
 62
7
  6
CONTINUOUS
 10
15.4622566951
 20
4.4016446453
 11
15.5624765538
 21
4.4595574548
  0
LINE
  5
9A0
100
AcDbEntity
  8
0
100
AcDbLine
 62
7
  6
CONTINUOUS
 10
15.5903154035
 20
4.4756443463
 11
15.6905352622
 21
4.5335571558
  0
LINE
  5
9A1
100
AcDbEntity
  8
0
100
AcDbLine
 62
7
  6
CONTINUOUS
 10
15.7183741119
 20
4.5496440474
 11
15.8185939706
 21
4.6075568568
  0
LINE
  5
9A2
100
AcDbEntity
  8
0
100
AcDbLine
 62
7
  6
CONTINUOUS
 10
15.8464328203
 20
4.6236437484
 11
15.946652679
 21
4.6815565579
  0
LINE
  5
9A3
100
AcDbEntity
  8
0
100
AcDbLine
 62
7
  6
CONTINUOUS
 10
15.9744915287
 20
4.6976434494
 11
16.0747113874
 21
4.7555562589
  0
LINE
  5
9A4
100
AcDbEntity
  8
0
100
AcDbLine
 62
7
  6
CONTINUOUS
 10
16.0747113874
 20
4.7234248577
 11
15.9744915287
 21
4.6655120482
  0
LINE
  5
9A5
100
AcDbEntity
  8
0
100
AcDbLine
 62
7
  6
CONTINUOUS
 10
15.946652679
 20
4.6494251567
 11
15.8464328203
 21
4.5915123472
  0
LINE
  5
9A6
100
AcDbEntity
  8
0
100
AcDbLine
 62
7
  6
CONTINUOUS
 10
15.8185939706
 20
4.5754254557
 11
15.7183741119
 21
4.5175126462
  0
LINE
  5
9A7
100
AcDbEntity
  8
0
100
AcDbLine
 62
7
  6
CONTINUOUS
 10
15.6905352622
 20
4.5014257546
 11
15.5903154035
 21
4.4435129451
  0
LINE
  5
9A8
100
AcDbEntity
  8
0
100
AcDbLine
 62
7
  6
CONTINUOUS
 10
15.5624765538
 20
4.4274260536
 11
15.4622566951
 21
4.3695132441
  0
LINE
  5
9A9
100
AcDbEntity
  8
0
100
AcDbLine
 62
7
  6
CONTINUOUS
 10
15.4344178454
 20
4.3534263526
 11
15.3341979867
 21
4.2955135431
  0
LINE
  5
9AA
100
AcDbEntity
  8
0
100
AcDbLine
 62
7
  6
CONTINUOUS
 10
15.306359137
 20
4.2794266516
 11
15.2061392783
 21
4.2215138421
  0
LINE
  5
9AB
100
AcDbEntity
  8
0
100
AcDbLine
 62
7
  6
CONTINUOUS
 10
15.1783004286
 20
4.2054269506
 11
15.0780805699
 21
4.1475141411
  0
LINE
  5
9AC
100
AcDbEntity
  8
0
100
AcDbLine
 62
7
  6
CONTINUOUS
 10
16.0607919626
 20
4.6157952592
 11
15.9744915287
 21
4.5659258955
  0
LINE
  5
9AD
100
AcDbEntity
  8
0
100
AcDbLine
 62
7
  6
CONTINUOUS
 10
15.9327332542
 20
4.5417955582
 11
15.8464328203
 21
4.4919261945
  0
LINE
  5
9AE
100
AcDbEntity
  8
0
100
AcDbLine
 62
7
  6
CONTINUOUS
 10
15.8046745458
 20
4.4677958572
 11
15.7183741119
 21
4.4179264934
  0
LINE
  5
9AF
100
AcDbEntity
  8
0
100
AcDbLine
 62
7
  6
CONTINUOUS
 10
15.6766158374
 20
4.3937961561
 11
15.5903154035
 21
4.3439267924
  0
LINE
  5
9B0
100
AcDbEntity
  8
0
100
AcDbLine
 62
7
  6
CONTINUOUS
 10
15.548557129
 20
4.3197964551
 11
15.4622566951
 21
4.2699270914
  0
LINE
  5
9B1
100
AcDbEntity
  8
0
100
AcDbLine
 62
7
  6
CONTINUOUS
 10
15.4204984206
 20
4.2457967541
 11
15.3341979867
 21
4.1959273904
  0
LINE
  5
9B2
100
AcDbEntity
  8
0
100
AcDbLine
 62
7
  6
CONTINUOUS
 10
15.2924397122
 20
4.1717970531
 11
15.2061392783
 21
4.1219276894
  0
LINE
  5
9B3
100
AcDbEntity
  8
0
100
AcDbLine
 62
7
  6
CONTINUOUS
 10
15.1643810038
 20
4.0977973521
 11
15.0780805699
 21
4.0479279883
  0
LINE
  5
9B4
100
AcDbEntity
  8
0
100
AcDbLine
 62
7
  6
CONTINUOUS
 10
15.0780805699
 20
4.0318410968
 11
15.1783004286
 21
4.0897539063
  0
LINE
  5
9B5
100
AcDbEntity
  8
0
100
AcDbLine
 62
7
  6
CONTINUOUS
 10
15.2061392783
 20
4.1058407978
 11
15.306359137
 21
4.1637536073
  0
LINE
  5
9B6
100
AcDbEntity
  8
0
100
AcDbLine
 62
7
  6
CONTINUOUS
 10
15.3341979867
 20
4.1798404988
 11
15.4344178454
 21
4.2377533083
  0
LINE
  5
9B7
100
AcDbEntity
  8
0
100
AcDbLine
 62
7
  6
CONTINUOUS
 10
15.4622566951
 20
4.2538401999
 11
15.5624765538
 21
4.3117530094
  0
LINE
  5
9B8
100
AcDbEntity
  8
0
100
AcDbLine
 62
7
  6
CONTINUOUS
 10
15.5903154035
 20
4.3278399009
 11
15.6905352622
 21
4.3857527104
  0
LINE
  5
9B9
100
AcDbEntity
  8
0
100
AcDbLine
 62
7
  6
CONTINUOUS
 10
15.7183741119
 20
4.4018396019
 11
15.8185939706
 21
4.4597524114
  0
LINE
  5
9BA
100
AcDbEntity
  8
0
100
AcDbLine
 62
7
  6
CONTINUOUS
 10
15.8464328203
 20
4.4758393029
 11
15.946652679
 21
4.5337521124
  0
LINE
  5
9BB
100
AcDbEntity
  8
0
100
AcDbLine
 62
7
  6
CONTINUOUS
 10
15.9744915287
 20
4.5498390039
 11
16.0747113874
 21
4.6077518134
  0
LINE
  5
9BC
100
AcDbEntity
  8
0
100
AcDbLine
 62
7
  6
CONTINUOUS
 10
14.7481902015
 20
3.8352089707
 11
14.7551499139
 21
3.8392306935
  0
LINE
  5
9BD
100
AcDbEntity
  8
0
100
AcDbLine
 62
7
  6
CONTINUOUS
 10
16.0747113874
 20
4.5756204123
 11
15.9744915287
 21
4.5177076028
  0
LINE
  5
9BE
100
AcDbEntity
  8
0
100
AcDbLine
 62
7
  6
CONTINUOUS
 10
15.946652679
 20
4.5016207112
 11
15.8464328203
 21
4.4437079017
  0
LINE
  5
9BF
100
AcDbEntity
  8
0
100
AcDbLine
 62
7
  6
CONTINUOUS
 10
15.8185939706
 20
4.4276210102
 11
15.7183741119
 21
4.3697082007
  0
LINE
  5
9C0
100
AcDbEntity
  8
0
100
AcDbLine
 62
7
  6
CONTINUOUS
 10
15.6905352622
 20
4.3536213092
 11
15.5903154035
 21
4.2957084997
  0
LINE
  5
9C1
100
AcDbEntity
  8
0
100
AcDbLine
 62
7
  6
CONTINUOUS
 10
15.5624765538
 20
4.2796216082
 11
15.4622566951
 21
4.2217087987
  0
LINE
  5
9C2
100
AcDbEntity
  8
0
100
AcDbLine
 62
7
  6
CONTINUOUS
 10
15.4344178454
 20
4.2056219072
 11
15.3341979867
 21
4.1477090977
  0
LINE
  5
9C3
100
AcDbEntity
  8
0
100
AcDbLine
 62
7
  6
CONTINUOUS
 10
15.306359137
 20
4.1316222061
 11
15.2061392783
 21
4.0737093966
  0
LINE
  5
9C4
100
AcDbEntity
  8
0
100
AcDbLine
 62
7
  6
CONTINUOUS
 10
15.1783004286
 20
4.0576225051
 11
15.0780805699
 21
3.9997096956
  0
LINE
  5
9C5
100
AcDbEntity
  8
0
100
AcDbLine
 62
7
  6
CONTINUOUS
 10
16.0607919626
 20
4.4679908138
 11
15.9744915287
 21
4.41812145
  0
LINE
  5
9C6
100
AcDbEntity
  8
0
100
AcDbLine
 62
7
  6
CONTINUOUS
 10
15.9327332542
 20
4.3939911127
 11
15.8464328203
 21
4.344121749
  0
LINE
  5
9C7
100
AcDbEntity
  8
0
100
AcDbLine
 62
7
  6
CONTINUOUS
 10
15.8046745458
 20
4.3199914117
 11
15.7183741119
 21
4.270122048
  0
LINE
  5
9C8
100
AcDbEntity
  8
0
100
AcDbLine
 62
7
  6
CONTINUOUS
 10
15.6766158374
 20
4.2459917107
 11
15.5903154035
 21
4.196122347
  0
LINE
  5
9C9
100
AcDbEntity
  8
0
100
AcDbLine
 62
7
  6
CONTINUOUS
 10
15.548557129
 20
4.1719920097
 11
15.4622566951
 21
4.1221226459
  0
LINE
  5
9CA
100
AcDbEntity
  8
0
100
AcDbLine
 62
7
  6
CONTINUOUS
 10
15.4204984206
 20
4.0979923087
 11
15.3341979867
 21
4.0481229449
  0
LINE
  5
9CB
100
AcDbEntity
  8
0
100
AcDbLine
 62
7
  6
CONTINUOUS
 10
15.2924397122
 20
4.0239926076
 11
15.2061392783
 21
3.9741232439
  0
LINE
  5
9CC
100
AcDbEntity
  8
0
100
AcDbLine
 62
7
  6
CONTINUOUS
 10
15.1643810038
 20
3.9499929066
 11
15.0780805699
 21
3.9001235429
  0
LINE
  5
9CD
100
AcDbEntity
  8
0
100
AcDbLine
 62
7
  6
CONTINUOUS
 10
15.0780805699
 20
3.8840366514
 11
15.1783004286
 21
3.9419494609
  0
LINE
  5
9CE
100
AcDbEntity
  8
0
100
AcDbLine
 62
7
  6
CONTINUOUS
 10
15.2061392783
 20
3.9580363524
 11
15.306359137
 21
4.0159491619
  0
LINE
  5
9CF
100
AcDbEntity
  8
0
100
AcDbLine
 62
7
  6
CONTINUOUS
 10
15.3341979867
 20
4.0320360534
 11
15.4344178454
 21
4.0899488629
  0
LINE
  5
9D0
100
AcDbEntity
  8
0
100
AcDbLine
 62
7
  6
CONTINUOUS
 10
15.4622566951
 20
4.1060357544
 11
15.5624765538
 21
4.1639485639
  0
LINE
  5
9D1
100
AcDbEntity
  8
0
100
AcDbLine
 62
7
  6
CONTINUOUS
 10
15.5903154035
 20
4.1800354554
 11
15.6905352622
 21
4.2379482649
  0
LINE
  5
9D2
100
AcDbEntity
  8
0
100
AcDbLine
 62
7
  6
CONTINUOUS
 10
15.7183741119
 20
4.2540351565
 11
15.8185939706
 21
4.311947966
  0
LINE
  5
9D3
100
AcDbEntity
  8
0
100
AcDbLine
 62
7
  6
CONTINUOUS
 10
15.8464328203
 20
4.3280348575
 11
15.946652679
 21
4.385947667
  0
LINE
  5
9D4
100
AcDbEntity
  8
0
100
AcDbLine
 62
7
  6
CONTINUOUS
 10
15.9744915287
 20
4.4020345585
 11
16.0747113874
 21
4.459947368
  0
LINE
  5
9D5
100
AcDbEntity
  8
0
100
AcDbLine
 62
7
  6
CONTINUOUS
 10
16.0747113874
 20
4.4278159668
 11
15.9744915287
 21
4.3699031573
  0
LINE
  5
9D6
100
AcDbEntity
  8
0
100
AcDbLine
 62
7
  6
CONTINUOUS
 10
15.946652679
 20
4.3538162658
 11
15.8464328203
 21
4.2959034563
  0
LINE
  5
9D7
100
AcDbEntity
  8
0
100
AcDbLine
 62
7
  6
CONTINUOUS
 10
15.8185939706
 20
4.2798165648
 11
15.7183741119
 21
4.2219037553
  0
LINE
  5
9D8
100
AcDbEntity
  8
0
100
AcDbLine
 62
7
  6
CONTINUOUS
 10
15.6905352622
 20
4.2058168637
 11
15.5903154035
 21
4.1479040543
  0
LINE
  5
9D9
100
AcDbEntity
  8
0
100
AcDbLine
 62
7
  6
CONTINUOUS
 10
15.5624765538
 20
4.1318171627
 11
15.4622566951
 21
4.0739043532
  0
LINE
  5
9DA
100
AcDbEntity
  8
0
100
AcDbLine
 62
7
  6
CONTINUOUS
 10
15.4344178454
 20
4.0578174617
 11
15.3341979867
 21
3.9999046522
  0
LINE
  5
9DB
100
AcDbEntity
  8
0
100
AcDbLine
 62
7
  6
CONTINUOUS
 10
15.306359137
 20
3.9838177607
 11
15.2061392783
 21
3.9259049512
  0
LINE
  5
9DC
100
AcDbEntity
  8
0
100
AcDbLine
 62
7
  6
CONTINUOUS
 10
15.1783004286
 20
3.9098180597
 11
15.0780805699
 21
3.8519052502
  0
LINE
  5
9DD
100
AcDbEntity
  8
0
100
AcDbLine
 62
7
  6
CONTINUOUS
 10
16.0607919626
 20
4.3201863683
 11
15.9744915287
 21
4.2703170046
  0
LINE
  5
9DE
100
AcDbEntity
  8
0
100
AcDbLine
 62
7
  6
CONTINUOUS
 10
15.9327332542
 20
4.2461866673
 11
15.8464328203
 21
4.1963173036
  0
LINE
  5
9DF
100
AcDbEntity
  8
0
100
AcDbLine
 62
7
  6
CONTINUOUS
 10
15.8046745458
 20
4.1721869663
 11
15.7183741119
 21
4.1223176025
  0
LINE
  5
9E0
100
AcDbEntity
  8
0
100
AcDbLine
 62
7
  6
CONTINUOUS
 10
15.6766158374
 20
4.0981872652
 11
15.5903154035
 21
4.0483179015
  0
LINE
  5
9E1
100
AcDbEntity
  8
0
100
AcDbLine
 62
7
  6
CONTINUOUS
 10
15.548557129
 20
4.0241875642
 11
15.4622566951
 21
3.9743182005
  0
LINE
  5
9E2
100
AcDbEntity
  8
0
100
AcDbLine
 62
7
  6
CONTINUOUS
 10
15.4204984206
 20
3.9501878632
 11
15.3341979867
 21
3.9003184995
  0
LINE
  5
9E3
100
AcDbEntity
  8
0
100
AcDbLine
 62
7
  6
CONTINUOUS
 10
15.2924397122
 20
3.8761881622
 11
15.2061392783
 21
3.8263187985
  0
LINE
  5
9E4
100
AcDbEntity
  8
0
100
AcDbLine
 62
7
  6
CONTINUOUS
 10
15.1643810038
 20
3.8021884612
 11
15.0780805699
 21
3.7523190974
  0
LINE
  5
9E5
100
AcDbEntity
  8
0
100
AcDbLine
 62
7
  6
CONTINUOUS
 10
16.0747113874
 20
4.3121429225
 11
15.9744915287
 21
4.254230113
  0
LINE
  5
9E6
100
AcDbEntity
  8
0
100
AcDbLine
 62
7
  6
CONTINUOUS
 10
15.946652679
 20
4.2381432215
 11
15.8464328203
 21
4.180230412
  0
LINE
  5
9E7
100
AcDbEntity
  8
0
100
AcDbLine
 62
7
  6
CONTINUOUS
 10
15.8185939706
 20
4.1641435205
 11
15.7183741119
 21
4.106230711
  0
LINE
  5
9E8
100
AcDbEntity
  8
0
100
AcDbLine
 62
7
  6
CONTINUOUS
 10
15.6905352622
 20
4.0901438195
 11
15.5903154035
 21
4.03223101
  0
LINE
  5
9E9
100
AcDbEntity
  8
0
100
AcDbLine
 62
7
  6
CONTINUOUS
 10
15.5624765538
 20
4.0161441185
 11
15.4622566951
 21
3.958231309
  0
LINE
  5
9EA
100
AcDbEntity
  8
0
100
AcDbLine
 62
7
  6
CONTINUOUS
 10
15.4344178454
 20
3.9421444174
 11
15.3341979867
 21
3.884231608
  0
LINE
  5
9EB
100
AcDbEntity
  8
0
100
AcDbLine
 62
7
  6
CONTINUOUS
 10
15.306359137
 20
3.8681447164
 11
15.2061392783
 21
3.8102319069
  0
LINE
  5
9EC
100
AcDbEntity
  8
0
100
AcDbLine
 62
7
  6
CONTINUOUS
 10
15.1783004286
 20
3.7941450154
 11
15.0780805699
 21
3.7362322059
  0
LINE
  5
9ED
100
AcDbEntity
  8
0
100
AcDbLine
 62
7
  6
CONTINUOUS
 10
16.1470923965
 20
4.1933118346
 11
15.0335384104
 21
3.5498361735
  0
LINE
  5
9EE
100
AcDbEntity
  8
0
100
AcDbLine
 62
7
  6
CONTINUOUS
 10
15.8269456255
 20
3.8957467232
 11
15.5207182793
 21
3.7187909164
  0
LINE
  5
9EF
100
AcDbEntity
  8
0
100
AcDbLine
 62
7
  6
CONTINUOUS
 10
15.8269456255
 20
3.6001378323
 11
15.5207182793
 21
3.4231820255
  0
ARC
  5
9F0
100
AcDbEntity
  8
0
100
AcDbCircle
 62
7
  6
CONTINUOUS
 10
6.714384786
 20
-3.6049889251
 40
9.625984252
100
AcDbArc
 50
75.4317102718
 51
104.5682897282
  0
ARC
  5
9F1
100
AcDbEntity
  8
0
100
AcDbCircle
 62
7
  6
CONTINUOUS
 10
6.714384786
 20
-3.6049889251
 40
9.6161417323
100
AcDbArc
 50
75.2952412802
 51
104.7047587198
  0
ARC
  5
9F2
100
AcDbEntity
  8
0
100
AcDbCircle
 62
7
  6
CONTINUOUS
 10
7.8167469907
 20
0.6371370592
 40
3.8385826772
100
AcDbArc
 50
77.1604115931
 51
102.8395884069
  0
ARC
  5
9F3
100
AcDbEntity
  8
0
100
AcDbCircle
 62
7
  6
CONTINUOUS
 10
8.9189388938
 20
4.721252252
 40
0.3538271495
100
AcDbArc
 50
359.0965898954
 51
0.8989384819
  0
ARC
  5
9F4
100
AcDbEntity
  8
0
100
AcDbCircle
 62
7
  6
CONTINUOUS
 10
8.9190955936
 20
4.8601087214
 40
0.3536704708
100
AcDbArc
 50
359.1015119745
 51
0.911346973
  0
ARC
  5
9F5
100
AcDbEntity
  8
0
100
AcDbCircle
 62
7
  6
CONTINUOUS
 10
8.9419195338
 20
4.7208918503
 40
0.3308436837
100
AcDbArc
 50
358.7418055556
 51
359.0962478743
  0
ARC
  5
9F6
100
AcDbEntity
  8
0
100
AcDbCircle
 62
7
  6
CONTINUOUS
 10
9.0176804347
 20
4.7189617196
 40
0.2550588062
100
AcDbArc
 50
356.8040691224
 51
358.8015854863
  0
ARC
  5
9F7
100
AcDbEntity
  8
0
100
AcDbCircle
 62
7
  6
CONTINUOUS
 10
8.6435186442
 20
4.2645829673
 40
0.1181102362
100
AcDbArc
 50
0.0
 51
77.1604115928
  0
ARC
  5
9F8
100
AcDbEntity
  8
0
100
AcDbCircle
 62
7
  6
CONTINUOUS
 10
6.9899753371
 20
4.2645829673
 40
0.1181102362
100
AcDbArc
 50
102.8395884072
 51
180.0
  0
ARC
  5
9F9
100
AcDbEntity
  8
0
100
AcDbCircle
 62
7
  6
CONTINUOUS
 10
9.2045422663
 20
4.7020976891
 40
0.0688976378
100
AcDbArc
 50
270.0
 51
360.0
  0
ARC
  5
9FA
100
AcDbEntity
  8
0
100
AcDbCircle
 62
7
  6
CONTINUOUS
 10
9.2045422663
 20
4.8792630434
 40
0.0688976378
100
AcDbArc
 50
0.0
 51
90.0
  0
ARC
  5
9FB
100
AcDbEntity
  8
0
100
AcDbCircle
 62
7
  6
CONTINUOUS
 10
9.2367784422
 20
4.7136029333
 40
0.0366614622
100
AcDbArc
 50
355.315949818
 51
0.0076360118
  0
ARC
  5
9FC
100
AcDbEntity
  8
0
100
AcDbCircle
 62
7
  6
CONTINUOUS
 10
9.2371523301
 20
4.8677622713
 40
0.0362875751
100
AcDbArc
 50
359.9852240514
 51
14.1264138976
  0
ARC
  5
9FD
100
AcDbEntity
  8
0
100
AcDbCircle
 62
7
  6
CONTINUOUS
 10
9.2374716993
 20
4.7135509102
 40
0.0359662725
100
AcDbArc
 50
345.8228750259
 51
355.3083626685
  0
ARC
  5
9FE
100
AcDbEntity
  8
0
100
AcDbCircle
 62
7
  6
CONTINUOUS
 10
6.8521800615
 20
8.5386578821
 40
0.5708661417
100
AcDbArc
 50
180.0
 51
254.9098148205
  0
ARC
  5
9FF
100
AcDbEntity
  8
0
100
AcDbCircle
 62
7
  6
CONTINUOUS
 10
6.8521800615
 20
8.5386578821
 40
0.5511811024
100
AcDbArc
 50
180.0
 51
270.0
  0
CIRCLE
  5
A00
100
AcDbEntity
  8
0
100
AcDbCircle
 62
7
  6
CONTINUOUS
 10
4.4899753371
 20
8.6272405593
 40
0.1161417323
  0
CIRCLE
  5
A01
100
AcDbEntity
  8
0
100
AcDbCircle
 62
7
  6
CONTINUOUS
 10
4.4899753371
 20
8.3713350475
 40
0.1161417323
  0
CIRCLE
  5
A02
100
AcDbEntity
  8
0
100
AcDbCircle
 62
7
  6
CONTINUOUS
 10
4.4899753371
 20
8.6272405593
 40
0.0885826772
  0
CIRCLE
  5
A03
100
AcDbEntity
  8
0
100
AcDbCircle
 62
7
  6
CONTINUOUS
 10
4.4899753371
 20
8.3713350475
 40
0.0885826772
  0
ARC
  5
A04
100
AcDbEntity
  8
0
100
AcDbCircle
 62
7
  6
CONTINUOUS
 10
5.2872194316
 20
8.932973827
 40
0.1777805118
100
AcDbArc
 50
213.8550261283
 51
326.1449738717
  0
CIRCLE
  5
A05
100
AcDbEntity
  8
0
100
AcDbCircle
 62
7
  6
CONTINUOUS
 10
4.4899753371
 20
9.1390515829
 40
0.1161417323
  0
CIRCLE
  5
A06
100
AcDbEntity
  8
0
100
AcDbCircle
 62
7
  6
CONTINUOUS
 10
4.4899753371
 20
8.8831460711
 40
0.1161417323
  0
CIRCLE
  5
A07
100
AcDbEntity
  8
0
100
AcDbCircle
 62
7
  6
CONTINUOUS
 10
4.4899753371
 20
9.1390515829
 40
0.0885826772
  0
CIRCLE
  5
A08
100
AcDbEntity
  8
0
100
AcDbCircle
 62
7
  6
CONTINUOUS
 10
4.4899753371
 20
8.8831460711
 40
0.0885826772
  0
CIRCLE
  5
A09
100
AcDbEntity
  8
0
100
AcDbCircle
 62
7
  6
CONTINUOUS
 10
5.6907627387
 20
9.0701539451
 40
0.0738188976
  0
CIRCLE
  5
A0A
100
AcDbEntity
  8
0
100
AcDbCircle
 62
7
  6
CONTINUOUS
 10
8.9387942348
 20
8.3418074884
 40
0.1161417323
  0
CIRCLE
  5
A0B
100
AcDbEntity
  8
0
100
AcDbCircle
 62
7
  6
CONTINUOUS
 10
8.9387942348
 20
8.7158232364
 40
0.1161417323
  0
CIRCLE
  5
A0C
100
AcDbEntity
  8
0
100
AcDbCircle
 62
7
  6
CONTINUOUS
 10
8.9387942348
 20
8.3418074884
 40
0.0885826772
  0
CIRCLE
  5
A0D
100
AcDbEntity
  8
0
100
AcDbCircle
 62
7
  6
CONTINUOUS
 10
8.9387942348
 20
8.7158232364
 40
0.0885826772
  0
ARC
  5
A0E
100
AcDbEntity
  8
0
100
AcDbCircle
 62
7
  6
CONTINUOUS
 10
8.9189185017
 20
9.1592668269
 40
0.3538475406
100
AcDbArc
 50
359.096625295
 51
0.8989031646
  0
ARC
  5
A0F
100
AcDbEntity
  8
0
100
AcDbCircle
 62
7
  6
CONTINUOUS
 10
8.9190369244
 20
9.0204115324
 40
0.3537291374
100
AcDbArc
 50
359.1016138638
 51
0.9112444035
  0
ARC
  5
A10
100
AcDbEntity
  8
0
100
AcDbCircle
 62
7
  6
CONTINUOUS
 10
8.9416907567
 20
9.0200544382
 40
0.3310724908
100
AcDbArc
 50
358.7419613632
 51
359.1019352979
  0
ARC
  5
A11
100
AcDbEntity
  8
0
100
AcDbCircle
 62
7
  6
CONTINUOUS
 10
9.0176915217
 20
9.0181198532
 40
0.2550477094
100
AcDbArc
 50
356.8040389752
 51
358.8016075591
  0
CIRCLE
  5
A12
100
AcDbEntity
  8
0
100
AcDbCircle
 62
7
  6
CONTINUOUS
 10
8.9387942348
 20
9.0898389845
 40
0.1161417323
  0
CIRCLE
  5
A13
100
AcDbEntity
  8
0
100
AcDbCircle
 62
7
  6
CONTINUOUS
 10
8.9387942348
 20
9.0898389845
 40
0.0885826772
  0
ARC
  5
A14
100
AcDbEntity
  8
0
100
AcDbCircle
 62
7
  6
CONTINUOUS
 10
9.2045422663
 20
9.0012563073
 40
0.0688976378
100
AcDbArc
 50
270.0
 51
360.0
  0
ARC
  5
A15
100
AcDbEntity
  8
0
100
AcDbCircle
 62
7
  6
CONTINUOUS
 10
9.2045422663
 20
9.1784216616
 40
0.0688976378
100
AcDbArc
 50
0.0
 51
90.0
  0
ARC
  5
A16
100
AcDbEntity
  8
0
100
AcDbCircle
 62
7
  6
CONTINUOUS
 10
9.2367784426
 20
9.0127615516
 40
0.0366614618
100
AcDbArc
 50
355.3159496841
 51
0.0076359686
  0
ARC
  5
A17
100
AcDbEntity
  8
0
100
AcDbCircle
 62
7
  6
CONTINUOUS
 10
9.2371523301
 20
9.1669208895
 40
0.0362875751
100
AcDbArc
 50
359.9852240514
 51
14.1264138976
  0
ARC
  5
A18
100
AcDbEntity
  8
0
100
AcDbCircle
 62
7
  6
CONTINUOUS
 10
9.2374716991
 20
9.0127095284
 40
0.0359662727
100
AcDbArc
 50
345.8228750922
 51
355.3083626443
  0
ARC
  5
A19
100
AcDbEntity
  8
0
100
AcDbCircle
 62
7
  6
CONTINUOUS
 10
7.6422896034
 20
-2.0320546327
 40
12.5542152545
100
AcDbArc
 50
48.7225401987
 51
48.9756407552
  0
ARC
  5
A1A
100
AcDbEntity
  8
0
100
AcDbCircle
 62
7
  6
CONTINUOUS
 10
6.8906406629
 20
-2.4664007039
 40
12.5542152544
100
AcDbArc
 50
48.7225401987
 51
48.9756407552
  0
ARC
  5
A1B
100
AcDbEntity
  8
0
100
AcDbCircle
 62
7
  6
CONTINUOUS
 10
6.9725529704
 20
-2.3721682199
 40
12.4293577994
100
AcDbArc
 50
48.9753865216
 51
49.5725969801
  0
ARC
  5
A1C
100
AcDbEntity
  8
0
100
AcDbCircle
 62
7
  6
CONTINUOUS
 10
7.101249647
 20
-2.2213618371
 40
12.2311019807
100
AcDbArc
 50
49.573402754
 51
50.1658115598
  0
ARC
  5
A1D
100
AcDbEntity
  8
0
100
AcDbCircle
 62
7
  6
CONTINUOUS
 10
10.0883860812
 20
2.9075194161
 40
6.2865590612
100
AcDbArc
 50
72.1725681292
 51
73.1841614278
  0
ARC
  5
A1E
100
AcDbEntity
  8
0
100
AcDbCircle
 62
7
  6
CONTINUOUS
 10
10.1350006285
 20
3.060775329
 40
6.126371023
100
AcDbArc
 50
73.1868259177
 51
74.0535624827
  0
ARC
  5
A1F
100
AcDbEntity
  8
0
100
AcDbCircle
 62
7
  6
CONTINUOUS
 10
10.1670233965
 20
3.1720248914
 40
6.0106045738
100
AcDbArc
 50
74.0557163251
 51
74.4692784114
  0
ARC
  5
A20
100
AcDbEntity
  8
0
100
AcDbCircle
 62
7
  6
CONTINUOUS
 10
15.0409066091
 20
7.0325528597
 40
0.9468567798
100
AcDbArc
 50
328.5792965833
 51
331.4206938331
  0
ARC
  5
A21
100
AcDbEntity
  8
0
100
AcDbCircle
 62
7
  6
CONTINUOUS
 10
13.6836645486
 20
8.0584753296
 40
0.5292814644
100
AcDbArc
 50
120.0173370642
 51
121.3542778763
  0
ARC
  5
A22
100
AcDbEntity
  8
0
100
AcDbCircle
 62
7
  6
CONTINUOUS
 10
15.7734404347
 20
6.6097634013
 40
0.2220139272
100
AcDbArc
 50
323.865511966
 51
334.2391641862
  0
ARC
  5
A23
100
AcDbEntity
  8
0
100
AcDbCircle
 62
7
  6
CONTINUOUS
 10
15.7768376755
 20
6.6081431615
 40
0.2182501368
100
AcDbArc
 50
334.2346278258
 51
336.4057569385
  0
ARC
  5
A24
100
AcDbEntity
  8
0
100
AcDbCircle
 62
7
  6
CONTINUOUS
 10
15.7782813847
 20
6.6063330725
 40
0.2160814172
100
AcDbArc
 50
322.99559816
 51
323.8431935622
  0
ARC
  5
A25
100
AcDbEntity
  8
0
100
AcDbCircle
 62
7
  6
CONTINUOUS
 10
15.7789091775
 20
6.6072256815
 40
0.2159845787
100
AcDbArc
 50
336.4088469581
 51
336.7455436113
  0
ARC
  5
A26
100
AcDbEntity
  8
0
100
AcDbCircle
 62
7
  6
CONTINUOUS
 10
13.4184307138
 20
8.2958242322
 40
0.1806664143
100
AcDbArc
 50
179.9768255781
 51
182.4943189961
  0
ARC
  5
A27
100
AcDbEntity
  8
0
100
AcDbCircle
 62
7
  6
CONTINUOUS
 10
12.5628405037
 20
9.1597859354
 40
0.1517226216
100
AcDbArc
 50
82.5452237119
 51
97.4547762877
  0
ARC
  5
A28
100
AcDbEntity
  8
0
100
AcDbCircle
 62
7
  6
CONTINUOUS
 10
12.381887981
 20
9.0552211405
 40
0.1517226216
100
AcDbArc
 50
82.5452237119
 51
97.4547762877
  0
ARC
  5
A29
100
AcDbEntity
  8
0
100
AcDbCircle
 62
7
  6
CONTINUOUS
 10
15.6738319524
 20
7.3218585786
 40
0.1517226216
100
AcDbArc
 50
82.5452237119
 51
97.454776288
  0
ARC
  5
A2A
100
AcDbEntity
  8
0
100
AcDbCircle
 62
7
  6
CONTINUOUS
 10
12.2009354582
 20
8.9506563456
 40
0.1517226216
100
AcDbArc
 50
82.5452237119
 51
97.4547762877
  0
ARC
  5
A2B
100
AcDbEntity
  8
0
100
AcDbCircle
 62
7
  6
CONTINUOUS
 10
15.4093628807
 20
7.1690331091
 40
0.1517226216
100
AcDbArc
 50
82.5452237119
 51
97.454776288
  0
ARC
  5
A2C
100
AcDbEntity
  8
0
100
AcDbCircle
 62
7
  6
CONTINUOUS
 10
12.0199829355
 20
8.8460915507
 40
0.1517226216
100
AcDbArc
 50
82.5452237119
 51
97.4547762877
  0
ARC
  5
A2D
100
AcDbEntity
  8
0
100
AcDbCircle
 62
7
  6
CONTINUOUS
 10
15.144893809
 20
7.0162076396
 40
0.1517226216
100
AcDbArc
 50
82.5452237119
 51
97.454776288
  0
ARC
  5
A2E
100
AcDbEntity
  8
0
100
AcDbCircle
 62
7
  6
CONTINUOUS
 10
15.8555477026
 20
6.6608717812
 40
0.0990790273
100
AcDbArc
 50
329.9838010922
 51
337.3392810257
  0
ARC
  5
A2F
100
AcDbEntity
  8
0
100
AcDbCircle
 62
7
  6
CONTINUOUS
 10
15.7701608728
 20
6.5129396812
 40
0.0990601269
100
AcDbArc
 50
322.6600077872
 51
330.0164243446
  0
ARC
  5
A30
100
AcDbEntity
  8
0
100
AcDbCircle
 62
7
  6
CONTINUOUS
 10
15.8936404824
 20
6.6388857425
 40
0.082361092
100
AcDbArc
 50
329.9908389074
 51
338.8502974822
  0
ARC
  5
A31
100
AcDbEntity
  8
0
100
AcDbCircle
 62
7
  6
CONTINUOUS
 10
15.8082614312
 20
6.4909835758
 40
0.0823504217
100
AcDbArc
 50
321.1491182335
 51
330.0093422209
  0
ARC
  5
A32
100
AcDbEntity
  8
0
100
AcDbCircle
 62
7
  6
CONTINUOUS
 10
12.356753424
 20
9.1587450764
 40
0.0753289256
100
AcDbArc
 50
122.5137415769
 51
124.0670700242
  0
ARC
  5
A33
100
AcDbEntity
  8
0
100
AcDbCircle
 62
7
  6
CONTINUOUS
 10
12.1758009013
 20
9.0541802815
 40
0.0753289256
100
AcDbArc
 50
122.513741577
 51
124.0670700242
  0
ARC
  5
A34
100
AcDbEntity
  8
0
100
AcDbCircle
 62
7
  6
CONTINUOUS
 10
15.6486973955
 20
7.4253825145
 40
0.0753289256
100
AcDbArc
 50
122.513741577
 51
124.0670700242
  0
ARC
  5
A35
100
AcDbEntity
  8
0
100
AcDbCircle
 62
7
  6
CONTINUOUS
 10
11.9948483785
 20
8.9496154866
 40
0.0753289256
100
AcDbArc
 50
122.5137415767
 51
124.0670700243
  0
ARC
  5
A36
100
AcDbEntity
  8
0
100
AcDbCircle
 62
7
  6
CONTINUOUS
 10
12.5377059467
 20
9.2633098713
 40
0.0753289256
100
AcDbArc
 50
122.5137415768
 51
124.0670700242
  0
ARC
  5
A37
100
AcDbEntity
  8
0
100
AcDbCircle
 62
7
  6
CONTINUOUS
 10
15.1197592521
 20
7.1197315755
 40
0.0753289256
100
AcDbArc
 50
122.5137415769
 51
124.0670700244
  0
ARC
  5
A38
100
AcDbEntity
  8
0
100
AcDbCircle
 62
7
  6
CONTINUOUS
 10
15.3842283238
 20
7.272557045
 40
0.0753289256
100
AcDbArc
 50
122.5137415769
 51
124.0670700243
  0
ARC
  5
A39
100
AcDbEntity
  8
0
100
AcDbCircle
 62
7
  6
CONTINUOUS
 10
15.3827681682
 20
7.2747235784
 40
0.0727162825
100
AcDbArc
 50
124.0702569421
 51
125.0834180465
  0
ARC
  5
A3A
100
AcDbEntity
  8
0
100
AcDbCircle
 62
7
  6
CONTINUOUS
 10
12.3552932685
 20
9.1609116098
 40
0.0727162825
100
AcDbArc
 50
124.0702569419
 51
125.0834180466
  0
ARC
  5
A3B
100
AcDbEntity
  8
0
100
AcDbCircle
 62
7
  6
CONTINUOUS
 10
12.5362457912
 20
9.2654764047
 40
0.0727162825
100
AcDbArc
 50
124.070256942
 51
125.0834180466
  0
ARC
  5
A3C
100
AcDbEntity
  8
0
100
AcDbCircle
 62
7
  6
CONTINUOUS
 10
15.6472372399
 20
7.4275490479
 40
0.0727162825
100
AcDbArc
 50
124.0702569419
 51
125.0834180466
  0
ARC
  5
A3D
100
AcDbEntity
  8
0
100
AcDbCircle
 62
7
  6
CONTINUOUS
 10
15.1182990965
 20
7.1218981089
 40
0.0727162825
100
AcDbArc
 50
124.0702569419
 51
125.0834180465
  0
ARC
  5
A3E
100
AcDbEntity
  8
0
100
AcDbCircle
 62
7
  6
CONTINUOUS
 10
11.993388223
 20
8.95178202
 40
0.0727162825
100
AcDbArc
 50
124.0702569418
 51
125.0834180469
  0
ARC
  5
A3F
100
AcDbEntity
  8
0
100
AcDbCircle
 62
7
  6
CONTINUOUS
 10
12.1743407457
 20
9.0563468149
 40
0.0727162825
100
AcDbArc
 50
124.0702569416
 51
125.0834180467
  0
SPLINE
  5
A40
100
AcDbEntity
  8
0
100
AcDbSpline
 62
7
  6
CONTINUOUS
 70
0
 71
3
 72
9
 73
5
 74
0
 42
0.0000001
 43
0.0000001
 44
0.0000000001
 40
0.0
 40
0.0
 40
0.0
 40
0.0
 40
0.7461745017
 40
1.0
 40
1.0
 40
1.0
 40
1.0
 10
9.2734399041
 20
4.7470144389
 30
0.0
 10
9.2734399041
 20
4.744738407
 30
0.0
 10
9.2731560072
 20
4.7416789494
 30
0.0
 10
9.2725242637
 20
4.7386943512
 30
0.0
 10
9.2723425546
 20
4.7379417406
 30
0.0
  0
LINE
  5
A41
100
AcDbEntity
  8
0
100
AcDbLine
 62
7
  6
CONTINUOUS
 10
9.2723425546
 20
4.7379417406
 11
9.2727224954
 21
4.7268033727
  0
LINE
  5
A42
100
AcDbEntity
  8
0
100
AcDbLine
 62
7
  6
CONTINUOUS
 10
9.2723425546
 20
4.8766186933
 11
9.2727213259
 21
4.8657339685
  0
LINE
  5
A43
100
AcDbEntity
  8
0
100
AcDbLine
 62
7
  6
CONTINUOUS
 10
9.2727225794
 20
4.8545628389
 11
9.2723425546
 21
4.8434189919
  0
SPLINE
  5
A44
100
AcDbEntity
  8
0
100
AcDbSpline
 62
7
  6
CONTINUOUS
 70
0
 71
3
 72
9
 73
5
 74
0
 42
0.0000001
 43
0.0000001
 44
0.0000000001
 40
0.0
 40
0.0
 40
0.0
 40
0.0
 40
0.2538254984
 40
1.0
 40
1.0
 40
1.0
 40
1.0
 10
9.2723425546
 20
4.8434189919
 30
0.0
 10
9.2725242637
 20
4.8426663813
 30
0.0
 10
9.2731560072
 20
4.839681783
 30
0.0
 10
9.2734399041
 20
4.8366223255
 30
0.0
 10
9.2734399041
 20
4.8343462936
 30
0.0
  0
SPLINE
  5
A45
100
AcDbEntity
  8
0
100
AcDbSpline
 62
7
  6
CONTINUOUS
 70
0
 71
3
 72
9
 73
5
 74
0
 42
0.0000001
 43
0.0000001
 44
0.0000000001
 40
0.0
 40
0.0
 40
0.0
 40
0.0
 40
0.7461745017
 40
1.0
 40
1.0
 40
1.0
 40
1.0
 10
9.2734399041
 20
9.0461730571
 30
0.0
 10
9.2734399041
 20
9.0438970252
 30
0.0
 10
9.2731560072
 20
9.0408375677
 30
0.0
 10
9.2725242637
 20
9.0378529694
 30
0.0
 10
9.2723425546
 20
9.0371003588
 30
0.0
  0
LINE
  5
A46
100
AcDbEntity
  8
0
100
AcDbLine
 62
7
  6
CONTINUOUS
 10
9.2723425546
 20
9.0371003588
 11
9.2727213259
 21
9.0260370795
  0
SPLINE
  5
A47
100
AcDbEntity
  8
0
100
AcDbSpline
 62
7
  6
CONTINUOUS
 70
0
 71
3
 72
9
 73
5
 74
0
 42
0.0000001
 43
0.0000001
 44
0.0000000001
 40
0.0
 40
0.0
 40
0.0
 40
0.0
 40
0.2538254985
 40
1.0
 40
1.0
 40
1.0
 40
1.0
 10
9.2723425546
 20
9.1425776102
 30
0.0
 10
9.2725242637
 20
9.1418249995
 30
0.0
 10
9.2731560073
 20
9.1388404013
 30
0.0
 10
9.2734399041
 20
9.1357809437
 30
0.0
 10
9.2734399041
 20
9.1335049118
 30
0.0
  0
LINE
  5
A48
100
AcDbEntity
  8
0
100
AcDbLine
 62
7
  6
CONTINUOUS
 10
9.2723425546
 20
9.1757773115
 11
9.2727224954
 21
9.1648180495
  0
LINE
  5
A49
100
AcDbEntity
  8
0
100
AcDbLine
 62
7
  6
CONTINUOUS
 10
9.2727220611
 20
9.1536879924
 11
9.2723425546
 21
9.1425776102
  0
LINE
  5
A4A
100
AcDbEntity
  8
0
100
AcDbLine
 62
7
  6
CONTINUOUS
 10
2.7020814874
 20
6.0209946686
 11
2.7112294098
 21
6.0209080145
  0
LINE
  5
A4B
100
AcDbEntity
  8
0
100
AcDbLine
 62
7
  6
CONTINUOUS
 10
2.7197744144
 20
6.0209892419
 11
2.7044635995
 21
6.0208132842
  0
LINE
  5
A4C
100
AcDbEntity
  8
0
100
AcDbLine
 62
7
  6
CONTINUOUS
 10
2.7044635995
 20
6.0208132842
 11
2.702417135
 21
6.0207779602
  0
SPLINE
  5
A4D
100
AcDbEntity
  8
0
100
AcDbSpline
 62
7
  6
CONTINUOUS
 70
0
 71
3
 72
11
 73
7
 74
0
 42
0.0000001
 43
0.0000001
 44
0.0000000001
 40
0.0
 40
0.0
 40
0.0
 40
0.0
 40
0.1581146584
 40
0.3924711736
 40
0.6818179629
 40
1.0
 40
1.0
 40
1.0
 40
1.0
 10
2.702417135
 20
6.0207779602
 30
0.0
 10
2.6742809971
 20
6.0202787796
 30
0.0
 10
2.6044602162
 20
6.0181727031
 30
0.0
 10
2.4831595155
 20
6.0148461921
 30
0.0
 10
2.3333487018
 20
6.0119759777
 30
0.0
 10
2.2252219802
 20
6.0112485119
 30
0.0
 10
2.168593312
 20
6.0112485119
 30
0.0
  0
SPLINE
  5
A4E
100
AcDbEntity
  8
0
100
AcDbSpline
 62
7
  6
CONTINUOUS
 70
0
 71
3
 72
14
 73
10
 74
0
 42
0.0000001
 43
0.0000001
 44
0.0000000001
 40
0.0
 40
0.0
 40
0.0
 40
0.0
 40
0.0418699758
 40
0.1027373619
 40
0.1891112643
 40
0.3021787532
 40
0.4414796062
 40
0.6056713619
 40
1.0
 40
1.0
 40
1.0
 40
1.0
 10
1.952057879
 20
5.9146104211
 30
0.0
 10
1.9520578773
 20
5.9134325904
 30
0.0
 10
1.9506214492
 20
5.9106325256
 30
0.0
 10
1.9462416609
 20
5.9075336966
 30
0.0
 10
1.9396008613
 20
5.9043957631
 30
0.0
 10
1.9305449777
 20
5.9013831823
 30
0.0
 10
1.9191854693
 20
5.8984825706
 30
0.0
 10
1.8999278451
 20
5.8946418904
 30
0.0
 10
1.8843424422
 20
5.8925298595
 30
0.0
 10
1.8733177215
 20
5.8913033966
 30
0.0
  0
SPLINE
  5
A4F
100
AcDbEntity
  8
0
100
AcDbSpline
 62
7
  6
CONTINUOUS
 70
0
 71
3
 72
13
 73
9
 74
0
 42
0.0000001
 43
0.0000001
 44
0.0000000001
 40
0.0
 40
0.0
 40
0.0
 40
0.0
 40
0.3340237425
 40
0.6321049089
 40
0.7574643253
 40
0.8623591657
 40
0.9439389299
 40
1.0
 40
1.0
 40
1.0
 40
1.0
 10
2.168593312
 20
6.0121148477
 30
0.0
 10
2.2280025234
 20
6.0121148477
 30
0.0
 10
2.3404298391
 20
6.012900977
 30
0.0
 10
2.4751283522
 20
6.0155454417
 30
0.0
 10
2.5690664432
 20
6.0179638897
 30
0.0
 10
2.6245086564
 20
6.0194795195
 30
0.0
 10
2.6676316165
 20
6.0205554368
 30
0.0
 10
2.6921105085
 20
6.0209905047
 30
0.0
 10
2.7020814874
 20
6.0209946686
 30
0.0
  0
SPLINE
  5
A50
100
AcDbEntity
  8
0
100
AcDbSpline
 62
7
  6
CONTINUOUS
 70
0
 71
3
 72
11
 73
7
 74
0
 42
0.0000001
 43
0.0000001
 44
0.0000000001
 40
0.0
 40
0.0
 40
0.0
 40
0.0
 40
0.2114920497
 40
0.4398055201
 40
0.7008001979
 40
1.0
 40
1.0
 40
1.0
 40
1.0
 10
13.2893922195
 20
8.9413260696
 30
0.0
 10
13.289390694
 20
8.9388438917
 30
0.0
 10
13.2904316746
 20
8.933633101
 30
0.0
 10
13.2949542872
 20
8.9265900976
 30
0.0
 10
13.3020164316
 20
8.9204708829
 30
0.0
 10
13.3078126312
 20
8.9172786589
 30
0.0
 10
13.3110095881
 20
8.9158258931
 30
0.0
  0
SPLINE
  5
A51
100
AcDbEntity
  8
0
100
AcDbSpline
 62
7
  6
CONTINUOUS
 70
0
 71
3
 72
11
 73
7
 74
0
 42
0.0000001
 43
0.0000001
 44
0.0000000001
 40
0.0
 40
0.0
 40
0.0
 40
0.0
 40
0.2177899446
 40
0.4509628435
 40
0.7105346425
 40
1.0
 40
1.0
 40
1.0
 40
1.0
 10
12.4742617008
 20
9.3567259991
 30
0.0
 10
12.4742599876
 20
9.3533490752
 30
0.0
 10
12.4754975631
 20
9.3463084167
 30
0.0
 10
12.4808303774
 20
9.3364943088
 30
0.0
 10
12.4892648267
 20
9.3276296829
 30
0.0
 10
12.4963169801
 20
9.3227621819
 30
0.0
 10
12.500203092
 20
9.3205165625
 30
0.0
  0
SPLINE
  5
A52
100
AcDbEntity
  8
0
100
AcDbSpline
 62
7
  6
CONTINUOUS
 70
0
 71
3
 72
16
 73
12
 74
0
 42
0.0000001
 43
0.0000001
 44
0.0000000001
 40
0.0
 40
0.0
 40
0.0
 40
0.0
 40
0.0429051285
 40
0.0875809506
 40
0.1870314806
 40
0.3043607839
 40
0.4380769905
 40
0.5824538427
 40
0.729640519
 40
0.8712695593
 40
1.0
 40
1.0
 40
1.0
 40
1.0
 10
12.4467008471
 20
9.3567379967
 30
0.0
 10
12.4467017286
 20
9.3600465828
 30
0.0
 10
12.4475912173
 20
9.3668284678
 30
0.0
 10
12.4529631881
 20
9.3803482827
 30
0.0
 10
12.4665558599
 20
9.3959611481
 30
0.0
 10
12.4898847421
 20
9.4101266061
 30
0.0
 10
12.5189980671
 20
9.4198760501
 30
0.0
 10
12.5516342003
 20
9.424456096
 30
0.0
 10
12.5851874735
 20
9.4235271833
 30
0.0
 10
12.6169080213
 20
9.4171727887
 30
0.0
 10
12.6363700346
 20
9.4091351284
 30
0.0
 10
12.6449651102
 20
9.4041683984
 30
0.0
  0
SPLINE
  5
A53
100
AcDbEntity
  8
0
100
AcDbSpline
 62
7
  6
CONTINUOUS
 70
0
 71
3
 72
11
 73
7
 74
0
 42
0.0000001
 43
0.0000001
 44
0.0000000001
 40
0.0
 40
0.0
 40
0.0
 40
0.0
 40
0.2177899446
 40
0.4509628435
 40
0.7105346425
 40
1.0
 40
1.0
 40
1.0
 40
1.0
 10
12.2933091781
 20
9.2521612042
 30
0.0
 10
12.2933074649
 20
9.2487842803
 30
0.0
 10
12.2945450404
 20
9.2417436218
 30
0.0
 10
12.2998778547
 20
9.2319295139
 30
0.0
 10
12.3083123039
 20
9.2230648879
 30
0.0
 10
12.3153644574
 20
9.2181973869
 30
0.0
 10
12.3192505692
 20
9.2159517676
 30
0.0
  0
SPLINE
  5
A54
100
AcDbEntity
  8
0
100
AcDbSpline
 62
7
  6
CONTINUOUS
 70
0
 71
3
 72
16
 73
12
 74
0
 42
0.0000001
 43
0.0000001
 44
0.0000000001
 40
0.0
 40
0.0
 40
0.0
 40
0.0
 40
0.0429051285
 40
0.0875809506
 40
0.1870314806
 40
0.3043607839
 40
0.4380769905
 40
0.5824538427
 40
0.729640519
 40
0.8712695593
 40
1.0
 40
1.0
 40
1.0
 40
1.0
 10
12.2657483243
 20
9.2521732018
 30
0.0
 10
12.2657492059
 20
9.2554817878
 30
0.0
 10
12.2666386945
 20
9.2622636729
 30
0.0
 10
12.2720106653
 20
9.2757834878
 30
0.0
 10
12.2856033371
 20
9.2913963532
 30
0.0
 10
12.3089322194
 20
9.3055618111
 30
0.0
 10
12.3380455444
 20
9.3153112552
 30
0.0
 10
12.3706816775
 20
9.3198913011
 30
0.0
 10
12.4042349508
 20
9.3189623884
 30
0.0
 10
12.4359554985
 20
9.3126079938
 30
0.0
 10
12.4554175118
 20
9.3045703335
 30
0.0
 10
12.4640125874
 20
9.2996036035
 30
0.0
  0
SPLINE
  5
A55
100
AcDbEntity
  8
0
100
AcDbSpline
 62
7
  6
CONTINUOUS
 70
0
 71
3
 72
11
 73
7
 74
0
 42
0.0000001
 43
0.0000001
 44
0.0000000001
 40
0.0
 40
0.0
 40
0.0
 40
0.0
 40
0.2177899446
 40
0.4509628435
 40
0.7105346425
 40
1.0
 40
1.0
 40
1.0
 40
1.0
 10
12.1123566553
 20
9.1475964093
 30
0.0
 10
12.1123549421
 20
9.1442194854
 30
0.0
 10
12.1135925176
 20
9.1371788269
 30
0.0
 10
12.1189253319
 20
9.127364719
 30
0.0
 10
12.1273597812
 20
9.118500093
 30
0.0
 10
12.1344119346
 20
9.113632592
 30
0.0
 10
12.1382980465
 20
9.1113869726
 30
0.0
  0
SPLINE
  5
A56
100
AcDbEntity
  8
0
100
AcDbSpline
 62
7
  6
CONTINUOUS
 70
0
 71
3
 72
16
 73
12
 74
0
 42
0.0000001
 43
0.0000001
 44
0.0000000001
 40
0.0
 40
0.0
 40
0.0
 40
0.0
 40
0.0429051285
 40
0.0875809506
 40
0.1870314806
 40
0.3043607839
 40
0.4380769905
 40
0.5824538427
 40
0.729640519
 40
0.8712695593
 40
1.0
 40
1.0
 40
1.0
 40
1.0
 10
12.0847958016
 20
9.1476084068
 30
0.0
 10
12.0847966831
 20
9.1509169929
 30
0.0
 10
12.0856861718
 20
9.157698878
 30
0.0
 10
12.0910581426
 20
9.1712186929
 30
0.0
 10
12.1046508144
 20
9.1868315582
 30
0.0
 10
12.1279796966
 20
9.2009970162
 30
0.0
 10
12.1570930217
 20
9.2107464602
 30
0.0
 10
12.1897291548
 20
9.2153265062
 30
0.0
 10
12.223282428
 20
9.2143975935
 30
0.0
 10
12.2550029758
 20
9.2080431989
 30
0.0
 10
12.2744649891
 20
9.2000055386
 30
0.0
 10
12.2830600647
 20
9.1950388086
 30
0.0
  0
SPLINE
  5
A57
100
AcDbEntity
  8
0
100
AcDbSpline
 62
7
  6
CONTINUOUS
 70
0
 71
3
 72
11
 73
7
 74
0
 42
0.0000001
 43
0.0000001
 44
0.0000000001
 40
0.0
 40
0.0
 40
0.0
 40
0.0
 40
0.2177899446
 40
0.4509628435
 40
0.7105346425
 40
1.0
 40
1.0
 40
1.0
 40
1.0
 10
11.9314041326
 20
9.0430316143
 30
0.0
 10
11.9314024194
 20
9.0396546904
 30
0.0
 10
11.9326399949
 20
9.0326140319
 30
0.0
 10
11.9379728092
 20
9.022799924
 30
0.0
 10
11.9464072584
 20
9.0139352981
 30
0.0
 10
11.9534594119
 20
9.0090677971
 30
0.0
 10
11.9573455238
 20
9.0068221777
 30
0.0
  0
SPLINE
  5
A58
100
AcDbEntity
  8
0
100
AcDbSpline
 62
7
  6
CONTINUOUS
 70
0
 71
3
 72
16
 73
12
 74
0
 42
0.0000001
 43
0.0000001
 44
0.0000000001
 40
0.0
 40
0.0
 40
0.0
 40
0.0
 40
0.0429051285
 40
0.0875809506
 40
0.1870314806
 40
0.3043607839
 40
0.4380769905
 40
0.5824538427
 40
0.729640519
 40
0.8712695593
 40
1.0
 40
1.0
 40
1.0
 40
1.0
 10
11.9038432788
 20
9.0430436119
 30
0.0
 10
11.9038441604
 20
9.046352198
 30
0.0
 10
11.9047336491
 20
9.0531340831
 30
0.0
 10
11.9101056198
 20
9.0666538979
 30
0.0
 10
11.9236982916
 20
9.0822667633
 30
0.0
 10
11.9470271739
 20
9.0964322213
 30
0.0
 10
11.9761404989
 20
9.1061816653
 30
0.0
 10
12.0087766321
 20
9.1107617113
 30
0.0
 10
12.0423299053
 20
9.1098327986
 30
0.0
 10
12.074050453
 20
9.103478404
 30
0.0
 10
12.0935124663
 20
9.0954407436
 30
0.0
 10
12.102107542
 20
9.0904740137
 30
0.0
  0
SPLINE
  5
A59
100
AcDbEntity
  8
0
100
AcDbSpline
 62
7
  6
CONTINUOUS
 70
0
 71
3
 72
13
 73
9
 74
0
 42
0.0000001
 43
0.0000001
 44
0.0000000001
 40
0.0
 40
0.0
 40
0.0
 40
0.0
 40
0.1231556837
 40
0.2455782855
 40
0.3679916206
 40
0.49043221
 40
0.7395036647
 40
1.0
 40
1.0
 40
1.0
 40
1.0
 10
15.7829521516
 20
6.4223640742
 30
0.0
 10
15.7897956504
 20
6.4184095063
 30
0.0
 10
15.8044577974
 20
6.4121444355
 30
0.0
 10
15.827956439
 20
6.4082627745
 30
0.0
 10
15.8516735466
 20
6.4096156873
 30
0.0
 10
15.8824643858
 20
6.4179099287
 30
0.0
 10
15.9180150232
 20
6.4389357964
 30
0.0
 10
15.9407792441
 20
6.462927881
 30
0.0
 10
15.9508416864
 20
6.4762787717
 30
0.0
  0
SPLINE
  5
A5A
100
AcDbEntity
  8
0
100
AcDbSpline
 62
7
  6
CONTINUOUS
 70
0
 71
3
 72
9
 73
5
 74
0
 42
0.0000001
 43
0.0000001
 44
0.0000000001
 40
0.0
 40
0.0
 40
0.0
 40
0.0
 40
0.2520642384
 40
1.0
 40
1.0
 40
1.0
 40
1.0
 10
15.9773472781
 20
6.5219516615
 30
0.0
 10
15.9784534473
 20
6.5245257986
 30
0.0
 10
15.9826424517
 20
6.5348221118
 30
0.0
 10
15.9860183454
 20
6.5454529312
 30
0.0
 10
15.9880178978
 20
6.5535223498
 30
0.0
  0
SPLINE
  5
A5B
100
AcDbEntity
  8
0
100
AcDbSpline
 62
7
  6
CONTINUOUS
 70
0
 71
3
 72
9
 73
5
 74
0
 42
0.0000001
 43
0.0000001
 44
0.0000000001
 40
0.0
 40
0.0
 40
0.0
 40
0.0
 40
0.25467614
 40
1.0
 40
1.0
 40
1.0
 40
1.0
 10
15.9880178978
 20
6.5535223498
 30
0.0
 10
15.98887093
 20
6.5569648571
 30
0.0
 10
15.9918460503
 20
6.5705693793
 30
0.0
 10
15.9932792371
 20
6.5845321852
 30
0.0
 10
15.9932792371
 20
6.5949115683
 30
0.0
  0
SPLINE
  5
A5C
100
AcDbEntity
  8
0
100
AcDbSpline
 62
7
  6
CONTINUOUS
 70
0
 71
3
 72
11
 73
7
 74
0
 42
0.0000001
 43
0.0000001
 44
0.0000000001
 40
0.0
 40
0.0
 40
0.0
 40
0.0
 40
0.2515358726
 40
0.5004841559
 40
0.7498139079
 40
1.0
 40
1.0
 40
1.0
 40
1.0
 10
15.9932792371
 20
6.5949115683
 30
0.0
 10
15.9932792371
 20
6.6048330075
 30
0.0
 10
15.991344815
 20
6.6246543142
 30
0.0
 10
15.9816237409
 20
6.6529133875
 30
0.0
 10
15.9647331716
 20
6.6775912332
 30
0.0
 10
15.949080457
 20
6.6901307001
 30
0.0
 10
15.9405362235
 20
6.6950680505
 30
0.0
  0
SPLINE
  5
A5D
100
AcDbEntity
  8
0
100
AcDbSpline
 62
7
  6
CONTINUOUS
 70
0
 71
3
 72
11
 73
7
 74
0
 42
0.0000001
 43
0.0000001
 44
0.0000000001
 40
0.0
 40
0.0
 40
0.0
 40
0.0
 40
0.2177899446
 40
0.4509628435
 40
0.7105346425
 40
1.0
 40
1.0
 40
1.0
 40
1.0
 10
15.0563150061
 20
7.2131477032
 30
0.0
 10
15.0563132929
 20
7.2097707794
 30
0.0
 10
15.0575508684
 20
7.2027301209
 30
0.0
 10
15.0628836827
 20
7.192916013
 30
0.0
 10
15.071318132
 20
7.184051387
 30
0.0
 10
15.0783702854
 20
7.179183886
 30
0.0
 10
15.0822563973
 20
7.1769382666
 30
0.0
  0
SPLINE
  5
A5E
100
AcDbEntity
  8
0
100
AcDbSpline
 62
7
  6
CONTINUOUS
 70
0
 71
3
 72
16
 73
12
 74
0
 42
0.0000001
 43
0.0000001
 44
0.0000000001
 40
0.0
 40
0.0
 40
0.0
 40
0.0
 40
0.0429051285
 40
0.0875809506
 40
0.1870314806
 40
0.3043607839
 40
0.4380769905
 40
0.5824538427
 40
0.729640519
 40
0.8712695593
 40
1.0
 40
1.0
 40
1.0
 40
1.0
 10
15.0287541524
 20
7.2131597008
 30
0.0
 10
15.0287550339
 20
7.2164682869
 30
0.0
 10
15.0296445226
 20
7.223250172
 30
0.0
 10
15.0350164934
 20
7.2367699868
 30
0.0
 10
15.0486091652
 20
7.2523828522
 30
0.0
 10
15.0719380474
 20
7.2665483102
 30
0.0
 10
15.1010513725
 20
7.2762977542
 30
0.0
 10
15.1336875056
 20
7.2808778002
 30
0.0
 10
15.1672407788
 20
7.2799488875
 30
0.0
 10
15.1989613266
 20
7.2735944929
 30
0.0
 10
15.2184233399
 20
7.2655568326
 30
0.0
 10
15.2270184155
 20
7.2605901026
 30
0.0
  0
SPLINE
  5
A5F
100
AcDbEntity
  8
0
100
AcDbSpline
 62
7
  6
CONTINUOUS
 70
0
 71
3
 72
11
 73
7
 74
0
 42
0.0000001
 43
0.0000001
 44
0.0000000001
 40
0.0
 40
0.0
 40
0.0
 40
0.0
 40
0.2177899446
 40
0.4509628435
 40
0.7105346425
 40
1.0
 40
1.0
 40
1.0
 40
1.0
 10
15.3207840778
 20
7.3659731727
 30
0.0
 10
15.3207823646
 20
7.3625962489
 30
0.0
 10
15.3220199401
 20
7.3555555904
 30
0.0
 10
15.3273527544
 20
7.3457414824
 30
0.0
 10
15.3357872037
 20
7.3368768565
 30
0.0
 10
15.3428393571
 20
7.3320093555
 30
0.0
 10
15.346725469
 20
7.3297637361
 30
0.0
  0
SPLINE
  5
A60
100
AcDbEntity
  8
0
100
AcDbSpline
 62
7
  6
CONTINUOUS
 70
0
 71
3
 72
16
 73
12
 74
0
 42
0.0000001
 43
0.0000001
 44
0.0000000001
 40
0.0
 40
0.0
 40
0.0
 40
0.0
 40
0.0429051285
 40
0.0875809506
 40
0.1870314806
 40
0.3043607839
 40
0.4380769905
 40
0.5824538427
 40
0.729640519
 40
0.8712695593
 40
1.0
 40
1.0
 40
1.0
 40
1.0
 10
15.2932232241
 20
7.3659851703
 30
0.0
 10
15.2932241056
 20
7.3692937564
 30
0.0
 10
15.2941135943
 20
7.3760756415
 30
0.0
 10
15.2994855651
 20
7.3895954563
 30
0.0
 10
15.3130782369
 20
7.4052083217
 30
0.0
 10
15.3364071192
 20
7.4193737797
 30
0.0
 10
15.3655204442
 20
7.4291232237
 30
0.0
 10
15.3981565773
 20
7.4337032697
 30
0.0
 10
15.4317098505
 20
7.432774357
 30
0.0
 10
15.4634303983
 20
7.4264199624
 30
0.0
 10
15.4828924116
 20
7.418382302
 30
0.0
 10
15.4914874872
 20
7.4134155721
 30
0.0
  0
SPLINE
  5
A61
100
AcDbEntity
  8
0
100
AcDbSpline
 62
7
  6
CONTINUOUS
 70
0
 71
3
 72
11
 73
7
 74
0
 42
0.0000001
 43
0.0000001
 44
0.0000000001
 40
0.0
 40
0.0
 40
0.0
 40
0.0
 40
0.2177899446
 40
0.4509628435
 40
0.7105346425
 40
1.0
 40
1.0
 40
1.0
 40
1.0
 10
15.5852531496
 20
7.5187986422
 30
0.0
 10
15.5852514363
 20
7.5154217183
 30
0.0
 10
15.5864890118
 20
7.5083810598
 30
0.0
 10
15.5918218261
 20
7.4985669519
 30
0.0
 10
15.6002562754
 20
7.489702326
 30
0.0
 10
15.6073084288
 20
7.484834825
 30
0.0
 10
15.6111945407
 20
7.4825892056
 30
0.0
  0
SPLINE
  5
A62
100
AcDbEntity
  8
0
100
AcDbSpline
 62
7
  6
CONTINUOUS
 70
0
 71
3
 72
16
 73
12
 74
0
 42
0.0000001
 43
0.0000001
 44
0.0000000001
 40
0.0
 40
0.0
 40
0.0
 40
0.0
 40
0.0429051285
 40
0.0875809506
 40
0.1870314806
 40
0.3043607839
 40
0.4380769905
 40
0.5824538427
 40
0.729640519
 40
0.8712695593
 40
1.0
 40
1.0
 40
1.0
 40
1.0
 10
15.5576922958
 20
7.5188106398
 30
0.0
 10
15.5576931773
 20
7.5221192259
 30
0.0
 10
15.558582666
 20
7.528901111
 30
0.0
 10
15.5639546368
 20
7.5424209258
 30
0.0
 10
15.5775473086
 20
7.5580337912
 30
0.0
 10
15.6008761909
 20
7.5721992492
 30
0.0
 10
15.6299895159
 20
7.5819486932
 30
0.0
 10
15.662625649
 20
7.5865287392
 30
0.0
 10
15.6961789222
 20
7.5855998265
 30
0.0
 10
15.72789947
 20
7.5792454319
 30
0.0
 10
15.7473614833
 20
7.5712077715
 30
0.0
 10
15.7559565589
 20
7.5662410416
 30
0.0
  0
LINE
  5
A63
100
AcDbEntity
  8
0
100
AcDbLine
 62
7
  6
CONTINUOUS
 10
16.1470923965
 20
7.5028461566
 11
16.1288066613
 21
7.5189200808
  0
LINE
  5
A64
100
AcDbEntity
  8
0
100
AcDbLine
 62
7
  6
CONTINUOUS
 10
16.1288066613
 20
7.5189200808
 11
16.1247572254
 21
7.5224712284
  0
SPLINE
  5
A65
100
AcDbEntity
  8
0
100
AcDbSpline
 62
7
  6
CONTINUOUS
 70
0
 71
3
 72
9
 73
5
 74
0
 42
0.0000001
 43
0.0000001
 44
0.0000000001
 40
0.0
 40
0.0
 40
0.0
 40
0.0
 40
0.5164838793
 40
1.0
 40
1.0
 40
1.0
 40
1.0
 10
16.1247572254
 20
7.5224712284
 30
0.0
 10
15.8071071193
 20
7.800913658
 30
0.0
 10
15.1645347585
 20
8.3096697589
 30
0.0
 10
14.4667996212
 20
8.7410998394
 30
0.0
 10
14.1168369429
 20
8.9252353746
 30
0.0
  0
LINE
  5
A66
100
AcDbEntity
  8
0
100
AcDbLine
 62
7
  6
CONTINUOUS
 10
14.1168369429
 20
8.9252353746
 11
14.105902267
 21
8.930978557
  0
LINE
  5
A67
100
AcDbEntity
  8
0
100
AcDbLine
 62
7
  6
CONTINUOUS
 10
14.105902267
 20
8.930978557
 11
14.102707895
 21
8.9326524828
  0
SPLINE
  5
A68
100
AcDbEntity
  8
0
100
AcDbSpline
 62
7
  6
CONTINUOUS
 70
0
 71
3
 72
9
 73
5
 74
0
 42
0.0000001
 43
0.0000001
 44
0.0000000001
 40
0.0
 40
0.0
 40
0.0
 40
0.0
 40
0.5146750515
 40
1.0
 40
1.0
 40
1.0
 40
1.0
 10
14.102707895
 20
8.9326524828
 30
0.0
 10
13.8720281882
 20
9.0534713035
 30
0.0
 10
13.4126748598
 20
9.267745685
 30
0.0
 10
12.9328618103
 20
9.4321933136
 30
0.0
 10
12.6961063186
 20
9.4973370472
 30
0.0
  0
LINE
  5
A69
100
AcDbEntity
  8
0
100
AcDbLine
 62
7
  6
CONTINUOUS
 10
12.6961063186
 20
9.4973370472
 11
12.6950750396
 21
9.4976207058
  0
LINE
  5
A6A
100
AcDbEntity
  8
0
100
AcDbLine
 62
7
  6
CONTINUOUS
 10
15.1866520835
 20
6.9478483989
 11
15.1727326587
 21
6.960089867
  0
SPLINE
  5
A6B
100
AcDbEntity
  8
0
100
AcDbSpline
 62
7
  6
CONTINUOUS
 70
0
 71
3
 72
12
 73
8
 74
0
 42
0.0000001
 43
0.0000001
 44
0.0000000001
 40
0.0
 40
0.0
 40
0.0
 40
0.0
 40
0.2911909053
 40
0.550500066
 40
0.7827546754
 40
0.8923789858
 40
1.0
 40
1.0
 40
1.0
 40
1.0
 10
13.4082644076
 20
8.5104638592
 30
0.0
 10
13.3856147788
 20
8.496660821
 30
0.0
 10
13.344626356
 20
8.4672422425
 30
0.0
 10
13.2956720323
 20
8.4146452627
 30
0.0
 10
13.2693825483
 20
8.3656400165
 30
0.0
 10
13.2591486389
 20
8.3258288333
 30
0.0
 10
13.2574548407
 20
8.3060006738
 30
0.0
 10
13.2574498599
 20
8.2961976426
 30
0.0
  0
SPLINE
  5
A6C
100
AcDbEntity
  8
0
100
AcDbSpline
 62
7
  6
CONTINUOUS
 70
0
 71
3
 72
9
 73
5
 74
0
 42
0.0000001
 43
0.0000001
 44
0.0000000001
 40
0.0
 40
0.0
 40
0.0
 40
0.0
 40
0.516409262
 40
1.0
 40
1.0
 40
1.0
 40
1.0
 10
16.1192535469
 20
7.5153441636
 30
0.0
 10
15.8021628571
 20
7.7936928119
 30
0.0
 10
15.1606795953
 20
8.302487929
 30
0.0
 10
14.4642228418
 20
8.734387521
 30
0.0
 10
14.1148563719
 20
8.9189387134
 30
0.0
  0
SPLINE
  5
A6D
100
AcDbEntity
  8
0
100
AcDbSpline
 62
7
  6
CONTINUOUS
 70
0
 71
3
 72
15
 73
11
 74
0
 42
0.0000001
 43
0.0000001
 44
0.0000000001
 40
0.0
 40
0.0
 40
0.0
 40
0.0
 40
0.1288116709
 40
0.2705556641
 40
0.4178221251
 40
0.5622902921
 40
0.696092669
 40
0.8134988347
 40
0.9130091308
 40
1.0
 40
1.0
 40
1.0
 40
1.0
 10
12.500203092
 20
9.3205165625
 30
0.0
 10
12.5067586677
 20
9.3167283731
 30
0.0
 10
12.5216044603
 20
9.3105986067
 30
0.0
 10
12.5457985122
 20
9.3057503909
 30
0.0
 10
12.5713910146
 20
9.3050435399
 30
0.0
 10
12.5962819839
 20
9.308540082
 30
0.0
 10
12.6184882969
 20
9.3159644468
 30
0.0
 10
12.6362769648
 20
9.3268104066
 30
0.0
 10
12.648330903
 20
9.3405232536
 30
0.0
 10
12.6514167125
 20
9.3515849229
 30
0.0
 10
12.6514193066
 20
9.3566981377
 30
0.0
  0
SPLINE
  5
A6E
100
AcDbEntity
  8
0
100
AcDbSpline
 62
7
  6
CONTINUOUS
 70
0
 71
3
 72
11
 73
7
 74
0
 42
0.0000001
 43
0.0000001
 44
0.0000000001
 40
0.0
 40
0.0
 40
0.0
 40
0.0
 40
0.2895788086
 40
0.5490236357
 40
0.7821692774
 40
1.0
 40
1.0
 40
1.0
 40
1.0
 10
12.6449651102
 20
9.4041683984
 30
0.0
 10
12.6500629352
 20
9.4012225813
 30
0.0
 10
12.6593125768
 20
9.3948429028
 30
0.0
 10
12.6703671124
 20
9.3832145227
 30
0.0
 10
12.6773582352
 20
9.3703475265
 30
0.0
 10
12.6789813404
 20
9.3611151033
 30
0.0
 10
12.6789801604
 20
9.3566861401
 30
0.0
  0
SPLINE
  5
A6F
100
AcDbEntity
  8
0
100
AcDbSpline
 62
7
  6
CONTINUOUS
 70
0
 71
3
 72
11
 73
7
 74
0
 42
0.0000001
 43
0.0000001
 44
0.0000000001
 40
0.0
 40
0.0
 40
0.0
 40
0.0
 40
0.2895788086
 40
0.5490236357
 40
0.7821692774
 40
1.0
 40
1.0
 40
1.0
 40
1.0
 10
15.7559565589
 20
7.5662410416
 30
0.0
 10
15.761054384
 20
7.5632952245
 30
0.0
 10
15.7703040255
 20
7.5569155459
 30
0.0
 10
15.7813585611
 20
7.5452871658
 30
0.0
 10
15.7883496839
 20
7.5324201696
 30
0.0
 10
15.7899727891
 20
7.5231877464
 30
0.0
 10
15.7899716091
 20
7.5187587833
 30
0.0
  0
SPLINE
  5
A70
100
AcDbEntity
  8
0
100
AcDbSpline
 62
7
  6
CONTINUOUS
 70
0
 71
3
 72
15
 73
11
 74
0
 42
0.0000001
 43
0.0000001
 44
0.0000000001
 40
0.0
 40
0.0
 40
0.0
 40
0.0
 40
0.1288116709
 40
0.2705556641
 40
0.4178221251
 40
0.5622902921
 40
0.696092669
 40
0.8134988347
 40
0.9130091308
 40
1.0
 40
1.0
 40
1.0
 40
1.0
 10
15.6111945407
 20
7.4825892056
 30
0.0
 10
15.6177501164
 20
7.4788010162
 30
0.0
 10
15.632595909
 20
7.4726712499
 30
0.0
 10
15.6567899609
 20
7.4678230341
 30
0.0
 10
15.6823824634
 20
7.4671161831
 30
0.0
 10
15.7072734326
 20
7.4706127251
 30
0.0
 10
15.7294797456
 20
7.47803709
 30
0.0
 10
15.7472684136
 20
7.4888830497
 30
0.0
 10
15.7593223517
 20
7.5025958967
 30
0.0
 10
15.7624081612
 20
7.5136575661
 30
0.0
 10
15.7624107553
 20
7.5187707809
 30
0.0
  0
SPLINE
  5
A71
100
AcDbEntity
  8
0
100
AcDbSpline
 62
7
  6
CONTINUOUS
 70
0
 71
3
 72
15
 73
11
 74
0
 42
0.0000001
 43
0.0000001
 44
0.0000000001
 40
0.0
 40
0.0
 40
0.0
 40
0.0
 40
0.1288116709
 40
0.2705556641
 40
0.4178221251
 40
0.5622902921
 40
0.696092669
 40
0.8134988347
 40
0.9130091308
 40
1.0
 40
1.0
 40
1.0
 40
1.0
 10
12.3192505692
 20
9.2159517676
 30
0.0
 10
12.325806145
 20
9.2121635782
 30
0.0
 10
12.3406519375
 20
9.2060338118
 30
0.0
 10
12.3648459895
 20
9.201185596
 30
0.0
 10
12.3904384919
 20
9.200478745
 30
0.0
 10
12.4153294612
 20
9.203975287
 30
0.0
 10
12.4375357742
 20
9.2113996519
 30
0.0
 10
12.4553244421
 20
9.2222456117
 30
0.0
 10
12.4673783802
 20
9.2359584587
 30
0.0
 10
12.4704641897
 20
9.247020128
 30
0.0
 10
12.4704667838
 20
9.2521333428
 30
0.0
  0
SPLINE
  5
A72
100
AcDbEntity
  8
0
100
AcDbSpline
 62
7
  6
CONTINUOUS
 70
0
 71
3
 72
11
 73
7
 74
0
 42
0.0000001
 43
0.0000001
 44
0.0000000001
 40
0.0
 40
0.0
 40
0.0
 40
0.0
 40
0.2895788086
 40
0.5490236357
 40
0.7821692774
 40
1.0
 40
1.0
 40
1.0
 40
1.0
 10
12.4640125874
 20
9.2996036035
 30
0.0
 10
12.4691104125
 20
9.2966577864
 30
0.0
 10
12.4783600541
 20
9.2902781078
 30
0.0
 10
12.4894145897
 20
9.2786497277
 30
0.0
 10
12.4964057124
 20
9.2657827315
 30
0.0
 10
12.4980288176
 20
9.2565503084
 30
0.0
 10
12.4980276376
 20
9.2521213452
 30
0.0
  0
SPLINE
  5
A73
100
AcDbEntity
  8
0
100
AcDbSpline
 62
7
  6
CONTINUOUS
 70
0
 71
3
 72
11
 73
7
 74
0
 42
0.0000001
 43
0.0000001
 44
0.0000000001
 40
0.0
 40
0.0
 40
0.0
 40
0.0
 40
0.2895788086
 40
0.5490236357
 40
0.7821692774
 40
1.0
 40
1.0
 40
1.0
 40
1.0
 10
15.4914874872
 20
7.4134155721
 30
0.0
 10
15.4965853123
 20
7.410469755
 30
0.0
 10
15.5058349538
 20
7.4040900764
 30
0.0
 10
15.5168894894
 20
7.3924616963
 30
0.0
 10
15.5238806122
 20
7.3795947001
 30
0.0
 10
15.5255037174
 20
7.3703622769
 30
0.0
 10
15.5255025374
 20
7.3659333138
 30
0.0
  0
SPLINE
  5
A74
100
AcDbEntity
  8
0
100
AcDbSpline
 62
7
  6
CONTINUOUS
 70
0
 71
3
 72
15
 73
11
 74
0
 42
0.0000001
 43
0.0000001
 44
0.0000000001
 40
0.0
 40
0.0
 40
0.0
 40
0.0
 40
0.1288116709
 40
0.2705556641
 40
0.4178221251
 40
0.5622902921
 40
0.696092669
 40
0.8134988347
 40
0.9130091308
 40
1.0
 40
1.0
 40
1.0
 40
1.0
 10
15.346725469
 20
7.3297637361
 30
0.0
 10
15.3532810447
 20
7.3259755467
 30
0.0
 10
15.3681268373
 20
7.3198457804
 30
0.0
 10
15.3923208892
 20
7.3149975646
 30
0.0
 10
15.4179133917
 20
7.3142907136
 30
0.0
 10
15.4428043609
 20
7.3177872556
 30
0.0
 10
15.4650106739
 20
7.3252116205
 30
0.0
 10
15.4827993419
 20
7.3360575802
 30
0.0
 10
15.49485328
 20
7.3497704272
 30
0.0
 10
15.4979390895
 20
7.3608320966
 30
0.0
 10
15.4979416836
 20
7.3659453114
 30
0.0
  0
SPLINE
  5
A75
100
AcDbEntity
  8
0
100
AcDbSpline
 62
7
  6
CONTINUOUS
 70
0
 71
3
 72
11
 73
7
 74
0
 42
0.0000001
 43
0.0000001
 44
0.0000000001
 40
0.0
 40
0.0
 40
0.0
 40
0.0
 40
0.2895788086
 40
0.5490236357
 40
0.7821692774
 40
1.0
 40
1.0
 40
1.0
 40
1.0
 10
15.2270184155
 20
7.2605901026
 30
0.0
 10
15.2321162406
 20
7.2576442855
 30
0.0
 10
15.2413658821
 20
7.2512646069
 30
0.0
 10
15.2524204177
 20
7.2396362268
 30
0.0
 10
15.2594115405
 20
7.2267692306
 30
0.0
 10
15.2610346457
 20
7.2175368074
 30
0.0
 10
15.2610334657
 20
7.2131078443
 30
0.0
  0
SPLINE
  5
A76
100
AcDbEntity
  8
0
100
AcDbSpline
 62
7
  6
CONTINUOUS
 70
0
 71
3
 72
15
 73
11
 74
0
 42
0.0000001
 43
0.0000001
 44
0.0000000001
 40
0.0
 40
0.0
 40
0.0
 40
0.0
 40
0.1288116709
 40
0.2705556641
 40
0.4178221251
 40
0.5622902921
 40
0.696092669
 40
0.8134988347
 40
0.9130091308
 40
1.0
 40
1.0
 40
1.0
 40
1.0
 10
15.0822563973
 20
7.1769382666
 30
0.0
 10
15.088811973
 20
7.1731500772
 30
0.0
 10
15.1036577656
 20
7.1670203109
 30
0.0
 10
15.1278518175
 20
7.1621720951
 30
0.0
 10
15.15344432
 20
7.1614652441
 30
0.0
 10
15.1783352892
 20
7.1649617861
 30
0.0
 10
15.2005416022
 20
7.172386151
 30
0.0
 10
15.2183302702
 20
7.1832321107
 30
0.0
 10
15.2303842083
 20
7.1969449577
 30
0.0
 10
15.2334700178
 20
7.2080066271
 30
0.0
 10
15.2334726119
 20
7.2131198419
 30
0.0
  0
SPLINE
  5
A77
100
AcDbEntity
  8
0
100
AcDbSpline
 62
7
  6
CONTINUOUS
 70
0
 71
3
 72
15
 73
11
 74
0
 42
0.0000001
 43
0.0000001
 44
0.0000000001
 40
0.0
 40
0.0
 40
0.0
 40
0.0
 40
0.1288116709
 40
0.2705556641
 40
0.4178221251
 40
0.5622902921
 40
0.696092669
 40
0.8134988347
 40
0.9130091308
 40
1.0
 40
1.0
 40
1.0
 40
1.0
 10
12.1382980465
 20
9.1113869726
 30
0.0
 10
12.1448536222
 20
9.1075987832
 30
0.0
 10
12.1596994148
 20
9.1014690169
 30
0.0
 10
12.1838934667
 20
9.0966208011
 30
0.0
 10
12.2094859692
 20
9.0959139501
 30
0.0
 10
12.2343769384
 20
9.0994104921
 30
0.0
 10
12.2565832514
 20
9.106834857
 30
0.0
 10
12.2743719193
 20
9.1176808167
 30
0.0
 10
12.2864258575
 20
9.1313936637
 30
0.0
 10
12.289511667
 20
9.1424553331
 30
0.0
 10
12.2895142611
 20
9.1475685479
 30
0.0
  0
SPLINE
  5
A78
100
AcDbEntity
  8
0
100
AcDbSpline
 62
7
  6
CONTINUOUS
 70
0
 71
3
 72
11
 73
7
 74
0
 42
0.0000001
 43
0.0000001
 44
0.0000000001
 40
0.0
 40
0.0
 40
0.0
 40
0.0
 40
0.2895788086
 40
0.5490236357
 40
0.7821692774
 40
1.0
 40
1.0
 40
1.0
 40
1.0
 10
12.2830600647
 20
9.1950388086
 30
0.0
 10
12.2881578898
 20
9.1920929915
 30
0.0
 10
12.2974075313
 20
9.1857133129
 30
0.0
 10
12.3084620669
 20
9.1740849328
 30
0.0
 10
12.3154531897
 20
9.1612179366
 30
0.0
 10
12.3170762949
 20
9.1519855135
 30
0.0
 10
12.3170751149
 20
9.1475565503
 30
0.0
  0
SPLINE
  5
A79
100
AcDbEntity
  8
0
100
AcDbSpline
 62
7
  6
CONTINUOUS
 70
0
 71
3
 72
15
 73
11
 74
0
 42
0.0000001
 43
0.0000001
 44
0.0000000001
 40
0.0
 40
0.0
 40
0.0
 40
0.0
 40
0.1288116709
 40
0.2705556641
 40
0.4178221251
 40
0.5622902921
 40
0.696092669
 40
0.8134988347
 40
0.9130091308
 40
1.0
 40
1.0
 40
1.0
 40
1.0
 10
11.9573455238
 20
9.0068221777
 30
0.0
 10
11.9639010995
 20
9.0030339883
 30
0.0
 10
11.978746892
 20
8.996904222
 30
0.0
 10
12.002940944
 20
8.9920560061
 30
0.0
 10
12.0285334464
 20
8.9913491552
 30
0.0
 10
12.0534244157
 20
8.9948456972
 30
0.0
 10
12.0756307287
 20
9.0022700621
 30
0.0
 10
12.0934193966
 20
9.0131160218
 30
0.0
 10
12.1054733347
 20
9.0268288688
 30
0.0
 10
12.1085591443
 20
9.0378905382
 30
0.0
 10
12.1085617384
 20
9.043003753
 30
0.0
  0
SPLINE
  5
A7A
100
AcDbEntity
  8
0
100
AcDbSpline
 62
7
  6
CONTINUOUS
 70
0
 71
3
 72
11
 73
7
 74
0
 42
0.0000001
 43
0.0000001
 44
0.0000000001
 40
0.0
 40
0.0
 40
0.0
 40
0.0
 40
0.2895788086
 40
0.5490236357
 40
0.7821692774
 40
1.0
 40
1.0
 40
1.0
 40
1.0
 10
12.102107542
 20
9.0904740137
 30
0.0
 10
12.107205367
 20
9.0875281966
 30
0.0
 10
12.1164550086
 20
9.081148518
 30
0.0
 10
12.1275095442
 20
9.0695201379
 30
0.0
 10
12.1345006669
 20
9.0566531417
 30
0.0
 10
12.1361237722
 20
9.0474207185
 30
0.0
 10
12.1361225921
 20
9.0429917554
 30
0.0
  0
SPLINE
  5
A7B
100
AcDbEntity
  8
0
100
AcDbSpline
 62
7
  6
CONTINUOUS
 70
0
 71
3
 72
11
 73
7
 74
0
 42
0.0000001
 43
0.0000001
 44
0.0000000001
 40
0.0
 40
0.0
 40
0.0
 40
0.0
 40
0.2751650072
 40
0.530577936
 40
0.7701028081
 40
1.0
 40
1.0
 40
1.0
 40
1.0
 10
13.3137957777
 20
8.1343028729
 30
0.0
 10
13.3024517308
 20
8.1456781167
 30
0.0
 10
13.2819889457
 20
8.1691099117
 30
0.0
 10
13.2581306328
 20
8.2074843485
 30
0.0
 10
13.242809449
 20
8.2472229572
 30
0.0
 10
13.2385194412
 20
8.2745521747
 30
0.0
 10
13.2379354734
 20
8.2879615704
 30
0.0
  0
SPLINE
  5
A7C
100
AcDbEntity
  8
0
100
AcDbSpline
 62
7
  6
CONTINUOUS
 70
0
 71
3
 72
9
 73
5
 74
0
 42
0.0000001
 43
0.0000001
 44
0.0000000001
 40
0.0
 40
0.0
 40
0.0
 40
0.0
 40
0.5146367719
 40
1.0
 40
1.0
 40
1.0
 40
1.0
 10
14.100936947
 20
8.9262751099
 30
0.0
 10
13.8704087191
 20
9.04750486
 30
0.0
 10
13.4113200201
 20
9.2626789054
 30
0.0
 10
12.9317516689
 20
9.4282605844
 30
0.0
 10
12.6950750396
 20
9.4940318213
 30
0.0
  0
SPLINE
  5
A7D
100
AcDbEntity
  8
0
100
AcDbSpline
 62
7
  6
CONTINUOUS
 70
0
 71
3
 72
15
 73
11
 74
0
 42
0.0000001
 43
0.0000001
 44
0.0000000001
 40
0.0
 40
0.0
 40
0.0
 40
0.0
 40
0.125786113
 40
0.2673876295
 40
0.4167314374
 40
0.5645252264
 40
0.7016215576
 40
0.8207488702
 40
0.9187667514
 40
1.0
 40
1.0
 40
1.0
 40
1.0
 10
13.3110095881
 20
8.9158258931
 30
0.0
 10
13.31653684
 20
8.9133141911
 30
0.0
 10
13.3289894556
 20
8.9095063296
 30
0.0
 10
13.349035745
 20
8.907112671
 30
0.0
 10
13.3702819088
 20
8.9078251385
 30
0.0
 10
13.3909737047
 20
8.9116258959
 30
0.0
 10
13.4094373714
 20
8.9182172393
 30
0.0
 10
13.4241936831
 20
8.9271326572
 30
0.0
 10
13.4342500293
 20
8.9378172148
 30
0.0
 10
13.4370203472
 20
8.9464962789
 30
0.0
 10
13.4370226176
 20
8.9504170705
 30
0.0
  0
LINE
  5
A7E
100
AcDbEntity
  8
0
100
AcDbLine
 62
7
  6
CONTINUOUS
 10
11.767112529
 20
8.957432303
 11
11.7624735762
 21
8.9587098397
  0
SPLINE
  5
A7F
100
AcDbEntity
  8
0
100
AcDbSpline
 62
7
  6
CONTINUOUS
 70
0
 71
3
 72
11
 73
7
 74
0
 42
0.0000001
 43
0.0000001
 44
0.0000000001
 40
0.0
 40
0.0
 40
0.0
 40
0.0
 40
0.2896905251
 40
0.5490943197
 40
0.7822143963
 40
1.0
 40
1.0
 40
1.0
 40
1.0
 10
13.4119254181
 20
6.6199983906
 30
0.0
 10
13.4119254181
 20
6.6259759568
 30
0.0
 10
13.4128324552
 20
6.6373445247
 30
0.0
 10
13.4174347493
 20
6.6529645834
 30
0.0
 10
13.4251868435
 20
6.6656402276
 30
0.0
 10
13.432469573
 20
6.6717588333
 30
0.0
 10
13.4363603324
 20
6.674007554
 30
0.0
  0
SPLINE
  5
A80
100
AcDbEntity
  8
0
100
AcDbSpline
 62
7
  6
CONTINUOUS
 70
0
 71
3
 72
9
 73
5
 74
0
 42
0.0000001
 43
0.0000001
 44
0.0000000001
 40
0.0
 40
0.0
 40
0.0
 40
0.0
 40
0.4734148695
 40
1.0
 40
1.0
 40
1.0
 40
1.0
 10
12.3162639857
 20
9.2222671389
 30
0.0
 10
12.3227533588
 20
9.2264043845
 30
0.0
 10
12.3377451951
 20
9.2331517923
 30
0.0
 10
12.3537158558
 20
9.2366749397
 30
0.0
 10
12.3622029416
 20
9.2377927396
 30
0.0
  0
SPLINE
  5
A81
100
AcDbEntity
  8
0
100
AcDbSpline
 62
7
  6
CONTINUOUS
 70
0
 71
3
 72
11
 73
7
 74
0
 42
0.0000001
 43
0.0000001
 44
0.0000000001
 40
0.0
 40
0.0
 40
0.0
 40
0.0
 40
0.2177899446
 40
0.4509628435
 40
0.7105346425
 40
1.0
 40
1.0
 40
1.0
 40
1.0
 10
12.4704667838
 20
9.2521333428
 30
0.0
 10
12.4704684971
 20
9.2555102667
 30
0.0
 10
12.4692309215
 20
9.2625509252
 30
0.0
 10
12.4638981073
 20
9.2723650331
 30
0.0
 10
12.455463658
 20
9.281229659
 30
0.0
 10
12.4484115046
 20
9.28609716
 30
0.0
 10
12.4445253927
 20
9.2883427794
 30
0.0
  0
SPLINE
  5
A82
100
AcDbEntity
  8
0
100
AcDbSpline
 62
7
  6
CONTINUOUS
 70
0
 71
3
 72
16
 73
12
 74
0
 42
0.0000001
 43
0.0000001
 44
0.0000000001
 40
0.0
 40
0.0
 40
0.0
 40
0.0
 40
0.0429051285
 40
0.0875809506
 40
0.1870314806
 40
0.3043607839
 40
0.4380769905
 40
0.5824538427
 40
0.729640519
 40
0.8712695593
 40
1.0
 40
1.0
 40
1.0
 40
1.0
 10
15.5255025374
 20
7.3659333138
 30
0.0
 10
15.5255016558
 20
7.3626247277
 30
0.0
 10
15.5246121671
 20
7.3558428426
 30
0.0
 10
15.5192401964
 20
7.3423230278
 30
0.0
 10
15.5056475246
 20
7.3267101624
 30
0.0
 10
15.4823186423
 20
7.3125447044
 30
0.0
 10
15.4532053173
 20
7.3027952604
 30
0.0
 10
15.4205691841
 20
7.2982152144
 30
0.0
 10
15.3870159109
 20
7.2991441271
 30
0.0
 10
15.3552953632
 20
7.3054985217
 30
0.0
 10
15.3358333499
 20
7.3135361821
 30
0.0
 10
15.3272382743
 20
7.3185029121
 30
0.0
  0
SPLINE
  5
A83
100
AcDbEntity
  8
0
100
AcDbSpline
 62
7
  6
CONTINUOUS
 70
0
 71
3
 72
9
 73
5
 74
0
 42
0.0000001
 43
0.0000001
 44
0.0000000001
 40
0.0
 40
0.0
 40
0.0
 40
0.0
 40
0.4734148695
 40
1.0
 40
1.0
 40
1.0
 40
1.0
 10
11.9543589403
 20
9.0131375491
 30
0.0
 10
11.9608483133
 20
9.0172747946
 30
0.0
 10
11.9758401496
 20
9.0240222024
 30
0.0
 10
11.9918108104
 20
9.0275453498
 30
0.0
 10
12.0002978961
 20
9.0286631497
 30
0.0
  0
SPLINE
  5
A84
100
AcDbEntity
  8
0
100
AcDbSpline
 62
7
  6
CONTINUOUS
 70
0
 71
3
 72
11
 73
7
 74
0
 42
0.0000001
 43
0.0000001
 44
0.0000000001
 40
0.0
 40
0.0
 40
0.0
 40
0.0
 40
0.2177899446
 40
0.4509628435
 40
0.7105346425
 40
1.0
 40
1.0
 40
1.0
 40
1.0
 10
12.1085617384
 20
9.043003753
 30
0.0
 10
12.1085634516
 20
9.0463806769
 30
0.0
 10
12.1073258761
 20
9.0534213354
 30
0.0
 10
12.1019930618
 20
9.0632354433
 30
0.0
 10
12.0935586125
 20
9.0721000692
 30
0.0
 10
12.0865064591
 20
9.0769675702
 30
0.0
 10
12.0826203472
 20
9.0792131896
 30
0.0
  0
SPLINE
  5
A85
100
AcDbEntity
  8
0
100
AcDbSpline
 62
7
  6
CONTINUOUS
 70
0
 71
3
 72
9
 73
5
 74
0
 42
0.0000001
 43
0.0000001
 44
0.0000000001
 40
0.0
 40
0.0
 40
0.0
 40
0.0
 40
0.4792982182
 40
1.0
 40
1.0
 40
1.0
 40
1.0
 10
15.2932235837
 20
7.2374664064
 30
0.0
 10
15.2932213666
 20
7.2325020079
 30
0.0
 10
15.2952894652
 20
7.2220676955
 30
0.0
 10
15.3008342386
 20
7.2130918805
 30
0.0
 10
15.3042352716
 20
7.2089061862
 30
0.0
  0
SPLINE
  5
A86
100
AcDbEntity
  8
0
100
AcDbSpline
 62
7
  6
CONTINUOUS
 70
0
 71
3
 72
9
 73
5
 74
0
 42
0.0000001
 43
0.0000001
 44
0.0000000001
 40
0.0
 40
0.0
 40
0.0
 40
0.0
 40
0.4734148695
 40
1.0
 40
1.0
 40
1.0
 40
1.0
 10
12.135311463
 20
9.117702344
 30
0.0
 10
12.1418008361
 20
9.1218395895
 30
0.0
 10
12.1567926724
 20
9.1285869973
 30
0.0
 10
12.1727633331
 20
9.1321101447
 30
0.0
 10
12.1812504189
 20
9.1332279447
 30
0.0
  0
SPLINE
  5
A87
100
AcDbEntity
  8
0
100
AcDbSpline
 62
7
  6
CONTINUOUS
 70
0
 71
3
 72
16
 73
12
 74
0
 42
0.0000001
 43
0.0000001
 44
0.0000000001
 40
0.0
 40
0.0
 40
0.0
 40
0.0
 40
0.0428636982
 40
0.0874979129
 40
0.1868947542
 40
0.3042166667
 40
0.4379620214
 40
0.5823891058
 40
0.7296302408
 40
0.8712792895
 40
1.0
 40
1.0
 40
1.0
 40
1.0
 10
15.9057358952
 20
6.7151770602
 30
0.0
 10
15.9018550937
 20
6.7174198667
 30
0.0
 10
15.8932978029
 20
6.7209756502
 30
0.0
 10
15.873793088
 20
6.7238402213
 30
0.0
 10
15.8462517306
 20
6.71845894
 30
0.0
 10
15.8138064947
 20
6.7006610212
 30
0.0
 10
15.7826146667
 20
6.6730736448
 30
0.0
 10
15.7550964998
 20
6.637843573
 30
0.0
 10
15.733422963
 20
6.5978030538
 30
0.0
 10
15.7193590318
 20
6.5562424882
 30
0.0
 10
15.7155902269
 20
6.5279374937
 30
0.0
 10
15.7155902269
 20
6.5144771107
 30
0.0
  0
SPLINE
  5
A88
100
AcDbEntity
  8
0
100
AcDbSpline
 62
7
  6
CONTINUOUS
 70
0
 71
3
 72
11
 73
7
 74
0
 42
0.0000001
 43
0.0000001
 44
0.0000000001
 40
0.0
 40
0.0
 40
0.0
 40
0.0
 40
0.2177899446
 40
0.4509628435
 40
0.7105346425
 40
1.0
 40
1.0
 40
1.0
 40
1.0
 10
12.2895142611
 20
9.1475685479
 30
0.0
 10
12.2895159743
 20
9.1509454718
 30
0.0
 10
12.2882783988
 20
9.1579861303
 30
0.0
 10
12.2829455845
 20
9.1678002382
 30
0.0
 10
12.2745111353
 20
9.1766648641
 30
0.0
 10
12.2674589818
 20
9.1815323651
 30
0.0
 10
12.2635728699
 20
9.1837779845
 30
0.0
  0
SPLINE
  5
A89
100
AcDbEntity
  8
0
100
AcDbSpline
 62
7
  6
CONTINUOUS
 70
0
 71
3
 72
15
 73
11
 74
0
 42
0.0000001
 43
0.0000001
 44
0.0000000001
 40
0.0
 40
0.0
 40
0.0
 40
0.0
 40
0.1621602796
 40
0.3218819121
 40
0.4733048043
 40
0.6114536926
 40
0.732663356
 40
0.8354974297
 40
0.9221022407
 40
1.0
 40
1.0
 40
1.0
 40
1.0
 10
13.0152218106
 20
8.9288636209
 30
0.0
 10
13.0022618643
 20
8.926582781
 30
0.0
 10
12.9762664696
 20
8.9234740485
 30
0.0
 10
12.9377900139
 20
8.9229963691
 30
0.0
 10
12.9014258299
 20
8.9266321137
 30
0.0
 10
12.8688401273
 20
8.9341461209
 30
0.0
 10
12.8414332449
 20
8.9451862854
 30
0.0
 10
12.8203105774
 20
8.9593956865
 30
0.0
 10
12.8063905342
 20
8.9766509213
 30
0.0
 10
12.8030751468
 20
8.9901600797
 30
0.0
 10
12.803079842
 20
8.9964813914
 30
0.0
  0
SPLINE
  5
A8A
100
AcDbEntity
  8
0
100
AcDbSpline
 62
7
  6
CONTINUOUS
 70
0
 71
3
 72
11
 73
7
 74
0
 42
0.0000001
 43
0.0000001
 44
0.0000000001
 40
0.0
 40
0.0
 40
0.0
 40
0.0
 40
0.2177899446
 40
0.4509628435
 40
0.7105346425
 40
1.0
 40
1.0
 40
1.0
 40
1.0
 10
15.7624107553
 20
7.5187707809
 30
0.0
 10
15.7624124685
 20
7.5221477048
 30
0.0
 10
15.761174893
 20
7.5291883633
 30
0.0
 10
15.7558420787
 20
7.5390024712
 30
0.0
 10
15.7474076295
 20
7.5478670971
 30
0.0
 10
15.740355476
 20
7.5527345981
 30
0.0
 10
15.7364693642
 20
7.5549802175
 30
0.0
  0
LINE
  5
A8B
100
AcDbEntity
  8
0
100
AcDbLine
 62
7
  6
CONTINUOUS
 10
12.6254779154
 20
9.328644772
 11
12.6312941151
 21
9.3249349213
  0
SPLINE
  5
A8C
100
AcDbEntity
  8
0
100
AcDbSpline
 62
7
  6
CONTINUOUS
 70
0
 71
3
 72
11
 73
7
 74
0
 42
0.0000001
 43
0.0000001
 44
0.0000000001
 40
0.0
 40
0.0
 40
0.0
 40
0.0
 40
0.2258683662
 40
0.4683423605
 40
0.7268608545
 40
1.0
 40
1.0
 40
1.0
 40
1.0
 10
11.5815210534
 20
8.8541450448
 30
0.0
 10
11.8732234527
 20
8.7739390381
 30
0.0
 10
12.4659300726
 20
8.5614610645
 30
0.0
 10
13.3354790606
 20
8.1190155713
 30
0.0
 10
14.2038246306
 20
7.5490219116
 30
0.0
 10
14.7589984577
 20
7.1011734564
 30
0.0
 10
15.0335384104
 20
6.8593704955
 30
0.0
  0
SPLINE
  5
A8D
100
AcDbEntity
  8
0
100
AcDbSpline
 62
7
  6
CONTINUOUS
 70
0
 71
3
 72
11
 73
7
 74
0
 42
0.0000001
 43
0.0000001
 44
0.0000000001
 40
0.0
 40
0.0
 40
0.0
 40
0.0
 40
0.2703437745
 40
0.5277307436
 40
0.7711089325
 40
1.0
 40
1.0
 40
1.0
 40
1.0
 10
14.690192598
 20
5.9833693675
 30
0.0
 10
14.5935260425
 20
6.0646584577
 30
0.0
 10
14.3985516723
 20
6.2161000784
 30
0.0
 10
14.0955270071
 20
6.4118472051
 30
0.0
 10
13.7922214632
 20
6.5686536123
 30
0.0
 10
13.5858440871
 20
6.6483586325
 30
0.0
 10
13.4838424464
 20
6.6804680003
 30
0.0
  0
SPLINE
  5
A8E
100
AcDbEntity
  8
0
100
AcDbSpline
 62
7
  6
CONTINUOUS
 70
0
 71
3
 72
9
 73
5
 74
0
 42
0.0000001
 43
0.0000001
 44
0.0000000001
 40
0.0
 40
0.0
 40
0.0
 40
0.0
 40
0.5312980175
 40
1.0
 40
1.0
 40
1.0
 40
1.0
 10
13.4838424464
 20
6.6804680003
 30
0.0
 10
13.476831274
 20
6.6826750659
 30
0.0
 10
13.4628568542
 20
6.6850654379
 30
0.0
 10
13.4489341228
 20
6.6812740231
 30
0.0
 10
13.4433200042
 20
6.6780292544
 30
0.0
  0
SPLINE
  5
A8F
100
AcDbEntity
  8
0
100
AcDbSpline
 62
7
  6
CONTINUOUS
 70
0
 71
3
 72
11
 73
7
 74
0
 42
0.0000001
 43
0.0000001
 44
0.0000000001
 40
0.0
 40
0.0
 40
0.0
 40
0.0
 40
0.2316362771
 40
0.4876592744
 40
0.7502387495
 40
1.0
 40
1.0
 40
1.0
 40
1.0
 10
14.7551499139
 20
5.8518493203
 30
0.0
 10
14.7551499139
 20
5.8634738712
 30
0.0
 10
14.7514166671
 20
5.8879717104
 30
0.0
 10
14.7378792688
 20
5.9233392331
 30
0.0
 10
14.7174595436
 20
5.9563052984
 30
0.0
 10
14.6997856926
 20
5.9753023176
 30
0.0
 10
14.690192598
 20
5.9833693675
 30
0.0
  0
SPLINE
  5
A90
100
AcDbEntity
  8
0
100
AcDbSpline
 62
7
  6
CONTINUOUS
 70
0
 71
3
 72
9
 73
5
 74
0
 42
0.0000001
 43
0.0000001
 44
0.0000000001
 40
0.0
 40
0.0
 40
0.0
 40
0.0
 40
0.4734148695
 40
1.0
 40
1.0
 40
1.0
 40
1.0
 10
12.4972165085
 20
9.3268319338
 30
0.0
 10
12.5037058816
 20
9.3309691794
 30
0.0
 10
12.5186977179
 20
9.3377165872
 30
0.0
 10
12.5346683786
 20
9.3412397346
 30
0.0
 10
12.5431554643
 20
9.3423575345
 30
0.0
  0
SPLINE
  5
A91
100
AcDbEntity
  8
0
100
AcDbSpline
 62
7
  6
CONTINUOUS
 70
0
 71
3
 72
9
 73
5
 74
0
 42
0.0000001
 43
0.0000001
 44
0.0000000001
 40
0.0
 40
0.0
 40
0.0
 40
0.0
 40
0.2667037872
 40
1.0
 40
1.0
 40
1.0
 40
1.0
 10
12.5825255431
 20
9.3423575345
 30
0.0
 10
12.5865129278
 20
9.3418323721
 30
0.0
 10
12.6013579861
 20
9.3392454778
 30
0.0
 10
12.6159035933
 20
9.334177367
 30
0.0
 10
12.6254779154
 20
9.328644772
 30
0.0
  0
SPLINE
  5
A92
100
AcDbEntity
  8
0
100
AcDbSpline
 62
7
  6
CONTINUOUS
 70
0
 71
3
 72
11
 73
7
 74
0
 42
0.0000001
 43
0.0000001
 44
0.0000000001
 40
0.0
 40
0.0
 40
0.0
 40
0.0
 40
0.2897026861
 40
0.549087369
 40
0.7822155157
 40
1.0
 40
1.0
 40
1.0
 40
1.0
 10
15.7155902269
 20
6.5144771107
 30
0.0
 10
15.7155902269
 20
6.5065082164
 30
0.0
 10
15.7167979327
 20
6.4913531352
 30
0.0
 10
15.7229332171
 20
6.4705301859
 30
0.0
 10
15.7332641821
 20
6.4536322237
 30
0.0
 10
15.7429686062
 20
6.4454698379
 30
0.0
 10
15.7481553558
 20
6.4424722933
 30
0.0
  0
SPLINE
  5
A93
100
AcDbEntity
  8
0
100
AcDbSpline
 62
7
  6
CONTINUOUS
 70
0
 71
3
 72
11
 73
7
 74
0
 42
0.0000001
 43
0.0000001
 44
0.0000000001
 40
0.0
 40
0.0
 40
0.0
 40
0.0
 40
0.2177899446
 40
0.4509628435
 40
0.7105346425
 40
1.0
 40
1.0
 40
1.0
 40
1.0
 10
15.2334726119
 20
7.2131198419
 30
0.0
 10
15.2334743251
 20
7.2164967658
 30
0.0
 10
15.2322367496
 20
7.2235374243
 30
0.0
 10
15.2269039353
 20
7.2333515322
 30
0.0
 10
15.2184694861
 20
7.2422161581
 30
0.0
 10
15.2114173326
 20
7.2470836591
 30
0.0
 10
15.2075312207
 20
7.2493292785
 30
0.0
  0
SPLINE
  5
A94
100
AcDbEntity
  8
0
100
AcDbSpline
 62
7
  6
CONTINUOUS
 70
0
 71
3
 72
9
 73
5
 74
0
 42
0.0000001
 43
0.0000001
 44
0.0000000001
 40
0.0
 40
0.0
 40
0.0
 40
0.0
 40
0.4734148695
 40
1.0
 40
1.0
 40
1.0
 40
1.0
 10
15.6082079572
 20
7.488904577
 30
0.0
 10
15.6146973303
 20
7.4930418225
 30
0.0
 10
15.6296891666
 20
7.4997892303
 30
0.0
 10
15.6456598273
 20
7.5033123777
 30
0.0
 10
15.6541469131
 20
7.5044301776
 30
0.0
  0
SPLINE
  5
A95
100
AcDbEntity
  8
0
100
AcDbSpline
 62
7
  6
CONTINUOUS
 70
0
 71
3
 72
16
 73
12
 74
0
 42
0.0000001
 43
0.0000001
 44
0.0000000001
 40
0.0
 40
0.0
 40
0.0
 40
0.0
 40
0.0429051285
 40
0.0875809506
 40
0.1870314806
 40
0.3043607839
 40
0.4380769905
 40
0.5824538427
 40
0.729640519
 40
0.8712695593
 40
1.0
 40
1.0
 40
1.0
 40
1.0
 10
12.6789801604
 20
9.3566861401
 30
0.0
 10
12.6789792788
 20
9.3533775541
 30
0.0
 10
12.6780897901
 20
9.346595669
 30
0.0
 10
12.6727178194
 20
9.3330758541
 30
0.0
 10
12.6591251475
 20
9.3174629887
 30
0.0
 10
12.6357962653
 20
9.3032975308
 30
0.0
 10
12.6066829403
 20
9.2935480867
 30
0.0
 10
12.5740468071
 20
9.2889680408
 30
0.0
 10
12.5404935339
 20
9.2898969535
 30
0.0
 10
12.5087729862
 20
9.2962513481
 30
0.0
 10
12.4893109729
 20
9.3042890084
 30
0.0
 10
12.4807158972
 20
9.3092557384
 30
0.0
  0
SPLINE
  5
A96
100
AcDbEntity
  8
0
100
AcDbSpline
 62
7
  6
CONTINUOUS
 70
0
 71
3
 72
9
 73
5
 74
0
 42
0.0000001
 43
0.0000001
 44
0.0000000001
 40
0.0
 40
0.0
 40
0.0
 40
0.0
 40
0.4872504883
 40
1.0
 40
1.0
 40
1.0
 40
1.0
 10
13.4188851305
 20
8.0727761864
 30
0.0
 10
13.6987921753
 20
7.9064046157
 30
0.0
 10
14.2555984431
 20
7.5346922382
 30
0.0
 10
14.7760214897
 20
7.1140089779
 30
0.0
 10
15.0335384104
 20
6.8879553941
 30
0.0
  0
SPLINE
  5
A97
100
AcDbEntity
  8
0
100
AcDbSpline
 62
7
  6
CONTINUOUS
 70
0
 71
3
 72
9
 73
5
 74
0
 42
0.0000001
 43
0.0000001
 44
0.0000000001
 40
0.0
 40
0.0
 40
0.0
 40
0.0
 40
0.5127603346
 40
1.0
 40
1.0
 40
1.0
 40
1.0
 10
15.0335384104
 20
6.8796554094
 30
0.0
 10
14.776037142
 20
7.105779661
 30
0.0
 10
14.2556344977
 20
7.5265764855
 30
0.0
 10
13.6988064471
 20
7.8983577232
 30
0.0
 10
13.4188851305
 20
8.0647425121
 30
0.0
  0
SPLINE
  5
A98
100
AcDbEntity
  8
0
100
AcDbSpline
 62
7
  6
CONTINUOUS
 70
0
 71
3
 72
9
 73
5
 74
0
 42
0.0000001
 43
0.0000001
 44
0.0000000001
 40
0.0
 40
0.0
 40
0.0
 40
0.0
 40
0.2666644944
 40
1.0
 40
1.0
 40
1.0
 40
1.0
 10
13.4188851305
 20
8.0647425121
 30
0.0
 10
13.4093019445
 20
8.0704387427
 30
0.0
 10
13.3740400998
 20
8.0928688395
 30
0.0
 10
13.3414640289
 20
8.1198668989
 30
0.0
 10
13.320784239
 20
8.1425002525
 30
0.0
  0
SPLINE
  5
A99
100
AcDbEntity
  8
0
100
AcDbSpline
 62
7
  6
CONTINUOUS
 70
0
 71
3
 72
11
 73
7
 74
0
 42
0.0000001
 43
0.0000001
 44
0.0000000001
 40
0.0
 40
0.0
 40
0.0
 40
0.0
 40
0.2730467681
 40
0.5273828786
 40
0.7675998585
 40
1.0
 40
1.0
 40
1.0
 40
1.0
 10
13.320784239
 20
8.1425002525
 30
0.0
 10
13.3108131842
 20
8.1534132459
 30
0.0
 10
13.2929442684
 20
8.1758451779
 30
0.0
 10
13.2726316002
 20
8.2123442905
 30
0.0
 10
13.2602348579
 20
8.249962489
 30
0.0
 10
13.257440531
 20
8.2756289981
 30
0.0
 10
13.2574486111
 20
8.2882107247
 30
0.0
  0
LINE
  5
A9A
100
AcDbEntity
  8
0
100
AcDbLine
 62
7
  6
CONTINUOUS
 10
15.9243815993
 20
7.3944359382
 11
15.9383010241
 21
7.3821944701
  0
SPLINE
  5
A9B
100
AcDbEntity
  8
0
100
AcDbSpline
 62
7
  6
CONTINUOUS
 70
0
 71
3
 72
15
 73
11
 74
0
 42
0.0000001
 43
0.0000001
 44
0.0000000001
 40
0.0
 40
0.0
 40
0.0
 40
0.0
 40
0.1288116709
 40
0.2705556641
 40
0.4178221251
 40
0.5622902921
 40
0.696092669
 40
0.8134988347
 40
0.9130091308
 40
1.0
 40
1.0
 40
1.0
 40
1.0
 10
12.6254779154
 20
9.3929075743
 30
0.0
 10
12.6189223397
 20
9.3966957637
 30
0.0
 10
12.6040765472
 20
9.4028255301
 30
0.0
 10
12.5798824952
 20
9.4076737459
 30
0.0
 10
12.5542899928
 20
9.4083805969
 30
0.0
 10
12.5293990235
 20
9.4048840549
 30
0.0
 10
12.5071927105
 20
9.39745969
 30
0.0
 10
12.4894040426
 20
9.3866137302
 30
0.0
 10
12.4773501045
 20
9.3729008832
 30
0.0
 10
12.4742642949
 20
9.3618392139
 30
0.0
 10
12.4742617008
 20
9.3567259991
 30
0.0
  0
SPLINE
  5
A9C
100
AcDbEntity
  8
0
100
AcDbSpline
 62
7
  6
CONTINUOUS
 70
0
 71
3
 72
16
 73
12
 74
0
 42
0.0000001
 43
0.0000001
 44
0.0000000001
 40
0.0
 40
0.0
 40
0.0
 40
0.0
 40
0.0429051285
 40
0.0875809506
 40
0.1870314806
 40
0.3043607839
 40
0.4380769905
 40
0.5824538427
 40
0.729640519
 40
0.8712695593
 40
1.0
 40
1.0
 40
1.0
 40
1.0
 10
15.7899716091
 20
7.5187587833
 30
0.0
 10
15.7899707275
 20
7.5154501972
 30
0.0
 10
15.7890812389
 20
7.5086683121
 30
0.0
 10
15.7837092681
 20
7.4951484973
 30
0.0
 10
15.7701165963
 20
7.4795356319
 30
0.0
 10
15.746787714
 20
7.4653701739
 30
0.0
 10
15.717674389
 20
7.4556207299
 30
0.0
 10
15.6850382559
 20
7.4510406839
 30
0.0
 10
15.6514849826
 20
7.4519695966
 30
0.0
 10
15.6197644349
 20
7.4583239912
 30
0.0
 10
15.6003024216
 20
7.4663616516
 30
0.0
 10
15.591707346
 20
7.4713283816
 30
0.0
  0
SPLINE
  5
A9D
100
AcDbEntity
  8
0
100
AcDbSpline
 62
7
  6
CONTINUOUS
 70
0
 71
3
 72
11
 73
7
 74
0
 42
0.0000001
 43
0.0000001
 44
0.0000000001
 40
0.0
 40
0.0
 40
0.0
 40
0.0
 40
0.2895788086
 40
0.5490236357
 40
0.7821692774
 40
1.0
 40
1.0
 40
1.0
 40
1.0
 10
12.4807158972
 20
9.3092557384
 30
0.0
 10
12.4756180722
 20
9.3122015555
 30
0.0
 10
12.4663684306
 20
9.3185812341
 30
0.0
 10
12.455313895
 20
9.3302096141
 30
0.0
 10
12.4483227722
 20
9.3430766104
 30
0.0
 10
12.446699667
 20
9.3523090335
 30
0.0
 10
12.4467008471
 20
9.3567379967
 30
0.0
  0
SPLINE
  5
A9E
100
AcDbEntity
  8
0
100
AcDbSpline
 62
7
  6
CONTINUOUS
 70
0
 71
3
 72
11
 73
7
 74
0
 42
0.0000001
 43
0.0000001
 44
0.0000000001
 40
0.0
 40
0.0
 40
0.0
 40
0.0
 40
0.2895788086
 40
0.5490236357
 40
0.7821692774
 40
1.0
 40
1.0
 40
1.0
 40
1.0
 10
15.591707346
 20
7.4713283816
 30
0.0
 10
15.5866095209
 20
7.4742741986
 30
0.0
 10
15.5773598793
 20
7.4806538772
 30
0.0
 10
15.5663053437
 20
7.4922822573
 30
0.0
 10
15.559314221
 20
7.5051492535
 30
0.0
 10
15.5576911158
 20
7.5143816767
 30
0.0
 10
15.5576922958
 20
7.5188106398
 30
0.0
  0
SPLINE
  5
A9F
100
AcDbEntity
  8
0
100
AcDbSpline
 62
7
  6
CONTINUOUS
 70
0
 71
3
 72
16
 73
12
 74
0
 42
0.0000001
 43
0.0000001
 44
0.0000000001
 40
0.0
 40
0.0
 40
0.0
 40
0.0
 40
0.0429051285
 40
0.0875809506
 40
0.1870314806
 40
0.3043607839
 40
0.4380769905
 40
0.5824538427
 40
0.729640519
 40
0.8712695593
 40
1.0
 40
1.0
 40
1.0
 40
1.0
 10
12.1361225921
 20
9.0429917554
 30
0.0
 10
12.1361217106
 20
9.0396831693
 30
0.0
 10
12.1352322219
 20
9.0329012842
 30
0.0
 10
12.1298602511
 20
9.0193814694
 30
0.0
 10
12.1162675793
 20
9.003768604
 30
0.0
 10
12.0929386971
 20
8.989603146
 30
0.0
 10
12.063825372
 20
8.979853702
 30
0.0
 10
12.0311892389
 20
8.975273656
 30
0.0
 10
11.9976359657
 20
8.9762025687
 30
0.0
 10
11.9659154179
 20
8.9825569633
 30
0.0
 10
11.9464534046
 20
8.9905946237
 30
0.0
 10
11.937858329
 20
8.9955613536
 30
0.0
  0
SPLINE
  5
AA0
100
AcDbEntity
  8
0
100
AcDbSpline
 62
7
  6
CONTINUOUS
 70
0
 71
3
 72
15
 73
11
 74
0
 42
0.0000001
 43
0.0000001
 44
0.0000000001
 40
0.0
 40
0.0
 40
0.0
 40
0.0
 40
0.1288116709
 40
0.2705556641
 40
0.4178221251
 40
0.5622902921
 40
0.696092669
 40
0.8134988347
 40
0.9130091308
 40
1.0
 40
1.0
 40
1.0
 40
1.0
 10
15.7364693642
 20
7.5549802175
 30
0.0
 10
15.7299137884
 20
7.5587684069
 30
0.0
 10
15.7150679959
 20
7.5648981732
 30
0.0
 10
15.6908739439
 20
7.5697463891
 30
0.0
 10
15.6652814415
 20
7.57045324
 30
0.0
 10
15.6403904722
 20
7.566956698
 30
0.0
 10
15.6181841592
 20
7.5595323331
 30
0.0
 10
15.6003954913
 20
7.5486863734
 30
0.0
 10
15.5883415532
 20
7.5349735264
 30
0.0
 10
15.5852557437
 20
7.5239118571
 30
0.0
 10
15.5852531496
 20
7.5187986422
 30
0.0
  0
SPLINE
  5
AA1
100
AcDbEntity
  8
0
100
AcDbSpline
 62
7
  6
CONTINUOUS
 70
0
 71
3
 72
9
 73
5
 74
0
 42
0.0000001
 43
0.0000001
 44
0.0000000001
 40
0.0
 40
0.0
 40
0.0
 40
0.0
 40
0.2667037872
 40
1.0
 40
1.0
 40
1.0
 40
1.0
 10
15.6935169918
 20
7.5044301776
 30
0.0
 10
15.6975043765
 20
7.5039050153
 30
0.0
 10
15.7123494348
 20
7.5013181209
 30
0.0
 10
15.726895042
 20
7.4962500102
 30
0.0
 10
15.7364693642
 20
7.4907174151
 30
0.0
  0
LINE
  5
AA2
100
AcDbEntity
  8
0
100
AcDbLine
 62
7
  6
CONTINUOUS
 10
15.7364693642
 20
7.4907174151
 11
15.7422855639
 21
7.4870075645
  0
SPLINE
  5
AA3
100
AcDbEntity
  8
0
100
AcDbSpline
 62
7
  6
CONTINUOUS
 70
0
 71
3
 72
9
 73
5
 74
0
 42
0.0000001
 43
0.0000001
 44
0.0000000001
 40
0.0
 40
0.0
 40
0.0
 40
0.0
 40
0.4734148695
 40
1.0
 40
1.0
 40
1.0
 40
1.0
 10
15.0792698138
 20
7.183253638
 30
0.0
 10
15.0857591869
 20
7.1873908835
 30
0.0
 10
15.1007510232
 20
7.1941382913
 30
0.0
 10
15.1167216839
 20
7.1976614387
 30
0.0
 10
15.1252087697
 20
7.1987792386
 30
0.0
  0
LINE
  5
AA4
100
AcDbEntity
  8
0
100
AcDbLine
 62
7
  6
CONTINUOUS
 10
12.4445253927
 20
9.2240799771
 11
12.4503415924
 21
9.2203701264
  0
SPLINE
  5
AA5
100
AcDbEntity
  8
0
100
AcDbSpline
 62
7
  6
CONTINUOUS
 70
0
 71
3
 72
9
 73
5
 74
0
 42
0.0000001
 43
0.0000001
 44
0.0000000001
 40
0.0
 40
0.0
 40
0.0
 40
0.0
 40
0.2667037872
 40
1.0
 40
1.0
 40
1.0
 40
1.0
 10
12.4015730203
 20
9.2377927396
 30
0.0
 10
12.405560405
 20
9.2372675772
 30
0.0
 10
12.4204054633
 20
9.2346806828
 30
0.0
 10
12.4349510706
 20
9.2296125721
 30
0.0
 10
12.4445253927
 20
9.2240799771
 30
0.0
  0
SPLINE
  5
AA6
100
AcDbEntity
  8
0
100
AcDbSpline
 62
7
  6
CONTINUOUS
 70
0
 71
3
 72
15
 73
11
 74
0
 42
0.0000001
 43
0.0000001
 44
0.0000000001
 40
0.0
 40
0.0
 40
0.0
 40
0.0
 40
0.1288116709
 40
0.2705556641
 40
0.4178221251
 40
0.5622902921
 40
0.696092669
 40
0.8134988347
 40
0.9130091308
 40
1.0
 40
1.0
 40
1.0
 40
1.0
 10
12.4445253927
 20
9.2883427794
 30
0.0
 10
12.437969817
 20
9.2921309688
 30
0.0
 10
12.4231240244
 20
9.2982607352
 30
0.0
 10
12.3989299725
 20
9.303108951
 30
0.0
 10
12.37333747
 20
9.303815802
 30
0.0
 10
12.3484465008
 20
9.3003192599
 30
0.0
 10
12.3262401878
 20
9.2928948951
 30
0.0
 10
12.3084515198
 20
9.2820489353
 30
0.0
 10
12.2963975817
 20
9.2683360883
 30
0.0
 10
12.2933117722
 20
9.257274419
 30
0.0
 10
12.2933091781
 20
9.2521612042
 30
0.0
  0
SPLINE
  5
AA7
100
AcDbEntity
  8
0
100
AcDbSpline
 62
7
  6
CONTINUOUS
 70
0
 71
3
 72
11
 73
7
 74
0
 42
0.0000001
 43
0.0000001
 44
0.0000000001
 40
0.0
 40
0.0
 40
0.0
 40
0.0
 40
0.2895788086
 40
0.5490236357
 40
0.7821692774
 40
1.0
 40
1.0
 40
1.0
 40
1.0
 10
12.2997633745
 20
9.2046909435
 30
0.0
 10
12.2946655494
 20
9.2076367606
 30
0.0
 10
12.2854159079
 20
9.2140164391
 30
0.0
 10
12.2743613723
 20
9.2256448192
 30
0.0
 10
12.2673702495
 20
9.2385118154
 30
0.0
 10
12.2657471443
 20
9.2477442386
 30
0.0
 10
12.2657483243
 20
9.2521732018
 30
0.0
  0
SPLINE
  5
AA8
100
AcDbEntity
  8
0
100
AcDbSpline
 62
7
  6
CONTINUOUS
 70
0
 71
3
 72
11
 73
7
 74
0
 42
0.0000001
 43
0.0000001
 44
0.0000000001
 40
0.0
 40
0.0
 40
0.0
 40
0.0
 40
0.2895788086
 40
0.5490236357
 40
0.7821692774
 40
1.0
 40
1.0
 40
1.0
 40
1.0
 10
15.3272382743
 20
7.3185029121
 30
0.0
 10
15.3221404492
 20
7.3214487291
 30
0.0
 10
15.3128908076
 20
7.3278284077
 30
0.0
 10
15.301836272
 20
7.3394567878
 30
0.0
 10
15.2948451493
 20
7.352323784
 30
0.0
 10
15.2932220441
 20
7.3615562072
 30
0.0
 10
15.2932232241
 20
7.3659851703
 30
0.0
  0
SPLINE
  5
AA9
100
AcDbEntity
  8
0
100
AcDbSpline
 62
7
  6
CONTINUOUS
 70
0
 71
3
 72
15
 73
11
 74
0
 42
0.0000001
 43
0.0000001
 44
0.0000000001
 40
0.0
 40
0.0
 40
0.0
 40
0.0
 40
0.1288116709
 40
0.2705556641
 40
0.4178221251
 40
0.5622902921
 40
0.696092669
 40
0.8134988347
 40
0.9130091308
 40
1.0
 40
1.0
 40
1.0
 40
1.0
 10
15.4720002924
 20
7.402154748
 30
0.0
 10
15.4654447167
 20
7.4059429374
 30
0.0
 10
15.4505989242
 20
7.4120727037
 30
0.0
 10
15.4264048722
 20
7.4169209196
 30
0.0
 10
15.4008123698
 20
7.4176277705
 30
0.0
 10
15.3759214005
 20
7.4141312285
 30
0.0
 10
15.3537150875
 20
7.4067068636
 30
0.0
 10
15.3359264196
 20
7.3958609039
 30
0.0
 10
15.3238724815
 20
7.3821480569
 30
0.0
 10
15.320786672
 20
7.3710863876
 30
0.0
 10
15.3207840778
 20
7.3659731727
 30
0.0
  0
SPLINE
  5
AAA
100
AcDbEntity
  8
0
100
AcDbSpline
 62
7
  6
CONTINUOUS
 70
0
 71
3
 72
9
 73
5
 74
0
 42
0.0000001
 43
0.0000001
 44
0.0000000001
 40
0.0
 40
0.0
 40
0.0
 40
0.0
 40
0.2667037872
 40
1.0
 40
1.0
 40
1.0
 40
1.0
 10
15.4290479201
 20
7.3516047081
 30
0.0
 10
15.4330353048
 20
7.3510795458
 30
0.0
 10
15.4478803631
 20
7.3484926514
 30
0.0
 10
15.4624259703
 20
7.3434245407
 30
0.0
 10
15.4720002924
 20
7.3378919456
 30
0.0
  0
LINE
  5
AAB
100
AcDbEntity
  8
0
100
AcDbLine
 62
7
  6
CONTINUOUS
 10
15.4720002924
 20
7.3378919456
 11
15.4778164921
 21
7.334182095
  0
SPLINE
  5
AAC
100
AcDbEntity
  8
0
100
AcDbSpline
 62
7
  6
CONTINUOUS
 70
0
 71
3
 72
11
 73
7
 74
0
 42
0.0000001
 43
0.0000001
 44
0.0000000001
 40
0.0
 40
0.0
 40
0.0
 40
0.0
 40
0.2177899446
 40
0.4509628435
 40
0.7105346425
 40
1.0
 40
1.0
 40
1.0
 40
1.0
 10
12.6514193066
 20
9.3566981377
 30
0.0
 10
12.6514210198
 20
9.3600750616
 30
0.0
 10
12.6501834443
 20
9.3671157201
 30
0.0
 10
12.64485063
 20
9.376929828
 30
0.0
 10
12.6364161808
 20
9.385794454
 30
0.0
 10
12.6293640273
 20
9.390661955
 30
0.0
 10
12.6254779154
 20
9.3929075743
 30
0.0
  0
LINE
  5
AAD
100
AcDbEntity
  8
0
100
AcDbLine
 62
7
  6
CONTINUOUS
 10
12.2635728699
 20
9.1195151821
 11
12.2693890696
 21
9.1158053315
  0
SPLINE
  5
AAE
100
AcDbEntity
  8
0
100
AcDbSpline
 62
7
  6
CONTINUOUS
 70
0
 71
3
 72
9
 73
5
 74
0
 42
0.0000001
 43
0.0000001
 44
0.0000000001
 40
0.0
 40
0.0
 40
0.0
 40
0.0
 40
0.2667037872
 40
1.0
 40
1.0
 40
1.0
 40
1.0
 10
12.2206204976
 20
9.1332279447
 30
0.0
 10
12.2246078823
 20
9.1327027823
 30
0.0
 10
12.2394529406
 20
9.1301158879
 30
0.0
 10
12.2539985478
 20
9.1250477772
 30
0.0
 10
12.2635728699
 20
9.1195151821
 30
0.0
  0
SPLINE
  5
AAF
100
AcDbEntity
  8
0
100
AcDbSpline
 62
7
  6
CONTINUOUS
 70
0
 71
3
 72
16
 73
12
 74
0
 42
0.0000001
 43
0.0000001
 44
0.0000000001
 40
0.0
 40
0.0
 40
0.0
 40
0.0
 40
0.0429051285
 40
0.0875809506
 40
0.1870314806
 40
0.3043607839
 40
0.4380769905
 40
0.5824538427
 40
0.729640519
 40
0.8712695593
 40
1.0
 40
1.0
 40
1.0
 40
1.0
 10
15.2610334657
 20
7.2131078443
 30
0.0
 10
15.2610325841
 20
7.2097992582
 30
0.0
 10
15.2601430954
 20
7.2030173731
 30
0.0
 10
15.2547711247
 20
7.1894975583
 30
0.0
 10
15.2411784529
 20
7.1738846929
 30
0.0
 10
15.2178495706
 20
7.1597192349
 30
0.0
 10
15.1887362456
 20
7.1499697909
 30
0.0
 10
15.1561001124
 20
7.1453897449
 30
0.0
 10
15.1225468392
 20
7.1463186576
 30
0.0
 10
15.0908262915
 20
7.1526730522
 30
0.0
 10
15.0713642782
 20
7.1607107126
 30
0.0
 10
15.0627692025
 20
7.1656774426
 30
0.0
  0
SPLINE
  5
AB0
100
AcDbEntity
  8
0
100
AcDbSpline
 62
7
  6
CONTINUOUS
 70
0
 71
3
 72
15
 73
11
 74
0
 42
0.0000001
 43
0.0000001
 44
0.0000000001
 40
0.0
 40
0.0
 40
0.0
 40
0.0
 40
0.1288116709
 40
0.2705556641
 40
0.4178221251
 40
0.5622902921
 40
0.696092669
 40
0.8134988347
 40
0.9130091308
 40
1.0
 40
1.0
 40
1.0
 40
1.0
 10
12.2635728699
 20
9.1837779845
 30
0.0
 10
12.2570172942
 20
9.1875661739
 30
0.0
 10
12.2421715017
 20
9.1936959402
 30
0.0
 10
12.2179774497
 20
9.1985441561
 30
0.0
 10
12.1923849473
 20
9.1992510071
 30
0.0
 10
12.167493978
 20
9.195754465
 30
0.0
 10
12.145287665
 20
9.1883301001
 30
0.0
 10
12.1274989971
 20
9.1774841404
 30
0.0
 10
12.115445059
 20
9.1637712934
 30
0.0
 10
12.1123592494
 20
9.1527096241
 30
0.0
 10
12.1123566553
 20
9.1475964093
 30
0.0
  0
SPLINE
  5
AB1
100
AcDbEntity
  8
0
100
AcDbSpline
 62
7
  6
CONTINUOUS
 70
0
 71
3
 72
11
 73
7
 74
0
 42
0.0000001
 43
0.0000001
 44
0.0000000001
 40
0.0
 40
0.0
 40
0.0
 40
0.0
 40
0.2895788086
 40
0.5490236357
 40
0.7821692774
 40
1.0
 40
1.0
 40
1.0
 40
1.0
 10
15.0627692025
 20
7.1656774426
 30
0.0
 10
15.0576713775
 20
7.1686232596
 30
0.0
 10
15.0484217359
 20
7.1750029382
 30
0.0
 10
15.0373672003
 20
7.1866313183
 30
0.0
 10
15.0303760776
 20
7.1994983145
 30
0.0
 10
15.0287529723
 20
7.2087307377
 30
0.0
 10
15.0287541524
 20
7.2131597008
 30
0.0
  0
SPLINE
  5
AB2
100
AcDbEntity
  8
0
100
AcDbSpline
 62
7
  6
CONTINUOUS
 70
0
 71
3
 72
15
 73
11
 74
0
 42
0.0000001
 43
0.0000001
 44
0.0000000001
 40
0.0
 40
0.0
 40
0.0
 40
0.0
 40
0.1288116709
 40
0.2705556641
 40
0.4178221251
 40
0.5622902921
 40
0.696092669
 40
0.8134988347
 40
0.9130091308
 40
1.0
 40
1.0
 40
1.0
 40
1.0
 10
15.2075312207
 20
7.2493292785
 30
0.0
 10
15.200975645
 20
7.2531174679
 30
0.0
 10
15.1861298525
 20
7.2592472342
 30
0.0
 10
15.1619358005
 20
7.2640954501
 30
0.0
 10
15.1363432981
 20
7.2648023011
 30
0.0
 10
15.1114523288
 20
7.261305759
 30
0.0
 10
15.0892460158
 20
7.2538813941
 30
0.0
 10
15.0714573479
 20
7.2430354344
 30
0.0
 10
15.0594034098
 20
7.2293225874
 30
0.0
 10
15.0563176003
 20
7.2182609181
 30
0.0
 10
15.0563150061
 20
7.2131477032
 30
0.0
  0
SPLINE
  5
AB3
100
AcDbEntity
  8
0
100
AcDbSpline
 62
7
  6
CONTINUOUS
 70
0
 71
3
 72
9
 73
5
 74
0
 42
0.0000001
 43
0.0000001
 44
0.0000000001
 40
0.0
 40
0.0
 40
0.0
 40
0.0
 40
0.4792982182
 40
1.0
 40
1.0
 40
1.0
 40
1.0
 10
15.5576926554
 20
7.3902918759
 30
0.0
 10
15.5576904383
 20
7.3853274774
 30
0.0
 10
15.5597585369
 20
7.374893165
 30
0.0
 10
15.5653033103
 20
7.36591735
 30
0.0
 10
15.5687043433
 20
7.3617316557
 30
0.0
  0
SPLINE
  5
AB4
100
AcDbEntity
  8
0
100
AcDbSpline
 62
7
  6
CONTINUOUS
 70
0
 71
3
 72
11
 73
7
 74
0
 42
0.0000001
 43
0.0000001
 44
0.0000000001
 40
0.0
 40
0.0
 40
0.0
 40
0.0
 40
0.2895788086
 40
0.5490236357
 40
0.7821692774
 40
1.0
 40
1.0
 40
1.0
 40
1.0
 10
12.1188108517
 20
9.1001261486
 30
0.0
 10
12.1137130267
 20
9.1030719656
 30
0.0
 10
12.1044633851
 20
9.1094516442
 30
0.0
 10
12.0934088495
 20
9.1210800243
 30
0.0
 10
12.0864177268
 20
9.1339470205
 30
0.0
 10
12.0847946215
 20
9.1431794437
 30
0.0
 10
12.0847958016
 20
9.1476084068
 30
0.0
  0
SPLINE
  5
AB5
100
AcDbEntity
  8
0
100
AcDbSpline
 62
7
  6
CONTINUOUS
 70
0
 71
3
 72
9
 73
5
 74
0
 42
0.0000001
 43
0.0000001
 44
0.0000000001
 40
0.0
 40
0.0
 40
0.0
 40
0.0
 40
0.2667037872
 40
1.0
 40
1.0
 40
1.0
 40
1.0
 10
15.1645788484
 20
7.1987792386
 30
0.0
 10
15.1685662331
 20
7.1982540763
 30
0.0
 10
15.1834112914
 20
7.1956671819
 30
0.0
 10
15.1979568986
 20
7.1905990712
 30
0.0
 10
15.2075312207
 20
7.1850664761
 30
0.0
  0
LINE
  5
AB6
100
AcDbEntity
  8
0
100
AcDbLine
 62
7
  6
CONTINUOUS
 10
15.2075312207
 20
7.1850664761
 11
15.2133474204
 21
7.1813566255
  0
SPLINE
  5
AB7
100
AcDbEntity
  8
0
100
AcDbSpline
 62
7
  6
CONTINUOUS
 70
0
 71
3
 72
11
 73
7
 74
0
 42
0.0000001
 43
0.0000001
 44
0.0000000001
 40
0.0
 40
0.0
 40
0.0
 40
0.0
 40
0.2128510235
 40
0.4417774301
 40
0.7022916367
 40
1.0
 40
1.0
 40
1.0
 40
1.0
 10
13.4370226176
 20
8.9504170705
 30
0.0
 10
13.4370240723
 20
8.9529290917
 30
0.0
 10
13.4359879526
 20
8.9581919821
 30
0.0
 10
13.4314720892
 20
8.9653151524
 30
0.0
 10
13.4244083999
 20
8.9714902027
 30
0.0
 10
13.4186039868
 20
8.9746981727
 30
0.0
 10
13.4154052743
 20
8.9761517363
 30
0.0
  0
SPLINE
  5
AB8
100
AcDbEntity
  8
0
100
AcDbSpline
 62
7
  6
CONTINUOUS
 70
0
 71
3
 72
12
 73
8
 74
0
 42
0.0000001
 43
0.0000001
 44
0.0000000001
 40
0.0
 40
0.0
 40
0.0
 40
0.0
 40
0.1066824681
 40
0.2155273412
 40
0.4470671974
 40
0.7070685075
 40
1.0
 40
1.0
 40
1.0
 40
1.0
 10
13.2377643143
 20
8.2958973064
 30
0.0
 10
13.2377687518
 20
8.3064076446
 30
0.0
 10
13.2396611457
 20
8.3276865696
 30
0.0
 10
13.251076003
 20
8.3704199564
 30
0.0
 10
13.2804153746
 20
8.4228923518
 30
0.0
 10
13.3347246444
 20
8.478734034
 30
0.0
 10
13.379978083
 20
8.5096635334
 30
0.0
 10
13.4049657057
 20
8.5241028217
 30
0.0
  0
LINE
  5
AB9
100
AcDbEntity
  8
0
100
AcDbLine
 62
7
  6
CONTINUOUS
 10
12.0826203472
 20
9.0149503872
 11
12.0884365469
 21
9.0112405365
  0
SPLINE
  5
ABA
100
AcDbEntity
  8
0
100
AcDbSpline
 62
7
  6
CONTINUOUS
 70
0
 71
3
 72
9
 73
5
 74
0
 42
0.0000001
 43
0.0000001
 44
0.0000000001
 40
0.0
 40
0.0
 40
0.0
 40
0.0
 40
0.2667037872
 40
1.0
 40
1.0
 40
1.0
 40
1.0
 10
12.0396679748
 20
9.0286631497
 30
0.0
 10
12.0436553595
 20
9.0281379873
 30
0.0
 10
12.0585004178
 20
9.025551093
 30
0.0
 10
12.0730460251
 20
9.0204829822
 30
0.0
 10
12.0826203472
 20
9.0149503872
 30
0.0
  0
SPLINE
  5
ABB
100
AcDbEntity
  8
0
100
AcDbSpline
 62
7
  6
CONTINUOUS
 70
0
 71
3
 72
15
 73
11
 74
0
 42
0.0000001
 43
0.0000001
 44
0.0000000001
 40
0.0
 40
0.0
 40
0.0
 40
0.0
 40
0.1288116709
 40
0.2705556641
 40
0.4178221251
 40
0.5622902921
 40
0.696092669
 40
0.8134988347
 40
0.9130091308
 40
1.0
 40
1.0
 40
1.0
 40
1.0
 10
12.0826203472
 20
9.0792131896
 30
0.0
 10
12.0760647715
 20
9.083001379
 30
0.0
 10
12.0612189789
 20
9.0891311453
 30
0.0
 10
12.037024927
 20
9.0939793612
 30
0.0
 10
12.0114324245
 20
9.0946862121
 30
0.0
 10
11.9865414553
 20
9.0911896701
 30
0.0
 10
11.9643351423
 20
9.0837653052
 30
0.0
 10
11.9465464743
 20
9.0729193455
 30
0.0
 10
11.9344925362
 20
9.0592064985
 30
0.0
 10
11.9314067267
 20
9.0481448291
 30
0.0
 10
11.9314041326
 20
9.0430316143
 30
0.0
  0
SPLINE
  5
ABC
100
AcDbEntity
  8
0
100
AcDbSpline
 62
7
  6
CONTINUOUS
 70
0
 71
3
 72
11
 73
7
 74
0
 42
0.0000001
 43
0.0000001
 44
0.0000000001
 40
0.0
 40
0.0
 40
0.0
 40
0.0
 40
0.2895788086
 40
0.5490236357
 40
0.7821692774
 40
1.0
 40
1.0
 40
1.0
 40
1.0
 10
11.937858329
 20
8.9955613536
 30
0.0
 10
11.9327605039
 20
8.9985071707
 30
0.0
 10
11.9235108624
 20
9.0048868493
 30
0.0
 10
11.9124563268
 20
9.0165152294
 30
0.0
 10
11.905465204
 20
9.0293822256
 30
0.0
 10
11.9038420988
 20
9.0386146488
 30
0.0
 10
11.9038432788
 20
9.0430436119
 30
0.0
  0
LINE
  5
ABD
100
AcDbEntity
  8
0
100
AcDbLine
 62
7
  6
CONTINUOUS
 10
13.3137957777
 20
8.1262700175
 11
13.310437232
 21
8.1282054577
  0
SPLINE
  5
ABE
100
AcDbEntity
  8
0
100
AcDbSpline
 62
7
  6
CONTINUOUS
 70
0
 71
3
 72
9
 73
5
 74
0
 42
0.0000001
 43
0.0000001
 44
0.0000000001
 40
0.0
 40
0.0
 40
0.0
 40
0.0
 40
0.517470377
 40
1.0
 40
1.0
 40
1.0
 40
1.0
 10
13.310437232
 20
8.1282054577
 30
0.0
 10
13.0332029761
 20
8.2878890784
 30
0.0
 10
12.4806392893
 20
8.5685464237
 30
0.0
 10
11.8968230016
 20
8.7785527567
 30
0.0
 10
11.6093599031
 20
8.8583430671
 30
0.0
  0
SPLINE
  5
ABF
100
AcDbEntity
  8
0
100
AcDbSpline
 62
7
  6
CONTINUOUS
 70
0
 71
3
 72
9
 73
5
 74
0
 42
0.0000001
 43
0.0000001
 44
0.0000000001
 40
0.0
 40
0.0
 40
0.0
 40
0.0
 40
0.4825178731
 40
1.0
 40
1.0
 40
1.0
 40
1.0
 10
11.6093599031
 20
8.8666430518
 30
0.0
 10
11.8974063797
 20
8.7865963945
 30
0.0
 10
12.4823996328
 20
8.5759352412
 30
0.0
 10
13.0360310641
 20
8.2944508524
 30
0.0
 10
13.3137957777
 20
8.1343028729
 30
0.0
  0
SPLINE
  5
AC0
100
AcDbEntity
  8
0
100
AcDbSpline
 62
7
  6
CONTINUOUS
 70
0
 71
3
 72
11
 73
7
 74
0
 42
0.0000001
 43
0.0000001
 44
0.0000000001
 40
0.0
 40
0.0
 40
0.0
 40
0.0
 40
0.291423598
 40
0.5519581951
 40
0.7850113983
 40
1.0
 40
1.0
 40
1.0
 40
1.0
 10
13.4049657057
 20
8.5160618211
 30
0.0
 10
13.38130408
 20
8.5023887703
 30
0.0
 10
13.3382230233
 20
8.4732025375
 30
0.0
 10
13.2856444367
 20
8.4209202512
 30
0.0
 10
13.2504941871
 20
8.3636384288
 30
0.0
 10
13.2399158795
 20
8.3221006312
 30
0.0
 10
13.2383258864
 20
8.3020029836
 30
0.0
  0
SPLINE
  5
AC1
100
AcDbEntity
  8
0
100
AcDbSpline
 62
7
  6
CONTINUOUS
 70
0
 71
3
 72
16
 73
12
 74
0
 42
0.0000001
 43
0.0000001
 44
0.0000000001
 40
0.0
 40
0.0
 40
0.0
 40
0.0
 40
0.0429051285
 40
0.0875809506
 40
0.1870314806
 40
0.3043607839
 40
0.4380769905
 40
0.5824538427
 40
0.729640519
 40
0.8712695593
 40
1.0
 40
1.0
 40
1.0
 40
1.0
 10
12.3170751149
 20
9.1475565503
 30
0.0
 10
12.3170742333
 20
9.1442479642
 30
0.0
 10
12.3161847446
 20
9.1374660791
 30
0.0
 10
12.3108127739
 20
9.1239462643
 30
0.0
 10
12.2972201021
 20
9.1083333989
 30
0.0
 10
12.2738912198
 20
9.0941679409
 30
0.0
 10
12.2447778948
 20
9.0844184969
 30
0.0
 10
12.2121417616
 20
9.079838451
 30
0.0
 10
12.1785884884
 20
9.0807673636
 30
0.0
 10
12.1468679407
 20
9.0871217582
 30
0.0
 10
12.1274059274
 20
9.0951594186
 30
0.0
 10
12.1188108517
 20
9.1001261486
 30
0.0
  0
SPLINE
  5
AC2
100
AcDbEntity
  8
0
100
AcDbSpline
 62
7
  6
CONTINUOUS
 70
0
 71
3
 72
15
 73
11
 74
0
 42
0.0000001
 43
0.0000001
 44
0.0000000001
 40
0.0
 40
0.0
 40
0.0
 40
0.0
 40
0.125864175
 40
0.2675100503
 40
0.4170220894
 40
0.565142725
 40
0.7025940395
 40
0.8218547722
 40
0.9195502315
 40
1.0
 40
1.0
 40
1.0
 40
1.0
 10
13.4154052743
 20
8.9761517363
 30
0.0
 10
13.4098812242
 20
8.9786619833
 30
0.0
 10
13.3974247564
 20
8.9824389084
 30
0.0
 10
13.3773739231
 20
8.9847222337
 30
0.0
 10
13.3561320036
 20
8.9838703832
 30
0.0
 10
13.335448813
 20
8.9799472349
 30
0.0
 10
13.3169946944
 20
8.9732920898
 30
0.0
 10
13.3022497013
 20
8.9643942907
 30
0.0
 10
13.2921871757
 20
8.9538133561
 30
0.0
 10
13.2893946031
 20
8.9452043897
 30
0.0
 10
13.2893922195
 20
8.9413260696
 30
0.0
  0
SPLINE
  5
AC3
100
AcDbEntity
  8
0
100
AcDbSpline
 62
7
  6
CONTINUOUS
 70
0
 71
3
 72
11
 73
7
 74
0
 42
0.0000001
 43
0.0000001
 44
0.0000000001
 40
0.0
 40
0.0
 40
0.0
 40
0.0
 40
0.2314899262
 40
0.4712401807
 40
0.7258741827
 40
1.0
 40
1.0
 40
1.0
 40
1.0
 10
13.2574498599
 20
8.2961976426
 30
0.0
 10
13.2574432727
 20
8.2832327511
 30
0.0
 10
13.2604188021
 20
8.2567532142
 30
0.0
 10
13.2736098435
 20
8.2180091975
 30
0.0
 10
13.2951767297
 20
8.180495581
 30
0.0
 10
13.3140933078
 20
8.1575345449
 30
0.0
 10
13.3246427851
 20
8.1463803475
 30
0.0
  0
SPLINE
  5
AC4
100
AcDbEntity
  8
0
100
AcDbSpline
 62
7
  6
CONTINUOUS
 70
0
 71
3
 72
9
 73
5
 74
0
 42
0.0000001
 43
0.0000001
 44
0.0000000001
 40
0.0
 40
0.0
 40
0.0
 40
0.0
 40
0.2345551203
 40
1.0
 40
1.0
 40
1.0
 40
1.0
 10
13.3246427851
 20
8.1463803475
 30
0.0
 10
13.3310789817
 20
8.1395752135
 30
0.0
 10
13.3597372281
 20
8.1117160648
 30
0.0
 10
13.3926091573
 20
8.0883941389
 30
0.0
 10
13.4188851305
 20
8.0727761864
 30
0.0
  0
SPLINE
  5
AC5
100
AcDbEntity
  8
0
100
AcDbSpline
 62
7
  6
CONTINUOUS
 70
0
 71
3
 72
9
 73
5
 74
0
 42
0.0000001
 43
0.0000001
 44
0.0000000001
 40
0.0
 40
0.0
 40
0.0
 40
0.0
 40
0.4687020289
 40
1.0
 40
1.0
 40
1.0
 40
1.0
 10
13.4363603324
 20
6.674007554
 30
0.0
 10
13.4419744487
 20
6.6772523139
 30
0.0
 10
13.455897167
 20
6.6810437128
 30
0.0
 10
13.4698715698
 20
6.6786533404
 30
0.0
 10
13.476882734
 20
6.6764462774
 30
0.0
  0
SPLINE
  5
AC6
100
AcDbEntity
  8
0
100
AcDbSpline
 62
7
  6
CONTINUOUS
 70
0
 71
3
 72
16
 73
12
 74
0
 42
0.0000001
 43
0.0000001
 44
0.0000000001
 40
0.0
 40
0.0
 40
0.0
 40
0.0
 40
0.0429051285
 40
0.0875809506
 40
0.1870314806
 40
0.3043607839
 40
0.4380769905
 40
0.5824538427
 40
0.729640519
 40
0.8712695593
 40
1.0
 40
1.0
 40
1.0
 40
1.0
 10
12.4980276376
 20
9.2521213452
 30
0.0
 10
12.4980267561
 20
9.2488127591
 30
0.0
 10
12.4971372674
 20
9.2420308741
 30
0.0
 10
12.4917652966
 20
9.2285110592
 30
0.0
 10
12.4781726248
 20
9.2128981938
 30
0.0
 10
12.4548437425
 20
9.1987327358
 30
0.0
 10
12.4257304175
 20
9.1889832918
 30
0.0
 10
12.3930942844
 20
9.1844032459
 30
0.0
 10
12.3595410112
 20
9.1853321586
 30
0.0
 10
12.3278204634
 20
9.1916865532
 30
0.0
 10
12.3083584501
 20
9.1997242135
 30
0.0
 10
12.2997633745
 20
9.2046909435
 30
0.0
  0
SPLINE
  5
AC7
100
AcDbEntity
  8
0
100
AcDbSpline
 62
7
  6
CONTINUOUS
 70
0
 71
3
 72
11
 73
7
 74
0
 42
0.0000001
 43
0.0000001
 44
0.0000000001
 40
0.0
 40
0.0
 40
0.0
 40
0.0
 40
0.2177899446
 40
0.4509628435
 40
0.7105346425
 40
1.0
 40
1.0
 40
1.0
 40
1.0
 10
15.4979416836
 20
7.3659453114
 30
0.0
 10
15.4979433968
 20
7.3693222353
 30
0.0
 10
15.4967058213
 20
7.3763628938
 30
0.0
 10
15.491373007
 20
7.3861770017
 30
0.0
 10
15.4829385578
 20
7.3950416276
 30
0.0
 10
15.4758864043
 20
7.3999091286
 30
0.0
 10
15.4720002924
 20
7.402154748
 30
0.0
  0
SPLINE
  5
AC8
100
AcDbEntity
  8
0
100
AcDbSpline
 62
7
  6
CONTINUOUS
 70
0
 71
3
 72
11
 73
7
 74
0
 42
0.0000001
 43
0.0000001
 44
0.0000000001
 40
0.0
 40
0.0
 40
0.0
 40
0.0
 40
0.249761386
 40
0.5123409028
 40
0.7683638516
 40
1.0
 40
1.0
 40
1.0
 40
1.0
 10
14.6832328856
 20
5.9793476446
 30
0.0
 10
14.6928259854
 20
5.9712805904
 30
0.0
 10
14.7104998415
 20
5.9522835633
 30
0.0
 10
14.7309195664
 20
5.9193174901
 30
0.0
 10
14.744456958
 20
5.8839499721
 30
0.0
 10
14.7481902015
 20
5.8594521418
 30
0.0
 10
14.7481902015
 20
5.8478275974
 30
0.0
  0
SPLINE
  5
AC9
100
AcDbEntity
  8
0
100
AcDbSpline
 62
7
  6
CONTINUOUS
 70
0
 71
3
 72
11
 73
7
 74
0
 42
0.0000001
 43
0.0000001
 44
0.0000000001
 40
0.0
 40
0.0
 40
0.0
 40
0.0
 40
0.2288910675
 40
0.4722692564
 40
0.7296562255
 40
1.0
 40
1.0
 40
1.0
 40
1.0
 10
13.476882734
 20
6.6764462774
 30
0.0
 10
13.5788843747
 20
6.6443369097
 30
0.0
 10
13.7852617508
 20
6.5646318894
 30
0.0
 10
14.0885672947
 20
6.4078254822
 30
0.0
 10
14.3915919599
 20
6.2120783555
 30
0.0
 10
14.58656633
 20
6.0606367348
 30
0.0
 10
14.6832328856
 20
5.9793476446
 30
0.0
  0
SPLINE
  5
ACA
100
AcDbEntity
  8
0
100
AcDbSpline
 62
7
  6
CONTINUOUS
 70
0
 71
3
 72
9
 73
5
 74
0
 42
0.0000001
 43
0.0000001
 44
0.0000000001
 40
0.0
 40
0.0
 40
0.0
 40
0.0
 40
0.2597798725
 40
1.0
 40
1.0
 40
1.0
 40
1.0
 10
15.8489186574
 20
6.4528554062
 30
0.0
 10
15.8509255789
 20
6.4516397531
 30
0.0
 10
15.8586851613
 20
6.4470170757
 30
0.0
 10
15.8665220848
 20
6.4425218231
 30
0.0
 10
15.8723943914
 20
6.4393255138
 30
0.0
  0
LINE
  5
ACB
100
AcDbEntity
  8
0
100
AcDbLine
 62
7
  6
CONTINUOUS
 10
15.9704538051
 20
6.5230854179
 11
15.964960695
 21
6.5264189831
  0
SPLINE
  5
ACC
100
AcDbEntity
  8
0
100
AcDbSpline
 62
7
  6
CONTINUOUS
 70
0
 71
3
 72
9
 73
5
 74
0
 42
0.0000001
 43
0.0000001
 44
0.0000000001
 40
0.0
 40
0.0
 40
0.0
 40
0.0
 40
0.4999983792
 40
1.0
 40
1.0
 40
1.0
 40
1.0
 10
15.9469780711
 20
6.4824242618
 30
0.0
 10
15.9511597046
 20
6.4890400211
 30
0.0
 10
15.9591845865
 20
6.5024842363
 30
0.0
 10
15.9668151779
 20
6.516156095
 30
0.0
 10
15.9704538051
 20
6.5230854179
 30
0.0
  0
LINE
  5
ACD
100
AcDbEntity
  8
0
100
AcDbLine
 62
7
  6
CONTINUOUS
 10
15.9413386478
 20
6.485504405
 11
15.9469780711
 21
6.4824242618
  0
LINE
  5
ACE
100
AcDbEntity
  8
0
100
AcDbLine
 62
7
  6
CONTINUOUS
 10
15.8795857012
 20
6.5756235994
 11
15.8723943914
 21
6.5796005121
  0
SPLINE
  5
ACF
100
AcDbEntity
  8
0
100
AcDbSpline
 62
7
  6
CONTINUOUS
 70
0
 71
3
 72
9
 73
5
 74
0
 42
0.0000001
 43
0.0000001
 44
0.0000000001
 40
0.0
 40
0.0
 40
0.0
 40
0.0
 40
0.2401563907
 40
1.0
 40
1.0
 40
1.0
 40
1.0
 10
15.9704538051
 20
6.6091693677
 30
0.0
 10
15.9686012498
 20
6.6102977521
 30
0.0
 10
15.9608449735
 20
6.6149263971
 30
0.0
 10
15.9529971312
 20
6.619401849
 30
0.0
 10
15.9469780711
 20
6.6226992601
 30
0.0
  0
LINE
  5
AD0
100
AcDbEntity
  8
0
100
AcDbLine
 62
7
  6
CONTINUOUS
 10
15.8489186574
 20
6.5389393559
 11
15.8559636539
 21
6.5347090213
  0
SPLINE
  5
AD1
100
AcDbEntity
  8
0
100
AcDbSpline
 62
7
  6
CONTINUOUS
 70
0
 71
3
 72
9
 73
5
 74
0
 42
0.0000001
 43
0.0000001
 44
0.0000000001
 40
0.0
 40
0.0
 40
0.0
 40
0.0
 40
0.4734148695
 40
1.0
 40
1.0
 40
1.0
 40
1.0
 10
15.3437388855
 20
7.3360791075
 30
0.0
 10
15.3502282586
 20
7.340216353
 30
0.0
 10
15.3652200949
 20
7.3469637608
 30
0.0
 10
15.3811907556
 20
7.3504869082
 30
0.0
 10
15.3896778414
 20
7.3516047081
 30
0.0
  0
ELLIPSE
  5
AD2
100
AcDbEntity
  8
0
100
AcDbEllipse
 62
7
  6
CONTINUOUS
 10
1.7742773671
 20
5.9914677678
 30
0.0
 11
0.1777805118
 21
0.0
 31
0.0
 40
0.1333333333
 41
-0.9799146525
 42
0.9799146525
  0
ELLIPSE
  5
AD3
100
AcDbEntity
  8
0
100
AcDbEllipse
 62
7
  6
CONTINUOUS
 10
12.9808582305
 20
9.0752732969
 30
0.0
 11
0.1775505009
 21
0.0181903065
 31
0.0
 40
0.496993511
 41
3.0912031545
 42
4.856031698
  0
ENDSEC
  0
SECTION
  2
OBJECTS
  0
DICTIONARY
  5
C
100
AcDbDictionary
280
0
281
1
  3
ACAD_GROUP
350
D
  3
ACAD_MLINESTYLE
350
17
  3
ACAD_LAYOUT
350
1A
  3
ACAD_PLOTSETTINGS
350
19
  3
ACAD_PLOTSTYLENAME
350
E
  0
DICTIONARY
  5
D
102
{ACAD_REACTORS
330
C
102
}
100
AcDbDictionary
280
0
281
1
  0
ACDBDICTIONARYWDFLT
  5
E
102
{ACAD_REACTORS
330
C
102
}
100
AcDbDictionary
281
1
  3
Normal
350
F
100
AcDbDictionaryWithDefault
340
F
  0
DICTIONARY
  5
17
102
{ACAD_REACTORS
330
C
102
}
100
AcDbDictionary
280
0
281
1
  3
Standard
350
18
  0
DICTIONARY
  5
19
102
{ACAD_REACTORS
330
C
102
}
100
AcDbDictionary
281
1
  0
DICTIONARY
  5
1A
102
{ACAD_REACTORS
330
C
102
}
100
AcDbDictionary
281
1
  3
Model
350
AD4
  3
Layout1
350
AD5
  0
ACDBPLACEHOLDER
  5
F
102
{ACAD_REACTORS
330
E
102
}
  0
MLINESTYLE
  5
18
102
{ACAD_REACTORS
330
17
102
}
100
AcDbMlineStyle
  2
STANDARD
 70
0
  3

 62
256
 51
90.0
 52
90.0
 71
2
 49
0.5
 62
256
  6
BYLAYER
 49
-0.5
 62
256
  6
BYLAYER
  0
LAYOUT
  5
AD4
102
{ACAD_REACTORS
330
1A
102
}
100
AcDbPlotSettings
  1

  2
none_device
  4
ANSI_B_(17.00_x_11.00_Inches)
  6

 40
0.0
 41
0.0
 42
0.0
 43
0.0
 44
431.8
 45
279.4
 46
0.0
 47
0.0
 48
0.0
 49
0.0
140
0.0
141
0.0
142
1.0
143
1.0
 70
1024
 72
0
 73
0
 74
0
  7

 75
0
147
1.0
148
0.0
149
0.0
100
AcDbLayout
  1
Model
 70
0
 71
0
 10
0.0
 20
0.0
 11
17.0
 21
11.0
 12
0.0
 22
0.0
 32
0.0
 14
0.0
 24
0.0
 34
0.0
 15
0.0
 25
0.0
 35
0.0
146
0.0
 13
0.0
 23
0.0
 33
0.0
 16
1.0
 26
0.0
 36
0.0
 17
0.0
 27
1.0
 37
0.0
 76
0
330
1FF
345
0
346
0
  0
LAYOUT
  5
AD5
102
{ACAD_REACTORS
330
1A
102
}
100
AcDbPlotSettings
  1

  2
none_device
  4
ANSI_B_(17.00_x_11.00_Inches)
  6

 40
0.0
 41
0.0
 42
0.0
 43
0.0
 44
431.8
 45
279.4
 46
0.0
 47
0.0
 48
0.0
 49
0.0
140
0.0
141
0.0
142
1.0
143
1.0
 70
0
 72
0
 73
0
 74
0
  7

 75
0
147
1.0
148
0.0
149
0.0
100
AcDbLayout
  1
Layout1
 70
0
 71
1
 10
0.0
 20
0.0
 11
17.0
 21
11.0
 12
0.0
 22
0.0
 32
0.0
 14
0.0
 24
0.0
 34
0.0
 15
0.0
 25
0.0
 35
0.0
146
0.0
 13
0.0
 23
0.0
 33
0.0
 16
1.0
 26
0.0
 36
0.0
 17
0.0
 27
1.0
 37
0.0
 76
0
330
200
345
0
346
0
  0
ENDSEC
  0
EOF
