999
DXF file: 1606-xle120e.dxf
999
Pro/ENGINEER 2010140 by Parametric Technology Corporation
  0
SECTION
  2
HEADER
  9
$ACADVER
  1
AC1018
  9
$DWGCODEPAGE
  3
ANSI_1252
  9
$EXTMAX
 10
17.0
 20
11.0
 30
0.0
  9
$EXTMIN
 10
0.0
 20
0.0
 30
0.0
  9
$LIMMIN
 10
0.0
 20
0.0
  9
$LIMMAX
 10
17.0
 20
11.0
  9
$VIEWCTR
 10
8.5
 20
5.5
  9
$VIEWSIZE
 40
11.0
  9
$CLAYER
  8
0
  9
$LTSCALE
 40
0.935
  9
$CELTYPE
  6
BYLAYER
  9
$DIMSCALE
 40
1.0
  9
$DIMASZ
 40
0.1875
  9
$DIMEXO
 40
0.10625
  9
$DIMDLI
 40
0.646
  9
$DIMEXE
 40
0.306
  9
$DIMCEN
 40
0.153
  9
$DIMLFAC
 40
1.0
  9
$DIMBLK
  1
_CLOSED
  9
$DIMTXT
 40
0.15625
  9
$DIMTOL
 70
0
  9
$DIMLIM
 70
0
  9
$DIMTFAC
 40
1.0
  9
$PDMODE
 70
3
  9
$PDSIZE
 40
0.3125
  9
$HANDSEED
  5
967
  9
$TILEMODE
 70
1
  9
$MEASUREMENT
 70
0
  9
$INSUNITS
 70
1
  0
ENDSEC
  0
SECTION
  2
CLASSES
  0
CLASS
  1
ACDBDICTIONARYWDFLT
  2
AcDbDictionaryWithDefault
  3
AutoCAD 2000
 90
0
 91
1
280
0
281
0
  0
CLASS
  1
ACDBPLACEHOLDER
  2
AcDbPlaceHolder
  3
AutoCAD 2000
 90
0
 91
1
280
0
281
0
  0
CLASS
  1
LAYOUT
  2
AcDbLayout
  3
AutoCAD 2000
 90
0
 91
0
280
0
281
0
  0
ENDSEC
  0
SECTION
  2
TABLES
  0
TABLE
  2
VPORT
  5
8
100
AcDbSymbolTable
 70
2
  0
VPORT
  5
1F4
100
AcDbSymbolTableRecord
100
AcDbViewportTableRecord
  2
*ACTIVE
 70
0
 10
0.0
 20
0.0
 11
1.0
 21
1.0
 12
8.5
 22
5.5
 13
0.0
 23
0.0
 14
1.0
 24
1.0
 15
0.0
 25
0.0
 16
0.0
 26
0.0
 36
1.0
 17
0.0
 27
0.0
 37
0.0
 40
11.0
 41
1.5454545455
 42
50.0
 43
0.0
 44
0.0
 50
0.0
 51
0.0
 71
0
 72
100
 73
1
 74
1
 75
0
 76
0
 77
0
 78
0
  0
ENDTAB
  0
TABLE
  2
LTYPE
  5
5
100
AcDbSymbolTable
 70
6
  0
LTYPE
  5
14
100
AcDbSymbolTableRecord
100
AcDbLinetypeTableRecord
  2
BYBLOCK
 70
0
  3

 72
65
 73
0
 40
0.0
  0
LTYPE
  5
15
100
AcDbSymbolTableRecord
100
AcDbLinetypeTableRecord
  2
BYLAYER
 70
0
  3

 72
65
 73
0
 40
0.0
  0
LTYPE
  5
16
100
AcDbSymbolTableRecord
100
AcDbLinetypeTableRecord
  2
CONTINUOUS
 70
64
  3
Solid line
 72
65
 73
0
 40
0.0
  0
LTYPE
  5
1F5
100
AcDbSymbolTableRecord
100
AcDbLinetypeTableRecord
  2
CENTER
 70
64
  3
____ _ ____ _ ____ _ ____ _ ____ _ ____ _ ____
 72
65
 73
4
 40
0.6
 49
0.375
 74
0
 49
-0.075
 74
0
 49
0.075
 74
0
 49
-0.075
 74
0
  0
LTYPE
  5
1F6
100
AcDbSymbolTableRecord
100
AcDbLinetypeTableRecord
  2
HIDDEN
 70
64
  3
- - - - - - - - - - - - - - - - - - - -
 72
65
 73
2
 40
0.2
 49
0.1
 74
0
 49
-0.1
 74
0
  0
LTYPE
  5
1F7
100
AcDbSymbolTableRecord
100
AcDbLinetypeTableRecord
  2
PHANTOM
 70
64
  3
_____ _ _ _____ _ _ _____ _ _ _____
 72
65
 73
6
 40
0.8
 49
0.45
 74
0
 49
-0.05
 74
0
 49
0.1
 74
0
 49
-0.05
 74
0
 49
0.1
 74
0
 49
-0.05
 74
0
  0
LTYPE
  5
1F8
100
AcDbSymbolTableRecord
100
AcDbLinetypeTableRecord
  2
DOT
 70
64
  3
. . . . . . . . . . . . . . . . . . . .
 72
65
 73
2
 40
0.2
 49
0.1
 74
0
 49
-0.1
 74
0
  0
LTYPE
  5
1F9
100
AcDbSymbolTableRecord
100
AcDbLinetypeTableRecord
  2
DASHED
 70
64
  3
- - - - - - - - - - - - - - - - - - - -
 72
65
 73
2
 40
0.2
 49
0.1
 74
0
 49
-0.1
 74
0
  0
ENDTAB
  0
TABLE
  2
LAYER
  5
2
100
AcDbSymbolTable
 70
36
  0
LAYER
  5
10
100
AcDbSymbolTableRecord
100
AcDbLayerTableRecord
  2
0
 70
0
 62
7
  6
CONTINUOUS
370
-3
390
F
  0
LAYER
  5
1FA
100
AcDbSymbolTableRecord
100
AcDbLayerTableRecord
  2
DEFAULT_1
 70
0
 62
7
  6
CENTER
370
-3
390
F
  0
LAYER
  5
1FB
100
AcDbSymbolTableRecord
100
AcDbLayerTableRecord
  2
DEFAULT_2
 70
0
 62
8
  6
HIDDEN
370
-3
390
F
  0
LAYER
  5
1FC
100
AcDbSymbolTableRecord
100
AcDbLayerTableRecord
  2
DEFAULT_3
 70
0
 62
7
  6
PHANTOM
370
-3
390
F
  0
ENDTAB
  0
TABLE
  2
STYLE
  5
3
100
AcDbSymbolTable
 70
1
  0
STYLE
  5
11
100
AcDbSymbolTableRecord
100
AcDbTextStyleTableRecord
  2
STANDARD
 70
0
 40
0.0
 41
0.8
 50
0.0
 71
0
 42
0.2
  3
txt
  4

  0
STYLE
  5
1FD
100
AcDbSymbolTableRecord
100
AcDbTextStyleTableRecord
  2
TEXTSTYLE_1
 70
0
 40
0.0
 41
0.8
 50
0.0
 71
0
 42
0.2
  3
gdt
  4

  0
ENDTAB
  0
TABLE
  2
VIEW
  5
6
100
AcDbSymbolTable
 70
0
  0
ENDTAB
  0
TABLE
  2
UCS
  5
7
100
AcDbSymbolTable
 70
0
  0
ENDTAB
  0
TABLE
  2
APPID
  5
9
100
AcDbSymbolTable
 70
1
  0
APPID
  5
1FE
100
AcDbSymbolTableRecord
100
AcDbRegAppTableRecord
  2
ACAD
 70
0
  0
ENDTAB
  0
TABLE
  2
BLOCK_RECORD
  5
1
100
AcDbSymbolTable
 70
0
  0
BLOCK_RECORD
  5
1FF
100
AcDbSymbolTableRecord
100
AcDbBlockTableRecord
  2
*Model_Space
  0
BLOCK_RECORD
  5
200
100
AcDbSymbolTableRecord
100
AcDbBlockTableRecord
  2
*Paper_Space
  0
BLOCK_RECORD
  5
201
100
AcDbSymbolTableRecord
100
AcDbBlockTableRecord
  2
_CLOSED
  0
BLOCK_RECORD
  5
202
100
AcDbSymbolTableRecord
100
AcDbBlockTableRecord
  2
*D0
  0
BLOCK_RECORD
  5
203
100
AcDbSymbolTableRecord
100
AcDbBlockTableRecord
  2
*D1
  0
BLOCK_RECORD
  5
204
100
AcDbSymbolTableRecord
100
AcDbBlockTableRecord
  2
*D2
  0
ENDTAB
  0
TABLE
  2
DIMSTYLE
  5
A
100
AcDbSymbolTable
 70
1
100
AcDbDimStyleTable
 71
0
  0
DIMSTYLE
105
205
100
AcDbSymbolTableRecord
100
AcDbDimStyleTableRecord
  2
STANDARD
 70
0
  3

  4

 40
1.0
 41
0.1875
 42
0.0625
 43
0.38
 44
0.18
 45
0.0
 46
0.0
 47
0.01
 48
0.01
140
0.15625
141
0.09
142
0.0
143
25.4
144
1.0
145
0.0
146
1.0
147
0.09
 71
0.0
 72
0.0
 73
1
 74
1
 75
0
 76
0
 77
0
 78
0
170
0
171
2
172
0
173
0
174
0
175
0
176
0
177
0
178
0
270
2
271
2
272
2
273
2
274
2
275
0
280
0
281
0
282
0
283
1
284
0
285
0
286
0
287
3
288
0
340
11
341
201
342
201
343
201
344
201
  0
DIMSTYLE
105
206
100
AcDbSymbolTableRecord
100
AcDbDimStyleTableRecord
  2
DIMSTYLE_1
 70
0
  3

  4

 40
1.0
 41
0.1875
 42
0.0625
 43
0.38
 44
0.18
 45
0.0
 46
0.0
 47
0.0
 48
0.0
140
0.15625
141
0.09
142
0.0
143
25.4
144
1.0
145
0.0
146
1.0
147
0.09
 71
0.0
 72
0.0
 73
1
 74
1
 75
0
 76
0
 77
0
 78
0
170
0
171
2
172
0
173
0
174
0
175
0
176
0
177
0
178
0
270
2
271
2
272
2
273
2
274
2
275
0
280
0
281
0
282
0
283
1
284
0
285
0
286
0
287
3
288
0
340
11
341
201
342
201
343
201
344
201
  0
ENDTAB
  0
ENDSEC
  0
SECTION
  2
BLOCKS
  0
BLOCK
  5
20
100
AcDbEntity
  8
0
100
AcDbBlockBegin
  2
*Model_Space
 70
0
 10
0.0
 20
0.0
 30
0.0
  3
*Model_Space
  1

  0
ENDBLK
  5
21
100
AcDbEntity
  8
0
100
AcDbBlockEnd
  0
BLOCK
  5
1C
100
AcDbEntity
  8
0
100
AcDbBlockBegin
  2
*Paper_Space
 70
0
 10
0.0
 20
0.0
 30
0.0
  3
*Paper_Space
  1

  0
ENDBLK
  5
1D
100
AcDbEntity
  8
0
100
AcDbBlockEnd
  0
BLOCK
  5
207
100
AcDbEntity
  8
0
100
AcDbBlockBegin
  2
_CLOSED
 70
64
 10
0.0
 20
0.0
  3
_CLOSED
  1

  0
LINE
  5
208
100
AcDbEntity
  8
0
  6
BYBLOCK
 62
0
100
AcDbLine
 10
0.0
 20
0.0
 11
-1.0
 21
0.1666666667
  0
LINE
  5
209
100
AcDbEntity
  8
0
  6
BYBLOCK
 62
0
100
AcDbLine
 10
-1.0
 20
0.1666666667
 11
-1.0
 21
-0.1666666667
  0
LINE
  5
20A
100
AcDbEntity
  8
0
  6
BYBLOCK
 62
0
100
AcDbLine
 10
-1.0
 20
-0.1666666667
 11
0.0
 21
0.0
  0
LINE
  5
20B
100
AcDbEntity
  8
0
  6
BYBLOCK
 62
0
100
AcDbLine
 10
-1.0
 20
0.0
 11
0.0
 21
0.0
  0
ENDBLK
  5
20C
100
AcDbEntity
  8
0
  6
BYBLOCK
 62
0
100
AcDbBlockEnd
  0
BLOCK
  5
20D
100
AcDbEntity
  8
0
100
AcDbBlockBegin
 62
7
  6
CONTINUOUS
  2
*D0
 70
65
 10
0.0
 20
0.0
  3
*D0
  1

  0
MTEXT
  5
20E
100
AcDbEntity
  8
0
100
AcDbMText
 62
7
  6
CONTINUOUS
  7
STANDARD
 71
2
 72
1
 10
10.0679055448
 20
3.4623088571
 30
0.0
 11
1.0
 21
0.0
 31
0.0
 44
0.9
  1
4.61\P[117.00]
 40
0.15625
 41
1.0
  0
LINE
  5
20F
100
AcDbEntity
  8
0
100
AcDbLine
 62
7
  6
CONTINUOUS
 10
9.6245850471
 20
1.0810372702
 11
10.4429055448
 21
1.0810372702
  0
LINE
  5
210
100
AcDbEntity
  8
0
100
AcDbLine
 62
7
  6
CONTINUOUS
 10
9.486663308
 20
5.6873304439
 11
10.4429055448
 21
5.6873304439
  0
LINE
  5
211
100
AcDbEntity
  8
0
100
AcDbLine
 62
7
  6
CONTINUOUS
 10
10.3179055448
 20
1.0810372702
 11
10.3179055448
 21
2.9935588571
  0
LINE
  5
212
100
AcDbEntity
  8
0
100
AcDbLine
 62
7
  6
CONTINUOUS
 10
10.3179055448
 20
5.6873304439
 11
10.3179055448
 21
3.5404338571
  0
INSERT
  5
213
100
AcDbEntity
  8
0
100
AcDbBlockReference
 62
7
  6
CONTINUOUS
  2
_CLOSED
 10
10.3179055448
 20
1.0810372702
 41
0.1875
 42
0.1875
 43
0.1875
 50
270.0
  0
INSERT
  5
214
100
AcDbEntity
  8
0
100
AcDbBlockReference
 62
7
  6
CONTINUOUS
  2
_CLOSED
 10
10.3179055448
 20
5.6873304439
 41
0.1875
 42
0.1875
 43
0.1875
 50
90.0
  0
ENDBLK
  5
215
100
AcDbEntity
  8
0
  6
BYBLOCK
 62
0
100
AcDbBlockEnd
  0
BLOCK
  5
216
100
AcDbEntity
  8
0
100
AcDbBlockBegin
 62
7
  6
CONTINUOUS
  2
*D1
 70
65
 10
0.0
 20
0.0
  3
*D1
  1

  0
MTEXT
  5
217
100
AcDbEntity
  8
0
100
AcDbMText
 62
7
  6
CONTINUOUS
  7
STANDARD
 71
2
 72
1
 10
3.3291531151
 20
8.2128167716
 30
0.0
 11
1.0
 21
0.0
 31
0.0
 44
0.9
  1
1.26\P[32.00]
 40
0.15625
 41
0.875
  0
LINE
  5
218
100
AcDbEntity
  8
0
100
AcDbLine
 62
7
  6
CONTINUOUS
 10
4.36359795
 20
8.7646130314
 11
3.3916531151
 21
8.7646130314
  0
LINE
  5
219
100
AcDbEntity
  8
0
100
AcDbLine
 62
7
  6
CONTINUOUS
 10
4.36359795
 20
7.5047705117
 11
3.3916531151
 21
7.5047705117
  0
LINE
  5
21A
100
AcDbEntity
  8
0
100
AcDbLine
 62
7
  6
CONTINUOUS
 10
3.5166531151
 20
8.7646130314
 11
3.5166531151
 21
8.2909417716
  0
LINE
  5
21B
100
AcDbEntity
  8
0
100
AcDbLine
 62
7
  6
CONTINUOUS
 10
3.5166531151
 20
7.5047705117
 11
3.5166531151
 21
7.7440667716
  0
INSERT
  5
21C
100
AcDbEntity
  8
0
100
AcDbBlockReference
 62
7
  6
CONTINUOUS
  2
_CLOSED
 10
3.5166531151
 20
8.7646130314
 41
0.1875
 42
0.1875
 43
0.1875
 50
90.0
  0
INSERT
  5
21D
100
AcDbEntity
  8
0
100
AcDbBlockReference
 62
7
  6
CONTINUOUS
  2
_CLOSED
 10
3.5166531151
 20
7.5047705117
 41
0.1875
 42
0.1875
 43
0.1875
 50
270.0
  0
ENDBLK
  5
21E
100
AcDbEntity
  8
0
  6
BYBLOCK
 62
0
100
AcDbBlockEnd
  0
BLOCK
  5
21F
100
AcDbEntity
  8
0
100
AcDbBlockBegin
 62
7
  6
CONTINUOUS
  2
*D2
 70
65
 10
0.0
 20
0.0
  3
*D2
  1

  0
MTEXT
  5
220
100
AcDbEntity
  8
0
100
AcDbMText
 62
7
  6
CONTINUOUS
  7
STANDARD
 71
2
 72
1
 10
6.8670428319
 20
9.4107765169
 30
0.0
 11
1.0
 21
0.0
 31
0.0
 44
0.9
  1
4.88{\Ftxt.shx;\W1.000000;\H0.156250; }[124.00]
 40
0.15625
 41
1.65625
  0
LINE
  5
221
100
AcDbEntity
  8
0
100
AcDbLine
 62
7
  6
CONTINUOUS
 10
4.42609795
 20
8.8271130314
 11
4.42609795
 21
9.4576515169
  0
LINE
  5
222
100
AcDbEntity
  8
0
100
AcDbLine
 62
7
  6
CONTINUOUS
 10
9.3079877138
 20
8.8271130314
 11
9.3079877138
 21
9.4576515169
  0
LINE
  5
223
100
AcDbEntity
  8
0
100
AcDbLine
 62
7
  6
CONTINUOUS
 10
4.42609795
 20
9.3326515169
 11
5.9607928319
 21
9.3326515169
  0
LINE
  5
224
100
AcDbEntity
  8
0
100
AcDbLine
 62
7
  6
CONTINUOUS
 10
9.3079877138
 20
9.3326515169
 11
7.7732928319
 21
9.3326515169
  0
INSERT
  5
225
100
AcDbEntity
  8
0
100
AcDbBlockReference
 62
7
  6
CONTINUOUS
  2
_CLOSED
 10
4.42609795
 20
9.3326515169
 41
0.1875
 42
0.1875
 43
0.1875
 50
180.0
  0
INSERT
  5
226
100
AcDbEntity
  8
0
100
AcDbBlockReference
 62
7
  6
CONTINUOUS
  2
_CLOSED
 10
9.3079877138
 20
9.3326515169
 41
0.1875
 42
0.1875
 43
0.1875
  0
ENDBLK
  5
227
100
AcDbEntity
  8
0
  6
BYBLOCK
 62
0
100
AcDbBlockEnd
  0
ENDSEC
  0
SECTION
  2
ENTITIES
  0
DIMENSION
  5
228
100
AcDbEntity
  8
0
100
AcDbDimension
 62
7
  6
CONTINUOUS
  2
*D0
 10
10.3179055448
 20
5.6873304439
 11
10.1616555448
 21
3.2669963571
 70
160
 71
2
 42
116.9998466118
  3
DIMSTYLE_1
100
AcDbAlignedDimension
 13
9.6245850471
 23
1.0810372702
 14
9.486663308
 24
5.6873304439
 50
90.0
100
AcDbRotatedDimension
  0
DIMENSION
  5
229
100
AcDbEntity
  8
0
100
AcDbDimension
 62
7
  6
CONTINUOUS
  2
*D1
 10
3.5166531151
 20
7.5047705117
 11
3.3604031151
 21
8.0175042716
 70
160
 71
2
 42
32.0
  3
DIMSTYLE_1
100
AcDbAlignedDimension
 13
4.36359795
 23
8.7646130314
 14
4.36359795
 24
7.5047705117
 50
270.0
100
AcDbRotatedDimension
  0
DIMENSION
  5
22A
100
AcDbEntity
  8
0
100
AcDbDimension
 62
7
  6
CONTINUOUS
  2
*D2
 10
9.3079877138
 20
9.3326515169
 11
6.7107928319
 21
9.3326515169
 70
160
 71
2
 42
124.0
  3
DIMSTYLE_1
100
AcDbAlignedDimension
 13
4.42609795
 23
8.8271130314
 14
9.3079877138
 24
8.8271130314
100
AcDbRotatedDimension
  0
LINE
  5
22B
100
AcDbEntity
  8
0
100
AcDbLine
 62
7
  6
CONTINUOUS
 10
0.0
 20
0.0
 11
0.0
 21
11.0
  0
LINE
  5
22C
100
AcDbEntity
  8
0
100
AcDbLine
 62
7
  6
CONTINUOUS
 10
0.0
 20
0.0
 11
17.0
 21
0.0
  0
LINE
  5
22D
100
AcDbEntity
  8
0
100
AcDbLine
 62
7
  6
CONTINUOUS
 10
0.0
 20
11.0
 11
17.0
 21
11.0
  0
LINE
  5
22E
100
AcDbEntity
  8
0
100
AcDbLine
 62
7
  6
CONTINUOUS
 10
17.0
 20
0.0
 11
17.0
 21
11.0
  0
LINE
  5
22F
100
AcDbEntity
  8
0
100
AcDbLine
 62
7
  6
CONTINUOUS
 10
4.3424365327
 20
1.0810372702
 11
4.3424365327
 21
1.2690293962
  0
LINE
  5
230
100
AcDbEntity
  8
0
100
AcDbLine
 62
7
  6
CONTINUOUS
 10
4.4142869264
 20
5.0477695537
 11
4.4142869264
 21
4.6146986875
  0
LINE
  5
231
100
AcDbEntity
  8
0
100
AcDbLine
 62
7
  6
CONTINUOUS
 10
4.42609795
 20
1.3083994749
 11
4.42609795
 21
5.3233601049
  0
LINE
  5
232
100
AcDbEntity
  8
0
100
AcDbLine
 62
7
  6
CONTINUOUS
 10
4.4457829894
 20
5.3291725412
 11
4.4457829894
 21
5.3394310363
  0
LINE
  5
233
100
AcDbEntity
  8
0
100
AcDbLine
 62
7
  6
CONTINUOUS
 10
4.5451924382
 20
5.3649234128
 11
4.5451924382
 21
5.4650923883
  0
LINE
  5
234
100
AcDbEntity
  8
0
100
AcDbLine
 62
7
  6
CONTINUOUS
 10
9.4064129107
 20
0.9068246718
 11
7.5757042493
 21
0.9068246718
  0
LINE
  5
235
100
AcDbEntity
  8
0
100
AcDbLine
 62
7
  6
CONTINUOUS
 10
6.2764916508
 20
0.9068246718
 11
6.0009010996
 21
0.9068246718
  0
LINE
  5
236
100
AcDbEntity
  8
0
100
AcDbLine
 62
7
  6
CONTINUOUS
 10
4.7794444067
 20
5.430393704
 11
4.7794444067
 21
5.4650923883
  0
LINE
  5
237
100
AcDbEntity
  8
0
100
AcDbLine
 62
7
  6
CONTINUOUS
 10
6.1288538556
 20
1.0160766403
 11
6.207594013
 21
1.0160766403
  0
LINE
  5
238
100
AcDbEntity
  8
0
100
AcDbLine
 62
7
  6
CONTINUOUS
 10
7.5757042493
 20
1.0810372702
 11
6.1288538556
 21
1.0810372702
  0
LINE
  5
239
100
AcDbEntity
  8
0
100
AcDbLine
 62
7
  6
CONTINUOUS
 10
6.0009010996
 20
1.0810372702
 11
4.3424365327
 21
1.0810372702
  0
LINE
  5
23A
100
AcDbEntity
  8
0
100
AcDbLine
 62
7
  6
CONTINUOUS
 10
6.207594013
 20
1.0820215222
 11
6.1288538556
 21
1.0820215222
  0
LINE
  5
23B
100
AcDbEntity
  8
0
100
AcDbLine
 62
7
  6
CONTINUOUS
 10
6.1288538556
 20
1.1607616797
 11
6.207594013
 21
1.1607616797
  0
LINE
  5
23C
100
AcDbEntity
  8
0
100
AcDbLine
 62
7
  6
CONTINUOUS
 10
7.0638932256
 20
1.1794624671
 11
7.457594013
 21
1.1794624671
  0
LINE
  5
23D
100
AcDbEntity
  8
0
100
AcDbLine
 62
7
  6
CONTINUOUS
 10
6.1288538556
 20
1.2099742781
 11
6.9024652651
 21
1.2099742781
  0
LINE
  5
23E
100
AcDbEntity
  8
0
100
AcDbLine
 62
7
  6
CONTINUOUS
 10
8.0284601548
 20
1.2296593175
 11
7.7134995248
 21
1.2296593175
  0
LINE
  5
23F
100
AcDbEntity
  8
0
100
AcDbLine
 62
7
  6
CONTINUOUS
 10
6.0009010996
 20
1.2296593175
 11
5.6859404697
 21
1.2296593175
  0
LINE
  5
240
100
AcDbEntity
  8
0
100
AcDbLine
 62
7
  6
CONTINUOUS
 10
6.207594013
 20
1.0160766403
 11
6.2764916508
 21
0.9668640419
  0
LINE
  5
241
100
AcDbEntity
  8
0
100
AcDbLine
 62
7
  6
CONTINUOUS
 10
5.0117278713
 20
1.2690293962
 11
5.0117278713
 21
1.3083994749
  0
LINE
  5
242
100
AcDbEntity
  8
0
100
AcDbLine
 62
7
  6
CONTINUOUS
 10
5.0117278713
 20
1.2690293962
 11
4.3424365327
 21
1.2690293962
  0
LINE
  5
243
100
AcDbEntity
  8
0
100
AcDbLine
 62
7
  6
CONTINUOUS
 10
8.7568066115
 20
1.2690293962
 11
9.4064129107
 21
1.2690293962
  0
LINE
  5
244
100
AcDbEntity
  8
0
100
AcDbLine
 62
7
  6
CONTINUOUS
 10
5.7449955878
 20
1.2887144356
 11
5.9418459815
 21
1.2887144356
  0
LINE
  5
245
100
AcDbEntity
  8
0
100
AcDbLine
 62
7
  6
CONTINUOUS
 10
7.772554643
 20
1.2887144356
 11
7.9694050367
 21
1.2887144356
  0
LINE
  5
246
100
AcDbEntity
  8
0
100
AcDbLine
 62
7
  6
CONTINUOUS
 10
9.3079877138
 20
1.3083994749
 11
4.42609795
 21
1.3083994749
  0
LINE
  5
247
100
AcDbEntity
  8
0
100
AcDbLine
 62
7
  6
CONTINUOUS
 10
7.5757042493
 20
1.4650923883
 11
6.1583814146
 21
1.4650923883
  0
LINE
  5
248
100
AcDbEntity
  8
0
100
AcDbLine
 62
7
  6
CONTINUOUS
 10
5.2922396823
 20
5.5420264983
 11
5.2922396823
 21
5.6186356954
  0
LINE
  5
249
100
AcDbEntity
  8
0
100
AcDbLine
 62
7
  6
CONTINUOUS
 10
6.9812054225
 20
1.0810372702
 11
6.9693943989
 21
1.093930971
  0
LINE
  5
24A
100
AcDbEntity
  8
0
100
AcDbLine
 62
7
  6
CONTINUOUS
 10
6.9917241459
 20
1.1125333332
 11
6.9024652651
 21
1.2099742781
  0
LINE
  5
24B
100
AcDbEntity
  8
0
100
AcDbLine
 62
7
  6
CONTINUOUS
 10
5.5875152729
 20
5.6678482938
 11
5.5875152729
 21
5.5917555378
  0
LINE
  5
24C
100
AcDbEntity
  8
0
100
AcDbLine
 62
7
  6
CONTINUOUS
 10
5.6859404697
 20
1.2296593175
 11
5.6859404697
 21
1.3083994749
  0
LINE
  5
24D
100
AcDbEntity
  8
0
100
AcDbLine
 62
7
  6
CONTINUOUS
 10
5.7449955878
 20
1.3083994749
 11
5.7449955878
 21
1.2887144356
  0
LINE
  5
24E
100
AcDbEntity
  8
0
100
AcDbLine
 62
7
  6
CONTINUOUS
 10
6.9457829894
 20
1.3083994749
 11
7.0638932256
 21
1.1794624671
  0
LINE
  5
24F
100
AcDbEntity
  8
0
100
AcDbLine
 62
7
  6
CONTINUOUS
 10
5.9418459815
 20
1.2887144356
 11
5.9418459815
 21
1.3083994749
  0
LINE
  5
250
100
AcDbEntity
  8
0
100
AcDbLine
 62
7
  6
CONTINUOUS
 10
6.0009010996
 20
0.9068246718
 11
6.0009010996
 21
1.2296593175
  0
LINE
  5
251
100
AcDbEntity
  8
0
100
AcDbLine
 62
7
  6
CONTINUOUS
 10
6.1288538556
 20
1.2099742781
 11
6.1288538556
 21
1.1607616797
  0
LINE
  5
252
100
AcDbEntity
  8
0
100
AcDbLine
 62
7
  6
CONTINUOUS
 10
6.1288538556
 20
1.0820215222
 11
6.1288538556
 21
1.0160766403
  0
LINE
  5
253
100
AcDbEntity
  8
0
100
AcDbLine
 62
7
  6
CONTINUOUS
 10
6.1583814146
 20
1.4650923883
 11
6.1583814146
 21
3.9379872503
  0
LINE
  5
254
100
AcDbEntity
  8
0
100
AcDbLine
 62
7
  6
CONTINUOUS
 10
6.207594013
 20
1.1607616797
 11
6.207594013
 21
1.0820215222
  0
LINE
  5
255
100
AcDbEntity
  8
0
100
AcDbLine
 62
7
  6
CONTINUOUS
 10
6.2764916508
 20
0.9668640419
 11
6.2764916508
 21
0.9068246718
  0
LINE
  5
256
100
AcDbEntity
  8
0
100
AcDbLine
 62
7
  6
CONTINUOUS
 10
7.5757042493
 20
0.9068246718
 11
7.5166491311
 21
1.0091111368
  0
LINE
  5
257
100
AcDbEntity
  8
0
100
AcDbLine
 62
7
  6
CONTINUOUS
 10
6.7883026745
 20
5.6773297046
 11
6.7883026745
 21
5.6871726378
  0
LINE
  5
258
100
AcDbEntity
  8
0
100
AcDbLine
 62
7
  6
CONTINUOUS
 10
9.42609795
 20
4.2812880911
 11
9.4202586797
 21
4.2790859643
  0
LINE
  5
259
100
AcDbEntity
  8
0
100
AcDbLine
 62
7
  6
CONTINUOUS
 10
7.457594013
 20
1.1794624671
 11
7.457594013
 21
1.3083994749
  0
LINE
  5
25A
100
AcDbEntity
  8
0
100
AcDbLine
 62
7
  6
CONTINUOUS
 10
7.5757042493
 20
3.9379872503
 11
7.5757042493
 21
1.4650923883
  0
LINE
  5
25B
100
AcDbEntity
  8
0
100
AcDbLine
 62
7
  6
CONTINUOUS
 10
7.5757042493
 20
0.9068246718
 11
7.5757042493
 21
1.0810372702
  0
LINE
  5
25C
100
AcDbEntity
  8
0
100
AcDbLine
 62
7
  6
CONTINUOUS
 10
7.7134995248
 20
1.2296593175
 11
7.7134995248
 21
0.9068246718
  0
LINE
  5
25D
100
AcDbEntity
  8
0
100
AcDbLine
 62
7
  6
CONTINUOUS
 10
7.772554643
 20
1.3083994749
 11
7.772554643
 21
1.2887144356
  0
LINE
  5
25E
100
AcDbEntity
  8
0
100
AcDbLine
 62
7
  6
CONTINUOUS
 10
9.3079877138
 20
4.098950656
 11
9.3572003122
 21
4.098950656
  0
LINE
  5
25F
100
AcDbEntity
  8
0
100
AcDbLine
 62
7
  6
CONTINUOUS
 10
7.9694050367
 20
1.2887144356
 11
7.9694050367
 21
1.3083994749
  0
LINE
  5
260
100
AcDbEntity
  8
0
100
AcDbLine
 62
7
  6
CONTINUOUS
 10
8.0284601548
 20
1.3083994749
 11
8.0284601548
 21
1.2296593175
  0
LINE
  5
261
100
AcDbEntity
  8
0
100
AcDbLine
 62
7
  6
CONTINUOUS
 10
9.3079877138
 20
4.3745412072
 11
9.3572003122
 21
4.3745412072
  0
LINE
  5
262
100
AcDbEntity
  8
0
100
AcDbLine
 62
7
  6
CONTINUOUS
 10
9.3197987374
 20
4.6146986875
 11
9.3079877138
 21
4.6146986875
  0
LINE
  5
263
100
AcDbEntity
  8
0
100
AcDbLine
 62
7
  6
CONTINUOUS
 10
4.4142869264
 20
4.6146986875
 11
4.42609795
 21
4.6146986875
  0
LINE
  5
264
100
AcDbEntity
  8
0
100
AcDbLine
 62
7
  6
CONTINUOUS
 10
8.7568066115
 20
1.3083994749
 11
8.7568066115
 21
1.2690293962
  0
LINE
  5
265
100
AcDbEntity
  8
0
100
AcDbLine
 62
7
  6
CONTINUOUS
 10
6.9693943989
 20
1.093930971
 11
6.9917241459
 21
1.1125333332
  0
LINE
  5
266
100
AcDbEntity
  8
0
100
AcDbLine
 62
7
  6
CONTINUOUS
 10
9.3197987374
 20
5.0477695537
 11
9.3079877138
 21
5.0477695537
  0
LINE
  5
267
100
AcDbEntity
  8
0
100
AcDbLine
 62
7
  6
CONTINUOUS
 10
4.4142869264
 20
5.0477695537
 11
4.42609795
 21
5.0477695537
  0
LINE
  5
268
100
AcDbEntity
  8
0
100
AcDbLine
 62
7
  6
CONTINUOUS
 10
9.42609795
 20
4.1922037722
 11
9.4202586797
 21
4.1944058989
  0
LINE
  5
269
100
AcDbEntity
  8
0
100
AcDbLine
 62
7
  6
CONTINUOUS
 10
8.9546412571
 20
5.430393704
 11
8.9546412571
 21
5.4650923883
  0
LINE
  5
26A
100
AcDbEntity
  8
0
100
AcDbLine
 62
7
  6
CONTINUOUS
 10
9.1888932256
 20
5.3648930821
 11
9.1888932256
 21
5.4650923883
  0
LINE
  5
26B
100
AcDbEntity
  8
0
100
AcDbLine
 62
7
  6
CONTINUOUS
 10
7.5166491311
 20
1.0091111368
 11
7.5757042493
 21
1.0446199474
  0
LINE
  5
26C
100
AcDbEntity
  8
0
100
AcDbLine
 62
7
  6
CONTINUOUS
 10
9.1888775748
 20
5.4650923883
 11
8.954656908
 21
5.4650923883
  0
LINE
  5
26D
100
AcDbEntity
  8
0
100
AcDbLine
 62
7
  6
CONTINUOUS
 10
4.7794287559
 20
5.4650923883
 11
4.5452080891
 21
5.4650923883
  0
LINE
  5
26E
100
AcDbEntity
  8
0
100
AcDbLine
 62
7
  6
CONTINUOUS
 10
9.2883026745
 20
5.3291725412
 11
9.2883026745
 21
5.3394310363
  0
LINE
  5
26F
100
AcDbEntity
  8
0
100
AcDbLine
 62
7
  6
CONTINUOUS
 10
9.3079877138
 20
5.3233601049
 11
9.3079877138
 21
1.3083994749
  0
LINE
  5
270
100
AcDbEntity
  8
0
100
AcDbLine
 62
7
  6
CONTINUOUS
 10
9.3197987374
 20
4.6146986875
 11
9.3197987374
 21
5.0477695537
  0
LINE
  5
271
100
AcDbEntity
  8
0
100
AcDbLine
 62
7
  6
CONTINUOUS
 10
9.4064129107
 20
1.2690293962
 11
9.4064129107
 21
0.9068246718
  0
LINE
  5
272
100
AcDbEntity
  8
0
100
AcDbLine
 62
7
  6
CONTINUOUS
 10
9.42609795
 20
4.1711454017
 11
9.42609795
 21
4.1922037722
  0
LINE
  5
273
100
AcDbEntity
  8
0
100
AcDbLine
 62
7
  6
CONTINUOUS
 10
9.42609795
 20
4.2156875611
 11
9.42609795
 21
4.2578043021
  0
LINE
  5
274
100
AcDbEntity
  8
0
100
AcDbLine
 62
7
  6
CONTINUOUS
 10
9.42609795
 20
4.2812880911
 11
9.42609795
 21
4.3023464616
  0
LINE
  5
275
100
AcDbEntity
  8
0
100
AcDbLine
 62
7
  6
CONTINUOUS
 10
5.2922396823
 20
5.6186356954
 11
5.5875152729
 21
5.6678482938
  0
LINE
  5
276
100
AcDbEntity
  8
0
100
AcDbLine
 62
7
  6
CONTINUOUS
 10
4.3424365327
 20
7.8984712991
 11
4.3424365327
 21
8.370912244
  0
LINE
  5
277
100
AcDbEntity
  8
0
100
AcDbLine
 62
7
  6
CONTINUOUS
 10
4.4142869264
 20
8.5972901968
 11
4.4142869264
 21
7.652408307
  0
LINE
  5
278
100
AcDbEntity
  8
0
100
AcDbLine
 62
7
  6
CONTINUOUS
 10
4.42609795
 20
7.5047705117
 11
4.42609795
 21
8.7646130314
  0
LINE
  5
279
100
AcDbEntity
  8
0
100
AcDbLine
 62
7
  6
CONTINUOUS
 10
4.4457829894
 20
7.5244555511
 11
4.4457829894
 21
7.652408307
  0
LINE
  5
27A
100
AcDbEntity
  8
0
100
AcDbLine
 62
7
  6
CONTINUOUS
 10
4.4457829894
 20
8.5972901968
 11
4.4457829894
 21
8.744927992
  0
LINE
  5
27B
100
AcDbEntity
  8
0
100
AcDbLine
 62
7
  6
CONTINUOUS
 10
4.5048381075
 20
7.652408307
 11
4.5048381075
 21
8.5972901968
  0
LINE
  5
27C
100
AcDbEntity
  8
0
100
AcDbLine
 62
7
  6
CONTINUOUS
 10
4.7804286587
 20
7.652408307
 11
4.7804286587
 21
8.5972901968
  0
LINE
  5
27D
100
AcDbEntity
  8
0
100
AcDbLine
 62
7
  6
CONTINUOUS
 10
4.6845895022
 20
8.5292898899
 11
4.6623184225
 21
8.5070188102
  0
LINE
  5
27E
100
AcDbEntity
  8
0
100
AcDbLine
 62
7
  6
CONTINUOUS
 10
4.6344795728
 20
8.4791799605
 11
4.6122084931
 21
8.4569088808
  0
LINE
  5
27F
100
AcDbEntity
  8
0
100
AcDbLine
 62
7
  6
CONTINUOUS
 10
4.6400473428
 20
8.4290700312
 11
4.6623184225
 21
8.4513411109
  0
LINE
  5
280
100
AcDbEntity
  8
0
100
AcDbLine
 62
7
  6
CONTINUOUS
 10
4.6901572721
 20
8.4791799605
 11
4.7124283519
 21
8.5014510403
  0
LINE
  5
281
100
AcDbEntity
  8
0
100
AcDbLine
 62
7
  6
CONTINUOUS
 10
4.6122084931
 20
7.7482474635
 11
4.6400473428
 21
7.7204086139
  0
LINE
  5
282
100
AcDbEntity
  8
0
100
AcDbLine
 62
7
  6
CONTINUOUS
 10
4.5837378996
 20
7.8212602165
 11
4.6344795728
 21
7.7705185432
  0
LINE
  5
283
100
AcDbEntity
  8
0
100
AcDbLine
 62
7
  6
CONTINUOUS
 10
4.6623184225
 20
7.7426796936
 11
4.7137462129
 21
7.6912519032
  0
LINE
  5
284
100
AcDbEntity
  8
0
100
AcDbLine
 62
7
  6
CONTINUOUS
 10
4.7408989454
 20
7.71977687
 11
4.6901572721
 21
7.7705185432
  0
LINE
  5
285
100
AcDbEntity
  8
0
100
AcDbLine
 62
7
  6
CONTINUOUS
 10
4.6623184225
 20
7.7983573929
 11
4.6108906321
 21
7.8497851833
  0
LINE
  5
286
100
AcDbEntity
  8
0
100
AcDbLine
 62
7
  6
CONTINUOUS
 10
4.7124283519
 20
7.7927896229
 11
4.6845895022
 21
7.8206284726
  0
LINE
  5
287
100
AcDbEntity
  8
0
100
AcDbLine
 62
7
  6
CONTINUOUS
 10
5.2922396823
 20
8.2528020078
 11
5.2922396823
 21
8.6071327165
  0
LINE
  5
288
100
AcDbEntity
  8
0
100
AcDbLine
 62
7
  6
CONTINUOUS
 10
4.6845895022
 20
8.2930694175
 11
4.6623184225
 21
8.2707983378
  0
LINE
  5
289
100
AcDbEntity
  8
0
100
AcDbLine
 62
7
  6
CONTINUOUS
 10
4.6344795728
 20
8.2429594881
 11
4.6122084931
 21
8.2206884084
  0
LINE
  5
28A
100
AcDbEntity
  8
0
100
AcDbLine
 62
7
  6
CONTINUOUS
 10
4.6400473428
 20
8.1928495587
 11
4.6623184225
 21
8.2151206385
  0
LINE
  5
28B
100
AcDbEntity
  8
0
100
AcDbLine
 62
7
  6
CONTINUOUS
 10
4.6901572721
 20
8.2429594881
 11
4.7124283519
 21
8.2652305678
  0
LINE
  5
28C
100
AcDbEntity
  8
0
100
AcDbLine
 62
7
  6
CONTINUOUS
 10
4.6122084931
 20
7.9844679359
 11
4.6400473428
 21
7.9566290863
  0
LINE
  5
28D
100
AcDbEntity
  8
0
100
AcDbLine
 62
7
  6
CONTINUOUS
 10
4.5837378996
 20
8.0574806889
 11
4.6344795728
 21
8.0067390157
  0
LINE
  5
28E
100
AcDbEntity
  8
0
100
AcDbLine
 62
7
  6
CONTINUOUS
 10
4.6623184225
 20
7.978900166
 11
4.7137462129
 21
7.9274723756
  0
LINE
  5
28F
100
AcDbEntity
  8
0
100
AcDbLine
 62
7
  6
CONTINUOUS
 10
4.7408989454
 20
7.9559973424
 11
4.6901572721
 21
8.0067390157
  0
LINE
  5
290
100
AcDbEntity
  8
0
100
AcDbLine
 62
7
  6
CONTINUOUS
 10
4.6623184225
 20
8.0345778653
 11
4.6108906321
 21
8.0860056557
  0
LINE
  5
291
100
AcDbEntity
  8
0
100
AcDbLine
 62
7
  6
CONTINUOUS
 10
4.7124283519
 20
8.0290100954
 11
4.6845895022
 21
8.056848945
  0
LINE
  5
292
100
AcDbEntity
  8
0
100
AcDbLine
 62
7
  6
CONTINUOUS
 10
4.6845895022
 20
8.056848945
 11
4.6623184225
 21
8.0345778653
  0
LINE
  5
293
100
AcDbEntity
  8
0
100
AcDbLine
 62
7
  6
CONTINUOUS
 10
4.6344795728
 20
8.0067390157
 11
4.6122084931
 21
7.9844679359
  0
LINE
  5
294
100
AcDbEntity
  8
0
100
AcDbLine
 62
7
  6
CONTINUOUS
 10
4.6400473428
 20
7.9566290863
 11
4.6623184225
 21
7.978900166
  0
LINE
  5
295
100
AcDbEntity
  8
0
100
AcDbLine
 62
7
  6
CONTINUOUS
 10
4.6901572721
 20
8.0067390157
 11
4.7124283519
 21
8.0290100954
  0
LINE
  5
296
100
AcDbEntity
  8
0
100
AcDbLine
 62
7
  6
CONTINUOUS
 10
4.6122084931
 20
8.2206884084
 11
4.6400473428
 21
8.1928495587
  0
LINE
  5
297
100
AcDbEntity
  8
0
100
AcDbLine
 62
7
  6
CONTINUOUS
 10
4.5837378996
 20
8.2937011613
 11
4.6344795728
 21
8.2429594881
  0
LINE
  5
298
100
AcDbEntity
  8
0
100
AcDbLine
 62
7
  6
CONTINUOUS
 10
4.6623184225
 20
8.2151206385
 11
4.7137462129
 21
8.163692848
  0
LINE
  5
299
100
AcDbEntity
  8
0
100
AcDbLine
 62
7
  6
CONTINUOUS
 10
4.7408989454
 20
8.1922178149
 11
4.6901572721
 21
8.2429594881
  0
LINE
  5
29A
100
AcDbEntity
  8
0
100
AcDbLine
 62
7
  6
CONTINUOUS
 10
4.6623184225
 20
8.2707983378
 11
4.6108906321
 21
8.3222261282
  0
LINE
  5
29B
100
AcDbEntity
  8
0
100
AcDbLine
 62
7
  6
CONTINUOUS
 10
4.7124283519
 20
8.2652305678
 11
4.6845895022
 21
8.2930694175
  0
LINE
  5
29C
100
AcDbEntity
  8
0
100
AcDbLine
 62
7
  6
CONTINUOUS
 10
4.6122084931
 20
8.4569088808
 11
4.6400473428
 21
8.4290700312
  0
LINE
  5
29D
100
AcDbEntity
  8
0
100
AcDbLine
 62
7
  6
CONTINUOUS
 10
5.5875152729
 20
8.6071327165
 11
5.5875152729
 21
8.2528020078
  0
LINE
  5
29E
100
AcDbEntity
  8
0
100
AcDbLine
 62
7
  6
CONTINUOUS
 10
4.6845895022
 20
7.8206284726
 11
4.6623184225
 21
7.7983573929
  0
LINE
  5
29F
100
AcDbEntity
  8
0
100
AcDbLine
 62
7
  6
CONTINUOUS
 10
4.6344795728
 20
7.7705185432
 11
4.6122084931
 21
7.7482474635
  0
LINE
  5
2A0
100
AcDbEntity
  8
0
100
AcDbLine
 62
7
  6
CONTINUOUS
 10
4.6400473428
 20
7.7204086139
 11
4.6623184225
 21
7.7426796936
  0
LINE
  5
2A1
100
AcDbEntity
  8
0
100
AcDbLine
 62
7
  6
CONTINUOUS
 10
4.6901572721
 20
7.7705185432
 11
4.7124283519
 21
7.7927896229
  0
LINE
  5
2A2
100
AcDbEntity
  8
0
100
AcDbLine
 62
7
  6
CONTINUOUS
 10
4.5837378996
 20
8.5299216338
 11
4.6344795728
 21
8.4791799605
  0
LINE
  5
2A3
100
AcDbEntity
  8
0
100
AcDbLine
 62
7
  6
CONTINUOUS
 10
4.6623184225
 20
8.4513411109
 11
4.7137462129
 21
8.3999133205
  0
LINE
  5
2A4
100
AcDbEntity
  8
0
100
AcDbLine
 62
7
  6
CONTINUOUS
 10
4.7408989454
 20
8.4284382873
 11
4.6901572721
 21
8.4791799605
  0
LINE
  5
2A5
100
AcDbEntity
  8
0
100
AcDbLine
 62
7
  6
CONTINUOUS
 10
4.6623184225
 20
8.5070188102
 11
4.6108906321
 21
8.5584466006
  0
LINE
  5
2A6
100
AcDbEntity
  8
0
100
AcDbLine
 62
7
  6
CONTINUOUS
 10
4.7124283519
 20
8.5014510403
 11
4.6845895022
 21
8.5292898899
  0
LINE
  5
2A7
100
AcDbEntity
  8
0
100
AcDbLine
 62
7
  6
CONTINUOUS
 10
6.1583814146
 20
7.494927992
 11
6.1583814146
 21
7.5047705117
  0
LINE
  5
2A8
100
AcDbEntity
  8
0
100
AcDbLine
 62
7
  6
CONTINUOUS
 10
6.1583814146
 20
7.494927992
 11
7.5757042493
 21
7.494927992
  0
LINE
  5
2A9
100
AcDbEntity
  8
0
100
AcDbLine
 62
7
  6
CONTINUOUS
 10
4.42609795
 20
7.5047705117
 11
9.3079877138
 21
7.5047705117
  0
LINE
  5
2AA
100
AcDbEntity
  8
0
100
AcDbLine
 62
7
  6
CONTINUOUS
 10
4.4457829894
 20
7.5244555511
 11
6.7883026745
 21
7.5244555511
  0
LINE
  5
2AB
100
AcDbEntity
  8
0
100
AcDbLine
 62
7
  6
CONTINUOUS
 10
6.92609795
 20
7.5244555511
 11
9.2883026745
 21
7.5244555511
  0
LINE
  5
2AC
100
AcDbEntity
  8
0
100
AcDbLine
 62
7
  6
CONTINUOUS
 10
6.4339719658
 20
8.744927992
 11
6.4339719658
 21
7.996896496
  0
LINE
  5
2AD
100
AcDbEntity
  8
0
100
AcDbLine
 62
7
  6
CONTINUOUS
 10
6.4536570052
 20
7.996896496
 11
6.4536570052
 21
8.744927992
  0
LINE
  5
2AE
100
AcDbEntity
  8
0
100
AcDbLine
 62
7
  6
CONTINUOUS
 10
4.4142869264
 20
7.652408307
 11
4.7804286587
 21
7.652408307
  0
LINE
  5
2AF
100
AcDbEntity
  8
0
100
AcDbLine
 62
7
  6
CONTINUOUS
 10
9.3197987374
 20
7.6819358661
 11
8.9536570052
 21
7.6819358661
  0
LINE
  5
2B0
100
AcDbEntity
  8
0
100
AcDbLine
 62
7
  6
CONTINUOUS
 10
4.4142869264
 20
7.8984712991
 11
4.3424365327
 21
7.8984712991
  0
LINE
  5
2B1
100
AcDbEntity
  8
0
100
AcDbLine
 62
7
  6
CONTINUOUS
 10
9.3197987374
 20
7.8984712991
 11
9.4064129107
 21
7.8984712991
  0
LINE
  5
2B2
100
AcDbEntity
  8
0
100
AcDbLine
 62
7
  6
CONTINUOUS
 10
9.3572003122
 20
8.1740618503
 11
9.3197987374
 21
8.1740618503
  0
LINE
  5
2B3
100
AcDbEntity
  8
0
100
AcDbLine
 62
7
  6
CONTINUOUS
 10
4.4142869264
 20
8.370912244
 11
4.3424365327
 21
8.370912244
  0
LINE
  5
2B4
100
AcDbEntity
  8
0
100
AcDbLine
 62
7
  6
CONTINUOUS
 10
8.9536570052
 20
8.3905972834
 11
9.3197987374
 21
8.3905972834
  0
LINE
  5
2B5
100
AcDbEntity
  8
0
100
AcDbLine
 62
7
  6
CONTINUOUS
 10
9.3572003122
 20
8.4496524015
 11
9.3079877138
 21
8.4496524015
  0
LINE
  5
2B6
100
AcDbEntity
  8
0
100
AcDbLine
 62
7
  6
CONTINUOUS
 10
4.4142869264
 20
8.5972901968
 11
4.7804286587
 21
8.5972901968
  0
LINE
  5
2B7
100
AcDbEntity
  8
0
100
AcDbLine
 62
7
  6
CONTINUOUS
 10
5.5875152729
 20
8.6071327165
 11
5.2922396823
 21
8.6071327165
  0
LINE
  5
2B8
100
AcDbEntity
  8
0
100
AcDbLine
 62
7
  6
CONTINUOUS
 10
7.5757042493
 20
7.494927992
 11
7.5757042493
 21
7.5047705117
  0
LINE
  5
2B9
100
AcDbEntity
  8
0
100
AcDbLine
 62
7
  6
CONTINUOUS
 10
9.42609795
 20
8.3563992853
 11
9.4202586797
 21
8.3541971586
  0
LINE
  5
2BA
100
AcDbEntity
  8
0
100
AcDbLine
 62
7
  6
CONTINUOUS
 10
9.2883026745
 20
8.744927992
 11
6.4536570052
 21
8.744927992
  0
LINE
  5
2BB
100
AcDbEntity
  8
0
100
AcDbLine
 62
7
  6
CONTINUOUS
 10
6.4339719658
 20
8.744927992
 11
4.4457829894
 21
8.744927992
  0
LINE
  5
2BC
100
AcDbEntity
  8
0
100
AcDbLine
 62
7
  6
CONTINUOUS
 10
9.3079877138
 20
8.7646130314
 11
4.42609795
 21
8.7646130314
  0
LINE
  5
2BD
100
AcDbEntity
  8
0
100
AcDbLine
 62
7
  6
CONTINUOUS
 10
9.42609795
 20
8.2673149665
 11
9.4202586797
 21
8.2695170932
  0
LINE
  5
2BE
100
AcDbEntity
  8
0
100
AcDbLine
 62
7
  6
CONTINUOUS
 10
9.021657312
 20
7.7777750226
 11
9.0494961617
 21
7.7499361729
  0
LINE
  5
2BF
100
AcDbEntity
  8
0
100
AcDbLine
 62
7
  6
CONTINUOUS
 10
8.9931867185
 20
7.8507877755
 11
9.0439283917
 21
7.8000461023
  0
LINE
  5
2C0
100
AcDbEntity
  8
0
100
AcDbLine
 62
7
  6
CONTINUOUS
 10
9.0717672414
 20
7.7722072526
 11
9.1231950318
 21
7.7207794622
  0
LINE
  5
2C1
100
AcDbEntity
  8
0
100
AcDbLine
 62
7
  6
CONTINUOUS
 10
9.1503477643
 20
7.7493044291
 11
9.099606091
 21
7.8000461023
  0
LINE
  5
2C2
100
AcDbEntity
  8
0
100
AcDbLine
 62
7
  6
CONTINUOUS
 10
9.0717672414
 20
7.8278849519
 11
9.020339451
 21
7.8793127424
  0
LINE
  5
2C3
100
AcDbEntity
  8
0
100
AcDbLine
 62
7
  6
CONTINUOUS
 10
9.1218771708
 20
7.822317182
 11
9.0940383211
 21
7.8501560317
  0
LINE
  5
2C4
100
AcDbEntity
  8
0
100
AcDbLine
 62
7
  6
CONTINUOUS
 10
9.0940383211
 20
8.3225969765
 11
9.0717672414
 21
8.3003258968
  0
LINE
  5
2C5
100
AcDbEntity
  8
0
100
AcDbLine
 62
7
  6
CONTINUOUS
 10
9.0439283917
 20
8.2724870472
 11
9.021657312
 21
8.2502159674
  0
LINE
  5
2C6
100
AcDbEntity
  8
0
100
AcDbLine
 62
7
  6
CONTINUOUS
 10
9.0494961617
 20
8.2223771178
 11
9.0717672414
 21
8.2446481975
  0
LINE
  5
2C7
100
AcDbEntity
  8
0
100
AcDbLine
 62
7
  6
CONTINUOUS
 10
9.099606091
 20
8.2724870472
 11
9.1218771708
 21
8.2947581269
  0
LINE
  5
2C8
100
AcDbEntity
  8
0
100
AcDbLine
 62
7
  6
CONTINUOUS
 10
9.0940383211
 20
8.0863765041
 11
9.0717672414
 21
8.0641054244
  0
LINE
  5
2C9
100
AcDbEntity
  8
0
100
AcDbLine
 62
7
  6
CONTINUOUS
 10
9.0439283917
 20
8.0362665747
 11
9.021657312
 21
8.013995495
  0
LINE
  5
2CA
100
AcDbEntity
  8
0
100
AcDbLine
 62
7
  6
CONTINUOUS
 10
9.021657312
 20
8.013995495
 11
9.0494961617
 21
7.9861566453
  0
LINE
  5
2CB
100
AcDbEntity
  8
0
100
AcDbLine
 62
7
  6
CONTINUOUS
 10
8.9931867185
 20
8.087008248
 11
9.0439283917
 21
8.0362665747
  0
LINE
  5
2CC
100
AcDbEntity
  8
0
100
AcDbLine
 62
7
  6
CONTINUOUS
 10
9.0717672414
 20
8.0084277251
 11
9.1231950318
 21
7.9569999346
  0
LINE
  5
2CD
100
AcDbEntity
  8
0
100
AcDbLine
 62
7
  6
CONTINUOUS
 10
9.1503477643
 20
7.9855249015
 11
9.099606091
 21
8.0362665747
  0
LINE
  5
2CE
100
AcDbEntity
  8
0
100
AcDbLine
 62
7
  6
CONTINUOUS
 10
9.0717672414
 20
8.0641054244
 11
9.020339451
 21
8.1155332148
  0
LINE
  5
2CF
100
AcDbEntity
  8
0
100
AcDbLine
 62
7
  6
CONTINUOUS
 10
9.1218771708
 20
8.0585376544
 11
9.0940383211
 21
8.0863765041
  0
LINE
  5
2D0
100
AcDbEntity
  8
0
100
AcDbLine
 62
7
  6
CONTINUOUS
 10
9.0494961617
 20
7.9861566453
 11
9.0717672414
 21
8.0084277251
  0
LINE
  5
2D1
100
AcDbEntity
  8
0
100
AcDbLine
 62
7
  6
CONTINUOUS
 10
9.099606091
 20
8.0362665747
 11
9.1218771708
 21
8.0585376544
  0
LINE
  5
2D2
100
AcDbEntity
  8
0
100
AcDbLine
 62
7
  6
CONTINUOUS
 10
9.0940383211
 20
7.8501560317
 11
9.0717672414
 21
7.8278849519
  0
LINE
  5
2D3
100
AcDbEntity
  8
0
100
AcDbLine
 62
7
  6
CONTINUOUS
 10
9.0439283917
 20
7.8000461023
 11
9.021657312
 21
7.7777750226
  0
LINE
  5
2D4
100
AcDbEntity
  8
0
100
AcDbLine
 62
7
  6
CONTINUOUS
 10
9.021657312
 20
8.2502159674
 11
9.0494961617
 21
8.2223771178
  0
LINE
  5
2D5
100
AcDbEntity
  8
0
100
AcDbLine
 62
7
  6
CONTINUOUS
 10
8.9931867185
 20
8.3232287204
 11
9.0439283917
 21
8.2724870472
  0
LINE
  5
2D6
100
AcDbEntity
  8
0
100
AcDbLine
 62
7
  6
CONTINUOUS
 10
9.0717672414
 20
8.2446481975
 11
9.1231950318
 21
8.1932204071
  0
LINE
  5
2D7
100
AcDbEntity
  8
0
100
AcDbLine
 62
7
  6
CONTINUOUS
 10
9.1503477643
 20
8.2217453739
 11
9.099606091
 21
8.2724870472
  0
LINE
  5
2D8
100
AcDbEntity
  8
0
100
AcDbLine
 62
7
  6
CONTINUOUS
 10
9.0717672414
 20
8.3003258968
 11
9.020339451
 21
8.3517536872
  0
LINE
  5
2D9
100
AcDbEntity
  8
0
100
AcDbLine
 62
7
  6
CONTINUOUS
 10
9.1218771708
 20
8.2947581269
 11
9.0940383211
 21
8.3225969765
  0
LINE
  5
2DA
100
AcDbEntity
  8
0
100
AcDbLine
 62
7
  6
CONTINUOUS
 10
9.0494961617
 20
7.7499361729
 11
9.0717672414
 21
7.7722072526
  0
LINE
  5
2DB
100
AcDbEntity
  8
0
100
AcDbLine
 62
7
  6
CONTINUOUS
 10
9.099606091
 20
7.8000461023
 11
9.1218771708
 21
7.822317182
  0
LINE
  5
2DC
100
AcDbEntity
  8
0
100
AcDbLine
 62
7
  6
CONTINUOUS
 10
8.9536570052
 20
8.3905972834
 11
8.9536570052
 21
7.6819358661
  0
LINE
  5
2DD
100
AcDbEntity
  8
0
100
AcDbLine
 62
7
  6
CONTINUOUS
 10
9.2292475563
 20
8.3905972834
 11
9.2292475563
 21
7.6819358661
  0
LINE
  5
2DE
100
AcDbEntity
  8
0
100
AcDbLine
 62
7
  6
CONTINUOUS
 10
9.2883026745
 20
8.744927992
 11
9.2883026745
 21
8.3905972834
  0
LINE
  5
2DF
100
AcDbEntity
  8
0
100
AcDbLine
 62
7
  6
CONTINUOUS
 10
9.2883026745
 20
7.6819358661
 11
9.2883026745
 21
7.5244555511
  0
LINE
  5
2E0
100
AcDbEntity
  8
0
100
AcDbLine
 62
7
  6
CONTINUOUS
 10
9.3079877138
 20
7.5047705117
 11
9.3079877138
 21
8.7646130314
  0
LINE
  5
2E1
100
AcDbEntity
  8
0
100
AcDbLine
 62
7
  6
CONTINUOUS
 10
9.3197987374
 20
7.6819358661
 11
9.3197987374
 21
8.3905972834
  0
LINE
  5
2E2
100
AcDbEntity
  8
0
100
AcDbLine
 62
7
  6
CONTINUOUS
 10
9.4064129107
 20
8.1958672104
 11
9.4064129107
 21
7.8984712991
  0
LINE
  5
2E3
100
AcDbEntity
  8
0
100
AcDbLine
 62
7
  6
CONTINUOUS
 10
9.42609795
 20
8.246256596
 11
9.42609795
 21
8.2673149665
  0
LINE
  5
2E4
100
AcDbEntity
  8
0
100
AcDbLine
 62
7
  6
CONTINUOUS
 10
9.42609795
 20
8.2907987554
 11
9.42609795
 21
8.3329154964
  0
LINE
  5
2E5
100
AcDbEntity
  8
0
100
AcDbLine
 62
7
  6
CONTINUOUS
 10
9.42609795
 20
8.3563992853
 11
9.42609795
 21
8.3774576558
  0
LINE
  5
2E6
100
AcDbEntity
  8
0
100
AcDbLine
 62
7
  6
CONTINUOUS
 10
1.5026134944
 20
0.9068246718
 11
1.2073379038
 21
0.9068246718
  0
LINE
  5
2E7
100
AcDbEntity
  8
0
100
AcDbLine
 62
7
  6
CONTINUOUS
 10
1.5813536519
 20
0.9068246718
 11
2.0537945967
 21
0.9068246718
  0
LINE
  5
2E8
100
AcDbEntity
  8
0
100
AcDbLine
 62
7
  6
CONTINUOUS
 10
2.1325347542
 20
0.9068246718
 11
2.4278103448
 21
0.9068246718
  0
LINE
  5
2E9
100
AcDbEntity
  8
0
100
AcDbLine
 62
7
  6
CONTINUOUS
 10
1.6600938093
 20
1.0091111368
 11
1.9750544393
 21
1.0091111368
  0
LINE
  5
2EA
100
AcDbEntity
  8
0
100
AcDbLine
 62
7
  6
CONTINUOUS
 10
1.6600938093
 20
1.0446199474
 11
1.9750544393
 21
1.0446199474
  0
LINE
  5
2EB
100
AcDbEntity
  8
0
100
AcDbLine
 62
7
  6
CONTINUOUS
 10
1.5813536519
 20
1.0810372702
 11
2.0537945967
 21
1.0810372702
  0
LINE
  5
2EC
100
AcDbEntity
  8
0
100
AcDbLine
 62
7
  6
CONTINUOUS
 10
1.5026134944
 20
1.2296593175
 11
1.2073379038
 21
1.2296593175
  0
LINE
  5
2ED
100
AcDbEntity
  8
0
100
AcDbLine
 62
7
  6
CONTINUOUS
 10
2.1325347542
 20
1.2296593175
 11
2.4278103448
 21
1.2296593175
  0
LINE
  5
2EE
100
AcDbEntity
  8
0
100
AcDbLine
 62
7
  6
CONTINUOUS
 10
2.0537945967
 20
1.2690293962
 11
1.5813536519
 21
1.2690293962
  0
LINE
  5
2EF
100
AcDbEntity
  8
0
100
AcDbLine
 62
7
  6
CONTINUOUS
 10
2.4474953841
 20
1.3083994749
 11
1.1876528645
 21
1.3083994749
  0
LINE
  5
2F0
100
AcDbEntity
  8
0
100
AcDbLine
 62
7
  6
CONTINUOUS
 10
2.3372591637
 20
1.4060372702
 11
2.203400896
 21
1.4060372702
  0
LINE
  5
2F1
100
AcDbEntity
  8
0
100
AcDbLine
 62
7
  6
CONTINUOUS
 10
2.1561568015
 20
1.4060372702
 11
2.0222985337
 21
1.4060372702
  0
LINE
  5
2F2
100
AcDbEntity
  8
0
100
AcDbLine
 62
7
  6
CONTINUOUS
 10
1.9750544393
 20
1.4060372702
 11
1.8411961715
 21
1.4060372702
  0
LINE
  5
2F3
100
AcDbEntity
  8
0
100
AcDbLine
 62
7
  6
CONTINUOUS
 10
1.7939520771
 20
1.4060372702
 11
1.6600938093
 21
1.4060372702
  0
LINE
  5
2F4
100
AcDbEntity
  8
0
100
AcDbLine
 62
7
  6
CONTINUOUS
 10
1.6128497149
 20
1.4060372702
 11
1.4789914471
 21
1.4060372702
  0
LINE
  5
2F5
100
AcDbEntity
  8
0
100
AcDbLine
 62
7
  6
CONTINUOUS
 10
1.4317473526
 20
1.4060372702
 11
1.2978890849
 21
1.4060372702
  0
LINE
  5
2F6
100
AcDbEntity
  8
0
100
AcDbLine
 62
7
  6
CONTINUOUS
 10
2.4573379038
 20
1.4650923883
 11
2.4474953841
 21
1.4650923883
  0
LINE
  5
2F7
100
AcDbEntity
  8
0
100
AcDbLine
 62
7
  6
CONTINUOUS
 10
2.3372591637
 20
1.5398955379
 11
2.203400896
 21
1.5398955379
  0
LINE
  5
2F8
100
AcDbEntity
  8
0
100
AcDbLine
 62
7
  6
CONTINUOUS
 10
2.1561568015
 20
1.5398955379
 11
2.0222985337
 21
1.5398955379
  0
LINE
  5
2F9
100
AcDbEntity
  8
0
100
AcDbLine
 62
7
  6
CONTINUOUS
 10
1.9750544393
 20
1.5398955379
 11
1.8411961715
 21
1.5398955379
  0
LINE
  5
2FA
100
AcDbEntity
  8
0
100
AcDbLine
 62
7
  6
CONTINUOUS
 10
1.7939520771
 20
1.5398955379
 11
1.6600938093
 21
1.5398955379
  0
LINE
  5
2FB
100
AcDbEntity
  8
0
100
AcDbLine
 62
7
  6
CONTINUOUS
 10
1.6128497149
 20
1.5398955379
 11
1.4789914471
 21
1.5398955379
  0
LINE
  5
2FC
100
AcDbEntity
  8
0
100
AcDbLine
 62
7
  6
CONTINUOUS
 10
1.4317473526
 20
1.5398955379
 11
1.2978890849
 21
1.5398955379
  0
LINE
  5
2FD
100
AcDbEntity
  8
0
100
AcDbLine
 62
7
  6
CONTINUOUS
 10
1.2978890849
 20
1.5871396324
 11
1.4317473526
 21
1.5871396324
  0
LINE
  5
2FE
100
AcDbEntity
  8
0
100
AcDbLine
 62
7
  6
CONTINUOUS
 10
1.4789914471
 20
1.5871396324
 11
1.6128497149
 21
1.5871396324
  0
LINE
  5
2FF
100
AcDbEntity
  8
0
100
AcDbLine
 62
7
  6
CONTINUOUS
 10
1.6600938093
 20
1.5871396324
 11
1.7939520771
 21
1.5871396324
  0
LINE
  5
300
100
AcDbEntity
  8
0
100
AcDbLine
 62
7
  6
CONTINUOUS
 10
1.8411961715
 20
1.5871396324
 11
1.9750544393
 21
1.5871396324
  0
LINE
  5
301
100
AcDbEntity
  8
0
100
AcDbLine
 62
7
  6
CONTINUOUS
 10
2.0222985337
 20
1.5871396324
 11
2.1561568015
 21
1.5871396324
  0
LINE
  5
302
100
AcDbEntity
  8
0
100
AcDbLine
 62
7
  6
CONTINUOUS
 10
2.203400896
 20
1.5871396324
 11
2.3372591637
 21
1.5871396324
  0
LINE
  5
303
100
AcDbEntity
  8
0
100
AcDbLine
 62
7
  6
CONTINUOUS
 10
2.3372591637
 20
1.7209979001
 11
2.203400896
 21
1.7209979001
  0
LINE
  5
304
100
AcDbEntity
  8
0
100
AcDbLine
 62
7
  6
CONTINUOUS
 10
2.1561568015
 20
1.7209979001
 11
2.0222985337
 21
1.7209979001
  0
LINE
  5
305
100
AcDbEntity
  8
0
100
AcDbLine
 62
7
  6
CONTINUOUS
 10
1.9750544393
 20
1.7209979001
 11
1.8411961715
 21
1.7209979001
  0
LINE
  5
306
100
AcDbEntity
  8
0
100
AcDbLine
 62
7
  6
CONTINUOUS
 10
1.7939520771
 20
1.7209979001
 11
1.6600938093
 21
1.7209979001
  0
LINE
  5
307
100
AcDbEntity
  8
0
100
AcDbLine
 62
7
  6
CONTINUOUS
 10
1.6128497149
 20
1.7209979001
 11
1.4789914471
 21
1.7209979001
  0
LINE
  5
308
100
AcDbEntity
  8
0
100
AcDbLine
 62
7
  6
CONTINUOUS
 10
1.4317473526
 20
1.7209979001
 11
1.2978890849
 21
1.7209979001
  0
LINE
  5
309
100
AcDbEntity
  8
0
100
AcDbLine
 62
7
  6
CONTINUOUS
 10
1.2978890849
 20
1.7682419946
 11
1.4317473526
 21
1.7682419946
  0
LINE
  5
30A
100
AcDbEntity
  8
0
100
AcDbLine
 62
7
  6
CONTINUOUS
 10
1.4789914471
 20
1.7682419946
 11
1.6128497149
 21
1.7682419946
  0
LINE
  5
30B
100
AcDbEntity
  8
0
100
AcDbLine
 62
7
  6
CONTINUOUS
 10
1.6600938093
 20
1.7682419946
 11
1.7939520771
 21
1.7682419946
  0
LINE
  5
30C
100
AcDbEntity
  8
0
100
AcDbLine
 62
7
  6
CONTINUOUS
 10
1.8411961715
 20
1.7682419946
 11
1.9750544393
 21
1.7682419946
  0
LINE
  5
30D
100
AcDbEntity
  8
0
100
AcDbLine
 62
7
  6
CONTINUOUS
 10
2.0222985337
 20
1.7682419946
 11
2.1561568015
 21
1.7682419946
  0
LINE
  5
30E
100
AcDbEntity
  8
0
100
AcDbLine
 62
7
  6
CONTINUOUS
 10
2.203400896
 20
1.7682419946
 11
2.3372591637
 21
1.7682419946
  0
LINE
  5
30F
100
AcDbEntity
  8
0
100
AcDbLine
 62
7
  6
CONTINUOUS
 10
1.5715111322
 20
5.0182419946
 11
1.5321410534
 21
4.9788719159
  0
LINE
  5
310
100
AcDbEntity
  8
0
100
AcDbLine
 62
7
  6
CONTINUOUS
 10
1.3845032582
 20
4.7229664041
 11
1.4238733369
 21
4.7623364828
  0
LINE
  5
311
100
AcDbEntity
  8
0
100
AcDbLine
 62
7
  6
CONTINUOUS
 10
2.3372591637
 20
1.9021002623
 11
2.203400896
 21
1.9021002623
  0
LINE
  5
312
100
AcDbEntity
  8
0
100
AcDbLine
 62
7
  6
CONTINUOUS
 10
2.1561568015
 20
1.9021002623
 11
2.0222985337
 21
1.9021002623
  0
LINE
  5
313
100
AcDbEntity
  8
0
100
AcDbLine
 62
7
  6
CONTINUOUS
 10
1.9750544393
 20
1.9021002623
 11
1.8411961715
 21
1.9021002623
  0
LINE
  5
314
100
AcDbEntity
  8
0
100
AcDbLine
 62
7
  6
CONTINUOUS
 10
1.7939520771
 20
1.9021002623
 11
1.6600938093
 21
1.9021002623
  0
LINE
  5
315
100
AcDbEntity
  8
0
100
AcDbLine
 62
7
  6
CONTINUOUS
 10
1.6128497149
 20
1.9021002623
 11
1.4789914471
 21
1.9021002623
  0
LINE
  5
316
100
AcDbEntity
  8
0
100
AcDbLine
 62
7
  6
CONTINUOUS
 10
1.4317473526
 20
1.9021002623
 11
1.2978890849
 21
1.9021002623
  0
LINE
  5
317
100
AcDbEntity
  8
0
100
AcDbLine
 62
7
  6
CONTINUOUS
 10
1.2978890849
 20
1.9493443568
 11
1.4317473526
 21
1.9493443568
  0
LINE
  5
318
100
AcDbEntity
  8
0
100
AcDbLine
 62
7
  6
CONTINUOUS
 10
1.4789914471
 20
1.9493443568
 11
1.6128497149
 21
1.9493443568
  0
LINE
  5
319
100
AcDbEntity
  8
0
100
AcDbLine
 62
7
  6
CONTINUOUS
 10
1.6600938093
 20
1.9493443568
 11
1.7939520771
 21
1.9493443568
  0
LINE
  5
31A
100
AcDbEntity
  8
0
100
AcDbLine
 62
7
  6
CONTINUOUS
 10
1.8411961715
 20
1.9493443568
 11
1.9750544393
 21
1.9493443568
  0
LINE
  5
31B
100
AcDbEntity
  8
0
100
AcDbLine
 62
7
  6
CONTINUOUS
 10
2.0222985337
 20
1.9493443568
 11
2.1561568015
 21
1.9493443568
  0
LINE
  5
31C
100
AcDbEntity
  8
0
100
AcDbLine
 62
7
  6
CONTINUOUS
 10
2.203400896
 20
1.9493443568
 11
2.3372591637
 21
1.9493443568
  0
LINE
  5
31D
100
AcDbEntity
  8
0
100
AcDbLine
 62
7
  6
CONTINUOUS
 10
1.8077316046
 20
5.0182419946
 11
1.7683615259
 21
4.9788719159
  0
LINE
  5
31E
100
AcDbEntity
  8
0
100
AcDbLine
 62
7
  6
CONTINUOUS
 10
1.6207237306
 20
4.7229664041
 11
1.6600938093
 21
4.7623364828
  0
LINE
  5
31F
100
AcDbEntity
  8
0
100
AcDbLine
 62
7
  6
CONTINUOUS
 10
2.3372591637
 20
2.0832026245
 11
2.203400896
 21
2.0832026245
  0
LINE
  5
320
100
AcDbEntity
  8
0
100
AcDbLine
 62
7
  6
CONTINUOUS
 10
2.1561568015
 20
2.0832026245
 11
2.0222985337
 21
2.0832026245
  0
LINE
  5
321
100
AcDbEntity
  8
0
100
AcDbLine
 62
7
  6
CONTINUOUS
 10
1.9750544393
 20
2.0832026245
 11
1.8411961715
 21
2.0832026245
  0
LINE
  5
322
100
AcDbEntity
  8
0
100
AcDbLine
 62
7
  6
CONTINUOUS
 10
1.7939520771
 20
2.0832026245
 11
1.6600938093
 21
2.0832026245
  0
LINE
  5
323
100
AcDbEntity
  8
0
100
AcDbLine
 62
7
  6
CONTINUOUS
 10
1.6128497149
 20
2.0832026245
 11
1.4789914471
 21
2.0832026245
  0
LINE
  5
324
100
AcDbEntity
  8
0
100
AcDbLine
 62
7
  6
CONTINUOUS
 10
1.4317473526
 20
2.0832026245
 11
1.2978890849
 21
2.0832026245
  0
LINE
  5
325
100
AcDbEntity
  8
0
100
AcDbLine
 62
7
  6
CONTINUOUS
 10
1.2978890849
 20
2.130446719
 11
1.4317473526
 21
2.130446719
  0
LINE
  5
326
100
AcDbEntity
  8
0
100
AcDbLine
 62
7
  6
CONTINUOUS
 10
1.4789914471
 20
2.130446719
 11
1.6128497149
 21
2.130446719
  0
LINE
  5
327
100
AcDbEntity
  8
0
100
AcDbLine
 62
7
  6
CONTINUOUS
 10
1.6600938093
 20
2.130446719
 11
1.7939520771
 21
2.130446719
  0
LINE
  5
328
100
AcDbEntity
  8
0
100
AcDbLine
 62
7
  6
CONTINUOUS
 10
1.8411961715
 20
2.130446719
 11
1.9750544393
 21
2.130446719
  0
LINE
  5
329
100
AcDbEntity
  8
0
100
AcDbLine
 62
7
  6
CONTINUOUS
 10
2.0222985337
 20
2.130446719
 11
2.1561568015
 21
2.130446719
  0
LINE
  5
32A
100
AcDbEntity
  8
0
100
AcDbLine
 62
7
  6
CONTINUOUS
 10
2.203400896
 20
2.130446719
 11
2.3372591637
 21
2.130446719
  0
LINE
  5
32B
100
AcDbEntity
  8
0
100
AcDbLine
 62
7
  6
CONTINUOUS
 10
2.0439520771
 20
5.0182419946
 11
2.0045819983
 21
4.9788719159
  0
LINE
  5
32C
100
AcDbEntity
  8
0
100
AcDbLine
 62
7
  6
CONTINUOUS
 10
1.856944203
 20
4.7229664041
 11
1.8963142818
 21
4.7623364828
  0
LINE
  5
32D
100
AcDbEntity
  8
0
100
AcDbLine
 62
7
  6
CONTINUOUS
 10
2.3372591637
 20
2.2643049867
 11
2.203400896
 21
2.2643049867
  0
LINE
  5
32E
100
AcDbEntity
  8
0
100
AcDbLine
 62
7
  6
CONTINUOUS
 10
2.1561568015
 20
2.2643049867
 11
2.0222985337
 21
2.2643049867
  0
LINE
  5
32F
100
AcDbEntity
  8
0
100
AcDbLine
 62
7
  6
CONTINUOUS
 10
1.9750544393
 20
2.2643049867
 11
1.8411961715
 21
2.2643049867
  0
LINE
  5
330
100
AcDbEntity
  8
0
100
AcDbLine
 62
7
  6
CONTINUOUS
 10
1.7939520771
 20
2.2643049867
 11
1.6600938093
 21
2.2643049867
  0
LINE
  5
331
100
AcDbEntity
  8
0
100
AcDbLine
 62
7
  6
CONTINUOUS
 10
1.6128497149
 20
2.2643049867
 11
1.4789914471
 21
2.2643049867
  0
LINE
  5
332
100
AcDbEntity
  8
0
100
AcDbLine
 62
7
  6
CONTINUOUS
 10
1.4317473526
 20
2.2643049867
 11
1.2978890849
 21
2.2643049867
  0
LINE
  5
333
100
AcDbEntity
  8
0
100
AcDbLine
 62
7
  6
CONTINUOUS
 10
1.2978890849
 20
2.3115490812
 11
1.4317473526
 21
2.3115490812
  0
LINE
  5
334
100
AcDbEntity
  8
0
100
AcDbLine
 62
7
  6
CONTINUOUS
 10
1.4789914471
 20
2.3115490812
 11
1.6128497149
 21
2.3115490812
  0
LINE
  5
335
100
AcDbEntity
  8
0
100
AcDbLine
 62
7
  6
CONTINUOUS
 10
1.6600938093
 20
2.3115490812
 11
1.7939520771
 21
2.3115490812
  0
LINE
  5
336
100
AcDbEntity
  8
0
100
AcDbLine
 62
7
  6
CONTINUOUS
 10
1.8411961715
 20
2.3115490812
 11
1.9750544393
 21
2.3115490812
  0
LINE
  5
337
100
AcDbEntity
  8
0
100
AcDbLine
 62
7
  6
CONTINUOUS
 10
2.0222985337
 20
2.3115490812
 11
2.1561568015
 21
2.3115490812
  0
LINE
  5
338
100
AcDbEntity
  8
0
100
AcDbLine
 62
7
  6
CONTINUOUS
 10
2.203400896
 20
2.3115490812
 11
2.3372591637
 21
2.3115490812
  0
LINE
  5
339
100
AcDbEntity
  8
0
100
AcDbLine
 62
7
  6
CONTINUOUS
 10
2.2703300298
 20
5.0182419946
 11
2.2309599511
 21
4.9788719159
  0
LINE
  5
33A
100
AcDbEntity
  8
0
100
AcDbLine
 62
7
  6
CONTINUOUS
 10
2.0833221558
 20
4.7229664041
 11
2.1226922345
 21
4.7623364828
  0
LINE
  5
33B
100
AcDbEntity
  8
0
100
AcDbLine
 62
7
  6
CONTINUOUS
 10
2.3372591637
 20
2.4454073489
 11
2.203400896
 21
2.4454073489
  0
LINE
  5
33C
100
AcDbEntity
  8
0
100
AcDbLine
 62
7
  6
CONTINUOUS
 10
2.1561568015
 20
2.4454073489
 11
2.0222985337
 21
2.4454073489
  0
LINE
  5
33D
100
AcDbEntity
  8
0
100
AcDbLine
 62
7
  6
CONTINUOUS
 10
1.9750544393
 20
2.4454073489
 11
1.8411961715
 21
2.4454073489
  0
LINE
  5
33E
100
AcDbEntity
  8
0
100
AcDbLine
 62
7
  6
CONTINUOUS
 10
1.7939520771
 20
2.4454073489
 11
1.6600938093
 21
2.4454073489
  0
LINE
  5
33F
100
AcDbEntity
  8
0
100
AcDbLine
 62
7
  6
CONTINUOUS
 10
1.6128497149
 20
2.4454073489
 11
1.4789914471
 21
2.4454073489
  0
LINE
  5
340
100
AcDbEntity
  8
0
100
AcDbLine
 62
7
  6
CONTINUOUS
 10
1.4317473526
 20
2.4454073489
 11
1.2978890849
 21
2.4454073489
  0
LINE
  5
341
100
AcDbEntity
  8
0
100
AcDbLine
 62
7
  6
CONTINUOUS
 10
1.2978890849
 20
2.4926514434
 11
1.4317473526
 21
2.4926514434
  0
LINE
  5
342
100
AcDbEntity
  8
0
100
AcDbLine
 62
7
  6
CONTINUOUS
 10
1.4789914471
 20
2.4926514434
 11
1.6128497149
 21
2.4926514434
  0
LINE
  5
343
100
AcDbEntity
  8
0
100
AcDbLine
 62
7
  6
CONTINUOUS
 10
1.6600938093
 20
2.4926514434
 11
1.7939520771
 21
2.4926514434
  0
LINE
  5
344
100
AcDbEntity
  8
0
100
AcDbLine
 62
7
  6
CONTINUOUS
 10
1.8411961715
 20
2.4926514434
 11
1.9750544393
 21
2.4926514434
  0
LINE
  5
345
100
AcDbEntity
  8
0
100
AcDbLine
 62
7
  6
CONTINUOUS
 10
2.0222985337
 20
2.4926514434
 11
2.1561568015
 21
2.4926514434
  0
LINE
  5
346
100
AcDbEntity
  8
0
100
AcDbLine
 62
7
  6
CONTINUOUS
 10
2.203400896
 20
2.4926514434
 11
2.3372591637
 21
2.4926514434
  0
LINE
  5
347
100
AcDbEntity
  8
0
100
AcDbLine
 62
7
  6
CONTINUOUS
 10
2.3372591637
 20
2.6265097112
 11
2.203400896
 21
2.6265097112
  0
LINE
  5
348
100
AcDbEntity
  8
0
100
AcDbLine
 62
7
  6
CONTINUOUS
 10
2.1561568015
 20
2.6265097112
 11
2.0222985337
 21
2.6265097112
  0
LINE
  5
349
100
AcDbEntity
  8
0
100
AcDbLine
 62
7
  6
CONTINUOUS
 10
1.9750544393
 20
2.6265097112
 11
1.8411961715
 21
2.6265097112
  0
LINE
  5
34A
100
AcDbEntity
  8
0
100
AcDbLine
 62
7
  6
CONTINUOUS
 10
1.7939520771
 20
2.6265097112
 11
1.6600938093
 21
2.6265097112
  0
LINE
  5
34B
100
AcDbEntity
  8
0
100
AcDbLine
 62
7
  6
CONTINUOUS
 10
1.6128497149
 20
2.6265097112
 11
1.4789914471
 21
2.6265097112
  0
LINE
  5
34C
100
AcDbEntity
  8
0
100
AcDbLine
 62
7
  6
CONTINUOUS
 10
1.4317473526
 20
2.6265097112
 11
1.2978890849
 21
2.6265097112
  0
LINE
  5
34D
100
AcDbEntity
  8
0
100
AcDbLine
 62
7
  6
CONTINUOUS
 10
1.1876528645
 20
1.3083994749
 11
1.1876528645
 21
5.6776905472
  0
LINE
  5
34E
100
AcDbEntity
  8
0
100
AcDbLine
 62
7
  6
CONTINUOUS
 10
1.2073379038
 20
5.687531804
 11
1.2073379038
 21
5.6775861186
  0
LINE
  5
34F
100
AcDbEntity
  8
0
100
AcDbLine
 62
7
  6
CONTINUOUS
 10
1.2073379038
 20
5.6775861186
 11
1.2073379038
 21
5.676615592
  0
LINE
  5
350
100
AcDbEntity
  8
0
100
AcDbLine
 62
7
  6
CONTINUOUS
 10
1.2073379038
 20
1.3083994749
 11
1.2073379038
 21
0.9068246718
  0
LINE
  5
351
100
AcDbEntity
  8
0
100
AcDbLine
 62
7
  6
CONTINUOUS
 10
1.2073379038
 20
5.3291725412
 11
1.2073379038
 21
5.676615592
  0
LINE
  5
352
100
AcDbEntity
  8
0
100
AcDbLine
 62
7
  6
CONTINUOUS
 10
1.2978890849
 20
1.4060372702
 11
1.2978890849
 21
1.5398955379
  0
LINE
  5
353
100
AcDbEntity
  8
0
100
AcDbLine
 62
7
  6
CONTINUOUS
 10
1.2978890849
 20
1.5871396324
 11
1.2978890849
 21
1.7209979001
  0
LINE
  5
354
100
AcDbEntity
  8
0
100
AcDbLine
 62
7
  6
CONTINUOUS
 10
1.2978890849
 20
1.7682419946
 11
1.2978890849
 21
1.9021002623
  0
LINE
  5
355
100
AcDbEntity
  8
0
100
AcDbLine
 62
7
  6
CONTINUOUS
 10
1.2978890849
 20
1.9493443568
 11
1.2978890849
 21
2.0832026245
  0
LINE
  5
356
100
AcDbEntity
  8
0
100
AcDbLine
 62
7
  6
CONTINUOUS
 10
1.2978890849
 20
2.130446719
 11
1.2978890849
 21
2.2643049867
  0
LINE
  5
357
100
AcDbEntity
  8
0
100
AcDbLine
 62
7
  6
CONTINUOUS
 10
1.2978890849
 20
2.3115490812
 11
1.2978890849
 21
2.4454073489
  0
LINE
  5
358
100
AcDbEntity
  8
0
100
AcDbLine
 62
7
  6
CONTINUOUS
 10
1.2978890849
 20
2.4926514434
 11
1.2978890849
 21
2.6265097112
  0
LINE
  5
359
100
AcDbEntity
  8
0
100
AcDbLine
 62
7
  6
CONTINUOUS
 10
1.2978890849
 20
2.6737538056
 11
1.2978890849
 21
2.8076120734
  0
LINE
  5
35A
100
AcDbEntity
  8
0
100
AcDbLine
 62
7
  6
CONTINUOUS
 10
1.2978890849
 20
2.8548561678
 11
1.2978890849
 21
2.9887144356
  0
LINE
  5
35B
100
AcDbEntity
  8
0
100
AcDbLine
 62
7
  6
CONTINUOUS
 10
1.2978890849
 20
3.0359585301
 11
1.2978890849
 21
3.1698167978
  0
LINE
  5
35C
100
AcDbEntity
  8
0
100
AcDbLine
 62
7
  6
CONTINUOUS
 10
1.2978890849
 20
3.2170608923
 11
1.2978890849
 21
3.35091916
  0
LINE
  5
35D
100
AcDbEntity
  8
0
100
AcDbLine
 62
7
  6
CONTINUOUS
 10
1.2978890849
 20
3.3981632545
 11
1.2978890849
 21
3.5320215222
  0
LINE
  5
35E
100
AcDbEntity
  8
0
100
AcDbLine
 62
7
  6
CONTINUOUS
 10
1.2978890849
 20
3.5792656167
 11
1.2978890849
 21
3.7131238844
  0
LINE
  5
35F
100
AcDbEntity
  8
0
100
AcDbLine
 62
7
  6
CONTINUOUS
 10
1.2978890849
 20
3.7603679789
 11
1.2978890849
 21
3.8942262466
  0
LINE
  5
360
100
AcDbEntity
  8
0
100
AcDbLine
 62
7
  6
CONTINUOUS
 10
1.2978890849
 20
3.9414703411
 11
1.2978890849
 21
4.0753286088
  0
LINE
  5
361
100
AcDbEntity
  8
0
100
AcDbLine
 62
7
  6
CONTINUOUS
 10
1.2978890849
 20
4.1225727033
 11
1.2978890849
 21
4.256430971
  0
LINE
  5
362
100
AcDbEntity
  8
0
100
AcDbLine
 62
7
  6
CONTINUOUS
 10
1.2978890849
 20
4.3036750655
 11
1.2978890849
 21
4.4375333332
  0
LINE
  5
363
100
AcDbEntity
  8
0
100
AcDbLine
 62
7
  6
CONTINUOUS
 10
1.3451331794
 20
5.5420264983
 11
1.3451331794
 21
5.6678482938
  0
LINE
  5
364
100
AcDbEntity
  8
0
100
AcDbLine
 62
7
  6
CONTINUOUS
 10
1.2978890849
 20
2.6737538056
 11
1.4317473526
 21
2.6737538056
  0
LINE
  5
365
100
AcDbEntity
  8
0
100
AcDbLine
 62
7
  6
CONTINUOUS
 10
1.4789914471
 20
2.6737538056
 11
1.6128497149
 21
2.6737538056
  0
LINE
  5
366
100
AcDbEntity
  8
0
100
AcDbLine
 62
7
  6
CONTINUOUS
 10
1.6600938093
 20
2.6737538056
 11
1.7939520771
 21
2.6737538056
  0
LINE
  5
367
100
AcDbEntity
  8
0
100
AcDbLine
 62
7
  6
CONTINUOUS
 10
1.8411961715
 20
2.6737538056
 11
1.9750544393
 21
2.6737538056
  0
LINE
  5
368
100
AcDbEntity
  8
0
100
AcDbLine
 62
7
  6
CONTINUOUS
 10
2.0222985337
 20
2.6737538056
 11
2.1561568015
 21
2.6737538056
  0
LINE
  5
369
100
AcDbEntity
  8
0
100
AcDbLine
 62
7
  6
CONTINUOUS
 10
2.203400896
 20
2.6737538056
 11
2.3372591637
 21
2.6737538056
  0
LINE
  5
36A
100
AcDbEntity
  8
0
100
AcDbLine
 62
7
  6
CONTINUOUS
 10
2.3372591637
 20
2.8076120734
 11
2.203400896
 21
2.8076120734
  0
LINE
  5
36B
100
AcDbEntity
  8
0
100
AcDbLine
 62
7
  6
CONTINUOUS
 10
2.1561568015
 20
2.8076120734
 11
2.0222985337
 21
2.8076120734
  0
LINE
  5
36C
100
AcDbEntity
  8
0
100
AcDbLine
 62
7
  6
CONTINUOUS
 10
1.9750544393
 20
2.8076120734
 11
1.8411961715
 21
2.8076120734
  0
LINE
  5
36D
100
AcDbEntity
  8
0
100
AcDbLine
 62
7
  6
CONTINUOUS
 10
1.7939520771
 20
2.8076120734
 11
1.6600938093
 21
2.8076120734
  0
LINE
  5
36E
100
AcDbEntity
  8
0
100
AcDbLine
 62
7
  6
CONTINUOUS
 10
1.6128497149
 20
2.8076120734
 11
1.4789914471
 21
2.8076120734
  0
LINE
  5
36F
100
AcDbEntity
  8
0
100
AcDbLine
 62
7
  6
CONTINUOUS
 10
1.4317473526
 20
2.8076120734
 11
1.2978890849
 21
2.8076120734
  0
LINE
  5
370
100
AcDbEntity
  8
0
100
AcDbLine
 62
7
  6
CONTINUOUS
 10
1.3549756991
 20
4.6146986875
 11
1.3549756991
 21
5.430393704
  0
LINE
  5
371
100
AcDbEntity
  8
0
100
AcDbLine
 62
7
  6
CONTINUOUS
 10
1.3559599511
 20
5.4650923883
 11
1.3559599511
 21
5.2839900261
  0
LINE
  5
372
100
AcDbEntity
  8
0
100
AcDbLine
 62
7
  6
CONTINUOUS
 10
1.3845032582
 20
4.7229664041
 11
1.3845032582
 21
5.0182419946
  0
LINE
  5
373
100
AcDbEntity
  8
0
100
AcDbLine
 62
7
  6
CONTINUOUS
 10
1.4238733369
 20
4.9788719159
 11
1.4238733369
 21
4.7623364828
  0
LINE
  5
374
100
AcDbEntity
  8
0
100
AcDbLine
 62
7
  6
CONTINUOUS
 10
1.4317473526
 20
1.4060372702
 11
1.4317473526
 21
1.5398955379
  0
LINE
  5
375
100
AcDbEntity
  8
0
100
AcDbLine
 62
7
  6
CONTINUOUS
 10
1.4317473526
 20
1.5871396324
 11
1.4317473526
 21
1.7209979001
  0
LINE
  5
376
100
AcDbEntity
  8
0
100
AcDbLine
 62
7
  6
CONTINUOUS
 10
1.4317473526
 20
1.7682419946
 11
1.4317473526
 21
1.9021002623
  0
LINE
  5
377
100
AcDbEntity
  8
0
100
AcDbLine
 62
7
  6
CONTINUOUS
 10
1.4317473526
 20
1.9493443568
 11
1.4317473526
 21
2.0832026245
  0
LINE
  5
378
100
AcDbEntity
  8
0
100
AcDbLine
 62
7
  6
CONTINUOUS
 10
1.4317473526
 20
2.130446719
 11
1.4317473526
 21
2.2643049867
  0
LINE
  5
379
100
AcDbEntity
  8
0
100
AcDbLine
 62
7
  6
CONTINUOUS
 10
1.4317473526
 20
2.3115490812
 11
1.4317473526
 21
2.4454073489
  0
LINE
  5
37A
100
AcDbEntity
  8
0
100
AcDbLine
 62
7
  6
CONTINUOUS
 10
1.4317473526
 20
2.4926514434
 11
1.4317473526
 21
2.6265097112
  0
LINE
  5
37B
100
AcDbEntity
  8
0
100
AcDbLine
 62
7
  6
CONTINUOUS
 10
1.4317473526
 20
2.6737538056
 11
1.4317473526
 21
2.8076120734
  0
LINE
  5
37C
100
AcDbEntity
  8
0
100
AcDbLine
 62
7
  6
CONTINUOUS
 10
1.4317473526
 20
2.8548561678
 11
1.4317473526
 21
2.9887144356
  0
LINE
  5
37D
100
AcDbEntity
  8
0
100
AcDbLine
 62
7
  6
CONTINUOUS
 10
1.4317473526
 20
3.0359585301
 11
1.4317473526
 21
3.1698167978
  0
LINE
  5
37E
100
AcDbEntity
  8
0
100
AcDbLine
 62
7
  6
CONTINUOUS
 10
1.4317473526
 20
3.2170608923
 11
1.4317473526
 21
3.35091916
  0
LINE
  5
37F
100
AcDbEntity
  8
0
100
AcDbLine
 62
7
  6
CONTINUOUS
 10
1.4317473526
 20
3.3981632545
 11
1.4317473526
 21
3.5320215222
  0
LINE
  5
380
100
AcDbEntity
  8
0
100
AcDbLine
 62
7
  6
CONTINUOUS
 10
1.4317473526
 20
3.5792656167
 11
1.4317473526
 21
3.7131238844
  0
LINE
  5
381
100
AcDbEntity
  8
0
100
AcDbLine
 62
7
  6
CONTINUOUS
 10
1.4317473526
 20
3.7603679789
 11
1.4317473526
 21
3.8942262466
  0
LINE
  5
382
100
AcDbEntity
  8
0
100
AcDbLine
 62
7
  6
CONTINUOUS
 10
1.4317473526
 20
3.9414703411
 11
1.4317473526
 21
4.0753286088
  0
LINE
  5
383
100
AcDbEntity
  8
0
100
AcDbLine
 62
7
  6
CONTINUOUS
 10
1.4317473526
 20
4.1225727033
 11
1.4317473526
 21
4.256430971
  0
LINE
  5
384
100
AcDbEntity
  8
0
100
AcDbLine
 62
7
  6
CONTINUOUS
 10
1.4317473526
 20
4.3036750655
 11
1.4317473526
 21
4.4375333332
  0
LINE
  5
385
100
AcDbEntity
  8
0
100
AcDbLine
 62
7
  6
CONTINUOUS
 10
1.4789914471
 20
4.4375333332
 11
1.4789914471
 21
4.3036750655
  0
LINE
  5
386
100
AcDbEntity
  8
0
100
AcDbLine
 62
7
  6
CONTINUOUS
 10
1.4789914471
 20
4.256430971
 11
1.4789914471
 21
4.1225727033
  0
LINE
  5
387
100
AcDbEntity
  8
0
100
AcDbLine
 62
7
  6
CONTINUOUS
 10
1.4789914471
 20
4.0753286088
 11
1.4789914471
 21
3.9414703411
  0
LINE
  5
388
100
AcDbEntity
  8
0
100
AcDbLine
 62
7
  6
CONTINUOUS
 10
1.4789914471
 20
3.8942262466
 11
1.4789914471
 21
3.7603679789
  0
LINE
  5
389
100
AcDbEntity
  8
0
100
AcDbLine
 62
7
  6
CONTINUOUS
 10
1.4789914471
 20
3.7131238844
 11
1.4789914471
 21
3.5792656167
  0
LINE
  5
38A
100
AcDbEntity
  8
0
100
AcDbLine
 62
7
  6
CONTINUOUS
 10
1.4789914471
 20
3.5320215222
 11
1.4789914471
 21
3.3981632545
  0
LINE
  5
38B
100
AcDbEntity
  8
0
100
AcDbLine
 62
7
  6
CONTINUOUS
 10
1.4789914471
 20
3.35091916
 11
1.4789914471
 21
3.2170608923
  0
LINE
  5
38C
100
AcDbEntity
  8
0
100
AcDbLine
 62
7
  6
CONTINUOUS
 10
1.4789914471
 20
3.1698167978
 11
1.4789914471
 21
3.0359585301
  0
LINE
  5
38D
100
AcDbEntity
  8
0
100
AcDbLine
 62
7
  6
CONTINUOUS
 10
1.4789914471
 20
2.9887144356
 11
1.4789914471
 21
2.8548561678
  0
LINE
  5
38E
100
AcDbEntity
  8
0
100
AcDbLine
 62
7
  6
CONTINUOUS
 10
1.4789914471
 20
2.8076120734
 11
1.4789914471
 21
2.6737538056
  0
LINE
  5
38F
100
AcDbEntity
  8
0
100
AcDbLine
 62
7
  6
CONTINUOUS
 10
1.4789914471
 20
2.6265097112
 11
1.4789914471
 21
2.4926514434
  0
LINE
  5
390
100
AcDbEntity
  8
0
100
AcDbLine
 62
7
  6
CONTINUOUS
 10
1.4789914471
 20
2.4454073489
 11
1.4789914471
 21
2.3115490812
  0
LINE
  5
391
100
AcDbEntity
  8
0
100
AcDbLine
 62
7
  6
CONTINUOUS
 10
1.4789914471
 20
2.2643049867
 11
1.4789914471
 21
2.130446719
  0
LINE
  5
392
100
AcDbEntity
  8
0
100
AcDbLine
 62
7
  6
CONTINUOUS
 10
1.4789914471
 20
2.0832026245
 11
1.4789914471
 21
1.9493443568
  0
LINE
  5
393
100
AcDbEntity
  8
0
100
AcDbLine
 62
7
  6
CONTINUOUS
 10
1.4789914471
 20
1.9021002623
 11
1.4789914471
 21
1.7682419946
  0
LINE
  5
394
100
AcDbEntity
  8
0
100
AcDbLine
 62
7
  6
CONTINUOUS
 10
1.4789914471
 20
1.7209979001
 11
1.4789914471
 21
1.5871396324
  0
LINE
  5
395
100
AcDbEntity
  8
0
100
AcDbLine
 62
7
  6
CONTINUOUS
 10
1.4789914471
 20
1.5398955379
 11
1.4789914471
 21
1.4060372702
  0
LINE
  5
396
100
AcDbEntity
  8
0
100
AcDbLine
 62
7
  6
CONTINUOUS
 10
1.5026134944
 20
1.3083994749
 11
1.5026134944
 21
0.9068246718
  0
LINE
  5
397
100
AcDbEntity
  8
0
100
AcDbLine
 62
7
  6
CONTINUOUS
 10
1.2978890849
 20
2.8548561678
 11
1.4317473526
 21
2.8548561678
  0
LINE
  5
398
100
AcDbEntity
  8
0
100
AcDbLine
 62
7
  6
CONTINUOUS
 10
1.4789914471
 20
2.8548561678
 11
1.6128497149
 21
2.8548561678
  0
LINE
  5
399
100
AcDbEntity
  8
0
100
AcDbLine
 62
7
  6
CONTINUOUS
 10
1.6600938093
 20
2.8548561678
 11
1.7939520771
 21
2.8548561678
  0
LINE
  5
39A
100
AcDbEntity
  8
0
100
AcDbLine
 62
7
  6
CONTINUOUS
 10
1.8411961715
 20
2.8548561678
 11
1.9750544393
 21
2.8548561678
  0
LINE
  5
39B
100
AcDbEntity
  8
0
100
AcDbLine
 62
7
  6
CONTINUOUS
 10
2.0222985337
 20
2.8548561678
 11
2.1561568015
 21
2.8548561678
  0
LINE
  5
39C
100
AcDbEntity
  8
0
100
AcDbLine
 62
7
  6
CONTINUOUS
 10
2.203400896
 20
2.8548561678
 11
2.3372591637
 21
2.8548561678
  0
LINE
  5
39D
100
AcDbEntity
  8
0
100
AcDbLine
 62
7
  6
CONTINUOUS
 10
2.3372591637
 20
2.9887144356
 11
2.203400896
 21
2.9887144356
  0
LINE
  5
39E
100
AcDbEntity
  8
0
100
AcDbLine
 62
7
  6
CONTINUOUS
 10
2.1561568015
 20
2.9887144356
 11
2.0222985337
 21
2.9887144356
  0
LINE
  5
39F
100
AcDbEntity
  8
0
100
AcDbLine
 62
7
  6
CONTINUOUS
 10
1.9750544393
 20
2.9887144356
 11
1.8411961715
 21
2.9887144356
  0
LINE
  5
3A0
100
AcDbEntity
  8
0
100
AcDbLine
 62
7
  6
CONTINUOUS
 10
1.7939520771
 20
2.9887144356
 11
1.6600938093
 21
2.9887144356
  0
LINE
  5
3A1
100
AcDbEntity
  8
0
100
AcDbLine
 62
7
  6
CONTINUOUS
 10
1.6128497149
 20
2.9887144356
 11
1.4789914471
 21
2.9887144356
  0
LINE
  5
3A2
100
AcDbEntity
  8
0
100
AcDbLine
 62
7
  6
CONTINUOUS
 10
1.4317473526
 20
2.9887144356
 11
1.2978890849
 21
2.9887144356
  0
LINE
  5
3A3
100
AcDbEntity
  8
0
100
AcDbLine
 62
7
  6
CONTINUOUS
 10
1.5321410534
 20
4.9788719159
 11
1.5321410534
 21
4.7623364828
  0
LINE
  5
3A4
100
AcDbEntity
  8
0
100
AcDbLine
 62
7
  6
CONTINUOUS
 10
1.5715111322
 20
5.0182419946
 11
1.5715111322
 21
4.7229664041
  0
LINE
  5
3A5
100
AcDbEntity
  8
0
100
AcDbLine
 62
7
  6
CONTINUOUS
 10
1.5813536519
 20
0.9068246718
 11
1.5813536519
 21
1.3083994749
  0
LINE
  5
3A6
100
AcDbEntity
  8
0
100
AcDbLine
 62
7
  6
CONTINUOUS
 10
1.5902119196
 20
5.4650923883
 11
1.5902119196
 21
5.2839900261
  0
LINE
  5
3A7
100
AcDbEntity
  8
0
100
AcDbLine
 62
7
  6
CONTINUOUS
 10
1.5921804235
 20
5.4650923883
 11
1.5921804235
 21
5.2839900261
  0
LINE
  5
3A8
100
AcDbEntity
  8
0
100
AcDbLine
 62
7
  6
CONTINUOUS
 10
1.6128497149
 20
1.4060372702
 11
1.6128497149
 21
1.5398955379
  0
LINE
  5
3A9
100
AcDbEntity
  8
0
100
AcDbLine
 62
7
  6
CONTINUOUS
 10
1.6128497149
 20
1.5871396324
 11
1.6128497149
 21
1.7209979001
  0
LINE
  5
3AA
100
AcDbEntity
  8
0
100
AcDbLine
 62
7
  6
CONTINUOUS
 10
1.6128497149
 20
1.7682419946
 11
1.6128497149
 21
1.9021002623
  0
LINE
  5
3AB
100
AcDbEntity
  8
0
100
AcDbLine
 62
7
  6
CONTINUOUS
 10
1.6128497149
 20
1.9493443568
 11
1.6128497149
 21
2.0832026245
  0
LINE
  5
3AC
100
AcDbEntity
  8
0
100
AcDbLine
 62
7
  6
CONTINUOUS
 10
1.6128497149
 20
2.130446719
 11
1.6128497149
 21
2.2643049867
  0
LINE
  5
3AD
100
AcDbEntity
  8
0
100
AcDbLine
 62
7
  6
CONTINUOUS
 10
1.6128497149
 20
2.3115490812
 11
1.6128497149
 21
2.4454073489
  0
LINE
  5
3AE
100
AcDbEntity
  8
0
100
AcDbLine
 62
7
  6
CONTINUOUS
 10
1.6128497149
 20
2.4926514434
 11
1.6128497149
 21
2.6265097112
  0
LINE
  5
3AF
100
AcDbEntity
  8
0
100
AcDbLine
 62
7
  6
CONTINUOUS
 10
1.6128497149
 20
2.6737538056
 11
1.6128497149
 21
2.8076120734
  0
LINE
  5
3B0
100
AcDbEntity
  8
0
100
AcDbLine
 62
7
  6
CONTINUOUS
 10
1.6128497149
 20
2.8548561678
 11
1.6128497149
 21
2.9887144356
  0
LINE
  5
3B1
100
AcDbEntity
  8
0
100
AcDbLine
 62
7
  6
CONTINUOUS
 10
1.6128497149
 20
3.0359585301
 11
1.6128497149
 21
3.1698167978
  0
LINE
  5
3B2
100
AcDbEntity
  8
0
100
AcDbLine
 62
7
  6
CONTINUOUS
 10
1.6128497149
 20
3.2170608923
 11
1.6128497149
 21
3.35091916
  0
LINE
  5
3B3
100
AcDbEntity
  8
0
100
AcDbLine
 62
7
  6
CONTINUOUS
 10
1.6128497149
 20
3.3981632545
 11
1.6128497149
 21
3.5320215222
  0
LINE
  5
3B4
100
AcDbEntity
  8
0
100
AcDbLine
 62
7
  6
CONTINUOUS
 10
1.6128497149
 20
3.5792656167
 11
1.6128497149
 21
3.7131238844
  0
LINE
  5
3B5
100
AcDbEntity
  8
0
100
AcDbLine
 62
7
  6
CONTINUOUS
 10
1.6128497149
 20
3.7603679789
 11
1.6128497149
 21
3.8942262466
  0
LINE
  5
3B6
100
AcDbEntity
  8
0
100
AcDbLine
 62
7
  6
CONTINUOUS
 10
1.6128497149
 20
3.9414703411
 11
1.6128497149
 21
4.0753286088
  0
LINE
  5
3B7
100
AcDbEntity
  8
0
100
AcDbLine
 62
7
  6
CONTINUOUS
 10
1.6128497149
 20
4.1225727033
 11
1.6128497149
 21
4.256430971
  0
LINE
  5
3B8
100
AcDbEntity
  8
0
100
AcDbLine
 62
7
  6
CONTINUOUS
 10
1.6128497149
 20
4.3036750655
 11
1.6128497149
 21
4.4375333332
  0
LINE
  5
3B9
100
AcDbEntity
  8
0
100
AcDbLine
 62
7
  6
CONTINUOUS
 10
1.6207237306
 20
4.7229664041
 11
1.6207237306
 21
5.0182419946
  0
LINE
  5
3BA
100
AcDbEntity
  8
0
100
AcDbLine
 62
7
  6
CONTINUOUS
 10
1.6600938093
 20
4.9788719159
 11
1.6600938093
 21
4.7623364828
  0
LINE
  5
3BB
100
AcDbEntity
  8
0
100
AcDbLine
 62
7
  6
CONTINUOUS
 10
1.6600938093
 20
4.4375333332
 11
1.6600938093
 21
4.3036750655
  0
LINE
  5
3BC
100
AcDbEntity
  8
0
100
AcDbLine
 62
7
  6
CONTINUOUS
 10
1.6600938093
 20
4.256430971
 11
1.6600938093
 21
4.1225727033
  0
LINE
  5
3BD
100
AcDbEntity
  8
0
100
AcDbLine
 62
7
  6
CONTINUOUS
 10
1.6600938093
 20
4.0753286088
 11
1.6600938093
 21
3.9414703411
  0
LINE
  5
3BE
100
AcDbEntity
  8
0
100
AcDbLine
 62
7
  6
CONTINUOUS
 10
1.6600938093
 20
3.8942262466
 11
1.6600938093
 21
3.7603679789
  0
LINE
  5
3BF
100
AcDbEntity
  8
0
100
AcDbLine
 62
7
  6
CONTINUOUS
 10
1.6600938093
 20
3.7131238844
 11
1.6600938093
 21
3.5792656167
  0
LINE
  5
3C0
100
AcDbEntity
  8
0
100
AcDbLine
 62
7
  6
CONTINUOUS
 10
1.6600938093
 20
3.5320215222
 11
1.6600938093
 21
3.3981632545
  0
LINE
  5
3C1
100
AcDbEntity
  8
0
100
AcDbLine
 62
7
  6
CONTINUOUS
 10
1.6600938093
 20
3.35091916
 11
1.6600938093
 21
3.2170608923
  0
LINE
  5
3C2
100
AcDbEntity
  8
0
100
AcDbLine
 62
7
  6
CONTINUOUS
 10
1.6600938093
 20
3.1698167978
 11
1.6600938093
 21
3.0359585301
  0
LINE
  5
3C3
100
AcDbEntity
  8
0
100
AcDbLine
 62
7
  6
CONTINUOUS
 10
1.6600938093
 20
2.9887144356
 11
1.6600938093
 21
2.8548561678
  0
LINE
  5
3C4
100
AcDbEntity
  8
0
100
AcDbLine
 62
7
  6
CONTINUOUS
 10
1.6600938093
 20
2.8076120734
 11
1.6600938093
 21
2.6737538056
  0
LINE
  5
3C5
100
AcDbEntity
  8
0
100
AcDbLine
 62
7
  6
CONTINUOUS
 10
1.6600938093
 20
2.6265097112
 11
1.6600938093
 21
2.4926514434
  0
LINE
  5
3C6
100
AcDbEntity
  8
0
100
AcDbLine
 62
7
  6
CONTINUOUS
 10
1.6600938093
 20
2.4454073489
 11
1.6600938093
 21
2.3115490812
  0
LINE
  5
3C7
100
AcDbEntity
  8
0
100
AcDbLine
 62
7
  6
CONTINUOUS
 10
1.6600938093
 20
2.2643049867
 11
1.6600938093
 21
2.130446719
  0
LINE
  5
3C8
100
AcDbEntity
  8
0
100
AcDbLine
 62
7
  6
CONTINUOUS
 10
1.6600938093
 20
2.0832026245
 11
1.6600938093
 21
1.9493443568
  0
LINE
  5
3C9
100
AcDbEntity
  8
0
100
AcDbLine
 62
7
  6
CONTINUOUS
 10
1.6600938093
 20
1.9021002623
 11
1.6600938093
 21
1.7682419946
  0
LINE
  5
3CA
100
AcDbEntity
  8
0
100
AcDbLine
 62
7
  6
CONTINUOUS
 10
1.6600938093
 20
1.7209979001
 11
1.6600938093
 21
1.5871396324
  0
LINE
  5
3CB
100
AcDbEntity
  8
0
100
AcDbLine
 62
7
  6
CONTINUOUS
 10
1.6600938093
 20
1.5398955379
 11
1.6600938093
 21
1.4060372702
  0
LINE
  5
3CC
100
AcDbEntity
  8
0
100
AcDbLine
 62
7
  6
CONTINUOUS
 10
1.6600938093
 20
1.0446199474
 11
1.6600938093
 21
0.9068246718
  0
LINE
  5
3CD
100
AcDbEntity
  8
0
100
AcDbLine
 62
7
  6
CONTINUOUS
 10
1.2978890849
 20
3.0359585301
 11
1.4317473526
 21
3.0359585301
  0
LINE
  5
3CE
100
AcDbEntity
  8
0
100
AcDbLine
 62
7
  6
CONTINUOUS
 10
1.4789914471
 20
3.0359585301
 11
1.6128497149
 21
3.0359585301
  0
LINE
  5
3CF
100
AcDbEntity
  8
0
100
AcDbLine
 62
7
  6
CONTINUOUS
 10
1.6600938093
 20
3.0359585301
 11
1.7939520771
 21
3.0359585301
  0
LINE
  5
3D0
100
AcDbEntity
  8
0
100
AcDbLine
 62
7
  6
CONTINUOUS
 10
1.8411961715
 20
3.0359585301
 11
1.9750544393
 21
3.0359585301
  0
LINE
  5
3D1
100
AcDbEntity
  8
0
100
AcDbLine
 62
7
  6
CONTINUOUS
 10
2.0222985337
 20
3.0359585301
 11
2.1561568015
 21
3.0359585301
  0
LINE
  5
3D2
100
AcDbEntity
  8
0
100
AcDbLine
 62
7
  6
CONTINUOUS
 10
2.203400896
 20
3.0359585301
 11
2.3372591637
 21
3.0359585301
  0
LINE
  5
3D3
100
AcDbEntity
  8
0
100
AcDbLine
 62
7
  6
CONTINUOUS
 10
1.6994638881
 20
5.5420264983
 11
1.6994638881
 21
5.6186356954
  0
LINE
  5
3D4
100
AcDbEntity
  8
0
100
AcDbLine
 62
7
  6
CONTINUOUS
 10
1.7683615259
 20
4.9788719159
 11
1.7683615259
 21
4.7623364828
  0
LINE
  5
3D5
100
AcDbEntity
  8
0
100
AcDbLine
 62
7
  6
CONTINUOUS
 10
1.7782040456
 20
5.5682133603
 11
1.7782040456
 21
5.6432410877
  0
LINE
  5
3D6
100
AcDbEntity
  8
0
100
AcDbLine
 62
7
  6
CONTINUOUS
 10
1.7939520771
 20
1.4060372702
 11
1.7939520771
 21
1.5398955379
  0
LINE
  5
3D7
100
AcDbEntity
  8
0
100
AcDbLine
 62
7
  6
CONTINUOUS
 10
1.7939520771
 20
1.5871396324
 11
1.7939520771
 21
1.7209979001
  0
LINE
  5
3D8
100
AcDbEntity
  8
0
100
AcDbLine
 62
7
  6
CONTINUOUS
 10
1.7939520771
 20
1.7682419946
 11
1.7939520771
 21
1.9021002623
  0
LINE
  5
3D9
100
AcDbEntity
  8
0
100
AcDbLine
 62
7
  6
CONTINUOUS
 10
1.7939520771
 20
1.9493443568
 11
1.7939520771
 21
2.0832026245
  0
LINE
  5
3DA
100
AcDbEntity
  8
0
100
AcDbLine
 62
7
  6
CONTINUOUS
 10
1.7939520771
 20
2.130446719
 11
1.7939520771
 21
2.2643049867
  0
LINE
  5
3DB
100
AcDbEntity
  8
0
100
AcDbLine
 62
7
  6
CONTINUOUS
 10
1.7939520771
 20
2.3115490812
 11
1.7939520771
 21
2.4454073489
  0
LINE
  5
3DC
100
AcDbEntity
  8
0
100
AcDbLine
 62
7
  6
CONTINUOUS
 10
1.7939520771
 20
2.4926514434
 11
1.7939520771
 21
2.6265097112
  0
LINE
  5
3DD
100
AcDbEntity
  8
0
100
AcDbLine
 62
7
  6
CONTINUOUS
 10
1.7939520771
 20
2.6737538056
 11
1.7939520771
 21
2.8076120734
  0
LINE
  5
3DE
100
AcDbEntity
  8
0
100
AcDbLine
 62
7
  6
CONTINUOUS
 10
1.7939520771
 20
2.8548561678
 11
1.7939520771
 21
2.9887144356
  0
LINE
  5
3DF
100
AcDbEntity
  8
0
100
AcDbLine
 62
7
  6
CONTINUOUS
 10
1.7939520771
 20
3.0359585301
 11
1.7939520771
 21
3.1698167978
  0
LINE
  5
3E0
100
AcDbEntity
  8
0
100
AcDbLine
 62
7
  6
CONTINUOUS
 10
1.7939520771
 20
3.2170608923
 11
1.7939520771
 21
3.35091916
  0
LINE
  5
3E1
100
AcDbEntity
  8
0
100
AcDbLine
 62
7
  6
CONTINUOUS
 10
1.7939520771
 20
3.3981632545
 11
1.7939520771
 21
3.5320215222
  0
LINE
  5
3E2
100
AcDbEntity
  8
0
100
AcDbLine
 62
7
  6
CONTINUOUS
 10
1.7939520771
 20
3.5792656167
 11
1.7939520771
 21
3.7131238844
  0
LINE
  5
3E3
100
AcDbEntity
  8
0
100
AcDbLine
 62
7
  6
CONTINUOUS
 10
1.7939520771
 20
3.7603679789
 11
1.7939520771
 21
3.8942262466
  0
LINE
  5
3E4
100
AcDbEntity
  8
0
100
AcDbLine
 62
7
  6
CONTINUOUS
 10
1.7939520771
 20
3.9414703411
 11
1.7939520771
 21
4.0753286088
  0
LINE
  5
3E5
100
AcDbEntity
  8
0
100
AcDbLine
 62
7
  6
CONTINUOUS
 10
1.7939520771
 20
4.1225727033
 11
1.7939520771
 21
4.256430971
  0
LINE
  5
3E6
100
AcDbEntity
  8
0
100
AcDbLine
 62
7
  6
CONTINUOUS
 10
1.7939520771
 20
4.3036750655
 11
1.7939520771
 21
4.4375333332
  0
LINE
  5
3E7
100
AcDbEntity
  8
0
100
AcDbLine
 62
7
  6
CONTINUOUS
 10
1.8077316046
 20
5.0182419946
 11
1.8077316046
 21
4.7229664041
  0
LINE
  5
3E8
100
AcDbEntity
  8
0
100
AcDbLine
 62
7
  6
CONTINUOUS
 10
1.826432392
 20
5.4650923883
 11
1.826432392
 21
5.2839900261
  0
LINE
  5
3E9
100
AcDbEntity
  8
0
100
AcDbLine
 62
7
  6
CONTINUOUS
 10
1.828400896
 20
5.4650923883
 11
1.828400896
 21
5.2839900261
  0
LINE
  5
3EA
100
AcDbEntity
  8
0
100
AcDbLine
 62
7
  6
CONTINUOUS
 10
1.8411961715
 20
4.4375333332
 11
1.8411961715
 21
4.3036750655
  0
LINE
  5
3EB
100
AcDbEntity
  8
0
100
AcDbLine
 62
7
  6
CONTINUOUS
 10
1.8411961715
 20
4.256430971
 11
1.8411961715
 21
4.1225727033
  0
LINE
  5
3EC
100
AcDbEntity
  8
0
100
AcDbLine
 62
7
  6
CONTINUOUS
 10
1.8411961715
 20
4.0753286088
 11
1.8411961715
 21
3.9414703411
  0
LINE
  5
3ED
100
AcDbEntity
  8
0
100
AcDbLine
 62
7
  6
CONTINUOUS
 10
1.8411961715
 20
3.8942262466
 11
1.8411961715
 21
3.7603679789
  0
LINE
  5
3EE
100
AcDbEntity
  8
0
100
AcDbLine
 62
7
  6
CONTINUOUS
 10
1.8411961715
 20
3.7131238844
 11
1.8411961715
 21
3.5792656167
  0
LINE
  5
3EF
100
AcDbEntity
  8
0
100
AcDbLine
 62
7
  6
CONTINUOUS
 10
1.8411961715
 20
3.5320215222
 11
1.8411961715
 21
3.3981632545
  0
LINE
  5
3F0
100
AcDbEntity
  8
0
100
AcDbLine
 62
7
  6
CONTINUOUS
 10
1.8411961715
 20
3.35091916
 11
1.8411961715
 21
3.2170608923
  0
LINE
  5
3F1
100
AcDbEntity
  8
0
100
AcDbLine
 62
7
  6
CONTINUOUS
 10
1.8411961715
 20
3.1698167978
 11
1.8411961715
 21
3.0359585301
  0
LINE
  5
3F2
100
AcDbEntity
  8
0
100
AcDbLine
 62
7
  6
CONTINUOUS
 10
1.8411961715
 20
2.9887144356
 11
1.8411961715
 21
2.8548561678
  0
LINE
  5
3F3
100
AcDbEntity
  8
0
100
AcDbLine
 62
7
  6
CONTINUOUS
 10
1.8411961715
 20
2.8076120734
 11
1.8411961715
 21
2.6737538056
  0
LINE
  5
3F4
100
AcDbEntity
  8
0
100
AcDbLine
 62
7
  6
CONTINUOUS
 10
1.8411961715
 20
2.6265097112
 11
1.8411961715
 21
2.4926514434
  0
LINE
  5
3F5
100
AcDbEntity
  8
0
100
AcDbLine
 62
7
  6
CONTINUOUS
 10
1.8411961715
 20
2.4454073489
 11
1.8411961715
 21
2.3115490812
  0
LINE
  5
3F6
100
AcDbEntity
  8
0
100
AcDbLine
 62
7
  6
CONTINUOUS
 10
1.8411961715
 20
2.2643049867
 11
1.8411961715
 21
2.130446719
  0
LINE
  5
3F7
100
AcDbEntity
  8
0
100
AcDbLine
 62
7
  6
CONTINUOUS
 10
1.8411961715
 20
2.0832026245
 11
1.8411961715
 21
1.9493443568
  0
LINE
  5
3F8
100
AcDbEntity
  8
0
100
AcDbLine
 62
7
  6
CONTINUOUS
 10
1.8411961715
 20
1.9021002623
 11
1.8411961715
 21
1.7682419946
  0
LINE
  5
3F9
100
AcDbEntity
  8
0
100
AcDbLine
 62
7
  6
CONTINUOUS
 10
1.8411961715
 20
1.7209979001
 11
1.8411961715
 21
1.5871396324
  0
LINE
  5
3FA
100
AcDbEntity
  8
0
100
AcDbLine
 62
7
  6
CONTINUOUS
 10
1.8411961715
 20
1.5398955379
 11
1.8411961715
 21
1.4060372702
  0
LINE
  5
3FB
100
AcDbEntity
  8
0
100
AcDbLine
 62
7
  6
CONTINUOUS
 10
2.3372591637
 20
3.1698167978
 11
2.203400896
 21
3.1698167978
  0
LINE
  5
3FC
100
AcDbEntity
  8
0
100
AcDbLine
 62
7
  6
CONTINUOUS
 10
2.1561568015
 20
3.1698167978
 11
2.0222985337
 21
3.1698167978
  0
LINE
  5
3FD
100
AcDbEntity
  8
0
100
AcDbLine
 62
7
  6
CONTINUOUS
 10
1.9750544393
 20
3.1698167978
 11
1.8411961715
 21
3.1698167978
  0
LINE
  5
3FE
100
AcDbEntity
  8
0
100
AcDbLine
 62
7
  6
CONTINUOUS
 10
1.7939520771
 20
3.1698167978
 11
1.6600938093
 21
3.1698167978
  0
LINE
  5
3FF
100
AcDbEntity
  8
0
100
AcDbLine
 62
7
  6
CONTINUOUS
 10
1.6128497149
 20
3.1698167978
 11
1.4789914471
 21
3.1698167978
  0
LINE
  5
400
100
AcDbEntity
  8
0
100
AcDbLine
 62
7
  6
CONTINUOUS
 10
1.4317473526
 20
3.1698167978
 11
1.2978890849
 21
3.1698167978
  0
LINE
  5
401
100
AcDbEntity
  8
0
100
AcDbLine
 62
7
  6
CONTINUOUS
 10
1.2978890849
 20
3.2170608923
 11
1.4317473526
 21
3.2170608923
  0
LINE
  5
402
100
AcDbEntity
  8
0
100
AcDbLine
 62
7
  6
CONTINUOUS
 10
1.4789914471
 20
3.2170608923
 11
1.6128497149
 21
3.2170608923
  0
LINE
  5
403
100
AcDbEntity
  8
0
100
AcDbLine
 62
7
  6
CONTINUOUS
 10
1.6600938093
 20
3.2170608923
 11
1.7939520771
 21
3.2170608923
  0
LINE
  5
404
100
AcDbEntity
  8
0
100
AcDbLine
 62
7
  6
CONTINUOUS
 10
1.8411961715
 20
3.2170608923
 11
1.9750544393
 21
3.2170608923
  0
LINE
  5
405
100
AcDbEntity
  8
0
100
AcDbLine
 62
7
  6
CONTINUOUS
 10
2.0222985337
 20
3.2170608923
 11
2.1561568015
 21
3.2170608923
  0
LINE
  5
406
100
AcDbEntity
  8
0
100
AcDbLine
 62
7
  6
CONTINUOUS
 10
2.203400896
 20
3.2170608923
 11
2.3372591637
 21
3.2170608923
  0
LINE
  5
407
100
AcDbEntity
  8
0
100
AcDbLine
 62
7
  6
CONTINUOUS
 10
1.856944203
 20
4.7229664041
 11
1.856944203
 21
5.0182419946
  0
LINE
  5
408
100
AcDbEntity
  8
0
100
AcDbLine
 62
7
  6
CONTINUOUS
 10
1.8963142818
 20
4.9788719159
 11
1.8963142818
 21
4.7623364828
  0
LINE
  5
409
100
AcDbEntity
  8
0
100
AcDbLine
 62
7
  6
CONTINUOUS
 10
1.9750544393
 20
0.9068246718
 11
1.9750544393
 21
1.0446199474
  0
LINE
  5
40A
100
AcDbEntity
  8
0
100
AcDbLine
 62
7
  6
CONTINUOUS
 10
1.9750544393
 20
1.4060372702
 11
1.9750544393
 21
1.5398955379
  0
LINE
  5
40B
100
AcDbEntity
  8
0
100
AcDbLine
 62
7
  6
CONTINUOUS
 10
1.9750544393
 20
1.5871396324
 11
1.9750544393
 21
1.7209979001
  0
LINE
  5
40C
100
AcDbEntity
  8
0
100
AcDbLine
 62
7
  6
CONTINUOUS
 10
1.9750544393
 20
1.7682419946
 11
1.9750544393
 21
1.9021002623
  0
LINE
  5
40D
100
AcDbEntity
  8
0
100
AcDbLine
 62
7
  6
CONTINUOUS
 10
1.9750544393
 20
1.9493443568
 11
1.9750544393
 21
2.0832026245
  0
LINE
  5
40E
100
AcDbEntity
  8
0
100
AcDbLine
 62
7
  6
CONTINUOUS
 10
1.9750544393
 20
2.130446719
 11
1.9750544393
 21
2.2643049867
  0
LINE
  5
40F
100
AcDbEntity
  8
0
100
AcDbLine
 62
7
  6
CONTINUOUS
 10
1.9750544393
 20
2.3115490812
 11
1.9750544393
 21
2.4454073489
  0
LINE
  5
410
100
AcDbEntity
  8
0
100
AcDbLine
 62
7
  6
CONTINUOUS
 10
1.9750544393
 20
2.4926514434
 11
1.9750544393
 21
2.6265097112
  0
LINE
  5
411
100
AcDbEntity
  8
0
100
AcDbLine
 62
7
  6
CONTINUOUS
 10
1.9750544393
 20
2.6737538056
 11
1.9750544393
 21
2.8076120734
  0
LINE
  5
412
100
AcDbEntity
  8
0
100
AcDbLine
 62
7
  6
CONTINUOUS
 10
1.9750544393
 20
2.8548561678
 11
1.9750544393
 21
2.9887144356
  0
LINE
  5
413
100
AcDbEntity
  8
0
100
AcDbLine
 62
7
  6
CONTINUOUS
 10
1.9750544393
 20
3.0359585301
 11
1.9750544393
 21
3.1698167978
  0
LINE
  5
414
100
AcDbEntity
  8
0
100
AcDbLine
 62
7
  6
CONTINUOUS
 10
1.9750544393
 20
3.2170608923
 11
1.9750544393
 21
3.35091916
  0
LINE
  5
415
100
AcDbEntity
  8
0
100
AcDbLine
 62
7
  6
CONTINUOUS
 10
1.9750544393
 20
3.3981632545
 11
1.9750544393
 21
3.5320215222
  0
LINE
  5
416
100
AcDbEntity
  8
0
100
AcDbLine
 62
7
  6
CONTINUOUS
 10
1.9750544393
 20
3.5792656167
 11
1.9750544393
 21
3.7131238844
  0
LINE
  5
417
100
AcDbEntity
  8
0
100
AcDbLine
 62
7
  6
CONTINUOUS
 10
1.9750544393
 20
3.7603679789
 11
1.9750544393
 21
3.8942262466
  0
LINE
  5
418
100
AcDbEntity
  8
0
100
AcDbLine
 62
7
  6
CONTINUOUS
 10
1.9750544393
 20
3.9414703411
 11
1.9750544393
 21
4.0753286088
  0
LINE
  5
419
100
AcDbEntity
  8
0
100
AcDbLine
 62
7
  6
CONTINUOUS
 10
1.9750544393
 20
4.1225727033
 11
1.9750544393
 21
4.256430971
  0
LINE
  5
41A
100
AcDbEntity
  8
0
100
AcDbLine
 62
7
  6
CONTINUOUS
 10
1.9750544393
 20
4.3036750655
 11
1.9750544393
 21
4.4375333332
  0
LINE
  5
41B
100
AcDbEntity
  8
0
100
AcDbLine
 62
7
  6
CONTINUOUS
 10
2.0045819983
 20
4.9788719159
 11
2.0045819983
 21
4.7623364828
  0
LINE
  5
41C
100
AcDbEntity
  8
0
100
AcDbLine
 62
7
  6
CONTINUOUS
 10
2.3372591637
 20
3.35091916
 11
2.203400896
 21
3.35091916
  0
LINE
  5
41D
100
AcDbEntity
  8
0
100
AcDbLine
 62
7
  6
CONTINUOUS
 10
2.1561568015
 20
3.35091916
 11
2.0222985337
 21
3.35091916
  0
LINE
  5
41E
100
AcDbEntity
  8
0
100
AcDbLine
 62
7
  6
CONTINUOUS
 10
1.9750544393
 20
3.35091916
 11
1.8411961715
 21
3.35091916
  0
LINE
  5
41F
100
AcDbEntity
  8
0
100
AcDbLine
 62
7
  6
CONTINUOUS
 10
1.7939520771
 20
3.35091916
 11
1.6600938093
 21
3.35091916
  0
LINE
  5
420
100
AcDbEntity
  8
0
100
AcDbLine
 62
7
  6
CONTINUOUS
 10
1.6128497149
 20
3.35091916
 11
1.4789914471
 21
3.35091916
  0
LINE
  5
421
100
AcDbEntity
  8
0
100
AcDbLine
 62
7
  6
CONTINUOUS
 10
1.4317473526
 20
3.35091916
 11
1.2978890849
 21
3.35091916
  0
LINE
  5
422
100
AcDbEntity
  8
0
100
AcDbLine
 62
7
  6
CONTINUOUS
 10
1.2978890849
 20
3.3981632545
 11
1.4317473526
 21
3.3981632545
  0
LINE
  5
423
100
AcDbEntity
  8
0
100
AcDbLine
 62
7
  6
CONTINUOUS
 10
1.4789914471
 20
3.3981632545
 11
1.6128497149
 21
3.3981632545
  0
LINE
  5
424
100
AcDbEntity
  8
0
100
AcDbLine
 62
7
  6
CONTINUOUS
 10
1.6600938093
 20
3.3981632545
 11
1.7939520771
 21
3.3981632545
  0
LINE
  5
425
100
AcDbEntity
  8
0
100
AcDbLine
 62
7
  6
CONTINUOUS
 10
1.8411961715
 20
3.3981632545
 11
1.9750544393
 21
3.3981632545
  0
LINE
  5
426
100
AcDbEntity
  8
0
100
AcDbLine
 62
7
  6
CONTINUOUS
 10
2.0222985337
 20
3.3981632545
 11
2.1561568015
 21
3.3981632545
  0
LINE
  5
427
100
AcDbEntity
  8
0
100
AcDbLine
 62
7
  6
CONTINUOUS
 10
2.203400896
 20
3.3981632545
 11
2.3372591637
 21
3.3981632545
  0
LINE
  5
428
100
AcDbEntity
  8
0
100
AcDbLine
 62
7
  6
CONTINUOUS
 10
2.0222985337
 20
4.4375333332
 11
2.0222985337
 21
4.3036750655
  0
LINE
  5
429
100
AcDbEntity
  8
0
100
AcDbLine
 62
7
  6
CONTINUOUS
 10
2.0222985337
 20
4.256430971
 11
2.0222985337
 21
4.1225727033
  0
LINE
  5
42A
100
AcDbEntity
  8
0
100
AcDbLine
 62
7
  6
CONTINUOUS
 10
2.0222985337
 20
4.0753286088
 11
2.0222985337
 21
3.9414703411
  0
LINE
  5
42B
100
AcDbEntity
  8
0
100
AcDbLine
 62
7
  6
CONTINUOUS
 10
2.0222985337
 20
3.8942262466
 11
2.0222985337
 21
3.7603679789
  0
LINE
  5
42C
100
AcDbEntity
  8
0
100
AcDbLine
 62
7
  6
CONTINUOUS
 10
2.0222985337
 20
3.7131238844
 11
2.0222985337
 21
3.5792656167
  0
LINE
  5
42D
100
AcDbEntity
  8
0
100
AcDbLine
 62
7
  6
CONTINUOUS
 10
2.0222985337
 20
3.5320215222
 11
2.0222985337
 21
3.3981632545
  0
LINE
  5
42E
100
AcDbEntity
  8
0
100
AcDbLine
 62
7
  6
CONTINUOUS
 10
2.0222985337
 20
3.35091916
 11
2.0222985337
 21
3.2170608923
  0
LINE
  5
42F
100
AcDbEntity
  8
0
100
AcDbLine
 62
7
  6
CONTINUOUS
 10
2.0222985337
 20
3.1698167978
 11
2.0222985337
 21
3.0359585301
  0
LINE
  5
430
100
AcDbEntity
  8
0
100
AcDbLine
 62
7
  6
CONTINUOUS
 10
2.0222985337
 20
2.9887144356
 11
2.0222985337
 21
2.8548561678
  0
LINE
  5
431
100
AcDbEntity
  8
0
100
AcDbLine
 62
7
  6
CONTINUOUS
 10
2.0222985337
 20
2.8076120734
 11
2.0222985337
 21
2.6737538056
  0
LINE
  5
432
100
AcDbEntity
  8
0
100
AcDbLine
 62
7
  6
CONTINUOUS
 10
2.0222985337
 20
2.6265097112
 11
2.0222985337
 21
2.4926514434
  0
LINE
  5
433
100
AcDbEntity
  8
0
100
AcDbLine
 62
7
  6
CONTINUOUS
 10
2.0222985337
 20
2.4454073489
 11
2.0222985337
 21
2.3115490812
  0
LINE
  5
434
100
AcDbEntity
  8
0
100
AcDbLine
 62
7
  6
CONTINUOUS
 10
2.0222985337
 20
2.2643049867
 11
2.0222985337
 21
2.130446719
  0
LINE
  5
435
100
AcDbEntity
  8
0
100
AcDbLine
 62
7
  6
CONTINUOUS
 10
2.0222985337
 20
2.0832026245
 11
2.0222985337
 21
1.9493443568
  0
LINE
  5
436
100
AcDbEntity
  8
0
100
AcDbLine
 62
7
  6
CONTINUOUS
 10
2.0222985337
 20
1.9021002623
 11
2.0222985337
 21
1.7682419946
  0
LINE
  5
437
100
AcDbEntity
  8
0
100
AcDbLine
 62
7
  6
CONTINUOUS
 10
2.0222985337
 20
1.7209979001
 11
2.0222985337
 21
1.5871396324
  0
LINE
  5
438
100
AcDbEntity
  8
0
100
AcDbLine
 62
7
  6
CONTINUOUS
 10
2.0222985337
 20
1.5398955379
 11
2.0222985337
 21
1.4060372702
  0
LINE
  5
439
100
AcDbEntity
  8
0
100
AcDbLine
 62
7
  6
CONTINUOUS
 10
2.0439520771
 20
5.0182419946
 11
2.0439520771
 21
4.7229664041
  0
LINE
  5
43A
100
AcDbEntity
  8
0
100
AcDbLine
 62
7
  6
CONTINUOUS
 10
2.0537945967
 20
0.9068246718
 11
2.0537945967
 21
1.3083994749
  0
LINE
  5
43B
100
AcDbEntity
  8
0
100
AcDbLine
 62
7
  6
CONTINUOUS
 10
2.0626528645
 20
5.4650923883
 11
2.0626528645
 21
5.2839900261
  0
LINE
  5
43C
100
AcDbEntity
  8
0
100
AcDbLine
 62
7
  6
CONTINUOUS
 10
2.0646213684
 20
5.4650923883
 11
2.0646213684
 21
5.2839900261
  0
LINE
  5
43D
100
AcDbEntity
  8
0
100
AcDbLine
 62
7
  6
CONTINUOUS
 10
2.0833221558
 20
4.7229664041
 11
2.0833221558
 21
5.0182419946
  0
LINE
  5
43E
100
AcDbEntity
  8
0
100
AcDbLine
 62
7
  6
CONTINUOUS
 10
2.1226922345
 20
4.9788719159
 11
2.1226922345
 21
4.7623364828
  0
LINE
  5
43F
100
AcDbEntity
  8
0
100
AcDbLine
 62
7
  6
CONTINUOUS
 10
2.1325347542
 20
0.9068246718
 11
2.1325347542
 21
1.3083994749
  0
LINE
  5
440
100
AcDbEntity
  8
0
100
AcDbLine
 62
7
  6
CONTINUOUS
 10
2.1561568015
 20
1.4060372702
 11
2.1561568015
 21
1.5398955379
  0
LINE
  5
441
100
AcDbEntity
  8
0
100
AcDbLine
 62
7
  6
CONTINUOUS
 10
2.1561568015
 20
1.5871396324
 11
2.1561568015
 21
1.7209979001
  0
LINE
  5
442
100
AcDbEntity
  8
0
100
AcDbLine
 62
7
  6
CONTINUOUS
 10
2.1561568015
 20
1.7682419946
 11
2.1561568015
 21
1.9021002623
  0
LINE
  5
443
100
AcDbEntity
  8
0
100
AcDbLine
 62
7
  6
CONTINUOUS
 10
2.1561568015
 20
1.9493443568
 11
2.1561568015
 21
2.0832026245
  0
LINE
  5
444
100
AcDbEntity
  8
0
100
AcDbLine
 62
7
  6
CONTINUOUS
 10
2.1561568015
 20
2.130446719
 11
2.1561568015
 21
2.2643049867
  0
LINE
  5
445
100
AcDbEntity
  8
0
100
AcDbLine
 62
7
  6
CONTINUOUS
 10
2.1561568015
 20
2.3115490812
 11
2.1561568015
 21
2.4454073489
  0
LINE
  5
446
100
AcDbEntity
  8
0
100
AcDbLine
 62
7
  6
CONTINUOUS
 10
2.1561568015
 20
2.4926514434
 11
2.1561568015
 21
2.6265097112
  0
LINE
  5
447
100
AcDbEntity
  8
0
100
AcDbLine
 62
7
  6
CONTINUOUS
 10
2.1561568015
 20
2.6737538056
 11
2.1561568015
 21
2.8076120734
  0
LINE
  5
448
100
AcDbEntity
  8
0
100
AcDbLine
 62
7
  6
CONTINUOUS
 10
2.1561568015
 20
2.8548561678
 11
2.1561568015
 21
2.9887144356
  0
LINE
  5
449
100
AcDbEntity
  8
0
100
AcDbLine
 62
7
  6
CONTINUOUS
 10
2.1561568015
 20
3.0359585301
 11
2.1561568015
 21
3.1698167978
  0
LINE
  5
44A
100
AcDbEntity
  8
0
100
AcDbLine
 62
7
  6
CONTINUOUS
 10
2.1561568015
 20
3.2170608923
 11
2.1561568015
 21
3.35091916
  0
LINE
  5
44B
100
AcDbEntity
  8
0
100
AcDbLine
 62
7
  6
CONTINUOUS
 10
2.1561568015
 20
3.3981632545
 11
2.1561568015
 21
3.5320215222
  0
LINE
  5
44C
100
AcDbEntity
  8
0
100
AcDbLine
 62
7
  6
CONTINUOUS
 10
2.1561568015
 20
3.5792656167
 11
2.1561568015
 21
3.7131238844
  0
LINE
  5
44D
100
AcDbEntity
  8
0
100
AcDbLine
 62
7
  6
CONTINUOUS
 10
2.1561568015
 20
3.7603679789
 11
2.1561568015
 21
3.8942262466
  0
LINE
  5
44E
100
AcDbEntity
  8
0
100
AcDbLine
 62
7
  6
CONTINUOUS
 10
2.1561568015
 20
3.9414703411
 11
2.1561568015
 21
4.0753286088
  0
LINE
  5
44F
100
AcDbEntity
  8
0
100
AcDbLine
 62
7
  6
CONTINUOUS
 10
2.1561568015
 20
4.1225727033
 11
2.1561568015
 21
4.256430971
  0
LINE
  5
450
100
AcDbEntity
  8
0
100
AcDbLine
 62
7
  6
CONTINUOUS
 10
2.1561568015
 20
4.3036750655
 11
2.1561568015
 21
4.4375333332
  0
LINE
  5
451
100
AcDbEntity
  8
0
100
AcDbLine
 62
7
  6
CONTINUOUS
 10
2.3372591637
 20
3.5320215222
 11
2.203400896
 21
3.5320215222
  0
LINE
  5
452
100
AcDbEntity
  8
0
100
AcDbLine
 62
7
  6
CONTINUOUS
 10
2.1561568015
 20
3.5320215222
 11
2.0222985337
 21
3.5320215222
  0
LINE
  5
453
100
AcDbEntity
  8
0
100
AcDbLine
 62
7
  6
CONTINUOUS
 10
1.9750544393
 20
3.5320215222
 11
1.8411961715
 21
3.5320215222
  0
LINE
  5
454
100
AcDbEntity
  8
0
100
AcDbLine
 62
7
  6
CONTINUOUS
 10
1.7939520771
 20
3.5320215222
 11
1.6600938093
 21
3.5320215222
  0
LINE
  5
455
100
AcDbEntity
  8
0
100
AcDbLine
 62
7
  6
CONTINUOUS
 10
1.6128497149
 20
3.5320215222
 11
1.4789914471
 21
3.5320215222
  0
LINE
  5
456
100
AcDbEntity
  8
0
100
AcDbLine
 62
7
  6
CONTINUOUS
 10
1.4317473526
 20
3.5320215222
 11
1.2978890849
 21
3.5320215222
  0
LINE
  5
457
100
AcDbEntity
  8
0
100
AcDbLine
 62
7
  6
CONTINUOUS
 10
1.2978890849
 20
3.5792656167
 11
1.4317473526
 21
3.5792656167
  0
LINE
  5
458
100
AcDbEntity
  8
0
100
AcDbLine
 62
7
  6
CONTINUOUS
 10
1.4789914471
 20
3.5792656167
 11
1.6128497149
 21
3.5792656167
  0
LINE
  5
459
100
AcDbEntity
  8
0
100
AcDbLine
 62
7
  6
CONTINUOUS
 10
1.6600938093
 20
3.5792656167
 11
1.7939520771
 21
3.5792656167
  0
LINE
  5
45A
100
AcDbEntity
  8
0
100
AcDbLine
 62
7
  6
CONTINUOUS
 10
1.8411961715
 20
3.5792656167
 11
1.9750544393
 21
3.5792656167
  0
LINE
  5
45B
100
AcDbEntity
  8
0
100
AcDbLine
 62
7
  6
CONTINUOUS
 10
2.0222985337
 20
3.5792656167
 11
2.1561568015
 21
3.5792656167
  0
LINE
  5
45C
100
AcDbEntity
  8
0
100
AcDbLine
 62
7
  6
CONTINUOUS
 10
2.203400896
 20
3.5792656167
 11
2.3372591637
 21
3.5792656167
  0
LINE
  5
45D
100
AcDbEntity
  8
0
100
AcDbLine
 62
7
  6
CONTINUOUS
 10
2.203400896
 20
4.4375333332
 11
2.203400896
 21
4.3036750655
  0
LINE
  5
45E
100
AcDbEntity
  8
0
100
AcDbLine
 62
7
  6
CONTINUOUS
 10
2.203400896
 20
4.256430971
 11
2.203400896
 21
4.1225727033
  0
LINE
  5
45F
100
AcDbEntity
  8
0
100
AcDbLine
 62
7
  6
CONTINUOUS
 10
2.203400896
 20
4.0753286088
 11
2.203400896
 21
3.9414703411
  0
LINE
  5
460
100
AcDbEntity
  8
0
100
AcDbLine
 62
7
  6
CONTINUOUS
 10
2.203400896
 20
3.8942262466
 11
2.203400896
 21
3.7603679789
  0
LINE
  5
461
100
AcDbEntity
  8
0
100
AcDbLine
 62
7
  6
CONTINUOUS
 10
2.203400896
 20
3.7131238844
 11
2.203400896
 21
3.5792656167
  0
LINE
  5
462
100
AcDbEntity
  8
0
100
AcDbLine
 62
7
  6
CONTINUOUS
 10
2.203400896
 20
3.5320215222
 11
2.203400896
 21
3.3981632545
  0
LINE
  5
463
100
AcDbEntity
  8
0
100
AcDbLine
 62
7
  6
CONTINUOUS
 10
2.203400896
 20
3.35091916
 11
2.203400896
 21
3.2170608923
  0
LINE
  5
464
100
AcDbEntity
  8
0
100
AcDbLine
 62
7
  6
CONTINUOUS
 10
2.203400896
 20
3.1698167978
 11
2.203400896
 21
3.0359585301
  0
LINE
  5
465
100
AcDbEntity
  8
0
100
AcDbLine
 62
7
  6
CONTINUOUS
 10
2.203400896
 20
2.9887144356
 11
2.203400896
 21
2.8548561678
  0
LINE
  5
466
100
AcDbEntity
  8
0
100
AcDbLine
 62
7
  6
CONTINUOUS
 10
2.203400896
 20
2.8076120734
 11
2.203400896
 21
2.6737538056
  0
LINE
  5
467
100
AcDbEntity
  8
0
100
AcDbLine
 62
7
  6
CONTINUOUS
 10
2.203400896
 20
2.6265097112
 11
2.203400896
 21
2.4926514434
  0
LINE
  5
468
100
AcDbEntity
  8
0
100
AcDbLine
 62
7
  6
CONTINUOUS
 10
2.203400896
 20
2.4454073489
 11
2.203400896
 21
2.3115490812
  0
LINE
  5
469
100
AcDbEntity
  8
0
100
AcDbLine
 62
7
  6
CONTINUOUS
 10
2.203400896
 20
2.2643049867
 11
2.203400896
 21
2.130446719
  0
LINE
  5
46A
100
AcDbEntity
  8
0
100
AcDbLine
 62
7
  6
CONTINUOUS
 10
2.203400896
 20
2.0832026245
 11
2.203400896
 21
1.9493443568
  0
LINE
  5
46B
100
AcDbEntity
  8
0
100
AcDbLine
 62
7
  6
CONTINUOUS
 10
2.203400896
 20
1.9021002623
 11
2.203400896
 21
1.7682419946
  0
LINE
  5
46C
100
AcDbEntity
  8
0
100
AcDbLine
 62
7
  6
CONTINUOUS
 10
2.203400896
 20
1.7209979001
 11
2.203400896
 21
1.5871396324
  0
LINE
  5
46D
100
AcDbEntity
  8
0
100
AcDbLine
 62
7
  6
CONTINUOUS
 10
2.203400896
 20
1.5398955379
 11
2.203400896
 21
1.4060372702
  0
LINE
  5
46E
100
AcDbEntity
  8
0
100
AcDbLine
 62
7
  6
CONTINUOUS
 10
2.2309599511
 20
4.9788719159
 11
2.2309599511
 21
4.7623364828
  0
LINE
  5
46F
100
AcDbEntity
  8
0
100
AcDbLine
 62
7
  6
CONTINUOUS
 10
2.2703300298
 20
5.0182419946
 11
2.2703300298
 21
4.7229664041
  0
LINE
  5
470
100
AcDbEntity
  8
0
100
AcDbLine
 62
7
  6
CONTINUOUS
 10
2.2988733369
 20
5.4650923883
 11
2.2988733369
 21
5.2839900261
  0
LINE
  5
471
100
AcDbEntity
  8
0
100
AcDbLine
 62
7
  6
CONTINUOUS
 10
2.2998575889
 20
4.6146986875
 11
2.2998575889
 21
5.430393704
  0
LINE
  5
472
100
AcDbEntity
  8
0
100
AcDbLine
 62
7
  6
CONTINUOUS
 10
2.3372591637
 20
4.4375333332
 11
2.3372591637
 21
4.3036750655
  0
LINE
  5
473
100
AcDbEntity
  8
0
100
AcDbLine
 62
7
  6
CONTINUOUS
 10
2.3372591637
 20
4.256430971
 11
2.3372591637
 21
4.1225727033
  0
LINE
  5
474
100
AcDbEntity
  8
0
100
AcDbLine
 62
7
  6
CONTINUOUS
 10
2.3372591637
 20
4.0753286088
 11
2.3372591637
 21
3.9414703411
  0
LINE
  5
475
100
AcDbEntity
  8
0
100
AcDbLine
 62
7
  6
CONTINUOUS
 10
2.3372591637
 20
3.8942262466
 11
2.3372591637
 21
3.7603679789
  0
LINE
  5
476
100
AcDbEntity
  8
0
100
AcDbLine
 62
7
  6
CONTINUOUS
 10
2.3372591637
 20
3.7131238844
 11
2.3372591637
 21
3.5792656167
  0
LINE
  5
477
100
AcDbEntity
  8
0
100
AcDbLine
 62
7
  6
CONTINUOUS
 10
2.3372591637
 20
3.5320215222
 11
2.3372591637
 21
3.3981632545
  0
LINE
  5
478
100
AcDbEntity
  8
0
100
AcDbLine
 62
7
  6
CONTINUOUS
 10
2.3372591637
 20
3.35091916
 11
2.3372591637
 21
3.2170608923
  0
LINE
  5
479
100
AcDbEntity
  8
0
100
AcDbLine
 62
7
  6
CONTINUOUS
 10
2.3372591637
 20
3.1698167978
 11
2.3372591637
 21
3.0359585301
  0
LINE
  5
47A
100
AcDbEntity
  8
0
100
AcDbLine
 62
7
  6
CONTINUOUS
 10
2.3372591637
 20
2.9887144356
 11
2.3372591637
 21
2.8548561678
  0
LINE
  5
47B
100
AcDbEntity
  8
0
100
AcDbLine
 62
7
  6
CONTINUOUS
 10
2.3372591637
 20
2.8076120734
 11
2.3372591637
 21
2.6737538056
  0
LINE
  5
47C
100
AcDbEntity
  8
0
100
AcDbLine
 62
7
  6
CONTINUOUS
 10
2.3372591637
 20
2.6265097112
 11
2.3372591637
 21
2.4926514434
  0
LINE
  5
47D
100
AcDbEntity
  8
0
100
AcDbLine
 62
7
  6
CONTINUOUS
 10
2.3372591637
 20
2.4454073489
 11
2.3372591637
 21
2.3115490812
  0
LINE
  5
47E
100
AcDbEntity
  8
0
100
AcDbLine
 62
7
  6
CONTINUOUS
 10
2.3372591637
 20
2.2643049867
 11
2.3372591637
 21
2.130446719
  0
LINE
  5
47F
100
AcDbEntity
  8
0
100
AcDbLine
 62
7
  6
CONTINUOUS
 10
2.3372591637
 20
2.0832026245
 11
2.3372591637
 21
1.9493443568
  0
LINE
  5
480
100
AcDbEntity
  8
0
100
AcDbLine
 62
7
  6
CONTINUOUS
 10
2.3372591637
 20
1.9021002623
 11
2.3372591637
 21
1.7682419946
  0
LINE
  5
481
100
AcDbEntity
  8
0
100
AcDbLine
 62
7
  6
CONTINUOUS
 10
2.3372591637
 20
1.7209979001
 11
2.3372591637
 21
1.5871396324
  0
LINE
  5
482
100
AcDbEntity
  8
0
100
AcDbLine
 62
7
  6
CONTINUOUS
 10
2.3372591637
 20
1.5398955379
 11
2.3372591637
 21
1.4060372702
  0
LINE
  5
483
100
AcDbEntity
  8
0
100
AcDbLine
 62
7
  6
CONTINUOUS
 10
2.3372591637
 20
3.7131238844
 11
2.203400896
 21
3.7131238844
  0
LINE
  5
484
100
AcDbEntity
  8
0
100
AcDbLine
 62
7
  6
CONTINUOUS
 10
2.1561568015
 20
3.7131238844
 11
2.0222985337
 21
3.7131238844
  0
LINE
  5
485
100
AcDbEntity
  8
0
100
AcDbLine
 62
7
  6
CONTINUOUS
 10
1.9750544393
 20
3.7131238844
 11
1.8411961715
 21
3.7131238844
  0
LINE
  5
486
100
AcDbEntity
  8
0
100
AcDbLine
 62
7
  6
CONTINUOUS
 10
1.7939520771
 20
3.7131238844
 11
1.6600938093
 21
3.7131238844
  0
LINE
  5
487
100
AcDbEntity
  8
0
100
AcDbLine
 62
7
  6
CONTINUOUS
 10
1.6128497149
 20
3.7131238844
 11
1.4789914471
 21
3.7131238844
  0
LINE
  5
488
100
AcDbEntity
  8
0
100
AcDbLine
 62
7
  6
CONTINUOUS
 10
1.4317473526
 20
3.7131238844
 11
1.2978890849
 21
3.7131238844
  0
LINE
  5
489
100
AcDbEntity
  8
0
100
AcDbLine
 62
7
  6
CONTINUOUS
 10
1.2978890849
 20
3.7603679789
 11
1.4317473526
 21
3.7603679789
  0
LINE
  5
48A
100
AcDbEntity
  8
0
100
AcDbLine
 62
7
  6
CONTINUOUS
 10
1.4789914471
 20
3.7603679789
 11
1.6128497149
 21
3.7603679789
  0
LINE
  5
48B
100
AcDbEntity
  8
0
100
AcDbLine
 62
7
  6
CONTINUOUS
 10
1.6600938093
 20
3.7603679789
 11
1.7939520771
 21
3.7603679789
  0
LINE
  5
48C
100
AcDbEntity
  8
0
100
AcDbLine
 62
7
  6
CONTINUOUS
 10
1.8411961715
 20
3.7603679789
 11
1.9750544393
 21
3.7603679789
  0
LINE
  5
48D
100
AcDbEntity
  8
0
100
AcDbLine
 62
7
  6
CONTINUOUS
 10
2.0222985337
 20
3.7603679789
 11
2.1561568015
 21
3.7603679789
  0
LINE
  5
48E
100
AcDbEntity
  8
0
100
AcDbLine
 62
7
  6
CONTINUOUS
 10
2.203400896
 20
3.7603679789
 11
2.3372591637
 21
3.7603679789
  0
LINE
  5
48F
100
AcDbEntity
  8
0
100
AcDbLine
 62
7
  6
CONTINUOUS
 10
2.4278103448
 20
0.9068246718
 11
2.4278103448
 21
1.3083994749
  0
LINE
  5
490
100
AcDbEntity
  8
0
100
AcDbLine
 62
7
  6
CONTINUOUS
 10
2.4278103448
 20
5.3291725412
 11
2.4278103448
 21
5.6871726378
  0
LINE
  5
491
100
AcDbEntity
  8
0
100
AcDbLine
 62
7
  6
CONTINUOUS
 10
2.4474953841
 20
1.3083994749
 11
2.4474953841
 21
5.6776905472
  0
LINE
  5
492
100
AcDbEntity
  8
0
100
AcDbLine
 62
7
  6
CONTINUOUS
 10
2.4573379038
 20
1.4650923883
 11
2.4573379038
 21
4.1422480677
  0
LINE
  5
493
100
AcDbEntity
  8
0
100
AcDbLine
 62
7
  6
CONTINUOUS
 10
2.3372591637
 20
3.8942262466
 11
2.203400896
 21
3.8942262466
  0
LINE
  5
494
100
AcDbEntity
  8
0
100
AcDbLine
 62
7
  6
CONTINUOUS
 10
2.1561568015
 20
3.8942262466
 11
2.0222985337
 21
3.8942262466
  0
LINE
  5
495
100
AcDbEntity
  8
0
100
AcDbLine
 62
7
  6
CONTINUOUS
 10
1.9750544393
 20
3.8942262466
 11
1.8411961715
 21
3.8942262466
  0
LINE
  5
496
100
AcDbEntity
  8
0
100
AcDbLine
 62
7
  6
CONTINUOUS
 10
1.7939520771
 20
3.8942262466
 11
1.6600938093
 21
3.8942262466
  0
LINE
  5
497
100
AcDbEntity
  8
0
100
AcDbLine
 62
7
  6
CONTINUOUS
 10
1.6128497149
 20
3.8942262466
 11
1.4789914471
 21
3.8942262466
  0
LINE
  5
498
100
AcDbEntity
  8
0
100
AcDbLine
 62
7
  6
CONTINUOUS
 10
1.4317473526
 20
3.8942262466
 11
1.2978890849
 21
3.8942262466
  0
LINE
  5
499
100
AcDbEntity
  8
0
100
AcDbLine
 62
7
  6
CONTINUOUS
 10
1.2978890849
 20
3.9414703411
 11
1.4317473526
 21
3.9414703411
  0
LINE
  5
49A
100
AcDbEntity
  8
0
100
AcDbLine
 62
7
  6
CONTINUOUS
 10
1.4789914471
 20
3.9414703411
 11
1.6128497149
 21
3.9414703411
  0
LINE
  5
49B
100
AcDbEntity
  8
0
100
AcDbLine
 62
7
  6
CONTINUOUS
 10
1.6600938093
 20
3.9414703411
 11
1.7939520771
 21
3.9414703411
  0
LINE
  5
49C
100
AcDbEntity
  8
0
100
AcDbLine
 62
7
  6
CONTINUOUS
 10
1.8411961715
 20
3.9414703411
 11
1.9750544393
 21
3.9414703411
  0
LINE
  5
49D
100
AcDbEntity
  8
0
100
AcDbLine
 62
7
  6
CONTINUOUS
 10
2.0222985337
 20
3.9414703411
 11
2.1561568015
 21
3.9414703411
  0
LINE
  5
49E
100
AcDbEntity
  8
0
100
AcDbLine
 62
7
  6
CONTINUOUS
 10
2.203400896
 20
3.9414703411
 11
2.3372591637
 21
3.9414703411
  0
LINE
  5
49F
100
AcDbEntity
  8
0
100
AcDbLine
 62
7
  6
CONTINUOUS
 10
2.3372591637
 20
4.0753286088
 11
2.203400896
 21
4.0753286088
  0
LINE
  5
4A0
100
AcDbEntity
  8
0
100
AcDbLine
 62
7
  6
CONTINUOUS
 10
2.1561568015
 20
4.0753286088
 11
2.0222985337
 21
4.0753286088
  0
LINE
  5
4A1
100
AcDbEntity
  8
0
100
AcDbLine
 62
7
  6
CONTINUOUS
 10
1.9750544393
 20
4.0753286088
 11
1.8411961715
 21
4.0753286088
  0
LINE
  5
4A2
100
AcDbEntity
  8
0
100
AcDbLine
 62
7
  6
CONTINUOUS
 10
1.7939520771
 20
4.0753286088
 11
1.6600938093
 21
4.0753286088
  0
LINE
  5
4A3
100
AcDbEntity
  8
0
100
AcDbLine
 62
7
  6
CONTINUOUS
 10
1.6128497149
 20
4.0753286088
 11
1.4789914471
 21
4.0753286088
  0
LINE
  5
4A4
100
AcDbEntity
  8
0
100
AcDbLine
 62
7
  6
CONTINUOUS
 10
1.4317473526
 20
4.0753286088
 11
1.2978890849
 21
4.0753286088
  0
LINE
  5
4A5
100
AcDbEntity
  8
0
100
AcDbLine
 62
7
  6
CONTINUOUS
 10
1.2978890849
 20
4.1225727033
 11
1.4317473526
 21
4.1225727033
  0
LINE
  5
4A6
100
AcDbEntity
  8
0
100
AcDbLine
 62
7
  6
CONTINUOUS
 10
1.4789914471
 20
4.1225727033
 11
1.6128497149
 21
4.1225727033
  0
LINE
  5
4A7
100
AcDbEntity
  8
0
100
AcDbLine
 62
7
  6
CONTINUOUS
 10
1.6600938093
 20
4.1225727033
 11
1.7939520771
 21
4.1225727033
  0
LINE
  5
4A8
100
AcDbEntity
  8
0
100
AcDbLine
 62
7
  6
CONTINUOUS
 10
1.8411961715
 20
4.1225727033
 11
1.9750544393
 21
4.1225727033
  0
LINE
  5
4A9
100
AcDbEntity
  8
0
100
AcDbLine
 62
7
  6
CONTINUOUS
 10
2.0222985337
 20
4.1225727033
 11
2.1561568015
 21
4.1225727033
  0
LINE
  5
4AA
100
AcDbEntity
  8
0
100
AcDbLine
 62
7
  6
CONTINUOUS
 10
2.203400896
 20
4.1225727033
 11
2.3372591637
 21
4.1225727033
  0
LINE
  5
4AB
100
AcDbEntity
  8
0
100
AcDbLine
 62
7
  6
CONTINUOUS
 10
2.4474953841
 20
4.1422577426
 11
2.4573379038
 21
4.1422577426
  0
LINE
  5
4AC
100
AcDbEntity
  8
0
100
AcDbLine
 62
7
  6
CONTINUOUS
 10
1.5715111322
 20
4.7229664041
 11
1.5321410534
 21
4.7623364828
  0
LINE
  5
4AD
100
AcDbEntity
  8
0
100
AcDbLine
 62
7
  6
CONTINUOUS
 10
2.3372591637
 20
4.256430971
 11
2.203400896
 21
4.256430971
  0
LINE
  5
4AE
100
AcDbEntity
  8
0
100
AcDbLine
 62
7
  6
CONTINUOUS
 10
2.1561568015
 20
4.256430971
 11
2.0222985337
 21
4.256430971
  0
LINE
  5
4AF
100
AcDbEntity
  8
0
100
AcDbLine
 62
7
  6
CONTINUOUS
 10
1.9750544393
 20
4.256430971
 11
1.8411961715
 21
4.256430971
  0
LINE
  5
4B0
100
AcDbEntity
  8
0
100
AcDbLine
 62
7
  6
CONTINUOUS
 10
1.7939520771
 20
4.256430971
 11
1.6600938093
 21
4.256430971
  0
LINE
  5
4B1
100
AcDbEntity
  8
0
100
AcDbLine
 62
7
  6
CONTINUOUS
 10
1.6128497149
 20
4.256430971
 11
1.4789914471
 21
4.256430971
  0
LINE
  5
4B2
100
AcDbEntity
  8
0
100
AcDbLine
 62
7
  6
CONTINUOUS
 10
1.4317473526
 20
4.256430971
 11
1.2978890849
 21
4.256430971
  0
LINE
  5
4B3
100
AcDbEntity
  8
0
100
AcDbLine
 62
7
  6
CONTINUOUS
 10
1.2978890849
 20
4.3036750655
 11
1.4317473526
 21
4.3036750655
  0
LINE
  5
4B4
100
AcDbEntity
  8
0
100
AcDbLine
 62
7
  6
CONTINUOUS
 10
1.4789914471
 20
4.3036750655
 11
1.6128497149
 21
4.3036750655
  0
LINE
  5
4B5
100
AcDbEntity
  8
0
100
AcDbLine
 62
7
  6
CONTINUOUS
 10
1.6600938093
 20
4.3036750655
 11
1.7939520771
 21
4.3036750655
  0
LINE
  5
4B6
100
AcDbEntity
  8
0
100
AcDbLine
 62
7
  6
CONTINUOUS
 10
1.8411961715
 20
4.3036750655
 11
1.9750544393
 21
4.3036750655
  0
LINE
  5
4B7
100
AcDbEntity
  8
0
100
AcDbLine
 62
7
  6
CONTINUOUS
 10
2.0222985337
 20
4.3036750655
 11
2.1561568015
 21
4.3036750655
  0
LINE
  5
4B8
100
AcDbEntity
  8
0
100
AcDbLine
 62
7
  6
CONTINUOUS
 10
2.203400896
 20
4.3036750655
 11
2.3372591637
 21
4.3036750655
  0
LINE
  5
4B9
100
AcDbEntity
  8
0
100
AcDbLine
 62
7
  6
CONTINUOUS
 10
1.3845032582
 20
5.0182419946
 11
1.4238733369
 21
4.9788719159
  0
LINE
  5
4BA
100
AcDbEntity
  8
0
100
AcDbLine
 62
7
  6
CONTINUOUS
 10
1.8077316046
 20
4.7229664041
 11
1.7683615259
 21
4.7623364828
  0
LINE
  5
4BB
100
AcDbEntity
  8
0
100
AcDbLine
 62
7
  6
CONTINUOUS
 10
1.2978890849
 20
4.4375333332
 11
1.4317473526
 21
4.4375333332
  0
LINE
  5
4BC
100
AcDbEntity
  8
0
100
AcDbLine
 62
7
  6
CONTINUOUS
 10
1.4789914471
 20
4.4375333332
 11
1.6128497149
 21
4.4375333332
  0
LINE
  5
4BD
100
AcDbEntity
  8
0
100
AcDbLine
 62
7
  6
CONTINUOUS
 10
1.6600938093
 20
4.4375333332
 11
1.7939520771
 21
4.4375333332
  0
LINE
  5
4BE
100
AcDbEntity
  8
0
100
AcDbLine
 62
7
  6
CONTINUOUS
 10
1.8411961715
 20
4.4375333332
 11
1.9750544393
 21
4.4375333332
  0
LINE
  5
4BF
100
AcDbEntity
  8
0
100
AcDbLine
 62
7
  6
CONTINUOUS
 10
2.0222985337
 20
4.4375333332
 11
2.1561568015
 21
4.4375333332
  0
LINE
  5
4C0
100
AcDbEntity
  8
0
100
AcDbLine
 62
7
  6
CONTINUOUS
 10
2.203400896
 20
4.4375333332
 11
2.3372591637
 21
4.4375333332
  0
LINE
  5
4C1
100
AcDbEntity
  8
0
100
AcDbLine
 62
7
  6
CONTINUOUS
 10
1.6207237306
 20
5.0182419946
 11
1.6600938093
 21
4.9788719159
  0
LINE
  5
4C2
100
AcDbEntity
  8
0
100
AcDbLine
 62
7
  6
CONTINUOUS
 10
2.0439520771
 20
4.7229664041
 11
2.0045819983
 21
4.7623364828
  0
LINE
  5
4C3
100
AcDbEntity
  8
0
100
AcDbLine
 62
7
  6
CONTINUOUS
 10
2.2998575889
 20
4.6146986875
 11
1.3549756991
 21
4.6146986875
  0
LINE
  5
4C4
100
AcDbEntity
  8
0
100
AcDbLine
 62
7
  6
CONTINUOUS
 10
1.856944203
 20
5.0182419946
 11
1.8963142818
 21
4.9788719159
  0
LINE
  5
4C5
100
AcDbEntity
  8
0
100
AcDbLine
 62
7
  6
CONTINUOUS
 10
2.2703300298
 20
4.7229664041
 11
2.2309599511
 21
4.7623364828
  0
LINE
  5
4C6
100
AcDbEntity
  8
0
100
AcDbLine
 62
7
  6
CONTINUOUS
 10
2.2703300298
 20
4.7229664041
 11
2.0833221558
 21
4.7229664041
  0
LINE
  5
4C7
100
AcDbEntity
  8
0
100
AcDbLine
 62
7
  6
CONTINUOUS
 10
2.0439520771
 20
4.7229664041
 11
1.856944203
 21
4.7229664041
  0
LINE
  5
4C8
100
AcDbEntity
  8
0
100
AcDbLine
 62
7
  6
CONTINUOUS
 10
1.8077316046
 20
4.7229664041
 11
1.6207237306
 21
4.7229664041
  0
LINE
  5
4C9
100
AcDbEntity
  8
0
100
AcDbLine
 62
7
  6
CONTINUOUS
 10
1.5715111322
 20
4.7229664041
 11
1.3845032582
 21
4.7229664041
  0
LINE
  5
4CA
100
AcDbEntity
  8
0
100
AcDbLine
 62
7
  6
CONTINUOUS
 10
2.2309599511
 20
4.7623364828
 11
2.1226922345
 21
4.7623364828
  0
LINE
  5
4CB
100
AcDbEntity
  8
0
100
AcDbLine
 62
7
  6
CONTINUOUS
 10
2.0045819983
 20
4.7623364828
 11
1.8963142818
 21
4.7623364828
  0
LINE
  5
4CC
100
AcDbEntity
  8
0
100
AcDbLine
 62
7
  6
CONTINUOUS
 10
1.7683615259
 20
4.7623364828
 11
1.6600938093
 21
4.7623364828
  0
LINE
  5
4CD
100
AcDbEntity
  8
0
100
AcDbLine
 62
7
  6
CONTINUOUS
 10
1.5321410534
 20
4.7623364828
 11
1.4238733369
 21
4.7623364828
  0
LINE
  5
4CE
100
AcDbEntity
  8
0
100
AcDbLine
 62
7
  6
CONTINUOUS
 10
2.0833221558
 20
5.0182419946
 11
2.1226922345
 21
4.9788719159
  0
LINE
  5
4CF
100
AcDbEntity
  8
0
100
AcDbLine
 62
7
  6
CONTINUOUS
 10
2.2309599511
 20
4.9788719159
 11
2.1226922345
 21
4.9788719159
  0
LINE
  5
4D0
100
AcDbEntity
  8
0
100
AcDbLine
 62
7
  6
CONTINUOUS
 10
2.0045819983
 20
4.9788719159
 11
1.8963142818
 21
4.9788719159
  0
LINE
  5
4D1
100
AcDbEntity
  8
0
100
AcDbLine
 62
7
  6
CONTINUOUS
 10
1.7683615259
 20
4.9788719159
 11
1.6600938093
 21
4.9788719159
  0
LINE
  5
4D2
100
AcDbEntity
  8
0
100
AcDbLine
 62
7
  6
CONTINUOUS
 10
1.5321410534
 20
4.9788719159
 11
1.4238733369
 21
4.9788719159
  0
LINE
  5
4D3
100
AcDbEntity
  8
0
100
AcDbLine
 62
7
  6
CONTINUOUS
 10
1.3845032582
 20
5.0182419946
 11
1.5715111322
 21
5.0182419946
  0
LINE
  5
4D4
100
AcDbEntity
  8
0
100
AcDbLine
 62
7
  6
CONTINUOUS
 10
1.6207237306
 20
5.0182419946
 11
1.8077316046
 21
5.0182419946
  0
LINE
  5
4D5
100
AcDbEntity
  8
0
100
AcDbLine
 62
7
  6
CONTINUOUS
 10
1.856944203
 20
5.0182419946
 11
2.0439520771
 21
5.0182419946
  0
LINE
  5
4D6
100
AcDbEntity
  8
0
100
AcDbLine
 62
7
  6
CONTINUOUS
 10
2.0833221558
 20
5.0182419946
 11
2.2703300298
 21
5.0182419946
  0
LINE
  5
4D7
100
AcDbEntity
  8
0
100
AcDbLine
 62
7
  6
CONTINUOUS
 10
1.3549756991
 20
5.0477695537
 11
2.2998575889
 21
5.0477695537
  0
LINE
  5
4D8
100
AcDbEntity
  8
0
100
AcDbLine
 62
7
  6
CONTINUOUS
 10
2.2998575889
 20
5.2839900261
 11
1.3549756991
 21
5.2839900261
  0
LINE
  5
4D9
100
AcDbEntity
  8
0
100
AcDbLine
 62
7
  6
CONTINUOUS
 10
2.4474953841
 20
5.3233601049
 11
2.2998575889
 21
5.3233601049
  0
LINE
  5
4DA
100
AcDbEntity
  8
0
100
AcDbLine
 62
7
  6
CONTINUOUS
 10
1.3549756991
 20
5.3233601049
 11
1.1876528645
 21
5.3233601049
  0
LINE
  5
4DB
100
AcDbEntity
  8
0
100
AcDbLine
 62
7
  6
CONTINUOUS
 10
1.2073379038
 20
5.3291725412
 11
1.3549756991
 21
5.3291725412
  0
LINE
  5
4DC
100
AcDbEntity
  8
0
100
AcDbLine
 62
7
  6
CONTINUOUS
 10
2.2998575889
 20
5.3291725412
 11
2.4278103448
 21
5.3291725412
  0
LINE
  5
4DD
100
AcDbEntity
  8
0
100
AcDbLine
 62
7
  6
CONTINUOUS
 10
2.4278103448
 20
5.3394310363
 11
2.2998575889
 21
5.3394310363
  0
LINE
  5
4DE
100
AcDbEntity
  8
0
100
AcDbLine
 62
7
  6
CONTINUOUS
 10
1.3549756991
 20
5.3394310363
 11
1.2073379038
 21
5.3394310363
  0
LINE
  5
4DF
100
AcDbEntity
  8
0
100
AcDbLine
 62
7
  6
CONTINUOUS
 10
2.0646213684
 20
5.430393704
 11
2.0626528645
 21
5.430393704
  0
LINE
  5
4E0
100
AcDbEntity
  8
0
100
AcDbLine
 62
7
  6
CONTINUOUS
 10
1.828400896
 20
5.430393704
 11
1.826432392
 21
5.430393704
  0
LINE
  5
4E1
100
AcDbEntity
  8
0
100
AcDbLine
 62
7
  6
CONTINUOUS
 10
1.5921804235
 20
5.430393704
 11
1.5902119196
 21
5.430393704
  0
LINE
  5
4E2
100
AcDbEntity
  8
0
100
AcDbLine
 62
7
  6
CONTINUOUS
 10
2.2988733369
 20
5.4650923883
 11
2.0646213684
 21
5.4650923883
  0
LINE
  5
4E3
100
AcDbEntity
  8
0
100
AcDbLine
 62
7
  6
CONTINUOUS
 10
2.0626528645
 20
5.4650923883
 11
1.828400896
 21
5.4650923883
  0
LINE
  5
4E4
100
AcDbEntity
  8
0
100
AcDbLine
 62
7
  6
CONTINUOUS
 10
1.826432392
 20
5.4650923883
 11
1.5921804235
 21
5.4650923883
  0
LINE
  5
4E5
100
AcDbEntity
  8
0
100
AcDbLine
 62
7
  6
CONTINUOUS
 10
1.5902119196
 20
5.4650923883
 11
1.3559599511
 21
5.4650923883
  0
LINE
  5
4E6
100
AcDbEntity
  8
0
100
AcDbLine
 62
7
  6
CONTINUOUS
 10
1.3451331794
 20
5.5420264983
 11
1.6994638881
 21
5.5420264983
  0
LINE
  5
4E7
100
AcDbEntity
  8
0
100
AcDbLine
 62
7
  6
CONTINUOUS
 10
1.6994638881
 20
5.6186356954
 11
1.3451331794
 21
5.6186356954
  0
LINE
  5
4E8
100
AcDbEntity
  8
0
100
AcDbLine
 62
7
  6
CONTINUOUS
 10
1.3451331794
 20
5.6678482938
 11
1.6994638881
 21
5.6678482938
  0
LINE
  5
4E9
100
AcDbEntity
  8
0
100
AcDbLine
 62
7
  6
CONTINUOUS
 10
1.2073379038
 20
5.676615592
 11
1.9553693999
 21
5.676615592
  0
LINE
  5
4EA
100
AcDbEntity
  8
0
100
AcDbLine
 62
7
  6
CONTINUOUS
 10
1.9553693999
 20
5.6775861186
 11
1.2073379038
 21
5.6775861186
  0
LINE
  5
4EB
100
AcDbEntity
  8
0
100
AcDbLine
 62
7
  6
CONTINUOUS
 10
1.1876528645
 20
5.6776908135
 11
1.2073379038
 21
5.6776908135
  0
LINE
  5
4EC
100
AcDbEntity
  8
0
100
AcDbLine
 62
7
  6
CONTINUOUS
 10
2.4278103448
 20
5.6776908135
 11
2.4474953841
 21
5.6776908135
  0
LINE
  5
4ED
100
AcDbEntity
  8
0
100
AcDbLine
 62
7
  6
CONTINUOUS
 10
1.2073379038
 20
5.6875333332
 11
2.4219051706
 21
5.6875333332
  0
LINE
  5
4EE
100
AcDbEntity
  8
0
100
AcDbLine
 62
7
  6
CONTINUOUS
 10
11.4896965767
 20
9.1594254481
 11
11.5940922629
 21
9.2197512914
  0
LINE
  5
4EF
100
AcDbEntity
  8
0
100
AcDbLine
 62
7
  6
CONTINUOUS
 10
12.3263016449
 20
9.6428640654
 11
12.3805397656
 21
9.674205977
  0
LINE
  5
4F0
100
AcDbEntity
  8
0
100
AcDbLine
 62
7
  6
CONTINUOUS
 10
11.5175354264
 20
9.1725415394
 11
11.6080116878
 21
9.2248239369
  0
LINE
  5
4F1
100
AcDbEntity
  8
0
100
AcDbLine
 62
7
  6
CONTINUOUS
 10
12.3329180224
 20
9.6437165893
 11
12.3805397656
 21
9.6712351767
  0
LINE
  5
4F2
100
AcDbEntity
  8
0
100
AcDbLine
 62
7
  6
CONTINUOUS
 10
11.7206303273
 20
9.1963933094
 11
11.7275159255
 21
9.2003722048
  0
LINE
  5
4F3
100
AcDbEntity
  8
0
100
AcDbLine
 62
7
  6
CONTINUOUS
 10
11.8446419098
 20
9.1623234113
 11
12.5127743015
 21
9.5484088079
  0
LINE
  5
4F4
100
AcDbEntity
  8
0
100
AcDbLine
 62
7
  6
CONTINUOUS
 10
12.6310894125
 20
9.3521502824
 11
12.8816390594
 21
9.4969323062
  0
LINE
  5
4F5
100
AcDbEntity
  8
0
100
AcDbLine
 62
7
  6
CONTINUOUS
 10
13.0904304318
 20
9.4164448712
 11
12.8398807849
 21
9.2716628475
  0
LINE
  5
4F6
100
AcDbEntity
  8
0
100
AcDbLine
 62
7
  6
CONTINUOUS
 10
12.8398807849
 20
9.2095606889
 11
13.0904304318
 21
9.3543427127
  0
LINE
  5
4F7
100
AcDbEntity
  8
0
100
AcDbLine
 62
7
  6
CONTINUOUS
 10
11.4896965767
 20
5.8826651554
 11
11.4896965767
 21
9.1594254481
  0
LINE
  5
4F8
100
AcDbEntity
  8
0
100
AcDbLine
 62
7
  6
CONTINUOUS
 10
11.5175354264
 20
9.164169196
 11
11.5175354264
 21
9.1725415394
  0
LINE
  5
4F9
100
AcDbEntity
  8
0
100
AcDbLine
 62
7
  6
CONTINUOUS
 10
13.7864016731
 20
9.1340361453
 11
13.2574635297
 21
8.8283852063
  0
LINE
  5
4FA
100
AcDbEntity
  8
0
100
AcDbLine
 62
7
  6
CONTINUOUS
 10
13.2574635297
 20
8.8203421273
 11
13.7864016731
 21
9.1259930663
  0
LINE
  5
4FB
100
AcDbEntity
  8
0
100
AcDbLine
 62
7
  6
CONTINUOUS
 10
13.2713829545
 20
8.8211338438
 11
13.8003210979
 21
9.1267847828
  0
LINE
  5
4FC
100
AcDbEntity
  8
0
100
AcDbLine
 62
7
  6
CONTINUOUS
 10
13.8281599476
 20
4.2197128666
 11
13.7307239738
 21
4.276016987
  0
LINE
  5
4FD
100
AcDbEntity
  8
0
100
AcDbLine
 62
7
  6
CONTINUOUS
 10
12.8120419352
 20
4.8068844073
 11
12.6171699877
 21
4.919492648
  0
LINE
  5
4FE
100
AcDbEntity
  8
0
100
AcDbLine
 62
7
  6
CONTINUOUS
 10
12.707646249
 20
4.9563748888
 11
12.7633239484
 21
4.9242011058
  0
LINE
  5
4FF
100
AcDbEntity
  8
0
100
AcDbLine
 62
7
  6
CONTINUOUS
 10
11.7275159255
 20
9.1945746342
 11
11.7275159255
 21
9.2871636611
  0
LINE
  5
500
100
AcDbEntity
  8
0
100
AcDbLine
 62
7
  6
CONTINUOUS
 10
11.8249568704
 20
9.2763035237
 11
11.8249568704
 21
9.2342760088
  0
LINE
  5
501
100
AcDbEntity
  8
0
100
AcDbLine
 62
7
  6
CONTINUOUS
 10
11.8643269492
 20
9.2342760088
 11
11.8643269492
 21
9.2763035237
  0
LINE
  5
502
100
AcDbEntity
  8
0
100
AcDbLine
 62
7
  6
CONTINUOUS
 10
11.8945490235
 20
9.3479172655
 11
11.8945490235
 21
9.3836850102
  0
LINE
  5
503
100
AcDbEntity
  8
0
100
AcDbLine
 62
7
  6
CONTINUOUS
 10
11.9617678941
 20
9.2300055543
 11
11.9617678941
 21
9.2871636611
  0
LINE
  5
504
100
AcDbEntity
  8
0
100
AcDbLine
 62
7
  6
CONTINUOUS
 10
13.7307239738
 20
4.4181984372
 11
13.310349822
 21
4.6611148459
  0
LINE
  5
505
100
AcDbEntity
  8
0
100
AcDbLine
 62
7
  6
CONTINUOUS
 10
12.7633239484
 20
4.9780212028
 11
12.707646249
 21
5.0101949858
  0
LINE
  5
506
100
AcDbEntity
  8
0
100
AcDbLine
 62
7
  6
CONTINUOUS
 10
12.707646249
 20
5.0744577882
 11
12.7633239484
 21
5.0422840051
  0
LINE
  5
507
100
AcDbEntity
  8
0
100
AcDbLine
 62
7
  6
CONTINUOUS
 10
13.3688189283
 20
4.70765653
 11
13.6472074248
 21
4.5467876147
  0
LINE
  5
508
100
AcDbEntity
  8
0
100
AcDbLine
 62
7
  6
CONTINUOUS
 10
12.707646249
 20
5.1146220397
 11
13.2546721227
 21
4.7985189678
  0
LINE
  5
509
100
AcDbEntity
  8
0
100
AcDbLine
 62
7
  6
CONTINUOUS
 10
14.0508707448
 20
4.3544952241
 11
13.8281599476
 21
4.4831903563
  0
LINE
  5
50A
100
AcDbEntity
  8
0
100
AcDbLine
 62
7
  6
CONTINUOUS
 10
12.6171699877
 20
5.1829701377
 11
12.3944591904
 21
5.3116652699
  0
LINE
  5
50B
100
AcDbEntity
  8
0
100
AcDbLine
 62
7
  6
CONTINUOUS
 10
15.2896995544
 20
3.6808020005
 11
14.087361956
 21
4.3755819488
  0
LINE
  5
50C
100
AcDbEntity
  8
0
100
AcDbLine
 62
7
  6
CONTINUOUS
 10
14.9417139337
 20
3.8878906061
 11
11.4896965767
 21
5.8826651554
  0
LINE
  5
50D
100
AcDbEntity
  8
0
100
AcDbLine
 62
7
  6
CONTINUOUS
 10
12.7633239484
 20
4.9242011058
 11
12.8120419352
 21
4.8558847941
  0
LINE
  5
50E
100
AcDbEntity
  8
0
100
AcDbLine
 62
7
  6
CONTINUOUS
 10
11.9919899683
 20
9.3728248728
 11
11.9919899683
 21
9.3307973579
  0
LINE
  5
50F
100
AcDbEntity
  8
0
100
AcDbLine
 62
7
  6
CONTINUOUS
 10
12.0313600471
 20
9.3307973579
 11
12.0313600471
 21
9.3728248728
  0
LINE
  5
510
100
AcDbEntity
  8
0
100
AcDbLine
 62
7
  6
CONTINUOUS
 10
12.0615821214
 20
9.4444386146
 11
12.0615821214
 21
9.4802063594
  0
LINE
  5
511
100
AcDbEntity
  8
0
100
AcDbLine
 62
7
  6
CONTINUOUS
 10
12.128800992
 20
9.3265269035
 11
12.128800992
 21
9.3836850102
  0
LINE
  5
512
100
AcDbEntity
  8
0
100
AcDbLine
 62
7
  6
CONTINUOUS
 10
12.1590230663
 20
9.469346222
 11
12.1590230663
 21
9.4273187071
  0
LINE
  5
513
100
AcDbEntity
  8
0
100
AcDbLine
 62
7
  6
CONTINUOUS
 10
12.198393145
 20
9.4273187071
 11
12.198393145
 21
9.469346222
  0
LINE
  5
514
100
AcDbEntity
  8
0
100
AcDbLine
 62
7
  6
CONTINUOUS
 10
12.6310894125
 20
9.3521502824
 11
12.6277449271
 21
9.3352478025
  0
LINE
  5
515
100
AcDbEntity
  8
0
100
AcDbLine
 62
7
  6
CONTINUOUS
 10
13.7098448366
 20
4.7195750871
 11
12.707646249
 21
5.2987031821
  0
LINE
  5
516
100
AcDbEntity
  8
0
100
AcDbLine
 62
7
  6
CONTINUOUS
 10
15.1143148015
 20
4.0641020684
 11
15.1003953767
 21
4.0721455142
  0
LINE
  5
517
100
AcDbEntity
  8
0
100
AcDbLine
 62
7
  6
CONTINUOUS
 10
15.1923002521
 20
4.0326938208
 11
15.2896995544
 21
3.9764108914
  0
LINE
  5
518
100
AcDbEntity
  8
0
100
AcDbLine
 62
7
  6
CONTINUOUS
 10
12.2286152193
 20
9.5409599638
 11
12.2286152193
 21
9.5767277085
  0
LINE
  5
519
100
AcDbEntity
  8
0
100
AcDbLine
 62
7
  6
CONTINUOUS
 10
12.2958340899
 20
9.4230482526
 11
12.2958340899
 21
9.4802063594
  0
LINE
  5
51A
100
AcDbEntity
  8
0
100
AcDbLine
 62
7
  6
CONTINUOUS
 10
12.3260561642
 20
9.5658675712
 11
12.3260561642
 21
9.5238400562
  0
LINE
  5
51B
100
AcDbEntity
  8
0
100
AcDbLine
 62
7
  6
CONTINUOUS
 10
12.3654262429
 20
9.5238400562
 11
12.3654262429
 21
9.5658675712
  0
LINE
  5
51C
100
AcDbEntity
  8
0
100
AcDbLine
 62
7
  6
CONTINUOUS
 10
12.3944591904
 20
5.3116652699
 11
12.3944591904
 21
5.3598411808
  0
LINE
  5
51D
100
AcDbEntity
  8
0
100
AcDbLine
 62
7
  6
CONTINUOUS
 10
15.1143148015
 20
4.2119065139
 11
15.1003953767
 21
4.2199499596
  0
LINE
  5
51E
100
AcDbEntity
  8
0
100
AcDbLine
 62
7
  6
CONTINUOUS
 10
15.24237351
 20
4.1381017694
 11
15.2284540851
 21
4.1461452152
  0
LINE
  5
51F
100
AcDbEntity
  8
0
100
AcDbLine
 62
7
  6
CONTINUOUS
 10
15.1143148015
 20
4.3597109593
 11
15.1003953767
 21
4.3677544051
  0
LINE
  5
520
100
AcDbEntity
  8
0
100
AcDbLine
 62
7
  6
CONTINUOUS
 10
15.24237351
 20
4.2859062149
 11
15.2284540851
 21
4.2939496607
  0
LINE
  5
521
100
AcDbEntity
  8
0
100
AcDbLine
 62
7
  6
CONTINUOUS
 10
15.3704322184
 20
4.2121014705
 11
15.3565127935
 21
4.2201449162
  0
LINE
  5
522
100
AcDbEntity
  8
0
100
AcDbLine
 62
7
  6
CONTINUOUS
 10
13.310349822
 20
4.6611148459
 11
13.3019981671
 21
4.6764639473
  0
LINE
  5
523
100
AcDbEntity
  8
0
100
AcDbLine
 62
7
  6
CONTINUOUS
 10
13.3177876826
 20
4.6825219424
 11
13.2546721227
 21
4.7985189678
  0
LINE
  5
524
100
AcDbEntity
  8
0
100
AcDbLine
 62
7
  6
CONTINUOUS
 10
12.4628671878
 20
9.5195696018
 11
12.4628671878
 21
9.5767277085
  0
LINE
  5
525
100
AcDbEntity
  8
0
100
AcDbLine
 62
7
  6
CONTINUOUS
 10
12.6171699877
 20
4.919492648
 11
12.6171699877
 21
5.1829701377
  0
LINE
  5
526
100
AcDbEntity
  8
0
100
AcDbLine
 62
7
  6
CONTINUOUS
 10
12.627736693
 20
9.2731689429
 11
12.627736693
 21
9.3322930257
  0
LINE
  5
527
100
AcDbEntity
  8
0
100
AcDbLine
 62
7
  6
CONTINUOUS
 10
15.526366448
 20
4.2257365191
 11
15.6237657502
 21
4.1694535897
  0
LINE
  5
528
100
AcDbEntity
  8
0
100
AcDbLine
 62
7
  6
CONTINUOUS
 10
15.1143148015
 20
4.5075154048
 11
15.1003953767
 21
4.5155588505
  0
LINE
  5
529
100
AcDbEntity
  8
0
100
AcDbLine
 62
7
  6
CONTINUOUS
 10
15.24237351
 20
4.4337106603
 11
15.2284540851
 21
4.4417541061
  0
LINE
  5
52A
100
AcDbEntity
  8
0
100
AcDbLine
 62
7
  6
CONTINUOUS
 10
15.3704322184
 20
4.3599059159
 11
15.3565127935
 21
4.3679493617
  0
LINE
  5
52B
100
AcDbEntity
  8
0
100
AcDbLine
 62
7
  6
CONTINUOUS
 10
15.4984909268
 20
4.2861011715
 11
15.4845715019
 21
4.2941446172
  0
LINE
  5
52C
100
AcDbEntity
  8
0
100
AcDbLine
 62
7
  6
CONTINUOUS
 10
15.1143148015
 20
4.6553198502
 11
15.1003953767
 21
4.663363296
  0
LINE
  5
52D
100
AcDbEntity
  8
0
100
AcDbLine
 62
7
  6
CONTINUOUS
 10
15.24237351
 20
4.5815151058
 11
15.2284540851
 21
4.5895585515
  0
LINE
  5
52E
100
AcDbEntity
  8
0
100
AcDbLine
 62
7
  6
CONTINUOUS
 10
15.3704322184
 20
4.5077103614
 11
15.3565127935
 21
4.5157538071
  0
LINE
  5
52F
100
AcDbEntity
  8
0
100
AcDbLine
 62
7
  6
CONTINUOUS
 10
15.4984909268
 20
4.4339056169
 11
15.4845715019
 21
4.4419490627
  0
LINE
  5
530
100
AcDbEntity
  8
0
100
AcDbLine
 62
7
  6
CONTINUOUS
 10
15.6265496352
 20
4.3601008725
 11
15.6126302103
 21
4.3681443183
  0
LINE
  5
531
100
AcDbEntity
  8
0
100
AcDbLine
 62
7
  6
CONTINUOUS
 10
13.2980698158
 20
4.8376828914
 11
13.3688189283
 21
4.70765653
  0
LINE
  5
532
100
AcDbEntity
  8
0
100
AcDbLine
 62
7
  6
CONTINUOUS
 10
12.707646249
 20
5.1146220397
 11
12.707646249
 21
5.0744577882
  0
LINE
  5
533
100
AcDbEntity
  8
0
100
AcDbLine
 62
7
  6
CONTINUOUS
 10
12.707646249
 20
5.0101949858
 11
12.707646249
 21
4.9563748888
  0
LINE
  5
534
100
AcDbEntity
  8
0
100
AcDbLine
 62
7
  6
CONTINUOUS
 10
12.707646249
 20
5.2987031821
 11
12.707646249
 21
7.3169256352
  0
LINE
  5
535
100
AcDbEntity
  8
0
100
AcDbLine
 62
7
  6
CONTINUOUS
 10
12.7633239484
 20
5.0422840051
 11
12.7633239484
 21
4.9780212028
  0
LINE
  5
536
100
AcDbEntity
  8
0
100
AcDbLine
 62
7
  6
CONTINUOUS
 10
12.8120419352
 20
4.8558847941
 11
12.8120419352
 21
4.8068844073
  0
LINE
  5
537
100
AcDbEntity
  8
0
100
AcDbLine
 62
7
  6
CONTINUOUS
 10
12.8398807849
 20
9.2716628475
 11
12.8398807849
 21
9.2095606889
  0
LINE
  5
538
100
AcDbEntity
  8
0
100
AcDbLine
 62
7
  6
CONTINUOUS
 10
15.1143148015
 20
4.8031242957
 11
15.1003953767
 21
4.8111677414
  0
LINE
  5
539
100
AcDbEntity
  8
0
100
AcDbLine
 62
7
  6
CONTINUOUS
 10
15.24237351
 20
4.7293195512
 11
15.2284540851
 21
4.737362997
  0
LINE
  5
53A
100
AcDbEntity
  8
0
100
AcDbLine
 62
7
  6
CONTINUOUS
 10
15.3704322184
 20
4.6555148068
 11
15.3565127935
 21
4.6635582526
  0
LINE
  5
53B
100
AcDbEntity
  8
0
100
AcDbLine
 62
7
  6
CONTINUOUS
 10
15.4984909268
 20
4.5817100624
 11
15.4845715019
 21
4.5897535081
  0
LINE
  5
53C
100
AcDbEntity
  8
0
100
AcDbLine
 62
7
  6
CONTINUOUS
 10
15.6265496352
 20
4.5079053179
 11
15.6126302103
 21
4.5159487637
  0
LINE
  5
53D
100
AcDbEntity
  8
0
100
AcDbLine
 62
7
  6
CONTINUOUS
 10
15.7406889187
 20
4.4421440193
 11
15.7546083436
 21
4.4341005735
  0
LINE
  5
53E
100
AcDbEntity
  8
0
100
AcDbLine
 62
7
  6
CONTINUOUS
 10
15.1143148015
 20
4.9509287411
 11
15.1003953767
 21
4.9589721869
  0
LINE
  5
53F
100
AcDbEntity
  8
0
100
AcDbLine
 62
7
  6
CONTINUOUS
 10
15.24237351
 20
4.8771239967
 11
15.2284540851
 21
4.8851674424
  0
LINE
  5
540
100
AcDbEntity
  8
0
100
AcDbLine
 62
7
  6
CONTINUOUS
 10
15.3704322184
 20
4.8033192523
 11
15.3565127935
 21
4.811362698
  0
LINE
  5
541
100
AcDbEntity
  8
0
100
AcDbLine
 62
7
  6
CONTINUOUS
 10
15.4984909268
 20
4.7295145078
 11
15.4845715019
 21
4.7375579536
  0
LINE
  5
542
100
AcDbEntity
  8
0
100
AcDbLine
 62
7
  6
CONTINUOUS
 10
15.6265496352
 20
4.6557097634
 11
15.6126302103
 21
4.6637532092
  0
LINE
  5
543
100
AcDbEntity
  8
0
100
AcDbLine
 62
7
  6
CONTINUOUS
 10
15.7406889187
 20
4.5899484647
 11
15.7546083436
 21
4.581905019
  0
LINE
  5
544
100
AcDbEntity
  8
0
100
AcDbLine
 62
7
  6
CONTINUOUS
 10
13.0208333076
 20
4.93364451
 11
13.0208333076
 21
4.9275360938
  0
LINE
  5
545
100
AcDbEntity
  8
0
100
AcDbLine
 62
7
  6
CONTINUOUS
 10
13.0904304318
 20
9.3543427127
 11
13.0904304318
 21
9.4164448712
  0
LINE
  5
546
100
AcDbEntity
  8
0
100
AcDbLine
 62
7
  6
CONTINUOUS
 10
13.1739469807
 20
8.4911432984
 11
13.1739469807
 21
8.4991764862
  0
LINE
  5
547
100
AcDbEntity
  8
0
100
AcDbLine
 62
7
  6
CONTINUOUS
 10
15.1143148015
 20
5.0987331866
 11
15.1003953767
 21
5.1067766323
  0
LINE
  5
548
100
AcDbEntity
  8
0
100
AcDbLine
 62
7
  6
CONTINUOUS
 10
15.24237351
 20
5.0249284421
 11
15.2284540851
 21
5.0329718879
  0
LINE
  5
549
100
AcDbEntity
  8
0
100
AcDbLine
 62
7
  6
CONTINUOUS
 10
15.3704322184
 20
4.9511236977
 11
15.3565127935
 21
4.9591671435
  0
LINE
  5
54A
100
AcDbEntity
  8
0
100
AcDbLine
 62
7
  6
CONTINUOUS
 10
15.4984909268
 20
4.8773189533
 11
15.4845715019
 21
4.885362399
  0
LINE
  5
54B
100
AcDbEntity
  8
0
100
AcDbLine
 62
7
  6
CONTINUOUS
 10
15.6265496352
 20
4.8035142088
 11
15.6126302103
 21
4.8115576546
  0
LINE
  5
54C
100
AcDbEntity
  8
0
100
AcDbLine
 62
7
  6
CONTINUOUS
 10
15.7406889187
 20
4.7377529102
 11
15.7546083436
 21
4.7297094644
  0
LINE
  5
54D
100
AcDbEntity
  8
0
100
AcDbLine
 62
7
  6
CONTINUOUS
 10
15.1143148015
 20
5.246537632
 11
15.1003953767
 21
5.2545810778
  0
LINE
  5
54E
100
AcDbEntity
  8
0
100
AcDbLine
 62
7
  6
CONTINUOUS
 10
15.24237351
 20
5.1727328876
 11
15.2284540851
 21
5.1807763333
  0
LINE
  5
54F
100
AcDbEntity
  8
0
100
AcDbLine
 62
7
  6
CONTINUOUS
 10
15.3704322184
 20
5.0989281431
 11
15.3565127935
 21
5.1069715889
  0
LINE
  5
550
100
AcDbEntity
  8
0
100
AcDbLine
 62
7
  6
CONTINUOUS
 10
15.4984909268
 20
5.0251233987
 11
15.4845715019
 21
5.0331668445
  0
LINE
  5
551
100
AcDbEntity
  8
0
100
AcDbLine
 62
7
  6
CONTINUOUS
 10
15.6265496352
 20
4.9513186543
 11
15.6126302103
 21
4.9593621001
  0
LINE
  5
552
100
AcDbEntity
  8
0
100
AcDbLine
 62
7
  6
CONTINUOUS
 10
15.7406889187
 20
4.8855573556
 11
15.7546083436
 21
4.8775139099
  0
LINE
  5
553
100
AcDbEntity
  8
0
100
AcDbLine
 62
7
  6
CONTINUOUS
 10
13.2574635297
 20
8.8283852063
 11
13.2574635297
 21
8.8203421273
  0
LINE
  5
554
100
AcDbEntity
  8
0
100
AcDbLine
 62
7
  6
CONTINUOUS
 10
15.1143148015
 20
5.3943420774
 11
15.1003953767
 21
5.4023855232
  0
LINE
  5
555
100
AcDbEntity
  8
0
100
AcDbLine
 62
7
  6
CONTINUOUS
 10
15.24237351
 20
5.320537333
 11
15.2284540851
 21
5.3285807788
  0
LINE
  5
556
100
AcDbEntity
  8
0
100
AcDbLine
 62
7
  6
CONTINUOUS
 10
15.3704322184
 20
5.2467325886
 11
15.3565127935
 21
5.2547760344
  0
LINE
  5
557
100
AcDbEntity
  8
0
100
AcDbLine
 62
7
  6
CONTINUOUS
 10
15.4984909268
 20
5.1729278442
 11
15.4845715019
 21
5.1809712899
  0
LINE
  5
558
100
AcDbEntity
  8
0
100
AcDbLine
 62
7
  6
CONTINUOUS
 10
15.6265496352
 20
5.0991230997
 11
15.6126302103
 21
5.1071665455
  0
LINE
  5
559
100
AcDbEntity
  8
0
100
AcDbLine
 62
7
  6
CONTINUOUS
 10
15.7546083436
 20
5.0253183553
 11
15.7406889187
 21
5.0333618011
  0
LINE
  5
55A
100
AcDbEntity
  8
0
100
AcDbLine
 62
7
  6
CONTINUOUS
 10
15.1143148015
 20
5.5421465229
 11
15.1003953767
 21
5.5501899687
  0
LINE
  5
55B
100
AcDbEntity
  8
0
100
AcDbLine
 62
7
  6
CONTINUOUS
 10
15.24237351
 20
5.4683417785
 11
15.2284540851
 21
5.4763852242
  0
LINE
  5
55C
100
AcDbEntity
  8
0
100
AcDbLine
 62
7
  6
CONTINUOUS
 10
15.3704322184
 20
5.394537034
 11
15.3565127935
 21
5.4025804798
  0
LINE
  5
55D
100
AcDbEntity
  8
0
100
AcDbLine
 62
7
  6
CONTINUOUS
 10
15.4984909268
 20
5.3207322896
 11
15.4845715019
 21
5.3287757354
  0
LINE
  5
55E
100
AcDbEntity
  8
0
100
AcDbLine
 62
7
  6
CONTINUOUS
 10
15.6265496352
 20
5.2469275452
 11
15.6126302103
 21
5.2549709909
  0
LINE
  5
55F
100
AcDbEntity
  8
0
100
AcDbLine
 62
7
  6
CONTINUOUS
 10
15.7546083436
 20
5.1731228008
 11
15.7406889187
 21
5.1811662465
  0
LINE
  5
560
100
AcDbEntity
  8
0
100
AcDbLine
 62
7
  6
CONTINUOUS
 10
13.6472074248
 20
4.5467876147
 11
13.6472074248
 21
4.6359310621
  0
LINE
  5
561
100
AcDbEntity
  8
0
100
AcDbLine
 62
7
  6
CONTINUOUS
 10
15.2002037016
 20
7.6909393732
 11
15.1487761406
 21
7.661221565
  0
LINE
  5
562
100
AcDbEntity
  8
0
100
AcDbLine
 62
7
  6
CONTINUOUS
 10
15.0331706037
 20
7.5944180241
 11
14.9817430426
 21
7.5647002158
  0
LINE
  5
563
100
AcDbEntity
  8
0
100
AcDbLine
 62
7
  6
CONTINUOUS
 10
14.8661375057
 20
7.4978966749
 11
14.8164391103
 21
7.4691780782
  0
LINE
  5
564
100
AcDbEntity
  8
0
100
AcDbLine
 62
7
  6
CONTINUOUS
 10
15.1143148015
 20
5.6899509683
 11
15.1003953767
 21
5.6979944141
  0
LINE
  5
565
100
AcDbEntity
  8
0
100
AcDbLine
 62
7
  6
CONTINUOUS
 10
15.24237351
 20
5.6161462239
 11
15.2284540851
 21
5.6241896697
  0
LINE
  5
566
100
AcDbEntity
  8
0
100
AcDbLine
 62
7
  6
CONTINUOUS
 10
15.3704322184
 20
5.5423414795
 11
15.3565127935
 21
5.5503849253
  0
LINE
  5
567
100
AcDbEntity
  8
0
100
AcDbLine
 62
7
  6
CONTINUOUS
 10
15.4984909268
 20
5.4685367351
 11
15.4845715019
 21
5.4765801808
  0
LINE
  5
568
100
AcDbEntity
  8
0
100
AcDbLine
 62
7
  6
CONTINUOUS
 10
15.6265496352
 20
5.3947319906
 11
15.6126302103
 21
5.4027754364
  0
LINE
  5
569
100
AcDbEntity
  8
0
100
AcDbLine
 62
7
  6
CONTINUOUS
 10
15.7546083436
 20
5.3209272462
 11
15.7406889187
 21
5.328970692
  0
LINE
  5
56A
100
AcDbEntity
  8
0
100
AcDbLine
 62
7
  6
CONTINUOUS
 10
15.1143148015
 20
5.8377554138
 11
15.1003953767
 21
5.8457988596
  0
LINE
  5
56B
100
AcDbEntity
  8
0
100
AcDbLine
 62
7
  6
CONTINUOUS
 10
15.24237351
 20
5.7639506694
 11
15.2284540851
 21
5.7719941151
  0
LINE
  5
56C
100
AcDbEntity
  8
0
100
AcDbLine
 62
7
  6
CONTINUOUS
 10
15.3704322184
 20
5.6901459249
 11
15.3565127935
 21
5.6981893707
  0
LINE
  5
56D
100
AcDbEntity
  8
0
100
AcDbLine
 62
7
  6
CONTINUOUS
 10
15.4984909268
 20
5.6163411805
 11
15.4845715019
 21
5.6243846263
  0
LINE
  5
56E
100
AcDbEntity
  8
0
100
AcDbLine
 62
7
  6
CONTINUOUS
 10
15.6265496352
 20
5.5425364361
 11
15.6126302103
 21
5.5505798818
  0
LINE
  5
56F
100
AcDbEntity
  8
0
100
AcDbLine
 62
7
  6
CONTINUOUS
 10
15.7546083436
 20
5.4687316917
 11
15.7406889187
 21
5.4767751374
  0
LINE
  5
570
100
AcDbEntity
  8
0
100
AcDbLine
 62
7
  6
CONTINUOUS
 10
13.7098448366
 20
6.7377975403
 11
13.7098448366
 21
4.7195750871
  0
LINE
  5
571
100
AcDbEntity
  8
0
100
AcDbLine
 62
7
  6
CONTINUOUS
 10
13.716804549
 20
6.7418192632
 11
13.716804549
 21
4.72359681
  0
LINE
  5
572
100
AcDbEntity
  8
0
100
AcDbLine
 62
7
  6
CONTINUOUS
 10
13.7307239738
 20
4.276016987
 11
13.7307239738
 21
4.4181984372
  0
LINE
  5
573
100
AcDbEntity
  8
0
100
AcDbLine
 62
7
  6
CONTINUOUS
 10
13.7864016731
 20
9.1259930663
 11
13.7864016731
 21
9.1340361453
  0
LINE
  5
574
100
AcDbEntity
  8
0
100
AcDbLine
 62
7
  6
CONTINUOUS
 10
13.8281599476
 20
4.4831903563
 11
13.8281599476
 21
4.2197128666
  0
LINE
  5
575
100
AcDbEntity
  8
0
100
AcDbLine
 62
7
  6
CONTINUOUS
 10
15.5124103516
 20
7.5266483401
 11
15.0517640134
 21
7.2604603414
  0
LINE
  5
576
100
AcDbEntity
  8
0
100
AcDbLine
 62
7
  6
CONTINUOUS
 10
15.8047182729
 20
7.692547519
 11
15.5541686261
 21
7.5477654953
  0
LINE
  5
577
100
AcDbEntity
  8
0
100
AcDbLine
 62
7
  6
CONTINUOUS
 10
15.0530693323
 20
7.2582014478
 11
14.9417139337
 21
7.1938538817
  0
LINE
  5
578
100
AcDbEntity
  8
0
100
AcDbLine
 62
7
  6
CONTINUOUS
 10
14.9417139337
 20
7.1854815383
 11
15.0530693323
 21
7.2498291044
  0
LINE
  5
579
100
AcDbEntity
  8
0
100
AcDbLine
 62
7
  6
CONTINUOUS
 10
15.5541686261
 20
7.5393931518
 11
15.8047182729
 21
7.6841751756
  0
LINE
  5
57A
100
AcDbEntity
  8
0
100
AcDbLine
 62
7
  6
CONTINUOUS
 10
15.8325571226
 20
7.6794314277
 11
15.5680880509
 21
7.5266059582
  0
LINE
  5
57B
100
AcDbEntity
  8
0
100
AcDbLine
 62
7
  6
CONTINUOUS
 10
15.0669887571
 20
7.2370419108
 11
14.9417139337
 21
7.1646508989
  0
LINE
  5
57C
100
AcDbEntity
  8
0
100
AcDbLine
 62
7
  6
CONTINUOUS
 10
15.5959269005
 20
6.5956973586
 11
15.5541686261
 21
6.6016514306
  0
LINE
  5
57D
100
AcDbEntity
  8
0
100
AcDbLine
 62
7
  6
CONTINUOUS
 10
15.1143148015
 20
5.9855598592
 11
15.1003953767
 21
5.993603305
  0
LINE
  5
57E
100
AcDbEntity
  8
0
100
AcDbLine
 62
7
  6
CONTINUOUS
 10
15.24237351
 20
5.9117551148
 11
15.2284540851
 21
5.9197985606
  0
LINE
  5
57F
100
AcDbEntity
  8
0
100
AcDbLine
 62
7
  6
CONTINUOUS
 10
15.3704322184
 20
5.8379503704
 11
15.3565127935
 21
5.8459938161
  0
LINE
  5
580
100
AcDbEntity
  8
0
100
AcDbLine
 62
7
  6
CONTINUOUS
 10
15.4984909268
 20
5.764145626
 11
15.4845715019
 21
5.7721890717
  0
LINE
  5
581
100
AcDbEntity
  8
0
100
AcDbLine
 62
7
  6
CONTINUOUS
 10
15.6265496352
 20
5.6903408815
 11
15.6126302103
 21
5.6983843273
  0
LINE
  5
582
100
AcDbEntity
  8
0
100
AcDbLine
 62
7
  6
CONTINUOUS
 10
15.7546083436
 20
5.6165361371
 11
15.7406889187
 21
5.6245795829
  0
LINE
  5
583
100
AcDbEntity
  8
0
100
AcDbLine
 62
7
  6
CONTINUOUS
 10
15.1143148015
 20
6.1333643047
 11
15.1003953767
 21
6.1414077504
  0
LINE
  5
584
100
AcDbEntity
  8
0
100
AcDbLine
 62
7
  6
CONTINUOUS
 10
15.24237351
 20
6.0595595603
 11
15.2284540851
 21
6.067603006
  0
LINE
  5
585
100
AcDbEntity
  8
0
100
AcDbLine
 62
7
  6
CONTINUOUS
 10
15.3704322184
 20
5.9857548158
 11
15.3565127935
 21
5.9937982616
  0
LINE
  5
586
100
AcDbEntity
  8
0
100
AcDbLine
 62
7
  6
CONTINUOUS
 10
15.4984909268
 20
5.9119500714
 11
15.4845715019
 21
5.9199935172
  0
LINE
  5
587
100
AcDbEntity
  8
0
100
AcDbLine
 62
7
  6
CONTINUOUS
 10
15.6265496352
 20
5.838145327
 11
15.6126302103
 21
5.8461887727
  0
LINE
  5
588
100
AcDbEntity
  8
0
100
AcDbLine
 62
7
  6
CONTINUOUS
 10
15.7546083436
 20
5.7643405825
 11
15.7406889187
 21
5.7723840283
  0
LINE
  5
589
100
AcDbEntity
  8
0
100
AcDbLine
 62
7
  6
CONTINUOUS
 10
14.03695132
 20
4.3625386699
 11
14.03695132
 21
4.3403645531
  0
LINE
  5
58A
100
AcDbEntity
  8
0
100
AcDbLine
 62
7
  6
CONTINUOUS
 10
14.0508707448
 20
4.402671135
 11
14.0508707448
 21
4.3544952241
  0
LINE
  5
58B
100
AcDbEntity
  8
0
100
AcDbLine
 62
7
  6
CONTINUOUS
 10
15.6599562547
 20
7.4447408153
 11
15.7546083436
 21
7.4994362465
  0
LINE
  5
58C
100
AcDbEntity
  8
0
100
AcDbLine
 62
7
  6
CONTINUOUS
 10
15.0669887571
 20
7.0121221025
 11
15.5680880509
 21
7.30168615
  0
LINE
  5
58D
100
AcDbEntity
  8
0
100
AcDbLine
 62
7
  6
CONTINUOUS
 10
15.7406889187
 20
7.3982329282
 11
15.6599562547
 21
7.3515809428
  0
LINE
  5
58E
100
AcDbEntity
  8
0
100
AcDbLine
 62
7
  6
CONTINUOUS
 10
15.075340412
 20
7.007296035
 11
15.5764397058
 21
7.2968600825
  0
LINE
  5
58F
100
AcDbEntity
  8
0
100
AcDbLine
 62
7
  6
CONTINUOUS
 10
15.7546083436
 20
7.3901894825
 11
15.6599562547
 21
7.3354940513
  0
LINE
  5
590
100
AcDbEntity
  8
0
100
AcDbLine
 62
7
  6
CONTINUOUS
 10
15.0962195493
 20
6.9952626528
 11
15.2284540851
 21
7.0716753875
  0
LINE
  5
591
100
AcDbEntity
  8
0
100
AcDbLine
 62
7
  6
CONTINUOUS
 10
15.2590768197
 20
7.0893709682
 11
15.3913113556
 21
7.165783703
  0
LINE
  5
592
100
AcDbEntity
  8
0
100
AcDbLine
 62
7
  6
CONTINUOUS
 10
15.4233260327
 20
7.1842836282
 11
15.5555605685
 21
7.260696363
  0
LINE
  5
593
100
AcDbEntity
  8
0
100
AcDbLine
 62
7
  6
CONTINUOUS
 10
15.6599562547
 20
7.2969363699
 11
15.7546083436
 21
7.3516318011
  0
LINE
  5
594
100
AcDbEntity
  8
0
100
AcDbLine
 62
7
  6
CONTINUOUS
 10
15.6532488544
 20
6.6369998933
 11
15.6207646589
 21
6.643346918
  0
LINE
  5
595
100
AcDbEntity
  8
0
100
AcDbLine
 62
7
  6
CONTINUOUS
 10
15.6274229635
 20
6.5775450681
 11
15.5699166576
 21
6.5925752853
  0
LINE
  5
596
100
AcDbEntity
  8
0
100
AcDbLine
 62
7
  6
CONTINUOUS
 10
15.6532488544
 20
6.560334385
 11
15.6014127206
 21
6.5744229948
  0
LINE
  5
597
100
AcDbEntity
  8
0
100
AcDbLine
 62
7
  6
CONTINUOUS
 10
15.1143148015
 20
6.2811687501
 11
15.1003953767
 21
6.2892121959
  0
LINE
  5
598
100
AcDbEntity
  8
0
100
AcDbLine
 62
7
  6
CONTINUOUS
 10
15.24237351
 20
6.2073640057
 11
15.2284540851
 21
6.2154074515
  0
LINE
  5
599
100
AcDbEntity
  8
0
100
AcDbLine
 62
7
  6
CONTINUOUS
 10
15.3704322184
 20
6.1335592613
 11
15.3565127935
 21
6.141602707
  0
LINE
  5
59A
100
AcDbEntity
  8
0
100
AcDbLine
 62
7
  6
CONTINUOUS
 10
15.4984909268
 20
6.0597545169
 11
15.4845715019
 21
6.0677979626
  0
LINE
  5
59B
100
AcDbEntity
  8
0
100
AcDbLine
 62
7
  6
CONTINUOUS
 10
15.6265496352
 20
5.9859497724
 11
15.6126302103
 21
5.9939932182
  0
LINE
  5
59C
100
AcDbEntity
  8
0
100
AcDbLine
 62
7
  6
CONTINUOUS
 10
15.7546083436
 20
5.912145028
 11
15.7406889187
 21
5.9201884738
  0
LINE
  5
59D
100
AcDbEntity
  8
0
100
AcDbLine
 62
7
  6
CONTINUOUS
 10
15.1143148015
 20
6.4289731956
 11
15.1003953767
 21
6.4370166413
  0
LINE
  5
59E
100
AcDbEntity
  8
0
100
AcDbLine
 62
7
  6
CONTINUOUS
 10
15.24237351
 20
6.3551684512
 11
15.2284540851
 21
6.3632118969
  0
LINE
  5
59F
100
AcDbEntity
  8
0
100
AcDbLine
 62
7
  6
CONTINUOUS
 10
15.3704322184
 20
6.2813637067
 11
15.3565127935
 21
6.2894071525
  0
LINE
  5
5A0
100
AcDbEntity
  8
0
100
AcDbLine
 62
7
  6
CONTINUOUS
 10
15.4984909268
 20
6.2075589623
 11
15.4845715019
 21
6.2156024081
  0
LINE
  5
5A1
100
AcDbEntity
  8
0
100
AcDbLine
 62
7
  6
CONTINUOUS
 10
15.6265496352
 20
6.1337542179
 11
15.6126302103
 21
6.1417976636
  0
LINE
  5
5A2
100
AcDbEntity
  8
0
100
AcDbLine
 62
7
  6
CONTINUOUS
 10
15.7546083436
 20
6.0599494734
 11
15.7406889187
 21
6.0679929192
  0
LINE
  5
5A3
100
AcDbEntity
  8
0
100
AcDbLine
 62
7
  6
CONTINUOUS
 10
15.7406889187
 20
7.2504284828
 11
15.6599562547
 21
7.2037764974
  0
LINE
  5
5A4
100
AcDbEntity
  8
0
100
AcDbLine
 62
7
  6
CONTINUOUS
 10
15.7546083436
 20
7.242385037
 11
15.6599562547
 21
7.1876896058
  0
LINE
  5
5A5
100
AcDbEntity
  8
0
100
AcDbLine
 62
7
  6
CONTINUOUS
 10
15.4720440196
 20
7.0679291468
 11
15.4233260327
 21
7.0397770866
  0
LINE
  5
5A6
100
AcDbEntity
  8
0
100
AcDbLine
 62
7
  6
CONTINUOUS
 10
15.3077948066
 20
6.9730164868
 11
15.2590768197
 21
6.9448644266
  0
LINE
  5
5A7
100
AcDbEntity
  8
0
100
AcDbLine
 62
7
  6
CONTINUOUS
 10
15.1518972486
 20
6.8829298942
 11
15.0962195493
 21
6.8507561112
  0
LINE
  5
5A8
100
AcDbEntity
  8
0
100
AcDbLine
 62
7
  6
CONTINUOUS
 10
15.6599562547
 20
7.1491319244
 11
15.7546083436
 21
7.2038273556
  0
LINE
  5
5A9
100
AcDbEntity
  8
0
100
AcDbLine
 62
7
  6
CONTINUOUS
 10
15.5555605685
 20
7.0197108541
 11
15.4233260327
 21
6.9432981193
  0
LINE
  5
5AA
100
AcDbEntity
  8
0
100
AcDbLine
 62
7
  6
CONTINUOUS
 10
15.3913113556
 20
6.9247981941
 11
15.2590768197
 21
6.8483854593
  0
LINE
  5
5AB
100
AcDbEntity
  8
0
100
AcDbLine
 62
7
  6
CONTINUOUS
 10
15.2284540851
 20
6.8306898787
 11
15.0962195493
 21
6.7542771439
  0
LINE
  5
5AC
100
AcDbEntity
  8
0
100
AcDbLine
 62
7
  6
CONTINUOUS
 10
15.7406889187
 20
7.1026240373
 11
15.6599562547
 21
7.0559720519
  0
LINE
  5
5AD
100
AcDbEntity
  8
0
100
AcDbLine
 62
7
  6
CONTINUOUS
 10
15.7546083436
 20
7.0945805916
 11
15.6599562547
 21
7.0398851604
  0
LINE
  5
5AE
100
AcDbEntity
  8
0
100
AcDbLine
 62
7
  6
CONTINUOUS
 10
15.0669887571
 20
6.6586766895
 11
14.9904319206
 21
6.6144377378
  0
LINE
  5
5AF
100
AcDbEntity
  8
0
100
AcDbLine
 62
7
  6
CONTINUOUS
 10
15.6599562547
 20
7.001327479
 11
15.7546083436
 21
7.0560229102
  0
LINE
  5
5B0
100
AcDbEntity
  8
0
100
AcDbLine
 62
7
  6
CONTINUOUS
 10
15.5764397058
 20
6.9434146695
 11
15.075340412
 21
6.653850622
  0
LINE
  5
5B1
100
AcDbEntity
  8
0
100
AcDbLine
 62
7
  6
CONTINUOUS
 10
15.24237351
 20
6.5029728966
 11
15.2284540851
 21
6.5110163424
  0
LINE
  5
5B2
100
AcDbEntity
  8
0
100
AcDbLine
 62
7
  6
CONTINUOUS
 10
15.3704322184
 20
6.4291681522
 11
15.3565127935
 21
6.4372115979
  0
LINE
  5
5B3
100
AcDbEntity
  8
0
100
AcDbLine
 62
7
  6
CONTINUOUS
 10
15.6265496352
 20
6.2815586633
 11
15.6126302103
 21
6.2896021091
  0
LINE
  5
5B4
100
AcDbEntity
  8
0
100
AcDbLine
 62
7
  6
CONTINUOUS
 10
15.7546083436
 20
6.2077539189
 11
15.7406889187
 21
6.2157973647
  0
LINE
  5
5B5
100
AcDbEntity
  8
0
100
AcDbLine
 62
7
  6
CONTINUOUS
 10
14.9904319206
 20
6.7029156412
 11
15.075340412
 21
6.653850622
  0
LINE
  5
5B6
100
AcDbEntity
  8
0
100
AcDbLine
 62
7
  6
CONTINUOUS
 10
15.4434673201
 20
6.4882975129
 11
15.4782658822
 21
6.4681888985
  0
LINE
  5
5B7
100
AcDbEntity
  8
0
100
AcDbLine
 62
7
  6
CONTINUOUS
 10
15.3704322184
 20
6.5769725976
 11
15.3565127935
 21
6.5850160434
  0
LINE
  5
5B8
100
AcDbEntity
  8
0
100
AcDbLine
 62
7
  6
CONTINUOUS
 10
15.7546083436
 20
6.3555583643
 11
15.7406889187
 21
6.3636018101
  0
LINE
  5
5B9
100
AcDbEntity
  8
0
100
AcDbLine
 62
7
  6
CONTINUOUS
 10
15.0669887571
 20
7.1502871276
 11
14.9904319206
 21
7.0128671124
  0
LINE
  5
5BA
100
AcDbEntity
  8
0
100
AcDbLine
 62
7
  6
CONTINUOUS
 10
15.7406889187
 20
6.9548195919
 11
15.6599562547
 21
6.9081676065
  0
LINE
  5
5BB
100
AcDbEntity
  8
0
100
AcDbLine
 62
7
  6
CONTINUOUS
 10
15.6599562547
 20
6.8920807149
 11
15.7546083436
 21
6.9467761461
  0
LINE
  5
5BC
100
AcDbEntity
  8
0
100
AcDbLine
 62
7
  6
CONTINUOUS
 10
15.7546083436
 20
6.9082184647
 11
15.6599562547
 21
6.8535230335
  0
LINE
  5
5BD
100
AcDbEntity
  8
0
100
AcDbLine
 62
7
  6
CONTINUOUS
 10
15.3704322184
 20
6.6862193616
 11
15.2757801295
 21
6.6315239305
  0
LINE
  5
5BE
100
AcDbEntity
  8
0
100
AcDbLine
 62
7
  6
CONTINUOUS
 10
15.24237351
 20
6.6122196606
 11
15.1477214211
 21
6.5575242294
  0
LINE
  5
5BF
100
AcDbEntity
  8
0
100
AcDbLine
 62
7
  6
CONTINUOUS
 10
15.1143148015
 20
6.5382199596
 11
15.0196627127
 21
6.4835245284
  0
LINE
  5
5C0
100
AcDbEntity
  8
0
100
AcDbLine
 62
7
  6
CONTINUOUS
 10
12.707646249
 20
5.0744577882
 11
12.7423989717
 21
5.0945399139
  0
LINE
  5
5C1
100
AcDbEntity
  8
0
100
AcDbLine
 62
7
  6
CONTINUOUS
 10
15.7406889187
 20
6.8070151464
 11
15.6599562547
 21
6.760363161
  0
LINE
  5
5C2
100
AcDbEntity
  8
0
100
AcDbLine
 62
7
  6
CONTINUOUS
 10
15.3565127935
 20
6.5850160434
 11
15.2757801295
 21
6.538364058
  0
LINE
  5
5C3
100
AcDbEntity
  8
0
100
AcDbLine
 62
7
  6
CONTINUOUS
 10
15.2284540851
 20
6.5110163424
 11
15.1477214211
 21
6.4643643569
  0
LINE
  5
5C4
100
AcDbEntity
  8
0
100
AcDbLine
 62
7
  6
CONTINUOUS
 10
15.1003953767
 20
6.4370166413
 11
15.0196627127
 21
6.3903646559
  0
LINE
  5
5C5
100
AcDbEntity
  8
0
100
AcDbLine
 62
7
  6
CONTINUOUS
 10
15.0196627127
 20
6.3742777644
 11
15.1143148015
 21
6.4289731956
  0
LINE
  5
5C6
100
AcDbEntity
  8
0
100
AcDbLine
 62
7
  6
CONTINUOUS
 10
15.1477214211
 20
6.4482774654
 11
15.24237351
 21
6.5029728966
  0
LINE
  5
5C7
100
AcDbEntity
  8
0
100
AcDbLine
 62
7
  6
CONTINUOUS
 10
15.2757801295
 20
6.5222771664
 11
15.3704322184
 21
6.5769725976
  0
LINE
  5
5C8
100
AcDbEntity
  8
0
100
AcDbLine
 62
7
  6
CONTINUOUS
 10
15.6599562547
 20
6.7442762695
 11
15.7546083436
 21
6.7989717007
  0
LINE
  5
5C9
100
AcDbEntity
  8
0
100
AcDbLine
 62
7
  6
CONTINUOUS
 10
12.798076671
 20
5.0623661309
 11
12.7633239484
 21
5.0422840051
  0
LINE
  5
5CA
100
AcDbEntity
  8
0
100
AcDbLine
 62
7
  6
CONTINUOUS
 10
15.7546083436
 20
6.7604140193
 11
15.6599562547
 21
6.7057185881
  0
LINE
  5
5CB
100
AcDbEntity
  8
0
100
AcDbLine
 62
7
  6
CONTINUOUS
 10
15.3704322184
 20
6.5384149162
 11
15.2757801295
 21
6.483719485
  0
LINE
  5
5CC
100
AcDbEntity
  8
0
100
AcDbLine
 62
7
  6
CONTINUOUS
 10
15.24237351
 20
6.4644152152
 11
15.1477214211
 21
6.409719784
  0
LINE
  5
5CD
100
AcDbEntity
  8
0
100
AcDbLine
 62
7
  6
CONTINUOUS
 10
15.1143148015
 20
6.3904155142
 11
15.0196627127
 21
6.335720083
  0
LINE
  5
5CE
100
AcDbEntity
  8
0
100
AcDbLine
 62
7
  6
CONTINUOUS
 10
12.7542148974
 20
4.9832849373
 11
12.707646249
 21
4.9563748888
  0
LINE
  5
5CF
100
AcDbEntity
  8
0
100
AcDbLine
 62
7
  6
CONTINUOUS
 10
15.549540321
 20
6.549726517
 11
15.5644308376
 21
6.5411445878
  0
LINE
  5
5D0
100
AcDbEntity
  8
0
100
AcDbLine
 62
7
  6
CONTINUOUS
 10
15.5959269005
 20
6.5229922973
 11
15.6108174171
 21
6.5144103681
  0
LINE
  5
5D1
100
AcDbEntity
  8
0
100
AcDbLine
 62
7
  6
CONTINUOUS
 10
15.5856646891
 20
6.5471466094
 11
15.5541686261
 21
6.5652988999
  0
LINE
  5
5D2
100
AcDbEntity
  8
0
100
AcDbLine
 62
7
  6
CONTINUOUS
 10
15.5384205946
 20
6.5743750452
 11
15.5353811641
 21
6.576126776
  0
LINE
  5
5D3
100
AcDbEntity
  8
0
100
AcDbLine
 62
7
  6
CONTINUOUS
 10
15.5511252885
 20
6.6034054132
 11
15.5541686261
 21
6.6016514306
  0
LINE
  5
5D4
100
AcDbEntity
  8
0
100
AcDbLine
 62
7
  6
CONTINUOUS
 10
15.5699166576
 20
6.5925752853
 11
15.6014127206
 21
6.5744229948
  0
LINE
  5
5D5
100
AcDbEntity
  8
0
100
AcDbLine
 62
7
  6
CONTINUOUS
 10
15.6423134801
 20
6.5689631389
 11
15.6274229635
 21
6.5775450681
  0
LINE
  5
5D6
100
AcDbEntity
  8
0
100
AcDbLine
 62
7
  6
CONTINUOUS
 10
15.5959269005
 20
6.5956973586
 11
15.581036384
 21
6.6042792878
  0
LINE
  5
5D7
100
AcDbEntity
  8
0
100
AcDbLine
 62
7
  6
CONTINUOUS
 10
15.7546083436
 20
6.5033628098
 11
15.7406889187
 21
6.5114062555
  0
LINE
  5
5D8
100
AcDbEntity
  8
0
100
AcDbLine
 62
7
  6
CONTINUOUS
 10
15.0962195493
 20
6.9151036773
 11
15.1518972486
 21
6.8829298942
  0
LINE
  5
5D9
100
AcDbEntity
  8
0
100
AcDbLine
 62
7
  6
CONTINUOUS
 10
15.075340412
 20
7.007296035
 11
15.0669887571
 21
7.0121221025
  0
LINE
  5
5DA
100
AcDbEntity
  8
0
100
AcDbLine
 62
7
  6
CONTINUOUS
 10
15.581353383
 20
6.7269134921
 11
15.6161519451
 21
6.7068048777
  0
LINE
  5
5DB
100
AcDbEntity
  8
0
100
AcDbLine
 62
7
  6
CONTINUOUS
 10
15.2284540851
 20
6.8306898787
 11
15.1518972486
 21
6.8829298942
  0
LINE
  5
5DC
100
AcDbEntity
  8
0
100
AcDbLine
 62
7
  6
CONTINUOUS
 10
14.8663462239
 20
7.4255105526
 11
14.8663462239
 21
7.4974969788
  0
LINE
  5
5DD
100
AcDbEntity
  8
0
100
AcDbLine
 62
7
  6
CONTINUOUS
 10
12.8536810272
 20
5.0302347297
 11
12.7633239484
 21
4.9780212028
  0
LINE
  5
5DE
100
AcDbEntity
  8
0
100
AcDbLine
 62
7
  6
CONTINUOUS
 10
15.7406889187
 20
6.659210701
 11
15.6649450124
 21
6.6154415072
  0
LINE
  5
5DF
100
AcDbEntity
  8
0
100
AcDbLine
 62
7
  6
CONTINUOUS
 10
15.3565127935
 20
6.4372115979
 11
15.2757801295
 21
6.3905596125
  0
LINE
  5
5E0
100
AcDbEntity
  8
0
100
AcDbLine
 62
7
  6
CONTINUOUS
 10
15.2284540851
 20
6.3632118969
 11
15.1477214211
 21
6.3165599115
  0
LINE
  5
5E1
100
AcDbEntity
  8
0
100
AcDbLine
 62
7
  6
CONTINUOUS
 10
15.1003953767
 20
6.2892121959
 11
15.0196627127
 21
6.2425602105
  0
LINE
  5
5E2
100
AcDbEntity
  8
0
100
AcDbLine
 62
7
  6
CONTINUOUS
 10
12.7633239484
 20
4.9242011058
 11
12.9002496755
 21
5.0033246812
  0
LINE
  5
5E3
100
AcDbEntity
  8
0
100
AcDbLine
 62
7
  6
CONTINUOUS
 10
15.0196627127
 20
6.2264733189
 11
15.1143148015
 21
6.2811687501
  0
LINE
  5
5E4
100
AcDbEntity
  8
0
100
AcDbLine
 62
7
  6
CONTINUOUS
 10
15.1477214211
 20
6.30047302
 11
15.24237351
 21
6.3551684512
  0
LINE
  5
5E5
100
AcDbEntity
  8
0
100
AcDbLine
 62
7
  6
CONTINUOUS
 10
15.2757801295
 20
6.374472721
 11
15.3704322184
 21
6.4291681522
  0
LINE
  5
5E6
100
AcDbEntity
  8
0
100
AcDbLine
 62
7
  6
CONTINUOUS
 10
15.6625772794
 20
6.5979864031
 11
15.7546083436
 21
6.6511672552
  0
LINE
  5
5E7
100
AcDbEntity
  8
0
100
AcDbLine
 62
7
  6
CONTINUOUS
 10
15.7546083436
 20
6.6126095738
 11
15.6599562547
 21
6.5579141426
  0
LINE
  5
5E8
100
AcDbEntity
  8
0
100
AcDbLine
 62
7
  6
CONTINUOUS
 10
15.3704322184
 20
6.3906104708
 11
15.2757801295
 21
6.3359150396
  0
LINE
  5
5E9
100
AcDbEntity
  8
0
100
AcDbLine
 62
7
  6
CONTINUOUS
 10
15.24237351
 20
6.3166107697
 11
15.1477214211
 21
6.2619153385
  0
LINE
  5
5EA
100
AcDbEntity
  8
0
100
AcDbLine
 62
7
  6
CONTINUOUS
 10
15.1143148015
 20
6.2426110687
 11
15.0196627127
 21
6.1879156375
  0
LINE
  5
5EB
100
AcDbEntity
  8
0
100
AcDbLine
 62
7
  6
CONTINUOUS
 10
12.8120419352
 20
4.8558847941
 11
12.983720385
 21
4.9550904953
  0
LINE
  5
5EC
100
AcDbEntity
  8
0
100
AcDbLine
 62
7
  6
CONTINUOUS
 10
15.7406889187
 20
6.5114062555
 11
15.6599562547
 21
6.4647542701
  0
LINE
  5
5ED
100
AcDbEntity
  8
0
100
AcDbLine
 62
7
  6
CONTINUOUS
 10
15.3565127935
 20
6.2894071525
 11
15.2757801295
 21
6.2427551671
  0
LINE
  5
5EE
100
AcDbEntity
  8
0
100
AcDbLine
 62
7
  6
CONTINUOUS
 10
15.2284540851
 20
6.2154074515
 11
15.1477214211
 21
6.168755466
  0
LINE
  5
5EF
100
AcDbEntity
  8
0
100
AcDbLine
 62
7
  6
CONTINUOUS
 10
15.1003953767
 20
6.1414077504
 11
15.0196627127
 21
6.094755765
  0
LINE
  5
5F0
100
AcDbEntity
  8
0
100
AcDbLine
 62
7
  6
CONTINUOUS
 10
13.0208333076
 20
4.9275360938
 11
12.8120419352
 21
4.8068844073
  0
LINE
  5
5F1
100
AcDbEntity
  8
0
100
AcDbLine
 62
7
  6
CONTINUOUS
 10
15.0196627127
 20
6.0786688735
 11
15.1143148015
 21
6.1333643047
  0
LINE
  5
5F2
100
AcDbEntity
  8
0
100
AcDbLine
 62
7
  6
CONTINUOUS
 10
15.1477214211
 20
6.1526685745
 11
15.24237351
 21
6.2073640057
  0
LINE
  5
5F3
100
AcDbEntity
  8
0
100
AcDbLine
 62
7
  6
CONTINUOUS
 10
15.2757801295
 20
6.2266682755
 11
15.3704322184
 21
6.2813637067
  0
LINE
  5
5F4
100
AcDbEntity
  8
0
100
AcDbLine
 62
7
  6
CONTINUOUS
 10
15.6599562547
 20
6.4486673786
 11
15.7546083436
 21
6.5033628098
  0
LINE
  5
5F5
100
AcDbEntity
  8
0
100
AcDbLine
 62
7
  6
CONTINUOUS
 10
15.7546083436
 20
6.4648051284
 11
15.6599562547
 21
6.4101096972
  0
LINE
  5
5F6
100
AcDbEntity
  8
0
100
AcDbLine
 62
7
  6
CONTINUOUS
 10
15.6265496352
 20
6.3908054273
 11
15.5318975463
 21
6.3361099962
  0
LINE
  5
5F7
100
AcDbEntity
  8
0
100
AcDbLine
 62
7
  6
CONTINUOUS
 10
15.4984909268
 20
6.3168057263
 11
15.4038388379
 21
6.2621102951
  0
LINE
  5
5F8
100
AcDbEntity
  8
0
100
AcDbLine
 62
7
  6
CONTINUOUS
 10
15.3704322184
 20
6.2428060253
 11
15.2757801295
 21
6.1881105941
  0
LINE
  5
5F9
100
AcDbEntity
  8
0
100
AcDbLine
 62
7
  6
CONTINUOUS
 10
15.24237351
 20
6.1688063243
 11
15.1477214211
 21
6.1141108931
  0
LINE
  5
5FA
100
AcDbEntity
  8
0
100
AcDbLine
 62
7
  6
CONTINUOUS
 10
15.1143148015
 20
6.0948066233
 11
15.0196627127
 21
6.0401111921
  0
LINE
  5
5FB
100
AcDbEntity
  8
0
100
AcDbLine
 62
7
  6
CONTINUOUS
 10
15.7546083436
 20
6.6511672552
 11
15.7406889187
 21
6.659210701
  0
LINE
  5
5FC
100
AcDbEntity
  8
0
100
AcDbLine
 62
7
  6
CONTINUOUS
 10
15.2590768197
 20
7.001168547
 11
15.3913113556
 21
6.9247981941
  0
LINE
  5
5FD
100
AcDbEntity
  8
0
100
AcDbLine
 62
7
  6
CONTINUOUS
 10
15.7546083436
 20
6.7989717007
 11
15.7406889187
 21
6.8070151464
  0
LINE
  5
5FE
100
AcDbEntity
  8
0
100
AcDbLine
 62
7
  6
CONTINUOUS
 10
15.4233260327
 20
7.096081207
 11
15.5555605685
 21
7.0197108541
  0
LINE
  5
5FF
100
AcDbEntity
  8
0
100
AcDbLine
 62
7
  6
CONTINUOUS
 10
15.6237753975
 20
6.50928487
 11
15.5856646891
 21
6.5471466094
  0
LINE
  5
600
100
AcDbEntity
  8
0
100
AcDbLine
 62
7
  6
CONTINUOUS
 10
14.9417139337
 20
7.1646508989
 11
14.9417139337
 21
3.8878906061
  0
LINE
  5
601
100
AcDbEntity
  8
0
100
AcDbLine
 62
7
  6
CONTINUOUS
 10
14.9417139337
 20
7.1854815383
 11
14.9417139337
 21
7.1938538817
  0
LINE
  5
602
100
AcDbEntity
  8
0
100
AcDbLine
 62
7
  6
CONTINUOUS
 10
14.9637871688
 20
7.4866368414
 11
14.9637871688
 21
7.4446093265
  0
LINE
  5
603
100
AcDbEntity
  8
0
100
AcDbLine
 62
7
  6
CONTINUOUS
 10
14.9904319206
 20
6.6144377378
 11
14.9904319206
 21
7.0128671124
  0
LINE
  5
604
100
AcDbEntity
  8
0
100
AcDbLine
 62
7
  6
CONTINUOUS
 10
15.0031572475
 20
7.4446093265
 11
15.0031572475
 21
7.4866368414
  0
LINE
  5
605
100
AcDbEntity
  8
0
100
AcDbLine
 62
7
  6
CONTINUOUS
 10
15.0196627127
 20
4.0094066372
 11
15.0196627127
 21
4.1186534013
  0
LINE
  5
606
100
AcDbEntity
  8
0
100
AcDbLine
 62
7
  6
CONTINUOUS
 10
15.0196627127
 20
4.1572110827
 11
15.0196627127
 21
4.2664578467
  0
LINE
  5
607
100
AcDbEntity
  8
0
100
AcDbLine
 62
7
  6
CONTINUOUS
 10
15.0196627127
 20
4.3050155281
 11
15.0196627127
 21
4.4142622922
  0
LINE
  5
608
100
AcDbEntity
  8
0
100
AcDbLine
 62
7
  6
CONTINUOUS
 10
15.0196627127
 20
4.4528199736
 11
15.0196627127
 21
4.5620667376
  0
LINE
  5
609
100
AcDbEntity
  8
0
100
AcDbLine
 62
7
  6
CONTINUOUS
 10
15.0196627127
 20
4.600624419
 11
15.0196627127
 21
4.709871183
  0
LINE
  5
60A
100
AcDbEntity
  8
0
100
AcDbLine
 62
7
  6
CONTINUOUS
 10
15.0196627127
 20
4.7484288645
 11
15.0196627127
 21
4.8576756285
  0
LINE
  5
60B
100
AcDbEntity
  8
0
100
AcDbLine
 62
7
  6
CONTINUOUS
 10
15.0196627127
 20
4.8962333099
 11
15.0196627127
 21
5.0054800739
  0
LINE
  5
60C
100
AcDbEntity
  8
0
100
AcDbLine
 62
7
  6
CONTINUOUS
 10
15.0196627127
 20
5.0440377554
 11
15.0196627127
 21
5.1532845194
  0
LINE
  5
60D
100
AcDbEntity
  8
0
100
AcDbLine
 62
7
  6
CONTINUOUS
 10
15.0196627127
 20
5.1918422008
 11
15.0196627127
 21
5.3010889648
  0
LINE
  5
60E
100
AcDbEntity
  8
0
100
AcDbLine
 62
7
  6
CONTINUOUS
 10
15.0196627127
 20
5.3396466463
 11
15.0196627127
 21
5.4488934103
  0
LINE
  5
60F
100
AcDbEntity
  8
0
100
AcDbLine
 62
7
  6
CONTINUOUS
 10
15.0196627127
 20
5.4874510917
 11
15.0196627127
 21
5.5966978557
  0
LINE
  5
610
100
AcDbEntity
  8
0
100
AcDbLine
 62
7
  6
CONTINUOUS
 10
15.0196627127
 20
5.6352555372
 11
15.0196627127
 21
5.7445023012
  0
LINE
  5
611
100
AcDbEntity
  8
0
100
AcDbLine
 62
7
  6
CONTINUOUS
 10
15.0196627127
 20
5.7830599826
 11
15.0196627127
 21
5.8923067466
  0
LINE
  5
612
100
AcDbEntity
  8
0
100
AcDbLine
 62
7
  6
CONTINUOUS
 10
15.0196627127
 20
5.9308644281
 11
15.0196627127
 21
6.0401111921
  0
LINE
  5
613
100
AcDbEntity
  8
0
100
AcDbLine
 62
7
  6
CONTINUOUS
 10
15.0196627127
 20
6.0786688735
 11
15.0196627127
 21
6.1879156375
  0
LINE
  5
614
100
AcDbEntity
  8
0
100
AcDbLine
 62
7
  6
CONTINUOUS
 10
15.0196627127
 20
6.2264733189
 11
15.0196627127
 21
6.335720083
  0
LINE
  5
615
100
AcDbEntity
  8
0
100
AcDbLine
 62
7
  6
CONTINUOUS
 10
15.0196627127
 20
6.3742777644
 11
15.0196627127
 21
6.4835245284
  0
LINE
  5
616
100
AcDbEntity
  8
0
100
AcDbLine
 62
7
  6
CONTINUOUS
 10
15.0333793218
 20
7.5582505832
 11
15.0333793218
 21
7.5940183279
  0
LINE
  5
617
100
AcDbEntity
  8
0
100
AcDbLine
 62
7
  6
CONTINUOUS
 10
15.0530693323
 20
7.2582014478
 11
15.0530693323
 21
7.2498291044
  0
LINE
  5
618
100
AcDbEntity
  8
0
100
AcDbLine
 62
7
  6
CONTINUOUS
 10
15.0669887571
 20
7.2370419108
 11
15.0669887571
 21
7.1502871276
  0
LINE
  5
619
100
AcDbEntity
  8
0
100
AcDbLine
 62
7
  6
CONTINUOUS
 10
15.075340412
 20
6.653850622
 11
15.075340412
 21
7.007296035
  0
LINE
  5
61A
100
AcDbEntity
  8
0
100
AcDbLine
 62
7
  6
CONTINUOUS
 10
15.0962195493
 20
6.7542771439
 11
15.0962195493
 21
6.9952626528
  0
LINE
  5
61B
100
AcDbEntity
  8
0
100
AcDbLine
 62
7
  6
CONTINUOUS
 10
15.1003953767
 20
6.5301765138
 11
15.1003953767
 21
6.4370166413
  0
LINE
  5
61C
100
AcDbEntity
  8
0
100
AcDbLine
 62
7
  6
CONTINUOUS
 10
15.1003953767
 20
6.3823720684
 11
15.1003953767
 21
6.2892121959
  0
LINE
  5
61D
100
AcDbEntity
  8
0
100
AcDbLine
 62
7
  6
CONTINUOUS
 10
15.1003953767
 20
6.2345676229
 11
15.1003953767
 21
6.1414077504
  0
LINE
  5
61E
100
AcDbEntity
  8
0
100
AcDbLine
 62
7
  6
CONTINUOUS
 10
15.1003953767
 20
6.0867631775
 11
15.1003953767
 21
5.993603305
  0
LINE
  5
61F
100
AcDbEntity
  8
0
100
AcDbLine
 62
7
  6
CONTINUOUS
 10
15.1003953767
 20
5.9389587321
 11
15.1003953767
 21
5.8457988596
  0
LINE
  5
620
100
AcDbEntity
  8
0
100
AcDbLine
 62
7
  6
CONTINUOUS
 10
15.1003953767
 20
5.7911542866
 11
15.1003953767
 21
5.6979944141
  0
LINE
  5
621
100
AcDbEntity
  8
0
100
AcDbLine
 62
7
  6
CONTINUOUS
 10
15.1003953767
 20
5.6433498412
 11
15.1003953767
 21
5.5501899687
  0
LINE
  5
622
100
AcDbEntity
  8
0
100
AcDbLine
 62
7
  6
CONTINUOUS
 10
15.1003953767
 20
5.4955453957
 11
15.1003953767
 21
5.4023855232
  0
LINE
  5
623
100
AcDbEntity
  8
0
100
AcDbLine
 62
7
  6
CONTINUOUS
 10
15.1003953767
 20
5.3477409503
 11
15.1003953767
 21
5.2545810778
  0
LINE
  5
624
100
AcDbEntity
  8
0
100
AcDbLine
 62
7
  6
CONTINUOUS
 10
15.1003953767
 20
5.1999365048
 11
15.1003953767
 21
5.1067766323
  0
LINE
  5
625
100
AcDbEntity
  8
0
100
AcDbLine
 62
7
  6
CONTINUOUS
 10
15.1003953767
 20
5.0521320594
 11
15.1003953767
 21
4.9589721869
  0
LINE
  5
626
100
AcDbEntity
  8
0
100
AcDbLine
 62
7
  6
CONTINUOUS
 10
15.1003953767
 20
4.9043276139
 11
15.1003953767
 21
4.8111677414
  0
LINE
  5
627
100
AcDbEntity
  8
0
100
AcDbLine
 62
7
  6
CONTINUOUS
 10
15.1003953767
 20
4.7565231685
 11
15.1003953767
 21
4.663363296
  0
LINE
  5
628
100
AcDbEntity
  8
0
100
AcDbLine
 62
7
  6
CONTINUOUS
 10
15.1003953767
 20
4.608718723
 11
15.1003953767
 21
4.5155588505
  0
LINE
  5
629
100
AcDbEntity
  8
0
100
AcDbLine
 62
7
  6
CONTINUOUS
 10
15.1003953767
 20
4.4609142776
 11
15.1003953767
 21
4.3677544051
  0
LINE
  5
62A
100
AcDbEntity
  8
0
100
AcDbLine
 62
7
  6
CONTINUOUS
 10
15.1003953767
 20
4.3131098321
 11
15.1003953767
 21
4.2199499596
  0
LINE
  5
62B
100
AcDbEntity
  8
0
100
AcDbLine
 62
7
  6
CONTINUOUS
 10
15.1003953767
 20
4.1653053867
 11
15.1003953767
 21
4.0721455142
  0
LINE
  5
62C
100
AcDbEntity
  8
0
100
AcDbLine
 62
7
  6
CONTINUOUS
 10
15.1005981924
 20
7.3496925333
 11
15.1005981924
 21
7.4974969788
  0
LINE
  5
62D
100
AcDbEntity
  8
0
100
AcDbLine
 62
7
  6
CONTINUOUS
 10
15.1143148015
 20
4.0641020684
 11
15.1143148015
 21
4.1733488324
  0
LINE
  5
62E
100
AcDbEntity
  8
0
100
AcDbLine
 62
7
  6
CONTINUOUS
 10
15.1143148015
 20
4.2119065139
 11
15.1143148015
 21
4.3211532779
  0
LINE
  5
62F
100
AcDbEntity
  8
0
100
AcDbLine
 62
7
  6
CONTINUOUS
 10
15.1143148015
 20
4.3597109593
 11
15.1143148015
 21
4.4689577233
  0
LINE
  5
630
100
AcDbEntity
  8
0
100
AcDbLine
 62
7
  6
CONTINUOUS
 10
15.1143148015
 20
4.5075154048
 11
15.1143148015
 21
4.6167621688
  0
LINE
  5
631
100
AcDbEntity
  8
0
100
AcDbLine
 62
7
  6
CONTINUOUS
 10
15.1143148015
 20
4.6553198502
 11
15.1143148015
 21
4.7645666142
  0
LINE
  5
632
100
AcDbEntity
  8
0
100
AcDbLine
 62
7
  6
CONTINUOUS
 10
15.1143148015
 20
4.8031242957
 11
15.1143148015
 21
4.9123710597
  0
LINE
  5
633
100
AcDbEntity
  8
0
100
AcDbLine
 62
7
  6
CONTINUOUS
 10
15.1143148015
 20
4.9509287411
 11
15.1143148015
 21
5.0601755051
  0
LINE
  5
634
100
AcDbEntity
  8
0
100
AcDbLine
 62
7
  6
CONTINUOUS
 10
15.1143148015
 20
5.0987331866
 11
15.1143148015
 21
5.2079799506
  0
LINE
  5
635
100
AcDbEntity
  8
0
100
AcDbLine
 62
7
  6
CONTINUOUS
 10
15.1143148015
 20
5.246537632
 11
15.1143148015
 21
5.355784396
  0
LINE
  5
636
100
AcDbEntity
  8
0
100
AcDbLine
 62
7
  6
CONTINUOUS
 10
15.1143148015
 20
5.3943420774
 11
15.1143148015
 21
5.5035888415
  0
LINE
  5
637
100
AcDbEntity
  8
0
100
AcDbLine
 62
7
  6
CONTINUOUS
 10
15.1143148015
 20
5.5421465229
 11
15.1143148015
 21
5.6513932869
  0
LINE
  5
638
100
AcDbEntity
  8
0
100
AcDbLine
 62
7
  6
CONTINUOUS
 10
15.1143148015
 20
5.6899509683
 11
15.1143148015
 21
5.7991977324
  0
LINE
  5
639
100
AcDbEntity
  8
0
100
AcDbLine
 62
7
  6
CONTINUOUS
 10
15.1143148015
 20
5.8377554138
 11
15.1143148015
 21
5.9470021778
  0
LINE
  5
63A
100
AcDbEntity
  8
0
100
AcDbLine
 62
7
  6
CONTINUOUS
 10
15.1143148015
 20
5.9855598592
 11
15.1143148015
 21
6.0948066233
  0
LINE
  5
63B
100
AcDbEntity
  8
0
100
AcDbLine
 62
7
  6
CONTINUOUS
 10
15.1143148015
 20
6.1333643047
 11
15.1143148015
 21
6.2426110687
  0
LINE
  5
63C
100
AcDbEntity
  8
0
100
AcDbLine
 62
7
  6
CONTINUOUS
 10
15.1143148015
 20
6.2811687501
 11
15.1143148015
 21
6.3904155142
  0
LINE
  5
63D
100
AcDbEntity
  8
0
100
AcDbLine
 62
7
  6
CONTINUOUS
 10
15.1143148015
 20
6.4289731956
 11
15.1143148015
 21
6.5382199596
  0
LINE
  5
63E
100
AcDbEntity
  8
0
100
AcDbLine
 62
7
  6
CONTINUOUS
 10
15.1308202667
 20
7.5831581906
 11
15.1308202667
 21
7.5411306757
  0
LINE
  5
63F
100
AcDbEntity
  8
0
100
AcDbLine
 62
7
  6
CONTINUOUS
 10
15.1477214211
 20
6.5575242294
 11
15.1477214211
 21
6.4482774654
  0
LINE
  5
640
100
AcDbEntity
  8
0
100
AcDbLine
 62
7
  6
CONTINUOUS
 10
15.1477214211
 20
6.409719784
 11
15.1477214211
 21
6.30047302
  0
LINE
  5
641
100
AcDbEntity
  8
0
100
AcDbLine
 62
7
  6
CONTINUOUS
 10
15.1477214211
 20
6.2619153385
 11
15.1477214211
 21
6.1526685745
  0
LINE
  5
642
100
AcDbEntity
  8
0
100
AcDbLine
 62
7
  6
CONTINUOUS
 10
15.1477214211
 20
6.1141108931
 11
15.1477214211
 21
6.0048641291
  0
LINE
  5
643
100
AcDbEntity
  8
0
100
AcDbLine
 62
7
  6
CONTINUOUS
 10
15.1477214211
 20
5.9663064476
 11
15.1477214211
 21
5.8570596836
  0
LINE
  5
644
100
AcDbEntity
  8
0
100
AcDbLine
 62
7
  6
CONTINUOUS
 10
15.1477214211
 20
5.8185020022
 11
15.1477214211
 21
5.7092552382
  0
LINE
  5
645
100
AcDbEntity
  8
0
100
AcDbLine
 62
7
  6
CONTINUOUS
 10
15.1477214211
 20
5.6706975568
 11
15.1477214211
 21
5.5614507927
  0
LINE
  5
646
100
AcDbEntity
  8
0
100
AcDbLine
 62
7
  6
CONTINUOUS
 10
15.1477214211
 20
5.5228931113
 11
15.1477214211
 21
5.4136463473
  0
LINE
  5
647
100
AcDbEntity
  8
0
100
AcDbLine
 62
7
  6
CONTINUOUS
 10
15.1477214211
 20
5.3750886659
 11
15.1477214211
 21
5.2658419018
  0
LINE
  5
648
100
AcDbEntity
  8
0
100
AcDbLine
 62
7
  6
CONTINUOUS
 10
15.1477214211
 20
5.2272842204
 11
15.1477214211
 21
5.1180374564
  0
LINE
  5
649
100
AcDbEntity
  8
0
100
AcDbLine
 62
7
  6
CONTINUOUS
 10
15.1477214211
 20
5.079479775
 11
15.1477214211
 21
4.9702330109
  0
LINE
  5
64A
100
AcDbEntity
  8
0
100
AcDbLine
 62
7
  6
CONTINUOUS
 10
15.1477214211
 20
4.9316753295
 11
15.1477214211
 21
4.8224285655
  0
LINE
  5
64B
100
AcDbEntity
  8
0
100
AcDbLine
 62
7
  6
CONTINUOUS
 10
15.1477214211
 20
4.7838708841
 11
15.1477214211
 21
4.67462412
  0
LINE
  5
64C
100
AcDbEntity
  8
0
100
AcDbLine
 62
7
  6
CONTINUOUS
 10
15.1477214211
 20
4.6360664386
 11
15.1477214211
 21
4.5268196746
  0
LINE
  5
64D
100
AcDbEntity
  8
0
100
AcDbLine
 62
7
  6
CONTINUOUS
 10
15.1477214211
 20
4.4882619932
 11
15.1477214211
 21
4.3790152291
  0
LINE
  5
64E
100
AcDbEntity
  8
0
100
AcDbLine
 62
7
  6
CONTINUOUS
 10
15.1477214211
 20
4.3404575477
 11
15.1477214211
 21
4.2312107837
  0
LINE
  5
64F
100
AcDbEntity
  8
0
100
AcDbLine
 62
7
  6
CONTINUOUS
 10
15.1477214211
 20
4.1926531023
 11
15.1477214211
 21
4.0834063383
  0
LINE
  5
650
100
AcDbEntity
  8
0
100
AcDbLine
 62
7
  6
CONTINUOUS
 10
15.1518972486
 20
7.0274364358
 11
15.1518972486
 21
6.8829298942
  0
LINE
  5
651
100
AcDbEntity
  8
0
100
AcDbLine
 62
7
  6
CONTINUOUS
 10
15.1701903455
 20
7.5411306757
 11
15.1701903455
 21
7.5831581906
  0
LINE
  5
652
100
AcDbEntity
  8
0
100
AcDbLine
 62
7
  6
CONTINUOUS
 10
15.7406889187
 20
6.3636018101
 11
15.6599562547
 21
6.3169498247
  0
LINE
  5
653
100
AcDbEntity
  8
0
100
AcDbLine
 62
7
  6
CONTINUOUS
 10
15.6126302103
 20
6.2896021091
 11
15.5318975463
 21
6.2429501237
  0
LINE
  5
654
100
AcDbEntity
  8
0
100
AcDbLine
 62
7
  6
CONTINUOUS
 10
15.4845715019
 20
6.2156024081
 11
15.4038388379
 21
6.1689504226
  0
LINE
  5
655
100
AcDbEntity
  8
0
100
AcDbLine
 62
7
  6
CONTINUOUS
 10
15.3565127935
 20
6.141602707
 11
15.2757801295
 21
6.0949507216
  0
LINE
  5
656
100
AcDbEntity
  8
0
100
AcDbLine
 62
7
  6
CONTINUOUS
 10
15.2284540851
 20
6.067603006
 11
15.1477214211
 21
6.0209510206
  0
LINE
  5
657
100
AcDbEntity
  8
0
100
AcDbLine
 62
7
  6
CONTINUOUS
 10
15.1003953767
 20
5.993603305
 11
15.0196627127
 21
5.9469513196
  0
LINE
  5
658
100
AcDbEntity
  8
0
100
AcDbLine
 62
7
  6
CONTINUOUS
 10
15.0196627127
 20
5.9308644281
 11
15.1143148015
 21
5.9855598592
  0
LINE
  5
659
100
AcDbEntity
  8
0
100
AcDbLine
 62
7
  6
CONTINUOUS
 10
15.1477214211
 20
6.0048641291
 11
15.24237351
 21
6.0595595603
  0
LINE
  5
65A
100
AcDbEntity
  8
0
100
AcDbLine
 62
7
  6
CONTINUOUS
 10
15.2757801295
 20
6.0788638301
 11
15.3704322184
 21
6.1335592613
  0
LINE
  5
65B
100
AcDbEntity
  8
0
100
AcDbLine
 62
7
  6
CONTINUOUS
 10
15.4038388379
 20
6.1528635311
 11
15.4984909268
 21
6.2075589623
  0
LINE
  5
65C
100
AcDbEntity
  8
0
100
AcDbLine
 62
7
  6
CONTINUOUS
 10
15.5318975463
 20
6.2268632321
 11
15.6265496352
 21
6.2815586633
  0
LINE
  5
65D
100
AcDbEntity
  8
0
100
AcDbLine
 62
7
  6
CONTINUOUS
 10
15.6599562547
 20
6.3008629331
 11
15.7546083436
 21
6.3555583643
  0
LINE
  5
65E
100
AcDbEntity
  8
0
100
AcDbLine
 62
7
  6
CONTINUOUS
 10
15.7546083436
 20
6.3170006829
 11
15.6599562547
 21
6.2623052517
  0
LINE
  5
65F
100
AcDbEntity
  8
0
100
AcDbLine
 62
7
  6
CONTINUOUS
 10
15.6265496352
 20
6.2430009819
 11
15.5318975463
 21
6.1883055507
  0
LINE
  5
660
100
AcDbEntity
  8
0
100
AcDbLine
 62
7
  6
CONTINUOUS
 10
15.4984909268
 20
6.1690012809
 11
15.4038388379
 21
6.1143058497
  0
LINE
  5
661
100
AcDbEntity
  8
0
100
AcDbLine
 62
7
  6
CONTINUOUS
 10
15.3704322184
 20
6.0950015799
 11
15.2757801295
 21
6.0403061487
  0
LINE
  5
662
100
AcDbEntity
  8
0
100
AcDbLine
 62
7
  6
CONTINUOUS
 10
15.24237351
 20
6.0210018788
 11
15.1477214211
 21
5.9663064476
  0
LINE
  5
663
100
AcDbEntity
  8
0
100
AcDbLine
 62
7
  6
CONTINUOUS
 10
15.1143148015
 20
5.9470021778
 11
15.0196627127
 21
5.8923067466
  0
LINE
  5
664
100
AcDbEntity
  8
0
100
AcDbLine
 62
7
  6
CONTINUOUS
 10
15.7406889187
 20
6.2157973647
 11
15.6599562547
 21
6.1691453792
  0
LINE
  5
665
100
AcDbEntity
  8
0
100
AcDbLine
 62
7
  6
CONTINUOUS
 10
15.6126302103
 20
6.1417976636
 11
15.5318975463
 21
6.0951456782
  0
LINE
  5
666
100
AcDbEntity
  8
0
100
AcDbLine
 62
7
  6
CONTINUOUS
 10
15.4845715019
 20
6.0677979626
 11
15.4038388379
 21
6.0211459772
  0
LINE
  5
667
100
AcDbEntity
  8
0
100
AcDbLine
 62
7
  6
CONTINUOUS
 10
15.3565127935
 20
5.9937982616
 11
15.2757801295
 21
5.9471462762
  0
LINE
  5
668
100
AcDbEntity
  8
0
100
AcDbLine
 62
7
  6
CONTINUOUS
 10
15.2284540851
 20
5.9197985606
 11
15.1477214211
 21
5.8731465751
  0
LINE
  5
669
100
AcDbEntity
  8
0
100
AcDbLine
 62
7
  6
CONTINUOUS
 10
15.1003953767
 20
5.8457988596
 11
15.0196627127
 21
5.7991468741
  0
LINE
  5
66A
100
AcDbEntity
  8
0
100
AcDbLine
 62
7
  6
CONTINUOUS
 10
15.0196627127
 20
5.7830599826
 11
15.1143148015
 21
5.8377554138
  0
LINE
  5
66B
100
AcDbEntity
  8
0
100
AcDbLine
 62
7
  6
CONTINUOUS
 10
15.1477214211
 20
5.8570596836
 11
15.24237351
 21
5.9117551148
  0
LINE
  5
66C
100
AcDbEntity
  8
0
100
AcDbLine
 62
7
  6
CONTINUOUS
 10
15.2757801295
 20
5.9310593846
 11
15.3704322184
 21
5.9857548158
  0
LINE
  5
66D
100
AcDbEntity
  8
0
100
AcDbLine
 62
7
  6
CONTINUOUS
 10
15.4038388379
 20
6.0050590857
 11
15.4984909268
 21
6.0597545169
  0
LINE
  5
66E
100
AcDbEntity
  8
0
100
AcDbLine
 62
7
  6
CONTINUOUS
 10
15.5318975463
 20
6.0790587867
 11
15.6265496352
 21
6.1337542179
  0
LINE
  5
66F
100
AcDbEntity
  8
0
100
AcDbLine
 62
7
  6
CONTINUOUS
 10
15.6599562547
 20
6.1530584877
 11
15.7546083436
 21
6.2077539189
  0
LINE
  5
670
100
AcDbEntity
  8
0
100
AcDbLine
 62
7
  6
CONTINUOUS
 10
15.7546083436
 20
6.1691962375
 11
15.6599562547
 21
6.1145008063
  0
LINE
  5
671
100
AcDbEntity
  8
0
100
AcDbLine
 62
7
  6
CONTINUOUS
 10
15.6265496352
 20
6.0951965364
 11
15.5318975463
 21
6.0405011053
  0
LINE
  5
672
100
AcDbEntity
  8
0
100
AcDbLine
 62
7
  6
CONTINUOUS
 10
15.4984909268
 20
6.0211968354
 11
15.4038388379
 21
5.9665014042
  0
LINE
  5
673
100
AcDbEntity
  8
0
100
AcDbLine
 62
7
  6
CONTINUOUS
 10
15.3704322184
 20
5.9471971344
 11
15.2757801295
 21
5.8925017032
  0
LINE
  5
674
100
AcDbEntity
  8
0
100
AcDbLine
 62
7
  6
CONTINUOUS
 10
15.24237351
 20
5.8731974334
 11
15.1477214211
 21
5.8185020022
  0
LINE
  5
675
100
AcDbEntity
  8
0
100
AcDbLine
 62
7
  6
CONTINUOUS
 10
15.1143148015
 20
5.7991977324
 11
15.0196627127
 21
5.7445023012
  0
LINE
  5
676
100
AcDbEntity
  8
0
100
AcDbLine
 62
7
  6
CONTINUOUS
 10
15.7546083436
 20
6.9467761461
 11
15.7406889187
 21
6.9548195919
  0
LINE
  5
677
100
AcDbEntity
  8
0
100
AcDbLine
 62
7
  6
CONTINUOUS
 10
15.7406889187
 20
7.1026240373
 11
15.7546083436
 21
7.0945805916
  0
LINE
  5
678
100
AcDbEntity
  8
0
100
AcDbLine
 62
7
  6
CONTINUOUS
 10
15.5764397058
 20
7.2968600825
 11
15.5680880509
 21
7.30168615
  0
LINE
  5
679
100
AcDbEntity
  8
0
100
AcDbLine
 62
7
  6
CONTINUOUS
 10
15.5959269005
 20
6.5229922973
 11
15.5541686261
 21
6.5652988999
  0
LINE
  5
67A
100
AcDbEntity
  8
0
100
AcDbLine
 62
7
  6
CONTINUOUS
 10
15.5573519151
 20
6.4709015543
 11
15.5356332502
 21
6.4958550473
  0
LINE
  5
67B
100
AcDbEntity
  8
0
100
AcDbLine
 62
7
  6
CONTINUOUS
 10
15.5644308376
 20
6.5411445878
 11
15.5384205946
 21
6.5743750452
  0
LINE
  5
67C
100
AcDbEntity
  8
0
100
AcDbLine
 62
7
  6
CONTINUOUS
 10
15.0433118856
 20
7.1077869906
 11
15.0669887571
 21
7.0121221025
  0
LINE
  5
67D
100
AcDbEntity
  8
0
100
AcDbLine
 62
7
  6
CONTINUOUS
 10
15.2004124198
 20
7.6547719323
 11
15.2004124198
 21
7.6905396771
  0
LINE
  5
67E
100
AcDbEntity
  8
0
100
AcDbLine
 62
7
  6
CONTINUOUS
 10
15.2284540851
 20
7.0716753875
 11
15.2284540851
 21
6.8306898787
  0
LINE
  5
67F
100
AcDbEntity
  8
0
100
AcDbLine
 62
7
  6
CONTINUOUS
 10
15.2284540851
 20
6.6041762149
 11
15.2284540851
 21
6.5110163424
  0
LINE
  5
680
100
AcDbEntity
  8
0
100
AcDbLine
 62
7
  6
CONTINUOUS
 10
15.2284540851
 20
6.4563717694
 11
15.2284540851
 21
6.3632118969
  0
LINE
  5
681
100
AcDbEntity
  8
0
100
AcDbLine
 62
7
  6
CONTINUOUS
 10
15.2284540851
 20
6.308567324
 11
15.2284540851
 21
6.2154074515
  0
LINE
  5
682
100
AcDbEntity
  8
0
100
AcDbLine
 62
7
  6
CONTINUOUS
 10
15.2284540851
 20
6.1607628785
 11
15.2284540851
 21
6.067603006
  0
LINE
  5
683
100
AcDbEntity
  8
0
100
AcDbLine
 62
7
  6
CONTINUOUS
 10
15.2284540851
 20
6.0129584331
 11
15.2284540851
 21
5.9197985606
  0
LINE
  5
684
100
AcDbEntity
  8
0
100
AcDbLine
 62
7
  6
CONTINUOUS
 10
15.2284540851
 20
5.8651539876
 11
15.2284540851
 21
5.7719941151
  0
LINE
  5
685
100
AcDbEntity
  8
0
100
AcDbLine
 62
7
  6
CONTINUOUS
 10
15.2284540851
 20
5.7173495422
 11
15.2284540851
 21
5.6241896697
  0
LINE
  5
686
100
AcDbEntity
  8
0
100
AcDbLine
 62
7
  6
CONTINUOUS
 10
15.2284540851
 20
5.5695450967
 11
15.2284540851
 21
5.4763852242
  0
LINE
  5
687
100
AcDbEntity
  8
0
100
AcDbLine
 62
7
  6
CONTINUOUS
 10
15.2284540851
 20
5.4217406513
 11
15.2284540851
 21
5.3285807788
  0
LINE
  5
688
100
AcDbEntity
  8
0
100
AcDbLine
 62
7
  6
CONTINUOUS
 10
15.2284540851
 20
5.2739362058
 11
15.2284540851
 21
5.1807763333
  0
LINE
  5
689
100
AcDbEntity
  8
0
100
AcDbLine
 62
7
  6
CONTINUOUS
 10
15.2284540851
 20
5.1261317604
 11
15.2284540851
 21
5.0329718879
  0
LINE
  5
68A
100
AcDbEntity
  8
0
100
AcDbLine
 62
7
  6
CONTINUOUS
 10
15.2284540851
 20
4.9783273149
 11
15.2284540851
 21
4.8851674424
  0
LINE
  5
68B
100
AcDbEntity
  8
0
100
AcDbLine
 62
7
  6
CONTINUOUS
 10
15.2284540851
 20
4.8305228695
 11
15.2284540851
 21
4.737362997
  0
LINE
  5
68C
100
AcDbEntity
  8
0
100
AcDbLine
 62
7
  6
CONTINUOUS
 10
15.2284540851
 20
4.682718424
 11
15.2284540851
 21
4.5895585515
  0
LINE
  5
68D
100
AcDbEntity
  8
0
100
AcDbLine
 62
7
  6
CONTINUOUS
 10
15.2284540851
 20
4.5349139786
 11
15.2284540851
 21
4.4417541061
  0
LINE
  5
68E
100
AcDbEntity
  8
0
100
AcDbLine
 62
7
  6
CONTINUOUS
 10
15.2284540851
 20
4.3871095332
 11
15.2284540851
 21
4.2939496607
  0
LINE
  5
68F
100
AcDbEntity
  8
0
100
AcDbLine
 62
7
  6
CONTINUOUS
 10
15.2284540851
 20
4.2393050877
 11
15.2284540851
 21
4.1461452152
  0
LINE
  5
690
100
AcDbEntity
  8
0
100
AcDbLine
 62
7
  6
CONTINUOUS
 10
15.24237351
 20
4.1381017694
 11
15.24237351
 21
4.2473485335
  0
LINE
  5
691
100
AcDbEntity
  8
0
100
AcDbLine
 62
7
  6
CONTINUOUS
 10
15.24237351
 20
4.2859062149
 11
15.24237351
 21
4.3951529789
  0
LINE
  5
692
100
AcDbEntity
  8
0
100
AcDbLine
 62
7
  6
CONTINUOUS
 10
15.24237351
 20
4.4337106603
 11
15.24237351
 21
4.5429574244
  0
LINE
  5
693
100
AcDbEntity
  8
0
100
AcDbLine
 62
7
  6
CONTINUOUS
 10
15.24237351
 20
4.5815151058
 11
15.24237351
 21
4.6907618698
  0
LINE
  5
694
100
AcDbEntity
  8
0
100
AcDbLine
 62
7
  6
CONTINUOUS
 10
15.24237351
 20
4.7293195512
 11
15.24237351
 21
4.8385663153
  0
LINE
  5
695
100
AcDbEntity
  8
0
100
AcDbLine
 62
7
  6
CONTINUOUS
 10
15.24237351
 20
4.8771239967
 11
15.24237351
 21
4.9863707607
  0
LINE
  5
696
100
AcDbEntity
  8
0
100
AcDbLine
 62
7
  6
CONTINUOUS
 10
15.24237351
 20
5.0249284421
 11
15.24237351
 21
5.1341752062
  0
LINE
  5
697
100
AcDbEntity
  8
0
100
AcDbLine
 62
7
  6
CONTINUOUS
 10
15.24237351
 20
5.1727328876
 11
15.24237351
 21
5.2819796516
  0
LINE
  5
698
100
AcDbEntity
  8
0
100
AcDbLine
 62
7
  6
CONTINUOUS
 10
15.24237351
 20
5.320537333
 11
15.24237351
 21
5.429784097
  0
LINE
  5
699
100
AcDbEntity
  8
0
100
AcDbLine
 62
7
  6
CONTINUOUS
 10
15.24237351
 20
5.4683417785
 11
15.24237351
 21
5.5775885425
  0
LINE
  5
69A
100
AcDbEntity
  8
0
100
AcDbLine
 62
7
  6
CONTINUOUS
 10
15.24237351
 20
5.6161462239
 11
15.24237351
 21
5.7253929879
  0
LINE
  5
69B
100
AcDbEntity
  8
0
100
AcDbLine
 62
7
  6
CONTINUOUS
 10
15.24237351
 20
5.7639506694
 11
15.24237351
 21
5.8731974334
  0
LINE
  5
69C
100
AcDbEntity
  8
0
100
AcDbLine
 62
7
  6
CONTINUOUS
 10
15.24237351
 20
5.9117551148
 11
15.24237351
 21
6.0210018788
  0
LINE
  5
69D
100
AcDbEntity
  8
0
100
AcDbLine
 62
7
  6
CONTINUOUS
 10
15.24237351
 20
6.0595595603
 11
15.24237351
 21
6.1688063243
  0
LINE
  5
69E
100
AcDbEntity
  8
0
100
AcDbLine
 62
7
  6
CONTINUOUS
 10
15.24237351
 20
6.2073640057
 11
15.24237351
 21
6.3166107697
  0
LINE
  5
69F
100
AcDbEntity
  8
0
100
AcDbLine
 62
7
  6
CONTINUOUS
 10
15.24237351
 20
6.3551684512
 11
15.24237351
 21
6.4644152152
  0
LINE
  5
6A0
100
AcDbEntity
  8
0
100
AcDbLine
 62
7
  6
CONTINUOUS
 10
15.24237351
 20
6.5029728966
 11
15.24237351
 21
6.6122196606
  0
LINE
  5
6A1
100
AcDbEntity
  8
0
100
AcDbLine
 62
7
  6
CONTINUOUS
 10
15.2590768197
 20
6.8483854593
 11
15.2590768197
 21
7.0893709682
  0
LINE
  5
6A2
100
AcDbEntity
  8
0
100
AcDbLine
 62
7
  6
CONTINUOUS
 10
15.2676312903
 20
7.4462138825
 11
15.2676312903
 21
7.5940183279
  0
LINE
  5
6A3
100
AcDbEntity
  8
0
100
AcDbLine
 62
7
  6
CONTINUOUS
 10
15.2757801295
 20
6.6315239305
 11
15.2757801295
 21
6.5222771664
  0
LINE
  5
6A4
100
AcDbEntity
  8
0
100
AcDbLine
 62
7
  6
CONTINUOUS
 10
15.2757801295
 20
6.483719485
 11
15.2757801295
 21
6.374472721
  0
LINE
  5
6A5
100
AcDbEntity
  8
0
100
AcDbLine
 62
7
  6
CONTINUOUS
 10
15.2757801295
 20
6.3359150396
 11
15.2757801295
 21
6.2266682755
  0
LINE
  5
6A6
100
AcDbEntity
  8
0
100
AcDbLine
 62
7
  6
CONTINUOUS
 10
15.2757801295
 20
6.1881105941
 11
15.2757801295
 21
6.0788638301
  0
LINE
  5
6A7
100
AcDbEntity
  8
0
100
AcDbLine
 62
7
  6
CONTINUOUS
 10
15.2757801295
 20
6.0403061487
 11
15.2757801295
 21
5.9310593846
  0
LINE
  5
6A8
100
AcDbEntity
  8
0
100
AcDbLine
 62
7
  6
CONTINUOUS
 10
15.2757801295
 20
5.8925017032
 11
15.2757801295
 21
5.7832549392
  0
LINE
  5
6A9
100
AcDbEntity
  8
0
100
AcDbLine
 62
7
  6
CONTINUOUS
 10
15.2757801295
 20
5.7446972578
 11
15.2757801295
 21
5.6354504937
  0
LINE
  5
6AA
100
AcDbEntity
  8
0
100
AcDbLine
 62
7
  6
CONTINUOUS
 10
15.2757801295
 20
5.5968928123
 11
15.2757801295
 21
5.4876460483
  0
LINE
  5
6AB
100
AcDbEntity
  8
0
100
AcDbLine
 62
7
  6
CONTINUOUS
 10
15.2757801295
 20
5.4490883669
 11
15.2757801295
 21
5.3398416029
  0
LINE
  5
6AC
100
AcDbEntity
  8
0
100
AcDbLine
 62
7
  6
CONTINUOUS
 10
15.2757801295
 20
5.3012839214
 11
15.2757801295
 21
5.1920371574
  0
LINE
  5
6AD
100
AcDbEntity
  8
0
100
AcDbLine
 62
7
  6
CONTINUOUS
 10
15.2757801295
 20
5.153479476
 11
15.2757801295
 21
5.044232712
  0
LINE
  5
6AE
100
AcDbEntity
  8
0
100
AcDbLine
 62
7
  6
CONTINUOUS
 10
15.2757801295
 20
5.0056750305
 11
15.2757801295
 21
4.8964282665
  0
LINE
  5
6AF
100
AcDbEntity
  8
0
100
AcDbLine
 62
7
  6
CONTINUOUS
 10
15.2757801295
 20
4.8578705851
 11
15.2757801295
 21
4.7486238211
  0
LINE
  5
6B0
100
AcDbEntity
  8
0
100
AcDbLine
 62
7
  6
CONTINUOUS
 10
15.2757801295
 20
4.7100661396
 11
15.2757801295
 21
4.6008193756
  0
LINE
  5
6B1
100
AcDbEntity
  8
0
100
AcDbLine
 62
7
  6
CONTINUOUS
 10
15.2757801295
 20
4.5622616942
 11
15.2757801295
 21
4.4530149302
  0
LINE
  5
6B2
100
AcDbEntity
  8
0
100
AcDbLine
 62
7
  6
CONTINUOUS
 10
15.2757801295
 20
4.4144572487
 11
15.2757801295
 21
4.3052104847
  0
LINE
  5
6B3
100
AcDbEntity
  8
0
100
AcDbLine
 62
7
  6
CONTINUOUS
 10
15.2757801295
 20
4.2666528033
 11
15.2757801295
 21
4.1574060393
  0
LINE
  5
6B4
100
AcDbEntity
  8
0
100
AcDbLine
 62
7
  6
CONTINUOUS
 10
15.2896995544
 20
3.9764108914
 11
15.2896995544
 21
3.6808020005
  0
LINE
  5
6B5
100
AcDbEntity
  8
0
100
AcDbLine
 62
7
  6
CONTINUOUS
 10
15.2978533646
 20
7.6796795397
 11
15.2978533646
 21
7.6376520248
  0
LINE
  5
6B6
100
AcDbEntity
  8
0
100
AcDbLine
 62
7
  6
CONTINUOUS
 10
15.3077948066
 20
7.1175230284
 11
15.3077948066
 21
6.9730164868
  0
LINE
  5
6B7
100
AcDbEntity
  8
0
100
AcDbLine
 62
7
  6
CONTINUOUS
 10
15.3372234434
 20
7.6376520248
 11
15.3372234434
 21
7.6796795397
  0
LINE
  5
6B8
100
AcDbEntity
  8
0
100
AcDbLine
 62
7
  6
CONTINUOUS
 10
15.3565127935
 20
6.6781759159
 11
15.3565127935
 21
6.5850160434
  0
LINE
  5
6B9
100
AcDbEntity
  8
0
100
AcDbLine
 62
7
  6
CONTINUOUS
 10
15.3565127935
 20
6.5303714704
 11
15.3565127935
 21
6.4372115979
  0
LINE
  5
6BA
100
AcDbEntity
  8
0
100
AcDbLine
 62
7
  6
CONTINUOUS
 10
15.3565127935
 20
6.382567025
 11
15.3565127935
 21
6.2894071525
  0
LINE
  5
6BB
100
AcDbEntity
  8
0
100
AcDbLine
 62
7
  6
CONTINUOUS
 10
15.3565127935
 20
6.2347625795
 11
15.3565127935
 21
6.141602707
  0
LINE
  5
6BC
100
AcDbEntity
  8
0
100
AcDbLine
 62
7
  6
CONTINUOUS
 10
15.3565127935
 20
6.0869581341
 11
15.3565127935
 21
5.9937982616
  0
LINE
  5
6BD
100
AcDbEntity
  8
0
100
AcDbLine
 62
7
  6
CONTINUOUS
 10
15.3565127935
 20
5.9391536886
 11
15.3565127935
 21
5.8459938161
  0
LINE
  5
6BE
100
AcDbEntity
  8
0
100
AcDbLine
 62
7
  6
CONTINUOUS
 10
15.3565127935
 20
5.7913492432
 11
15.3565127935
 21
5.6981893707
  0
LINE
  5
6BF
100
AcDbEntity
  8
0
100
AcDbLine
 62
7
  6
CONTINUOUS
 10
15.3565127935
 20
5.6435447978
 11
15.3565127935
 21
5.5503849253
  0
LINE
  5
6C0
100
AcDbEntity
  8
0
100
AcDbLine
 62
7
  6
CONTINUOUS
 10
15.3565127935
 20
5.4957403523
 11
15.3565127935
 21
5.4025804798
  0
LINE
  5
6C1
100
AcDbEntity
  8
0
100
AcDbLine
 62
7
  6
CONTINUOUS
 10
15.3565127935
 20
5.3479359069
 11
15.3565127935
 21
5.2547760344
  0
LINE
  5
6C2
100
AcDbEntity
  8
0
100
AcDbLine
 62
7
  6
CONTINUOUS
 10
15.3565127935
 20
5.2001314614
 11
15.3565127935
 21
5.1069715889
  0
LINE
  5
6C3
100
AcDbEntity
  8
0
100
AcDbLine
 62
7
  6
CONTINUOUS
 10
15.3565127935
 20
5.052327016
 11
15.3565127935
 21
4.9591671435
  0
LINE
  5
6C4
100
AcDbEntity
  8
0
100
AcDbLine
 62
7
  6
CONTINUOUS
 10
15.3565127935
 20
4.9045225705
 11
15.3565127935
 21
4.811362698
  0
LINE
  5
6C5
100
AcDbEntity
  8
0
100
AcDbLine
 62
7
  6
CONTINUOUS
 10
15.3565127935
 20
4.7567181251
 11
15.3565127935
 21
4.6635582526
  0
LINE
  5
6C6
100
AcDbEntity
  8
0
100
AcDbLine
 62
7
  6
CONTINUOUS
 10
15.3565127935
 20
4.6089136796
 11
15.3565127935
 21
4.5157538071
  0
LINE
  5
6C7
100
AcDbEntity
  8
0
100
AcDbLine
 62
7
  6
CONTINUOUS
 10
15.3565127935
 20
4.4611092342
 11
15.3565127935
 21
4.3679493617
  0
LINE
  5
6C8
100
AcDbEntity
  8
0
100
AcDbLine
 62
7
  6
CONTINUOUS
 10
15.3565127935
 20
4.3133047887
 11
15.3565127935
 21
4.2201449162
  0
LINE
  5
6C9
100
AcDbEntity
  8
0
100
AcDbLine
 62
7
  6
CONTINUOUS
 10
15.3704322184
 20
4.2121014705
 11
15.3704322184
 21
4.3213482345
  0
LINE
  5
6CA
100
AcDbEntity
  8
0
100
AcDbLine
 62
7
  6
CONTINUOUS
 10
15.3704322184
 20
4.3599059159
 11
15.3704322184
 21
4.4691526799
  0
LINE
  5
6CB
100
AcDbEntity
  8
0
100
AcDbLine
 62
7
  6
CONTINUOUS
 10
15.3704322184
 20
4.5077103614
 11
15.3704322184
 21
4.6169571254
  0
LINE
  5
6CC
100
AcDbEntity
  8
0
100
AcDbLine
 62
7
  6
CONTINUOUS
 10
15.3704322184
 20
4.6555148068
 11
15.3704322184
 21
4.7647615708
  0
LINE
  5
6CD
100
AcDbEntity
  8
0
100
AcDbLine
 62
7
  6
CONTINUOUS
 10
15.3704322184
 20
4.8033192523
 11
15.3704322184
 21
4.9125660163
  0
LINE
  5
6CE
100
AcDbEntity
  8
0
100
AcDbLine
 62
7
  6
CONTINUOUS
 10
15.3704322184
 20
4.9511236977
 11
15.3704322184
 21
5.0603704617
  0
LINE
  5
6CF
100
AcDbEntity
  8
0
100
AcDbLine
 62
7
  6
CONTINUOUS
 10
15.3704322184
 20
5.0989281431
 11
15.3704322184
 21
5.2081749072
  0
LINE
  5
6D0
100
AcDbEntity
  8
0
100
AcDbLine
 62
7
  6
CONTINUOUS
 10
15.3704322184
 20
5.2467325886
 11
15.3704322184
 21
5.3559793526
  0
LINE
  5
6D1
100
AcDbEntity
  8
0
100
AcDbLine
 62
7
  6
CONTINUOUS
 10
15.3704322184
 20
5.394537034
 11
15.3704322184
 21
5.5037837981
  0
LINE
  5
6D2
100
AcDbEntity
  8
0
100
AcDbLine
 62
7
  6
CONTINUOUS
 10
15.3704322184
 20
5.5423414795
 11
15.3704322184
 21
5.6515882435
  0
LINE
  5
6D3
100
AcDbEntity
  8
0
100
AcDbLine
 62
7
  6
CONTINUOUS
 10
15.3704322184
 20
5.6901459249
 11
15.3704322184
 21
5.799392689
  0
LINE
  5
6D4
100
AcDbEntity
  8
0
100
AcDbLine
 62
7
  6
CONTINUOUS
 10
15.3704322184
 20
5.8379503704
 11
15.3704322184
 21
5.9471971344
  0
LINE
  5
6D5
100
AcDbEntity
  8
0
100
AcDbLine
 62
7
  6
CONTINUOUS
 10
15.3704322184
 20
5.9857548158
 11
15.3704322184
 21
6.0950015799
  0
LINE
  5
6D6
100
AcDbEntity
  8
0
100
AcDbLine
 62
7
  6
CONTINUOUS
 10
15.3704322184
 20
6.1335592613
 11
15.3704322184
 21
6.2428060253
  0
LINE
  5
6D7
100
AcDbEntity
  8
0
100
AcDbLine
 62
7
  6
CONTINUOUS
 10
15.3704322184
 20
6.2813637067
 11
15.3704322184
 21
6.3906104708
  0
LINE
  5
6D8
100
AcDbEntity
  8
0
100
AcDbLine
 62
7
  6
CONTINUOUS
 10
15.3704322184
 20
6.4291681522
 11
15.3704322184
 21
6.5384149162
  0
LINE
  5
6D9
100
AcDbEntity
  8
0
100
AcDbLine
 62
7
  6
CONTINUOUS
 10
15.3704322184
 20
6.5769725976
 11
15.3704322184
 21
6.6862193616
  0
LINE
  5
6DA
100
AcDbEntity
  8
0
100
AcDbLine
 62
7
  6
CONTINUOUS
 10
15.3913113556
 20
7.165783703
 11
15.3913113556
 21
6.9247981941
  0
LINE
  5
6DB
100
AcDbEntity
  8
0
100
AcDbLine
 62
7
  6
CONTINUOUS
 10
15.4038388379
 20
6.2621102951
 11
15.4038388379
 21
6.1528635311
  0
LINE
  5
6DC
100
AcDbEntity
  8
0
100
AcDbLine
 62
7
  6
CONTINUOUS
 10
15.4038388379
 20
6.1143058497
 11
15.4038388379
 21
6.0050590857
  0
LINE
  5
6DD
100
AcDbEntity
  8
0
100
AcDbLine
 62
7
  6
CONTINUOUS
 10
15.4038388379
 20
5.9665014042
 11
15.4038388379
 21
5.8572546402
  0
LINE
  5
6DE
100
AcDbEntity
  8
0
100
AcDbLine
 62
7
  6
CONTINUOUS
 10
15.4038388379
 20
5.8186969588
 11
15.4038388379
 21
5.7094501948
  0
LINE
  5
6DF
100
AcDbEntity
  8
0
100
AcDbLine
 62
7
  6
CONTINUOUS
 10
15.4038388379
 20
5.6708925133
 11
15.4038388379
 21
5.5616457493
  0
LINE
  5
6E0
100
AcDbEntity
  8
0
100
AcDbLine
 62
7
  6
CONTINUOUS
 10
15.4038388379
 20
5.5230880679
 11
15.4038388379
 21
5.4138413039
  0
LINE
  5
6E1
100
AcDbEntity
  8
0
100
AcDbLine
 62
7
  6
CONTINUOUS
 10
15.4038388379
 20
5.3752836225
 11
15.4038388379
 21
5.2660368584
  0
LINE
  5
6E2
100
AcDbEntity
  8
0
100
AcDbLine
 62
7
  6
CONTINUOUS
 10
15.4038388379
 20
5.227479177
 11
15.4038388379
 21
5.118232413
  0
LINE
  5
6E3
100
AcDbEntity
  8
0
100
AcDbLine
 62
7
  6
CONTINUOUS
 10
15.4038388379
 20
5.0796747316
 11
15.4038388379
 21
4.9704279675
  0
LINE
  5
6E4
100
AcDbEntity
  8
0
100
AcDbLine
 62
7
  6
CONTINUOUS
 10
15.4038388379
 20
4.9318702861
 11
15.4038388379
 21
4.8226235221
  0
LINE
  5
6E5
100
AcDbEntity
  8
0
100
AcDbLine
 62
7
  6
CONTINUOUS
 10
15.4038388379
 20
4.7840658407
 11
15.4038388379
 21
4.6748190766
  0
LINE
  5
6E6
100
AcDbEntity
  8
0
100
AcDbLine
 62
7
  6
CONTINUOUS
 10
15.4038388379
 20
4.6362613952
 11
15.4038388379
 21
4.5270146312
  0
LINE
  5
6E7
100
AcDbEntity
  8
0
100
AcDbLine
 62
7
  6
CONTINUOUS
 10
15.4038388379
 20
4.4884569498
 11
15.4038388379
 21
4.3792101857
  0
LINE
  5
6E8
100
AcDbEntity
  8
0
100
AcDbLine
 62
7
  6
CONTINUOUS
 10
15.4038388379
 20
4.3406525043
 11
15.4038388379
 21
4.2314057403
  0
LINE
  5
6E9
100
AcDbEntity
  8
0
100
AcDbLine
 62
7
  6
CONTINUOUS
 10
15.5735604203
 20
6.5988864663
 11
15.5699166576
 21
6.5925752853
  0
LINE
  5
6EA
100
AcDbEntity
  8
0
100
AcDbLine
 62
7
  6
CONTINUOUS
 10
15.5541686261
 20
6.5652988999
 11
15.5504992852
 21
6.5589434163
  0
LINE
  5
6EB
100
AcDbEntity
  8
0
100
AcDbLine
 62
7
  6
CONTINUOUS
 10
15.6108174171
 20
6.6214884849
 11
15.5959269005
 21
6.5956973586
  0
LINE
  5
6EC
100
AcDbEntity
  8
0
100
AcDbLine
 62
7
  6
CONTINUOUS
 10
15.5644308376
 20
6.5411445878
 11
15.549540321
 21
6.5153534615
  0
LINE
  5
6ED
100
AcDbEntity
  8
0
100
AcDbLine
 62
7
  6
CONTINUOUS
 10
15.6014127206
 20
6.5744229948
 11
15.5856646891
 21
6.5471466094
  0
LINE
  5
6EE
100
AcDbEntity
  8
0
100
AcDbLine
 62
7
  6
CONTINUOUS
 10
15.581036384
 20
6.497201171
 11
15.5959269005
 21
6.5229922973
  0
LINE
  5
6EF
100
AcDbEntity
  8
0
100
AcDbLine
 62
7
  6
CONTINUOUS
 10
15.6274229635
 20
6.5775450681
 11
15.6423134801
 21
6.6033361943
  0
LINE
  5
6F0
100
AcDbEntity
  8
0
100
AcDbLine
 62
7
  6
CONTINUOUS
 10
13.3164594409
 20
4.6848205046
 11
13.3019981671
 21
4.6764639473
  0
LINE
  5
6F1
100
AcDbEntity
  8
0
100
AcDbLine
 62
7
  6
CONTINUOUS
 10
13.3688189283
 20
4.70765653
 11
13.4459516368
 21
4.7522282537
  0
LINE
  5
6F2
100
AcDbEntity
  8
0
100
AcDbLine
 62
7
  6
CONTINUOUS
 10
15.7406889187
 20
6.0679929192
 11
15.6599562547
 21
6.0213409338
  0
LINE
  5
6F3
100
AcDbEntity
  8
0
100
AcDbLine
 62
7
  6
CONTINUOUS
 10
15.6126302103
 20
5.9939932182
 11
15.5318975463
 21
5.9473412328
  0
LINE
  5
6F4
100
AcDbEntity
  8
0
100
AcDbLine
 62
7
  6
CONTINUOUS
 10
15.4845715019
 20
5.9199935172
 11
15.4038388379
 21
5.8733415317
  0
LINE
  5
6F5
100
AcDbEntity
  8
0
100
AcDbLine
 62
7
  6
CONTINUOUS
 10
15.3565127935
 20
5.8459938161
 11
15.2757801295
 21
5.7993418307
  0
LINE
  5
6F6
100
AcDbEntity
  8
0
100
AcDbLine
 62
7
  6
CONTINUOUS
 10
15.2284540851
 20
5.7719941151
 11
15.1477214211
 21
5.7253421297
  0
LINE
  5
6F7
100
AcDbEntity
  8
0
100
AcDbLine
 62
7
  6
CONTINUOUS
 10
15.1003953767
 20
5.6979944141
 11
15.0196627127
 21
5.6513424287
  0
LINE
  5
6F8
100
AcDbEntity
  8
0
100
AcDbLine
 62
7
  6
CONTINUOUS
 10
15.0196627127
 20
5.6352555372
 11
15.1143148015
 21
5.6899509683
  0
LINE
  5
6F9
100
AcDbEntity
  8
0
100
AcDbLine
 62
7
  6
CONTINUOUS
 10
15.1477214211
 20
5.7092552382
 11
15.24237351
 21
5.7639506694
  0
LINE
  5
6FA
100
AcDbEntity
  8
0
100
AcDbLine
 62
7
  6
CONTINUOUS
 10
15.2757801295
 20
5.7832549392
 11
15.3704322184
 21
5.8379503704
  0
LINE
  5
6FB
100
AcDbEntity
  8
0
100
AcDbLine
 62
7
  6
CONTINUOUS
 10
15.4038388379
 20
5.8572546402
 11
15.4984909268
 21
5.9119500714
  0
LINE
  5
6FC
100
AcDbEntity
  8
0
100
AcDbLine
 62
7
  6
CONTINUOUS
 10
15.5318975463
 20
5.9312543412
 11
15.6265496352
 21
5.9859497724
  0
LINE
  5
6FD
100
AcDbEntity
  8
0
100
AcDbLine
 62
7
  6
CONTINUOUS
 10
15.6599562547
 20
6.0052540423
 11
15.7546083436
 21
6.0599494734
  0
LINE
  5
6FE
100
AcDbEntity
  8
0
100
AcDbLine
 62
7
  6
CONTINUOUS
 10
15.7546083436
 20
6.021391792
 11
15.6599562547
 21
5.9666963608
  0
LINE
  5
6FF
100
AcDbEntity
  8
0
100
AcDbLine
 62
7
  6
CONTINUOUS
 10
15.6265496352
 20
5.947392091
 11
15.5318975463
 21
5.8926966598
  0
LINE
  5
700
100
AcDbEntity
  8
0
100
AcDbLine
 62
7
  6
CONTINUOUS
 10
15.4984909268
 20
5.87339239
 11
15.4038388379
 21
5.8186969588
  0
LINE
  5
701
100
AcDbEntity
  8
0
100
AcDbLine
 62
7
  6
CONTINUOUS
 10
15.3704322184
 20
5.799392689
 11
15.2757801295
 21
5.7446972578
  0
LINE
  5
702
100
AcDbEntity
  8
0
100
AcDbLine
 62
7
  6
CONTINUOUS
 10
15.24237351
 20
5.7253929879
 11
15.1477214211
 21
5.6706975568
  0
LINE
  5
703
100
AcDbEntity
  8
0
100
AcDbLine
 62
7
  6
CONTINUOUS
 10
15.1143148015
 20
5.6513932869
 11
15.0196627127
 21
5.5966978557
  0
LINE
  5
704
100
AcDbEntity
  8
0
100
AcDbLine
 62
7
  6
CONTINUOUS
 10
15.7406889187
 20
5.9201884738
 11
15.6599562547
 21
5.8735364883
  0
LINE
  5
705
100
AcDbEntity
  8
0
100
AcDbLine
 62
7
  6
CONTINUOUS
 10
15.6126302103
 20
5.8461887727
 11
15.5318975463
 21
5.7995367873
  0
LINE
  5
706
100
AcDbEntity
  8
0
100
AcDbLine
 62
7
  6
CONTINUOUS
 10
15.4845715019
 20
5.7721890717
 11
15.4038388379
 21
5.7255370863
  0
LINE
  5
707
100
AcDbEntity
  8
0
100
AcDbLine
 62
7
  6
CONTINUOUS
 10
15.3565127935
 20
5.6981893707
 11
15.2757801295
 21
5.6515373853
  0
LINE
  5
708
100
AcDbEntity
  8
0
100
AcDbLine
 62
7
  6
CONTINUOUS
 10
15.2284540851
 20
5.6241896697
 11
15.1477214211
 21
5.5775376843
  0
LINE
  5
709
100
AcDbEntity
  8
0
100
AcDbLine
 62
7
  6
CONTINUOUS
 10
15.1003953767
 20
5.5501899687
 11
15.0196627127
 21
5.5035379832
  0
LINE
  5
70A
100
AcDbEntity
  8
0
100
AcDbLine
 62
7
  6
CONTINUOUS
 10
15.0196627127
 20
5.4874510917
 11
15.1143148015
 21
5.5421465229
  0
LINE
  5
70B
100
AcDbEntity
  8
0
100
AcDbLine
 62
7
  6
CONTINUOUS
 10
15.1477214211
 20
5.5614507927
 11
15.24237351
 21
5.6161462239
  0
LINE
  5
70C
100
AcDbEntity
  8
0
100
AcDbLine
 62
7
  6
CONTINUOUS
 10
15.2757801295
 20
5.6354504937
 11
15.3704322184
 21
5.6901459249
  0
LINE
  5
70D
100
AcDbEntity
  8
0
100
AcDbLine
 62
7
  6
CONTINUOUS
 10
15.4038388379
 20
5.7094501948
 11
15.4984909268
 21
5.764145626
  0
LINE
  5
70E
100
AcDbEntity
  8
0
100
AcDbLine
 62
7
  6
CONTINUOUS
 10
15.5318975463
 20
5.7834498958
 11
15.6265496352
 21
5.838145327
  0
LINE
  5
70F
100
AcDbEntity
  8
0
100
AcDbLine
 62
7
  6
CONTINUOUS
 10
15.6599562547
 20
5.8574495968
 11
15.7546083436
 21
5.912145028
  0
LINE
  5
710
100
AcDbEntity
  8
0
100
AcDbLine
 62
7
  6
CONTINUOUS
 10
13.7098448366
 20
4.7195750871
 11
13.716804549
 21
4.72359681
  0
LINE
  5
711
100
AcDbEntity
  8
0
100
AcDbLine
 62
7
  6
CONTINUOUS
 10
15.7546083436
 20
5.8735873466
 11
15.6599562547
 21
5.8188919154
  0
LINE
  5
712
100
AcDbEntity
  8
0
100
AcDbLine
 62
7
  6
CONTINUOUS
 10
15.6265496352
 20
5.7995876456
 11
15.5318975463
 21
5.7448922144
  0
LINE
  5
713
100
AcDbEntity
  8
0
100
AcDbLine
 62
7
  6
CONTINUOUS
 10
15.4984909268
 20
5.7255879445
 11
15.4038388379
 21
5.6708925133
  0
LINE
  5
714
100
AcDbEntity
  8
0
100
AcDbLine
 62
7
  6
CONTINUOUS
 10
15.3704322184
 20
5.6515882435
 11
15.2757801295
 21
5.5968928123
  0
LINE
  5
715
100
AcDbEntity
  8
0
100
AcDbLine
 62
7
  6
CONTINUOUS
 10
15.24237351
 20
5.5775885425
 11
15.1477214211
 21
5.5228931113
  0
LINE
  5
716
100
AcDbEntity
  8
0
100
AcDbLine
 62
7
  6
CONTINUOUS
 10
15.1143148015
 20
5.5035888415
 11
15.0196627127
 21
5.4488934103
  0
LINE
  5
717
100
AcDbEntity
  8
0
100
AcDbLine
 62
7
  6
CONTINUOUS
 10
13.3019981671
 20
4.6764639473
 11
13.3177876826
 21
4.6825219424
  0
LINE
  5
718
100
AcDbEntity
  8
0
100
AcDbLine
 62
7
  6
CONTINUOUS
 10
15.7406889187
 20
7.2504284828
 11
15.7546083436
 21
7.242385037
  0
LINE
  5
719
100
AcDbEntity
  8
0
100
AcDbLine
 62
7
  6
CONTINUOUS
 10
15.4346643883
 20
7.5715744378
 11
15.5124103516
 21
7.5266483401
  0
LINE
  5
71A
100
AcDbEntity
  8
0
100
AcDbLine
 62
7
  6
CONTINUOUS
 10
15.7406889187
 20
7.3982329282
 11
15.7546083436
 21
7.3901894825
  0
LINE
  5
71B
100
AcDbEntity
  8
0
100
AcDbLine
 62
7
  6
CONTINUOUS
 10
15.4233260327
 20
6.9432981193
 11
15.4233260327
 21
7.1842836282
  0
LINE
  5
71C
100
AcDbEntity
  8
0
100
AcDbLine
 62
7
  6
CONTINUOUS
 10
15.4346643883
 20
7.5427352316
 11
15.4346643883
 21
7.6905396771
  0
LINE
  5
71D
100
AcDbEntity
  8
0
100
AcDbLine
 62
7
  6
CONTINUOUS
 10
15.4720440196
 20
7.2124356884
 11
15.4720440196
 21
7.0679291468
  0
LINE
  5
71E
100
AcDbEntity
  8
0
100
AcDbLine
 62
7
  6
CONTINUOUS
 10
15.4845715019
 20
6.3087622806
 11
15.4845715019
 21
6.2156024081
  0
LINE
  5
71F
100
AcDbEntity
  8
0
100
AcDbLine
 62
7
  6
CONTINUOUS
 10
15.4845715019
 20
6.1609578351
 11
15.4845715019
 21
6.0677979626
  0
LINE
  5
720
100
AcDbEntity
  8
0
100
AcDbLine
 62
7
  6
CONTINUOUS
 10
15.4845715019
 20
6.0131533897
 11
15.4845715019
 21
5.9199935172
  0
LINE
  5
721
100
AcDbEntity
  8
0
100
AcDbLine
 62
7
  6
CONTINUOUS
 10
15.4845715019
 20
5.8653489442
 11
15.4845715019
 21
5.7721890717
  0
LINE
  5
722
100
AcDbEntity
  8
0
100
AcDbLine
 62
7
  6
CONTINUOUS
 10
15.4845715019
 20
5.7175444988
 11
15.4845715019
 21
5.6243846263
  0
LINE
  5
723
100
AcDbEntity
  8
0
100
AcDbLine
 62
7
  6
CONTINUOUS
 10
15.4845715019
 20
5.5697400533
 11
15.4845715019
 21
5.4765801808
  0
LINE
  5
724
100
AcDbEntity
  8
0
100
AcDbLine
 62
7
  6
CONTINUOUS
 10
15.4845715019
 20
5.4219356079
 11
15.4845715019
 21
5.3287757354
  0
LINE
  5
725
100
AcDbEntity
  8
0
100
AcDbLine
 62
7
  6
CONTINUOUS
 10
15.4845715019
 20
5.2741311624
 11
15.4845715019
 21
5.1809712899
  0
LINE
  5
726
100
AcDbEntity
  8
0
100
AcDbLine
 62
7
  6
CONTINUOUS
 10
15.4845715019
 20
5.126326717
 11
15.4845715019
 21
5.0331668445
  0
LINE
  5
727
100
AcDbEntity
  8
0
100
AcDbLine
 62
7
  6
CONTINUOUS
 10
15.4845715019
 20
4.9785222715
 11
15.4845715019
 21
4.885362399
  0
LINE
  5
728
100
AcDbEntity
  8
0
100
AcDbLine
 62
7
  6
CONTINUOUS
 10
15.4845715019
 20
4.8307178261
 11
15.4845715019
 21
4.7375579536
  0
LINE
  5
729
100
AcDbEntity
  8
0
100
AcDbLine
 62
7
  6
CONTINUOUS
 10
15.4845715019
 20
4.6829133806
 11
15.4845715019
 21
4.5897535081
  0
LINE
  5
72A
100
AcDbEntity
  8
0
100
AcDbLine
 62
7
  6
CONTINUOUS
 10
15.4845715019
 20
4.5351089352
 11
15.4845715019
 21
4.4419490627
  0
LINE
  5
72B
100
AcDbEntity
  8
0
100
AcDbLine
 62
7
  6
CONTINUOUS
 10
15.4845715019
 20
4.3873044897
 11
15.4845715019
 21
4.2941446172
  0
LINE
  5
72C
100
AcDbEntity
  8
0
100
AcDbLine
 62
7
  6
CONTINUOUS
 10
15.4984909268
 20
4.2861011715
 11
15.4984909268
 21
4.3953479355
  0
LINE
  5
72D
100
AcDbEntity
  8
0
100
AcDbLine
 62
7
  6
CONTINUOUS
 10
15.4984909268
 20
4.4339056169
 11
15.4984909268
 21
4.543152381
  0
LINE
  5
72E
100
AcDbEntity
  8
0
100
AcDbLine
 62
7
  6
CONTINUOUS
 10
15.4984909268
 20
4.5817100624
 11
15.4984909268
 21
4.6909568264
  0
LINE
  5
72F
100
AcDbEntity
  8
0
100
AcDbLine
 62
7
  6
CONTINUOUS
 10
15.4984909268
 20
4.7295145078
 11
15.4984909268
 21
4.8387612718
  0
LINE
  5
730
100
AcDbEntity
  8
0
100
AcDbLine
 62
7
  6
CONTINUOUS
 10
15.4984909268
 20
4.8773189533
 11
15.4984909268
 21
4.9865657173
  0
LINE
  5
731
100
AcDbEntity
  8
0
100
AcDbLine
 62
7
  6
CONTINUOUS
 10
15.4984909268
 20
5.0251233987
 11
15.4984909268
 21
5.1343701627
  0
LINE
  5
732
100
AcDbEntity
  8
0
100
AcDbLine
 62
7
  6
CONTINUOUS
 10
15.4984909268
 20
5.1729278442
 11
15.4984909268
 21
5.2821746082
  0
LINE
  5
733
100
AcDbEntity
  8
0
100
AcDbLine
 62
7
  6
CONTINUOUS
 10
15.4984909268
 20
5.3207322896
 11
15.4984909268
 21
5.4299790536
  0
LINE
  5
734
100
AcDbEntity
  8
0
100
AcDbLine
 62
7
  6
CONTINUOUS
 10
15.4984909268
 20
5.4685367351
 11
15.4984909268
 21
5.5777834991
  0
LINE
  5
735
100
AcDbEntity
  8
0
100
AcDbLine
 62
7
  6
CONTINUOUS
 10
15.4984909268
 20
5.6163411805
 11
15.4984909268
 21
5.7255879445
  0
LINE
  5
736
100
AcDbEntity
  8
0
100
AcDbLine
 62
7
  6
CONTINUOUS
 10
15.4984909268
 20
5.764145626
 11
15.4984909268
 21
5.87339239
  0
LINE
  5
737
100
AcDbEntity
  8
0
100
AcDbLine
 62
7
  6
CONTINUOUS
 10
15.4984909268
 20
5.9119500714
 11
15.4984909268
 21
6.0211968354
  0
LINE
  5
738
100
AcDbEntity
  8
0
100
AcDbLine
 62
7
  6
CONTINUOUS
 10
15.4984909268
 20
6.0597545169
 11
15.4984909268
 21
6.1690012809
  0
LINE
  5
739
100
AcDbEntity
  8
0
100
AcDbLine
 62
7
  6
CONTINUOUS
 10
15.4984909268
 20
6.2075589623
 11
15.4984909268
 21
6.3168057263
  0
LINE
  5
73A
100
AcDbEntity
  8
0
100
AcDbLine
 62
7
  6
CONTINUOUS
 10
15.5318975463
 20
6.3361099962
 11
15.5318975463
 21
6.2268632321
  0
LINE
  5
73B
100
AcDbEntity
  8
0
100
AcDbLine
 62
7
  6
CONTINUOUS
 10
15.5318975463
 20
6.1883055507
 11
15.5318975463
 21
6.0790587867
  0
LINE
  5
73C
100
AcDbEntity
  8
0
100
AcDbLine
 62
7
  6
CONTINUOUS
 10
15.5318975463
 20
6.0405011053
 11
15.5318975463
 21
5.9312543412
  0
LINE
  5
73D
100
AcDbEntity
  8
0
100
AcDbLine
 62
7
  6
CONTINUOUS
 10
15.5318975463
 20
5.8926966598
 11
15.5318975463
 21
5.7834498958
  0
LINE
  5
73E
100
AcDbEntity
  8
0
100
AcDbLine
 62
7
  6
CONTINUOUS
 10
15.5318975463
 20
5.7448922144
 11
15.5318975463
 21
5.6356454503
  0
LINE
  5
73F
100
AcDbEntity
  8
0
100
AcDbLine
 62
7
  6
CONTINUOUS
 10
15.5318975463
 20
5.5970877689
 11
15.5318975463
 21
5.4878410049
  0
LINE
  5
740
100
AcDbEntity
  8
0
100
AcDbLine
 62
7
  6
CONTINUOUS
 10
15.5318975463
 20
5.4492833235
 11
15.5318975463
 21
5.3400365594
  0
LINE
  5
741
100
AcDbEntity
  8
0
100
AcDbLine
 62
7
  6
CONTINUOUS
 10
15.5318975463
 20
5.301478878
 11
15.5318975463
 21
5.192232114
  0
LINE
  5
742
100
AcDbEntity
  8
0
100
AcDbLine
 62
7
  6
CONTINUOUS
 10
15.5318975463
 20
5.1536744326
 11
15.5318975463
 21
5.0444276685
  0
LINE
  5
743
100
AcDbEntity
  8
0
100
AcDbLine
 62
7
  6
CONTINUOUS
 10
15.5318975463
 20
5.0058699871
 11
15.5318975463
 21
4.8966232231
  0
LINE
  5
744
100
AcDbEntity
  8
0
100
AcDbLine
 62
7
  6
CONTINUOUS
 10
15.5318975463
 20
4.8580655417
 11
15.5318975463
 21
4.7488187777
  0
LINE
  5
745
100
AcDbEntity
  8
0
100
AcDbLine
 62
7
  6
CONTINUOUS
 10
15.5318975463
 20
4.7102610962
 11
15.5318975463
 21
4.6010143322
  0
LINE
  5
746
100
AcDbEntity
  8
0
100
AcDbLine
 62
7
  6
CONTINUOUS
 10
15.5318975463
 20
4.5624566508
 11
15.5318975463
 21
4.4532098868
  0
LINE
  5
747
100
AcDbEntity
  8
0
100
AcDbLine
 62
7
  6
CONTINUOUS
 10
15.5318975463
 20
4.4146522053
 11
15.5318975463
 21
4.3054054413
  0
LINE
  5
748
100
AcDbEntity
  8
0
100
AcDbLine
 62
7
  6
CONTINUOUS
 10
15.5541686261
 20
7.5477654953
 11
15.5541686261
 21
7.5393931518
  0
LINE
  5
749
100
AcDbEntity
  8
0
100
AcDbLine
 62
7
  6
CONTINUOUS
 10
15.5555605685
 20
7.260696363
 11
15.5555605685
 21
7.0197108541
  0
LINE
  5
74A
100
AcDbEntity
  8
0
100
AcDbLine
 62
7
  6
CONTINUOUS
 10
15.5680880509
 20
7.30168615
 11
15.5680880509
 21
7.5266059582
  0
LINE
  5
74B
100
AcDbEntity
  8
0
100
AcDbLine
 62
7
  6
CONTINUOUS
 10
15.5764397058
 20
7.2968600825
 11
15.5764397058
 21
6.9434146695
  0
LINE
  5
74C
100
AcDbEntity
  8
0
100
AcDbLine
 62
7
  6
CONTINUOUS
 10
15.6126302103
 20
6.3827619816
 11
15.6126302103
 21
6.2896021091
  0
LINE
  5
74D
100
AcDbEntity
  8
0
100
AcDbLine
 62
7
  6
CONTINUOUS
 10
15.6126302103
 20
6.2349575361
 11
15.6126302103
 21
6.1417976636
  0
LINE
  5
74E
100
AcDbEntity
  8
0
100
AcDbLine
 62
7
  6
CONTINUOUS
 10
15.6126302103
 20
6.0871530907
 11
15.6126302103
 21
5.9939932182
  0
LINE
  5
74F
100
AcDbEntity
  8
0
100
AcDbLine
 62
7
  6
CONTINUOUS
 10
15.6126302103
 20
5.9393486452
 11
15.6126302103
 21
5.8461887727
  0
LINE
  5
750
100
AcDbEntity
  8
0
100
AcDbLine
 62
7
  6
CONTINUOUS
 10
15.6126302103
 20
5.7915441998
 11
15.6126302103
 21
5.6983843273
  0
LINE
  5
751
100
AcDbEntity
  8
0
100
AcDbLine
 62
7
  6
CONTINUOUS
 10
15.6126302103
 20
5.6437397543
 11
15.6126302103
 21
5.5505798818
  0
LINE
  5
752
100
AcDbEntity
  8
0
100
AcDbLine
 62
7
  6
CONTINUOUS
 10
15.6126302103
 20
5.4959353089
 11
15.6126302103
 21
5.4027754364
  0
LINE
  5
753
100
AcDbEntity
  8
0
100
AcDbLine
 62
7
  6
CONTINUOUS
 10
15.6126302103
 20
5.3481308634
 11
15.6126302103
 21
5.2549709909
  0
LINE
  5
754
100
AcDbEntity
  8
0
100
AcDbLine
 62
7
  6
CONTINUOUS
 10
15.6126302103
 20
5.200326418
 11
15.6126302103
 21
5.1071665455
  0
LINE
  5
755
100
AcDbEntity
  8
0
100
AcDbLine
 62
7
  6
CONTINUOUS
 10
15.6126302103
 20
5.0525219726
 11
15.6126302103
 21
4.9593621001
  0
LINE
  5
756
100
AcDbEntity
  8
0
100
AcDbLine
 62
7
  6
CONTINUOUS
 10
15.6126302103
 20
4.9047175271
 11
15.6126302103
 21
4.8115576546
  0
LINE
  5
757
100
AcDbEntity
  8
0
100
AcDbLine
 62
7
  6
CONTINUOUS
 10
15.6126302103
 20
4.7569130817
 11
15.6126302103
 21
4.6637532092
  0
LINE
  5
758
100
AcDbEntity
  8
0
100
AcDbLine
 62
7
  6
CONTINUOUS
 10
15.6126302103
 20
4.6091086362
 11
15.6126302103
 21
4.5159487637
  0
LINE
  5
759
100
AcDbEntity
  8
0
100
AcDbLine
 62
7
  6
CONTINUOUS
 10
15.6126302103
 20
4.4613041908
 11
15.6126302103
 21
4.3681443183
  0
LINE
  5
75A
100
AcDbEntity
  8
0
100
AcDbLine
 62
7
  6
CONTINUOUS
 10
15.6237657502
 20
4.1694535897
 11
15.6237657502
 21
3.8738446988
  0
LINE
  5
75B
100
AcDbEntity
  8
0
100
AcDbLine
 62
7
  6
CONTINUOUS
 10
15.6265496352
 20
4.3601008725
 11
15.6265496352
 21
4.4693476365
  0
LINE
  5
75C
100
AcDbEntity
  8
0
100
AcDbLine
 62
7
  6
CONTINUOUS
 10
15.6265496352
 20
4.5079053179
 11
15.6265496352
 21
4.617152082
  0
LINE
  5
75D
100
AcDbEntity
  8
0
100
AcDbLine
 62
7
  6
CONTINUOUS
 10
15.6265496352
 20
4.6557097634
 11
15.6265496352
 21
4.7649565274
  0
LINE
  5
75E
100
AcDbEntity
  8
0
100
AcDbLine
 62
7
  6
CONTINUOUS
 10
15.6265496352
 20
4.8035142088
 11
15.6265496352
 21
4.9127609729
  0
LINE
  5
75F
100
AcDbEntity
  8
0
100
AcDbLine
 62
7
  6
CONTINUOUS
 10
15.6265496352
 20
4.9513186543
 11
15.6265496352
 21
5.0605654183
  0
LINE
  5
760
100
AcDbEntity
  8
0
100
AcDbLine
 62
7
  6
CONTINUOUS
 10
15.6265496352
 20
5.0991230997
 11
15.6265496352
 21
5.2083698638
  0
LINE
  5
761
100
AcDbEntity
  8
0
100
AcDbLine
 62
7
  6
CONTINUOUS
 10
15.6265496352
 20
5.2469275452
 11
15.6265496352
 21
5.3561743092
  0
LINE
  5
762
100
AcDbEntity
  8
0
100
AcDbLine
 62
7
  6
CONTINUOUS
 10
15.6265496352
 20
5.3947319906
 11
15.6265496352
 21
5.5039787547
  0
LINE
  5
763
100
AcDbEntity
  8
0
100
AcDbLine
 62
7
  6
CONTINUOUS
 10
15.6265496352
 20
5.5425364361
 11
15.6265496352
 21
5.6517832001
  0
LINE
  5
764
100
AcDbEntity
  8
0
100
AcDbLine
 62
7
  6
CONTINUOUS
 10
15.6265496352
 20
5.6903408815
 11
15.6265496352
 21
5.7995876456
  0
LINE
  5
765
100
AcDbEntity
  8
0
100
AcDbLine
 62
7
  6
CONTINUOUS
 10
15.6265496352
 20
5.838145327
 11
15.6265496352
 21
5.947392091
  0
LINE
  5
766
100
AcDbEntity
  8
0
100
AcDbLine
 62
7
  6
CONTINUOUS
 10
15.6265496352
 20
5.9859497724
 11
15.6265496352
 21
6.0951965364
  0
LINE
  5
767
100
AcDbEntity
  8
0
100
AcDbLine
 62
7
  6
CONTINUOUS
 10
15.6265496352
 20
6.1337542179
 11
15.6265496352
 21
6.2430009819
  0
LINE
  5
768
100
AcDbEntity
  8
0
100
AcDbLine
 62
7
  6
CONTINUOUS
 10
15.6265496352
 20
6.2815586633
 11
15.6265496352
 21
6.3908054273
  0
LINE
  5
769
100
AcDbEntity
  8
0
100
AcDbLine
 62
7
  6
CONTINUOUS
 10
15.6599562547
 20
7.001327479
 11
15.6599562547
 21
6.8920807149
  0
LINE
  5
76A
100
AcDbEntity
  8
0
100
AcDbLine
 62
7
  6
CONTINUOUS
 10
15.6599562547
 20
6.8535230335
 11
15.6599562547
 21
6.7442762695
  0
LINE
  5
76B
100
AcDbEntity
  8
0
100
AcDbLine
 62
7
  6
CONTINUOUS
 10
15.6599562547
 20
6.7057185881
 11
15.6599562547
 21
6.6487848247
  0
LINE
  5
76C
100
AcDbEntity
  8
0
100
AcDbLine
 62
7
  6
CONTINUOUS
 10
15.6599562547
 20
6.5579141426
 11
15.6599562547
 21
6.4486673786
  0
LINE
  5
76D
100
AcDbEntity
  8
0
100
AcDbLine
 62
7
  6
CONTINUOUS
 10
15.6599562547
 20
6.4101096972
 11
15.6599562547
 21
6.3008629331
  0
LINE
  5
76E
100
AcDbEntity
  8
0
100
AcDbLine
 62
7
  6
CONTINUOUS
 10
15.6599562547
 20
6.2623052517
 11
15.6599562547
 21
6.1530584877
  0
LINE
  5
76F
100
AcDbEntity
  8
0
100
AcDbLine
 62
7
  6
CONTINUOUS
 10
15.6599562547
 20
6.1145008063
 11
15.6599562547
 21
6.0052540423
  0
LINE
  5
770
100
AcDbEntity
  8
0
100
AcDbLine
 62
7
  6
CONTINUOUS
 10
15.6599562547
 20
5.9666963608
 11
15.6599562547
 21
5.8574495968
  0
LINE
  5
771
100
AcDbEntity
  8
0
100
AcDbLine
 62
7
  6
CONTINUOUS
 10
15.6599562547
 20
5.8188919154
 11
15.6599562547
 21
5.7096451514
  0
LINE
  5
772
100
AcDbEntity
  8
0
100
AcDbLine
 62
7
  6
CONTINUOUS
 10
15.6599562547
 20
5.6710874699
 11
15.6599562547
 21
5.5618407059
  0
LINE
  5
773
100
AcDbEntity
  8
0
100
AcDbLine
 62
7
  6
CONTINUOUS
 10
15.6599562547
 20
5.5232830245
 11
15.6599562547
 21
5.4140362605
  0
LINE
  5
774
100
AcDbEntity
  8
0
100
AcDbLine
 62
7
  6
CONTINUOUS
 10
15.6599562547
 20
5.375478579
 11
15.6599562547
 21
5.266231815
  0
LINE
  5
775
100
AcDbEntity
  8
0
100
AcDbLine
 62
7
  6
CONTINUOUS
 10
15.6599562547
 20
5.2276741336
 11
15.6599562547
 21
5.1184273696
  0
LINE
  5
776
100
AcDbEntity
  8
0
100
AcDbLine
 62
7
  6
CONTINUOUS
 10
15.6599562547
 20
5.0798696881
 11
15.6599562547
 21
4.9706229241
  0
LINE
  5
777
100
AcDbEntity
  8
0
100
AcDbLine
 62
7
  6
CONTINUOUS
 10
15.6599562547
 20
4.9320652427
 11
15.6599562547
 21
4.8228184787
  0
LINE
  5
778
100
AcDbEntity
  8
0
100
AcDbLine
 62
7
  6
CONTINUOUS
 10
15.6599562547
 20
4.7842607973
 11
15.6599562547
 21
4.6750140332
  0
LINE
  5
779
100
AcDbEntity
  8
0
100
AcDbLine
 62
7
  6
CONTINUOUS
 10
15.6599562547
 20
4.6364563518
 11
15.6599562547
 21
4.5272095878
  0
LINE
  5
77A
100
AcDbEntity
  8
0
100
AcDbLine
 62
7
  6
CONTINUOUS
 10
15.6599562547
 20
4.4886519064
 11
15.6599562547
 21
4.3794051423
  0
LINE
  5
77B
100
AcDbEntity
  8
0
100
AcDbLine
 62
7
  6
CONTINUOUS
 10
15.6599562547
 20
7.0398851604
 11
15.6599562547
 21
7.1491319244
  0
LINE
  5
77C
100
AcDbEntity
  8
0
100
AcDbLine
 62
7
  6
CONTINUOUS
 10
15.6599562547
 20
7.1876896058
 11
15.6599562547
 21
7.2969363699
  0
LINE
  5
77D
100
AcDbEntity
  8
0
100
AcDbLine
 62
7
  6
CONTINUOUS
 10
15.6599562547
 20
7.3354940513
 11
15.6599562547
 21
7.4447408153
  0
LINE
  5
77E
100
AcDbEntity
  8
0
100
AcDbLine
 62
7
  6
CONTINUOUS
 10
15.7406889187
 20
5.7723840283
 11
15.6599562547
 21
5.7257320429
  0
LINE
  5
77F
100
AcDbEntity
  8
0
100
AcDbLine
 62
7
  6
CONTINUOUS
 10
15.6126302103
 20
5.6983843273
 11
15.5318975463
 21
5.6517323419
  0
LINE
  5
780
100
AcDbEntity
  8
0
100
AcDbLine
 62
7
  6
CONTINUOUS
 10
15.4845715019
 20
5.6243846263
 11
15.4038388379
 21
5.5777326408
  0
LINE
  5
781
100
AcDbEntity
  8
0
100
AcDbLine
 62
7
  6
CONTINUOUS
 10
15.3565127935
 20
5.5503849253
 11
15.2757801295
 21
5.5037329398
  0
LINE
  5
782
100
AcDbEntity
  8
0
100
AcDbLine
 62
7
  6
CONTINUOUS
 10
15.2284540851
 20
5.4763852242
 11
15.1477214211
 21
5.4297332388
  0
LINE
  5
783
100
AcDbEntity
  8
0
100
AcDbLine
 62
7
  6
CONTINUOUS
 10
15.1003953767
 20
5.4023855232
 11
15.0196627127
 21
5.3557335378
  0
LINE
  5
784
100
AcDbEntity
  8
0
100
AcDbLine
 62
7
  6
CONTINUOUS
 10
15.0196627127
 20
5.3396466463
 11
15.1143148015
 21
5.3943420774
  0
LINE
  5
785
100
AcDbEntity
  8
0
100
AcDbLine
 62
7
  6
CONTINUOUS
 10
15.1477214211
 20
5.4136463473
 11
15.24237351
 21
5.4683417785
  0
LINE
  5
786
100
AcDbEntity
  8
0
100
AcDbLine
 62
7
  6
CONTINUOUS
 10
15.2757801295
 20
5.4876460483
 11
15.3704322184
 21
5.5423414795
  0
LINE
  5
787
100
AcDbEntity
  8
0
100
AcDbLine
 62
7
  6
CONTINUOUS
 10
15.4038388379
 20
5.5616457493
 11
15.4984909268
 21
5.6163411805
  0
LINE
  5
788
100
AcDbEntity
  8
0
100
AcDbLine
 62
7
  6
CONTINUOUS
 10
15.5318975463
 20
5.6356454503
 11
15.6265496352
 21
5.6903408815
  0
LINE
  5
789
100
AcDbEntity
  8
0
100
AcDbLine
 62
7
  6
CONTINUOUS
 10
15.6599562547
 20
5.7096451514
 11
15.7546083436
 21
5.7643405825
  0
LINE
  5
78A
100
AcDbEntity
  8
0
100
AcDbLine
 62
7
  6
CONTINUOUS
 10
15.7546083436
 20
5.7257829011
 11
15.6599562547
 21
5.6710874699
  0
LINE
  5
78B
100
AcDbEntity
  8
0
100
AcDbLine
 62
7
  6
CONTINUOUS
 10
15.6265496352
 20
5.6517832001
 11
15.5318975463
 21
5.5970877689
  0
LINE
  5
78C
100
AcDbEntity
  8
0
100
AcDbLine
 62
7
  6
CONTINUOUS
 10
15.4984909268
 20
5.5777834991
 11
15.4038388379
 21
5.5230880679
  0
LINE
  5
78D
100
AcDbEntity
  8
0
100
AcDbLine
 62
7
  6
CONTINUOUS
 10
15.3704322184
 20
5.5037837981
 11
15.2757801295
 21
5.4490883669
  0
LINE
  5
78E
100
AcDbEntity
  8
0
100
AcDbLine
 62
7
  6
CONTINUOUS
 10
15.24237351
 20
5.429784097
 11
15.1477214211
 21
5.3750886659
  0
LINE
  5
78F
100
AcDbEntity
  8
0
100
AcDbLine
 62
7
  6
CONTINUOUS
 10
15.1143148015
 20
5.355784396
 11
15.0196627127
 21
5.3010889648
  0
LINE
  5
790
100
AcDbEntity
  8
0
100
AcDbLine
 62
7
  6
CONTINUOUS
 10
15.7406889187
 20
5.6245795829
 11
15.6599562547
 21
5.5779275974
  0
LINE
  5
791
100
AcDbEntity
  8
0
100
AcDbLine
 62
7
  6
CONTINUOUS
 10
15.6126302103
 20
5.5505798818
 11
15.5318975463
 21
5.5039278964
  0
LINE
  5
792
100
AcDbEntity
  8
0
100
AcDbLine
 62
7
  6
CONTINUOUS
 10
15.4845715019
 20
5.4765801808
 11
15.4038388379
 21
5.4299281954
  0
LINE
  5
793
100
AcDbEntity
  8
0
100
AcDbLine
 62
7
  6
CONTINUOUS
 10
15.3565127935
 20
5.4025804798
 11
15.2757801295
 21
5.3559284944
  0
LINE
  5
794
100
AcDbEntity
  8
0
100
AcDbLine
 62
7
  6
CONTINUOUS
 10
15.2284540851
 20
5.3285807788
 11
15.1477214211
 21
5.2819287934
  0
LINE
  5
795
100
AcDbEntity
  8
0
100
AcDbLine
 62
7
  6
CONTINUOUS
 10
15.1003953767
 20
5.2545810778
 11
15.0196627127
 21
5.2079290923
  0
LINE
  5
796
100
AcDbEntity
  8
0
100
AcDbLine
 62
7
  6
CONTINUOUS
 10
15.0196627127
 20
5.1918422008
 11
15.1143148015
 21
5.246537632
  0
LINE
  5
797
100
AcDbEntity
  8
0
100
AcDbLine
 62
7
  6
CONTINUOUS
 10
15.1477214211
 20
5.2658419018
 11
15.24237351
 21
5.320537333
  0
LINE
  5
798
100
AcDbEntity
  8
0
100
AcDbLine
 62
7
  6
CONTINUOUS
 10
15.2757801295
 20
5.3398416029
 11
15.3704322184
 21
5.394537034
  0
LINE
  5
799
100
AcDbEntity
  8
0
100
AcDbLine
 62
7
  6
CONTINUOUS
 10
15.4038388379
 20
5.4138413039
 11
15.4984909268
 21
5.4685367351
  0
LINE
  5
79A
100
AcDbEntity
  8
0
100
AcDbLine
 62
7
  6
CONTINUOUS
 10
15.5318975463
 20
5.4878410049
 11
15.6265496352
 21
5.5425364361
  0
LINE
  5
79B
100
AcDbEntity
  8
0
100
AcDbLine
 62
7
  6
CONTINUOUS
 10
15.6599562547
 20
5.5618407059
 11
15.7546083436
 21
5.6165361371
  0
LINE
  5
79C
100
AcDbEntity
  8
0
100
AcDbLine
 62
7
  6
CONTINUOUS
 10
15.7546083436
 20
5.5779784557
 11
15.6599562547
 21
5.5232830245
  0
LINE
  5
79D
100
AcDbEntity
  8
0
100
AcDbLine
 62
7
  6
CONTINUOUS
 10
15.6265496352
 20
5.5039787547
 11
15.5318975463
 21
5.4492833235
  0
LINE
  5
79E
100
AcDbEntity
  8
0
100
AcDbLine
 62
7
  6
CONTINUOUS
 10
15.4984909268
 20
5.4299790536
 11
15.4038388379
 21
5.3752836225
  0
LINE
  5
79F
100
AcDbEntity
  8
0
100
AcDbLine
 62
7
  6
CONTINUOUS
 10
15.3704322184
 20
5.3559793526
 11
15.2757801295
 21
5.3012839214
  0
LINE
  5
7A0
100
AcDbEntity
  8
0
100
AcDbLine
 62
7
  6
CONTINUOUS
 10
15.24237351
 20
5.2819796516
 11
15.1477214211
 21
5.2272842204
  0
LINE
  5
7A1
100
AcDbEntity
  8
0
100
AcDbLine
 62
7
  6
CONTINUOUS
 10
15.1143148015
 20
5.2079799506
 11
15.0196627127
 21
5.1532845194
  0
LINE
  5
7A2
100
AcDbEntity
  8
0
100
AcDbLine
 62
7
  6
CONTINUOUS
 10
15.5680880509
 20
7.30168615
 11
15.5124103516
 21
7.5266483401
  0
LINE
  5
7A3
100
AcDbEntity
  8
0
100
AcDbLine
 62
7
  6
CONTINUOUS
 10
15.7406889187
 20
7.4913928007
 11
15.7406889187
 21
7.3982329282
  0
LINE
  5
7A4
100
AcDbEntity
  8
0
100
AcDbLine
 62
7
  6
CONTINUOUS
 10
15.7406889187
 20
7.3435883553
 11
15.7406889187
 21
7.2504284828
  0
LINE
  5
7A5
100
AcDbEntity
  8
0
100
AcDbLine
 62
7
  6
CONTINUOUS
 10
15.7406889187
 20
7.1957839098
 11
15.7406889187
 21
7.1026240373
  0
LINE
  5
7A6
100
AcDbEntity
  8
0
100
AcDbLine
 62
7
  6
CONTINUOUS
 10
15.7406889187
 20
7.0479794644
 11
15.7406889187
 21
6.9548195919
  0
LINE
  5
7A7
100
AcDbEntity
  8
0
100
AcDbLine
 62
7
  6
CONTINUOUS
 10
15.7406889187
 20
6.9001750189
 11
15.7406889187
 21
6.8070151464
  0
LINE
  5
7A8
100
AcDbEntity
  8
0
100
AcDbLine
 62
7
  6
CONTINUOUS
 10
15.7406889187
 20
6.7523705735
 11
15.7406889187
 21
6.659210701
  0
LINE
  5
7A9
100
AcDbEntity
  8
0
100
AcDbLine
 62
7
  6
CONTINUOUS
 10
15.7406889187
 20
6.604566128
 11
15.7406889187
 21
6.5114062555
  0
LINE
  5
7AA
100
AcDbEntity
  8
0
100
AcDbLine
 62
7
  6
CONTINUOUS
 10
15.7406889187
 20
6.4567616826
 11
15.7406889187
 21
6.3636018101
  0
LINE
  5
7AB
100
AcDbEntity
  8
0
100
AcDbLine
 62
7
  6
CONTINUOUS
 10
15.7406889187
 20
6.3089572372
 11
15.7406889187
 21
6.2157973647
  0
LINE
  5
7AC
100
AcDbEntity
  8
0
100
AcDbLine
 62
7
  6
CONTINUOUS
 10
15.7406889187
 20
6.1611527917
 11
15.7406889187
 21
6.0679929192
  0
LINE
  5
7AD
100
AcDbEntity
  8
0
100
AcDbLine
 62
7
  6
CONTINUOUS
 10
15.7406889187
 20
6.0133483463
 11
15.7406889187
 21
5.9201884738
  0
LINE
  5
7AE
100
AcDbEntity
  8
0
100
AcDbLine
 62
7
  6
CONTINUOUS
 10
15.7406889187
 20
5.8655439008
 11
15.7406889187
 21
5.7723840283
  0
LINE
  5
7AF
100
AcDbEntity
  8
0
100
AcDbLine
 62
7
  6
CONTINUOUS
 10
15.7406889187
 20
5.7177394554
 11
15.7406889187
 21
5.6245795829
  0
LINE
  5
7B0
100
AcDbEntity
  8
0
100
AcDbLine
 62
7
  6
CONTINUOUS
 10
15.7406889187
 20
5.5699350099
 11
15.7406889187
 21
5.4767751374
  0
LINE
  5
7B1
100
AcDbEntity
  8
0
100
AcDbLine
 62
7
  6
CONTINUOUS
 10
15.7406889187
 20
5.4221305645
 11
15.7406889187
 21
5.328970692
  0
LINE
  5
7B2
100
AcDbEntity
  8
0
100
AcDbLine
 62
7
  6
CONTINUOUS
 10
15.7406889187
 20
5.274326119
 11
15.7406889187
 21
5.1811662465
  0
LINE
  5
7B3
100
AcDbEntity
  8
0
100
AcDbLine
 62
7
  6
CONTINUOUS
 10
15.7406889187
 20
5.1265216736
 11
15.7406889187
 21
5.0333618011
  0
LINE
  5
7B4
100
AcDbEntity
  8
0
100
AcDbLine
 62
7
  6
CONTINUOUS
 10
15.7406889187
 20
4.9787172281
 11
15.7406889187
 21
4.8855573556
  0
LINE
  5
7B5
100
AcDbEntity
  8
0
100
AcDbLine
 62
7
  6
CONTINUOUS
 10
15.7406889187
 20
4.8309127827
 11
15.7406889187
 21
4.7377529102
  0
LINE
  5
7B6
100
AcDbEntity
  8
0
100
AcDbLine
 62
7
  6
CONTINUOUS
 10
15.7406889187
 20
4.6831083372
 11
15.7406889187
 21
4.5899484647
  0
LINE
  5
7B7
100
AcDbEntity
  8
0
100
AcDbLine
 62
7
  6
CONTINUOUS
 10
15.7406889187
 20
4.5353038918
 11
15.7406889187
 21
4.4421440193
  0
LINE
  5
7B8
100
AcDbEntity
  8
0
100
AcDbLine
 62
7
  6
CONTINUOUS
 10
15.7546083436
 20
7.4994362465
 11
15.7546083436
 21
7.3901894825
  0
LINE
  5
7B9
100
AcDbEntity
  8
0
100
AcDbLine
 62
7
  6
CONTINUOUS
 10
15.7546083436
 20
7.3516318011
 11
15.7546083436
 21
7.242385037
  0
LINE
  5
7BA
100
AcDbEntity
  8
0
100
AcDbLine
 62
7
  6
CONTINUOUS
 10
15.7546083436
 20
7.2038273556
 11
15.7546083436
 21
7.0945805916
  0
LINE
  5
7BB
100
AcDbEntity
  8
0
100
AcDbLine
 62
7
  6
CONTINUOUS
 10
15.7546083436
 20
7.0560229102
 11
15.7546083436
 21
6.9467761461
  0
LINE
  5
7BC
100
AcDbEntity
  8
0
100
AcDbLine
 62
7
  6
CONTINUOUS
 10
15.7546083436
 20
6.9082184647
 11
15.7546083436
 21
6.7989717007
  0
LINE
  5
7BD
100
AcDbEntity
  8
0
100
AcDbLine
 62
7
  6
CONTINUOUS
 10
15.7546083436
 20
6.7604140193
 11
15.7546083436
 21
6.6511672552
  0
LINE
  5
7BE
100
AcDbEntity
  8
0
100
AcDbLine
 62
7
  6
CONTINUOUS
 10
15.7546083436
 20
6.6126095738
 11
15.7546083436
 21
6.5033628098
  0
LINE
  5
7BF
100
AcDbEntity
  8
0
100
AcDbLine
 62
7
  6
CONTINUOUS
 10
15.7546083436
 20
6.4648051284
 11
15.7546083436
 21
6.3555583643
  0
LINE
  5
7C0
100
AcDbEntity
  8
0
100
AcDbLine
 62
7
  6
CONTINUOUS
 10
15.7546083436
 20
6.3170006829
 11
15.7546083436
 21
6.2077539189
  0
LINE
  5
7C1
100
AcDbEntity
  8
0
100
AcDbLine
 62
7
  6
CONTINUOUS
 10
15.7546083436
 20
6.1691962375
 11
15.7546083436
 21
6.0599494734
  0
LINE
  5
7C2
100
AcDbEntity
  8
0
100
AcDbLine
 62
7
  6
CONTINUOUS
 10
15.7546083436
 20
6.021391792
 11
15.7546083436
 21
5.912145028
  0
LINE
  5
7C3
100
AcDbEntity
  8
0
100
AcDbLine
 62
7
  6
CONTINUOUS
 10
15.7546083436
 20
5.8735873466
 11
15.7546083436
 21
5.7643405825
  0
LINE
  5
7C4
100
AcDbEntity
  8
0
100
AcDbLine
 62
7
  6
CONTINUOUS
 10
15.7546083436
 20
5.7257829011
 11
15.7546083436
 21
5.6165361371
  0
LINE
  5
7C5
100
AcDbEntity
  8
0
100
AcDbLine
 62
7
  6
CONTINUOUS
 10
15.7546083436
 20
5.5779784557
 11
15.7546083436
 21
5.4687316917
  0
LINE
  5
7C6
100
AcDbEntity
  8
0
100
AcDbLine
 62
7
  6
CONTINUOUS
 10
15.7546083436
 20
5.4301740102
 11
15.7546083436
 21
5.3209272462
  0
LINE
  5
7C7
100
AcDbEntity
  8
0
100
AcDbLine
 62
7
  6
CONTINUOUS
 10
15.7546083436
 20
5.2823695648
 11
15.7546083436
 21
5.1731228008
  0
LINE
  5
7C8
100
AcDbEntity
  8
0
100
AcDbLine
 62
7
  6
CONTINUOUS
 10
15.7546083436
 20
5.1345651193
 11
15.7546083436
 21
5.0253183553
  0
LINE
  5
7C9
100
AcDbEntity
  8
0
100
AcDbLine
 62
7
  6
CONTINUOUS
 10
15.7546083436
 20
4.9867606739
 11
15.7546083436
 21
4.8775139099
  0
LINE
  5
7CA
100
AcDbEntity
  8
0
100
AcDbLine
 62
7
  6
CONTINUOUS
 10
15.7546083436
 20
4.8389562284
 11
15.7546083436
 21
4.7297094644
  0
LINE
  5
7CB
100
AcDbEntity
  8
0
100
AcDbLine
 62
7
  6
CONTINUOUS
 10
15.7546083436
 20
4.691151783
 11
15.7546083436
 21
4.581905019
  0
LINE
  5
7CC
100
AcDbEntity
  8
0
100
AcDbLine
 62
7
  6
CONTINUOUS
 10
15.7546083436
 20
4.5433473375
 11
15.7546083436
 21
4.4341005735
  0
LINE
  5
7CD
100
AcDbEntity
  8
0
100
AcDbLine
 62
7
  6
CONTINUOUS
 10
15.8047182729
 20
7.6841751756
 11
15.8047182729
 21
7.692547519
  0
LINE
  5
7CE
100
AcDbEntity
  8
0
100
AcDbLine
 62
7
  6
CONTINUOUS
 10
15.8325571226
 20
7.6794314277
 11
15.8325571226
 21
4.402671135
  0
LINE
  5
7CF
100
AcDbEntity
  8
0
100
AcDbLine
 62
7
  6
CONTINUOUS
 10
15.7406889187
 20
5.4767751374
 11
15.6599562547
 21
5.430123152
  0
LINE
  5
7D0
100
AcDbEntity
  8
0
100
AcDbLine
 62
7
  6
CONTINUOUS
 10
15.6126302103
 20
5.4027754364
 11
15.5318975463
 21
5.356123451
  0
LINE
  5
7D1
100
AcDbEntity
  8
0
100
AcDbLine
 62
7
  6
CONTINUOUS
 10
15.4845715019
 20
5.3287757354
 11
15.4038388379
 21
5.28212375
  0
LINE
  5
7D2
100
AcDbEntity
  8
0
100
AcDbLine
 62
7
  6
CONTINUOUS
 10
15.3565127935
 20
5.2547760344
 11
15.2757801295
 21
5.2081240489
  0
LINE
  5
7D3
100
AcDbEntity
  8
0
100
AcDbLine
 62
7
  6
CONTINUOUS
 10
15.2284540851
 20
5.1807763333
 11
15.1477214211
 21
5.1341243479
  0
LINE
  5
7D4
100
AcDbEntity
  8
0
100
AcDbLine
 62
7
  6
CONTINUOUS
 10
15.1003953767
 20
5.1067766323
 11
15.0196627127
 21
5.0601246469
  0
LINE
  5
7D5
100
AcDbEntity
  8
0
100
AcDbLine
 62
7
  6
CONTINUOUS
 10
15.0196627127
 20
5.0440377554
 11
15.1143148015
 21
5.0987331866
  0
LINE
  5
7D6
100
AcDbEntity
  8
0
100
AcDbLine
 62
7
  6
CONTINUOUS
 10
15.1477214211
 20
5.1180374564
 11
15.24237351
 21
5.1727328876
  0
LINE
  5
7D7
100
AcDbEntity
  8
0
100
AcDbLine
 62
7
  6
CONTINUOUS
 10
15.2757801295
 20
5.1920371574
 11
15.3704322184
 21
5.2467325886
  0
LINE
  5
7D8
100
AcDbEntity
  8
0
100
AcDbLine
 62
7
  6
CONTINUOUS
 10
15.4038388379
 20
5.2660368584
 11
15.4984909268
 21
5.3207322896
  0
LINE
  5
7D9
100
AcDbEntity
  8
0
100
AcDbLine
 62
7
  6
CONTINUOUS
 10
15.5318975463
 20
5.3400365594
 11
15.6265496352
 21
5.3947319906
  0
LINE
  5
7DA
100
AcDbEntity
  8
0
100
AcDbLine
 62
7
  6
CONTINUOUS
 10
15.6599562547
 20
5.4140362605
 11
15.7546083436
 21
5.4687316917
  0
LINE
  5
7DB
100
AcDbEntity
  8
0
100
AcDbLine
 62
7
  6
CONTINUOUS
 10
15.7546083436
 20
5.4301740102
 11
15.6599562547
 21
5.375478579
  0
LINE
  5
7DC
100
AcDbEntity
  8
0
100
AcDbLine
 62
7
  6
CONTINUOUS
 10
15.6265496352
 20
5.3561743092
 11
15.5318975463
 21
5.301478878
  0
LINE
  5
7DD
100
AcDbEntity
  8
0
100
AcDbLine
 62
7
  6
CONTINUOUS
 10
15.4984909268
 20
5.2821746082
 11
15.4038388379
 21
5.227479177
  0
LINE
  5
7DE
100
AcDbEntity
  8
0
100
AcDbLine
 62
7
  6
CONTINUOUS
 10
15.3704322184
 20
5.2081749072
 11
15.2757801295
 21
5.153479476
  0
LINE
  5
7DF
100
AcDbEntity
  8
0
100
AcDbLine
 62
7
  6
CONTINUOUS
 10
15.24237351
 20
5.1341752062
 11
15.1477214211
 21
5.079479775
  0
LINE
  5
7E0
100
AcDbEntity
  8
0
100
AcDbLine
 62
7
  6
CONTINUOUS
 10
15.1143148015
 20
5.0601755051
 11
15.0196627127
 21
5.0054800739
  0
LINE
  5
7E1
100
AcDbEntity
  8
0
100
AcDbLine
 62
7
  6
CONTINUOUS
 10
14.0925556762
 20
4.3785831796
 11
14.0508707448
 21
4.3544952241
  0
LINE
  5
7E2
100
AcDbEntity
  8
0
100
AcDbLine
 62
7
  6
CONTINUOUS
 10
15.7406889187
 20
5.328970692
 11
15.6599562547
 21
5.2823187065
  0
LINE
  5
7E3
100
AcDbEntity
  8
0
100
AcDbLine
 62
7
  6
CONTINUOUS
 10
15.6126302103
 20
5.2549709909
 11
15.5318975463
 21
5.2083190055
  0
LINE
  5
7E4
100
AcDbEntity
  8
0
100
AcDbLine
 62
7
  6
CONTINUOUS
 10
15.4845715019
 20
5.1809712899
 11
15.4038388379
 21
5.1343193045
  0
LINE
  5
7E5
100
AcDbEntity
  8
0
100
AcDbLine
 62
7
  6
CONTINUOUS
 10
15.3565127935
 20
5.1069715889
 11
15.2757801295
 21
5.0603196035
  0
LINE
  5
7E6
100
AcDbEntity
  8
0
100
AcDbLine
 62
7
  6
CONTINUOUS
 10
15.2284540851
 20
5.0329718879
 11
15.1477214211
 21
4.9863199025
  0
LINE
  5
7E7
100
AcDbEntity
  8
0
100
AcDbLine
 62
7
  6
CONTINUOUS
 10
15.1003953767
 20
4.9589721869
 11
15.0196627127
 21
4.9123202014
  0
LINE
  5
7E8
100
AcDbEntity
  8
0
100
AcDbLine
 62
7
  6
CONTINUOUS
 10
14.03695132
 20
4.3403645531
 11
13.8281599476
 21
4.2197128666
  0
LINE
  5
7E9
100
AcDbEntity
  8
0
100
AcDbLine
 62
7
  6
CONTINUOUS
 10
15.0196627127
 20
4.8962333099
 11
15.1143148015
 21
4.9509287411
  0
LINE
  5
7EA
100
AcDbEntity
  8
0
100
AcDbLine
 62
7
  6
CONTINUOUS
 10
15.1477214211
 20
4.9702330109
 11
15.24237351
 21
5.0249284421
  0
LINE
  5
7EB
100
AcDbEntity
  8
0
100
AcDbLine
 62
7
  6
CONTINUOUS
 10
15.2757801295
 20
5.044232712
 11
15.3704322184
 21
5.0989281431
  0
LINE
  5
7EC
100
AcDbEntity
  8
0
100
AcDbLine
 62
7
  6
CONTINUOUS
 10
15.4038388379
 20
5.118232413
 11
15.4984909268
 21
5.1729278442
  0
LINE
  5
7ED
100
AcDbEntity
  8
0
100
AcDbLine
 62
7
  6
CONTINUOUS
 10
15.5318975463
 20
5.192232114
 11
15.6265496352
 21
5.2469275452
  0
LINE
  5
7EE
100
AcDbEntity
  8
0
100
AcDbLine
 62
7
  6
CONTINUOUS
 10
15.6599562547
 20
5.266231815
 11
15.7546083436
 21
5.3209272462
  0
LINE
  5
7EF
100
AcDbEntity
  8
0
100
AcDbLine
 62
7
  6
CONTINUOUS
 10
15.7546083436
 20
5.2823695648
 11
15.6599562547
 21
5.2276741336
  0
LINE
  5
7F0
100
AcDbEntity
  8
0
100
AcDbLine
 62
7
  6
CONTINUOUS
 10
15.6265496352
 20
5.2083698638
 11
15.5318975463
 21
5.1536744326
  0
LINE
  5
7F1
100
AcDbEntity
  8
0
100
AcDbLine
 62
7
  6
CONTINUOUS
 10
15.4984909268
 20
5.1343701627
 11
15.4038388379
 21
5.0796747316
  0
LINE
  5
7F2
100
AcDbEntity
  8
0
100
AcDbLine
 62
7
  6
CONTINUOUS
 10
15.3704322184
 20
5.0603704617
 11
15.2757801295
 21
5.0056750305
  0
LINE
  5
7F3
100
AcDbEntity
  8
0
100
AcDbLine
 62
7
  6
CONTINUOUS
 10
15.24237351
 20
4.9863707607
 11
15.1477214211
 21
4.9316753295
  0
LINE
  5
7F4
100
AcDbEntity
  8
0
100
AcDbLine
 62
7
  6
CONTINUOUS
 10
15.1143148015
 20
4.9123710597
 11
15.0196627127
 21
4.8576756285
  0
LINE
  5
7F5
100
AcDbEntity
  8
0
100
AcDbLine
 62
7
  6
CONTINUOUS
 10
15.7406889187
 20
5.1811662465
 11
15.6599562547
 21
5.1345142611
  0
LINE
  5
7F6
100
AcDbEntity
  8
0
100
AcDbLine
 62
7
  6
CONTINUOUS
 10
15.6126302103
 20
5.1071665455
 11
15.5318975463
 21
5.0605145601
  0
LINE
  5
7F7
100
AcDbEntity
  8
0
100
AcDbLine
 62
7
  6
CONTINUOUS
 10
15.4845715019
 20
5.0331668445
 11
15.4038388379
 21
4.9865148591
  0
LINE
  5
7F8
100
AcDbEntity
  8
0
100
AcDbLine
 62
7
  6
CONTINUOUS
 10
15.3565127935
 20
4.9591671435
 11
15.2757801295
 21
4.912515158
  0
LINE
  5
7F9
100
AcDbEntity
  8
0
100
AcDbLine
 62
7
  6
CONTINUOUS
 10
15.2284540851
 20
4.8851674424
 11
15.1477214211
 21
4.838515457
  0
LINE
  5
7FA
100
AcDbEntity
  8
0
100
AcDbLine
 62
7
  6
CONTINUOUS
 10
15.1003953767
 20
4.8111677414
 11
15.0196627127
 21
4.764515756
  0
LINE
  5
7FB
100
AcDbEntity
  8
0
100
AcDbLine
 62
7
  6
CONTINUOUS
 10
15.0196627127
 20
4.7484288645
 11
15.1143148015
 21
4.8031242957
  0
LINE
  5
7FC
100
AcDbEntity
  8
0
100
AcDbLine
 62
7
  6
CONTINUOUS
 10
15.1477214211
 20
4.8224285655
 11
15.24237351
 21
4.8771239967
  0
LINE
  5
7FD
100
AcDbEntity
  8
0
100
AcDbLine
 62
7
  6
CONTINUOUS
 10
15.2757801295
 20
4.8964282665
 11
15.3704322184
 21
4.9511236977
  0
LINE
  5
7FE
100
AcDbEntity
  8
0
100
AcDbLine
 62
7
  6
CONTINUOUS
 10
15.4038388379
 20
4.9704279675
 11
15.4984909268
 21
5.0251233987
  0
LINE
  5
7FF
100
AcDbEntity
  8
0
100
AcDbLine
 62
7
  6
CONTINUOUS
 10
15.5318975463
 20
5.0444276685
 11
15.6265496352
 21
5.0991230997
  0
LINE
  5
800
100
AcDbEntity
  8
0
100
AcDbLine
 62
7
  6
CONTINUOUS
 10
15.6599562547
 20
5.1184273696
 11
15.7546083436
 21
5.1731228008
  0
LINE
  5
801
100
AcDbEntity
  8
0
100
AcDbLine
 62
7
  6
CONTINUOUS
 10
15.7546083436
 20
5.1345651193
 11
15.6599562547
 21
5.0798696881
  0
LINE
  5
802
100
AcDbEntity
  8
0
100
AcDbLine
 62
7
  6
CONTINUOUS
 10
15.6265496352
 20
5.0605654183
 11
15.5318975463
 21
5.0058699871
  0
LINE
  5
803
100
AcDbEntity
  8
0
100
AcDbLine
 62
7
  6
CONTINUOUS
 10
15.4984909268
 20
4.9865657173
 11
15.4038388379
 21
4.9318702861
  0
LINE
  5
804
100
AcDbEntity
  8
0
100
AcDbLine
 62
7
  6
CONTINUOUS
 10
15.3704322184
 20
4.9125660163
 11
15.2757801295
 21
4.8578705851
  0
LINE
  5
805
100
AcDbEntity
  8
0
100
AcDbLine
 62
7
  6
CONTINUOUS
 10
15.24237351
 20
4.8385663153
 11
15.1477214211
 21
4.7838708841
  0
LINE
  5
806
100
AcDbEntity
  8
0
100
AcDbLine
 62
7
  6
CONTINUOUS
 10
15.1143148015
 20
4.7645666142
 11
15.0196627127
 21
4.709871183
  0
LINE
  5
807
100
AcDbEntity
  8
0
100
AcDbLine
 62
7
  6
CONTINUOUS
 10
15.7406889187
 20
5.0333618011
 11
15.6599562547
 21
4.9867098156
  0
LINE
  5
808
100
AcDbEntity
  8
0
100
AcDbLine
 62
7
  6
CONTINUOUS
 10
15.6126302103
 20
4.9593621001
 11
15.5318975463
 21
4.9127101146
  0
LINE
  5
809
100
AcDbEntity
  8
0
100
AcDbLine
 62
7
  6
CONTINUOUS
 10
15.4845715019
 20
4.885362399
 11
15.4038388379
 21
4.8387104136
  0
LINE
  5
80A
100
AcDbEntity
  8
0
100
AcDbLine
 62
7
  6
CONTINUOUS
 10
15.3565127935
 20
4.811362698
 11
15.2757801295
 21
4.7647107126
  0
LINE
  5
80B
100
AcDbEntity
  8
0
100
AcDbLine
 62
7
  6
CONTINUOUS
 10
15.2284540851
 20
4.737362997
 11
15.1477214211
 21
4.6907110116
  0
LINE
  5
80C
100
AcDbEntity
  8
0
100
AcDbLine
 62
7
  6
CONTINUOUS
 10
15.1003953767
 20
4.663363296
 11
15.0196627127
 21
4.6167113105
  0
LINE
  5
80D
100
AcDbEntity
  8
0
100
AcDbLine
 62
7
  6
CONTINUOUS
 10
15.0196627127
 20
4.600624419
 11
15.1143148015
 21
4.6553198502
  0
LINE
  5
80E
100
AcDbEntity
  8
0
100
AcDbLine
 62
7
  6
CONTINUOUS
 10
15.1477214211
 20
4.67462412
 11
15.24237351
 21
4.7293195512
  0
LINE
  5
80F
100
AcDbEntity
  8
0
100
AcDbLine
 62
7
  6
CONTINUOUS
 10
15.2757801295
 20
4.7486238211
 11
15.3704322184
 21
4.8033192523
  0
LINE
  5
810
100
AcDbEntity
  8
0
100
AcDbLine
 62
7
  6
CONTINUOUS
 10
15.4038388379
 20
4.8226235221
 11
15.4984909268
 21
4.8773189533
  0
LINE
  5
811
100
AcDbEntity
  8
0
100
AcDbLine
 62
7
  6
CONTINUOUS
 10
15.5318975463
 20
4.8966232231
 11
15.6265496352
 21
4.9513186543
  0
LINE
  5
812
100
AcDbEntity
  8
0
100
AcDbLine
 62
7
  6
CONTINUOUS
 10
15.6599562547
 20
4.9706229241
 11
15.7546083436
 21
5.0253183553
  0
LINE
  5
813
100
AcDbEntity
  8
0
100
AcDbLine
 62
7
  6
CONTINUOUS
 10
13.0904304318
 20
9.4164448712
 11
12.8816390594
 21
9.4969323062
  0
LINE
  5
814
100
AcDbEntity
  8
0
100
AcDbLine
 62
7
  6
CONTINUOUS
 10
15.7546083436
 20
4.9867606739
 11
15.6599562547
 21
4.9320652427
  0
LINE
  5
815
100
AcDbEntity
  8
0
100
AcDbLine
 62
7
  6
CONTINUOUS
 10
15.6265496352
 20
4.9127609729
 11
15.5318975463
 21
4.8580655417
  0
LINE
  5
816
100
AcDbEntity
  8
0
100
AcDbLine
 62
7
  6
CONTINUOUS
 10
15.4984909268
 20
4.8387612718
 11
15.4038388379
 21
4.7840658407
  0
LINE
  5
817
100
AcDbEntity
  8
0
100
AcDbLine
 62
7
  6
CONTINUOUS
 10
15.3704322184
 20
4.7647615708
 11
15.2757801295
 21
4.7100661396
  0
LINE
  5
818
100
AcDbEntity
  8
0
100
AcDbLine
 62
7
  6
CONTINUOUS
 10
15.24237351
 20
4.6907618698
 11
15.1477214211
 21
4.6360664386
  0
LINE
  5
819
100
AcDbEntity
  8
0
100
AcDbLine
 62
7
  6
CONTINUOUS
 10
15.1143148015
 20
4.6167621688
 11
15.0196627127
 21
4.5620667376
  0
LINE
  5
81A
100
AcDbEntity
  8
0
100
AcDbLine
 62
7
  6
CONTINUOUS
 10
15.7406889187
 20
4.8855573556
 11
15.6599562547
 21
4.8389053702
  0
LINE
  5
81B
100
AcDbEntity
  8
0
100
AcDbLine
 62
7
  6
CONTINUOUS
 10
15.6126302103
 20
4.8115576546
 11
15.5318975463
 21
4.7649056692
  0
LINE
  5
81C
100
AcDbEntity
  8
0
100
AcDbLine
 62
7
  6
CONTINUOUS
 10
15.4845715019
 20
4.7375579536
 11
15.4038388379
 21
4.6909059682
  0
LINE
  5
81D
100
AcDbEntity
  8
0
100
AcDbLine
 62
7
  6
CONTINUOUS
 10
15.3565127935
 20
4.6635582526
 11
15.2757801295
 21
4.6169062671
  0
LINE
  5
81E
100
AcDbEntity
  8
0
100
AcDbLine
 62
7
  6
CONTINUOUS
 10
15.2284540851
 20
4.5895585515
 11
15.1477214211
 21
4.5429065661
  0
LINE
  5
81F
100
AcDbEntity
  8
0
100
AcDbLine
 62
7
  6
CONTINUOUS
 10
15.1003953767
 20
4.5155588505
 11
15.0196627127
 21
4.4689068651
  0
LINE
  5
820
100
AcDbEntity
  8
0
100
AcDbLine
 62
7
  6
CONTINUOUS
 10
15.7546083436
 20
4.8775139099
 11
15.6599562547
 21
4.8228184787
  0
LINE
  5
821
100
AcDbEntity
  8
0
100
AcDbLine
 62
7
  6
CONTINUOUS
 10
15.6265496352
 20
4.8035142088
 11
15.5318975463
 21
4.7488187777
  0
LINE
  5
822
100
AcDbEntity
  8
0
100
AcDbLine
 62
7
  6
CONTINUOUS
 10
15.4984909268
 20
4.7295145078
 11
15.4038388379
 21
4.6748190766
  0
LINE
  5
823
100
AcDbEntity
  8
0
100
AcDbLine
 62
7
  6
CONTINUOUS
 10
15.3704322184
 20
4.6555148068
 11
15.2757801295
 21
4.6008193756
  0
LINE
  5
824
100
AcDbEntity
  8
0
100
AcDbLine
 62
7
  6
CONTINUOUS
 10
15.24237351
 20
4.5815151058
 11
15.1477214211
 21
4.5268196746
  0
LINE
  5
825
100
AcDbEntity
  8
0
100
AcDbLine
 62
7
  6
CONTINUOUS
 10
15.1143148015
 20
4.5075154048
 11
15.0196627127
 21
4.4528199736
  0
LINE
  5
826
100
AcDbEntity
  8
0
100
AcDbLine
 62
7
  6
CONTINUOUS
 10
15.0196627127
 20
4.4142622922
 11
15.1143148015
 21
4.4689577233
  0
LINE
  5
827
100
AcDbEntity
  8
0
100
AcDbLine
 62
7
  6
CONTINUOUS
 10
15.1477214211
 20
4.4882619932
 11
15.24237351
 21
4.5429574244
  0
LINE
  5
828
100
AcDbEntity
  8
0
100
AcDbLine
 62
7
  6
CONTINUOUS
 10
15.2757801295
 20
4.5622616942
 11
15.3704322184
 21
4.6169571254
  0
LINE
  5
829
100
AcDbEntity
  8
0
100
AcDbLine
 62
7
  6
CONTINUOUS
 10
15.4038388379
 20
4.6362613952
 11
15.4984909268
 21
4.6909568264
  0
LINE
  5
82A
100
AcDbEntity
  8
0
100
AcDbLine
 62
7
  6
CONTINUOUS
 10
15.5318975463
 20
4.7102610962
 11
15.6265496352
 21
4.7649565274
  0
LINE
  5
82B
100
AcDbEntity
  8
0
100
AcDbLine
 62
7
  6
CONTINUOUS
 10
15.6599562547
 20
4.7842607973
 11
15.7546083436
 21
4.8389562284
  0
LINE
  5
82C
100
AcDbEntity
  8
0
100
AcDbLine
 62
7
  6
CONTINUOUS
 10
15.7406889187
 20
4.7377529102
 11
15.6599562547
 21
4.6911009248
  0
LINE
  5
82D
100
AcDbEntity
  8
0
100
AcDbLine
 62
7
  6
CONTINUOUS
 10
15.6126302103
 20
4.6637532092
 11
15.5318975463
 21
4.6171012237
  0
LINE
  5
82E
100
AcDbEntity
  8
0
100
AcDbLine
 62
7
  6
CONTINUOUS
 10
15.4845715019
 20
4.5897535081
 11
15.4038388379
 21
4.5431015227
  0
LINE
  5
82F
100
AcDbEntity
  8
0
100
AcDbLine
 62
7
  6
CONTINUOUS
 10
15.3565127935
 20
4.5157538071
 11
15.2757801295
 21
4.4691018217
  0
LINE
  5
830
100
AcDbEntity
  8
0
100
AcDbLine
 62
7
  6
CONTINUOUS
 10
15.2284540851
 20
4.4417541061
 11
15.1477214211
 21
4.3951021207
  0
LINE
  5
831
100
AcDbEntity
  8
0
100
AcDbLine
 62
7
  6
CONTINUOUS
 10
15.1003953767
 20
4.3677544051
 11
15.0196627127
 21
4.3211024197
  0
LINE
  5
832
100
AcDbEntity
  8
0
100
AcDbLine
 62
7
  6
CONTINUOUS
 10
15.7546083436
 20
4.7297094644
 11
15.6599562547
 21
4.6750140332
  0
LINE
  5
833
100
AcDbEntity
  8
0
100
AcDbLine
 62
7
  6
CONTINUOUS
 10
15.6265496352
 20
4.6557097634
 11
15.5318975463
 21
4.6010143322
  0
LINE
  5
834
100
AcDbEntity
  8
0
100
AcDbLine
 62
7
  6
CONTINUOUS
 10
15.4984909268
 20
4.5817100624
 11
15.4038388379
 21
4.5270146312
  0
LINE
  5
835
100
AcDbEntity
  8
0
100
AcDbLine
 62
7
  6
CONTINUOUS
 10
15.3704322184
 20
4.5077103614
 11
15.2757801295
 21
4.4530149302
  0
LINE
  5
836
100
AcDbEntity
  8
0
100
AcDbLine
 62
7
  6
CONTINUOUS
 10
15.24237351
 20
4.4337106603
 11
15.1477214211
 21
4.3790152291
  0
LINE
  5
837
100
AcDbEntity
  8
0
100
AcDbLine
 62
7
  6
CONTINUOUS
 10
15.1143148015
 20
4.3597109593
 11
15.0196627127
 21
4.3050155281
  0
LINE
  5
838
100
AcDbEntity
  8
0
100
AcDbLine
 62
7
  6
CONTINUOUS
 10
15.0196627127
 20
4.2664578467
 11
15.1143148015
 21
4.3211532779
  0
LINE
  5
839
100
AcDbEntity
  8
0
100
AcDbLine
 62
7
  6
CONTINUOUS
 10
15.1477214211
 20
4.3404575477
 11
15.24237351
 21
4.3951529789
  0
LINE
  5
83A
100
AcDbEntity
  8
0
100
AcDbLine
 62
7
  6
CONTINUOUS
 10
15.2757801295
 20
4.4144572487
 11
15.3704322184
 21
4.4691526799
  0
LINE
  5
83B
100
AcDbEntity
  8
0
100
AcDbLine
 62
7
  6
CONTINUOUS
 10
15.4038388379
 20
4.4884569498
 11
15.4984909268
 21
4.543152381
  0
LINE
  5
83C
100
AcDbEntity
  8
0
100
AcDbLine
 62
7
  6
CONTINUOUS
 10
15.5318975463
 20
4.5624566508
 11
15.6265496352
 21
4.617152082
  0
LINE
  5
83D
100
AcDbEntity
  8
0
100
AcDbLine
 62
7
  6
CONTINUOUS
 10
15.6599562547
 20
4.6364563518
 11
15.7546083436
 21
4.691151783
  0
LINE
  5
83E
100
AcDbEntity
  8
0
100
AcDbLine
 62
7
  6
CONTINUOUS
 10
15.7406889187
 20
4.5899484647
 11
15.6599562547
 21
4.5432964793
  0
LINE
  5
83F
100
AcDbEntity
  8
0
100
AcDbLine
 62
7
  6
CONTINUOUS
 10
15.6126302103
 20
4.5159487637
 11
15.5318975463
 21
4.4692967783
  0
LINE
  5
840
100
AcDbEntity
  8
0
100
AcDbLine
 62
7
  6
CONTINUOUS
 10
15.4845715019
 20
4.4419490627
 11
15.4038388379
 21
4.3952970773
  0
LINE
  5
841
100
AcDbEntity
  8
0
100
AcDbLine
 62
7
  6
CONTINUOUS
 10
15.3565127935
 20
4.3679493617
 11
15.2757801295
 21
4.3212973762
  0
LINE
  5
842
100
AcDbEntity
  8
0
100
AcDbLine
 62
7
  6
CONTINUOUS
 10
15.2284540851
 20
4.2939496607
 11
15.1477214211
 21
4.2472976752
  0
LINE
  5
843
100
AcDbEntity
  8
0
100
AcDbLine
 62
7
  6
CONTINUOUS
 10
15.1003953767
 20
4.2199499596
 11
15.0196627127
 21
4.1732979742
  0
LINE
  5
844
100
AcDbEntity
  8
0
100
AcDbLine
 62
7
  6
CONTINUOUS
 10
15.7546083436
 20
4.581905019
 11
15.6599562547
 21
4.5272095878
  0
LINE
  5
845
100
AcDbEntity
  8
0
100
AcDbLine
 62
7
  6
CONTINUOUS
 10
15.6265496352
 20
4.5079053179
 11
15.5318975463
 21
4.4532098868
  0
LINE
  5
846
100
AcDbEntity
  8
0
100
AcDbLine
 62
7
  6
CONTINUOUS
 10
15.4984909268
 20
4.4339056169
 11
15.4038388379
 21
4.3792101857
  0
LINE
  5
847
100
AcDbEntity
  8
0
100
AcDbLine
 62
7
  6
CONTINUOUS
 10
15.3704322184
 20
4.3599059159
 11
15.2757801295
 21
4.3052104847
  0
LINE
  5
848
100
AcDbEntity
  8
0
100
AcDbLine
 62
7
  6
CONTINUOUS
 10
15.24237351
 20
4.2859062149
 11
15.1477214211
 21
4.2312107837
  0
LINE
  5
849
100
AcDbEntity
  8
0
100
AcDbLine
 62
7
  6
CONTINUOUS
 10
15.1143148015
 20
4.2119065139
 11
15.0196627127
 21
4.1572110827
  0
LINE
  5
84A
100
AcDbEntity
  8
0
100
AcDbLine
 62
7
  6
CONTINUOUS
 10
15.0196627127
 20
4.1186534013
 11
15.1143148015
 21
4.1733488324
  0
LINE
  5
84B
100
AcDbEntity
  8
0
100
AcDbLine
 62
7
  6
CONTINUOUS
 10
15.1477214211
 20
4.1926531023
 11
15.24237351
 21
4.2473485335
  0
LINE
  5
84C
100
AcDbEntity
  8
0
100
AcDbLine
 62
7
  6
CONTINUOUS
 10
15.2757801295
 20
4.2666528033
 11
15.3704322184
 21
4.3213482345
  0
LINE
  5
84D
100
AcDbEntity
  8
0
100
AcDbLine
 62
7
  6
CONTINUOUS
 10
15.4038388379
 20
4.3406525043
 11
15.4984909268
 21
4.3953479355
  0
LINE
  5
84E
100
AcDbEntity
  8
0
100
AcDbLine
 62
7
  6
CONTINUOUS
 10
15.5318975463
 20
4.4146522053
 11
15.6265496352
 21
4.4693476365
  0
LINE
  5
84F
100
AcDbEntity
  8
0
100
AcDbLine
 62
7
  6
CONTINUOUS
 10
15.6599562547
 20
4.4886519064
 11
15.7546083436
 21
4.5433473375
  0
LINE
  5
850
100
AcDbEntity
  8
0
100
AcDbLine
 62
7
  6
CONTINUOUS
 10
15.7406889187
 20
4.4421440193
 11
15.6599562547
 21
4.3954920339
  0
LINE
  5
851
100
AcDbEntity
  8
0
100
AcDbLine
 62
7
  6
CONTINUOUS
 10
15.6126302103
 20
4.3681443183
 11
15.5318975463
 21
4.3214923328
  0
LINE
  5
852
100
AcDbEntity
  8
0
100
AcDbLine
 62
7
  6
CONTINUOUS
 10
15.4845715019
 20
4.2941446172
 11
15.4038388379
 21
4.2474926318
  0
LINE
  5
853
100
AcDbEntity
  8
0
100
AcDbLine
 62
7
  6
CONTINUOUS
 10
15.3565127935
 20
4.2201449162
 11
15.2757801295
 21
4.1734929308
  0
LINE
  5
854
100
AcDbEntity
  8
0
100
AcDbLine
 62
7
  6
CONTINUOUS
 10
15.2284540851
 20
4.1461452152
 11
15.1477214211
 21
4.0994932298
  0
LINE
  5
855
100
AcDbEntity
  8
0
100
AcDbLine
 62
7
  6
CONTINUOUS
 10
15.1003953767
 20
4.0721455142
 11
15.0196627127
 21
4.0254935288
  0
LINE
  5
856
100
AcDbEntity
  8
0
100
AcDbLine
 62
7
  6
CONTINUOUS
 10
15.7546083436
 20
4.4341005735
 11
15.6599562547
 21
4.3794051423
  0
LINE
  5
857
100
AcDbEntity
  8
0
100
AcDbLine
 62
7
  6
CONTINUOUS
 10
15.6265496352
 20
4.3601008725
 11
15.5318975463
 21
4.3054054413
  0
LINE
  5
858
100
AcDbEntity
  8
0
100
AcDbLine
 62
7
  6
CONTINUOUS
 10
15.4984909268
 20
4.2861011715
 11
15.4038388379
 21
4.2314057403
  0
LINE
  5
859
100
AcDbEntity
  8
0
100
AcDbLine
 62
7
  6
CONTINUOUS
 10
15.3704322184
 20
4.2121014705
 11
15.2757801295
 21
4.1574060393
  0
LINE
  5
85A
100
AcDbEntity
  8
0
100
AcDbLine
 62
7
  6
CONTINUOUS
 10
15.24237351
 20
4.1381017694
 11
15.1477214211
 21
4.0834063383
  0
LINE
  5
85B
100
AcDbEntity
  8
0
100
AcDbLine
 62
7
  6
CONTINUOUS
 10
15.1143148015
 20
4.0641020684
 11
15.0196627127
 21
4.0094066372
  0
LINE
  5
85C
100
AcDbEntity
  8
0
100
AcDbLine
 62
7
  6
CONTINUOUS
 10
15.8325571226
 20
4.402671135
 11
14.9417139337
 21
3.8878906061
  0
LINE
  5
85D
100
AcDbEntity
  8
0
100
AcDbLine
 62
7
  6
CONTINUOUS
 10
15.6237657502
 20
4.1694535897
 11
15.2896995544
 21
3.9764108914
  0
LINE
  5
85E
100
AcDbEntity
  8
0
100
AcDbLine
 62
7
  6
CONTINUOUS
 10
15.6237657502
 20
3.8738446988
 11
15.2896995544
 21
3.6808020005
  0
ARC
  5
85F
100
AcDbEntity
  8
0
100
AcDbCircle
 62
7
  6
CONTINUOUS
 10
6.8670428319
 20
-2.9071735784
 40
8.5947069116
100
AcDbArc
 50
73.6373982433
 51
106.3626017567
  0
ARC
  5
860
100
AcDbEntity
  8
0
100
AcDbCircle
 62
7
  6
CONTINUOUS
 10
6.8670428319
 20
-2.9071735784
 40
8.584864392
100
AcDbArc
 50
73.4811240402
 51
106.5188759598
  0
ARC
  5
861
100
AcDbEntity
  8
0
100
AcDbCircle
 62
7
  6
CONTINUOUS
 10
6.8670428319
 20
1.9572183726
 40
2.1850393701
100
AcDbArc
 50
73.398450401
 51
106.601549599
  0
ARC
  5
862
100
AcDbEntity
  8
0
100
AcDbCircle
 62
7
  6
CONTINUOUS
 10
7.457594013
 20
3.9379872503
 40
0.1181102362
100
AcDbArc
 50
0.0
 51
73.3984504005
  0
ARC
  5
863
100
AcDbEntity
  8
0
100
AcDbCircle
 62
7
  6
CONTINUOUS
 10
6.2764916508
 20
3.9379872503
 40
0.1181102362
100
AcDbArc
 50
106.6015495995
 51
180.0
  0
ARC
  5
864
100
AcDbEntity
  8
0
100
AcDbCircle
 62
7
  6
CONTINUOUS
 10
9.3572003122
 20
4.3056435694
 40
0.0688976378
100
AcDbArc
 50
0.0000462967
 51
89.9999999999
  0
ARC
  5
865
100
AcDbEntity
  8
0
100
AcDbCircle
 62
7
  6
CONTINUOUS
 10
9.3572003122
 20
4.1678482938
 40
0.0688976378
100
AcDbArc
 50
270.0000000001
 51
359.9999537033
  0
ARC
  5
866
100
AcDbEntity
  8
0
100
AcDbCircle
 62
7
  6
CONTINUOUS
 10
9.3837473705
 20
4.1711366175
 40
0.0423505805
100
AcDbArc
 50
356.4793788874
 51
0.011884025
  0
ARC
  5
867
100
AcDbEntity
  8
0
100
AcDbCircle
 62
7
  6
CONTINUOUS
 10
9.3848773653
 20
4.1710757937
 40
0.0412189841
100
AcDbArc
 50
355.4952717532
 51
356.467311365
  0
ARC
  5
868
100
AcDbEntity
  8
0
100
AcDbCircle
 62
7
  6
CONTINUOUS
 10
9.3894078338
 20
4.3031753918
 40
0.0366180946
100
AcDbArc
 50
11.9981949246
 51
37.3603253498
  0
ARC
  5
869
100
AcDbEntity
  8
0
100
AcDbCircle
 62
7
  6
CONTINUOUS
 10
6.92609795
 20
7.996896496
 40
0.4921259843
100
AcDbArc
 50
180.0
 51
253.7397952917
  0
ARC
  5
86A
100
AcDbEntity
  8
0
100
AcDbCircle
 62
7
  6
CONTINUOUS
 10
6.92609795
 20
7.996896496
 40
0.4724409449
100
AcDbArc
 50
180.0
 51
270.0
  0
ARC
  5
86B
100
AcDbEntity
  8
0
100
AcDbCircle
 62
7
  6
CONTINUOUS
 10
5.4398774776
 20
8.3518423621
 40
0.1777805118
100
AcDbArc
 50
213.8550261283
 51
326.1449738717
  0
CIRCLE
  5
86C
100
AcDbEntity
  8
0
100
AcDbCircle
 62
7
  6
CONTINUOUS
 10
9.0717672414
 20
8.2724870472
 40
0.1171259843
  0
CIRCLE
  5
86D
100
AcDbEntity
  8
0
100
AcDbCircle
 62
7
  6
CONTINUOUS
 10
9.0717672414
 20
8.0362665747
 40
0.1171259843
  0
CIRCLE
  5
86E
100
AcDbEntity
  8
0
100
AcDbCircle
 62
7
  6
CONTINUOUS
 10
9.0717672414
 20
7.8000461023
 40
0.1171259843
  0
CIRCLE
  5
86F
100
AcDbEntity
  8
0
100
AcDbCircle
 62
7
  6
CONTINUOUS
 10
4.6623184225
 20
7.7705185432
 40
0.1171259843
  0
CIRCLE
  5
870
100
AcDbEntity
  8
0
100
AcDbCircle
 62
7
  6
CONTINUOUS
 10
4.6623184225
 20
8.0067390157
 40
0.1171259843
  0
CIRCLE
  5
871
100
AcDbEntity
  8
0
100
AcDbCircle
 62
7
  6
CONTINUOUS
 10
4.6623184225
 20
8.2429594881
 40
0.1171259843
  0
CIRCLE
  5
872
100
AcDbEntity
  8
0
100
AcDbCircle
 62
7
  6
CONTINUOUS
 10
4.6623184225
 20
8.4791799605
 40
0.1171259843
  0
CIRCLE
  5
873
100
AcDbEntity
  8
0
100
AcDbCircle
 62
7
  6
CONTINUOUS
 10
9.0717672414
 20
8.2724870472
 40
0.094488189
  0
CIRCLE
  5
874
100
AcDbEntity
  8
0
100
AcDbCircle
 62
7
  6
CONTINUOUS
 10
9.0717672414
 20
8.0362665747
 40
0.094488189
  0
CIRCLE
  5
875
100
AcDbEntity
  8
0
100
AcDbCircle
 62
7
  6
CONTINUOUS
 10
9.0717672414
 20
7.8000461023
 40
0.094488189
  0
CIRCLE
  5
876
100
AcDbEntity
  8
0
100
AcDbCircle
 62
7
  6
CONTINUOUS
 10
4.6623184225
 20
7.7705185432
 40
0.094488189
  0
CIRCLE
  5
877
100
AcDbEntity
  8
0
100
AcDbCircle
 62
7
  6
CONTINUOUS
 10
4.6623184225
 20
8.0067390157
 40
0.094488189
  0
CIRCLE
  5
878
100
AcDbEntity
  8
0
100
AcDbCircle
 62
7
  6
CONTINUOUS
 10
4.6623184225
 20
8.2429594881
 40
0.094488189
  0
CIRCLE
  5
879
100
AcDbEntity
  8
0
100
AcDbCircle
 62
7
  6
CONTINUOUS
 10
4.6623184225
 20
8.4791799605
 40
0.094488189
  0
CIRCLE
  5
87A
100
AcDbEntity
  8
0
100
AcDbCircle
 62
7
  6
CONTINUOUS
 10
5.9615310209
 20
8.4890224802
 40
0.0738188976
  0
ARC
  5
87B
100
AcDbEntity
  8
0
100
AcDbCircle
 62
7
  6
CONTINUOUS
 10
9.3572003122
 20
8.3807547637
 40
0.0688976378
100
AcDbArc
 50
0.0000066921
 51
90.0000000001
  0
ARC
  5
87C
100
AcDbEntity
  8
0
100
AcDbCircle
 62
7
  6
CONTINUOUS
 10
9.3572003122
 20
8.2429594881
 40
0.0688976378
100
AcDbArc
 50
269.9999999999
 51
359.9999933079
  0
ARC
  5
87D
100
AcDbEntity
  8
0
100
AcDbCircle
 62
7
  6
CONTINUOUS
 10
7.9750314575
 20
-0.8598750937
 40
11.6043295991
100
AcDbArc
 50
47.3809889866
 51
47.5011834017
  0
ARC
  5
87E
100
AcDbEntity
  8
0
100
AcDbCircle
 62
7
  6
CONTINUOUS
 10
7.2576994386
 20
-1.2450656603
 40
11.5357419914
100
AcDbArc
 50
47.4869593371
 51
48.1139857484
  0
ARC
  5
87F
100
AcDbEntity
  8
0
100
AcDbCircle
 62
7
  6
CONTINUOUS
 10
7.7998987289
 20
-0.9101798652
 40
11.4745606172
100
AcDbArc
 50
47.4853077676
 51
48.2894620282
  0
ARC
  5
880
100
AcDbEntity
  8
0
100
AcDbCircle
 62
7
  6
CONTINUOUS
 10
7.3635231008
 20
-1.127371163
 40
11.3774681783
100
AcDbArc
 50
48.1150140336
 51
48.4494234103
  0
ARC
  5
881
100
AcDbEntity
  8
0
100
AcDbCircle
 62
7
  6
CONTINUOUS
 10
7.419527707
 20
-1.064218722
 40
11.293059967
100
AcDbArc
 50
48.4495471398
 51
48.6837663083
  0
ARC
  5
882
100
AcDbEntity
  8
0
100
AcDbCircle
 62
7
  6
CONTINUOUS
 10
7.4816182388
 20
-0.9935133361
 40
11.1989617014
100
AcDbArc
 50
48.6835312505
 51
49.08372885
  0
ARC
  5
883
100
AcDbEntity
  8
0
100
AcDbCircle
 62
7
  6
CONTINUOUS
 10
10.3438789896
 20
3.9694408328
 40
5.4053971932
100
AcDbArc
 50
73.8805039366
 51
74.1025913203
  0
ARC
  5
884
100
AcDbEntity
  8
0
100
AcDbCircle
 62
7
  6
CONTINUOUS
 10
10.3556365153
 20
4.0108104414
 40
5.3623892342
100
AcDbArc
 50
74.1309666865
 51
74.4550479927
  0
ARC
  5
885
100
AcDbEntity
  8
0
100
AcDbCircle
 62
7
  6
CONTINUOUS
 10
10.2835596555
 20
4.0463963888
 40
5.2533639161
100
AcDbArc
 50
72.667482298
 51
76.7268738407
  0
ARC
  5
886
100
AcDbEntity
  8
0
100
AcDbCircle
 62
7
  6
CONTINUOUS
 10
11.0185003914
 20
4.378170063
 40
5.3818419893
100
AcDbArc
 50
73.8799399434
 51
74.4325973001
  0
ARC
  5
887
100
AcDbEntity
  8
0
100
AcDbCircle
 62
7
  6
CONTINUOUS
 10
10.3993496305
 20
4.1714434453
 40
5.1959139902
100
AcDbArc
 50
74.7563778973
 51
76.5266702137
  0
ARC
  5
888
100
AcDbEntity
  8
0
100
AcDbCircle
 62
7
  6
CONTINUOUS
 10
10.3237247193
 20
4.1780955003
 40
5.1351413048
100
AcDbArc
 50
75.1051961547
 51
76.5321241707
  0
ARC
  5
889
100
AcDbEntity
  8
0
100
AcDbCircle
 62
7
  6
CONTINUOUS
 10
12.8138403547
 20
7.3169558611
 40
0.10619411
100
AcDbArc
 50
177.2770956535
 51
180.016307998
  0
ARC
  5
88A
100
AcDbEntity
  8
0
100
AcDbCircle
 62
7
  6
CONTINUOUS
 10
12.7521599196
 20
7.3359577751
 40
0.040336848
100
AcDbArc
 50
108.7995259325
 51
113.7666388558
  0
ARC
  5
88B
100
AcDbEntity
  8
0
100
AcDbCircle
 62
7
  6
CONTINUOUS
 10
12.751814318
 20
7.3367538135
 40
0.0394690365
100
AcDbArc
 50
113.773201371
 51
120.0334943104
  0
ARC
  5
88C
100
AcDbEntity
  8
0
100
AcDbCircle
 62
7
  6
CONTINUOUS
 10
13.4985296534
 20
8.411199368
 40
0.4818266283
100
AcDbArc
 50
120.0209844604
 51
120.5883550031
  0
ARC
  5
88D
100
AcDbEntity
  8
0
100
AcDbCircle
 62
7
  6
CONTINUOUS
 10
13.5017575964
 20
8.4224489023
 40
0.4604586389
100
AcDbArc
 50
120.0208823585
 51
120.6293278784
  0
ARC
  5
88E
100
AcDbEntity
  8
0
100
AcDbCircle
 62
7
  6
CONTINUOUS
 10
13.4963063474
 20
8.4316344441
 40
0.4497773388
100
AcDbArc
 50
120.6279482174
 51
121.5831028845
  0
ARC
  5
88F
100
AcDbEntity
  8
0
100
AcDbCircle
 62
7
  6
CONTINUOUS
 10
13.3832007038
 20
8.6926094615
 40
0.290475017
100
AcDbArc
 50
222.5940041987
 51
223.9137588113
  0
ARC
  5
890
100
AcDbEntity
  8
0
100
AcDbCircle
 62
7
  6
CONTINUOUS
 10
13.389987663
 20
8.6959547
 40
0.2758568837
100
AcDbArc
 50
222.0857067109
 51
223.3104352276
  0
ARC
  5
891
100
AcDbEntity
  8
0
100
AcDbCircle
 62
7
  6
CONTINUOUS
 10
13.3828927157
 20
8.6815280764
 40
0.2663056587
100
AcDbArc
 50
220.814201385
 51
222.0557979413
  0
ARC
  5
892
100
AcDbEntity
  8
0
100
AcDbCircle
 62
7
  6
CONTINUOUS
 10
11.8446419098
 20
9.0836395971
 40
0.1617349452
100
AcDbArc
 50
83.0090985314
 51
96.990901469
  0
ARC
  5
893
100
AcDbEntity
  8
0
100
AcDbCircle
 62
7
  6
CONTINUOUS
 10
12.0116750077
 20
9.1801609462
 40
0.1617349452
100
AcDbArc
 50
83.0090985314
 51
96.9909014689
  0
ARC
  5
894
100
AcDbEntity
  8
0
100
AcDbCircle
 62
7
  6
CONTINUOUS
 10
12.1787081056
 20
9.2766822954
 40
0.1617349452
100
AcDbArc
 50
83.0090985314
 51
96.9909014689
  0
ARC
  5
895
100
AcDbEntity
  8
0
100
AcDbCircle
 62
7
  6
CONTINUOUS
 10
12.3457412036
 20
9.3732036445
 40
0.1617349452
100
AcDbArc
 50
83.0090985314
 51
96.9909014689
  0
ARC
  5
896
100
AcDbEntity
  8
0
100
AcDbCircle
 62
7
  6
CONTINUOUS
 10
13.2672236877
 20
8.6322661251
 40
0.1538991273
100
AcDbArc
 50
180.0079303672
 51
182.9621046113
  0
ARC
  5
897
100
AcDbEntity
  8
0
100
AcDbCircle
 62
7
  6
CONTINUOUS
 10
13.2808669582
 20
8.6326268586
 40
0.14785895
100
AcDbArc
 50
181.5601833213
 51
182.9967259251
  0
ARC
  5
898
100
AcDbEntity
  8
0
100
AcDbCircle
 62
7
  6
CONTINUOUS
 10
13.2804964627
 20
8.6326155374
 40
0.1474882835
100
AcDbArc
 50
179.9866936689
 51
181.5597056995
  0
ARC
  5
899
100
AcDbEntity
  8
0
100
AcDbCircle
 62
7
  6
CONTINUOUS
 10
12.3179712118
 20
9.4828685414
 40
0.0785823187
100
AcDbArc
 50
122.0441163421
 51
126.2204791434
  0
ARC
  5
89A
100
AcDbEntity
  8
0
100
AcDbCircle
 62
7
  6
CONTINUOUS
 10
12.1509381139
 20
9.3863471922
 40
0.0785823187
100
AcDbArc
 50
122.0441163421
 51
126.2204791434
  0
ARC
  5
89B
100
AcDbEntity
  8
0
100
AcDbCircle
 62
7
  6
CONTINUOUS
 10
11.9839050159
 20
9.2898258431
 40
0.0785823187
100
AcDbArc
 50
122.0441163421
 51
126.2204791434
  0
ARC
  5
89C
100
AcDbEntity
  8
0
100
AcDbCircle
 62
7
  6
CONTINUOUS
 10
11.816871918
 20
9.1933044939
 40
0.0785823187
100
AcDbArc
 50
122.0441163421
 51
126.2204791435
  0
ARC
  5
89D
100
AcDbEntity
  8
0
100
AcDbCircle
 62
7
  6
CONTINUOUS
 10
12.3142891971
 20
9.4879676294
 40
0.0722929656
100
AcDbArc
 50
126.2542089197
 51
128.0117264708
  0
ARC
  5
89E
100
AcDbEntity
  8
0
100
AcDbCircle
 62
7
  6
CONTINUOUS
 10
11.8131899034
 20
9.1984035819
 40
0.0722929656
100
AcDbArc
 50
126.2542089198
 51
128.0117264708
  0
ARC
  5
89F
100
AcDbEntity
  8
0
100
AcDbCircle
 62
7
  6
CONTINUOUS
 10
12.1472560992
 20
9.3914462802
 40
0.0722929656
100
AcDbArc
 50
126.2542089195
 51
128.011726471
  0
ARC
  5
8A0
100
AcDbEntity
  8
0
100
AcDbCircle
 62
7
  6
CONTINUOUS
 10
11.9802230013
 20
9.2949249311
 40
0.0722929656
100
AcDbArc
 50
126.2542089195
 51
128.0117264711
  0
ARC
  5
8A1
100
AcDbEntity
  8
0
100
AcDbCircle
 62
7
  6
CONTINUOUS
 10
15.3175009525
 20
7.5563951136
 40
0.2018252891
100
AcDbArc
 50
90.0009687724
 51
92.5447740213
  0
ARC
  5
8A2
100
AcDbEntity
  8
0
100
AcDbCircle
 62
7
  6
CONTINUOUS
 10
15.4788544386
 20
6.6270197566
 40
0.1876158756
100
AcDbArc
 50
322.3964846141
 51
333.939636362
  0
ARC
  5
8A3
100
AcDbEntity
  8
0
100
AcDbCircle
 62
7
  6
CONTINUOUS
 10
15.4828786164
 20
6.6251546223
 40
0.1831814657
100
AcDbArc
 50
333.9107404383
 51
339.2023983657
  0
ARC
  5
8A4
100
AcDbEntity
  8
0
100
AcDbCircle
 62
7
  6
CONTINUOUS
 10
15.4844825946
 20
6.6228385277
 40
0.1806056377
100
AcDbArc
 50
320.7858993671
 51
322.3578832125
  0
ARC
  5
8A5
100
AcDbEntity
  8
0
100
AcDbCircle
 62
7
  6
CONTINUOUS
 10
15.4867599015
 20
6.6209779349
 40
0.1776649016
100
AcDbArc
 50
319.0564705946
 51
320.7864823389
  0
ARC
  5
8A6
100
AcDbEntity
  8
0
100
AcDbCircle
 62
7
  6
CONTINUOUS
 10
15.4881170106
 20
6.623102153
 40
0.1775556463
100
AcDbArc
 50
339.2213553131
 51
340.6308304702
  0
ARC
  5
8A7
100
AcDbEntity
  8
0
100
AcDbCircle
 62
7
  6
CONTINUOUS
 10
15.317566658
 20
7.7987814782
 40
0.1628415524
100
AcDbArc
 50
269.9472686602
 51
272.3158849306
  0
ARC
  5
8A8
100
AcDbEntity
  8
0
100
AcDbCircle
 62
7
  6
CONTINUOUS
 10
14.9834722082
 20
7.2939729148
 40
0.1617349452
100
AcDbArc
 50
83.0090985312
 51
96.9909014688
  0
ARC
  5
8A9
100
AcDbEntity
  8
0
100
AcDbCircle
 62
7
  6
CONTINUOUS
 10
15.1505053061
 20
7.3904942639
 40
0.1617349452
100
AcDbArc
 50
83.0090985312
 51
96.9909014687
  0
ARC
  5
8AA
100
AcDbEntity
  8
0
100
AcDbCircle
 62
7
  6
CONTINUOUS
 10
15.317538404
 20
7.4870156131
 40
0.1617349452
100
AcDbArc
 50
83.0090985312
 51
96.9909014687
  0
ARC
  5
8AB
100
AcDbEntity
  8
0
100
AcDbCircle
 62
7
  6
CONTINUOUS
 10
15.5210063095
 20
6.5746842669
 40
0.1195567337
100
AcDbArc
 50
288.9789469565
 51
293.5607479555
  0
ARC
  5
8AC
100
AcDbEntity
  8
0
100
AcDbCircle
 62
7
  6
CONTINUOUS
 10
15.2897684122
 20
7.59668051
 40
0.0785823187
100
AcDbArc
 50
122.0441163421
 51
126.2204791433
  0
ARC
  5
8AD
100
AcDbEntity
  8
0
100
AcDbCircle
 62
7
  6
CONTINUOUS
 10
15.1227353143
 20
7.5001591608
 40
0.0785823187
100
AcDbArc
 50
122.0441163421
 51
126.2204791433
  0
ARC
  5
8AE
100
AcDbEntity
  8
0
100
AcDbCircle
 62
7
  6
CONTINUOUS
 10
14.9557022164
 20
7.4036378116
 40
0.0785823187
100
AcDbArc
 50
122.0441163421
 51
126.2204791434
  0
ARC
  5
8AF
100
AcDbEntity
  8
0
100
AcDbCircle
 62
7
  6
CONTINUOUS
 10
15.2860863976
 20
7.6017795979
 40
0.0722929656
100
AcDbArc
 50
126.2542089197
 51
128.011726471
  0
ARC
  5
8B0
100
AcDbEntity
  8
0
100
AcDbCircle
 62
7
  6
CONTINUOUS
 10
15.1190532997
 20
7.5052582488
 40
0.0722929656
100
AcDbArc
 50
126.2542089198
 51
128.0117264708
  0
ARC
  5
8B1
100
AcDbEntity
  8
0
100
AcDbCircle
 62
7
  6
CONTINUOUS
 10
14.9520202017
 20
7.4087368996
 40
0.0722929656
100
AcDbArc
 50
126.2542089198
 51
128.0117264709
  0
SPLINE
  5
8B2
100
AcDbEntity
  8
0
100
AcDbSpline
 62
7
  6
CONTINUOUS
 70
0
 71
3
 72
9
 73
5
 74
0
 42
0.0000001
 43
0.0000001
 44
0.0000000001
 40
0.0
 40
0.0
 40
0.0
 40
0.0
 40
0.4898140293
 40
1.0
 40
1.0
 40
1.0
 40
1.0
 10
9.4185131773
 20
4.3253961889
 30
0.0
 10
9.4197966879
 20
4.3186866468
 30
0.0
 10
9.4208857102
 20
4.304691856
 30
0.0
 10
9.4197429961
 20
4.2907226614
 30
0.0
 10
9.4185131773
 20
4.2837144264
 30
0.0
  0
SPLINE
  5
8B3
100
AcDbEntity
  8
0
100
AcDbSpline
 62
7
  6
CONTINUOUS
 70
0
 71
3
 72
9
 73
5
 74
0
 42
0.0000001
 43
0.0000001
 44
0.0000000001
 40
0.0
 40
0.0
 40
0.0
 40
0.0
 40
0.5209815559
 40
1.0
 40
1.0
 40
1.0
 40
1.0
 10
9.4185131773
 20
4.2837144264
 30
0.0
 10
9.4209226131
 20
4.2796430443
 30
0.0
 10
9.4247040975
 20
4.2712704719
 30
0.0
 10
9.4260979314
 20
4.2621541573
 30
0.0
 10
9.42609795
 20
4.2578043021
 30
0.0
  0
SPLINE
  5
8B4
100
AcDbEntity
  8
0
100
AcDbSpline
 62
7
  6
CONTINUOUS
 70
0
 71
3
 72
9
 73
5
 74
0
 42
0.0000001
 43
0.0000001
 44
0.0000000001
 40
0.0
 40
0.0
 40
0.0
 40
0.0
 40
0.5101851392
 40
1.0
 40
1.0
 40
1.0
 40
1.0
 10
9.4185131773
 20
4.1897774368
 30
0.0
 10
9.419742994
 20
4.1827692141
 30
0.0
 10
9.4208856524
 20
4.1688000194
 30
0.0
 10
9.4197966899
 20
4.154805227
 30
0.0
 10
9.4185131773
 20
4.1480956743
 30
0.0
  0
SPLINE
  5
8B5
100
AcDbEntity
  8
0
100
AcDbSpline
 62
7
  6
CONTINUOUS
 70
0
 71
3
 72
9
 73
5
 74
0
 42
0.0000001
 43
0.0000001
 44
0.0000000001
 40
0.0
 40
0.0
 40
0.0
 40
0.0
 40
0.4790210303
 40
1.0
 40
1.0
 40
1.0
 40
1.0
 10
9.42609795
 20
4.2156875611
 30
0.0
 10
9.4260979314
 20
4.2113376825
 30
0.0
 10
9.4247040884
 20
4.2022213677
 30
0.0
 10
9.4209226011
 20
4.1938487987
 30
0.0
 10
9.4185131773
 20
4.1897774368
 30
0.0
  0
SPLINE
  5
8B6
100
AcDbEntity
  8
0
100
AcDbSpline
 62
7
  6
CONTINUOUS
 70
0
 71
3
 72
9
 73
5
 74
0
 42
0.0000001
 43
0.0000001
 44
0.0000000001
 40
0.0
 40
0.0
 40
0.0
 40
0.0
 40
0.499975643
 40
1.0
 40
1.0
 40
1.0
 40
1.0
 10
9.4185131773
 20
4.1480956743
 30
0.0
 10
9.4206670941
 20
4.1509230821
 30
0.0
 10
9.4241853988
 20
4.1572365732
 30
0.0
 10
9.425689768
 20
4.1642946612
 30
0.0
 10
9.425969018
 20
4.1678383985
 30
0.0
  0
SPLINE
  5
8B7
100
AcDbEntity
  8
0
100
AcDbSpline
 62
7
  6
CONTINUOUS
 70
0
 71
3
 72
8
 73
4
 74
0
 42
0.0000001
 43
0.0000001
 44
0.0000000001
 40
0.0
 40
0.0
 40
0.0
 40
0.0
 40
1.0
 40
1.0
 40
1.0
 40
1.0
 10
9.42609795
 20
4.3023464616
 30
0.0
 10
9.4260979377
 20
4.3051751449
 30
0.0
 10
9.4258172327
 20
4.3080213931
 30
0.0
 10
9.4252259749
 20
4.3107875933
 30
0.0
  0
SPLINE
  5
8B8
100
AcDbEntity
  8
0
100
AcDbSpline
 62
7
  6
CONTINUOUS
 70
0
 71
3
 72
9
 73
5
 74
0
 42
0.0000001
 43
0.0000001
 44
0.0000000001
 40
0.0
 40
0.0
 40
0.0
 40
0.0
 40
0.5101854476
 40
1.0
 40
1.0
 40
1.0
 40
1.0
 10
9.4185131773
 20
8.2648886311
 30
0.0
 10
9.4197429309
 20
8.2578803921
 30
0.0
 10
9.4208857031
 20
8.2439112217
 30
0.0
 10
9.4197967617
 20
8.229916404
 30
0.0
 10
9.4185131773
 20
8.2232068686
 30
0.0
  0
SPLINE
  5
8B9
100
AcDbEntity
  8
0
100
AcDbSpline
 62
7
  6
CONTINUOUS
 70
0
 71
3
 72
9
 73
5
 74
0
 42
0.0000001
 43
0.0000001
 44
0.0000000001
 40
0.0
 40
0.0
 40
0.0
 40
0.0
 40
0.4790203729
 40
1.0
 40
1.0
 40
1.0
 40
1.0
 10
9.42609795
 20
8.2907987554
 30
0.0
 10
9.426097931
 20
8.2864488819
 30
0.0
 10
9.4247041454
 20
8.2773325467
 30
0.0
 10
9.4209225625
 20
8.2689600237
 30
0.0
 10
9.4185131773
 20
8.2648886311
 30
0.0
  0
SPLINE
  5
8BA
100
AcDbEntity
  8
0
100
AcDbSpline
 62
7
  6
CONTINUOUS
 70
0
 71
3
 72
9
 73
5
 74
0
 42
0.0000001
 43
0.0000001
 44
0.0000000001
 40
0.0
 40
0.0
 40
0.0
 40
0.0
 40
0.520981709
 40
1.0
 40
1.0
 40
1.0
 40
1.0
 10
9.4185131773
 20
8.3588256207
 30
0.0
 10
9.4209225718
 20
8.3547542124
 30
0.0
 10
9.4247041244
 20
8.3463816782
 30
0.0
 10
9.426097931
 20
8.3372653504
 30
0.0
 10
9.42609795
 20
8.3329154964
 30
0.0
  0
SPLINE
  5
8BB
100
AcDbEntity
  8
0
100
AcDbSpline
 62
7
  6
CONTINUOUS
 70
0
 71
3
 72
9
 73
5
 74
0
 42
0.0000001
 43
0.0000001
 44
0.0000000001
 40
0.0
 40
0.0
 40
0.0
 40
0.0
 40
0.4898140406
 40
1.0
 40
1.0
 40
1.0
 40
1.0
 10
9.4185131773
 20
8.4005073832
 30
0.0
 10
9.4197967602
 20
8.3937978556
 30
0.0
 10
9.4208856455
 20
8.3798030373
 30
0.0
 10
9.419742932
 20
8.3658338659
 30
0.0
 10
9.4185131773
 20
8.3588256207
 30
0.0
  0
SPLINE
  5
8BC
100
AcDbEntity
  8
0
100
AcDbSpline
 62
7
  6
CONTINUOUS
 70
0
 71
3
 72
9
 73
5
 74
0
 42
0.0000001
 43
0.0000001
 44
0.0000000001
 40
0.0
 40
0.0
 40
0.0
 40
0.0
 40
0.501893795
 40
1.0
 40
1.0
 40
1.0
 40
1.0
 10
9.42609795
 20
8.3774576558
 30
0.0
 10
9.4260979324
 20
8.3815734151
 30
0.0
 10
9.4249055489
 20
8.3898457509
 30
0.0
 10
9.420988512
 20
8.3972581546
 30
0.0
 10
9.4185131773
 20
8.4005073832
 30
0.0
  0
SPLINE
  5
8BD
100
AcDbEntity
  8
0
100
AcDbSpline
 62
7
  6
CONTINUOUS
 70
0
 71
3
 72
9
 73
5
 74
0
 42
0.0000001
 43
0.0000001
 44
0.0000000001
 40
0.0
 40
0.0
 40
0.0
 40
0.0
 40
0.4981087616
 40
1.0
 40
1.0
 40
1.0
 40
1.0
 10
9.4185131773
 20
8.2232068686
 30
0.0
 10
9.4209885247
 20
8.2264561139
 30
0.0
 10
9.4249055571
 20
8.2338685227
 30
0.0
 10
9.4260979324
 20
8.2421408576
 30
0.0
 10
9.42609795
 20
8.246256596
 30
0.0
  0
LINE
  5
8BE
100
AcDbEntity
  8
0
100
AcDbLine
 62
7
  6
CONTINUOUS
 10
2.4278103448
 20
5.6871726378
 11
2.4248690174
 21
5.6870781448
  0
SPLINE
  5
8BF
100
AcDbEntity
  8
0
100
AcDbSpline
 62
7
  6
CONTINUOUS
 70
0
 71
3
 72
11
 73
7
 74
0
 42
0.0000001
 43
0.0000001
 44
0.0000000001
 40
0.0
 40
0.0
 40
0.0
 40
0.0
 40
0.1475830336
 40
0.3798592376
 40
0.6737139793
 40
1.0
 40
1.0
 40
1.0
 40
1.0
 10
2.4248690174
 20
5.6870781448
 30
0.0
 10
2.4017774874
 20
5.6863212441
 30
0.0
 10
2.3423583436
 20
5.6839355407
 30
0.0
 10
2.2369474058
 20
5.6804002812
 30
0.0
 10
2.1035331447
 20
5.6773779332
 30
0.0
 10
2.0064490514
 20
5.676615592
 30
0.0
 10
1.9553693999
 20
5.676615592
 30
0.0
  0
SPLINE
  5
8C0
100
AcDbEntity
  8
0
100
AcDbSpline
 62
7
  6
CONTINUOUS
 70
0
 71
3
 72
13
 73
9
 74
0
 42
0.0000001
 43
0.0000001
 44
0.0000000001
 40
0.0
 40
0.0
 40
0.0
 40
0.0
 40
0.1060492424
 40
0.1935351994
 40
0.3068061175
 40
0.4456257691
 40
0.6088094422
 40
1.0
 40
1.0
 40
1.0
 40
1.0
 10
1.7782040457
 20
5.5682134856
 30
0.0
 10
1.7782040486
 20
5.5651962072
 30
0.0
 10
1.7733531128
 20
5.5606562417
 30
0.0
 10
1.7658610214
 20
5.5568350896
 30
0.0
 10
1.7567150203
 20
5.5533414941
 30
0.0
 10
1.7453809106
 20
5.5501142294
 30
0.0
 10
1.7261152326
 20
5.5457800726
 30
0.0
 10
1.7105079216
 20
5.5434073691
 30
0.0
 10
1.6994638881
 20
5.5420264983
 30
0.0
  0
SPLINE
  5
8C1
100
AcDbEntity
  8
0
100
AcDbSpline
 62
7
  6
CONTINUOUS
 70
0
 71
3
 72
13
 73
9
 74
0
 42
0.0000001
 43
0.0000001
 44
0.0000000001
 40
0.0
 40
0.0
 40
0.0
 40
0.0
 40
0.343008977
 40
0.6459881887
 40
0.7712171934
 40
0.8738552317
 40
0.9508623744
 40
1.0
 40
1.0
 40
1.0
 40
1.0
 10
1.9553693999
 20
5.6775861186
 30
0.0
 10
2.0083320089
 20
5.6775861186
 30
0.0
 10
2.1080783442
 20
5.6783958451
 30
0.0
 10
2.2271305201
 20
5.6811459907
 30
0.0
 10
2.309055307
 20
5.6837421199
 30
0.0
 10
2.3561005325
 20
5.6854052093
 30
0.0
 10
2.391402925
 20
5.686666549
 30
0.0
 10
2.4108705253
 20
5.6873136122
 30
0.0
 10
2.4184561729
 20
5.6874640481
 30
0.0
  0
LINE
  5
8C2
100
AcDbEntity
  8
0
100
AcDbLine
 62
7
  6
CONTINUOUS
 10
15.0669887571
 20
7.2370419108
 11
15.0530693323
 21
7.2498291044
  0
LINE
  5
8C3
100
AcDbEntity
  8
0
100
AcDbLine
 62
7
  6
CONTINUOUS
 10
11.8245022627
 20
9.1681015776
 11
11.8219249338
 21
9.1688349249
  0
LINE
  5
8C4
100
AcDbEntity
  8
0
100
AcDbLine
 62
7
  6
CONTINUOUS
 10
11.7927263727
 20
9.1770461155
 11
11.7769755146
 21
9.181401459
  0
LINE
  5
8C5
100
AcDbEntity
  8
0
100
AcDbLine
 62
7
  6
CONTINUOUS
 10
11.7769755146
 20
9.181401459
 11
11.7654791708
 21
9.1845475009
  0
LINE
  5
8C6
100
AcDbEntity
  8
0
100
AcDbLine
 62
7
  6
CONTINUOUS
 10
11.6099597477
 20
9.2243579842
 11
11.6080116878
 21
9.2248239369
  0
LINE
  5
8C7
100
AcDbEntity
  8
0
100
AcDbLine
 62
7
  6
CONTINUOUS
 10
11.5977421867
 20
9.2188900913
 11
11.5940922629
 21
9.2197512914
  0
SPLINE
  5
8C8
100
AcDbEntity
  8
0
100
AcDbSpline
 62
7
  6
CONTINUOUS
 70
0
 71
3
 72
11
 73
7
 74
0
 42
0.0000001
 43
0.0000001
 44
0.0000000001
 40
0.0
 40
0.0
 40
0.0
 40
0.0
 40
0.2997813619
 40
0.5634906089
 40
0.7931952319
 40
1.0
 40
1.0
 40
1.0
 40
1.0
 10
13.3235807976
 20
9.1683423575
 30
0.0
 10
13.326802041
 20
9.1702037776
 30
0.0
 10
13.3326223681
 20
9.1741480721
 30
0.0
 10
13.3396358227
 20
9.1811638901
 30
0.0
 10
13.3441102325
 20
9.1887503011
 30
0.0
 10
13.345197669
 20
9.1942002746
 30
0.0
 10
13.3451981301
 20
9.1967667923
 30
0.0
  0
SPLINE
  5
8C9
100
AcDbEntity
  8
0
100
AcDbSpline
 62
7
  6
CONTINUOUS
 70
0
 71
3
 72
9
 73
5
 74
0
 42
0.0000001
 43
0.0000001
 44
0.0000000001
 40
0.0
 40
0.0
 40
0.0
 40
0.0
 40
0.5165534796
 40
1.0
 40
1.0
 40
1.0
 40
1.0
 10
13.7864016731
 20
9.1340361453
 30
0.0
 10
13.5563718891
 20
9.2535656203
 30
0.0
 10
13.0986946146
 20
9.4622306025
 30
0.0
 10
12.6186853197
 20
9.61421131
 30
0.0
 10
12.3827384313
 20
9.6707092224
 30
0.0
  0
LINE
  5
8CA
100
AcDbEntity
  8
0
100
AcDbLine
 62
7
  6
CONTINUOUS
 10
12.3827384313
 20
9.6707092224
 11
12.3805397656
 21
9.6712351767
  0
LINE
  5
8CB
100
AcDbEntity
  8
0
100
AcDbLine
 62
7
  6
CONTINUOUS
 10
13.778740074
 20
9.1299681118
 11
13.7832823072
 21
9.1276128317
  0
LINE
  5
8CC
100
AcDbEntity
  8
0
100
AcDbLine
 62
7
  6
CONTINUOUS
 10
13.7832823072
 20
9.1276128317
 11
13.7864016731
 21
9.1259930663
  0
SPLINE
  5
8CD
100
AcDbEntity
  8
0
100
AcDbSpline
 62
7
  6
CONTINUOUS
 70
0
 71
3
 72
11
 73
7
 74
0
 42
0.0000001
 43
0.0000001
 44
0.0000000001
 40
0.0
 40
0.0
 40
0.0
 40
0.0
 40
0.2737566146
 40
0.5288121374
 40
0.7689184121
 40
1.0
 40
1.0
 40
1.0
 40
1.0
 10
13.1739469807
 20
8.4991764862
 30
0.0
 10
13.1649721586
 20
8.5084996355
 30
0.0
 10
13.1487778742
 20
8.5276766724
 30
0.0
 10
13.1298796427
 20
8.5589261582
 30
0.0
 10
13.1176462598
 20
8.5912215626
 30
0.0
 10
13.1140944989
 20
8.6134042652
 30
0.0
 10
13.1135301802
 20
8.6243133181
 30
0.0
  0
SPLINE
  5
8CE
100
AcDbEntity
  8
0
100
AcDbSpline
 62
7
  6
CONTINUOUS
 70
0
 71
3
 72
11
 73
7
 74
0
 42
0.0000001
 43
0.0000001
 44
0.0000000001
 40
0.0
 40
0.0
 40
0.0
 40
0.0
 40
0.2895788086
 40
0.5490236357
 40
0.7821692774
 40
1.0
 40
1.0
 40
1.0
 40
1.0
 10
11.9274624875
 20
9.3350221633
 30
0.0
 10
11.9326035145
 20
9.3320513817
 30
0.0
 10
11.9419315429
 20
9.3256176381
 30
0.0
 10
11.953079761
 20
9.3138907124
 30
0.0
 10
11.9601301305
 20
9.3009146738
 30
0.0
 10
11.9617669909
 20
9.2916040098
 30
0.0
 10
11.9617658008
 20
9.287137513
 30
0.0
  0
SPLINE
  5
8CF
100
AcDbEntity
  8
0
100
AcDbSpline
 62
7
  6
CONTINUOUS
 70
0
 71
3
 72
15
 73
11
 74
0
 42
0.0000001
 43
0.0000001
 44
0.0000000001
 40
0.0
 40
0.0
 40
0.0
 40
0.0
 40
0.1288107934
 40
0.2705209757
 40
0.4177943892
 40
0.5622633255
 40
0.696072018
 40
0.8134834915
 40
0.9130046062
 40
1.0
 40
1.0
 40
1.0
 40
1.0
 10
11.7778286706
 20
9.2485551214
 30
0.0
 10
11.7848208886
 20
9.2445146149
 30
0.0
 10
11.8006530213
 20
9.2379758222
 30
0.0
 10
11.8264572445
 20
9.2328064728
 30
0.0
 10
11.8537527089
 20
9.2320486352
 30
0.0
 10
11.8803028266
 20
9.2357777768
 30
0.0
 10
11.9039897371
 20
9.2436939497
 30
0.0
 10
11.9229668778
 20
9.2552604976
 30
0.0
 10
11.9358252772
 20
9.2698850699
 30
0.0
 10
11.9391256817
 20
9.2816828937
 30
0.0
 10
11.9391281176
 20
9.2871370015
 30
0.0
  0
SPLINE
  5
8D0
100
AcDbEntity
  8
0
100
AcDbSpline
 62
7
  6
CONTINUOUS
 70
0
 71
3
 72
9
 73
5
 74
0
 42
0.0000001
 43
0.0000001
 44
0.0000000001
 40
0.0
 40
0.0
 40
0.0
 40
0.0
 40
0.2519410007
 40
1.0
 40
1.0
 40
1.0
 40
1.0
 10
15.6648245383
 20
6.6156499911
 30
0.0
 10
15.6648245185
 20
6.6181962709
 30
0.0
 10
15.6645392302
 20
6.6282994845
 30
0.0
 10
15.663041268
 20
6.638379726
 30
0.0
 10
15.6611745065
 20
6.6457060085
 30
0.0
  0
SPLINE
  5
8D1
100
AcDbEntity
  8
0
100
AcDbSpline
 62
7
  6
CONTINUOUS
 70
0
 71
3
 72
9
 73
5
 74
0
 42
0.0000001
 43
0.0000001
 44
0.0000000001
 40
0.0
 40
0.0
 40
0.0
 40
0.0
 40
0.4989277258
 40
1.0
 40
1.0
 40
1.0
 40
1.0
 10
15.6611745065
 20
6.6457060085
 30
0.0
 10
15.6579939833
 20
6.6581882734
 30
0.0
 10
15.6471287276
 20
6.6823718703
 30
0.0
 10
15.6273527902
 20
6.700332384
 30
0.0
 10
15.6161519451
 20
6.7068048777
 30
0.0
  0
SPLINE
  5
8D2
100
AcDbEntity
  8
0
100
AcDbSpline
 62
7
  6
CONTINUOUS
 70
0
 71
3
 72
11
 73
7
 74
0
 42
0.0000001
 43
0.0000001
 44
0.0000000001
 40
0.0
 40
0.0
 40
0.0
 40
0.0
 40
0.251224187
 40
0.5012225596
 40
0.7508868049
 40
1.0
 40
1.0
 40
1.0
 40
1.0
 10
15.4782658822
 20
6.4681888985
 30
0.0
 10
15.4843789471
 20
6.4646564173
 30
0.0
 10
15.4974410343
 20
6.4589954184
 30
0.0
 10
15.5183737904
 20
6.4552160282
 30
0.0
 10
15.5395551803
 20
6.4559868166
 30
0.0
 10
15.5532673844
 20
6.4593524762
 30
0.0
 10
15.5598886349
 20
6.4616268595
 30
0.0
  0
SPLINE
  5
8D3
100
AcDbEntity
  8
0
100
AcDbSpline
 62
7
  6
CONTINUOUS
 70
0
 71
3
 72
9
 73
5
 74
0
 42
0.0000001
 43
0.0000001
 44
0.0000000001
 40
0.0
 40
0.0
 40
0.0
 40
0.0
 40
0.2486602929
 40
1.0
 40
1.0
 40
1.0
 40
1.0
 10
15.5687956657
 20
6.4650941669
 30
0.0
 10
15.5708708326
 20
6.4659982459
 30
0.0
 10
15.5791150269
 20
6.4698641882
 30
0.0
 10
15.5869369197
 20
6.4746139453
 30
0.0
 10
15.5925169595
 20
6.4785688338
 30
0.0
  0
SPLINE
  5
8D4
100
AcDbEntity
  8
0
100
AcDbSpline
 62
7
  6
CONTINUOUS
 70
0
 71
3
 72
9
 73
5
 74
0
 42
0.0000001
 43
0.0000001
 44
0.0000000001
 40
0.0
 40
0.0
 40
0.0
 40
0.0
 40
0.2470859653
 40
1.0
 40
1.0
 40
1.0
 40
1.0
 10
15.5925169595
 20
6.4785688338
 30
0.0
 10
15.5951091801
 20
6.4804060865
 30
0.0
 10
15.6053545596
 20
6.4881855509
 30
0.0
 10
15.6146152021
 20
6.4972386299
 30
0.0
 10
15.6209601197
 20
6.5045514829
 30
0.0
  0
SPLINE
  5
8D5
100
AcDbEntity
  8
0
100
AcDbSpline
 62
7
  6
CONTINUOUS
 70
0
 71
3
 72
9
 73
5
 74
0
 42
0.0000001
 43
0.0000001
 44
0.0000000001
 40
0.0
 40
0.0
 40
0.0
 40
0.0
 40
0.2548360332
 40
1.0
 40
1.0
 40
1.0
 40
1.0
 10
15.6556232302
 20
6.564215194
 30
0.0
 10
15.6570988688
 20
6.5684131139
 30
0.0
 10
15.6622630692
 20
6.5850919968
 30
0.0
 10
15.6648244369
 20
6.6026365046
 30
0.0
 10
15.6648245383
 20
6.6156479054
 30
0.0
  0
SPLINE
  5
8D6
100
AcDbEntity
  8
0
100
AcDbSpline
 62
7
  6
CONTINUOUS
 70
0
 71
3
 72
11
 73
7
 74
0
 42
0.0000001
 43
0.0000001
 44
0.0000000001
 40
0.0
 40
0.0
 40
0.0
 40
0.0
 40
0.2895788086
 40
0.5490236357
 40
0.7821692774
 40
1.0
 40
1.0
 40
1.0
 40
1.0
 10
12.0944955854
 20
9.4315435125
 30
0.0
 10
12.0996366124
 20
9.4285727309
 30
0.0
 10
12.1089646408
 20
9.4221389872
 30
0.0
 10
12.1201128589
 20
9.4104120615
 30
0.0
 10
12.1271632284
 20
9.397436023
 30
0.0
 10
12.1288000888
 20
9.3881253589
 30
0.0
 10
12.1287988987
 20
9.3836588622
 30
0.0
  0
SPLINE
  5
8D7
100
AcDbEntity
  8
0
100
AcDbSpline
 62
7
  6
CONTINUOUS
 70
0
 71
3
 72
15
 73
11
 74
0
 42
0.0000001
 43
0.0000001
 44
0.0000000001
 40
0.0
 40
0.0
 40
0.0
 40
0.0
 40
0.1288107934
 40
0.2705209757
 40
0.4177943892
 40
0.5622633255
 40
0.696072018
 40
0.8134834915
 40
0.9130046062
 40
1.0
 40
1.0
 40
1.0
 40
1.0
 10
11.9448617686
 20
9.3450764705
 30
0.0
 10
11.9518539865
 20
9.3410359641
 30
0.0
 10
11.9676861192
 20
9.3344971714
 30
0.0
 10
11.9934903424
 20
9.329327822
 30
0.0
 10
12.0207858069
 20
9.3285699843
 30
0.0
 10
12.0473359246
 20
9.332299126
 30
0.0
 10
12.071022835
 20
9.3402152988
 30
0.0
 10
12.0899999757
 20
9.3517818467
 30
0.0
 10
12.1028583751
 20
9.3664064191
 30
0.0
 10
12.1061587796
 20
9.3782042428
 30
0.0
 10
12.1061612155
 20
9.3836583506
 30
0.0
  0
SPLINE
  5
8D8
100
AcDbEntity
  8
0
100
AcDbSpline
 62
7
  6
CONTINUOUS
 70
0
 71
3
 72
11
 73
7
 74
0
 42
0.0000001
 43
0.0000001
 44
0.0000000001
 40
0.0
 40
0.0
 40
0.0
 40
0.0
 40
0.2178326871
 40
0.45098157
 40
0.710429148
 40
1.0
 40
1.0
 40
1.0
 40
1.0
 10
15.2230521963
 20
7.6905663367
 30
0.0
 10
15.2230505868
 20
7.686962686
 30
0.0
 10
15.22436968
 20
7.679450313
 30
0.0
 10
15.2300574827
 20
7.6689805225
 30
0.0
 10
15.2390515925
 20
7.6595187889
 30
0.0
 10
15.2465774421
 20
7.6543279307
 30
0.0
 10
15.2507251648
 20
7.6519311374
 30
0.0
  0
SPLINE
  5
8D9
100
AcDbEntity
  8
0
100
AcDbSpline
 62
7
  6
CONTINUOUS
 70
0
 71
3
 72
11
 73
7
 74
0
 42
0.0000001
 43
0.0000001
 44
0.0000000001
 40
0.0
 40
0.0
 40
0.0
 40
0.0
 40
0.2895788086
 40
0.5490236357
 40
0.7821692774
 40
1.0
 40
1.0
 40
1.0
 40
1.0
 10
12.2615286834
 20
9.5280648617
 30
0.0
 10
12.2666697103
 20
9.52509408
 30
0.0
 10
12.2759977387
 20
9.5186603364
 30
0.0
 10
12.2871459568
 20
9.5069334107
 30
0.0
 10
12.2941963264
 20
9.4939573721
 30
0.0
 10
12.2958331867
 20
9.4846467081
 30
0.0
 10
12.2958319967
 20
9.4801802114
 30
0.0
  0
SPLINE
  5
8DA
100
AcDbEntity
  8
0
100
AcDbSpline
 62
7
  6
CONTINUOUS
 70
0
 71
3
 72
15
 73
11
 74
0
 42
0.0000001
 43
0.0000001
 44
0.0000000001
 40
0.0
 40
0.0
 40
0.0
 40
0.0
 40
0.1288107934
 40
0.2705209757
 40
0.4177943892
 40
0.5622633255
 40
0.696072018
 40
0.8134834915
 40
0.9130046062
 40
1.0
 40
1.0
 40
1.0
 40
1.0
 10
12.1118948665
 20
9.4415978197
 30
0.0
 10
12.1188870844
 20
9.4375573132
 30
0.0
 10
12.1347192171
 20
9.4310185205
 30
0.0
 10
12.1605234404
 20
9.4258491711
 30
0.0
 10
12.1878189048
 20
9.4250913335
 30
0.0
 10
12.2143690225
 20
9.4288204751
 30
0.0
 10
12.2380559329
 20
9.436736648
 30
0.0
 10
12.2570330737
 20
9.4483031959
 30
0.0
 10
12.269891473
 20
9.4629277682
 30
0.0
 10
12.2731918776
 20
9.474725592
 30
0.0
 10
12.2731943134
 20
9.4801796998
 30
0.0
  0
SPLINE
  5
8DB
100
AcDbEntity
  8
0
100
AcDbSpline
 62
7
  6
CONTINUOUS
 70
0
 71
3
 72
13
 73
9
 74
0
 42
0.0000001
 43
0.0000001
 44
0.0000000001
 40
0.0
 40
0.0
 40
0.0
 40
0.0
 40
0.0919843447
 40
0.1898910833
 40
0.2979715251
 40
0.4181898914
 40
0.6929370806
 40
1.0
 40
1.0
 40
1.0
 40
1.0
 10
15.200414513
 20
7.6905658251
 30
0.0
 10
15.2004156433
 20
7.6948079489
 30
0.0
 10
15.2019009446
 20
7.7036191046
 30
0.0
 10
15.2082670139
 20
7.7159925244
 30
0.0
 10
15.2183881118
 20
7.72730215
 30
0.0
 10
15.2371525146
 20
7.7411551724
 30
0.0
 10
15.2676328986
 20
7.7534196799
 30
0.0
 10
15.2943927998
 20
7.7573918047
 30
0.0
 10
15.3085398926
 20
7.7580213687
 30
0.0
  0
SPLINE
  5
8DC
100
AcDbEntity
  8
0
100
AcDbSpline
 62
7
  6
CONTINUOUS
 70
0
 71
3
 72
9
 73
5
 74
0
 42
0.0000001
 43
0.0000001
 44
0.0000000001
 40
0.0
 40
0.0
 40
0.0
 40
0.0
 40
0.5254793168
 40
1.0
 40
1.0
 40
1.0
 40
1.0
 10
15.3174975399
 20
7.7582204027
 30
0.0
 10
15.332542041
 20
7.7582214365
 30
0.0
 10
15.3612499094
 20
7.7551150457
 30
0.0
 10
15.388596133
 20
7.7451954312
 30
0.0
 10
15.4003589817
 20
7.7383981794
 30
0.0
  0
SPLINE
  5
8DD
100
AcDbEntity
  8
0
100
AcDbSpline
 62
7
  6
CONTINUOUS
 70
0
 71
3
 72
11
 73
7
 74
0
 42
0.0000001
 43
0.0000001
 44
0.0000000001
 40
0.0
 40
0.0
 40
0.0
 40
0.0
 40
0.2178326871
 40
0.45098157
 40
0.710429148
 40
1.0
 40
1.0
 40
1.0
 40
1.0
 10
15.0560190983
 20
7.5940449875
 30
0.0
 10
15.0560174889
 20
7.5904413369
 30
0.0
 10
15.057336582
 20
7.5829289639
 30
0.0
 10
15.0630243848
 20
7.5724591733
 30
0.0
 10
15.0720184946
 20
7.5629974397
 30
0.0
 10
15.0795443442
 20
7.5578065815
 30
0.0
 10
15.0836920669
 20
7.5554097883
 30
0.0
  0
SPLINE
  5
8DE
100
AcDbEntity
  8
0
100
AcDbSpline
 62
7
  6
CONTINUOUS
 70
0
 71
3
 72
11
 73
7
 74
0
 42
0.0000001
 43
0.0000001
 44
0.0000000001
 40
0.0
 40
0.0
 40
0.0
 40
0.0
 40
0.2895788086
 40
0.5490236357
 40
0.7821692774
 40
1.0
 40
1.0
 40
1.0
 40
1.0
 10
12.4285617813
 20
9.6245862108
 30
0.0
 10
12.4337028082
 20
9.6216154292
 30
0.0
 10
12.4430308366
 20
9.6151816855
 30
0.0
 10
12.4541790547
 20
9.6034547598
 30
0.0
 10
12.4612294243
 20
9.5904787213
 30
0.0
 10
12.4628662846
 20
9.5811680573
 30
0.0
 10
12.4628650946
 20
9.5767015605
 30
0.0
  0
SPLINE
  5
8DF
100
AcDbEntity
  8
0
100
AcDbSpline
 62
7
  6
CONTINUOUS
 70
0
 71
3
 72
9
 73
5
 74
0
 42
0.0000001
 43
0.0000001
 44
0.0000000001
 40
0.0
 40
0.0
 40
0.0
 40
0.0
 40
0.2339019087
 40
1.0
 40
1.0
 40
1.0
 40
1.0
 10
12.2789279644
 20
9.5381191689
 30
0.0
 10
12.2814686179
 20
9.5366510329
 30
0.0
 10
12.2926427724
 20
9.530917697
 30
0.0
 10
12.3047836534
 20
9.5271859168
 30
0.0
 10
12.314199374
 20
9.525259199
 30
0.0
  0
SPLINE
  5
8E0
100
AcDbEntity
  8
0
100
AcDbSpline
 62
7
  6
CONTINUOUS
 70
0
 71
3
 72
13
 73
9
 74
0
 42
0.0000001
 43
0.0000001
 44
0.0000000001
 40
0.0
 40
0.0
 40
0.0
 40
0.0
 40
0.2962439825
 40
0.5798621813
 40
0.7051979651
 40
0.8156966358
 40
0.9122603092
 40
1.0
 40
1.0
 40
1.0
 40
1.0
 10
12.314199374
 20
9.525259199
 30
0.0
 10
12.3287475411
 20
9.5222822402
 30
0.0
 10
12.35816255
 20
9.5206739215
 30
0.0
 10
12.393321633
 20
9.5280480463
 30
0.0
 10
12.4166832546
 20
9.5398892413
 30
0.0
 10
12.4296977862
 20
9.5505651806
 30
0.0
 10
12.4381705712
 20
9.5629875061
 30
0.0
 10
12.4402254471
 20
9.5723029794
 30
0.0
 10
12.4402274113
 20
9.5767010489
 30
0.0
  0
SPLINE
  5
8E1
100
AcDbEntity
  8
0
100
AcDbSpline
 62
7
  6
CONTINUOUS
 70
0
 71
3
 72
16
 73
12
 74
0
 42
0.0000001
 43
0.0000001
 44
0.0000000001
 40
0.0
 40
0.0
 40
0.0
 40
0.0
 40
0.0429051285
 40
0.0875809506
 40
0.1870314806
 40
0.3043607839
 40
0.4380769905
 40
0.5824538427
 40
0.729640519
 40
0.8712695593
 40
1.0
 40
1.0
 40
1.0
 40
1.0
 10
15.0333814151
 20
7.5940444759
 30
0.0
 10
15.0333823041
 20
7.5973811009
 30
0.0
 10
15.0342793308
 20
7.6042204596
 30
0.0
 10
15.0396968268
 20
7.6178548491
 30
0.0
 10
15.0534046907
 20
7.6336000269
 30
0.0
 10
15.0769312754
 20
7.6478855312
 30
0.0
 10
15.1062913235
 20
7.6577175976
 30
0.0
 10
15.139204034
 20
7.6623364575
 30
0.0
 10
15.173041657
 20
7.6613996727
 30
0.0
 10
15.205031023
 20
7.6549914272
 30
0.0
 10
15.2246579686
 20
7.6468856511
 30
0.0
 10
15.2333258838
 20
7.6418768302
 30
0.0
  0
SPLINE
  5
8E2
100
AcDbEntity
  8
0
100
AcDbSpline
 62
7
  6
CONTINUOUS
 70
0
 71
3
 72
11
 73
7
 74
0
 42
0.0000001
 43
0.0000001
 44
0.0000000001
 40
0.0
 40
0.0
 40
0.0
 40
0.0
 40
0.2178326871
 40
0.45098157
 40
0.710429148
 40
1.0
 40
1.0
 40
1.0
 40
1.0
 10
14.8889860004
 20
7.4975236384
 30
0.0
 10
14.888984391
 20
7.4939199877
 30
0.0
 10
14.8903034841
 20
7.4864076147
 30
0.0
 10
14.8959912869
 20
7.4759378242
 30
0.0
 10
14.9049853966
 20
7.4664760905
 30
0.0
 10
14.9125112462
 20
7.4612852323
 30
0.0
 10
14.916658969
 20
7.4588884391
 30
0.0
  0
LINE
  5
8E3
100
AcDbEntity
  8
0
100
AcDbLine
 62
7
  6
CONTINUOUS
 10
15.8146261892
 20
7.6958960514
 11
15.8105156051
 21
7.6996607291
  0
SPLINE
  5
8E4
100
AcDbEntity
  8
0
100
AcDbSpline
 62
7
  6
CONTINUOUS
 70
0
 71
3
 72
11
 73
7
 74
0
 42
0.0000001
 43
0.0000001
 44
0.0000000001
 40
0.0
 40
0.0
 40
0.0
 40
0.0
 40
0.2632260987
 40
0.5181213856
 40
0.7639149087
 40
1.0
 40
1.0
 40
1.0
 40
1.0
 10
15.8105156051
 20
7.6996607291
 30
0.0
 10
15.6506028895
 20
7.8460460228
 30
0.0
 10
15.3276790086
 20
8.1254430043
 30
0.0
 10
14.8276078906
 20
8.5079174938
 30
0.0
 10
14.3224703284
 20
8.8449389472
 30
0.0
 10
13.9774126412
 20
9.041872194
 30
0.0
 10
13.8049309076
 20
9.1316389112
 30
0.0
  0
LINE
  5
8E5
100
AcDbEntity
  8
0
100
AcDbLine
 62
7
  6
CONTINUOUS
 10
13.8049309076
 20
9.1316389112
 11
13.8015819785
 21
9.133380764
  0
LINE
  5
8E6
100
AcDbEntity
  8
0
100
AcDbLine
 62
7
  6
CONTINUOUS
 10
13.8015819785
 20
9.133380764
 11
13.7911034682
 21
9.138817045
  0
LINE
  5
8E7
100
AcDbEntity
  8
0
100
AcDbLine
 62
7
  6
CONTINUOUS
 10
13.7911034682
 20
9.138817045
 11
13.7877547813
 21
9.1405499342
  0
SPLINE
  5
8E8
100
AcDbEntity
  8
0
100
AcDbSpline
 62
7
  6
CONTINUOUS
 70
0
 71
3
 72
9
 73
5
 74
0
 42
0.0000001
 43
0.0000001
 44
0.0000000001
 40
0.0
 40
0.0
 40
0.0
 40
0.0
 40
0.5166010197
 40
1.0
 40
1.0
 40
1.0
 40
1.0
 10
13.7877547813
 20
9.1405499342
 30
0.0
 10
13.5575795045
 20
9.2595881928
 30
0.0
 10
13.099657355
 20
9.4671729578
 30
0.0
 10
12.6194443587
 20
9.6177808942
 30
0.0
 10
12.3834571748
 20
9.6735178435
 30
0.0
  0
LINE
  5
8E9
100
AcDbEntity
  8
0
100
AcDbLine
 62
7
  6
CONTINUOUS
 10
12.3834571748
 20
9.6735178435
 11
12.381303791
 21
9.6740259428
  0
LINE
  5
8EA
100
AcDbEntity
  8
0
100
AcDbLine
 62
7
  6
CONTINUOUS
 10
12.381303791
 20
9.6740259428
 11
12.3805397656
 21
9.674205977
  0
SPLINE
  5
8EB
100
AcDbEntity
  8
0
100
AcDbSpline
 62
7
  6
CONTINUOUS
 70
0
 71
3
 72
11
 73
7
 74
0
 42
0.0000001
 43
0.0000001
 44
0.0000000001
 40
0.0
 40
0.0
 40
0.0
 40
0.0
 40
0.2917112982
 40
0.5513451808
 40
0.7836773986
 40
1.0
 40
1.0
 40
1.0
 40
1.0
 10
13.2607423477
 20
8.8147914048
 30
0.0
 10
13.2415448897
 20
8.8029877837
 30
0.0
 10
13.2068154052
 20
8.777893881
 30
0.0
 10
13.1653607009
 20
8.7330899002
 30
0.0
 10
13.1391400748
 20
8.6842476879
 30
0.0
 10
13.1330120876
 20
8.6493616197
 30
0.0
 10
13.1330081832
 20
8.63264979
 30
0.0
  0
SPLINE
  5
8EC
100
AcDbEntity
  8
0
100
AcDbSpline
 62
7
  6
CONTINUOUS
 70
0
 71
3
 72
11
 73
7
 74
0
 42
0.0000001
 43
0.0000001
 44
0.0000000001
 40
0.0
 40
0.0
 40
0.0
 40
0.0
 40
0.2631515123
 40
0.5180225721
 40
0.7638385514
 40
1.0
 40
1.0
 40
1.0
 40
1.0
 10
15.8047182729
 20
7.692547519
 30
0.0
 10
15.6451862295
 20
7.8387963796
 30
0.0
 10
15.3230207632
 20
8.1180041435
 30
0.0
 10
14.8241369052
 20
8.5004318922
 30
0.0
 10
14.3201459482
 20
8.8377018935
 30
0.0
 10
13.9758605414
 20
9.0349906088
 30
0.0
 10
13.8037468244
 20
9.1249944778
 30
0.0
  0
LINE
  5
8ED
100
AcDbEntity
  8
0
100
AcDbLine
 62
7
  6
CONTINUOUS
 10
13.8037468244
 20
9.1249944778
 11
13.8003210979
 21
9.1267847828
  0
SPLINE
  5
8EE
100
AcDbEntity
  8
0
100
AcDbSpline
 62
7
  6
CONTINUOUS
 70
0
 71
3
 72
11
 73
7
 74
0
 42
0.0000001
 43
0.0000001
 44
0.0000000001
 40
0.0
 40
0.0
 40
0.0
 40
0.0
 40
0.2895788086
 40
0.5490236357
 40
0.7821692774
 40
1.0
 40
1.0
 40
1.0
 40
1.0
 10
15.0662927859
 20
7.5453554811
 30
0.0
 10
15.0714338129
 20
7.5423846994
 30
0.0
 10
15.0807618412
 20
7.5359509558
 30
0.0
 10
15.0919100593
 20
7.5242240301
 30
0.0
 10
15.0989604289
 20
7.5112479916
 30
0.0
 10
15.1005972892
 20
7.5019373275
 30
0.0
 10
15.1005960992
 20
7.4974708308
 30
0.0
  0
SPLINE
  5
8EF
100
AcDbEntity
  8
0
100
AcDbSpline
 62
7
  6
CONTINUOUS
 70
0
 71
3
 72
15
 73
11
 74
0
 42
0.0000001
 43
0.0000001
 44
0.0000000001
 40
0.0
 40
0.0
 40
0.0
 40
0.0
 40
0.1288107934
 40
0.2705209757
 40
0.4177943892
 40
0.5622633255
 40
0.696072018
 40
0.8134834915
 40
0.9130046062
 40
1.0
 40
1.0
 40
1.0
 40
1.0
 10
14.916658969
 20
7.4588884391
 30
0.0
 10
14.923651187
 20
7.4548479326
 30
0.0
 10
14.9394833196
 20
7.4483091399
 30
0.0
 10
14.9652875429
 20
7.4431397905
 30
0.0
 10
14.9925830073
 20
7.4423819529
 30
0.0
 10
15.019133125
 20
7.4461110945
 30
0.0
 10
15.0428200354
 20
7.4540272674
 30
0.0
 10
15.0617971762
 20
7.4655938153
 30
0.0
 10
15.0746555755
 20
7.4802183876
 30
0.0
 10
15.0779559801
 20
7.4920162114
 30
0.0
 10
15.0779584159
 20
7.4974703192
 30
0.0
  0
SPLINE
  5
8F0
100
AcDbEntity
  8
0
100
AcDbSpline
 62
7
  6
CONTINUOUS
 70
0
 71
3
 72
16
 73
12
 74
0
 42
0.0000001
 43
0.0000001
 44
0.0000000001
 40
0.0
 40
0.0
 40
0.0
 40
0.0
 40
0.0429051285
 40
0.0875809506
 40
0.1870314806
 40
0.3043607839
 40
0.4380769905
 40
0.5824538427
 40
0.729640519
 40
0.8712695593
 40
1.0
 40
1.0
 40
1.0
 40
1.0
 10
14.8663483172
 20
7.4975231268
 30
0.0
 10
14.8663492062
 20
7.5008597517
 30
0.0
 10
14.8672462329
 20
7.5076991104
 30
0.0
 10
14.8726637288
 20
7.5213335
 30
0.0
 10
14.8863715928
 20
7.5370786778
 30
0.0
 10
14.9098981774
 20
7.551364182
 30
0.0
 10
14.9392582255
 20
7.5611962484
 30
0.0
 10
14.9721709361
 20
7.5658151083
 30
0.0
 10
15.0060085591
 20
7.5648783235
 30
0.0
 10
15.037997925
 20
7.5584700781
 30
0.0
 10
15.0576248706
 20
7.550364302
 30
0.0
 10
15.0662927859
 20
7.5453554811
 30
0.0
  0
SPLINE
  5
8F1
100
AcDbEntity
  8
0
100
AcDbSpline
 62
7
  6
CONTINUOUS
 70
0
 71
3
 72
11
 73
7
 74
0
 42
0.0000001
 43
0.0000001
 44
0.0000000001
 40
0.0
 40
0.0
 40
0.0
 40
0.0
 40
0.2178326871
 40
0.45098157
 40
0.710429148
 40
1.0
 40
1.0
 40
1.0
 40
1.0
 10
12.2512549958
 20
9.5767543681
 30
0.0
 10
12.2512533864
 20
9.5731507174
 30
0.0
 10
12.2525724795
 20
9.5656383444
 30
0.0
 10
12.2582602822
 20
9.5551685539
 30
0.0
 10
12.267254392
 20
9.5457068203
 30
0.0
 10
12.2747802416
 20
9.5405159621
 30
0.0
 10
12.2789279644
 20
9.5381191689
 30
0.0
  0
SPLINE
  5
8F2
100
AcDbEntity
  8
0
100
AcDbSpline
 62
7
  6
CONTINUOUS
 70
0
 71
3
 72
11
 73
7
 74
0
 42
0.0000001
 43
0.0000001
 44
0.0000000001
 40
0.0
 40
0.0
 40
0.0
 40
0.0
 40
0.2895788086
 40
0.5490236357
 40
0.7821692774
 40
1.0
 40
1.0
 40
1.0
 40
1.0
 10
15.2333258838
 20
7.6418768302
 30
0.0
 10
15.2384669108
 20
7.6389060486
 30
0.0
 10
15.2477949391
 20
7.632472305
 30
0.0
 10
15.2589431573
 20
7.6207453793
 30
0.0
 10
15.2659935268
 20
7.6077693407
 30
0.0
 10
15.2676303872
 20
7.5984586767
 30
0.0
 10
15.2676291971
 20
7.5939921799
 30
0.0
  0
SPLINE
  5
8F3
100
AcDbEntity
  8
0
100
AcDbSpline
 62
7
  6
CONTINUOUS
 70
0
 71
3
 72
15
 73
11
 74
0
 42
0.0000001
 43
0.0000001
 44
0.0000000001
 40
0.0
 40
0.0
 40
0.0
 40
0.0
 40
0.1288107934
 40
0.2705209757
 40
0.4177943892
 40
0.5622633255
 40
0.696072018
 40
0.8134834915
 40
0.9130046062
 40
1.0
 40
1.0
 40
1.0
 40
1.0
 10
15.0836920669
 20
7.5554097883
 30
0.0
 10
15.0906842849
 20
7.5513692818
 30
0.0
 10
15.1065164176
 20
7.5448304891
 30
0.0
 10
15.1323206408
 20
7.5396611397
 30
0.0
 10
15.1596161052
 20
7.538903302
 30
0.0
 10
15.1861662229
 20
7.5426324437
 30
0.0
 10
15.2098531334
 20
7.5505486165
 30
0.0
 10
15.2288302741
 20
7.5621151644
 30
0.0
 10
15.2416886735
 20
7.5767397368
 30
0.0
 10
15.244989078
 20
7.5885375605
 30
0.0
 10
15.2449915139
 20
7.5939916684
 30
0.0
  0
SPLINE
  5
8F4
100
AcDbEntity
  8
0
100
AcDbSpline
 62
7
  6
CONTINUOUS
 70
0
 71
3
 72
16
 73
12
 74
0
 42
0.0000001
 43
0.0000001
 44
0.0000000001
 40
0.0
 40
0.0
 40
0.0
 40
0.0
 40
0.0429051285
 40
0.0875809506
 40
0.1870314806
 40
0.3043607839
 40
0.4380769905
 40
0.5824538427
 40
0.729640519
 40
0.8712695593
 40
1.0
 40
1.0
 40
1.0
 40
1.0
 10
12.2286173125
 20
9.5767538565
 30
0.0
 10
12.2286182015
 20
9.5800904815
 30
0.0
 10
12.2295152283
 20
9.5869298401
 30
0.0
 10
12.2349327242
 20
9.6005642297
 30
0.0
 10
12.2486405882
 20
9.6163094075
 30
0.0
 10
12.2721671728
 20
9.6305949118
 30
0.0
 10
12.3015272209
 20
9.6404269782
 30
0.0
 10
12.3344399315
 20
9.6450458381
 30
0.0
 10
12.3682775545
 20
9.6441090532
 30
0.0
 10
12.4002669204
 20
9.6377008078
 30
0.0
 10
12.419893866
 20
9.6295950317
 30
0.0
 10
12.4285617813
 20
9.6245862108
 30
0.0
  0
SPLINE
  5
8F5
100
AcDbEntity
  8
0
100
AcDbSpline
 62
7
  6
CONTINUOUS
 70
0
 71
3
 72
11
 73
7
 74
0
 42
0.0000001
 43
0.0000001
 44
0.0000000001
 40
0.0
 40
0.0
 40
0.0
 40
0.0
 40
0.2178326871
 40
0.45098157
 40
0.710429148
 40
1.0
 40
1.0
 40
1.0
 40
1.0
 10
12.0842218979
 20
9.4802330189
 30
0.0
 10
12.0842202885
 20
9.4766293683
 30
0.0
 10
12.0855393816
 20
9.4691169953
 30
0.0
 10
12.0912271843
 20
9.4586472047
 30
0.0
 10
12.1002212941
 20
9.4491854711
 30
0.0
 10
12.1077471437
 20
9.4439946129
 30
0.0
 10
12.1118948665
 20
9.4415978197
 30
0.0
  0
SPLINE
  5
8F6
100
AcDbEntity
  8
0
100
AcDbSpline
 62
7
  6
CONTINUOUS
 70
0
 71
3
 72
11
 73
7
 74
0
 42
0.0000001
 43
0.0000001
 44
0.0000000001
 40
0.0
 40
0.0
 40
0.0
 40
0.0
 40
0.2895788086
 40
0.5490236357
 40
0.7821692774
 40
1.0
 40
1.0
 40
1.0
 40
1.0
 10
15.4003589817
 20
7.7383981794
 30
0.0
 10
15.4055000087
 20
7.7354273977
 30
0.0
 10
15.4148280371
 20
7.7289936541
 30
0.0
 10
15.4259762552
 20
7.7172667284
 30
0.0
 10
15.4330266247
 20
7.7042906899
 30
0.0
 10
15.4346634851
 20
7.6949800258
 30
0.0
 10
15.434662295
 20
7.6905135291
 30
0.0
  0
SPLINE
  5
8F7
100
AcDbEntity
  8
0
100
AcDbSpline
 62
7
  6
CONTINUOUS
 70
0
 71
3
 72
9
 73
5
 74
0
 42
0.0000001
 43
0.0000001
 44
0.0000000001
 40
0.0
 40
0.0
 40
0.0
 40
0.0
 40
0.4745288905
 40
1.0
 40
1.0
 40
1.0
 40
1.0
 10
15.2507251648
 20
7.6519311374
 30
0.0
 10
15.2601936739
 20
7.6464596873
 30
0.0
 10
15.2822015571
 20
7.6384675996
 30
0.0
 10
15.3053071161
 20
7.6359506154
 30
0.0
 10
15.3174167892
 20
7.6359399948
 30
0.0
  0
SPLINE
  5
8F8
100
AcDbEntity
  8
0
100
AcDbSpline
 62
7
  6
CONTINUOUS
 70
0
 71
3
 72
13
 73
9
 74
0
 42
0.0000001
 43
0.0000001
 44
0.0000000001
 40
0.0
 40
0.0
 40
0.0
 40
0.0
 40
0.3069934743
 40
0.5818964258
 40
0.7021733261
 40
0.8102607351
 40
0.90811374
 40
1.0
 40
1.0
 40
1.0
 40
1.0
 10
15.3241468917
 20
7.6360729298
 30
0.0
 10
15.3356247484
 20
7.6365376641
 30
0.0
 10
15.3573523348
 20
7.6396842925
 30
0.0
 10
15.3821213756
 20
7.6495563325
 30
0.0
 10
15.3973877451
 20
7.6607541126
 30
0.0
 10
15.4056264273
 20
7.6699074417
 30
0.0
 10
15.4108119576
 20
7.6799312804
 30
0.0
 10
15.4120230762
 20
7.687074764
 30
0.0
 10
15.4120246118
 20
7.6905130175
 30
0.0
  0
SPLINE
  5
8F9
100
AcDbEntity
  8
0
100
AcDbSpline
 62
7
  6
CONTINUOUS
 70
0
 71
3
 72
16
 73
12
 74
0
 42
0.0000001
 43
0.0000001
 44
0.0000000001
 40
0.0
 40
0.0
 40
0.0
 40
0.0
 40
0.0429051285
 40
0.0875809506
 40
0.1870314806
 40
0.3043607839
 40
0.4380769905
 40
0.5824538427
 40
0.729640519
 40
0.8712695593
 40
1.0
 40
1.0
 40
1.0
 40
1.0
 10
12.0615842146
 20
9.4802325074
 30
0.0
 10
12.0615851036
 20
9.4835691323
 30
0.0
 10
12.0624821304
 20
9.490408491
 30
0.0
 10
12.0678996263
 20
9.5040428805
 30
0.0
 10
12.0816074902
 20
9.5197880583
 30
0.0
 10
12.1051340749
 20
9.5340735626
 30
0.0
 10
12.134494123
 20
9.543905629
 30
0.0
 10
12.1674068335
 20
9.5485244889
 30
0.0
 10
12.2012444565
 20
9.5475877041
 30
0.0
 10
12.2332338225
 20
9.5411794587
 30
0.0
 10
12.2528607681
 20
9.5330736826
 30
0.0
 10
12.2615286834
 20
9.5280648617
 30
0.0
  0
SPLINE
  5
8FA
100
AcDbEntity
  8
0
100
AcDbSpline
 62
7
  6
CONTINUOUS
 70
0
 71
3
 72
11
 73
7
 74
0
 42
0.0000001
 43
0.0000001
 44
0.0000000001
 40
0.0
 40
0.0
 40
0.0
 40
0.0
 40
0.2178326871
 40
0.45098157
 40
0.710429148
 40
1.0
 40
1.0
 40
1.0
 40
1.0
 10
11.9171888
 20
9.3837116698
 30
0.0
 10
11.9171871905
 20
9.3801080191
 30
0.0
 10
11.9185062837
 20
9.3725956461
 30
0.0
 10
11.9241940864
 20
9.3621258556
 30
0.0
 10
11.9331881962
 20
9.352664122
 30
0.0
 10
11.9407140458
 20
9.3474732638
 30
0.0
 10
11.9448617686
 20
9.3450764705
 30
0.0
  0
SPLINE
  5
8FB
100
AcDbEntity
  8
0
100
AcDbSpline
 62
7
  6
CONTINUOUS
 70
0
 71
3
 72
9
 73
5
 74
0
 42
0.0000001
 43
0.0000001
 44
0.0000000001
 40
0.0
 40
0.0
 40
0.0
 40
0.0
 40
0.2549984398
 40
1.0
 40
1.0
 40
1.0
 40
1.0
 10
15.549540321
 20
6.5153534615
 30
0.0
 10
15.5480506295
 20
6.5127732527
 30
0.0
 10
15.5418680133
 20
6.5028598757
 30
0.0
 10
15.5342797597
 20
6.4937866086
 30
0.0
 10
15.5278784582
 20
6.4878881457
 30
0.0
  0
SPLINE
  5
8FC
100
AcDbEntity
  8
0
100
AcDbSpline
 62
7
  6
CONTINUOUS
 70
0
 71
3
 72
9
 73
5
 74
0
 42
0.0000001
 43
0.0000001
 44
0.0000000001
 40
0.0
 40
0.0
 40
0.0
 40
0.0
 40
0.2437928044
 40
1.0
 40
1.0
 40
1.0
 40
1.0
 10
15.6237753975
 20
6.6539864847
 30
0.0
 10
15.6231506315
 20
6.6512064772
 30
0.0
 10
15.6200960216
 20
6.639916002
 30
0.0
 10
15.6152365157
 20
6.6291426228
 30
0.0
 10
15.6108174171
 20
6.6214884849
 30
0.0
  0
SPLINE
  5
8FD
100
AcDbEntity
  8
0
100
AcDbSpline
 62
7
  6
CONTINUOUS
 70
0
 71
3
 72
9
 73
5
 74
0
 42
0.0000001
 43
0.0000001
 44
0.0000000001
 40
0.0
 40
0.0
 40
0.0
 40
0.0
 40
0.5000137912
 40
1.0
 40
1.0
 40
1.0
 40
1.0
 10
15.5573519151
 20
6.615603169
 30
0.0
 10
15.5531376393
 20
6.6067201317
 30
0.0
 10
15.5438917854
 20
6.5893410582
 30
0.0
 10
15.5334640626
 20
6.5726443172
 30
0.0
 10
15.5278784582
 20
6.564553654
 30
0.0
  0
SPLINE
  5
8FE
100
AcDbEntity
  8
0
100
AcDbSpline
 62
7
  6
CONTINUOUS
 70
0
 71
3
 72
11
 73
7
 74
0
 42
0.0000001
 43
0.0000001
 44
0.0000000001
 40
0.0
 40
0.0
 40
0.0
 40
0.0
 40
0.2867312238
 40
0.5448771642
 40
0.7792694422
 40
1.0
 40
1.0
 40
1.0
 40
1.0
 10
12.7077661417
 20
7.3220006929
 30
0.0
 10
12.7080257632
 20
7.3274262503
 30
0.0
 10
12.7093276988
 20
7.3377319989
 30
0.0
 10
12.7141372892
 20
7.3518205837
 30
0.0
 10
12.72164536
 20
7.3632541827
 30
0.0
 10
12.7284401728
 20
7.3688299466
 30
0.0
 10
12.7320598213
 20
7.3709234594
 30
0.0
  0
SPLINE
  5
8FF
100
AcDbEntity
  8
0
100
AcDbSpline
 62
7
  6
CONTINUOUS
 70
0
 71
3
 72
16
 73
12
 74
0
 42
0.0000001
 43
0.0000001
 44
0.0000000001
 40
0.0
 40
0.0
 40
0.0
 40
0.0
 40
0.0389473588
 40
0.0795283246
 40
0.1721910854
 40
0.2860521526
 40
0.4197636204
 40
0.5670389707
 40
0.7190980205
 40
0.8663858015
 40
1.0
 40
1.0
 40
1.0
 40
1.0
 10
13.1975677459
 20
9.187741385
 30
0.0
 10
13.1975673154
 20
9.1858859598
 30
0.0
 10
13.198121906
 20
9.1820742578
 30
0.0
 10
13.201603789
 20
9.1745407005
 30
0.0
 10
13.2104142363
 20
9.1661921616
 30
0.0
 10
13.2251680587
 20
9.1591547755
 30
0.0
 10
13.2435708552
 20
9.1547439833
 30
0.0
 10
13.2642345929
 20
9.1533446958
 30
0.0
 10
13.285521707
 20
9.1550869043
 30
0.0
 10
13.3056665233
 20
9.1598541551
 30
0.0
 10
13.3180695077
 20
9.1651576166
 30
0.0
 10
13.3235807976
 20
9.1683423575
 30
0.0
  0
SPLINE
  5
900
100
AcDbEntity
  8
0
100
AcDbSpline
 62
7
  6
CONTINUOUS
 70
0
 71
3
 72
16
 73
12
 74
0
 42
0.0000001
 43
0.0000001
 44
0.0000000001
 40
0.0
 40
0.0
 40
0.0
 40
0.0
 40
0.0429051285
 40
0.0875809506
 40
0.1870314806
 40
0.3043607839
 40
0.4380769905
 40
0.5824538427
 40
0.729640519
 40
0.8712695593
 40
1.0
 40
1.0
 40
1.0
 40
1.0
 10
11.7275180188
 20
9.2871898091
 30
0.0
 10
11.7275189078
 20
9.290526434
 30
0.0
 10
11.7284159345
 20
9.2973657927
 30
0.0
 10
11.7338334305
 20
9.3110001822
 30
0.0
 10
11.7475412944
 20
9.32674536
 30
0.0
 10
11.7710678791
 20
9.3410308643
 30
0.0
 10
11.8004279272
 20
9.3508629307
 30
0.0
 10
11.8333406377
 20
9.3554817906
 30
0.0
 10
11.8671782607
 20
9.3545450058
 30
0.0
 10
11.8991676267
 20
9.3481367604
 30
0.0
 10
11.9187945723
 20
9.3400309843
 30
0.0
 10
11.9274624875
 20
9.3350221633
 30
0.0
  0
SPLINE
  5
901
100
AcDbEntity
  8
0
100
AcDbSpline
 62
7
  6
CONTINUOUS
 70
0
 71
3
 72
11
 73
7
 74
0
 42
0.0000001
 43
0.0000001
 44
0.0000000001
 40
0.0
 40
0.0
 40
0.0
 40
0.0
 40
0.2178326871
 40
0.45098157
 40
0.710429148
 40
1.0
 40
1.0
 40
1.0
 40
1.0
 10
11.750155702
 20
9.2871903206
 30
0.0
 10
11.7501540926
 20
9.28358667
 30
0.0
 10
11.7514731857
 20
9.276074297
 30
0.0
 10
11.7571609885
 20
9.2656045064
 30
0.0
 10
11.7661550983
 20
9.2561427728
 30
0.0
 10
11.7736809479
 20
9.2509519146
 30
0.0
 10
11.7778286706
 20
9.2485551214
 30
0.0
  0
SPLINE
  5
902
100
AcDbEntity
  8
0
100
AcDbSpline
 62
7
  6
CONTINUOUS
 70
0
 71
3
 72
16
 73
12
 74
0
 42
0.0000001
 43
0.0000001
 44
0.0000000001
 40
0.0
 40
0.0
 40
0.0
 40
0.0
 40
0.0429051285
 40
0.0875809506
 40
0.1870314806
 40
0.3043607839
 40
0.4380769905
 40
0.5824538427
 40
0.729640519
 40
0.8712695593
 40
1.0
 40
1.0
 40
1.0
 40
1.0
 10
11.8945511167
 20
9.3837111582
 30
0.0
 10
11.8945520057
 20
9.3870477832
 30
0.0
 10
11.8954490324
 20
9.3938871418
 30
0.0
 10
11.9008665284
 20
9.4075215314
 30
0.0
 10
11.9145743923
 20
9.4232667092
 30
0.0
 10
11.938100977
 20
9.4375522134
 30
0.0
 10
11.9674610251
 20
9.4473842798
 30
0.0
 10
12.0003737356
 20
9.4520031397
 30
0.0
 10
12.0342113586
 20
9.4510663549
 30
0.0
 10
12.0662007246
 20
9.4446581095
 30
0.0
 10
12.0858276702
 20
9.4365523334
 30
0.0
 10
12.0944955854
 20
9.4315435125
 30
0.0
  0
SPLINE
  5
903
100
AcDbEntity
  8
0
100
AcDbSpline
 62
7
  6
CONTINUOUS
 70
0
 71
3
 72
11
 73
7
 74
0
 42
0.0000001
 43
0.0000001
 44
0.0000000001
 40
0.0
 40
0.0
 40
0.0
 40
0.0
 40
0.2895788086
 40
0.5490236357
 40
0.7821692774
 40
1.0
 40
1.0
 40
1.0
 40
1.0
 10
11.7618213321
 20
9.2393051588
 30
0.0
 10
11.7566803051
 20
9.2422759404
 30
0.0
 10
11.7473522767
 20
9.248709684
 30
0.0
 10
11.7362040586
 20
9.2604366097
 30
0.0
 10
11.7291536891
 20
9.2734126483
 30
0.0
 10
11.7275168287
 20
9.2827233123
 30
0.0
 10
11.7275180188
 20
9.2871898091
 30
0.0
  0
SPLINE
  5
904
100
AcDbEntity
  8
0
100
AcDbSpline
 62
7
  6
CONTINUOUS
 70
0
 71
3
 72
15
 73
11
 74
0
 42
0.0000001
 43
0.0000001
 44
0.0000000001
 40
0.0
 40
0.0
 40
0.0
 40
0.0
 40
0.1288107934
 40
0.2705209757
 40
0.4177943892
 40
0.5622633255
 40
0.696072018
 40
0.8134834915
 40
0.9130046062
 40
1.0
 40
1.0
 40
1.0
 40
1.0
 10
11.911455149
 20
9.3257722007
 30
0.0
 10
11.904462931
 20
9.3298127072
 30
0.0
 10
11.8886307983
 20
9.3363514999
 30
0.0
 10
11.8628265751
 20
9.3415208493
 30
0.0
 10
11.8355311107
 20
9.3422786869
 30
0.0
 10
11.808980993
 20
9.3385495453
 30
0.0
 10
11.7852940825
 20
9.3306333724
 30
0.0
 10
11.7663169418
 20
9.3190668245
 30
0.0
 10
11.7534585424
 20
9.3044422522
 30
0.0
 10
11.7501581379
 20
9.2926444284
 30
0.0
 10
11.750155702
 20
9.2871903206
 30
0.0
  0
SPLINE
  5
905
100
AcDbEntity
  8
0
100
AcDbSpline
 62
7
  6
CONTINUOUS
 70
0
 71
3
 72
9
 73
5
 74
0
 42
0.0000001
 43
0.0000001
 44
0.0000000001
 40
0.0
 40
0.0
 40
0.0
 40
0.0
 40
0.4773579615
 40
1.0
 40
1.0
 40
1.0
 40
1.0
 10
12.7391610532
 20
7.3741427299
 30
0.0
 10
12.7434425628
 20
7.3756010735
 30
0.0
 10
12.752967268
 20
7.3771364168
 30
0.0
 10
12.7624787695
 20
7.3759568707
 30
0.0
 10
12.7673009269
 20
7.3748297213
 30
0.0
  0
SPLINE
  5
906
100
AcDbEntity
  8
0
100
AcDbSpline
 62
7
  6
CONTINUOUS
 70
0
 71
3
 72
9
 73
5
 74
0
 42
0.0000001
 43
0.0000001
 44
0.0000000001
 40
0.0
 40
0.0
 40
0.0
 40
0.0
 40
0.2668414048
 40
1.0
 40
1.0
 40
1.0
 40
1.0
 10
11.8643269492
 20
9.2763035237
 30
0.0
 10
11.8687028525
 20
9.2757649033
 30
0.0
 10
11.8849886149
 20
9.2730540148
 30
0.0
 10
11.9009666614
 20
9.2675702508
 30
0.0
 10
11.911455149
 20
9.2615093983
 30
0.0
  0
SPLINE
  5
907
100
AcDbEntity
  8
0
100
AcDbSpline
 62
7
  6
CONTINUOUS
 70
0
 71
3
 72
9
 73
5
 74
0
 42
0.0000001
 43
0.0000001
 44
0.0000000001
 40
0.0
 40
0.0
 40
0.0
 40
0.0
 40
0.2575604967
 40
1.0
 40
1.0
 40
1.0
 40
1.0
 10
11.911455149
 20
9.2615093983
 30
0.0
 10
11.9123307897
 20
9.2610034027
 30
0.0
 10
11.9156960509
 20
9.2589802416
 30
0.0
 10
11.9189202094
 20
9.2567186036
 30
0.0
 10
11.9211977301
 20
9.2548988633
 30
0.0
  0
SPLINE
  5
908
100
AcDbEntity
  8
0
100
AcDbSpline
 62
7
  6
CONTINUOUS
 70
0
 71
3
 72
11
 73
7
 74
0
 42
0.0000001
 43
0.0000001
 44
0.0000000001
 40
0.0
 40
0.0
 40
0.0
 40
0.0
 40
0.2895788086
 40
0.5490236357
 40
0.7821692774
 40
1.0
 40
1.0
 40
1.0
 40
1.0
 10
11.92885443
 20
9.3358265079
 30
0.0
 10
11.923713403
 20
9.3387972895
 30
0.0
 10
11.9143853747
 20
9.3452310332
 30
0.0
 10
11.9032371566
 20
9.3569579589
 30
0.0
 10
11.896186787
 20
9.3699339974
 30
0.0
 10
11.8945499267
 20
9.3792446615
 30
0.0
 10
11.8945511167
 20
9.3837111582
 30
0.0
  0
SPLINE
  5
909
100
AcDbEntity
  8
0
100
AcDbSpline
 62
7
  6
CONTINUOUS
 70
0
 71
3
 72
15
 73
11
 74
0
 42
0.0000001
 43
0.0000001
 44
0.0000000001
 40
0.0
 40
0.0
 40
0.0
 40
0.0
 40
0.1288107934
 40
0.2705209757
 40
0.4177943892
 40
0.5622633255
 40
0.696072018
 40
0.8134834915
 40
0.9130046062
 40
1.0
 40
1.0
 40
1.0
 40
1.0
 10
12.0784882469
 20
9.4222935499
 30
0.0
 10
12.0714960289
 20
9.4263340563
 30
0.0
 10
12.0556638963
 20
9.432872849
 30
0.0
 10
12.029859673
 20
9.4380421984
 30
0.0
 10
12.0025642086
 20
9.4388000361
 30
0.0
 10
11.9760140909
 20
9.4350708945
 30
0.0
 10
11.9523271805
 20
9.4271547216
 30
0.0
 10
11.9333500397
 20
9.4155881737
 30
0.0
 10
11.9204916404
 20
9.4009636013
 30
0.0
 10
11.9171912358
 20
9.3891657776
 30
0.0
 10
11.9171888
 20
9.3837116698
 30
0.0
  0
SPLINE
  5
90A
100
AcDbEntity
  8
0
100
AcDbSpline
 62
7
  6
CONTINUOUS
 70
0
 71
3
 72
16
 73
12
 74
0
 42
0.0000001
 43
0.0000001
 44
0.0000000001
 40
0.0
 40
0.0
 40
0.0
 40
0.0
 40
0.0428630198
 40
0.087502814
 40
0.1869119103
 40
0.3042430108
 40
0.4379905024
 40
0.5824144756
 40
0.7296446551
 40
0.8712922331
 40
1.0
 40
1.0
 40
1.0
 40
1.0
 10
15.5813216828
 20
6.7269290746
 30
0.0
 10
15.5779257001
 20
6.728889986
 30
0.0
 10
15.5704367552
 20
6.73199741
 30
0.0
 10
15.5533688482
 20
6.7344914127
 30
0.0
 10
15.5292734797
 20
6.7297739504
 30
0.0
 10
15.5008890918
 20
6.714195001
 30
0.0
 10
15.4736022415
 20
6.6900549643
 30
0.0
 10
15.4495310098
 20
6.6592304169
 30
0.0
 10
15.4305720014
 20
6.6241991011
 30
0.0
 10
15.4182717345
 20
6.5878390628
 30
0.0
 10
15.4149743778
 20
6.5630766314
 30
0.0
 10
15.4149743778
 20
6.5513013822
 30
0.0
  0
SPLINE
  5
90B
100
AcDbEntity
  8
0
100
AcDbSpline
 62
7
  6
CONTINUOUS
 70
0
 71
3
 72
9
 73
5
 74
0
 42
0.0000001
 43
0.0000001
 44
0.0000000001
 40
0.0
 40
0.0
 40
0.0
 40
0.0
 40
0.2668414048
 40
1.0
 40
1.0
 40
1.0
 40
1.0
 10
12.0313600471
 20
9.3728248728
 30
0.0
 10
12.0357359504
 20
9.3722862525
 30
0.0
 10
12.0520217128
 20
9.369575364
 30
0.0
 10
12.0679997593
 20
9.3640916
 30
0.0
 10
12.0784882469
 20
9.3580307475
 30
0.0
  0
SPLINE
  5
90C
100
AcDbEntity
  8
0
100
AcDbSpline
 62
7
  6
CONTINUOUS
 70
0
 71
3
 72
9
 73
5
 74
0
 42
0.0000001
 43
0.0000001
 44
0.0000000001
 40
0.0
 40
0.0
 40
0.0
 40
0.0
 40
0.2575604967
 40
1.0
 40
1.0
 40
1.0
 40
1.0
 10
12.0784882469
 20
9.3580307475
 30
0.0
 10
12.0793638876
 20
9.3575247518
 30
0.0
 10
12.0827291489
 20
9.3555015908
 30
0.0
 10
12.0859533073
 20
9.3532399527
 30
0.0
 10
12.088230828
 20
9.3514202124
 30
0.0
  0
SPLINE
  5
90D
100
AcDbEntity
  8
0
100
AcDbSpline
 62
7
  6
CONTINUOUS
 70
0
 71
3
 72
11
 73
7
 74
0
 42
0.0000001
 43
0.0000001
 44
0.0000000001
 40
0.0
 40
0.0
 40
0.0
 40
0.0
 40
0.2304567985
 40
0.4848087056
 40
0.7471847354
 40
1.0
 40
1.0
 40
1.0
 40
1.0
 10
13.716804549
 20
6.7418192632
 30
0.0
 10
13.716804549
 20
6.7528449275
 30
0.0
 10
13.7134404008
 20
6.776064393
 30
0.0
 10
13.7011017842
 20
6.8098209118
 30
0.0
 10
13.6823349951
 20
6.8417172049
 30
0.0
 10
13.6660424759
 20
6.8604684424
 30
0.0
 10
13.6571498711
 20
6.8686671701
 30
0.0
  0
SPLINE
  5
90E
100
AcDbEntity
  8
0
100
AcDbSpline
 62
7
  6
CONTINUOUS
 70
0
 71
3
 72
11
 73
7
 74
0
 42
0.0000001
 43
0.0000001
 44
0.0000000001
 40
0.0
 40
0.0
 40
0.0
 40
0.0
 40
0.2178326871
 40
0.45098157
 40
0.710429148
 40
1.0
 40
1.0
 40
1.0
 40
1.0
 10
15.4120246118
 20
7.6905130175
 30
0.0
 10
15.4120262212
 20
7.6941166682
 30
0.0
 10
15.4107071281
 20
7.7016290412
 30
0.0
 10
15.4050193253
 20
7.7120988317
 30
0.0
 10
15.3960252155
 20
7.7215605653
 30
0.0
 10
15.388499366
 20
7.7267514235
 30
0.0
 10
15.3843516432
 20
7.7291482168
 30
0.0
  0
SPLINE
  5
90F
100
AcDbEntity
  8
0
100
AcDbSpline
 62
7
  6
CONTINUOUS
 70
0
 71
3
 72
9
 73
5
 74
0
 42
0.0000001
 43
0.0000001
 44
0.0000000001
 40
0.0
 40
0.0
 40
0.0
 40
0.0
 40
0.4737102843
 40
1.0
 40
1.0
 40
1.0
 40
1.0
 10
15.2480748277
 20
7.6632900124
 30
0.0
 10
15.2551265469
 20
7.667710741
 30
0.0
 10
15.271384949
 20
7.6748788674
 30
0.0
 10
15.2886759971
 20
7.6785499176
 30
0.0
 10
15.2978533646
 20
7.6796795397
 30
0.0
  0
SPLINE
  5
910
100
AcDbEntity
  8
0
100
AcDbSpline
 62
7
  6
CONTINUOUS
 70
0
 71
3
 72
11
 73
7
 74
0
 42
0.0000001
 43
0.0000001
 44
0.0000000001
 40
0.0
 40
0.0
 40
0.0
 40
0.0
 40
0.2191838473
 40
0.4529677202
 40
0.7117015847
 40
1.0
 40
1.0
 40
1.0
 40
1.0
 10
15.434662295
 20
7.6905135291
 30
0.0
 10
15.4346611435
 20
7.6861914391
 30
0.0
 10
15.4331159416
 20
7.6772031451
 30
0.0
 10
15.4265056785
 20
7.6646165051
 30
0.0
 10
15.4160218524
 20
7.6531582259
 30
0.0
 10
15.4072124573
 20
7.6468123116
 30
0.0
 10
15.4023520058
 20
7.6438636171
 30
0.0
  0
SPLINE
  5
911
100
AcDbEntity
  8
0
100
AcDbSpline
 62
7
  6
CONTINUOUS
 70
0
 71
3
 72
11
 73
7
 74
0
 42
0.0000001
 43
0.0000001
 44
0.0000000001
 40
0.0
 40
0.0
 40
0.0
 40
0.0
 40
0.2356933295
 40
0.4984207127
 40
0.7619892772
 40
1.0
 40
1.0
 40
1.0
 40
1.0
 10
15.4023520058
 20
7.6438636171
 30
0.0
 10
15.3906651324
 20
7.6367735311
 30
0.0
 10
15.363158978
 20
7.6263583964
 30
0.0
 10
15.3189315196
 20
7.6211799808
 30
0.0
 10
15.2745032917
 20
7.625765098
 30
0.0
 10
15.2466696366
 20
7.6357747301
 30
0.0
 10
15.2347178263
 20
7.6426811748
 30
0.0
  0
SPLINE
  5
912
100
AcDbEntity
  8
0
100
AcDbSpline
 62
7
  6
CONTINUOUS
 70
0
 71
3
 72
11
 73
7
 74
0
 42
0.0000001
 43
0.0000001
 44
0.0000000001
 40
0.0
 40
0.0
 40
0.0
 40
0.0
 40
0.2895788086
 40
0.5490236357
 40
0.7821692774
 40
1.0
 40
1.0
 40
1.0
 40
1.0
 10
12.0958875279
 20
9.4323478571
 30
0.0
 10
12.0907465009
 20
9.4353186387
 30
0.0
 10
12.0814184726
 20
9.4417523823
 30
0.0
 10
12.0702702545
 20
9.453479308
 30
0.0
 10
12.0632198849
 20
9.4664553466
 30
0.0
 10
12.0615830246
 20
9.4757660106
 30
0.0
 10
12.0615842146
 20
9.4802325074
 30
0.0
  0
SPLINE
  5
913
100
AcDbEntity
  8
0
100
AcDbSpline
 62
7
  6
CONTINUOUS
 70
0
 71
3
 72
15
 73
11
 74
0
 42
0.0000001
 43
0.0000001
 44
0.0000000001
 40
0.0
 40
0.0
 40
0.0
 40
0.0
 40
0.1288107934
 40
0.2705209757
 40
0.4177943892
 40
0.5622633255
 40
0.696072018
 40
0.8134834915
 40
0.9130046062
 40
1.0
 40
1.0
 40
1.0
 40
1.0
 10
12.2455213448
 20
9.518814899
 30
0.0
 10
12.2385291268
 20
9.5228554055
 30
0.0
 10
12.2226969942
 20
9.5293941982
 30
0.0
 10
12.1968927709
 20
9.5345635476
 30
0.0
 10
12.1695973065
 20
9.5353213852
 30
0.0
 10
12.1430471888
 20
9.5315922436
 30
0.0
 10
12.1193602784
 20
9.5236760708
 30
0.0
 10
12.1003831376
 20
9.5121095228
 30
0.0
 10
12.0875247383
 20
9.4974849505
 30
0.0
 10
12.0842243337
 20
9.4856871267
 30
0.0
 10
12.0842218979
 20
9.4802330189
 30
0.0
  0
LINE
  5
914
100
AcDbEntity
  8
0
100
AcDbLine
 62
7
  6
CONTINUOUS
 10
15.5541686261
 20
7.5393931518
 11
15.5680880509
 21
7.5266059582
  0
SPLINE
  5
915
100
AcDbEntity
  8
0
100
AcDbSpline
 62
7
  6
CONTINUOUS
 70
0
 71
3
 72
9
 73
5
 74
0
 42
0.0000001
 43
0.0000001
 44
0.0000000001
 40
0.0
 40
0.0
 40
0.0
 40
0.0
 40
0.2668414048
 40
1.0
 40
1.0
 40
1.0
 40
1.0
 10
12.198393145
 20
9.469346222
 30
0.0
 10
12.2027690483
 20
9.4688076016
 30
0.0
 10
12.2190548108
 20
9.4660967131
 30
0.0
 10
12.2350328573
 20
9.4606129491
 30
0.0
 10
12.2455213448
 20
9.4545520967
 30
0.0
  0
SPLINE
  5
916
100
AcDbEntity
  8
0
100
AcDbSpline
 62
7
  6
CONTINUOUS
 70
0
 71
3
 72
9
 73
5
 74
0
 42
0.0000001
 43
0.0000001
 44
0.0000000001
 40
0.0
 40
0.0
 40
0.0
 40
0.0
 40
0.2575604967
 40
1.0
 40
1.0
 40
1.0
 40
1.0
 10
12.2455213448
 20
9.4545520967
 30
0.0
 10
12.2463969855
 20
9.454046101
 30
0.0
 10
12.2497622468
 20
9.45202294
 30
0.0
 10
12.2529864052
 20
9.4497613019
 30
0.0
 10
12.255263926
 20
9.4479415616
 30
0.0
  0
SPLINE
  5
917
100
AcDbEntity
  8
0
100
AcDbSpline
 62
7
  6
CONTINUOUS
 70
0
 71
3
 72
11
 73
7
 74
0
 42
0.0000001
 43
0.0000001
 44
0.0000000001
 40
0.0
 40
0.0
 40
0.0
 40
0.0
 40
0.2178326871
 40
0.45098157
 40
0.710429148
 40
1.0
 40
1.0
 40
1.0
 40
1.0
 10
15.2449915139
 20
7.5939916684
 30
0.0
 10
15.2449931233
 20
7.597595319
 30
0.0
 10
15.2436740301
 20
7.605107692
 30
0.0
 10
15.2379862274
 20
7.6155774826
 30
0.0
 10
15.2289921176
 20
7.6250392162
 30
0.0
 10
15.221466268
 20
7.6302300744
 30
0.0
 10
15.2173185453
 20
7.6326268676
 30
0.0
  0
SPLINE
  5
918
100
AcDbEntity
  8
0
100
AcDbSpline
 62
7
  6
CONTINUOUS
 70
0
 71
3
 72
9
 73
5
 74
0
 42
0.0000001
 43
0.0000001
 44
0.0000000001
 40
0.0
 40
0.0
 40
0.0
 40
0.0
 40
0.4737102843
 40
1.0
 40
1.0
 40
1.0
 40
1.0
 10
15.0810417298
 20
7.5667686632
 30
0.0
 10
15.088093449
 20
7.5711893919
 30
0.0
 10
15.104351851
 20
7.5783575183
 30
0.0
 10
15.1216428992
 20
7.5820285685
 30
0.0
 10
15.1308202667
 20
7.5831581906
 30
0.0
  0
SPLINE
  5
919
100
AcDbEntity
  8
0
100
AcDbSpline
 62
7
  6
CONTINUOUS
 70
0
 71
3
 72
11
 73
7
 74
0
 42
0.0000001
 43
0.0000001
 44
0.0000000001
 40
0.0
 40
0.0
 40
0.0
 40
0.0
 40
0.2191838473
 40
0.4529677202
 40
0.7117015847
 40
1.0
 40
1.0
 40
1.0
 40
1.0
 10
15.2676291971
 20
7.5939921799
 30
0.0
 10
15.2676280456
 20
7.5896700899
 30
0.0
 10
15.2660828437
 20
7.5806817959
 30
0.0
 10
15.2594725805
 20
7.568095156
 30
0.0
 10
15.2489887545
 20
7.5566368767
 30
0.0
 10
15.2401793594
 20
7.5502909624
 30
0.0
 10
15.2353189079
 20
7.5473422679
 30
0.0
  0
SPLINE
  5
91A
100
AcDbEntity
  8
0
100
AcDbSpline
 62
7
  6
CONTINUOUS
 70
0
 71
3
 72
11
 73
7
 74
0
 42
0.0000001
 43
0.0000001
 44
0.0000000001
 40
0.0
 40
0.0
 40
0.0
 40
0.0
 40
0.2356933295
 40
0.4984207127
 40
0.7619892772
 40
1.0
 40
1.0
 40
1.0
 40
1.0
 10
15.2353189079
 20
7.5473422679
 30
0.0
 10
15.2236320345
 20
7.5402521819
 30
0.0
 10
15.19612588
 20
7.5298370472
 30
0.0
 10
15.1518984217
 20
7.5246586316
 30
0.0
 10
15.1074701938
 20
7.5292437489
 30
0.0
 10
15.0796365387
 20
7.5392533809
 30
0.0
 10
15.0676847284
 20
7.5461598256
 30
0.0
  0
SPLINE
  5
91B
100
AcDbEntity
  8
0
100
AcDbSpline
 62
7
  6
CONTINUOUS
 70
0
 71
3
 72
11
 73
7
 74
0
 42
0.0000001
 43
0.0000001
 44
0.0000000001
 40
0.0
 40
0.0
 40
0.0
 40
0.0
 40
0.2895788086
 40
0.5490236357
 40
0.7821692774
 40
1.0
 40
1.0
 40
1.0
 40
1.0
 10
12.2629206258
 20
9.5288692062
 30
0.0
 10
12.2577795989
 20
9.5318399879
 30
0.0
 10
12.2484515705
 20
9.5382737315
 30
0.0
 10
12.2373033524
 20
9.5500006572
 30
0.0
 10
12.2302529828
 20
9.5629766957
 30
0.0
 10
12.2286161225
 20
9.5722873598
 30
0.0
 10
12.2286173125
 20
9.5767538565
 30
0.0
  0
SPLINE
  5
91C
100
AcDbEntity
  8
0
100
AcDbSpline
 62
7
  6
CONTINUOUS
 70
0
 71
3
 72
15
 73
11
 74
0
 42
0.0000001
 43
0.0000001
 44
0.0000000001
 40
0.0
 40
0.0
 40
0.0
 40
0.0
 40
0.1288107934
 40
0.2705209757
 40
0.4177943892
 40
0.5622633255
 40
0.696072018
 40
0.8134834915
 40
0.9130046062
 40
1.0
 40
1.0
 40
1.0
 40
1.0
 10
12.4125544427
 20
9.6153362482
 30
0.0
 10
12.4055622247
 20
9.6193767546
 30
0.0
 10
12.3897300921
 20
9.6259155474
 30
0.0
 10
12.3639258688
 20
9.6310848967
 30
0.0
 10
12.3366304044
 20
9.6318427344
 30
0.0
 10
12.3100802867
 20
9.6281135928
 30
0.0
 10
12.2863933763
 20
9.6201974199
 30
0.0
 10
12.2674162355
 20
9.608630872
 30
0.0
 10
12.2545578362
 20
9.5940062997
 30
0.0
 10
12.2512574316
 20
9.5822084759
 30
0.0
 10
12.2512549958
 20
9.5767543681
 30
0.0
  0
SPLINE
  5
91D
100
AcDbEntity
  8
0
100
AcDbSpline
 62
7
  6
CONTINUOUS
 70
0
 71
3
 72
12
 73
8
 74
0
 42
0.0000001
 43
0.0000001
 44
0.0000000001
 40
0.0
 40
0.0
 40
0.0
 40
0.0
 40
0.3062479736
 40
0.5752907191
 40
0.8020387311
 40
0.9031893592
 40
1.0
 40
1.0
 40
1.0
 40
1.0
 10
15.0225335083
 20
7.2858856239
 30
0.0
 10
15.0333398774
 20
7.288094299
 30
0.0
 10
15.0533503785
 20
7.2941044095
 30
0.0
 10
15.0787147347
 20
7.3084881799
 30
0.0
 10
15.093672167
 20
7.3247593216
 30
0.0
 10
15.0996104525
 20
7.3390110806
 30
0.0
 10
15.1005941794
 20
7.3461727724
 30
0.0
 10
15.1005957365
 20
7.3496594866
 30
0.0
  0
SPLINE
  5
91E
100
AcDbEntity
  8
0
100
AcDbSpline
 62
7
  6
CONTINUOUS
 70
0
 71
3
 72
14
 73
10
 74
0
 42
0.0000001
 43
0.0000001
 44
0.0000000001
 40
0.0
 40
0.0
 40
0.0
 40
0.0
 40
0.2911556654
 40
0.438002318
 40
0.5773830196
 40
0.7043500301
 40
0.8160029069
 40
0.9128079776
 40
1.0
 40
1.0
 40
1.0
 40
1.0
 10
15.1002767439
 20
7.3850709773
 30
0.0
 10
15.1188013897
 20
7.3799899547
 30
0.0
 10
15.1481176416
 20
7.3769623079
 30
0.0
 10
15.1860719956
 20
7.3809952341
 30
0.0
 10
15.2125543732
 20
7.3879890517
 30
0.0
 10
15.2353252637
 20
7.3985268889
 30
0.0
 10
15.2530920305
 20
7.4121022864
 30
0.0
 10
15.2647622993
 20
7.4281840432
 30
0.0
 10
15.2676262654
 20
7.4404283909
 30
0.0
 10
15.2676288345
 20
7.4461808357
 30
0.0
  0
SPLINE
  5
91F
100
AcDbEntity
  8
0
100
AcDbSpline
 62
7
  6
CONTINUOUS
 70
0
 71
3
 72
14
 73
10
 74
0
 42
0.0000001
 43
0.0000001
 44
0.0000000001
 40
0.0
 40
0.0
 40
0.0
 40
0.0
 40
0.2911556654
 40
0.438002318
 40
0.5773830196
 40
0.7043500301
 40
0.8160029069
 40
0.9128079776
 40
1.0
 40
1.0
 40
1.0
 40
1.0
 10
15.2673098419
 20
7.4815923264
 30
0.0
 10
15.2858344876
 20
7.4765113038
 30
0.0
 10
15.3151507395
 20
7.4734836571
 30
0.0
 10
15.3531050935
 20
7.4775165833
 30
0.0
 10
15.3795874711
 20
7.4845104009
 30
0.0
 10
15.4023583616
 20
7.4950482381
 30
0.0
 10
15.4201251284
 20
7.5086236356
 30
0.0
 10
15.4317953972
 20
7.5247053923
 30
0.0
 10
15.4346593633
 20
7.5369497401
 30
0.0
 10
15.4346619324
 20
7.5427021849
 30
0.0
  0
SPLINE
  5
920
100
AcDbEntity
  8
0
100
AcDbSpline
 62
7
  6
CONTINUOUS
 70
0
 71
3
 72
9
 73
5
 74
0
 42
0.0000001
 43
0.0000001
 44
0.0000000001
 40
0.0
 40
0.0
 40
0.0
 40
0.0
 40
0.4854441459
 40
1.0
 40
1.0
 40
1.0
 40
1.0
 10
13.2713829545
 20
8.4430011574
 30
0.0
 10
13.5630074404
 20
8.2721709193
 30
0.0
 10
14.1424084031
 20
7.883107591
 30
0.0
 10
14.6776419266
 20
7.4359383515
 30
0.0
 10
14.9417139337
 20
7.1938538817
 30
0.0
  0
SPLINE
  5
921
100
AcDbEntity
  8
0
100
AcDbSpline
 62
7
  6
CONTINUOUS
 70
0
 71
3
 72
9
 73
5
 74
0
 42
0.0000001
 43
0.0000001
 44
0.0000000001
 40
0.0
 40
0.0
 40
0.0
 40
0.0
 40
0.5145693759
 40
1.0
 40
1.0
 40
1.0
 40
1.0
 10
14.9417139337
 20
7.1854815383
 30
0.0
 10
14.6776640147
 20
7.427657209
 30
0.0
 10
14.1424584933
 20
7.8749727341
 30
0.0
 10
13.5630274179
 20
8.2641235247
 30
0.0
 10
13.2713829545
 20
8.4349681172
 30
0.0
  0
SPLINE
  5
922
100
AcDbEntity
  8
0
100
AcDbSpline
 62
7
  6
CONTINUOUS
 70
0
 71
3
 72
9
 73
5
 74
0
 42
0.0000001
 43
0.0000001
 44
0.0000000001
 40
0.0
 40
0.0
 40
0.0
 40
0.0
 40
0.2674999392
 40
1.0
 40
1.0
 40
1.0
 40
1.0
 10
13.2713829545
 20
8.4349681172
 30
0.0
 10
13.2629086927
 20
8.4399323185
 30
0.0
 10
13.2318383434
 20
8.4594631504
 30
0.0
 10
13.2031762363
 20
8.4831727083
 30
0.0
 10
13.1851626722
 20
8.503142164
 30
0.0
  0
SPLINE
  5
923
100
AcDbEntity
  8
0
100
AcDbSpline
 62
7
  6
CONTINUOUS
 70
0
 71
3
 72
10
 73
6
 74
0
 42
0.0000001
 43
0.0000001
 44
0.0000000001
 40
0.0
 40
0.0
 40
0.0
 40
0.0
 40
0.5241494135
 40
0.7655617198
 40
1.0
 40
1.0
 40
1.0
 40
1.0
 10
13.1813437852
 20
8.5074685106
 30
0.0
 10
13.1665972963
 20
8.5245460995
 30
0.0
 10
13.1480147622
 20
8.5527038074
 30
0.0
 10
13.1351328426
 20
8.5940069584
 30
0.0
 10
13.1330054567
 20
8.6145530214
 30
0.0
 10
13.1330085159
 20
8.6246449977
 30
0.0
  0
SPLINE
  5
924
100
AcDbEntity
  8
0
100
AcDbSpline
 62
7
  6
CONTINUOUS
 70
0
 71
3
 72
11
 73
7
 74
0
 42
0.0000001
 43
0.0000001
 44
0.0000000001
 40
0.0
 40
0.0
 40
0.0
 40
0.0
 40
0.2895788086
 40
0.5490236357
 40
0.7821692774
 40
1.0
 40
1.0
 40
1.0
 40
1.0
 10
14.9006516305
 20
7.4496384765
 30
0.0
 10
14.8955106035
 20
7.4526092581
 30
0.0
 10
14.8861825751
 20
7.4590430018
 30
0.0
 10
14.875034357
 20
7.4707699274
 30
0.0
 10
14.8679839875
 20
7.483745966
 30
0.0
 10
14.8663471271
 20
7.49305663
 30
0.0
 10
14.8663483172
 20
7.4975231268
 30
0.0
  0
SPLINE
  5
925
100
AcDbEntity
  8
0
100
AcDbSpline
 62
7
  6
CONTINUOUS
 70
0
 71
3
 72
15
 73
11
 74
0
 42
0.0000001
 43
0.0000001
 44
0.0000000001
 40
0.0
 40
0.0
 40
0.0
 40
0.0
 40
0.1288107934
 40
0.2705209757
 40
0.4177943892
 40
0.5622633255
 40
0.696072018
 40
0.8134834915
 40
0.9130046062
 40
1.0
 40
1.0
 40
1.0
 40
1.0
 10
15.0502854473
 20
7.5361055184
 30
0.0
 10
15.0432932294
 20
7.5401460249
 30
0.0
 10
15.0274610967
 20
7.5466848176
 30
0.0
 10
15.0016568735
 20
7.551854167
 30
0.0
 10
14.974361409
 20
7.5526120047
 30
0.0
 10
14.9478112913
 20
7.548882863
 30
0.0
 10
14.9241243809
 20
7.5409666902
 30
0.0
 10
14.9051472402
 20
7.5294001423
 30
0.0
 10
14.8922888408
 20
7.5147755699
 30
0.0
 10
14.8889884363
 20
7.5029777462
 30
0.0
 10
14.8889860004
 20
7.4975236384
 30
0.0
  0
SPLINE
  5
926
100
AcDbEntity
  8
0
100
AcDbSpline
 62
7
  6
CONTINUOUS
 70
0
 71
3
 72
9
 73
5
 74
0
 42
0.0000001
 43
0.0000001
 44
0.0000000001
 40
0.0
 40
0.0
 40
0.0
 40
0.0
 40
0.2668414048
 40
1.0
 40
1.0
 40
1.0
 40
1.0
 10
12.3654262429
 20
9.5658675712
 30
0.0
 10
12.3698021462
 20
9.5653289508
 30
0.0
 10
12.3860879087
 20
9.5626180623
 30
0.0
 10
12.4020659552
 20
9.5571342983
 30
0.0
 10
12.4125544427
 20
9.5510734458
 30
0.0
  0
SPLINE
  5
927
100
AcDbEntity
  8
0
100
AcDbSpline
 62
7
  6
CONTINUOUS
 70
0
 71
3
 72
9
 73
5
 74
0
 42
0.0000001
 43
0.0000001
 44
0.0000000001
 40
0.0
 40
0.0
 40
0.0
 40
0.0
 40
0.2575604967
 40
1.0
 40
1.0
 40
1.0
 40
1.0
 10
12.4125544427
 20
9.5510734458
 30
0.0
 10
12.4134300834
 20
9.5505674502
 30
0.0
 10
12.4167953447
 20
9.5485442891
 30
0.0
 10
12.4200195031
 20
9.546282651
 30
0.0
 10
12.4222970239
 20
9.5444629108
 30
0.0
  0
SPLINE
  5
928
100
AcDbEntity
  8
0
100
AcDbSpline
 62
7
  6
CONTINUOUS
 70
0
 71
3
 72
9
 73
5
 74
0
 42
0.0000001
 43
0.0000001
 44
0.0000000001
 40
0.0
 40
0.0
 40
0.0
 40
0.0
 40
0.2668414048
 40
1.0
 40
1.0
 40
1.0
 40
1.0
 10
15.0031572475
 20
7.4866368414
 30
0.0
 10
15.0075331508
 20
7.4860982211
 30
0.0
 10
15.0238189133
 20
7.4833873325
 30
0.0
 10
15.0397969598
 20
7.4779035686
 30
0.0
 10
15.0502854473
 20
7.4718427161
 30
0.0
  0
SPLINE
  5
929
100
AcDbEntity
  8
0
100
AcDbSpline
 62
7
  6
CONTINUOUS
 70
0
 71
3
 72
9
 73
5
 74
0
 42
0.0000001
 43
0.0000001
 44
0.0000000001
 40
0.0
 40
0.0
 40
0.0
 40
0.0
 40
0.2575604967
 40
1.0
 40
1.0
 40
1.0
 40
1.0
 10
15.0502854473
 20
7.4718427161
 30
0.0
 10
15.051161088
 20
7.4713367204
 30
0.0
 10
15.0545263493
 20
7.4693135594
 30
0.0
 10
15.0577505077
 20
7.4670519213
 30
0.0
 10
15.0600280285
 20
7.465232181
 30
0.0
  0
SPLINE
  5
92A
100
AcDbEntity
  8
0
100
AcDbSpline
 62
7
  6
CONTINUOUS
 70
0
 71
3
 72
11
 73
7
 74
0
 42
0.0000001
 43
0.0000001
 44
0.0000000001
 40
0.0
 40
0.0
 40
0.0
 40
0.0
 40
0.2178326871
 40
0.45098157
 40
0.710429148
 40
1.0
 40
1.0
 40
1.0
 40
1.0
 10
15.0779584159
 20
7.4974703192
 30
0.0
 10
15.0779600254
 20
7.5010739699
 30
0.0
 10
15.0766409322
 20
7.5085863428
 30
0.0
 10
15.0709531295
 20
7.5190561334
 30
0.0
 10
15.0619590197
 20
7.528517867
 30
0.0
 10
15.0544331701
 20
7.5337087252
 30
0.0
 10
15.0502854473
 20
7.5361055184
 30
0.0
  0
SPLINE
  5
92B
100
AcDbEntity
  8
0
100
AcDbSpline
 62
7
  6
CONTINUOUS
 70
0
 71
3
 72
9
 73
5
 74
0
 42
0.0000001
 43
0.0000001
 44
0.0000000001
 40
0.0
 40
0.0
 40
0.0
 40
0.0
 40
0.4737102843
 40
1.0
 40
1.0
 40
1.0
 40
1.0
 10
14.9140086319
 20
7.4702473141
 30
0.0
 10
14.9210603511
 20
7.4746680427
 30
0.0
 10
14.9373187531
 20
7.4818361691
 30
0.0
 10
14.9546098013
 20
7.4855072193
 30
0.0
 10
14.9637871688
 20
7.4866368414
 30
0.0
  0
SPLINE
  5
92C
100
AcDbEntity
  8
0
100
AcDbSpline
 62
7
  6
CONTINUOUS
 70
0
 71
3
 72
10
 73
6
 74
0
 42
0.0000001
 43
0.0000001
 44
0.0000000001
 40
0.0
 40
0.0
 40
0.0
 40
0.0
 40
0.2331784199
 40
0.4745372047
 40
1.0
 40
1.0
 40
1.0
 40
1.0
 10
13.1332102019
 20
8.6248969566
 30
0.0
 10
13.1337274748
 20
8.6150145874
 30
0.0
 10
13.1368242845
 20
8.5949553764
 30
0.0
 10
13.1512239713
 20
8.5548265051
 30
0.0
 10
13.1703168959
 20
8.5276148373
 30
0.0
 10
13.1852623896
 20
8.5110639681
 30
0.0
  0
SPLINE
  5
92D
100
AcDbEntity
  8
0
100
AcDbSpline
 62
7
  6
CONTINUOUS
 70
0
 71
3
 72
9
 73
5
 74
0
 42
0.0000001
 43
0.0000001
 44
0.0000000001
 40
0.0
 40
0.0
 40
0.0
 40
0.0
 40
0.2340568174
 40
1.0
 40
1.0
 40
1.0
 40
1.0
 10
13.189260998
 20
8.506730425
 30
0.0
 10
13.1948346526
 20
8.5008172358
 30
0.0
 10
13.2197468172
 20
8.4765902416
 30
0.0
 10
13.2484379219
 20
8.4564420911
 30
0.0
 10
13.2713829545
 20
8.4430011574
 30
0.0
  0
SPLINE
  5
92E
100
AcDbEntity
  8
0
100
AcDbSpline
 62
7
  6
CONTINUOUS
 70
0
 71
3
 72
11
 73
7
 74
0
 42
0.0000001
 43
0.0000001
 44
0.0000000001
 40
0.0
 40
0.0
 40
0.0
 40
0.0
 40
0.2191838473
 40
0.4529677202
 40
0.7117015847
 40
1.0
 40
1.0
 40
1.0
 40
1.0
 10
15.1005960992
 20
7.4974708308
 30
0.0
 10
15.1005949476
 20
7.4931487408
 30
0.0
 10
15.0990497458
 20
7.4841604467
 30
0.0
 10
15.0924394826
 20
7.4715738068
 30
0.0
 10
15.0819556565
 20
7.4601155275
 30
0.0
 10
15.0731462615
 20
7.4537696132
 30
0.0
 10
15.06828581
 20
7.4508209188
 30
0.0
  0
SPLINE
  5
92F
100
AcDbEntity
  8
0
100
AcDbSpline
 62
7
  6
CONTINUOUS
 70
0
 71
3
 72
11
 73
7
 74
0
 42
0.0000001
 43
0.0000001
 44
0.0000000001
 40
0.0
 40
0.0
 40
0.0
 40
0.0
 40
0.2356933295
 40
0.4984207127
 40
0.7619892772
 40
1.0
 40
1.0
 40
1.0
 40
1.0
 10
15.06828581
 20
7.4508209188
 30
0.0
 10
15.0565989365
 20
7.4437308328
 30
0.0
 10
15.0290927821
 20
7.4333156981
 30
0.0
 10
14.9848653238
 20
7.4281372825
 30
0.0
 10
14.9404370958
 20
7.4327223997
 30
0.0
 10
14.9126034408
 20
7.4427320318
 30
0.0
 10
14.9006516305
 20
7.4496384765
 30
0.0
  0
SPLINE
  5
930
100
AcDbEntity
  8
0
100
AcDbSpline
 62
7
  6
CONTINUOUS
 70
0
 71
3
 72
9
 73
5
 74
0
 42
0.0000001
 43
0.0000001
 44
0.0000000001
 40
0.0
 40
0.0
 40
0.0
 40
0.0
 40
0.4737102843
 40
1.0
 40
1.0
 40
1.0
 40
1.0
 10
12.2762776273
 20
9.5494780438
 30
0.0
 10
12.2833293465
 20
9.5538987725
 30
0.0
 10
12.2995877485
 20
9.5610668988
 30
0.0
 10
12.3168787966
 20
9.5647379491
 30
0.0
 10
12.3260561642
 20
9.5658675712
 30
0.0
  0
SPLINE
  5
931
100
AcDbEntity
  8
0
100
AcDbSpline
 62
7
  6
CONTINUOUS
 70
0
 71
3
 72
11
 73
7
 74
0
 42
0.0000001
 43
0.0000001
 44
0.0000000001
 40
0.0
 40
0.0
 40
0.0
 40
0.0
 40
0.2178326871
 40
0.45098157
 40
0.710429148
 40
1.0
 40
1.0
 40
1.0
 40
1.0
 10
12.4402274113
 20
9.5767010489
 30
0.0
 10
12.4402290207
 20
9.5803046996
 30
0.0
 10
12.4389099276
 20
9.5878170726
 30
0.0
 10
12.4332221249
 20
9.5982868631
 30
0.0
 10
12.4242280151
 20
9.6077485968
 30
0.0
 10
12.4167021655
 20
9.612939455
 30
0.0
 10
12.4125544427
 20
9.6153362482
 30
0.0
  0
SPLINE
  5
932
100
AcDbEntity
  8
0
100
AcDbSpline
 62
7
  6
CONTINUOUS
 70
0
 71
3
 72
11
 73
7
 74
0
 42
0.0000001
 43
0.0000001
 44
0.0000000001
 40
0.0
 40
0.0
 40
0.0
 40
0.0
 40
0.2895788086
 40
0.5490236357
 40
0.7821692774
 40
1.0
 40
1.0
 40
1.0
 40
1.0
 10
15.0676847284
 20
7.5461598256
 30
0.0
 10
15.0625437014
 20
7.5491306073
 30
0.0
 10
15.053215673
 20
7.5555643509
 30
0.0
 10
15.0420674549
 20
7.5672912766
 30
0.0
 10
15.0350170854
 20
7.5802673152
 30
0.0
 10
15.033380225
 20
7.5895779792
 30
0.0
 10
15.0333814151
 20
7.5940444759
 30
0.0
  0
SPLINE
  5
933
100
AcDbEntity
  8
0
100
AcDbSpline
 62
7
  6
CONTINUOUS
 70
0
 71
3
 72
15
 73
11
 74
0
 42
0.0000001
 43
0.0000001
 44
0.0000000001
 40
0.0
 40
0.0
 40
0.0
 40
0.0
 40
0.1288107934
 40
0.2705209757
 40
0.4177943892
 40
0.5622633255
 40
0.696072018
 40
0.8134834915
 40
0.9130046062
 40
1.0
 40
1.0
 40
1.0
 40
1.0
 10
15.2173185453
 20
7.6326268676
 30
0.0
 10
15.2103263273
 20
7.6366673741
 30
0.0
 10
15.1944941946
 20
7.6432061668
 30
0.0
 10
15.1686899714
 20
7.6483755162
 30
0.0
 10
15.141394507
 20
7.6491333538
 30
0.0
 10
15.1148443893
 20
7.6454042122
 30
0.0
 10
15.0911574788
 20
7.6374880393
 30
0.0
 10
15.0721803381
 20
7.6259214914
 30
0.0
 10
15.0593219387
 20
7.6112969191
 30
0.0
 10
15.0560215342
 20
7.5994990953
 30
0.0
 10
15.0560190983
 20
7.5940449875
 30
0.0
  0
SPLINE
  5
934
100
AcDbEntity
  8
0
100
AcDbSpline
 62
7
  6
CONTINUOUS
 70
0
 71
3
 72
9
 73
5
 74
0
 42
0.0000001
 43
0.0000001
 44
0.0000000001
 40
0.0
 40
0.0
 40
0.0
 40
0.0
 40
0.2668414048
 40
1.0
 40
1.0
 40
1.0
 40
1.0
 10
15.1701903455
 20
7.5831581906
 30
0.0
 10
15.1745662487
 20
7.5826195702
 30
0.0
 10
15.1908520112
 20
7.5799086817
 30
0.0
 10
15.2068300577
 20
7.5744249177
 30
0.0
 10
15.2173185453
 20
7.5683640652
 30
0.0
  0
SPLINE
  5
935
100
AcDbEntity
  8
0
100
AcDbSpline
 62
7
  6
CONTINUOUS
 70
0
 71
3
 72
9
 73
5
 74
0
 42
0.0000001
 43
0.0000001
 44
0.0000000001
 40
0.0
 40
0.0
 40
0.0
 40
0.0
 40
0.2575604967
 40
1.0
 40
1.0
 40
1.0
 40
1.0
 10
15.2173185453
 20
7.5683640652
 30
0.0
 10
15.218194186
 20
7.5678580696
 30
0.0
 10
15.2215594472
 20
7.5658349085
 30
0.0
 10
15.2247836057
 20
7.5635732704
 30
0.0
 10
15.2270611264
 20
7.5617535302
 30
0.0
  0
SPLINE
  5
936
100
AcDbEntity
  8
0
100
AcDbSpline
 62
7
  6
CONTINUOUS
 70
0
 71
3
 72
11
 73
7
 74
0
 42
0.0000001
 43
0.0000001
 44
0.0000000001
 40
0.0
 40
0.0
 40
0.0
 40
0.0
 40
0.2191838473
 40
0.4529677202
 40
0.7117015847
 40
1.0
 40
1.0
 40
1.0
 40
1.0
 10
12.4628650946
 20
9.5767015605
 30
0.0
 10
12.462863943
 20
9.5723794705
 30
0.0
 10
12.4613187412
 20
9.5633911765
 30
0.0
 10
12.454708478
 20
9.5508045366
 30
0.0
 10
12.4442246519
 20
9.5393462573
 30
0.0
 10
12.4354152568
 20
9.533000343
 30
0.0
 10
12.4305548054
 20
9.5300516485
 30
0.0
  0
SPLINE
  5
937
100
AcDbEntity
  8
0
100
AcDbSpline
 62
7
  6
CONTINUOUS
 70
0
 71
3
 72
11
 73
7
 74
0
 42
0.0000001
 43
0.0000001
 44
0.0000000001
 40
0.0
 40
0.0
 40
0.0
 40
0.0
 40
0.2356933295
 40
0.4984207127
 40
0.7619892772
 40
1.0
 40
1.0
 40
1.0
 40
1.0
 10
12.4305548054
 20
9.5300516485
 30
0.0
 10
12.4188679319
 20
9.5229615625
 30
0.0
 10
12.3913617775
 20
9.5125464278
 30
0.0
 10
12.3471343192
 20
9.5073680122
 30
0.0
 10
12.3027060912
 20
9.5119531295
 30
0.0
 10
12.2748724362
 20
9.5219627615
 30
0.0
 10
12.2629206258
 20
9.5288692062
 30
0.0
  0
SPLINE
  5
938
100
AcDbEntity
  8
0
100
AcDbSpline
 62
7
  6
CONTINUOUS
 70
0
 71
3
 72
9
 73
5
 74
0
 42
0.0000001
 43
0.0000001
 44
0.0000000001
 40
0.0
 40
0.0
 40
0.0
 40
0.0
 40
0.4737102843
 40
1.0
 40
1.0
 40
1.0
 40
1.0
 10
12.1092445293
 20
9.4529566947
 30
0.0
 10
12.1162962486
 20
9.4573774233
 30
0.0
 10
12.1325546506
 20
9.4645455497
 30
0.0
 10
12.1498456987
 20
9.4682165999
 30
0.0
 10
12.1590230663
 20
9.469346222
 30
0.0
  0
SPLINE
  5
939
100
AcDbEntity
  8
0
100
AcDbSpline
 62
7
  6
CONTINUOUS
 70
0
 71
3
 72
11
 73
7
 74
0
 42
0.0000001
 43
0.0000001
 44
0.0000000001
 40
0.0
 40
0.0
 40
0.0
 40
0.0
 40
0.2178326871
 40
0.45098157
 40
0.710429148
 40
1.0
 40
1.0
 40
1.0
 40
1.0
 10
12.2731943134
 20
9.4801796998
 30
0.0
 10
12.2731959228
 20
9.4837833504
 30
0.0
 10
12.2718768297
 20
9.4912957234
 30
0.0
 10
12.266189027
 20
9.501765514
 30
0.0
 10
12.2571949172
 20
9.5112272476
 30
0.0
 10
12.2496690676
 20
9.5164181058
 30
0.0
 10
12.2455213448
 20
9.518814899
 30
0.0
  0
SPLINE
  5
93A
100
AcDbEntity
  8
0
100
AcDbSpline
 62
7
  6
CONTINUOUS
 70
0
 71
3
 72
11
 73
7
 74
0
 42
0.0000001
 43
0.0000001
 44
0.0000000001
 40
0.0
 40
0.0
 40
0.0
 40
0.0
 40
0.2895788086
 40
0.5490236357
 40
0.7821692774
 40
1.0
 40
1.0
 40
1.0
 40
1.0
 10
15.2347178263
 20
7.6426811748
 30
0.0
 10
15.2295767993
 20
7.6456519564
 30
0.0
 10
15.220248771
 20
7.6520857001
 30
0.0
 10
15.2091005529
 20
7.6638126258
 30
0.0
 10
15.2020501833
 20
7.6767886643
 30
0.0
 10
15.200413323
 20
7.6860993283
 30
0.0
 10
15.200414513
 20
7.6905658251
 30
0.0
  0
SPLINE
  5
93B
100
AcDbEntity
  8
0
100
AcDbSpline
 62
7
  6
CONTINUOUS
 70
0
 71
3
 72
15
 73
11
 74
0
 42
0.0000001
 43
0.0000001
 44
0.0000000001
 40
0.0
 40
0.0
 40
0.0
 40
0.0
 40
0.1288107934
 40
0.2705209757
 40
0.4177943892
 40
0.5622633255
 40
0.696072018
 40
0.8134834915
 40
0.9130046062
 40
1.0
 40
1.0
 40
1.0
 40
1.0
 10
15.3843516432
 20
7.7291482168
 30
0.0
 10
15.3773594252
 20
7.7331887232
 30
0.0
 10
15.3615272926
 20
7.7397275159
 30
0.0
 10
15.3357230693
 20
7.7448968653
 30
0.0
 10
15.3084276049
 20
7.745654703
 30
0.0
 10
15.2818774872
 20
7.7419255613
 30
0.0
 10
15.2581905767
 20
7.7340093885
 30
0.0
 10
15.239213436
 20
7.7224428406
 30
0.0
 10
15.2263550366
 20
7.7078182682
 30
0.0
 10
15.2230546321
 20
7.6960204445
 30
0.0
 10
15.2230521963
 20
7.6905663367
 30
0.0
  0
SPLINE
  5
93C
100
AcDbEntity
  8
0
100
AcDbSpline
 62
7
  6
CONTINUOUS
 70
0
 71
3
 72
9
 73
5
 74
0
 42
0.0000001
 43
0.0000001
 44
0.0000000001
 40
0.0
 40
0.0
 40
0.0
 40
0.0
 40
0.2668414048
 40
1.0
 40
1.0
 40
1.0
 40
1.0
 10
15.3372234434
 20
7.6796795397
 30
0.0
 10
15.3415993467
 20
7.6791409194
 30
0.0
 10
15.3578851091
 20
7.6764300308
 30
0.0
 10
15.3738631556
 20
7.6709462669
 30
0.0
 10
15.3843516432
 20
7.6648854144
 30
0.0
  0
SPLINE
  5
93D
100
AcDbEntity
  8
0
100
AcDbSpline
 62
7
  6
CONTINUOUS
 70
0
 71
3
 72
9
 73
5
 74
0
 42
0.0000001
 43
0.0000001
 44
0.0000000001
 40
0.0
 40
0.0
 40
0.0
 40
0.0
 40
0.2575604967
 40
1.0
 40
1.0
 40
1.0
 40
1.0
 10
15.3843516432
 20
7.6648854144
 30
0.0
 10
15.3852272839
 20
7.6643794187
 30
0.0
 10
15.3885925451
 20
7.6623562577
 30
0.0
 10
15.3918167036
 20
7.6600946196
 30
0.0
 10
15.3940942243
 20
7.6582748793
 30
0.0
  0
SPLINE
  5
93E
100
AcDbEntity
  8
0
100
AcDbSpline
 62
7
  6
CONTINUOUS
 70
0
 71
3
 72
11
 73
7
 74
0
 42
0.0000001
 43
0.0000001
 44
0.0000000001
 40
0.0
 40
0.0
 40
0.0
 40
0.0
 40
0.2191838473
 40
0.4529677202
 40
0.7117015847
 40
1.0
 40
1.0
 40
1.0
 40
1.0
 10
12.2958319967
 20
9.4801802114
 30
0.0
 10
12.2958308451
 20
9.4758581214
 30
0.0
 10
12.2942856433
 20
9.4668698273
 30
0.0
 10
12.2876753801
 20
9.4542831874
 30
0.0
 10
12.277191554
 20
9.4428249081
 30
0.0
 10
12.2683821589
 20
9.4364789938
 30
0.0
 10
12.2635217075
 20
9.4335302994
 30
0.0
  0
SPLINE
  5
93F
100
AcDbEntity
  8
0
100
AcDbSpline
 62
7
  6
CONTINUOUS
 70
0
 71
3
 72
11
 73
7
 74
0
 42
0.0000001
 43
0.0000001
 44
0.0000000001
 40
0.0
 40
0.0
 40
0.0
 40
0.0
 40
0.2356933295
 40
0.4984207127
 40
0.7619892772
 40
1.0
 40
1.0
 40
1.0
 40
1.0
 10
12.2635217075
 20
9.4335302994
 30
0.0
 10
12.251834834
 20
9.4264402134
 30
0.0
 10
12.2243286796
 20
9.4160250787
 30
0.0
 10
12.1801012212
 20
9.4108466631
 30
0.0
 10
12.1356729933
 20
9.4154317803
 30
0.0
 10
12.1078393382
 20
9.4254414124
 30
0.0
 10
12.0958875279
 20
9.4323478571
 30
0.0
  0
SPLINE
  5
940
100
AcDbEntity
  8
0
100
AcDbSpline
 62
7
  6
CONTINUOUS
 70
0
 71
3
 72
9
 73
5
 74
0
 42
0.0000001
 43
0.0000001
 44
0.0000000001
 40
0.0
 40
0.0
 40
0.0
 40
0.0
 40
0.4737102843
 40
1.0
 40
1.0
 40
1.0
 40
1.0
 10
11.9422114314
 20
9.3564353455
 30
0.0
 10
11.9492631506
 20
9.3608560742
 30
0.0
 10
11.9655215527
 20
9.3680242005
 30
0.0
 10
11.9828126008
 20
9.3716952508
 30
0.0
 10
11.9919899683
 20
9.3728248728
 30
0.0
  0
SPLINE
  5
941
100
AcDbEntity
  8
0
100
AcDbSpline
 62
7
  6
CONTINUOUS
 70
0
 71
3
 72
11
 73
7
 74
0
 42
0.0000001
 43
0.0000001
 44
0.0000000001
 40
0.0
 40
0.0
 40
0.0
 40
0.0
 40
0.2178326871
 40
0.45098157
 40
0.710429148
 40
1.0
 40
1.0
 40
1.0
 40
1.0
 10
12.1061612155
 20
9.3836583506
 30
0.0
 10
12.1061628249
 20
9.3872620013
 30
0.0
 10
12.1048437318
 20
9.3947743743
 30
0.0
 10
12.099155929
 20
9.4052441648
 30
0.0
 10
12.0901618193
 20
9.4147058984
 30
0.0
 10
12.0826359697
 20
9.4198967566
 30
0.0
 10
12.0784882469
 20
9.4222935499
 30
0.0
  0
SPLINE
  5
942
100
AcDbEntity
  8
0
100
AcDbSpline
 62
7
  6
CONTINUOUS
 70
0
 71
3
 72
9
 73
5
 74
0
 42
0.0000001
 43
0.0000001
 44
0.0000000001
 40
0.0
 40
0.0
 40
0.0
 40
0.0
 40
0.4849883885
 40
1.0
 40
1.0
 40
1.0
 40
1.0
 10
11.8486244554
 20
9.0612148907
 30
0.0
 10
12.0707530333
 20
8.9921178605
 30
0.0
 10
12.5201435365
 20
8.8210274654
 30
0.0
 10
12.9484785715
 20
8.6032366616
 30
0.0
 10
13.1632859746
 20
8.4812501381
 30
0.0
  0
LINE
  5
943
100
AcDbEntity
  8
0
100
AcDbLine
 62
7
  6
CONTINUOUS
 10
13.1632859746
 20
8.4812501381
 11
13.1666333153
 21
8.4793481584
  0
SPLINE
  5
944
100
AcDbEntity
  8
0
100
AcDbSpline
 62
7
  6
CONTINUOUS
 70
0
 71
3
 72
9
 73
5
 74
0
 42
0.0000001
 43
0.0000001
 44
0.0000000001
 40
0.0
 40
0.0
 40
0.0
 40
0.0
 40
0.4843875845
 40
1.0
 40
1.0
 40
1.0
 40
1.0
 10
13.1666333153
 20
8.4793481584
 30
0.0
 10
13.4771802853
 20
8.3027945982
 30
0.0
 10
14.0944113215
 20
7.895420958
 30
0.0
 10
14.6618954162
 20
7.4221283624
 30
0.0
 10
14.9417139337
 20
7.1646508989
 30
0.0
  0
SPLINE
  5
945
100
AcDbEntity
  8
0
100
AcDbSpline
 62
7
  6
CONTINUOUS
 70
0
 71
3
 72
11
 73
7
 74
0
 42
0.0000001
 43
0.0000001
 44
0.0000000001
 40
0.0
 40
0.0
 40
0.0
 40
0.0
 40
0.2896511071
 40
0.5491106448
 40
0.782227315
 40
1.0
 40
1.0
 40
1.0
 40
1.0
 10
15.4149743778
 20
6.5513013822
 30
0.0
 10
15.4149743778
 20
6.5443266733
 30
0.0
 10
15.4160346417
 20
6.5310595188
 30
0.0
 10
15.4214061013
 20
6.5128315616
 30
0.0
 10
15.4304541094
 20
6.4980381932
 30
0.0
 10
15.4389578097
 20
6.4909041202
 30
0.0
 10
15.4434990204
 20
6.4882819304
 30
0.0
  0
SPLINE
  5
946
100
AcDbEntity
  8
0
100
AcDbSpline
 62
7
  6
CONTINUOUS
 70
0
 71
3
 72
11
 73
7
 74
0
 42
0.0000001
 43
0.0000001
 44
0.0000000001
 40
0.0
 40
0.0
 40
0.0
 40
0.0
 40
0.275928726
 40
0.5356069341
 40
0.7771725681
 40
1.0
 40
1.0
 40
1.0
 40
1.0
 10
13.6571498711
 20
6.8686671701
 30
0.0
 10
13.5875033117
 20
6.9328793092
 30
0.0
 10
13.4462433678
 20
7.0511858296
 30
0.0
 10
13.2237948315
 20
7.1995887332
 30
0.0
 10
13.0009087482
 20
7.3111930327
 30
0.0
 10
12.8487526369
 20
7.3614394014
 30
0.0
 10
12.7742606393
 20
7.3788514442
 30
0.0
  0
SPLINE
  5
947
100
AcDbEntity
  8
0
100
AcDbSpline
 62
7
  6
CONTINUOUS
 70
0
 71
3
 72
10
 73
6
 74
0
 42
0.0000001
 43
0.0000001
 44
0.0000000001
 40
0.0
 40
0.0
 40
0.0
 40
0.0
 40
0.6209935801
 40
0.8408842497
 40
1.0
 40
1.0
 40
1.0
 40
1.0
 10
15.6108174171
 20
6.5144103681
 30
0.0
 10
15.6133374912
 20
6.5129579654
 30
0.0
 10
15.6168269815
 20
6.5110758375
 30
0.0
 10
15.6212497357
 20
6.5095331268
 30
0.0
 10
15.6230313234
 20
6.5092425467
 30
0.0
 10
15.6237753975
 20
6.50928487
 30
0.0
  0
SPLINE
  5
948
100
AcDbEntity
  8
0
100
AcDbSpline
 62
7
  6
CONTINUOUS
 70
0
 71
3
 72
9
 73
5
 74
0
 42
0.0000001
 43
0.0000001
 44
0.0000000001
 40
0.0
 40
0.0
 40
0.0
 40
0.0
 40
0.4999947045
 40
1.0
 40
1.0
 40
1.0
 40
1.0
 10
15.6237753975
 20
6.50928487
 30
0.0
 10
15.6297595832
 20
6.5171002777
 30
0.0
 10
15.6405800312
 20
6.5336155982
 30
0.0
 10
15.6494725399
 20
6.5512440259
 30
0.0
 10
15.6532488544
 20
6.560334385
 30
0.0
  0
SPLINE
  5
949
100
AcDbEntity
  8
0
100
AcDbSpline
 62
7
  6
CONTINUOUS
 70
0
 71
3
 72
10
 73
6
 74
0
 42
0.0000001
 43
0.0000001
 44
0.0000000001
 40
0.0
 40
0.0
 40
0.0
 40
0.0
 40
0.1589263567
 40
0.3787902423
 40
1.0
 40
1.0
 40
1.0
 40
1.0
 10
15.6532488544
 20
6.560334385
 30
0.0
 10
15.6529112152
 20
6.5609974095
 30
0.0
 10
15.651764643
 20
6.5623889854
 30
0.0
 10
15.6482106136
 20
6.5654365518
 30
0.0
 10
15.6448332573
 20
6.5675108978
 30
0.0
 10
15.6423134801
 20
6.5689631389
 30
0.0
  0
SPLINE
  5
94A
100
AcDbEntity
  8
0
100
AcDbSpline
 62
7
  6
CONTINUOUS
 70
0
 71
3
 72
9
 73
5
 74
0
 42
0.0000001
 43
0.0000001
 44
0.0000000001
 40
0.0
 40
0.0
 40
0.0
 40
0.0
 40
0.5435004301
 40
1.0
 40
1.0
 40
1.0
 40
1.0
 10
15.5278784582
 20
6.4878881457
 30
0.0
 10
15.5330160486
 20
6.4844770256
 30
0.0
 10
15.542651477
 20
6.4784771505
 30
0.0
 10
15.5526465748
 20
6.4730670454
 30
0.0
 10
15.5573519151
 20
6.4709015543
 30
0.0
  0
SPLINE
  5
94B
100
AcDbEntity
  8
0
100
AcDbSpline
 62
7
  6
CONTINUOUS
 70
0
 71
3
 72
9
 73
5
 74
0
 42
0.0000001
 43
0.0000001
 44
0.0000000001
 40
0.0
 40
0.0
 40
0.0
 40
0.0
 40
0.7483490745
 40
1.0
 40
1.0
 40
1.0
 40
1.0
 10
15.5573519151
 20
6.4709015543
 30
0.0
 10
15.5645762069
 20
6.4760413717
 30
0.0
 10
15.5731205709
 20
6.484659856
 30
0.0
 10
15.5795456494
 20
6.4946191614
 30
0.0
 10
15.581036384
 20
6.497201171
 30
0.0
  0
SPLINE
  5
94C
100
AcDbEntity
  8
0
100
AcDbSpline
 62
7
  6
CONTINUOUS
 70
0
 71
3
 72
9
 73
5
 74
0
 42
0.0000001
 43
0.0000001
 44
0.0000000001
 40
0.0
 40
0.0
 40
0.0
 40
0.0
 40
0.2868532259
 40
1.0
 40
1.0
 40
1.0
 40
1.0
 10
15.5278784582
 20
6.564553654
 30
0.0
 10
15.5298724849
 20
6.5630278083
 30
0.0
 10
15.5368847404
 20
6.5577926826
 30
0.0
 10
15.5441320263
 20
6.5528435178
 30
0.0
 10
15.549540321
 20
6.549726517
 30
0.0
  0
SPLINE
  5
94D
100
AcDbEntity
  8
0
100
AcDbSpline
 62
7
  6
CONTINUOUS
 70
0
 71
3
 72
9
 73
5
 74
0
 42
0.0000001
 43
0.0000001
 44
0.0000000001
 40
0.0
 40
0.0
 40
0.0
 40
0.0
 40
0.2516354252
 40
1.0
 40
1.0
 40
1.0
 40
1.0
 10
15.6423134801
 20
6.6033361943
 30
0.0
 10
15.6438042272
 20
6.605918261
 30
0.0
 10
15.6492172719
 20
6.6164629815
 30
0.0
 10
15.652409182
 20
6.6281727226
 30
0.0
 10
15.6532488544
 20
6.6369998933
 30
0.0
  0
SPLINE
  5
94E
100
AcDbEntity
  8
0
100
AcDbSpline
 62
7
  6
CONTINUOUS
 70
0
 71
3
 72
9
 73
5
 74
0
 42
0.0000001
 43
0.0000001
 44
0.0000000001
 40
0.0
 40
0.0
 40
0.0
 40
0.0
 40
0.4564710679
 40
1.0
 40
1.0
 40
1.0
 40
1.0
 10
15.6532488544
 20
6.6369998933
 30
0.0
 10
15.6490150958
 20
6.6399833703
 30
0.0
 10
15.6393224945
 20
6.645917878
 30
0.0
 10
15.6293017443
 20
6.6512490564
 30
0.0
 10
15.6237753975
 20
6.6539864847
 30
0.0
  0
SPLINE
  5
94F
100
AcDbEntity
  8
0
100
AcDbSpline
 62
7
  6
CONTINUOUS
 70
0
 71
3
 72
9
 73
5
 74
0
 42
0.0000001
 43
0.0000001
 44
0.0000000001
 40
0.0
 40
0.0
 40
0.0
 40
0.0
 40
0.2108619801
 40
1.0
 40
1.0
 40
1.0
 40
1.0
 10
15.581036384
 20
6.6042792878
 30
0.0
 10
15.5794370523
 20
6.605201036
 30
0.0
 10
15.5717413831
 20
6.609379589
 30
0.0
 10
15.5637324045
 20
6.6129547692
 30
0.0
 10
15.5573519151
 20
6.615603169
 30
0.0
  0
SPLINE
  5
950
100
AcDbEntity
  8
0
100
AcDbSpline
 62
7
  6
CONTINUOUS
 70
0
 71
3
 72
11
 73
7
 74
0
 42
0.0000001
 43
0.0000001
 44
0.0000000001
 40
0.0
 40
0.0
 40
0.0
 40
0.0
 40
0.3013701972
 40
0.5656017138
 40
0.7946679175
 40
1.0
 40
1.0
 40
1.0
 40
1.0
 10
13.2191851114
 20
9.2159019259
 30
0.0
 10
13.21596647
 20
9.2140420094
 30
0.0
 10
13.2101549402
 20
9.2101166292
 30
0.0
 10
13.2031422178
 20
9.2031620744
 30
0.0
 10
13.1986615514
 20
9.1956645498
 30
0.0
 10
13.1975683335
 20
9.1902741441
 30
0.0
 10
13.1975677459
 20
9.187741385
 30
0.0
  0
SPLINE
  5
951
100
AcDbEntity
  8
0
100
AcDbSpline
 62
7
  6
CONTINUOUS
 70
0
 71
3
 72
9
 73
5
 74
0
 42
0.0000001
 43
0.0000001
 44
0.0000000001
 40
0.0
 40
0.0
 40
0.0
 40
0.0
 40
0.525563497
 40
1.0
 40
1.0
 40
1.0
 40
1.0
 10
12.7742606393
 20
7.3788514442
 30
0.0
 10
12.7681002683
 20
7.3802913927
 30
0.0
 10
12.7558596238
 20
7.3814721476
 30
0.0
 10
12.7439631635
 20
7.3778044575
 30
0.0
 10
12.739019501
 20
7.3749451634
 30
0.0
  0
SPLINE
  5
952
100
AcDbEntity
  8
0
100
AcDbSpline
 62
7
  6
CONTINUOUS
 70
0
 71
3
 72
11
 73
7
 74
0
 42
0.0000001
 43
0.0000001
 44
0.0000000001
 40
0.0
 40
0.0
 40
0.0
 40
0.0
 40
0.2917220812
 40
0.5525082841
 40
0.7855612773
 40
1.0
 40
1.0
 40
1.0
 40
1.0
 10
13.2574635297
 20
8.8203421273
 30
0.0
 10
13.237215803
 20
8.808641824
 30
0.0
 10
13.2003335752
 20
8.7837050266
 30
0.0
 10
13.1552092867
 20
8.7391456929
 30
0.0
 10
13.1248542284
 20
8.6904178748
 30
0.0
 10
13.1154707577
 20
8.6550550729
 30
0.0
 10
13.1139375453
 20
8.6379336204
 30
0.0
  0
LINE
  5
953
100
AcDbEntity
  8
0
100
AcDbLine
 62
7
  6
CONTINUOUS
 10
11.5175354264
 20
9.1725415394
 11
11.5196998793
 21
9.1720237774
  0
SPLINE
  5
954
100
AcDbEntity
  8
0
100
AcDbSpline
 62
7
  6
CONTINUOUS
 70
0
 71
3
 72
9
 73
5
 74
0
 42
0.0000001
 43
0.0000001
 44
0.0000000001
 40
0.0
 40
0.0
 40
0.0
 40
0.0
 40
0.48242409
 40
1.0
 40
1.0
 40
1.0
 40
1.0
 10
11.6436878936
 20
9.1406929491
 30
0.0
 10
11.9002351874
 20
9.0724879319
 30
0.0
 10
12.4217245843
 20
8.8907767486
 30
0.0
 10
12.9156587522
 20
8.6452005558
 30
0.0
 10
13.1635861963
 20
8.5050437815
 30
0.0
  0
LINE
  5
955
100
AcDbEntity
  8
0
100
AcDbLine
 62
7
  6
CONTINUOUS
 10
13.1635861963
 20
8.5050437815
 11
13.1739469807
 21
8.4991764862
  0
LINE
  5
956
100
AcDbEntity
  8
0
100
AcDbLine
 62
7
  6
CONTINUOUS
 10
13.1739469807
 20
8.4911432984
 11
13.1706314743
 21
8.4930230429
  0
SPLINE
  5
957
100
AcDbEntity
  8
0
100
AcDbSpline
 62
7
  6
CONTINUOUS
 70
0
 71
3
 72
9
 73
5
 74
0
 42
0.0000001
 43
0.0000001
 44
0.0000000001
 40
0.0
 40
0.0
 40
0.0
 40
0.0
 40
0.5192739607
 40
1.0
 40
1.0
 40
1.0
 40
1.0
 10
13.1706314743
 20
8.4930230429
 30
0.0
 10
12.9012892017
 20
8.6456431474
 30
0.0
 10
12.3649621315
 20
8.9099638056
 30
0.0
 10
11.7963089204
 20
9.0976659431
 30
0.0
 10
11.5175354264
 20
9.164169196
 30
0.0
  0
SPLINE
  5
958
100
AcDbEntity
  8
0
100
AcDbSpline
 62
7
  6
CONTINUOUS
 70
0
 71
3
 72
11
 73
7
 74
0
 42
0.0000001
 43
0.0000001
 44
0.0000000001
 40
0.0
 40
0.0
 40
0.0
 40
0.0
 40
0.2228274319
 40
0.4643930659
 40
0.724071274
 40
1.0
 40
1.0
 40
1.0
 40
1.0
 10
12.7673009269
 20
7.3748297213
 30
0.0
 10
12.8417929244
 20
7.3574176786
 30
0.0
 10
12.9939490358
 20
7.3071713099
 30
0.0
 10
13.2168351191
 20
7.1955670104
 30
0.0
 10
13.4392836554
 20
7.0471641067
 30
0.0
 10
13.5805435993
 20
6.9288575864
 30
0.0
 10
13.6501901587
 20
6.8646454472
 30
0.0
  0
SPLINE
  5
959
100
AcDbEntity
  8
0
100
AcDbSpline
 62
7
  6
CONTINUOUS
 70
0
 71
3
 72
11
 73
7
 74
0
 42
0.0000001
 43
0.0000001
 44
0.0000000001
 40
0.0
 40
0.0
 40
0.0
 40
0.0
 40
0.2528153762
 40
0.5151914386
 40
0.7695433062
 40
1.0
 40
1.0
 40
1.0
 40
1.0
 10
13.6501901587
 20
6.8646454472
 30
0.0
 10
13.6590827674
 20
6.8564467159
 30
0.0
 10
13.6753752904
 20
6.8376954723
 30
0.0
 10
13.6941420793
 20
6.8057991731
 30
0.0
 10
13.7064806909
 20
6.7720426582
 30
0.0
 10
13.7098448366
 20
6.7488231996
 30
0.0
 10
13.7098448366
 20
6.7377975403
 30
0.0
  0
SPLINE
  5
95A
100
AcDbEntity
  8
0
100
AcDbSpline
 62
7
  6
CONTINUOUS
 70
0
 71
3
 72
11
 73
7
 74
0
 42
0.0000001
 43
0.0000001
 44
0.0000000001
 40
0.0
 40
0.0
 40
0.0
 40
0.0
 40
0.2149673164
 40
0.4467679724
 40
0.7069268355
 40
1.0
 40
1.0
 40
1.0
 40
1.0
 10
13.1133245618
 20
8.6322448237
 30
0.0
 10
13.1133225126
 20
8.6501115033
 30
0.0
 10
13.1200928168
 20
8.687496733
 30
0.0
 10
13.1489551831
 20
8.7395898251
 30
0.0
 10
13.1944229014
 20
8.7871404267
 30
0.0
 10
13.2323756608
 20
8.8135822027
 30
0.0
 10
13.2533442404
 20
8.8259776376
 30
0.0
  0
SPLINE
  5
95B
100
AcDbEntity
  8
0
100
AcDbSpline
 62
7
  6
CONTINUOUS
 70
0
 71
3
 72
16
 73
12
 74
0
 42
0.0000001
 43
0.0000001
 44
0.0000000001
 40
0.0
 40
0.0
 40
0.0
 40
0.0
 40
0.0394386742
 40
0.0804292453
 40
0.1734963177
 40
0.2872612955
 40
0.4206029279
 40
0.5674805966
 40
0.7192879035
 40
0.8664846796
 40
1.0
 40
1.0
 40
1.0
 40
1.0
 10
13.3451981301
 20
9.1967667923
 30
0.0
 10
13.3451984682
 20
9.1986488782
 30
0.0
 10
13.344644582
 20
9.2025099468
 30
0.0
 10
13.3411707639
 20
9.210130799
 30
0.0
 10
13.3323660048
 20
9.2185727964
 30
0.0
 10
13.3175826371
 20
9.2256287351
 30
0.0
 10
13.2991661444
 20
9.2299591749
 30
0.0
 10
13.2785042397
 20
9.2312146397
 30
0.0
 10
13.2572298616
 20
9.2293143812
 30
0.0
 10
13.2371013467
 20
9.2244264445
 30
0.0
 10
13.2247018634
 20
9.2190898231
 30
0.0
 10
13.2191851114
 20
9.2159019259
 30
0.0
  0
SPLINE
  5
95C
100
AcDbEntity
  8
0
100
AcDbSpline
 62
7
  6
CONTINUOUS
 70
0
 71
3
 72
11
 73
7
 74
0
 42
0.0000001
 43
0.0000001
 44
0.0000000001
 40
0.0
 40
0.0
 40
0.0
 40
0.0
 40
0.2191838473
 40
0.4529677202
 40
0.7117015847
 40
1.0
 40
1.0
 40
1.0
 40
1.0
 10
11.9617658008
 20
9.287137513
 30
0.0
 10
11.9617646493
 20
9.2828154231
 30
0.0
 10
11.9602194474
 20
9.273827129
 30
0.0
 10
11.9536091842
 20
9.2612404891
 30
0.0
 10
11.9431253582
 20
9.2497822098
 30
0.0
 10
11.9343159631
 20
9.2434362955
 30
0.0
 10
11.9294555116
 20
9.2404876011
 30
0.0
  0
SPLINE
  5
95D
100
AcDbEntity
  8
0
100
AcDbSpline
 62
7
  6
CONTINUOUS
 70
0
 71
3
 72
11
 73
7
 74
0
 42
0.0000001
 43
0.0000001
 44
0.0000000001
 40
0.0
 40
0.0
 40
0.0
 40
0.0
 40
0.2356933295
 40
0.4984207127
 40
0.7619892772
 40
1.0
 40
1.0
 40
1.0
 40
1.0
 10
11.9294555116
 20
9.2404876011
 30
0.0
 10
11.9177686382
 20
9.233397515
 30
0.0
 10
11.8902624837
 20
9.2229823803
 30
0.0
 10
11.8460350254
 20
9.2178039648
 30
0.0
 10
11.8016067975
 20
9.222389082
 30
0.0
 10
11.7737731424
 20
9.232398714
 30
0.0
 10
11.7618213321
 20
9.2393051588
 30
0.0
  0
SPLINE
  5
95E
100
AcDbEntity
  8
0
100
AcDbSpline
 62
7
  6
CONTINUOUS
 70
0
 71
3
 72
16
 73
12
 74
0
 42
0.0000001
 43
0.0000001
 44
0.0000000001
 40
0.0
 40
0.0
 40
0.0
 40
0.0
 40
0.1635330389
 40
0.3243606282
 40
0.4765014644
 40
0.6148977544
 40
0.7358297876
 40
0.8378299669
 40
0.9230964495
 40
0.9619098656
 40
1.0
 40
1.0
 40
1.0
 40
1.0
 10
12.8398807849
 20
9.2095606889
 30
0.0
 10
12.8269081664
 20
9.2071788057
 30
0.0
 10
12.800902932
 20
9.2038418694
 30
0.0
 10
12.7624138962
 20
9.2029400664
 30
0.0
 10
12.7260633597
 20
9.2060808866
 30
0.0
 10
12.6935094352
 20
9.2130328446
 30
0.0
 10
12.6661420661
 20
9.2234855323
 30
0.0
 10
12.6450295393
 20
9.2370283548
 30
0.0
 10
12.6330724594
 20
9.2514276374
 30
0.0
 10
12.6284716848
 20
9.2637897464
 30
0.0
 10
12.6277364173
 20
9.2700189304
 30
0.0
 10
12.6277388212
 20
9.2730910231
 30
0.0
  0
SPLINE
  5
95F
100
AcDbEntity
  8
0
100
AcDbSpline
 62
7
  6
CONTINUOUS
 70
0
 71
3
 72
11
 73
7
 74
0
 42
0.0000001
 43
0.0000001
 44
0.0000000001
 40
0.0
 40
0.0
 40
0.0
 40
0.0
 40
0.2178326871
 40
0.45098157
 40
0.710429148
 40
1.0
 40
1.0
 40
1.0
 40
1.0
 10
11.9391281176
 20
9.2871370015
 30
0.0
 10
11.939129727
 20
9.2907406521
 30
0.0
 10
11.9378106339
 20
9.2982530251
 30
0.0
 10
11.9321228311
 20
9.3087228157
 30
0.0
 10
11.9231287213
 20
9.3181845493
 30
0.0
 10
11.9156028717
 20
9.3233754075
 30
0.0
 10
11.911455149
 20
9.3257722007
 30
0.0
  0
SPLINE
  5
960
100
AcDbEntity
  8
0
100
AcDbSpline
 62
7
  6
CONTINUOUS
 70
0
 71
3
 72
9
 73
5
 74
0
 42
0.0000001
 43
0.0000001
 44
0.0000000001
 40
0.0
 40
0.0
 40
0.0
 40
0.0
 40
0.4737102843
 40
1.0
 40
1.0
 40
1.0
 40
1.0
 10
11.7751783335
 20
9.2599139964
 30
0.0
 10
11.7822300527
 20
9.264334725
 30
0.0
 10
11.7984884547
 20
9.2715028514
 30
0.0
 10
11.8157795029
 20
9.2751739016
 30
0.0
 10
11.8249568704
 20
9.2763035237
 30
0.0
  0
SPLINE
  5
961
100
AcDbEntity
  8
0
100
AcDbSpline
 62
7
  6
CONTINUOUS
 70
0
 71
3
 72
11
 73
7
 74
0
 42
0.0000001
 43
0.0000001
 44
0.0000000001
 40
0.0
 40
0.0
 40
0.0
 40
0.0
 40
0.2191838473
 40
0.4529677202
 40
0.7117015847
 40
1.0
 40
1.0
 40
1.0
 40
1.0
 10
12.1287988987
 20
9.3836588622
 30
0.0
 10
12.1287977472
 20
9.3793367722
 30
0.0
 10
12.1272525453
 20
9.3703484782
 30
0.0
 10
12.1206422822
 20
9.3577618382
 30
0.0
 10
12.1101584561
 20
9.346303559
 30
0.0
 10
12.101349061
 20
9.3399576447
 30
0.0
 10
12.0964886095
 20
9.3370089502
 30
0.0
  0
SPLINE
  5
962
100
AcDbEntity
  8
0
100
AcDbSpline
 62
7
  6
CONTINUOUS
 70
0
 71
3
 72
11
 73
7
 74
0
 42
0.0000001
 43
0.0000001
 44
0.0000000001
 40
0.0
 40
0.0
 40
0.0
 40
0.0
 40
0.2356933295
 40
0.4984207127
 40
0.7619892772
 40
1.0
 40
1.0
 40
1.0
 40
1.0
 10
12.0964886095
 20
9.3370089502
 30
0.0
 10
12.0848017361
 20
9.3299188642
 30
0.0
 10
12.0572955817
 20
9.3195037295
 30
0.0
 10
12.0130681233
 20
9.3143253139
 30
0.0
 10
11.9686398954
 20
9.3189104311
 30
0.0
 10
11.9408062403
 20
9.3289200632
 30
0.0
 10
11.92885443
 20
9.3358265079
 30
0.0
  0
ELLIPSE
  5
963
100
AcDbEntity
  8
0
100
AcDbEllipse
 62
7
  6
CONTINUOUS
 10
1.6004235337
 20
5.6432419946
 30
0.0
 11
0.1777805118
 21
-0.0
 31
0.0
 40
0.1666666667
 41
-0.9799146525
 42
0.9799146525
  0
ELLIPSE
  5
964
100
AcDbEntity
  8
0
100
AcDbEllipse
 62
7
  6
CONTINUOUS
 10
12.8055172049
 20
9.3523751515
 30
0.0
 11
0.1774677392
 21
0.0221466502
 31
0.0
 40
0.4759619687
 41
3.0826019418
 42
4.8475786674
  0
ENDSEC
  0
SECTION
  2
OBJECTS
  0
DICTIONARY
  5
C
100
AcDbDictionary
280
0
281
1
  3
ACAD_GROUP
350
D
  3
ACAD_MLINESTYLE
350
17
  3
ACAD_LAYOUT
350
1A
  3
ACAD_PLOTSETTINGS
350
19
  3
ACAD_PLOTSTYLENAME
350
E
  0
DICTIONARY
  5
D
102
{ACAD_REACTORS
330
C
102
}
100
AcDbDictionary
280
0
281
1
  0
ACDBDICTIONARYWDFLT
  5
E
102
{ACAD_REACTORS
330
C
102
}
100
AcDbDictionary
281
1
  3
Normal
350
F
100
AcDbDictionaryWithDefault
340
F
  0
DICTIONARY
  5
17
102
{ACAD_REACTORS
330
C
102
}
100
AcDbDictionary
280
0
281
1
  3
Standard
350
18
  0
DICTIONARY
  5
19
102
{ACAD_REACTORS
330
C
102
}
100
AcDbDictionary
281
1
  0
DICTIONARY
  5
1A
102
{ACAD_REACTORS
330
C
102
}
100
AcDbDictionary
281
1
  3
Model
350
965
  3
Layout1
350
966
  0
ACDBPLACEHOLDER
  5
F
102
{ACAD_REACTORS
330
E
102
}
  0
MLINESTYLE
  5
18
102
{ACAD_REACTORS
330
17
102
}
100
AcDbMlineStyle
  2
STANDARD
 70
0
  3

 62
256
 51
90.0
 52
90.0
 71
2
 49
0.5
 62
256
  6
BYLAYER
 49
-0.5
 62
256
  6
BYLAYER
  0
LAYOUT
  5
965
102
{ACAD_REACTORS
330
1A
102
}
100
AcDbPlotSettings
  1

  2
none_device
  4
ANSI_B_(17.00_x_11.00_Inches)
  6

 40
0.0
 41
0.0
 42
0.0
 43
0.0
 44
431.8
 45
279.4
 46
0.0
 47
0.0
 48
0.0
 49
0.0
140
0.0
141
0.0
142
1.0
143
1.0
 70
1024
 72
0
 73
0
 74
0
  7

 75
0
147
1.0
148
0.0
149
0.0
100
AcDbLayout
  1
Model
 70
0
 71
0
 10
0.0
 20
0.0
 11
17.0
 21
11.0
 12
0.0
 22
0.0
 32
0.0
 14
0.0
 24
0.0
 34
0.0
 15
0.0
 25
0.0
 35
0.0
146
0.0
 13
0.0
 23
0.0
 33
0.0
 16
1.0
 26
0.0
 36
0.0
 17
0.0
 27
1.0
 37
0.0
 76
0
330
1FF
345
0
346
0
  0
LAYOUT
  5
966
102
{ACAD_REACTORS
330
1A
102
}
100
AcDbPlotSettings
  1

  2
none_device
  4
ANSI_B_(17.00_x_11.00_Inches)
  6

 40
0.0
 41
0.0
 42
0.0
 43
0.0
 44
431.8
 45
279.4
 46
0.0
 47
0.0
 48
0.0
 49
0.0
140
0.0
141
0.0
142
1.0
143
1.0
 70
0
 72
0
 73
0
 74
0
  7

 75
0
147
1.0
148
0.0
149
0.0
100
AcDbLayout
  1
Layout1
 70
0
 71
1
 10
0.0
 20
0.0
 11
17.0
 21
11.0
 12
0.0
 22
0.0
 32
0.0
 14
0.0
 24
0.0
 34
0.0
 15
0.0
 25
0.0
 35
0.0
146
0.0
 13
0.0
 23
0.0
 33
0.0
 16
1.0
 26
0.0
 36
0.0
 17
0.0
 27
1.0
 37
0.0
 76
0
330
200
345
0
346
0
  0
ENDSEC
  0
EOF
