  0
SECTION
  2
HEADER
  9
$ACADVER
  1
AC1018
  9
$ACADMAINTVER
 70
    76
  9
$DWGCODEPAGE
  3
ANSI_1252
  9
$INSBASE
 10
0.0
 20
0.0
 30
0.0
  9
$EXTMIN
 10
-0.0003356677483914
 20
-0.0002593796237598
 30
-0.0015258207003583
  9
$EXTMAX
 10
11.00033571897113
 20
8.500259419204969
 30
0.0000000349246037
  9
$LIMMIN
 10
0.0
 20
0.0
  9
$LIMMAX
 10
11.0
 20
8.5
  9
$ORTHOMODE
 70
     0
  9
$REGENMODE
 70
     1
  9
$FILLMODE
 70
     1
  9
$QTEXTMODE
 70
     0
  9
$MIRRTEXT
 70
     0
  9
$LTSCALE
 40
0.605
  9
$ATTMODE
 70
     1
  9
$TEXTSIZE
 40
0.2
  9
$TRACEWID
 40
0.05
  9
$TEXTSTYLE
  7
STANDARD
  9
$CLAYER
  8
0
  9
$CELTYPE
  6
BYLAYER
  9
$CECOLOR
 62
   256
  9
$CELTSCALE
 40
1.0
  9
$DISPSILH
 70
     0
  9
$DIMSCALE
 40
1.0
  9
$DIMASZ
 40
0.1875
  9
$DIMEXO
 40
0.06875
  9
$DIMDLI
 40
0.418
  9
$DIMRND
 40
0.0
  9
$DIMDLE
 40
0.0
  9
$DIMEXE
 40
0.198
  9
$DIMTP
 40
0.0
  9
$DIMTM
 40
0.0
  9
$DIMTXT
 40
0.15625
  9
$DIMCEN
 40
0.099
  9
$DIMTSZ
 40
0.0
  9
$DIMTOL
 70
     0
  9
$DIMLIM
 70
     0
  9
$DIMTIH
 70
     1
  9
$DIMTOH
 70
     1
  9
$DIMSE1
 70
     0
  9
$DIMSE2
 70
     0
  9
$DIMTAD
 70
     0
  9
$DIMZIN
 70
     0
  9
$DIMBLK
  1

  9
$DIMASO
 70
     1
  9
$DIMSHO
 70
     1
  9
$DIMPOST
  1

  9
$DIMAPOST
  1

  9
$DIMALT
 70
     0
  9
$DIMALTD
 70
     2
  9
$DIMALTF
 40
25.4
  9
$DIMLFAC
 40
1.0
  9
$DIMTOFL
 70
     0
  9
$DIMTVP
 40
0.0
  9
$DIMTIX
 70
     0
  9
$DIMSOXD
 70
     0
  9
$DIMSAH
 70
     0
  9
$DIMBLK1
  1

  9
$DIMBLK2
  1

  9
$DIMSTYLE
  2
STANDARD
  9
$DIMCLRD
 70
     0
  9
$DIMCLRE
 70
     0
  9
$DIMCLRT
 70
     0
  9
$DIMTFAC
 40
1.0
  9
$DIMGAP
 40
0.09
  9
$DIMJUST
 70
     0
  9
$DIMSD1
 70
     0
  9
$DIMSD2
 70
     0
  9
$DIMTOLJ
 70
     1
  9
$DIMTZIN
 70
     0
  9
$DIMALTZ
 70
     0
  9
$DIMALTTZ
 70
     0
  9
$DIMUPT
 70
     0
  9
$DIMDEC
 70
     2
  9
$DIMTDEC
 70
     4
  9
$DIMALTU
 70
     2
  9
$DIMALTTD
 70
     2
  9
$DIMTXSTY
  7
STANDARD
  9
$DIMAUNIT
 70
     0
  9
$DIMADEC
 70
     0
  9
$DIMALTRND
 40
0.0
  9
$DIMAZIN
 70
     0
  9
$DIMDSEP
 70
    46
  9
$DIMATFIT
 70
     3
  9
$DIMFRAC
 70
     0
  9
$DIMLDRBLK
  1

  9
$DIMLUNIT
 70
     2
  9
$DIMLWD
 70
    -2
  9
$DIMLWE
 70
    -2
  9
$DIMTMOVE
 70
     0
  9
$LUNITS
 70
     2
  9
$LUPREC
 70
     4
  9
$SKETCHINC
 40
0.1
  9
$FILLETRAD
 40
0.0
  9
$AUNITS
 70
     0
  9
$AUPREC
 70
     0
  9
$MENU
  1
.
  9
$ELEVATION
 40
0.0
  9
$PELEVATION
 40
0.0
  9
$THICKNESS
 40
0.0
  9
$LIMCHECK
 70
     0
  9
$CHAMFERA
 40
0.0
  9
$CHAMFERB
 40
0.0
  9
$CHAMFERC
 40
0.0
  9
$CHAMFERD
 40
0.0
  9
$SKPOLY
 70
     0
  9
$TDCREATE
 40
2456307.663329780
  9
$TDUCREATE
 40
2456307.913329780
  9
$TDUPDATE
 40
2456307.664116458
  9
$TDUUPDATE
 40
2456307.914116459
  9
$TDINDWG
 40
0.0007873958
  9
$TDUSRTIMER
 40
0.0007873958
  9
$USRTIMER
 70
     1
  9
$ANGBASE
 50
0.0
  9
$ANGDIR
 70
     0
  9
$PDMODE
 70
     3
  9
$PDSIZE
 40
0.3125
  9
$PLINEWID
 40
0.0
  9
$SPLFRAME
 70
     0
  9
$SPLINETYPE
 70
     6
  9
$SPLINESEGS
 70
     8
  9
$HANDSEED
  5
553
  9
$SURFTAB1
 70
     6
  9
$SURFTAB2
 70
     6
  9
$SURFTYPE
 70
     6
  9
$SURFU
 70
     6
  9
$SURFV
 70
     6
  9
$UCSBASE
  2

  9
$UCSNAME
  2

  9
$UCSORG
 10
0.0
 20
0.0
 30
0.0
  9
$UCSXDIR
 10
1.0
 20
0.0
 30
0.0
  9
$UCSYDIR
 10
0.0
 20
1.0
 30
0.0
  9
$UCSORTHOREF
  2

  9
$UCSORTHOVIEW
 70
     0
  9
$UCSORGTOP
 10
0.0
 20
0.0
 30
0.0
  9
$UCSORGBOTTOM
 10
0.0
 20
0.0
 30
0.0
  9
$UCSORGLEFT
 10
0.0
 20
0.0
 30
0.0
  9
$UCSORGRIGHT
 10
0.0
 20
0.0
 30
0.0
  9
$UCSORGFRONT
 10
0.0
 20
0.0
 30
0.0
  9
$UCSORGBACK
 10
0.0
 20
0.0
 30
0.0
  9
$PUCSBASE
  2

  9
$PUCSNAME
  2

  9
$PUCSORG
 10
0.0
 20
0.0
 30
0.0
  9
$PUCSXDIR
 10
1.0
 20
0.0
 30
0.0
  9
$PUCSYDIR
 10
0.0
 20
1.0
 30
0.0
  9
$PUCSORTHOREF
  2

  9
$PUCSORTHOVIEW
 70
     0
  9
$PUCSORGTOP
 10
0.0
 20
0.0
 30
0.0
  9
$PUCSORGBOTTOM
 10
0.0
 20
0.0
 30
0.0
  9
$PUCSORGLEFT
 10
0.0
 20
0.0
 30
0.0
  9
$PUCSORGRIGHT
 10
0.0
 20
0.0
 30
0.0
  9
$PUCSORGFRONT
 10
0.0
 20
0.0
 30
0.0
  9
$PUCSORGBACK
 10
0.0
 20
0.0
 30
0.0
  9
$USERI1
 70
     0
  9
$USERI2
 70
     0
  9
$USERI3
 70
     0
  9
$USERI4
 70
     0
  9
$USERI5
 70
     0
  9
$USERR1
 40
0.0
  9
$USERR2
 40
0.0
  9
$USERR3
 40
0.0
  9
$USERR4
 40
0.0
  9
$USERR5
 40
0.0
  9
$WORLDVIEW
 70
     1
  9
$SHADEDGE
 70
     3
  9
$SHADEDIF
 70
    70
  9
$TILEMODE
 70
     1
  9
$MAXACTVP
 70
    64
  9
$PINSBASE
 10
0.0
 20
0.0
 30
0.0
  9
$PLIMCHECK
 70
     0
  9
$PEXTMIN
 10
1.000000000000000E+20
 20
1.000000000000000E+20
 30
1.000000000000000E+20
  9
$PEXTMAX
 10
-1.000000000000000E+20
 20
-1.000000000000000E+20
 30
-1.000000000000000E+20
  9
$PLIMMIN
 10
0.0
 20
0.0
  9
$PLIMMAX
 10
12.0
 20
9.0
  9
$UNITMODE
 70
     0
  9
$VISRETAIN
 70
     1
  9
$PLINEGEN
 70
     0
  9
$PSLTSCALE
 70
     1
  9
$TREEDEPTH
 70
  3020
  9
$CMLSTYLE
  2
Standard
  9
$CMLJUST
 70
     0
  9
$CMLSCALE
 40
1.0
  9
$PROXYGRAPHICS
 70
     1
  9
$MEASUREMENT
 70
     0
  9
$CELWEIGHT
370
    -1
  9
$ENDCAPS
280
     0
  9
$JOINSTYLE
280
     0
  9
$LWDISPLAY
290
     0
  9
$INSUNITS
 70
     1
  9
$HYPERLINKBASE
  1

  9
$STYLESHEET
  1

  9
$XEDIT
290
     1
  9
$CEPSNTYPE
380
     0
  9
$PSTYLEMODE
290
     1
  9
$FINGERPRINTGUID
  2
{EFE8FC76-A1A9-41D3-89FE-4FD615E24407}
  9
$VERSIONGUID
  2
{711B9E43-F6F7-436E-83B7-A747F3A3C730}
  9
$EXTNAMES
290
     1
  9
$PSVPSCALE
 40
0.0
  9
$OLESTARTUP
290
     0
  9
$SORTENTS
280
   127
  9
$INDEXCTL
280
     0
  9
$HIDETEXT
280
     1
  9
$XCLIPFRAME
290
     0
  9
$HALOGAP
280
     0
  9
$OBSCOLOR
 70
   257
  9
$OBSLTYPE
280
     0
  9
$INTERSECTIONDISPLAY
280
     0
  9
$INTERSECTIONCOLOR
 70
   257
  9
$DIMASSOC
280
     2
  9
$PROJECTNAME
  1

  0
ENDSEC
  0
SECTION
  2
CLASSES
  0
CLASS
  1
ACDBDICTIONARYWDFLT
  2
AcDbDictionaryWithDefault
  3
ObjectDBX Classes
 90
        0
 91
        1
280
     0
281
     0
  0
CLASS
  1
TABLESTYLE
  2
AcDbTableStyle
  3
ObjectDBX Classes
 90
     2047
 91
        1
280
     0
281
     0
  0
CLASS
  1
AMGSETTINGSOBJ
  2
AmgSettingsObj
  3
"AcadM|Product Description: AutoCAD Mechanical 2000|Company: Autodesk"
 90
        0
 91
        2
280
     0
281
     0
  0
CLASS
  1
ACME_DOCUMENT
  2
AcMeDbDoc
  3
AcMeServices
 90
        0
 91
        1
280
     0
281
     0
  0
CLASS
  1
ACMESCOPE
  2
AcMeScope
  3
AcMeServices
 90
        0
 91
        1
280
     0
281
     0
  0
CLASS
  1
ACMECOMMANDHISTORY
  2
AcMeCommandHistory
  3
AcMeServices
 90
        0
 91
        1
280
     0
281
     0
  0
CLASS
  1
ACIMSYSVARMAN
  2
AcImSysVarManager
  3
AcMeServices
 90
        0
 91
        5
280
     0
281
     0
  0
CLASS
  1
ACIMINTSYSVAR
  2
AcImIntSysVar
  3
AcMeServices
 90
        0
 91
       26
280
     0
281
     0
  0
CLASS
  1
ACMEDRAWINGMAN
  2
AcMeDrawingMan
  3
AcMeServices
 90
        0
 91
        1
280
     0
281
     0
  0
CLASS
  1
ACMEVIEW
  2
AcMeView
  3
AcMeServices
 90
        0
 91
        1
280
     0
281
     0
  0
CLASS
  1
ACDBENTITYCACHE
  2
AcMeEntityCache
  3
AcMeServices
 90
        0
 91
        1
280
     0
281
     0
  0
CLASS
  1
GSMANAGER
  2
AcMeGSManager
  3
AcMeServices
 90
        0
 91
        1
280
     0
281
     0
  0
CLASS
  1
AMDTINTERNALREACTOR
  2
AmdtInternalReactor
  3
AcMeServices
 90
        0
 91
        2
280
     0
281
     0
  0
CLASS
  1
ACMESTATEMGR
  2
AcMeStateMgr
  3
AcMeServices
 90
        0
 91
        1
280
     0
281
     0
  0
CLASS
  1
ACGREFMASTER
  2
AcGrefMaster
  3
AcAttribServices
 90
        0
 91
        1
280
     0
281
     0
  0
CLASS
  1
AM_DRAWING_MGR
  2
AcDmDwgMgr
  3
AcMechDwgViewMgmt
 90
        0
 91
        1
280
     0
281
     0
  0
CLASS
  1
AM_DWG_DOCUMENT
  2
AcDmDwgDocument
  3
AcMechDwgViewMgmt
 90
        0
 91
        1
280
     0
281
     0
  0
CLASS
  1
AM_DWG_SHEET
  2
AcDmSheet
  3
AcMechDwgViewMgmt
 90
        0
 91
        1
280
     0
281
     0
  0
CLASS
  1
AM_VIEWDIMPARMAP
  2
AcDmViewDimParMap
  3
AcMechDwgViewMgmt
 90
        0
 91
        1
280
     0
281
     0
  0
CLASS
  1
ACIMREALSYSVAR
  2
AcImRealSysVar
  3
AcMeServices
 90
        0
 91
        1
280
     0
281
     0
  0
CLASS
  1
AM_DWGMGR_NAME
  2
AcDmDwgMgrName
  3
AcMechDwgViewMgmt
 90
        0
 91
        1
280
     0
281
     0
  0
CLASS
  1
ACME_DATABASE
  2
AcMeDbDatabase
  3
AcMeServices
 90
        0
 91
        1
280
     0
281
     0
  0
CLASS
  1
ACRFINSADJUSTERMGR
  2
AcRfInsAdjusterMgr
  3
AcMeServices
 90
        0
 91
        1
280
     0
281
     0
  0
CLASS
  1
ACGREFACADMASTER
  2
AcGrefacadMaster
  3
AcGrefServices
 90
        0
 91
        1
280
     0
281
     0
  0
CLASS
  1
AMDTMENUSTATEMGR
  2
AmdtMenuStateMgr
  3
McadcomServices
 90
        0
 91
        1
280
     0
281
     0
  0
CLASS
  1
AMDTMCOMMENUSTATE
  2
AmdtMcomMenuState
  3
McadcomServices
 90
        0
 91
        1
280
     0
281
     0
  0
CLASS
  1
AMIMASTER
  2
AmiMaster
  3
AmiServices
 90
        0
 91
        1
280
     0
281
     0
  0
CLASS
  1
MAPIAMMOUDLE
  2
MApiAmModule
  3
MApiAmServices
 90
        0
 91
        1
280
     0
281
     0
  0
CLASS
  1
ACIMSTRSYSVAR
  2
AcImStrSysVar
  3
AcMeServices
 90
        0
 91
        5
280
     0
281
     0
  0
CLASS
  1
AMDTADMENUSTATE
  2
AmdtAdMenuState
  3
DesignerServices
 90
        0
 91
        1
280
     0
281
     0
  0
CLASS
  1
ADAPPL
  2
AcAdAppl
  3
DesignerServices
 90
        0
 91
        1
280
     0
281
     0
  0
CLASS
  1
DEPMGR
  2
AcAdDepMgr
  3
DesignerServices
 90
        0
 91
        1
280
     0
281
     0
  0
CLASS
  1
PARAMMGR
  2
AcAdParamMgr
  3
DesignerServices
 90
        0
 91
        1
280
     0
281
     0
  0
CLASS
  1
PARAMSCOPE
  2
AcAdParamScope
  3
DesignerServices
 90
        0
 91
        1
280
     0
281
     0
  0
CLASS
  1
NAMEDAPPL
  2
AcAdNamedAppl
  3
DesignerServices
 90
        0
 91
        1
280
     0
281
     0
  0
CLASS
  1
AMDTDMMENUSTATE
  2
AmdtDmMenuState
  3
AcMechDwgViewMgmt
 90
        0
 91
        1
280
     0
281
     0
  0
CLASS
  1
AMDTAMMENUSTATE
  2
AmdtAmMenuState
  3
DesignerAssemblies
 90
        0
 91
        1
280
     0
281
     0
  0
CLASS
  1
ACAMPROJECT
  2
AcAmProject
  3
DesignerAssemblies
 90
        0
 91
        1
280
     0
281
     0
  0
CLASS
  1
ACAMGRCOMPDEF
  2
AcAmGrCompDef
  3
DesignerAssemblies
 90
        0
 91
        1
280
     0
281
     0
  0
CLASS
  1
ACCMCONTEXT
  2
AcCmContext
  3
DesignerAssemblies
 90
        0
 91
        1
280
     0
281
     0
  0
CLASS
  1
ACAMCOMPDEF
  2
AcAmCompDef
  3
DesignerAssemblies
 90
        0
 91
        1
280
     0
281
     0
  0
CLASS
  1
ACAMCOMPDEFMGR
  2
AcAmCompDefMgr
  3
DesignerAssemblies
 90
        0
 91
        1
280
     0
281
     0
  0
CLASS
  1
AMCONTEXTMGR
  2
AcAmContextMgr
  3
DesignerAssemblies
 90
        0
 91
        1
280
     0
281
     0
  0
CLASS
  1
ACAMCONTEXTMODELER
  2
AcAmContextModeler
  3
DesignerAssemblies
 90
        0
 91
        1
280
     0
281
     0
  0
CLASS
  1
ACMDATADICTIONARY
  2
AcmDataDictionary
  3
"AcmSymBB|Product Description: AutoCAD Mechanical 2004 DX|Company: Autodesk"
 90
        0
 91
        1
280
     0
281
     0
  0
CLASS
  1
CATALOGSTATE
  2
AcAmCatalogState
  3
DesignerAssemblies
 90
        0
 91
        1
280
     0
281
     0
  0
CLASS
  1
ACAMGRCOMPDEFSET
  2
AcAmGrCompDefSet
  3
DesignerAssemblies
 90
        0
 91
        1
280
     0
281
     0
  0
CLASS
  1
AMDTBROWSERDBTAB
  2
AmdtBrowserDbTab
  3
McadcomServices
 90
        0
 91
        1
280
     0
281
     0
  0
CLASS
  1
CBROWSERAPPOBJECT
  2
CBrowserAppObject
  3
McadcomServices
 90
        0
 91
        3
280
     0
281
     0
  0
CLASS
  1
DM_PLACEHOLDER
  2
AcDmSelsetPlaceholder
  3
AcMechDwgViewMgmt
 90
        0
 91
        1
280
     0
281
     0
  0
CLASS
  1
ACMSTANDARDANSI
  2
AcmStandardANSI
  3
"Amdt_StdImp|Product Description: AutoCAD Mechanical 2004 DX|Company: Autodesk"
 90
        0
 91
        1
280
     0
281
     0
  0
CLASS
  1
AMGOBJPROPCFG
  2
AmgObjPropCfg
  3
"AmgLay|Product Description: AutoCAD Mechanical 2000|Company: Autodesk"
 90
        1
 91
        1
280
     0
281
     0
  0
CLASS
  1
ACMSURFSTANDARDANSI
  2
AcmSurfTextStdANSI
  3
"Amdt_StdImp|Product Description: AutoCAD Mechanical 2004 DX|Company: Autodesk"
 90
        0
 91
        1
280
     0
281
     0
  0
CLASS
  1
ACMFCFSTANDARDANSI
  2
AcmFCFStdANSI
  3
"Amdt_StdImp|Product Description: AutoCAD Mechanical 2004 DX|Company: Autodesk"
 90
        0
 91
        1
280
     0
281
     0
  0
CLASS
  1
ACMWELDSTANDARDANSI
  2
AcmWeldingStdANSI
  3
"Amdt_StdImp|Product Description: AutoCAD Mechanical 2004 DX|Company: Autodesk"
 90
        0
 91
        1
280
     0
281
     0
  0
CLASS
  1
ACMIDSTANDARDANSI
  2
AcmIdStdANSI
  3
"Amdt_StdImp|Product Description: AutoCAD Mechanical 2004 DX|Company: Autodesk"
 90
        0
 91
        1
280
     0
281
     0
  0
CLASS
  1
ACMDATUMSTANDARDANSI
  2
AcmDatumStdANSI
  3
"Amdt_StdImp|Product Description: AutoCAD Mechanical 2004 DX|Company: Autodesk"
 90
        0
 91
        1
280
     0
281
     0
  0
CLASS
  1
ACMBOMSTANDARDANSI
  2
AcmBOMStdANSI
  3
"Amdt_StdImp|Product Description: AutoCAD Mechanical 2004 DX|Company: Autodesk"
 90
        0
 91
        1
280
     0
281
     0
  0
CLASS
  1
ACMDETAILSTANDARDANSI
  2
AmdtDetailSymStdANSI
  3
"Amdt_StdImp|Product Description: AutoCAD Mechanical 2004 DX|Company: Autodesk"
 90
        0
 91
        1
280
     0
281
     0
  0
CLASS
  1
ACMSECTIONSTANDARDANSI
  2
AmdtSectionSymStdANSI
  3
"Amdt_StdImp|Product Description: AutoCAD Mechanical 2004 DX|Company: Autodesk"
 90
        0
 91
        1
280
     0
281
     0
  0
CLASS
  1
ACMCENTERLINESTANDARDANSI
  2
AmdtCenterLineStdANSI
  3
"Amdt_StdImp|Product Description: AutoCAD Mechanical 2004 DX|Company: Autodesk"
 90
        0
 91
        1
280
     0
281
     0
  0
CLASS
  1
ACMTHREADLINESTANDARDANSI
  2
AmdtThreadLineStdANSI
  3
"Amdt_StdImp|Product Description: AutoCAD Mechanical 2004 DX|Company: Autodesk"
 90
        0
 91
        1
280
     0
281
     0
  0
CLASS
  1
ACMNOTESTANDARDANSI
  2
AmdtNoteStdANSI
  3
"Amdt_StdImp|Product Description: AutoCAD Mechanical 2004 DX|Company: Autodesk"
 90
        0
 91
        1
280
     0
281
     0
  0
CLASS
  1
AMDTNOTETEMPLATEDB
  2
AmdtNoteTemplateDB
  3
AMDT_STDIMP_MODULE_NAME
 90
        0
 91
        6
280
     0
281
     0
  0
CLASS
  1
ACAMGLAYSTD
  2
AcAmgLayStd
  3
"AcAmgLayStd|Product Description: AutoCAD Mechanical 2000|Company: Autodesk"
 90
        0
 91
        1
280
     0
281
     0
  0
CLASS
  1
ACAMGDIMSTD
  2
AcAmgDimStd
  3
"AcAmgDimStd|Product Description: AutoCAD Mechanical 2000|Company: Autodesk"
 90
        0
 91
        1
280
     0
281
     0
  0
CLASS
  1
ACAMGHOLECHARTSTDANSI
  2
AcAmgHoleChartStdANSI
  3
ACMSYMBB_MODULE_NAME
 90
        0
 91
        1
280
     0
281
     0
  0
CLASS
  1
ACAMGTITLESTD
  2
AcAmgTitleStd
  3
"TITLEAPP"
 90
        0
 91
        1
280
     0
281
     0
  0
CLASS
  1
ACAMGFILTERDAT
  2
AcAmgFilterDat
  3
"AcadM|Product Description: AutoCAD Mechanical 2000|Company: Autodesk"
 90
        0
 91
        6
280
     0
281
     0
  0
CLASS
  1
DIMASSOC
  2
AcDbDimAssoc
  3
"AcDbDimAssoc|Product Desc:     AcDim ARX App For Dimension|Company:          Autodesk, Inc.|WEB Address:      www.autodesk.com"
 90
        0
 91
        3
280
     0
281
     0
  0
CLASS
  1
DICTIONARYVAR
  2
AcDbDictionaryVar
  3
ObjectDBX Classes
 90
        0
 91
        1
280
     0
281
     0
  0
ENDSEC
  0
SECTION
  2
TABLES
  0
TABLE
  2
VPORT
  5
8
330
0
100
AcDbSymbolTable
 70
    54
  0
VPORT
  5
552
330
8
100
AcDbSymbolTableRecord
100
AcDbViewportTableRecord
  2
*Active
 70
     0
 10
0.0
 20
0.0
 11
1.0
 21
1.0
 12
5.500000025611373
 22
4.250000019790605
 13
0.0
 23
0.0
 14
1.0
 24
1.0
 15
0.0
 25
0.0
 16
0.0
 26
0.0
 36
1.0
 17
0.0
 27
0.0
 37
0.0
 40
8.577913507164044
 41
1.620060790273556
 42
50.0
 43
0.0
 44
0.0
 50
0.0
 51
0.0
 71
     0
 72
   100
 73
     1
 74
     1
 75
     0
 76
     0
 77
     0
 78
     0
281
     0
 65
     0
110
0.0
120
0.0
130
0.0
111
1.0
121
0.0
131
0.0
112
0.0
122
1.0
132
0.0
 79
     0
146
0.0
  0
ENDTAB
  0
TABLE
  2
LTYPE
  5
5
330
0
100
AcDbSymbolTable
 70
    19
  0
LTYPE
  5
14
330
5
100
AcDbSymbolTableRecord
100
AcDbLinetypeTableRecord
  2
BYBLOCK
 70
     0
  3

 72
    65
 73
     0
 40
0.0
  0
LTYPE
  5
15
330
5
100
AcDbSymbolTableRecord
100
AcDbLinetypeTableRecord
  2
BYLAYER
 70
     0
  3

 72
    65
 73
     0
 40
0.0
  0
LTYPE
  5
16
330
5
100
AcDbSymbolTableRecord
100
AcDbLinetypeTableRecord
  2
CONTINUOUS
 70
     0
  3
Solid line
 72
    65
 73
     0
 40
0.0
  0
LTYPE
  5
1F5
330
5
100
AcDbSymbolTableRecord
100
AcDbLinetypeTableRecord
  2
CENTER
 70
     0
  3
____ _ ____ _ ____ _ ____ _ ____ _ ____ _ ____
 72
    65
 73
     4
 40
0.6
 49
0.375
 74
     0
 49
-0.075
 74
     0
 49
0.075
 74
     0
 49
-0.075
 74
     0
  0
LTYPE
  5
1F6
330
5
100
AcDbSymbolTableRecord
100
AcDbLinetypeTableRecord
  2
HIDDEN
 70
     0
  3
- - - - - - - - - - - - - - - - - - - -
 72
    65
 73
     2
 40
0.2
 49
0.1
 74
     0
 49
-0.1
 74
     0
  0
LTYPE
  5
3EE
330
5
100
AcDbSymbolTableRecord
100
AcDbLinetypeTableRecord
  2
PHANTOM2
 70
     0
  3
Phantom (.5x) ___ _ _ ___ _ _ ___ _ _ ___ _ _
 72
    65
 73
     6
 40
1.25
 49
0.625
 74
     0
 49
-0.125
 74
     0
 49
0.125
 74
     0
 49
-0.125
 74
     0
 49
0.125
 74
     0
 49
-0.125
 74
     0
  0
LTYPE
  5
425
330
5
100
AcDbSymbolTableRecord
100
AcDbLinetypeTableRecord
  2
Amconstr
 70
     0
  3
_______________________
 72
    65
 73
     2
 40
9999.0
 49
9999.0
 74
     0
 49
0.0
 74
     0
  0
LTYPE
  5
42B
330
5
100
AcDbSymbolTableRecord
100
AcDbLinetypeTableRecord
  2
CENTER2
 70
     0
  3
Center (.5x) ___ _ ___ _ ___ _ ___ _ ___ _ ___
 72
    65
 73
     4
 40
1.125
 49
0.75
 74
     0
 49
-0.125
 74
     0
 49
0.125
 74
     0
 49
-0.125
 74
     0
  0
LTYPE
  5
42C
330
5
100
AcDbSymbolTableRecord
100
AcDbLinetypeTableRecord
  2
HIDDEN2
 70
     0
  3
Hidden (.5x) _ _ _ _ _ _ _ _ _ _ _ _ _ _ _ _ _
 72
    65
 73
     2
 40
0.1875
 49
0.125
 74
     0
 49
-0.0625
 74
     0
  0
LTYPE
  5
42D
330
5
100
AcDbSymbolTableRecord
100
AcDbLinetypeTableRecord
  2
Amzigzag2
 70
     0
  3
/\/-/\/-/\/-/\/-/\/-/\/
 72
    65
 73
     2
 40
0.4401
 49
0.0001
 74
     4
 75
   136
340
429
 46
0.0016
 50
0.0
 44
0.0
 45
0.0
 49
-0.4400000000000001
 74
     0
  0
LTYPE
  5
43B
330
5
100
AcDbSymbolTableRecord
100
AcDbLinetypeTableRecord
  2
ACANSTGB
 70
     0
  3
__ . . __ . .
 72
    65
 73
     6
 40
0.35433070866
 49
0.15748031496
 74
     0
 49
-0.03937007874
 74
     0
 49
0.03937007874
 74
     0
 49
-0.03937007874
 74
     0
 49
0.03937007874
 74
     0
 49
-0.03937007874
 74
     0
  0
LTYPE
  5
43C
330
5
100
AcDbSymbolTableRecord
100
AcDbLinetypeTableRecord
  2
ACANSTGL
 70
     0
  3
_ _ _ _ _
 72
    65
 73
     2
 40
0.11811023622
 49
0.07874015748
 74
     0
 49
-0.03937007874
 74
     0
  0
ENDTAB
  0
TABLE
  2
LAYER
  5
2
330
0
100
AcDbSymbolTable
 70
     7
  0
LAYER
  5
10
330
2
100
AcDbSymbolTableRecord
100
AcDbLayerTableRecord
  2
0
 70
     0
 62
     7
  6
CONTINUOUS
370
    -3
390
F
  0
LAYER
  5
469
330
2
100
AcDbSymbolTableRecord
100
AcDbLayerTableRecord
  2
AM_5
 70
     0
 62
     3
  6
CONTINUOUS
370
    15
390
F
1001
AcAecLayerStandard
1000

1000

  0
LAYER
  5
482
330
2
100
AcDbSymbolTableRecord
100
AcDbLayerTableRecord
  2
Defpoints
 70
     0
 62
     7
  6
CONTINUOUS
290
     0
370
    -3
390
F
  0
ENDTAB
  0
TABLE
  2
STYLE
  5
3
330
0
100
AcDbSymbolTable
 70
     5
  0
STYLE
  5
11
330
3
100
AcDbSymbolTableRecord
100
AcDbTextStyleTableRecord
  2
STANDARD
 70
     0
 40
0.0
 41
0.8
 50
0.0
 71
     0
 42
0.2
  3
txt
  4

  0
STYLE
  5
429
330
3
100
AcDbSymbolTableRecord
100
AcDbTextStyleTableRecord
  2

 70
     1
 40
0.0
 41
1.0
 50
0.0
 71
     0
 42
0.2
  3
genltshp.shx
  4

  0
STYLE
  5
42E
330
3
100
AcDbSymbolTableRecord
100
AcDbTextStyleTableRecord
  2
ACANSTS
 70
     0
 40
1.0
 41
1.0
 50
0.0
 71
     0
 42
0.2
  3
romans.shx
  4

  0
STYLE
  5
43A
330
3
100
AcDbSymbolTableRecord
100
AcDbTextStyleTableRecord
  2
ACANSGDT
 70
     0
 40
0.0
 41
1.0
 50
0.0
 71
     0
 42
0.2
  3
AMGDT
  4

  0
ENDTAB
  0
TABLE
  2
VIEW
  5
6
330
0
100
AcDbSymbolTable
 70
     1
  0
ENDTAB
  0
TABLE
  2
UCS
  5
7
330
0
100
AcDbSymbolTable
 70
     0
  0
ENDTAB
  0
TABLE
  2
APPID
  5
9
330
0
100
AcDbSymbolTable
 70
    12
  0
APPID
  5
1FF
330
9
100
AcDbSymbolTableRecord
100
AcDbRegAppTableRecord
  2
ACAD
 70
     0
  0
APPID
  5
3C1
330
9
100
AcDbSymbolTableRecord
100
AcDbRegAppTableRecord
  2
MCAD_NO_VIS
 70
     0
  0
APPID
  5
3C2
330
9
100
AcDbSymbolTableRecord
100
AcDbRegAppTableRecord
  2
ACAD_TEMP_GRAPHIC
 70
     0
  0
APPID
  5
3F0
330
9
100
AcDbSymbolTableRecord
100
AcDbRegAppTableRecord
  2
AD_DRAW
 70
     0
  0
APPID
  5
3F3
330
9
100
AcDbSymbolTableRecord
100
AcDbRegAppTableRecord
  2
ACATTRIBSERVICES
 70
     0
  0
APPID
  5
413
330
9
100
AcDbSymbolTableRecord
100
AcDbRegAppTableRecord
  2
DESIGNERASSEMBLIES
 70
     0
  0
APPID
  5
419
330
9
100
AcDbSymbolTableRecord
100
AcDbRegAppTableRecord
  2
ACADM_DIM_EDIT
 70
     0
  0
APPID
  5
41A
330
9
100
AcDbSymbolTableRecord
100
AcDbRegAppTableRecord
  2
AMDT_DM_ADJ
 70
     0
  0
APPID
  5
448
330
9
100
AcDbSymbolTableRecord
100
AcDbRegAppTableRecord
  2
ACAD_DSTYLE_DIMARC_LENGTH_SYMBOL
 70
     0
  0
APPID
  5
449
330
9
100
AcDbSymbolTableRecord
100
AcDbRegAppTableRecord
  2
ACAD_DSTYLE_DIMJOGGED_JOGANGLE_SYMBOL
 70
     0
  0
APPID
  5
46A
330
9
100
AcDbSymbolTableRecord
100
AcDbRegAppTableRecord
  2
AcAecLayerStandard
 70
     0
  0
APPID
  5
545
330
9
100
AcDbSymbolTableRecord
100
AcDbRegAppTableRecord
  2
GENIUS_GENDTOL_13
 70
     0
  0
ENDTAB
  0
TABLE
  2
DIMSTYLE
  5
A
330
0
100
AcDbSymbolTable
 70
     8
100
AcDbDimStyleTable
 71
     1
340
202
  0
DIMSTYLE
105
202
330
A
100
AcDbSymbolTableRecord
100
AcDbDimStyleTableRecord
  2
STANDARD
 70
     0
 41
0.1875
 47
0.05
 48
0.05
 78
     4
140
0.15625
271
     2
272
     2
284
     4
340
11
  0
DIMSTYLE
105
447
330
A
100
AcDbSymbolTableRecord
100
AcDbDimStyleTableRecord
  2
AM_ANSI
 70
     0
  4
mm
 41
0.1
 42
0.05
 43
0.5
 44
0.1
 47
0.1
 48
0.1
 78
     7
 79
     2
140
0.12
141
0.0
146
0.71
147
0.06
176
   256
177
   256
178
     2
274
     4
284
     7
340
11
371
    -1
372
    -1
1001
ACAD_DSTYLE_DIMARC_LENGTH_SYMBOL
1070
   379
1070
     1
1001
ACAD_DSTYLE_DIMJOGGED_JOGANGLE_SYMBOL
1070
   384
1040
0.7853981633974483
  0
DIMSTYLE
105
450
330
A
100
AcDbSymbolTableRecord
100
AcDbDimStyleTableRecord
  2
AM_ANSI$3
 70
     0
  4
mm
 41
0.1
 42
0.05
 43
0.5
 44
0.1
 47
0.1
 48
0.1
 78
     7
 79
     2
140
0.12
141
0.0
146
0.71
147
0.06
176
   256
177
   256
178
     2
274
     4
284
     7
288
     1
289
     0
340
11
371
    -1
372
    -1
1001
ACAD_DSTYLE_DIMARC_LENGTH_SYMBOL
1070
   379
1070
     1
1001
ACAD_DSTYLE_DIMJOGGED_JOGANGLE_SYMBOL
1070
   384
1040
0.7853981633974483
  0
DIMSTYLE
105
453
330
A
100
AcDbSymbolTableRecord
100
AcDbDimStyleTableRecord
  2
AM_ANSI$4
 70
     0
  4
mm
 41
0.1
 42
0.05
 43
0.5
 44
0.1
 47
0.1
 48
0.1
 78
     7
 79
     2
140
0.12
141
0.0
146
0.71
147
0.06
176
   256
177
   256
178
     2
274
     4
284
     7
288
     1
289
     0
340
11
371
    -1
372
    -1
1001
ACAD_DSTYLE_DIMARC_LENGTH_SYMBOL
1070
   379
1070
     1
1001
ACAD_DSTYLE_DIMJOGGED_JOGANGLE_SYMBOL
1070
   384
1040
0.7853981633974483
  0
DIMSTYLE
105
458
330
A
100
AcDbSymbolTableRecord
100
AcDbDimStyleTableRecord
  2
AM_ANSI$7
 70
     0
  4
mm
 41
0.1
 42
0.05
 43
0.5
 44
0.1
 47
0.1
 48
0.1
 78
     7
 79
     2
140
0.24
141
0.0
146
0.71
147
0.06
176
   256
177
   256
178
     2
274
     4
284
     7
340
11
371
    -1
372
    -1
1001
ACAD_DSTYLE_DIMARC_LENGTH_SYMBOL
1070
   379
1070
     1
1001
ACAD_DSTYLE_DIMJOGGED_JOGANGLE_SYMBOL
1070
   384
1040
0.7853981633974483
  0
DIMSTYLE
105
45B
330
A
100
AcDbSymbolTableRecord
100
AcDbDimStyleTableRecord
  2
AM_ANSI$SF
 70
     0
  4
mm
 41
0.1
 42
0.05
 43
0.5
 44
0.1
 47
0.1
 48
0.1
 75
     1
 76
     1
 78
     7
 79
     2
140
0.12
141
0.0
146
0.71
147
0.06
176
   256
177
   256
178
     2
274
     4
284
     7
340
11
371
    -1
372
    -1
1001
ACAD_DSTYLE_DIMARC_LENGTH_SYMBOL
1070
   379
1070
     1
1001
ACAD_DSTYLE_DIMJOGGED_JOGANGLE_SYMBOL
1070
   384
1040
0.7853981633974483
  0
DIMSTYLE
105
462
330
A
100
AcDbSymbolTableRecord
100
AcDbDimStyleTableRecord
  2
AM_ANSI$SH
 70
     0
  4
mm
 41
0.1
 42
0.05
 43
0.5
 44
0.1
 47
0.1
 48
0.1
 75
     1
 76
     1
 78
     7
 79
     2
140
0.12
141
0.0
146
0.71
147
0.06
173
     1
176
   256
177
   256
178
     2
274
     4
284
     7
340
11
343
45C
371
    -1
372
    -1
1001
ACAD_DSTYLE_DIMARC_LENGTH_SYMBOL
1070
   379
1070
     1
1001
ACAD_DSTYLE_DIMJOGGED_JOGANGLE_SYMBOL
1070
   384
1040
0.7853981633974483
  0
DIMSTYLE
105
47D
102
{ACAD_REACTORS
330
481
330
4BE
330
508
102
}
330
A
100
AcDbSymbolTableRecord
100
AcDbDimStyleTableRecord
  2
STANDARD$0
 70
     0
 41
0.1875
 47
0.05
 48
0.05
 78
     4
140
0.15625
271
     2
272
     2
284
     4
340
11
  0
ENDTAB
  0
TABLE
  2
BLOCK_RECORD
  5
1
330
0
100
AcDbSymbolTable
 70
     5
  0
BLOCK_RECORD
  5
200
330
1
100
AcDbSymbolTableRecord
100
AcDbBlockTableRecord
  2
*Model_Space
340
3B1
  0
BLOCK_RECORD
  5
201
330
1
100
AcDbSymbolTableRecord
100
AcDbBlockTableRecord
  2
*Paper_Space
340
3B2
  0
BLOCK_RECORD
  5
45C
330
1
100
AcDbSymbolTableRecord
100
AcDbBlockTableRecord
  2
GENAXEH
340
0
  0
BLOCK_RECORD
  5
483
330
1
100
AcDbSymbolTableRecord
100
AcDbBlockTableRecord
  2
*D2
340
0
  0
BLOCK_RECORD
  5
4BF
330
1
100
AcDbSymbolTableRecord
100
AcDbBlockTableRecord
  2
*D3
340
0
  0
BLOCK_RECORD
  5
509
330
1
100
AcDbSymbolTableRecord
100
AcDbBlockTableRecord
  2
*D4
340
0
  0
ENDTAB
  0
ENDSEC
  0
SECTION
  2
BLOCKS
  0
BLOCK
  5
20
330
200
100
AcDbEntity
  8
0
100
AcDbBlockBegin
  2
*Model_Space
 70
     0
 10
0.0
 20
0.0
 30
0.0
  3
*Model_Space
  1

  0
ENDBLK
  5
21
330
200
100
AcDbEntity
  8
0
100
AcDbBlockEnd
  0
BLOCK
  5
1C
330
201
100
AcDbEntity
 67
     1
  8
0
100
AcDbBlockBegin
  2
*Paper_Space
 70
     0
 10
0.0
 20
0.0
 30
0.0
  3
*Paper_Space
  1

  0
ENDBLK
  5
1D
330
201
100
AcDbEntity
 67
     1
  8
0
100
AcDbBlockEnd
  0
BLOCK
  5
45E
330
45C
100
AcDbEntity
  8
0
100
AcDbBlockBegin
  2
GENAXEH
 70
     0
 10
0.0
 20
0.0
 30
0.0
  3
GENAXEH
  1

  0
LINE
  5
45D
330
45C
100
AcDbEntity
  8
0
100
AcDbLine
 10
-1.0
 20
0.0
 30
0.0
 11
1.0
 21
0.0
 31
0.0
  0
ENDBLK
  5
45F
330
45C
100
AcDbEntity
  8
0
100
AcDbBlockEnd
  0
BLOCK
  5
48E
330
483
100
AcDbEntity
  8
0
100
AcDbBlockBegin
  2
*D2
 70
     1
 10
0.0
 20
0.0
 30
0.0
  3
*D2
  1

  0
LINE
  5
4A6
330
483
100
AcDbEntity
  8
AM_5
 62
     0
370
    -2
100
AcDbLine
 10
1.628418112499999
 20
6.048147991499999
 30
0.0
 11
1.628418112499999
 21
6.677397991499999
 31
0.0
  0
LINE
  5
4A7
330
483
100
AcDbEntity
  8
AM_5
 62
     0
370
    -2
100
AcDbLine
 10
3.413696145299999
 20
6.048147991499999
 30
0.0
 11
3.413696145299999
 21
6.677397991499999
 31
0.0
  0
LINE
  5
4A8
330
483
100
AcDbEntity
  8
AM_5
 62
     0
370
    -2
100
AcDbLine
 10
1.440918112499999
 20
6.479397991499999
 30
0.0
 11
1.253418112499999
 21
6.479397991499999
 31
0.0
  0
LINE
  5
4A9
330
483
100
AcDbEntity
  8
AM_5
 62
     0
370
    -2
100
AcDbLine
 10
3.601196145299999
 20
6.479397991499999
 30
0.0
 11
3.788696145299999
 21
6.479397991499999
 31
0.0
  0
SOLID
  5
4AA
330
483
100
AcDbEntity
  8
AM_5
 62
     0
100
AcDbTrace
 10
1.440918112499999
 20
6.510647991499999
 30
0.0
 11
1.440918112499999
 21
6.448147991499999
 31
0.0
 12
1.628418112499999
 22
6.479397991499999
 32
0.0
 13
1.628418112499999
 23
6.479397991499999
 33
0.0
  0
SOLID
  5
4AB
330
483
100
AcDbEntity
  8
AM_5
 62
     0
100
AcDbTrace
 10
3.601196145299999
 20
6.510647991499999
 30
0.0
 11
3.601196145299999
 21
6.448147991499999
 31
0.0
 12
3.413696145299999
 22
6.479397991499999
 32
0.0
 13
3.413696145299999
 23
6.479397991499999
 33
0.0
  0
MTEXT
  5
4AC
330
483
100
AcDbEntity
  8
AM_5
 62
     0
100
AcDbMText
 10
2.521057128899999
 20
6.479397991499999
 30
0.0
 40
0.15625
 41
0.0
 71
     5
 72
     1
  1
\A1;1.79 [45.35]
 73
     1
 44
1.0
  0
POINT
  5
4AD
330
483
100
AcDbEntity
  8
Defpoints
 62
     0
100
AcDbPoint
 10
1.628418112499999
 20
5.979397991499999
 30
0.0
  0
POINT
  5
4AE
330
483
100
AcDbEntity
  8
Defpoints
 62
     0
100
AcDbPoint
 10
3.413696145299999
 20
5.979397991499999
 30
0.0
  0
POINT
  5
4AF
330
483
100
AcDbEntity
  8
Defpoints
 62
     0
100
AcDbPoint
 10
3.413696145299999
 20
6.479397991499999
 30
0.0
  0
ENDBLK
  5
48F
330
483
100
AcDbEntity
  8
0
100
AcDbBlockEnd
  0
BLOCK
  5
4CA
330
4BF
100
AcDbEntity
  8
0
100
AcDbBlockBegin
  2
*D3
 70
     1
 10
0.0
 20
0.0
 30
0.0
  3
*D3
  1

  0
LINE
  5
546
330
4BF
100
AcDbEntity
  8
0
 62
     0
370
    -2
100
AcDbLine
 10
3.568715712658912
 20
6.034516101699999
 30
0.0
 11
4.512347320193725
 21
6.034516101699999
 31
0.0
  0
LINE
  5
547
330
4BF
100
AcDbEntity
  8
0
 62
     0
370
    -2
100
AcDbLine
 10
3.568715712658912
 20
5.5108940545
 30
0.0
 11
4.512347320193724
 21
5.5108940545
 31
0.0
  0
LINE
  5
548
330
4BF
100
AcDbEntity
  8
0
 62
     0
370
    -2
100
AcDbLine
 10
4.314347320193726
 20
6.222016101699999
 30
0.0
 11
4.314347320193726
 21
6.409516101699999
 31
0.0
  0
LINE
  5
549
330
4BF
100
AcDbEntity
  8
0
 62
     0
370
    -2
100
AcDbLine
 10
4.314347320193725
 20
5.3233940545
 30
0.0
 11
4.314347320193725
 21
5.1358940545
 31
0.0
  0
SOLID
  5
54A
330
4BF
100
AcDbEntity
  8
0
 62
     0
100
AcDbTrace
 10
4.283097320193726
 20
6.222016101699999
 30
0.0
 11
4.345597320193726
 21
6.222016101699999
 31
0.0
 12
4.314347320193726
 22
6.034516101699999
 32
0.0
 13
4.314347320193726
 23
6.034516101699999
 33
0.0
  0
SOLID
  5
54B
330
4BF
100
AcDbEntity
  8
0
 62
     0
100
AcDbTrace
 10
4.283097320193725
 20
5.3233940545
 30
0.0
 11
4.345597320193725
 21
5.3233940545
 31
0.0
 12
4.314347320193725
 22
5.5108940545
 32
0.0
 13
4.314347320193725
 23
5.5108940545
 33
0.0
  0
MTEXT
  5
54C
330
4BF
100
AcDbEntity
  8
0
 62
     0
100
AcDbMText
 10
4.314347320193724
 20
5.772705078100001
 30
0.0
 40
0.15625
 41
0.0
 71
     5
 72
     1
  1
\A1;0.52 [13.30]
 73
     1
 44
1.0
  0
POINT
  5
54D
330
4BF
100
AcDbEntity
  8
Defpoints
 62
     0
100
AcDbPoint
 10
3.499965712658912
 20
6.034516101699999
 30
0.0
  0
POINT
  5
54E
330
4BF
100
AcDbEntity
  8
Defpoints
 62
     0
100
AcDbPoint
 10
3.499965712658912
 20
5.5108940545
 30
0.0
  0
POINT
  5
54F
330
4BF
100
AcDbEntity
  8
Defpoints
 62
     0
100
AcDbPoint
 10
4.314347320193725
 20
5.5108940545
 30
0.0
  0
ENDBLK
  5
4CB
330
4BF
100
AcDbEntity
  8
0
100
AcDbBlockEnd
  0
BLOCK
  5
514
330
509
100
AcDbEntity
  8
0
100
AcDbBlockBegin
  2
*D4
 70
     1
 10
0.0
 20
0.0
 30
0.0
  3
*D4
  1

  0
LINE
  5
536
330
509
100
AcDbEntity
  8
AM_5
 62
     0
370
    -2
100
AcDbLine
 10
1.564511853299999
 20
3.953539270099999
 30
0.0
 11
0.4338075354470381
 21
3.9535392701
 31
0.0
  0
LINE
  5
537
330
509
100
AcDbEntity
  8
AM_5
 62
     0
370
    -2
100
AcDbLine
 10
1.564511853299999
 20
2.8787361205
 30
0.0
 11
0.4338075354470379
 21
2.8787361205
 31
0.0
  0
LINE
  5
538
330
509
100
AcDbEntity
  8
AM_5
 62
     0
370
    -2
100
AcDbLine
 10
0.6318075354470382
 20
4.1410392701
 30
0.0
 11
0.6318075354470383
 21
4.3285392701
 31
0.0
  0
LINE
  5
539
330
509
100
AcDbEntity
  8
AM_5
 62
     0
370
    -2
100
AcDbLine
 10
0.6318075354470379
 20
2.6912361205
 30
0.0
 11
0.6318075354470379
 21
2.5037361205
 31
0.0
  0
SOLID
  5
53A
330
509
100
AcDbEntity
  8
AM_5
 62
     0
100
AcDbTrace
 10
0.6005575354470382
 20
4.1410392701
 30
0.0
 11
0.6630575354470382
 21
4.1410392701
 31
0.0
 12
0.6318075354470382
 22
3.9535392701
 32
0.0
 13
0.6318075354470382
 23
3.9535392701
 33
0.0
  0
SOLID
  5
53B
330
509
100
AcDbEntity
  8
AM_5
 62
     0
100
AcDbTrace
 10
0.6005575354470379
 20
2.6912361205
 30
0.0
 11
0.6630575354470379
 21
2.6912361205
 31
0.0
 12
0.631807535447038
 22
2.8787361205
 32
0.0
 13
0.631807535447038
 23
2.8787361205
 33
0.0
  0
MTEXT
  5
53C
330
509
100
AcDbEntity
  8
AM_5
 62
     0
100
AcDbMText
 10
0.6318075354470376
 20
3.4161376953
 30
0.0
 40
0.15625
 41
0.0
 71
     5
 72
     1
  1
\A1;1.07\P [27.30]
 73
     1
 44
1.0
  0
POINT
  5
53D
330
509
100
AcDbEntity
  8
Defpoints
 62
     0
100
AcDbPoint
 10
1.6332618533
 20
3.953539270099999
 30
0.0
  0
POINT
  5
53E
330
509
100
AcDbEntity
  8
Defpoints
 62
     0
100
AcDbPoint
 10
1.633261853299999
 20
2.8787361205
 30
0.0
  0
POINT
  5
53F
330
509
100
AcDbEntity
  8
Defpoints
 62
     0
100
AcDbPoint
 10
0.631807535447038
 20
2.8787361205
 30
0.0
  0
ENDBLK
  5
515
330
509
100
AcDbEntity
  8
0
100
AcDbBlockEnd
  0
ENDSEC
  0
SECTION
  2
ENTITIES
  0
MTEXT
  5
203
330
200
100
AcDbEntity
  8
0
  6
Continuous
 62
     2
100
AcDbMText
 10
9.796203613300001
 20
3.712347144599999
 30
0.0
 40
0.15625
 41
1.5
 71
     3
 72
     1
  1
SCALE  2.000
 73
     1
 44
0.9
  0
LINE
  5
204
330
200
100
AcDbEntity
  8
0
  6
Continuous
 62
     7
100
AcDbLine
 10
0.0
 20
0.0
 30
0.0
 11
0.0
 21
8.5
 31
0.0
  0
LINE
  5
205
330
200
100
AcDbEntity
  8
0
  6
Continuous
 62
     7
100
AcDbLine
 10
0.0
 20
0.0
 30
0.0
 11
11.0
 21
0.0
 31
0.0
  0
LINE
  5
206
330
200
100
AcDbEntity
  8
0
  6
Continuous
 62
     7
100
AcDbLine
 10
0.0
 20
8.5
 30
0.0
 11
11.0
 21
8.5
 31
0.0
  0
LINE
  5
207
330
200
100
AcDbEntity
  8
0
  6
Continuous
 62
     7
100
AcDbLine
 10
11.0
 20
0.0
 30
0.0
 11
11.0
 21
8.5
 31
0.0
  0
LINE
  5
208
330
200
100
AcDbEntity
  8
0
  6
Continuous
 62
     7
100
AcDbLine
 10
7.4334619649
 20
7.216539574199999
 30
0.0
 11
6.921229263999999
 21
6.9208036517
 31
0.0
  0
LINE
  5
209
330
200
100
AcDbEntity
  8
0
  6
Continuous
 62
     7
100
AcDbLine
 10
7.548256046
 20
7.1502646799
 30
0.0
 11
7.626204500499999
 21
7.195267972499999
 31
0.0
  0
LINE
  5
20A
330
200
100
AcDbEntity
  8
0
  6
Continuous
 62
     7
100
AcDbLine
 10
6.837713618999999
 20
5.644619290399999
 30
0.0
 11
6.837713618999999
 21
6.5382715423
 31
0.0
  0
LINE
  5
20B
330
200
100
AcDbEntity
  8
0
  6
Continuous
 62
     7
100
AcDbLine
 10
6.769536895199999
 20
6.577632501599999
 30
0.0
 11
6.7647997528
 21
5.6867151784
 31
0.0
  0
LINE
  5
20C
330
200
100
AcDbEntity
  8
0
  6
Continuous
 62
     7
100
AcDbLine
 10
6.9198660575
 20
6.6644245658
 30
0.0
 11
6.769536895199999
 21
6.577632501599999
 31
0.0
  0
LINE
  5
20D
330
200
100
AcDbEntity
  8
0
  6
Continuous
 62
     7
100
AcDbLine
 10
7.7639556172
 20
7.1157391273
 30
0.0
 11
7.6860071627
 21
7.070735834799999
 31
0.0
  0
LINE
  5
20E
330
200
100
AcDbEntity
  8
0
  6
Continuous
 62
     7
100
AcDbLine
 10
6.988042781299999
 20
6.625063606499999
 30
0.0
 11
6.837713618999999
 21
6.5382715423
 31
0.0
  0
LINE
  5
20F
330
200
100
AcDbEntity
  8
0
  6
Continuous
 62
     7
100
AcDbLine
 10
7.379344153499999
 20
6.7641904739
 30
0.0
 11
7.4139770119
 21
6.784185644599999
 31
0.0
  0
LINE
  5
210
330
200
100
AcDbEntity
  8
0
  6
Continuous
 62
     7
100
AcDbLine
 10
7.4585189858
 20
6.809901811799999
 30
0.0
 11
7.5503868072
 21
6.8629414066
 31
0.0
  0
LINE
  5
211
330
200
100
AcDbEntity
  8
0
  6
Continuous
 62
     7
100
AcDbLine
 10
6.988042781299999
 20
5.7314113547
 30
0.0
 11
6.988042781299999
 21
6.232885280099999
 31
0.0
  0
LINE
  5
212
330
200
100
AcDbEntity
  8
0
  6
Continuous
 62
     7
100
AcDbLine
 10
6.988042781299999
 20
6.4386181726
 30
0.0
 11
6.988042781299999
 21
6.625063606499999
 31
0.0
  0
LINE
  5
213
330
200
100
AcDbEntity
  8
0
  6
Continuous
 62
     7
100
AcDbLine
 10
6.9936105744
 20
5.657476178699999
 30
0.0
 11
6.9936105744
 21
5.620162355299999
 31
0.0
  0
LINE
  5
214
330
200
100
AcDbEntity
  8
0
  6
Continuous
 62
     7
100
AcDbLine
 10
6.921229263999999
 20
6.9208036517
 30
0.0
 11
6.9198660575
 21
6.6644245658
 31
0.0
  0
LINE
  5
215
330
200
100
AcDbEntity
  8
0
  6
Continuous
 62
     7
100
AcDbLine
 10
6.914679872399999
 20
5.6890555123
 30
0.0
 11
6.914379151499999
 21
5.632498745399999
 31
0.0
  0
LINE
  5
216
330
200
100
AcDbEntity
  8
0
  6
Continuous
 62
     7
100
AcDbLine
 10
7.5949291521
 20
6.8372254535
 30
0.0
 11
7.5030613307
 21
6.784185858799999
 31
0.0
  0
LINE
  5
217
330
200
100
AcDbEntity
  8
0
  6
Continuous
 62
     7
100
AcDbLine
 10
7.458519356699999
 20
6.758469691599999
 30
0.0
 11
7.455132300899999
 21
6.756514185599999
 31
0.0
  0
LINE
  5
218
330
200
100
AcDbEntity
  8
0
  6
Continuous
 62
     7
100
AcDbLine
 10
7.491446452699999
 20
6.7581916984
 30
0.0
 11
7.5030613307
 21
6.7648975113
 31
0.0
  0
LINE
  5
219
330
200
100
AcDbEntity
  8
0
  6
Continuous
 62
     7
100
AcDbLine
 10
7.0298008819
 20
6.2569941869
 30
0.0
 11
7.0298008819
 21
6.414509667399999
 31
0.0
  0
LINE
  5
21A
330
200
100
AcDbEntity
  8
0
  6
Continuous
 62
     7
100
AcDbLine
 10
7.043720712399999
 20
5.2746208649
 30
0.0
 11
7.043720712399999
 21
5.6285457316
 31
0.0
  0
LINE
  5
21B
330
200
100
AcDbEntity
  8
0
  6
Continuous
 62
     7
100
AcDbLine
 10
7.146724885
 20
6.1412721974
 30
0.0
 11
7.146724885
 21
6.0641223627
 31
0.0
  0
LINE
  5
21C
330
200
100
AcDbEntity
  8
0
  6
Continuous
 62
     7
100
AcDbLine
 10
6.988042781299999
 20
6.232885280099999
 30
0.0
 11
7.0298008819
 21
6.2569941869
 31
0.0
  0
LINE
  5
21D
330
200
100
AcDbEntity
  8
0
  6
Continuous
 62
     7
100
AcDbLine
 10
7.188482985599999
 20
6.088228857799999
 30
0.0
 11
7.188482985599999
 21
6.1653794345
 31
0.0
  0
LINE
  5
21E
330
200
100
AcDbEntity
  8
0
  6
Continuous
 62
     7
100
AcDbLine
 10
7.2580807472
 20
5.9998324801
 30
0.0
 11
7.2580807472
 21
6.0769823148
 31
0.0
  0
LINE
  5
21F
330
200
100
AcDbEntity
  8
0
  6
Continuous
 62
     7
100
AcDbLine
 10
6.976907195099999
 20
5.596398979299999
 30
0.0
 11
6.9936105744
 21
5.620162355299999
 31
0.0
  0
LINE
  5
220
330
200
100
AcDbEntity
  8
0
  6
Continuous
 62
     7
100
AcDbLine
 10
7.085478812999999
 20
6.224845906299999
 30
0.0
 11
7.0848194746
 21
6.224468578599999
 31
0.0
  0
LINE
  5
221
330
200
100
AcDbEntity
  8
0
  6
Continuous
 62
     7
100
AcDbLine
 10
7.146724885
 20
6.1412721974
 30
0.0
 11
7.188482985599999
 21
6.165377764899999
 31
0.0
  0
LINE
  5
222
330
200
100
AcDbEntity
  8
0
  6
Continuous
 62
     7
100
AcDbLine
 10
8.1879018259
 20
4.485779618099999
 30
0.0
 11
8.2547153432
 21
4.4472056885
 31
0.0
  0
LINE
  5
223
330
200
100
AcDbEntity
  8
0
  6
Continuous
 62
     7
100
AcDbLine
 10
7.4139770119
 20
6.784185644599999
 30
0.0
 11
7.4139770119
 21
6.758851307799999
 31
0.0
  0
LINE
  5
224
330
200
100
AcDbEntity
  8
0
  6
Continuous
 62
     7
100
AcDbLine
 10
7.4167628509
 20
5.9853692321
 30
0.0
 11
7.4167628509
 21
6.1911021246
 31
0.0
  0
LINE
  5
225
330
200
100
AcDbEntity
  8
0
  6
Continuous
 62
     7
100
AcDbLine
 10
7.4585189858
 20
6.809901811799999
 30
0.0
 11
7.4585189858
 21
6.758469691599999
 31
0.0
  0
LINE
  5
226
330
200
100
AcDbEntity
  8
0
  6
Continuous
 62
     7
100
AcDbLine
 10
7.461305473899999
 20
5.3553137343
 30
0.0
 11
7.461305474299999
 21
5.265305594099999
 31
0.0
  0
LINE
  5
227
330
200
100
AcDbEntity
  8
0
  6
Continuous
 62
     7
100
AcDbLine
 10
7.146724885
 20
6.0641223627
 30
0.0
 11
7.188482985599999
 21
6.088228857799999
 31
0.0
  0
LINE
  5
228
330
200
100
AcDbEntity
  8
0
  6
Continuous
 62
     7
100
AcDbLine
 10
7.2580807472
 20
6.0769823148
 30
0.0
 11
7.299838847799999
 21
6.1010895519
 31
0.0
  0
LINE
  5
229
330
200
100
AcDbEntity
  8
0
  6
Continuous
 62
     7
100
AcDbLine
 10
7.043720712399999
 20
5.2746208649
 30
0.0
 11
9.3098125087
 21
3.966321753999999
 31
0.0
  0
LINE
  5
22A
330
200
100
AcDbEntity
  8
0
  6
Continuous
 62
     7
100
AcDbLine
 10
7.480792471699999
 20
6.102702219
 30
0.0
 11
7.480792471699999
 21
6.0126940785
 31
0.0
  0
LINE
  5
22B
330
200
100
AcDbEntity
  8
0
  6
Continuous
 62
     7
100
AcDbLine
 10
7.5030613307
 20
6.784185858799999
 30
0.0
 11
7.5030613307
 21
6.7588512324
 31
0.0
  0
LINE
  5
22C
330
200
100
AcDbEntity
  8
0
  6
Continuous
 62
     7
100
AcDbLine
 10
7.523942508999999
 20
6.0777900969
 30
0.0
 11
7.523942508999999
 21
6.0375974635
 31
0.0
  0
LINE
  5
22D
330
200
100
AcDbEntity
  8
0
  6
Continuous
 62
     7
100
AcDbLine
 10
7.5448223708
 20
5.307096322599999
 30
0.0
 11
7.5448223708
 21
5.217088182099999
 31
0.0
  0
LINE
  5
22E
330
200
100
AcDbEntity
  8
0
  6
Continuous
 62
     7
100
AcDbLine
 10
7.5503868072
 20
6.8629414066
 30
0.0
 11
7.5503868072
 21
6.8115090722
 31
0.0
  0
LINE
  5
22F
330
200
100
AcDbEntity
  8
0
  6
Continuous
 62
     7
100
AcDbLine
 10
7.578228851299999
 20
5.2363753075
 30
0.0
 11
7.578228851299999
 21
5.326383448
 31
0.0
  0
LINE
  5
230
330
200
100
AcDbEntity
  8
0
  6
Continuous
 62
     7
100
AcDbLine
 10
6.988042781299999
 20
5.7314113547
 30
0.0
 11
6.837713618999999
 21
5.644619290399999
 31
0.0
  0
LINE
  5
231
330
200
100
AcDbEntity
  8
0
  6
Continuous
 62
     7
100
AcDbLine
 10
8.080886085599999
 20
6.3591642135
 30
0.0
 11
8.115518943899999
 21
6.379159384199999
 31
0.0
  0
LINE
  5
232
330
200
100
AcDbEntity
  8
0
  6
Continuous
 62
     7
100
AcDbLine
 10
8.160060917899999
 20
6.404875551399999
 30
0.0
 11
8.2519287393
 21
6.4579151462
 31
0.0
  0
LINE
  5
233
330
200
100
AcDbEntity
  8
0
  6
Continuous
 62
     7
100
AcDbLine
 10
8.2964710841
 20
6.4321991932
 30
0.0
 11
8.204603262799999
 21
6.3791595984
 31
0.0
  0
LINE
  5
234
330
200
100
AcDbEntity
  8
0
  6
Continuous
 62
     7
100
AcDbLine
 10
8.160061288799999
 20
6.353443431199999
 30
0.0
 11
8.1566742329
 21
6.351487925199999
 31
0.0
  0
LINE
  5
235
330
200
100
AcDbEntity
  8
0
  6
Continuous
 62
     7
100
AcDbLine
 10
8.192988384799999
 20
6.353165437999999
 30
0.0
 11
8.204603262799999
 21
6.3598712509
 31
0.0
  0
LINE
  5
236
330
200
100
AcDbEntity
  8
0
  6
Continuous
 62
     7
100
AcDbLine
 10
7.480792471699999
 20
6.0126940785
 30
0.0
 11
7.523942508999999
 21
6.0376020395
 31
0.0
  0
LINE
  5
237
330
200
100
AcDbEntity
  8
0
  6
Continuous
 62
     7
100
AcDbLine
 10
7.625555092499999
 20
5.9291172311
 30
0.0
 11
7.625555092499999
 21
6.019125371599999
 31
0.0
  0
LINE
  5
238
330
200
100
AcDbEntity
  8
0
  6
Continuous
 62
     7
100
AcDbLine
 10
7.6895847133
 20
5.827859019699999
 30
0.0
 11
7.6895847133
 21
6.0335919122
 31
0.0
  0
LINE
  5
239
330
200
100
AcDbEntity
  8
0
  6
Continuous
 62
     7
100
AcDbLine
 10
7.731342813999999
 20
5.851966256799999
 30
0.0
 11
7.731342813999999
 21
6.009483407
 31
0.0
  0
LINE
  5
23A
330
200
100
AcDbEntity
  8
0
  6
Continuous
 62
     7
100
AcDbLine
 10
7.7639556172
 20
7.1157391273
 30
0.0
 11
7.7639556172
 21
7.025733291699999
 31
0.0
  0
LINE
  5
23B
330
200
100
AcDbEntity
  8
0
  6
Continuous
 62
     7
100
AcDbLine
 10
6.9936105744
 20
5.620162355299999
 30
0.0
 11
7.025925755399999
 21
5.6388194224
 31
0.0
  0
LINE
  5
23C
330
200
100
AcDbEntity
  8
0
  6
Continuous
 62
     7
100
AcDbLine
 10
6.976907195099999
 20
5.596398979299999
 30
0.0
 11
7.038153977699999
 21
5.631759614699999
 31
0.0
  0
LINE
  5
23D
330
200
100
AcDbEntity
  8
0
  6
Continuous
 62
     7
100
AcDbLine
 10
7.461305474299999
 20
5.265305594099999
 30
0.0
 11
7.544822371
 21
5.217088182099999
 31
0.0
  0
LINE
  5
23E
330
200
100
AcDbEntity
  8
0
  6
Continuous
 62
     7
100
AcDbLine
 10
8.7418978896
 20
4.5259719439
 30
0.0
 11
8.825414786199999
 21
4.477754531999999
 31
0.0
  0
LINE
  5
23F
330
200
100
AcDbEntity
  8
0
  6
Continuous
 62
     7
100
AcDbLine
 10
9.2880751439
 20
4.2299344089
 30
0.0
 11
9.2151612776
 21
4.272030296899999
 31
0.0
  0
LINE
  5
240
330
200
100
AcDbEntity
  8
0
  6
Continuous
 62
     7
100
AcDbLine
 10
6.7647997528
 20
5.6867151784
 30
0.0
 11
6.837713618999999
 21
5.644619290399999
 31
0.0
  0
LINE
  5
241
330
200
100
AcDbEntity
  8
0
  6
Continuous
 62
     7
100
AcDbLine
 10
6.976907195099999
 20
5.596398979299999
 30
0.0
 11
6.914379151499999
 21
5.632498745399999
 31
0.0
  0
LINE
  5
242
330
200
100
AcDbEntity
  8
0
  6
Continuous
 62
     7
100
AcDbLine
 10
9.3766260261
 20
4.210952009299999
 30
0.0
 11
9.4391540697
 21
4.1748522431
 31
0.0
  0
LINE
  5
243
330
200
100
AcDbEntity
  8
0
  6
Continuous
 62
     7
100
AcDbLine
 10
7.461305473899999
 20
5.3553137343
 30
0.0
 11
7.544822370599999
 21
5.3070963224
 31
0.0
  0
LINE
  5
244
330
200
100
AcDbEntity
  8
0
  6
Continuous
 62
     7
100
AcDbLine
 10
8.7418978896
 20
4.6159800844
 30
0.0
 11
8.825414786199999
 21
4.567762672499999
 31
0.0
  0
LINE
  5
245
330
200
100
AcDbEntity
  8
0
  6
Continuous
 62
     7
100
AcDbLine
 10
7.043720712399999
 20
5.6285457316
 30
0.0
 11
6.9936105744
 21
5.657476178699999
 31
0.0
  0
LINE
  5
246
330
200
100
AcDbEntity
  8
0
  6
Continuous
 62
     7
100
AcDbLine
 10
8.858821266699999
 20
4.587049797999999
 30
0.0
 11
8.77530437
 21
4.63526721
 31
0.0
  0
LINE
  5
247
330
200
100
AcDbEntity
  8
0
  6
Continuous
 62
     7
100
AcDbLine
 10
7.5782288511
 20
5.326383448
 30
0.0
 11
7.4947119544
 21
5.3746008599
 31
0.0
  0
LINE
  5
248
330
200
100
AcDbEntity
  8
0
  6
Continuous
 62
     7
100
AcDbLine
 10
7.848266817
 20
5.6590961023
 30
0.0
 11
7.848266817
 21
5.736245937
 31
0.0
  0
LINE
  5
249
330
200
100
AcDbEntity
  8
0
  6
Continuous
 62
     7
100
AcDbLine
 10
7.890024917599999
 20
5.6832025974
 30
0.0
 11
7.890024917599999
 21
5.760353174099999
 31
0.0
  0
LINE
  5
24A
330
200
100
AcDbEntity
  8
0
  6
Continuous
 62
     7
100
AcDbLine
 10
8.118304782899999
 20
5.9728427557
 30
0.0
 11
8.062348928099998
 21
5.9405368207
 31
0.0
  0
LINE
  5
24B
330
200
100
AcDbEntity
  8
0
  6
Continuous
 62
     7
100
AcDbLine
 10
7.6895847133
 20
5.827859019699999
 30
0.0
 11
7.731342813999999
 21
5.851966256799999
 31
0.0
  0
LINE
  5
24C
330
200
100
AcDbEntity
  8
0
  6
Continuous
 62
     7
100
AcDbLine
 10
8.062348928099998
 20
5.1233914883
 30
0.0
 11
8.179272583399999
 21
5.055887111499999
 31
0.0
  0
LINE
  5
24D
330
200
100
AcDbEntity
  8
0
  6
Continuous
 62
     7
100
AcDbLine
 10
9.668817349799999
 20
4.307447608199999
 30
0.0
 11
9.784462919199999
 21
4.2406811181
 31
0.0
  0
LINE
  5
24E
330
200
100
AcDbEntity
  8
0
  6
Continuous
 62
     7
100
AcDbLine
 10
7.959622679199999
 20
5.6719560544
 30
0.0
 11
7.959622679199999
 21
5.5948062197
 31
0.0
  0
LINE
  5
24F
330
200
100
AcDbEntity
  8
0
  6
Continuous
 62
     7
100
AcDbLine
 10
8.062348928099998
 20
5.284763225799999
 30
0.0
 11
8.062348928099998
 21
5.1233914883
 31
0.0
  0
LINE
  5
250
330
200
100
AcDbEntity
  8
0
  6
Continuous
 62
     7
100
AcDbLine
 10
8.062348928099998
 20
5.361270145199999
 30
0.0
 11
8.062348928099998
 21
5.9405368207
 31
0.0
  0
LINE
  5
251
330
200
100
AcDbEntity
  8
0
  6
Continuous
 62
     7
100
AcDbLine
 10
8.2352284382
 20
5.905338378999999
 30
0.0
 11
8.179272583399999
 21
5.873032443999999
 31
0.0
  0
LINE
  5
252
330
200
100
AcDbEntity
  8
0
  6
Continuous
 62
     7
100
AcDbLine
 10
7.848266817
 20
5.6590961023
 30
0.0
 11
7.890024917599999
 21
5.6832025974
 31
0.0
  0
LINE
  5
253
330
200
100
AcDbEntity
  8
0
  6
Continuous
 62
     7
100
AcDbLine
 10
7.848266817
 20
5.736245937
 30
0.0
 11
7.890024917599999
 21
5.7603515045
 31
0.0
  0
LINE
  5
254
330
200
100
AcDbEntity
  8
0
  6
Continuous
 62
     7
100
AcDbLine
 10
8.179272583399999
 20
5.2172588491
 30
0.0
 11
8.062348928099998
 21
5.284763225799999
 31
0.0
  0
LINE
  5
255
330
200
100
AcDbEntity
  8
0
  6
Continuous
 62
     7
100
AcDbLine
 10
8.118304782899999
 20
5.3170691608
 30
0.0
 11
8.2352284382
 21
5.2495647841
 31
0.0
  0
LINE
  5
256
330
200
100
AcDbEntity
  8
0
  6
Continuous
 62
     7
100
AcDbLine
 10
8.179272583399999
 20
5.2937657685
 30
0.0
 11
8.062348928099998
 21
5.361270145199999
 31
0.0
  0
LINE
  5
257
330
200
100
AcDbEntity
  8
0
  6
Continuous
 62
     7
100
AcDbLine
 10
8.115518943899999
 20
6.379159384199999
 30
0.0
 11
8.115518943899999
 21
6.353825047399999
 31
0.0
  0
LINE
  5
258
330
200
100
AcDbEntity
  8
0
  6
Continuous
 62
     7
100
AcDbLine
 10
8.160060917899999
 20
6.404875551399999
 30
0.0
 11
8.160060917899999
 21
6.353443431199999
 31
0.0
  0
LINE
  5
259
330
200
100
AcDbEntity
  8
0
  6
Continuous
 62
     7
100
AcDbLine
 10
8.179272583399999
 20
5.873032443999999
 30
0.0
 11
8.179272583399999
 21
5.2937657685
 31
0.0
  0
LINE
  5
25A
330
200
100
AcDbEntity
  8
0
  6
Continuous
 62
     7
100
AcDbLine
 10
8.179272583399999
 20
5.2172588491
 30
0.0
 11
8.179272583399999
 21
5.055887111499999
 31
0.0
  0
LINE
  5
25B
330
200
100
AcDbEntity
  8
0
  6
Continuous
 62
     7
100
AcDbLine
 10
8.1879018259
 20
4.614042535299999
 30
0.0
 11
8.1879018259
 21
4.485779618099999
 31
0.0
  0
LINE
  5
25C
330
200
100
AcDbEntity
  8
0
  6
Continuous
 62
     7
100
AcDbLine
 10
8.204603262799999
 20
6.3791595984
 30
0.0
 11
8.204603262799999
 21
6.353824972
 31
0.0
  0
LINE
  5
25D
330
200
100
AcDbEntity
  8
0
  6
Continuous
 62
     7
100
AcDbLine
 10
7.4947119544
 20
5.3746008599
 30
0.0
 11
7.461305473899999
 21
5.3553137343
 31
0.0
  0
LINE
  5
25E
330
200
100
AcDbEntity
  8
0
  6
Continuous
 62
     7
100
AcDbLine
 10
7.578228851299999
 20
5.326383448
 30
0.0
 11
7.5448223708
 21
5.307096322599999
 31
0.0
  0
LINE
  5
25F
330
200
100
AcDbEntity
  8
0
  6
Continuous
 62
     7
100
AcDbLine
 10
7.959622679199999
 20
5.6719560544
 30
0.0
 11
8.001380779899999
 21
5.696063291499999
 31
0.0
  0
LINE
  5
260
330
200
100
AcDbEntity
  8
0
  6
Continuous
 62
     7
100
AcDbLine
 10
7.959622679199999
 20
5.5948062197
 30
0.0
 11
7.848266817
 21
5.6590961023
 31
0.0
  0
LINE
  5
261
330
200
100
AcDbEntity
  8
0
  6
Continuous
 62
     7
100
AcDbLine
 10
7.146724885
 20
6.0641223627
 30
0.0
 11
7.2580807472
 21
5.9998324801
 31
0.0
  0
LINE
  5
262
330
200
100
AcDbEntity
  8
0
  6
Continuous
 62
     7
100
AcDbLine
 10
7.959622679199999
 20
5.641923936299999
 30
0.0
 11
7.889072539899999
 21
5.682655156799999
 31
0.0
  0
LINE
  5
263
330
200
100
AcDbEntity
  8
0
  6
Continuous
 62
     7
100
AcDbLine
 10
7.187530607899999
 20
6.0876814172
 30
0.0
 11
7.2580807472
 21
6.046950196699999
 31
0.0
  0
LINE
  5
264
330
200
100
AcDbEntity
  8
0
  6
Continuous
 62
     7
100
AcDbLine
 10
7.188482985599999
 20
6.0882264461
 30
0.0
 11
7.2580807472
 21
6.0480450687
 31
0.0
  0
LINE
  5
265
330
200
100
AcDbEntity
  8
0
  6
Continuous
 62
     7
100
AcDbLine
 10
7.890024917599999
 20
5.6832001857
 30
0.0
 11
7.959622679199999
 21
5.6430188083
 31
0.0
  0
LINE
  5
266
330
200
100
AcDbEntity
  8
0
  6
Continuous
 62
     7
100
AcDbLine
 10
8.2352284382
 20
5.2495647841
 30
0.0
 11
8.2352284382
 21
5.088193046599999
 31
0.0
  0
LINE
  5
267
330
200
100
AcDbEntity
  8
0
  6
Continuous
 62
     7
100
AcDbLine
 10
8.2352284382
 20
5.3260717035
 30
0.0
 11
8.2352284382
 21
5.905338378999999
 31
0.0
  0
LINE
  5
268
330
200
100
AcDbEntity
  8
0
  6
Continuous
 62
     7
100
AcDbLine
 10
8.2519287393
 20
6.4579151462
 30
0.0
 11
8.2519287393
 21
6.406482811799999
 31
0.0
  0
LINE
  5
269
330
200
100
AcDbEntity
  8
0
  6
Continuous
 62
     7
100
AcDbLine
 10
8.2547153432
 20
4.5754686058
 30
0.0
 11
8.2547153432
 21
4.4472056885
 31
0.0
  0
LINE
  5
26A
330
200
100
AcDbEntity
  8
0
  6
Continuous
 62
     7
100
AcDbLine
 10
7.5448223708
 20
5.217088182099999
 30
0.0
 11
7.578228851299999
 21
5.2363753075
 31
0.0
  0
LINE
  5
26B
330
200
100
AcDbEntity
  8
0
  6
Continuous
 62
     7
100
AcDbLine
 10
8.062348928099998
 20
5.6126483687
 30
0.0
 11
7.959622679199999
 21
5.6719560544
 31
0.0
  0
LINE
  5
26C
330
200
100
AcDbEntity
  8
0
  6
Continuous
 62
     7
100
AcDbLine
 10
7.848266817
 20
5.736245937
 30
0.0
 11
7.6895847133
 21
5.827859019699999
 31
0.0
  0
LINE
  5
26D
330
200
100
AcDbEntity
  8
0
  6
Continuous
 62
     7
100
AcDbLine
 10
6.988042781299999
 20
6.232885280099999
 30
0.0
 11
7.146724885
 21
6.1412721974
 31
0.0
  0
LINE
  5
26E
330
200
100
AcDbEntity
  8
0
  6
Continuous
 62
     7
100
AcDbLine
 10
7.2580807472
 20
6.0769823148
 30
0.0
 11
7.4167628509
 21
5.9853692321
 31
0.0
  0
LINE
  5
26F
330
200
100
AcDbEntity
  8
0
  6
Continuous
 62
     7
100
AcDbLine
 10
8.062348928099998
 20
5.660104453099999
 30
0.0
 11
8.000721441399999
 21
5.695684294199999
 31
0.0
  0
LINE
  5
270
330
200
100
AcDbEntity
  8
0
  6
Continuous
 62
     7
100
AcDbLine
 10
7.889365579199999
 20
5.759974176799999
 30
0.0
 11
7.730683475499999
 21
5.8515872595
 31
0.0
  0
LINE
  5
271
330
200
100
AcDbEntity
  8
0
  6
Continuous
 62
     7
100
AcDbLine
 10
7.0848194746
 20
6.224468578599999
 30
0.0
 11
7.1878236472
 21
6.1650004372
 31
0.0
  0
LINE
  5
272
330
200
100
AcDbEntity
  8
0
  6
Continuous
 62
     7
100
AcDbLine
 10
7.2991795094
 20
6.1007105546
 30
0.0
 11
7.4167628509
 21
6.032825316499999
 31
0.0
  0
LINE
  5
273
330
200
100
AcDbEntity
  8
0
  6
Continuous
 62
     7
100
AcDbLine
 10
8.062348928099998
 20
5.660862441399999
 30
0.0
 11
8.001380779899999
 21
5.6960616219
 31
0.0
  0
LINE
  5
274
330
200
100
AcDbEntity
  8
0
  6
Continuous
 62
     7
100
AcDbLine
 10
7.188482985599999
 20
6.165377764899999
 30
0.0
 11
7.0298008819
 21
6.2569941869
 31
0.0
  0
LINE
  5
275
330
200
100
AcDbEntity
  8
0
  6
Continuous
 62
     7
100
AcDbLine
 10
7.299838847799999
 20
6.101087882299999
 30
0.0
 11
7.4167628509
 21
6.0335833048
 31
0.0
  0
LINE
  5
276
330
200
100
AcDbEntity
  8
0
  6
Continuous
 62
     7
100
AcDbLine
 10
7.731342813999999
 20
5.8519645872
 30
0.0
 11
7.890024917599999
 21
5.7603515045
 31
0.0
  0
LINE
  5
277
330
200
100
AcDbEntity
  8
0
  6
Continuous
 62
     7
100
AcDbLine
 10
7.480792471699999
 20
6.0126940785
 30
0.0
 11
7.625555092499999
 21
5.9291172311
 31
0.0
  0
LINE
  5
278
330
200
100
AcDbEntity
  8
0
  6
Continuous
 62
     7
100
AcDbLine
 10
7.625555092499999
 20
5.9768552887
 30
0.0
 11
7.5221354333
 21
6.0365633061
 31
0.0
  0
LINE
  5
279
330
200
100
AcDbEntity
  8
0
  6
Continuous
 62
     7
100
AcDbLine
 10
7.523942508999999
 20
6.0375974635
 30
0.0
 11
7.625555092499999
 21
5.9789327382
 31
0.0
  0
LINE
  5
27A
330
200
100
AcDbEntity
  8
0
  6
Continuous
 62
     7
100
AcDbLine
 10
7.625555092499999
 20
6.019125371599999
 30
0.0
 11
7.480792471699999
 21
6.102702219
 31
0.0
  0
LINE
  5
27B
330
200
100
AcDbEntity
  8
0
  6
Continuous
 62
     7
100
AcDbLine
 10
8.0626273154
 20
5.284923951899999
 30
0.0
 11
8.118304782899999
 21
5.3170691608
 31
0.0
  0
LINE
  5
27C
330
200
100
AcDbEntity
  8
0
  6
Continuous
 62
     7
100
AcDbLine
 10
8.2352284382
 20
5.3260717035
 30
0.0
 11
8.179272583399999
 21
5.2937657685
 31
0.0
  0
LINE
  5
27D
330
200
100
AcDbEntity
  8
0
  6
Continuous
 62
     7
100
AcDbLine
 10
7.4167628509
 20
6.1911021246
 30
0.0
 11
6.988042781299999
 21
6.4386181726
 31
0.0
  0
LINE
  5
27E
330
200
100
AcDbEntity
  8
0
  6
Continuous
 62
     7
100
AcDbLine
 10
7.6895847133
 20
6.0335919122
 30
0.0
 11
8.062348928099998
 21
5.818381261199999
 31
0.0
  0
LINE
  5
27F
330
200
100
AcDbEntity
  8
0
  6
Continuous
 62
     7
100
AcDbLine
 10
6.837713618999999
 20
6.5382715423
 30
0.0
 11
6.769536895199999
 21
6.577632501599999
 31
0.0
  0
LINE
  5
280
330
200
100
AcDbEntity
  8
0
  6
Continuous
 62
     7
100
AcDbLine
 10
9.2151612776
 20
5.1656825487
 30
0.0
 11
9.2833380014
 21
5.126321589299999
 31
0.0
  0
LINE
  5
281
330
200
100
AcDbEntity
  8
0
  6
Continuous
 62
     7
100
AcDbLine
 10
8.062348928099998
 20
5.9405368207
 30
0.0
 11
8.179272583399999
 21
5.873032443999999
 31
0.0
  0
LINE
  5
282
330
200
100
AcDbEntity
  8
0
  6
Continuous
 62
     7
100
AcDbLine
 10
8.2352284382
 20
5.2495647841
 30
0.0
 11
8.179272583399999
 21
5.2172588491
 31
0.0
  0
LINE
  5
283
330
200
100
AcDbEntity
  8
0
  6
Continuous
 62
     7
100
AcDbLine
 10
6.988042781299999
 20
6.625063606499999
 30
0.0
 11
6.9198660575
 21
6.6644245658
 31
0.0
  0
LINE
  5
284
330
200
100
AcDbEntity
  8
0
  6
Continuous
 62
     7
100
AcDbLine
 10
9.3654904399
 20
5.2524746129
 30
0.0
 11
9.4336671637
 21
5.2131136535
 31
0.0
  0
LINE
  5
285
330
200
100
AcDbEntity
  8
0
  6
Continuous
 62
     7
100
AcDbLine
 10
8.118304782899999
 20
5.9728427557
 30
0.0
 11
8.2352284382
 21
5.905338378999999
 31
0.0
  0
LINE
  5
286
330
200
100
AcDbEntity
  8
0
  6
Continuous
 62
     7
100
AcDbLine
 10
8.7418978898
 20
4.5259719442
 30
0.0
 11
8.7418978896
 21
4.6159800845
 31
0.0
  0
LINE
  5
287
330
200
100
AcDbEntity
  8
0
  6
Continuous
 62
     7
100
AcDbLine
 10
8.825414786199999
 20
4.477754531999999
 30
0.0
 11
8.825414786199999
 21
4.567762672499999
 31
0.0
  0
LINE
  5
288
330
200
100
AcDbEntity
  8
0
  6
Continuous
 62
     7
100
AcDbLine
 10
8.179272583399999
 20
5.055887111499999
 30
0.0
 11
8.2352284382
 21
5.088193046599999
 31
0.0
  0
LINE
  5
289
330
200
100
AcDbEntity
  8
0
  6
Continuous
 62
     7
100
AcDbLine
 10
9.7697810712
 20
5.957701459799999
 30
0.0
 11
9.691832616699999
 21
5.9126981673
 31
0.0
  0
LINE
  5
28A
330
200
100
AcDbEntity
  8
0
  6
Continuous
 62
     7
100
AcDbLine
 10
9.4323039572
 20
5.471066798999999
 30
0.0
 11
6.921229263999999
 21
6.9208036517
 31
0.0
  0
LINE
  5
28B
330
200
100
AcDbEntity
  8
0
  6
Continuous
 62
     7
100
AcDbLine
 10
9.359922646699999
 20
4.25400235
 30
0.0
 11
9.3766260261
 21
4.210952009299999
 31
0.0
  0
LINE
  5
28C
330
200
100
AcDbEntity
  8
0
  6
Continuous
 62
     7
100
AcDbLine
 10
8.858821266699999
 20
4.497041657499999
 30
0.0
 11
8.858821266699999
 21
4.587049797899999
 31
0.0
  0
LINE
  5
28D
330
200
100
AcDbEntity
  8
0
  6
Continuous
 62
     7
100
AcDbLine
 10
9.8297663543
 20
5.8330638883
 30
0.0
 11
9.907714808799999
 21
5.8780671808
 31
0.0
  0
LINE
  5
28E
330
200
100
AcDbEntity
  8
0
  6
Continuous
 62
     7
100
AcDbLine
 10
7.4139770119
 20
6.7648968689
 30
0.0
 11
7.4255908224
 21
6.758191784
 31
0.0
  0
LINE
  5
28F
330
200
100
AcDbEntity
  8
0
  6
Continuous
 62
     7
100
AcDbLine
 10
8.115518943899999
 20
6.3598706085
 30
0.0
 11
8.127132754399999
 21
6.3531655236
 31
0.0
  0
LINE
  5
290
330
200
100
AcDbEntity
  8
0
  6
Continuous
 62
     7
100
AcDbLine
 10
8.163448199799999
 20
6.351488041399999
 30
0.0
 11
8.160061288799999
 21
6.353443431199999
 31
0.0
  0
LINE
  5
291
330
200
100
AcDbEntity
  8
0
  6
Continuous
 62
     7
100
AcDbLine
 10
8.115518943899999
 20
6.379159384199999
 30
0.0
 11
8.0045268449
 21
6.443239252799999
 31
0.0
  0
LINE
  5
292
330
200
100
AcDbEntity
  8
0
  6
Continuous
 62
     7
100
AcDbLine
 10
7.461906267799999
 20
6.756514301799999
 30
0.0
 11
7.458519356699999
 21
6.758469691599999
 31
0.0
  0
LINE
  5
293
330
200
100
AcDbEntity
  8
0
  6
Continuous
 62
     7
100
AcDbLine
 10
7.4139770119
 20
6.784185644599999
 30
0.0
 11
7.302984912899999
 21
6.8482655132
 31
0.0
  0
LINE
  5
294
330
200
100
AcDbEntity
  8
0
  6
Continuous
 62
     7
100
AcDbLine
 10
7.3475268869
 20
6.8739816803
 30
0.0
 11
7.4585189858
 21
6.809901811799999
 31
0.0
  0
LINE
  5
295
330
200
100
AcDbEntity
  8
0
  6
Continuous
 62
     7
100
AcDbLine
 10
7.5030613307
 20
6.784185858799999
 30
0.0
 11
7.537694901799999
 21
6.7641906095
 31
0.0
  0
LINE
  5
296
330
200
100
AcDbEntity
  8
0
  6
Continuous
 62
     7
100
AcDbLine
 10
8.0490688189
 20
6.4689554199
 30
0.0
 11
8.160060917899999
 21
6.404875551399999
 31
0.0
  0
LINE
  5
297
330
200
100
AcDbEntity
  8
0
  6
Continuous
 62
     7
100
AcDbLine
 10
8.204603262799999
 20
6.3791595984
 30
0.0
 11
8.239236833899999
 21
6.359164349099999
 31
0.0
  0
LINE
  5
298
330
200
100
AcDbEntity
  8
0
  6
Continuous
 62
     7
100
AcDbLine
 10
9.9445366582
 20
5.766802721499999
 30
0.0
 11
9.4323039572
 21
5.471066798999999
 31
0.0
  0
LINE
  5
299
330
200
100
AcDbEntity
  8
0
  6
Continuous
 62
     7
100
AcDbLine
 10
7.5503868072
 20
6.8629414066
 30
0.0
 11
7.5949291521
 21
6.8372254535
 31
0.0
  0
LINE
  5
29A
330
200
100
AcDbEntity
  8
0
  6
Continuous
 62
     7
100
AcDbLine
 10
8.2519287393
 20
6.4579151462
 30
0.0
 11
8.2964710841
 21
6.4321991932
 31
0.0
  0
LINE
  5
29B
330
200
100
AcDbEntity
  8
0
  6
Continuous
 62
     7
100
AcDbLine
 10
9.2880751439
 20
4.2299344089
 30
0.0
 11
9.2833380014
 21
5.126321589299999
 31
0.0
  0
LINE
  5
29C
330
200
100
AcDbEntity
  8
0
  6
Continuous
 62
     7
100
AcDbLine
 10
9.2151612776
 20
4.272030296899999
 30
0.0
 11
9.2151612776
 21
5.1656825487
 31
0.0
  0
LINE
  5
29D
330
200
100
AcDbEntity
  8
0
  6
Continuous
 62
     7
100
AcDbLine
 10
9.3654904399
 20
5.2524746129
 30
0.0
 11
9.2151612776
 21
5.1656825487
 31
0.0
  0
LINE
  5
29E
330
200
100
AcDbEntity
  8
0
  6
Continuous
 62
     7
100
AcDbLine
 10
9.4336671637
 20
5.2131136535
 30
0.0
 11
9.2833380014
 21
5.126321589299999
 31
0.0
  0
LINE
  5
29F
330
200
100
AcDbEntity
  8
0
  6
Continuous
 62
     7
100
AcDbLine
 10
9.4391540697
 20
4.1748522431
 30
0.0
 11
9.4384043061
 21
4.3167264731
 31
0.0
  0
LINE
  5
2A0
330
200
100
AcDbEntity
  8
0
  6
Continuous
 62
     7
100
AcDbLine
 10
9.4336671637
 20
5.2131136535
 30
0.0
 11
9.4323039572
 21
5.471066798999999
 31
0.0
  0
LINE
  5
2A1
330
200
100
AcDbEntity
  8
0
  6
Continuous
 62
     7
100
AcDbLine
 10
9.3098125087
 20
3.966321753999999
 30
0.0
 11
9.3098125087
 21
4.2424844074
 31
0.0
  0
LINE
  5
2A2
330
200
100
AcDbEntity
  8
0
  6
Continuous
 62
     7
100
AcDbLine
 10
9.359922646699999
 20
4.271415336399999
 30
0.0
 11
9.359922646699999
 21
4.25400235
 31
0.0
  0
LINE
  5
2A3
330
200
100
AcDbEntity
  8
0
  6
Continuous
 62
     7
100
AcDbLine
 10
9.3473938836
 20
3.988019241299999
 30
0.0
 11
9.348180597899999
 21
4.264636101799999
 31
0.0
  0
LINE
  5
2A4
330
200
100
AcDbEntity
  8
0
  6
Continuous
 62
     7
100
AcDbLine
 10
8.2547153432
 20
4.4472056885
 30
0.0
 11
8.365795875899999
 21
4.511337681199999
 31
0.0
  0
LINE
  5
2A5
330
200
100
AcDbEntity
  8
0
  6
Continuous
 62
     7
100
AcDbLine
 10
8.7418978896
 20
4.6159800845
 30
0.0
 11
8.77530437
 21
4.6352672099
 31
0.0
  0
LINE
  5
2A6
330
200
100
AcDbEntity
  8
0
  6
Continuous
 62
     7
100
AcDbLine
 10
9.9445366582
 20
5.766802721499999
 30
0.0
 11
9.8297663543
 21
5.8330638883
 31
0.0
  0
LINE
  5
2A7
330
200
100
AcDbEntity
  8
0
  6
Continuous
 62
     7
100
AcDbLine
 10
7.4334619649
 20
7.216539574199999
 30
0.0
 11
7.548256046
 21
7.1502646799
 31
0.0
  0
LINE
  5
2A8
330
200
100
AcDbEntity
  8
0
  6
Continuous
 62
     7
100
AcDbLine
 10
7.6860071627
 20
7.070735834799999
 30
0.0
 11
9.691832616699999
 21
5.9126981673
 31
0.0
  0
LINE
  5
2A9
330
200
100
AcDbEntity
  8
0
  6
Continuous
 62
     7
100
AcDbLine
 10
7.626204500499999
 20
7.195267972499999
 30
0.0
 11
7.7639556172
 21
7.1157391273
 31
0.0
  0
LINE
  5
2AA
330
200
100
AcDbEntity
  8
0
  6
Continuous
 62
     7
100
AcDbLine
 10
9.7697810712
 20
5.957701459799999
 30
0.0
 11
9.907714808799999
 21
5.8780671808
 31
0.0
  0
LINE
  5
2AB
330
200
100
AcDbEntity
  8
0
  6
Continuous
 62
     7
100
AcDbLine
 10
8.825414786199999
 20
4.567762672499999
 30
0.0
 11
8.858821266699999
 21
4.587049797999999
 31
0.0
  0
LINE
  5
2AC
330
200
100
AcDbEntity
  8
0
  6
Continuous
 62
     7
100
AcDbLine
 10
8.858821266699999
 20
4.497041657599999
 30
0.0
 11
8.825414786599999
 21
4.4777545322
 31
0.0
  0
LINE
  5
2AD
330
200
100
AcDbEntity
  8
0
  6
Continuous
 62
     7
100
AcDbLine
 10
9.784082515799999
 20
4.3739955856
 30
0.0
 11
9.784462919199999
 21
4.2406811181
 31
0.0
  0
LINE
  5
2AE
330
200
100
AcDbEntity
  8
0
  6
Continuous
 62
     7
100
AcDbLine
 10
9.8220452097
 20
4.2623791341
 30
0.0
 11
9.8220452097
 21
4.3959132263
 31
0.0
  0
LINE
  5
2AF
330
200
100
AcDbEntity
  8
0
  6
Continuous
 62
     7
100
AcDbLine
 10
9.9445366582
 20
5.766802721499999
 30
0.0
 11
9.9513867707
 21
4.470588165599999
 31
0.0
  0
LINE
  5
2B0
330
200
100
AcDbEntity
  8
0
  6
Continuous
 62
     7
100
AcDbLine
 10
9.907714808799999
 20
5.8780671808
 30
0.0
 11
9.907714808799999
 21
5.7880613452
 31
0.0
  0
LINE
  5
2B1
330
200
100
AcDbEntity
  8
0
  6
Continuous
 62
     7
100
AcDbLine
 10
9.2880751439
 20
4.2299344089
 30
0.0
 11
9.4384043061
 21
4.3167264731
 31
0.0
  0
LINE
  5
2B2
330
200
100
AcDbEntity
  8
0
  6
Continuous
 62
     7
100
AcDbLine
 10
9.4391540697
 20
4.1748522431
 30
0.0
 11
9.9513867707
 21
4.470588165599999
 31
0.0
  0
LINE
  5
2B3
330
200
100
AcDbEntity
  8
0
  6
Continuous
 62
     7
100
AcDbLine
 10
9.784462919199999
 20
4.2406811181
 30
0.0
 11
9.8220452097
 21
4.2623791341
 31
0.0
  0
LINE
  5
2B4
330
200
100
AcDbEntity
  8
0
  6
Continuous
 62
     7
100
AcDbLine
 10
9.3098125087
 20
3.966321753999999
 30
0.0
 11
9.3473938836
 21
3.988019241299999
 31
0.0
  0
LINE
  5
2B5
330
200
100
AcDbEntity
  8
0
  6
Continuous
 62
     7
100
AcDbLine
 10
1.680505947799999
 20
3.2488148607
 30
0.0
 11
1.680505947799999
 21
3.796058955199999
 31
0.0
  0
LINE
  5
2B6
330
200
100
AcDbEntity
  8
0
  6
Continuous
 62
     7
100
AcDbLine
 10
1.684442955699999
 20
3.2055077741
 30
0.0
 11
1.684442955699999
 21
3.1826579804
 31
0.0
  0
LINE
  5
2B7
330
200
100
AcDbEntity
  8
0
  6
Continuous
 62
     7
100
AcDbLine
 10
1.6332618533
 20
3.953539270099999
 30
0.0
 11
1.628418112499999
 21
3.162200687399999
 31
0.0
  0
LINE
  5
2B8
330
200
100
AcDbEntity
  8
0
  6
Continuous
 62
     7
100
AcDbLine
 10
1.7198760265
 20
2.9887754906
 30
0.0
 11
1.7198760265
 21
3.2055077741
 31
0.0
  0
LINE
  5
2B9
330
200
100
AcDbEntity
  8
0
  6
Continuous
 62
     7
100
AcDbLine
 10
1.792710672199999
 20
3.5559014748
 30
0.0
 11
1.792710672199999
 21
3.5086573804
 31
0.0
  0
LINE
  5
2BA
330
200
100
AcDbEntity
  8
0
  6
Continuous
 62
     7
100
AcDbLine
 10
1.8714508297
 20
3.5086573804
 30
0.0
 11
1.8714508297
 21
3.5559014748
 31
0.0
  0
LINE
  5
2BB
330
200
100
AcDbEntity
  8
0
  6
Continuous
 62
     7
100
AcDbLine
 10
1.6726319321
 20
3.162200687399999
 30
0.0
 11
1.684442955699999
 21
3.1826579804
 31
0.0
  0
LINE
  5
2BC
330
200
100
AcDbEntity
  8
0
  6
Continuous
 62
     7
100
AcDbLine
 10
1.9836555541
 20
3.5559014748
 30
0.0
 11
1.9836555541
 21
3.6818857268
 31
0.0
  0
LINE
  5
2BD
330
200
100
AcDbEntity
  8
0
  6
Continuous
 62
     7
100
AcDbLine
 10
2.0289311447
 20
3.650389663799999
 30
0.0
 11
2.0289311447
 21
3.595271553599999
 31
0.0
  0
LINE
  5
2BE
330
200
100
AcDbEntity
  8
0
  6
Continuous
 62
     7
100
AcDbLine
 10
2.0387736643
 20
3.2094447818
 30
0.0
 11
2.0387736643
 21
3.1543266716
 31
0.0
  0
LINE
  5
2BF
330
200
100
AcDbEntity
  8
0
  6
Continuous
 62
     7
100
AcDbLine
 10
2.497435081699999
 20
2.8787361205
 30
0.0
 11
2.544679176199999
 21
2.8787361205
 31
0.0
  0
LINE
  5
2C0
330
200
100
AcDbEntity
  8
0
  6
Continuous
 62
     7
100
AcDbLine
 10
2.0978287824
 20
3.209444781899999
 30
0.0
 11
2.0978287824
 21
3.1543266716
 31
0.0
  0
LINE
  5
2C1
330
200
100
AcDbEntity
  8
0
  6
Continuous
 62
     7
100
AcDbLine
 10
1.7198760265
 20
2.9887754906
 30
0.0
 11
3.3222382313
 21
2.9887754906
 31
0.0
  0
LINE
  5
2C2
330
200
100
AcDbEntity
  8
0
  6
Continuous
 62
     7
100
AcDbLine
 10
2.131293349399999
 20
3.595271553599999
 30
0.0
 11
2.131293349399999
 21
3.650389663799999
 31
0.0
  0
LINE
  5
2C3
330
200
100
AcDbEntity
  8
0
  6
Continuous
 62
     7
100
AcDbLine
 10
2.1765689399
 20
3.5559014748
 30
0.0
 11
2.1765689399
 21
3.6818857268
 31
0.0
  0
LINE
  5
2C4
330
200
100
AcDbEntity
  8
0
  6
Continuous
 62
     7
100
AcDbLine
 10
2.2887736643
 20
3.5086573804
 30
0.0
 11
2.2887736643
 21
3.5559014748
 31
0.0
  0
LINE
  5
2C5
330
200
100
AcDbEntity
  8
0
  6
Continuous
 62
     7
100
AcDbLine
 10
2.0387736643
 20
3.1543266716
 30
0.0
 11
2.0978287824
 21
3.1543266716
 31
0.0
  0
LINE
  5
2C6
330
200
100
AcDbEntity
  8
0
  6
Continuous
 62
     7
100
AcDbLine
 10
2.9442854754
 20
3.1543266716
 30
0.0
 11
3.0033405935
 21
3.1543266716
 31
0.0
  0
LINE
  5
2C7
330
200
100
AcDbEntity
  8
0
  6
Continuous
 62
     7
100
AcDbLine
 10
1.6726319321
 20
3.162200687399999
 30
0.0
 11
1.628418112499999
 21
3.162200687399999
 31
0.0
  0
LINE
  5
2C8
330
200
100
AcDbEntity
  8
0
  6
Continuous
 62
     7
100
AcDbLine
 10
3.369482325799999
 20
3.162200687399999
 30
0.0
 11
3.413696145299999
 21
3.162200687399999
 31
0.0
  0
LINE
  5
2C9
330
200
100
AcDbEntity
  8
0
  6
Continuous
 62
     7
100
AcDbLine
 10
1.7198760265
 20
3.2055077741
 30
0.0
 11
1.684442955699999
 21
3.2055077741
 31
0.0
  0
LINE
  5
2CA
330
200
100
AcDbEntity
  8
0
  6
Continuous
 62
     7
100
AcDbLine
 10
3.3222382313
 20
3.2055077741
 30
0.0
 11
3.357671302099999
 21
3.2055077741
 31
0.0
  0
LINE
  5
2CB
330
200
100
AcDbEntity
  8
0
  6
Continuous
 62
     7
100
AcDbLine
 10
2.0387736643
 20
3.2094447818
 30
0.0
 11
2.0978287824
 21
3.2094447818
 31
0.0
  0
LINE
  5
2CC
330
200
100
AcDbEntity
  8
0
  6
Continuous
 62
     7
100
AcDbLine
 10
2.9442854754
 20
3.2094447818
 30
0.0
 11
3.0033405935
 21
3.2094447818
 31
0.0
  0
LINE
  5
2CD
330
200
100
AcDbEntity
  8
0
  6
Continuous
 62
     7
100
AcDbLine
 10
2.3675138218
 20
3.5559014748
 30
0.0
 11
2.3675138218
 21
3.5086573804
 31
0.0
  0
LINE
  5
2CE
330
200
100
AcDbEntity
  8
0
  6
Continuous
 62
     7
100
AcDbLine
 10
3.413165984599999
 20
3.2488148607
 30
0.0
 11
3.361608309999999
 21
3.2488148607
 31
0.0
  0
LINE
  5
2CF
330
200
100
AcDbEntity
  8
0
  6
Continuous
 62
     7
100
AcDbLine
 10
1.628948273199999
 20
3.2488148607
 30
0.0
 11
1.680505947799999
 21
3.2488148607
 31
0.0
  0
LINE
  5
2D0
330
200
100
AcDbEntity
  8
0
  6
Continuous
 62
     7
100
AcDbLine
 10
2.479718546199999
 20
3.2958621048
 30
0.0
 11
2.562395711599999
 21
3.2958621048
 31
0.0
  0
LINE
  5
2D1
330
200
100
AcDbEntity
  8
0
  6
Continuous
 62
     7
100
AcDbLine
 10
2.479718546199999
 20
3.3946810024
 30
0.0
 11
2.479718546199999
 21
3.2958621048
 31
0.0
  0
LINE
  5
2D2
330
200
100
AcDbEntity
  8
0
  6
Continuous
 62
     7
100
AcDbLine
 10
2.479718546199999
 20
3.4415313961
 30
0.0
 11
2.479718546199999
 21
3.796255805499999
 31
0.0
  0
LINE
  5
2D3
330
200
100
AcDbEntity
  8
0
  6
Continuous
 62
     7
100
AcDbLine
 10
2.497435081699999
 20
2.9887754906
 30
0.0
 11
2.497435081699999
 21
2.8787361205
 31
0.0
  0
LINE
  5
2D4
330
200
100
AcDbEntity
  8
0
  6
Continuous
 62
     7
100
AcDbLine
 10
2.562395711599999
 20
3.3946810024
 30
0.0
 11
2.479718546199999
 21
3.3946810024
 31
0.0
  0
LINE
  5
2D5
330
200
100
AcDbEntity
  8
0
  6
Continuous
 62
     7
100
AcDbLine
 10
2.544679176199999
 20
2.9887754906
 30
0.0
 11
2.544679176199999
 21
2.8787361205
 31
0.0
  0
LINE
  5
2D6
330
200
100
AcDbEntity
  8
0
  6
Continuous
 62
     7
100
AcDbLine
 10
2.562395711599999
 20
3.796255805499999
 30
0.0
 11
2.562395711599999
 21
3.4415313961
 31
0.0
  0
LINE
  5
2D7
330
200
100
AcDbEntity
  8
0
  6
Continuous
 62
     7
100
AcDbLine
 10
2.562395711599999
 20
3.3946810024
 30
0.0
 11
2.562395711599999
 21
3.2958621048
 31
0.0
  0
LINE
  5
2D8
330
200
100
AcDbEntity
  8
0
  6
Continuous
 62
     7
100
AcDbLine
 10
2.562395711599999
 20
3.4415313961
 30
0.0
 11
2.479718546199999
 21
3.4415313961
 31
0.0
  0
LINE
  5
2D9
330
200
100
AcDbEntity
  8
0
  6
Continuous
 62
     7
100
AcDbLine
 10
2.3675138218
 20
3.5086573804
 30
0.0
 11
2.2887736643
 21
3.5086573804
 31
0.0
  0
LINE
  5
2DA
330
200
100
AcDbEntity
  8
0
  6
Continuous
 62
     7
100
AcDbLine
 10
1.792710672199999
 20
3.5086573804
 30
0.0
 11
1.8714508297
 21
3.5086573804
 31
0.0
  0
LINE
  5
2DB
330
200
100
AcDbEntity
  8
0
  6
Continuous
 62
     7
100
AcDbLine
 10
2.479718546199999
 20
3.5559014748
 30
0.0
 11
2.3675138218
 21
3.5559014748
 31
0.0
  0
LINE
  5
2DC
330
200
100
AcDbEntity
  8
0
  6
Continuous
 62
     7
100
AcDbLine
 10
2.2887736643
 20
3.5559014748
 30
0.0
 11
2.1765689399
 21
3.5559014748
 31
0.0
  0
LINE
  5
2DD
330
200
100
AcDbEntity
  8
0
  6
Continuous
 62
     7
100
AcDbLine
 10
1.680505947799999
 20
3.5559014748
 30
0.0
 11
1.792710672199999
 21
3.5559014748
 31
0.0
  0
LINE
  5
2DE
330
200
100
AcDbEntity
  8
0
  6
Continuous
 62
     7
100
AcDbLine
 10
1.8714508297
 20
3.5559014748
 30
0.0
 11
1.9836555541
 21
3.5559014748
 31
0.0
  0
LINE
  5
2DF
330
200
100
AcDbEntity
  8
0
  6
Continuous
 62
     7
100
AcDbLine
 10
2.0289311447
 20
3.595271553599999
 30
0.0
 11
2.131293349399999
 21
3.595271553599999
 31
0.0
  0
LINE
  5
2E0
330
200
100
AcDbEntity
  8
0
  6
Continuous
 62
     7
100
AcDbLine
 10
2.131293349399999
 20
3.650389663799999
 30
0.0
 11
2.0289311447
 21
3.650389663799999
 31
0.0
  0
LINE
  5
2E1
330
200
100
AcDbEntity
  8
0
  6
Continuous
 62
     7
100
AcDbLine
 10
1.9836555541
 20
3.6818857268
 30
0.0
 11
1.680505947799999
 21
3.6818857268
 31
0.0
  0
LINE
  5
2E2
330
200
100
AcDbEntity
  8
0
  6
Continuous
 62
     7
100
AcDbLine
 10
2.1765689399
 20
3.6818857268
 30
0.0
 11
2.479718546199999
 21
3.6818857268
 31
0.0
  0
LINE
  5
2E3
330
200
100
AcDbEntity
  8
0
  6
Continuous
 62
     7
100
AcDbLine
 10
2.9442854754
 20
3.1543266716
 30
0.0
 11
2.9442854754
 21
3.209444781899999
 31
0.0
  0
LINE
  5
2E4
330
200
100
AcDbEntity
  8
0
  6
Continuous
 62
     7
100
AcDbLine
 10
1.680505947799999
 20
3.796058955199999
 30
0.0
 11
1.632297924799999
 21
3.796058955199999
 31
0.0
  0
LINE
  5
2E5
330
200
100
AcDbEntity
  8
0
  6
Continuous
 62
     7
100
AcDbLine
 10
3.361608309999999
 20
3.796058955199999
 30
0.0
 11
3.409816333
 21
3.796058955199999
 31
0.0
  0
LINE
  5
2E6
330
200
100
AcDbEntity
  8
0
  6
Continuous
 62
     7
100
AcDbLine
 10
2.479718546199999
 20
3.796255805499999
 30
0.0
 11
2.562395711599999
 21
3.796255805499999
 31
0.0
  0
LINE
  5
2E7
330
200
100
AcDbEntity
  8
0
  6
Continuous
 62
     7
100
AcDbLine
 10
3.0033405935
 20
3.1543266716
 30
0.0
 11
3.0033405935
 21
3.2094447818
 31
0.0
  0
LINE
  5
2E8
102
{ACAD_REACTORS
330
517
102
}
330
200
100
AcDbEntity
  8
0
  6
Continuous
 62
     7
100
AcDbLine
 10
3.408852404499999
 20
3.953539270099999
 30
0.0
 11
1.6332618533
 21
3.953539270099999
 31
0.0
  0
LINE
  5
2E9
330
200
100
AcDbEntity
  8
0
  6
Continuous
 62
     7
100
AcDbLine
 10
3.357671302099999
 20
3.1826579804
 30
0.0
 11
3.369482325799999
 21
3.162200687399999
 31
0.0
  0
LINE
  5
2EA
330
200
100
AcDbEntity
  8
0
  6
Continuous
 62
     7
100
AcDbLine
 10
3.3222382313
 20
2.9887754906
 30
0.0
 11
3.3222382313
 21
3.2055077741
 31
0.0
  0
LINE
  5
2EB
330
200
100
AcDbEntity
  8
0
  6
Continuous
 62
     7
100
AcDbLine
 10
3.357671302099999
 20
3.2055077741
 30
0.0
 11
3.357671302099999
 21
3.1826579804
 31
0.0
  0
LINE
  5
2EC
330
200
100
AcDbEntity
  8
0
  6
Continuous
 62
     7
100
AcDbLine
 10
3.361608309999999
 20
3.2488148607
 30
0.0
 11
3.361608309999999
 21
3.796058955199999
 31
0.0
  0
LINE
  5
2ED
330
200
100
AcDbEntity
  8
0
  6
Continuous
 62
     7
100
AcDbLine
 10
3.413696145299999
 20
3.162200687399999
 30
0.0
 11
3.408852404499999
 21
3.953539270099999
 31
0.0
  0
LINE
  5
2EE
330
200
100
AcDbEntity
  8
0
  6
Continuous
 62
     7
100
AcDbLine
 10
1.628418112499999
 20
5.6171932671
 30
0.0
 11
1.628418112499999
 21
5.979397991499999
 31
0.0
  0
LINE
  5
2EF
330
200
100
AcDbEntity
  8
0
  6
Continuous
 62
     7
100
AcDbLine
 10
1.628948273199999
 20
5.5108940545
 30
0.0
 11
1.628948273199999
 21
5.6171932671
 31
0.0
  0
LINE
  5
2F0
330
200
100
AcDbEntity
  8
0
  6
Continuous
 62
     7
100
AcDbLine
 10
1.632297924799999
 20
5.6171932671
 30
0.0
 11
1.632297924799999
 21
5.5108940545
 31
0.0
  0
LINE
  5
2F1
330
200
100
AcDbEntity
  8
0
  6
Continuous
 62
     7
100
AcDbLine
 10
1.6332618533
 20
5.979397991499999
 30
0.0
 11
1.6332618533
 21
5.6171932671
 31
0.0
  0
LINE
  5
2F2
330
200
100
AcDbEntity
  8
0
  6
Continuous
 62
     7
100
AcDbLine
 10
1.680505947799999
 20
5.6171932671
 30
0.0
 11
1.680505947799999
 21
5.5108940545
 31
0.0
  0
LINE
  5
2F3
330
200
100
AcDbEntity
  8
0
  6
Continuous
 62
     7
100
AcDbLine
 10
1.714433188499999
 20
5.979397991499999
 30
0.0
 11
1.714433188499999
 21
6.034516101699999
 31
0.0
  0
LINE
  5
2F4
330
200
100
AcDbEntity
  8
0
  6
Continuous
 62
     7
100
AcDbLine
 10
1.811837531699999
 20
6.034516101699999
 30
0.0
 11
1.811837531699999
 21
5.979397991499999
 31
0.0
  0
LINE
  5
2F5
330
200
100
AcDbEntity
  8
0
  6
Continuous
 62
     7
100
AcDbLine
 10
1.816332722799999
 20
5.717586967899999
 30
0.0
 11
1.816332722799999
 21
5.782547597799999
 31
0.0
  0
LINE
  5
2F6
330
200
100
AcDbEntity
  8
0
  6
Continuous
 62
     7
100
AcDbLine
 10
1.816332722799999
 20
5.8140436608
 30
0.0
 11
1.816332722799999
 21
5.8790042907
 31
0.0
  0
LINE
  5
2F7
330
200
100
AcDbEntity
  8
0
  6
Continuous
 62
     7
100
AcDbLine
 10
1.8478287858
 20
5.8790042907
 30
0.0
 11
1.8478287858
 21
5.8140436608
 31
0.0
  0
LINE
  5
2F8
330
200
100
AcDbEntity
  8
0
  6
Continuous
 62
     7
100
AcDbLine
 10
1.8478287858
 20
5.782547597799999
 30
0.0
 11
1.8478287858
 21
5.717586967899999
 31
0.0
  0
LINE
  5
2F9
330
200
100
AcDbEntity
  8
0
  6
Continuous
 62
     7
100
AcDbLine
 10
2.0387736643
 20
6.006957046599999
 30
0.0
 11
2.0387736643
 21
5.979397991499999
 31
0.0
  0
LINE
  5
2FA
330
200
100
AcDbEntity
  8
0
  6
Continuous
 62
     7
100
AcDbLine
 10
2.0387736643
 20
5.6171932671
 30
0.0
 11
2.0387736643
 21
5.5935712199
 31
0.0
  0
LINE
  5
2FB
330
200
100
AcDbEntity
  8
0
  6
Continuous
 62
     7
100
AcDbLine
 10
2.0978287824
 20
6.006957046599999
 30
0.0
 11
2.0978287824
 21
5.979397991499999
 31
0.0
  0
LINE
  5
2FC
330
200
100
AcDbEntity
  8
0
  6
Continuous
 62
     7
100
AcDbLine
 10
2.0978287824
 20
5.6171932672
 30
0.0
 11
2.0978287824
 21
5.59357122
 31
0.0
  0
LINE
  5
2FD
330
200
100
AcDbEntity
  8
0
  6
Continuous
 62
     7
100
AcDbLine
 10
1.680505947799999
 20
5.5108940545
 30
0.0
 11
1.628948273199999
 21
5.5108940545
 31
0.0
  0
LINE
  5
2FE
330
200
100
AcDbEntity
  8
0
  6
Continuous
 62
     7
100
AcDbLine
 10
3.361608309999999
 20
5.5108940545
 30
0.0
 11
3.413165984599999
 21
5.5108940545
 31
0.0
  0
LINE
  5
2FF
330
200
100
AcDbEntity
  8
0
  6
Continuous
 62
     7
100
AcDbLine
 10
2.3123957149
 20
5.717586967899999
 30
0.0
 11
2.3123957149
 21
5.782547597799999
 31
0.0
  0
LINE
  5
300
330
200
100
AcDbEntity
  8
0
  6
Continuous
 62
     7
100
AcDbLine
 10
2.3123957149
 20
5.8140436608
 30
0.0
 11
2.3123957149
 21
5.8790042907
 31
0.0
  0
LINE
  5
301
330
200
100
AcDbEntity
  8
0
  6
Continuous
 62
     7
100
AcDbLine
 10
2.479718546199999
 20
5.577626337999999
 30
0.0
 11
2.562395711599999
 21
5.577626337999999
 31
0.0
  0
LINE
  5
302
330
200
100
AcDbEntity
  8
0
  6
Continuous
 62
     7
100
AcDbLine
 10
2.0387736643
 20
5.5935712199
 30
0.0
 11
2.0978287824
 21
5.5935712199
 31
0.0
  0
LINE
  5
303
330
200
100
AcDbEntity
  8
0
  6
Continuous
 62
     7
100
AcDbLine
 10
2.9442854754
 20
5.5935712199
 30
0.0
 11
3.0033405935
 21
5.5935712199
 31
0.0
  0
LINE
  5
304
330
200
100
AcDbEntity
  8
0
  6
Continuous
 62
     7
100
AcDbLine
 10
2.343891777899999
 20
5.8790042907
 30
0.0
 11
2.343891777899999
 21
5.8140436608
 31
0.0
  0
LINE
  5
305
330
200
100
AcDbEntity
  8
0
  6
Continuous
 62
     7
100
AcDbLine
 10
2.343891777899999
 20
5.782547597799999
 30
0.0
 11
2.343891777899999
 21
5.717586967899999
 31
0.0
  0
LINE
  5
306
330
200
100
AcDbEntity
  8
0
  6
Continuous
 62
     7
100
AcDbLine
 10
3.413696145299999
 20
5.6171932671
 30
0.0
 11
3.413165984599999
 21
5.6171932671
 31
0.0
  0
LINE
  5
307
330
200
100
AcDbEntity
  8
0
  6
Continuous
 62
     7
100
AcDbLine
 10
1.628948273199999
 20
5.6171932671
 30
0.0
 11
1.628418112499999
 21
5.6171932671
 31
0.0
  0
LINE
  5
308
330
200
100
AcDbEntity
  8
0
  6
Continuous
 62
     7
100
AcDbLine
 10
3.409816333
 20
5.6171932671
 30
0.0
 11
1.632297924799999
 21
5.6171932671
 31
0.0
  0
LINE
  5
309
330
200
100
AcDbEntity
  8
0
  6
Continuous
 62
     7
100
AcDbLine
 10
2.343891777899999
 20
5.717586967899999
 30
0.0
 11
2.3123957149
 21
5.717586967899999
 31
0.0
  0
LINE
  5
30A
330
200
100
AcDbEntity
  8
0
  6
Continuous
 62
     7
100
AcDbLine
 10
1.8478287858
 20
5.717586967899999
 30
0.0
 11
1.816332722799999
 21
5.717586967899999
 31
0.0
  0
LINE
  5
30B
330
200
100
AcDbEntity
  8
0
  6
Continuous
 62
     7
100
AcDbLine
 10
2.479718546199999
 20
5.6171932671
 30
0.0
 11
2.479718546199999
 21
5.577626337999999
 31
0.0
  0
LINE
  5
30C
330
200
100
AcDbEntity
  8
0
  6
Continuous
 62
     7
100
AcDbLine
 10
2.562395711599999
 20
5.6171932671
 30
0.0
 11
2.562395711599999
 21
5.577626337999999
 31
0.0
  0
LINE
  5
30D
330
200
100
AcDbEntity
  8
0
  6
Continuous
 62
     7
100
AcDbLine
 10
2.442110821099999
 20
5.782547597799999
 30
0.0
 11
2.343891777899999
 21
5.782547597799999
 31
0.0
  0
LINE
  5
30E
330
200
100
AcDbEntity
  8
0
  6
Continuous
 62
     7
100
AcDbLine
 10
2.3123957149
 20
5.782547597799999
 30
0.0
 11
2.2141766718
 21
5.782547597799999
 31
0.0
  0
LINE
  5
30F
330
200
100
AcDbEntity
  8
0
  6
Continuous
 62
     7
100
AcDbLine
 10
1.946047829
 20
5.782547597799999
 30
0.0
 11
1.8478287858
 21
5.782547597799999
 31
0.0
  0
LINE
  5
310
330
200
100
AcDbEntity
  8
0
  6
Continuous
 62
     7
100
AcDbLine
 10
1.816332722799999
 20
5.782547597799999
 30
0.0
 11
1.7181136796
 21
5.782547597799999
 31
0.0
  0
LINE
  5
311
330
200
100
AcDbEntity
  8
0
  6
Continuous
 62
     7
100
AcDbLine
 10
1.7181136796
 20
5.8140436608
 30
0.0
 11
1.816332722799999
 21
5.8140436608
 31
0.0
  0
LINE
  5
312
330
200
100
AcDbEntity
  8
0
  6
Continuous
 62
     7
100
AcDbLine
 10
1.8478287858
 20
5.8140436608
 30
0.0
 11
1.946047829
 21
5.8140436608
 31
0.0
  0
LINE
  5
313
330
200
100
AcDbEntity
  8
0
  6
Continuous
 62
     7
100
AcDbLine
 10
2.2141766718
 20
5.8140436608
 30
0.0
 11
2.3123957149
 21
5.8140436608
 31
0.0
  0
LINE
  5
314
330
200
100
AcDbEntity
  8
0
  6
Continuous
 62
     7
100
AcDbLine
 10
2.343891777899999
 20
5.8140436608
 30
0.0
 11
2.442110821099999
 21
5.8140436608
 31
0.0
  0
LINE
  5
315
330
200
100
AcDbEntity
  8
0
  6
Continuous
 62
     7
100
AcDbLine
 10
1.816332722799999
 20
5.8790042907
 30
0.0
 11
1.8478287858
 21
5.8790042907
 31
0.0
  0
LINE
  5
316
330
200
100
AcDbEntity
  8
0
  6
Continuous
 62
     7
100
AcDbLine
 10
2.3123957149
 20
5.8790042907
 30
0.0
 11
2.343891777899999
 21
5.8790042907
 31
0.0
  0
LINE
  5
317
102
{ACAD_REACTORS
330
491
102
}
330
200
100
AcDbEntity
  8
0
  6
Continuous
 62
     7
100
AcDbLine
 10
1.628418112499999
 20
5.979397991499999
 30
0.0
 11
1.714433188499999
 21
5.979397991499999
 31
0.0
  0
LINE
  5
318
330
200
100
AcDbEntity
  8
0
  6
Continuous
 62
     7
100
AcDbLine
 10
1.811837531699999
 20
5.979397991499999
 30
0.0
 11
3.230164407099999
 21
5.979397991499999
 31
0.0
  0
LINE
  5
319
330
200
100
AcDbEntity
  8
0
  6
Continuous
 62
     7
100
AcDbLine
 10
3.3276978822
 20
5.979397991499999
 30
0.0
 11
3.413696145299999
 21
5.979397991499999
 31
0.0
  0
LINE
  5
31A
330
200
100
AcDbEntity
  8
0
  6
Continuous
 62
     7
100
AcDbLine
 10
2.0387736643
 20
6.006957046599999
 30
0.0
 11
2.0978287824
 21
6.006957046599999
 31
0.0
  0
LINE
  5
31B
330
200
100
AcDbEntity
  8
0
  6
Continuous
 62
     7
100
AcDbLine
 10
2.9442854754
 20
6.006957046599999
 30
0.0
 11
3.0033405935
 21
6.006957046599999
 31
0.0
  0
LINE
  5
31C
330
200
100
AcDbEntity
  8
0
  6
Continuous
 62
     7
100
AcDbLine
 10
1.714433188499999
 20
6.034516101699999
 30
0.0
 11
1.811837531699999
 21
6.034516101699999
 31
0.0
  0
LINE
  5
31D
330
200
100
AcDbEntity
  8
0
  6
Continuous
 62
     7
100
AcDbLine
 10
3.230164407099999
 20
6.034516101699999
 30
0.0
 11
3.3276978822
 21
6.034516101699999
 31
0.0
  0
LINE
  5
31E
330
200
100
AcDbEntity
  8
0
  6
Continuous
 62
     7
100
AcDbLine
 10
2.9442854754
 20
6.006957046599999
 30
0.0
 11
2.9442854754
 21
5.979397991499999
 31
0.0
  0
LINE
  5
31F
330
200
100
AcDbEntity
  8
0
  6
Continuous
 62
     7
100
AcDbLine
 10
2.9442854754
 20
5.5935712199
 30
0.0
 11
2.9442854754
 21
5.6171932671
 31
0.0
  0
LINE
  5
320
330
200
100
AcDbEntity
  8
0
  6
Continuous
 62
     7
100
AcDbLine
 10
3.0033405935
 20
6.006957046599999
 30
0.0
 11
3.0033405935
 21
5.979397991499999
 31
0.0
  0
LINE
  5
321
330
200
100
AcDbEntity
  8
0
  6
Continuous
 62
     7
100
AcDbLine
 10
3.0033405935
 20
5.5935712199
 30
0.0
 11
3.0033405935
 21
5.6171932671
 31
0.0
  0
LINE
  5
322
330
200
100
AcDbEntity
  8
0
  6
Continuous
 62
     7
100
AcDbLine
 10
3.230164407099999
 20
6.034516101699999
 30
0.0
 11
3.230164407099999
 21
5.979397991499999
 31
0.0
  0
LINE
  5
323
330
200
100
AcDbEntity
  8
0
  6
Continuous
 62
     7
100
AcDbLine
 10
3.3276978822
 20
5.979397991499999
 30
0.0
 11
3.3276978822
 21
6.034516101699999
 31
0.0
  0
LINE
  5
324
330
200
100
AcDbEntity
  8
0
  6
Continuous
 62
     7
100
AcDbLine
 10
3.361608309999999
 20
5.6171932671
 30
0.0
 11
3.361608309999999
 21
5.5108940545
 31
0.0
  0
LINE
  5
325
330
200
100
AcDbEntity
  8
0
  6
Continuous
 62
     7
100
AcDbLine
 10
3.408852404499999
 20
5.979397991499999
 30
0.0
 11
3.408852404499999
 21
5.6171932671
 31
0.0
  0
LINE
  5
326
330
200
100
AcDbEntity
  8
0
  6
Continuous
 62
     7
100
AcDbLine
 10
3.409816333
 20
5.6171932671
 30
0.0
 11
3.409816333
 21
5.5108940545
 31
0.0
  0
LINE
  5
327
330
200
100
AcDbEntity
  8
0
  6
Continuous
 62
     7
100
AcDbLine
 10
3.413165984599999
 20
5.5108940545
 30
0.0
 11
3.413165984599999
 21
5.6171932671
 31
0.0
  0
LINE
  5
328
102
{ACAD_REACTORS
330
491
102
}
330
200
100
AcDbEntity
  8
0
  6
Continuous
 62
     7
100
AcDbLine
 10
3.413696145299999
 20
5.6171932671
 30
0.0
 11
3.413696145299999
 21
5.979397991499999
 31
0.0
  0
LINE
  5
329
330
200
100
AcDbEntity
  8
0
  6
Continuous
 62
     7
100
AcDbLine
 10
1.628418112499999
 20
1.674310639099999
 30
0.0
 11
1.628418112499999
 21
1.3121059147
 31
0.0
  0
LINE
  5
32A
330
200
100
AcDbEntity
  8
0
  6
Continuous
 62
     7
100
AcDbLine
 10
1.628948273199999
 20
1.780609851699999
 30
0.0
 11
1.628948273199999
 21
1.674310639099999
 31
0.0
  0
LINE
  5
32B
330
200
100
AcDbEntity
  8
0
  6
Continuous
 62
     7
100
AcDbLine
 10
1.6726319321
 20
1.674310639099999
 30
0.0
 11
1.6726319321
 21
1.3121059147
 31
0.0
  0
LINE
  5
32C
330
200
100
AcDbEntity
  8
0
  6
Continuous
 62
     7
100
AcDbLine
 10
1.680505947799999
 20
1.674310639099999
 30
0.0
 11
1.680505947799999
 21
1.780609851699999
 31
0.0
  0
LINE
  5
32D
330
200
100
AcDbEntity
  8
0
  6
Continuous
 62
     7
100
AcDbLine
 10
1.684442955699999
 20
1.674310639099999
 30
0.0
 11
1.684442955699999
 21
1.3121059147
 31
0.0
  0
LINE
  5
32E
330
200
100
AcDbEntity
  8
0
  6
Continuous
 62
     7
100
AcDbLine
 10
1.685576742899999
 20
1.341633473799999
 30
0.0
 11
1.685576742899999
 21
1.644783080099999
 31
0.0
  0
LINE
  5
32F
330
200
100
AcDbEntity
  8
0
  6
Continuous
 62
     7
100
AcDbLine
 10
1.689143019099999
 20
1.644783080099999
 30
0.0
 11
1.689143019099999
 21
1.341633473799999
 31
0.0
  0
LINE
  5
330
330
200
100
AcDbEntity
  8
0
  6
Continuous
 62
     7
100
AcDbLine
 10
1.714433188499999
 20
1.3121059147
 30
0.0
 11
1.714433188499999
 21
1.2569878045
 31
0.0
  0
LINE
  5
331
330
200
100
AcDbEntity
  8
0
  6
Continuous
 62
     7
100
AcDbLine
 10
1.7198760265
 20
1.3121059147
 30
0.0
 11
1.7198760265
 21
1.674310639099999
 31
0.0
  0
LINE
  5
332
330
200
100
AcDbEntity
  8
0
  6
Continuous
 62
     7
100
AcDbLine
 10
1.811837531699999
 20
1.2569878045
 30
0.0
 11
1.811837531699999
 21
1.3121059147
 31
0.0
  0
LINE
  5
333
330
200
100
AcDbEntity
  8
0
  6
Continuous
 62
     7
100
AcDbLine
 10
1.997435081699999
 20
1.3426177258
 30
0.0
 11
1.997435081699999
 21
1.3121059147
 31
0.0
  0
LINE
  5
334
330
200
100
AcDbEntity
  8
0
  6
Continuous
 62
     7
100
AcDbLine
 10
2.0387736643
 20
1.6979326861
 30
0.0
 11
2.0387736643
 21
1.674310638899999
 31
0.0
  0
LINE
  5
335
330
200
100
AcDbEntity
  8
0
  6
Continuous
 62
     7
100
AcDbLine
 10
2.0387736643
 20
1.3121059147
 30
0.0
 11
2.0387736643
 21
1.2845468596
 31
0.0
  0
LINE
  5
336
330
200
100
AcDbEntity
  8
0
  6
Continuous
 62
     7
100
AcDbLine
 10
2.087986262799999
 20
1.3121059147
 30
0.0
 11
2.087986262799999
 21
1.3426177258
 31
0.0
  0
LINE
  5
337
330
200
100
AcDbEntity
  8
0
  6
Continuous
 62
     7
100
AcDbLine
 10
2.0978287824
 20
1.6979326862
 30
0.0
 11
2.0978287824
 21
1.674310638999999
 31
0.0
  0
LINE
  5
338
330
200
100
AcDbEntity
  8
0
  6
Continuous
 62
     7
100
AcDbLine
 10
2.0978287824
 20
1.3121059147
 30
0.0
 11
2.0978287824
 21
1.2845468596
 31
0.0
  0
LINE
  5
339
330
200
100
AcDbEntity
  8
0
  6
Continuous
 62
     7
100
AcDbLine
 10
2.241529569899999
 20
1.3121059147
 30
0.0
 11
2.241529569899999
 21
1.643995678499999
 31
0.0
  0
LINE
  5
33A
330
200
100
AcDbEntity
  8
0
  6
Continuous
 62
     7
100
AcDbLine
 10
1.714433188499999
 20
1.2569878045
 30
0.0
 11
1.811837531699999
 21
1.2569878045
 31
0.0
  0
LINE
  5
33B
330
200
100
AcDbEntity
  8
0
  6
Continuous
 62
     7
100
AcDbLine
 10
3.230164407099999
 20
1.2569878045
 30
0.0
 11
3.3276978822
 21
1.2569878045
 31
0.0
  0
LINE
  5
33C
330
200
100
AcDbEntity
  8
0
  6
Continuous
 62
     7
100
AcDbLine
 10
2.0387736643
 20
1.2845468596
 30
0.0
 11
2.0978287824
 21
1.2845468596
 31
0.0
  0
LINE
  5
33D
330
200
100
AcDbEntity
  8
0
  6
Continuous
 62
     7
100
AcDbLine
 10
2.9442854754
 20
1.2845468596
 30
0.0
 11
3.0033405935
 21
1.2845468596
 31
0.0
  0
LINE
  5
33E
330
200
100
AcDbEntity
  8
0
  6
Continuous
 62
     7
100
AcDbLine
 10
1.628418112499999
 20
1.3121059147
 30
0.0
 11
3.413696145299999
 21
1.3121059147
 31
0.0
  0
LINE
  5
33F
330
200
100
AcDbEntity
  8
0
  6
Continuous
 62
     7
100
AcDbLine
 10
2.800584688
 20
1.338680717899999
 30
0.0
 11
3.3222382313
 21
1.338680717899999
 31
0.0
  0
LINE
  5
340
330
200
100
AcDbEntity
  8
0
  6
Continuous
 62
     7
100
AcDbLine
 10
3.357671302099999
 20
1.3393930055
 30
0.0
 11
3.3222382313
 21
1.3393930055
 31
0.0
  0
LINE
  5
341
330
200
100
AcDbEntity
  8
0
  6
Continuous
 62
     7
100
AcDbLine
 10
2.5604272076
 20
1.3395218648
 30
0.0
 11
2.800584688
 21
1.3395218648
 31
0.0
  0
LINE
  5
342
330
200
100
AcDbEntity
  8
0
  6
Continuous
 62
     7
100
AcDbLine
 10
1.689143019099999
 20
1.341633473799999
 30
0.0
 11
1.685576742899999
 21
1.341633473799999
 31
0.0
  0
LINE
  5
343
330
200
100
AcDbEntity
  8
0
  6
Continuous
 62
     7
100
AcDbLine
 10
2.5604272076
 20
1.341633473799999
 30
0.0
 11
3.357671302099999
 21
1.341633473799999
 31
0.0
  0
LINE
  5
344
330
200
100
AcDbEntity
  8
0
  6
Continuous
 62
     7
100
AcDbLine
 10
2.087986262799999
 20
1.3426177258
 30
0.0
 11
1.997435081699999
 21
1.3426177258
 31
0.0
  0
LINE
  5
345
330
200
100
AcDbEntity
  8
0
  6
Continuous
 62
     7
100
AcDbLine
 10
2.4789554906
 20
1.430216150999999
 30
0.0
 11
2.5604272076
 21
1.430216150999999
 31
0.0
  0
LINE
  5
346
330
200
100
AcDbEntity
  8
0
  6
Continuous
 62
     7
100
AcDbLine
 10
2.4789554906
 20
1.643995678499999
 30
0.0
 11
2.4789554906
 21
1.430216150999999
 31
0.0
  0
LINE
  5
347
330
200
100
AcDbEntity
  8
0
  6
Continuous
 62
     7
100
AcDbLine
 10
2.479718546199999
 20
1.674310639099999
 30
0.0
 11
2.479718546199999
 21
1.713680717899999
 31
0.0
  0
LINE
  5
348
330
200
100
AcDbEntity
  8
0
  6
Continuous
 62
     7
100
AcDbLine
 10
2.497435081699999
 20
1.548326387199999
 30
0.0
 11
2.497435081699999
 21
1.6428145762
 31
0.0
  0
LINE
  5
349
330
200
100
AcDbEntity
  8
0
  6
Continuous
 62
     7
100
AcDbLine
 10
2.544679176199999
 20
1.6428145762
 30
0.0
 11
2.544679176199999
 21
1.548326387199999
 31
0.0
  0
LINE
  5
34A
330
200
100
AcDbEntity
  8
0
  6
Continuous
 62
     7
100
AcDbLine
 10
2.5604272076
 20
1.3395218648
 30
0.0
 11
2.5604272076
 21
1.647736483499999
 31
0.0
  0
LINE
  5
34B
330
200
100
AcDbEntity
  8
0
  6
Continuous
 62
     7
100
AcDbLine
 10
2.562395711599999
 20
1.7138775683
 30
0.0
 11
2.562395711599999
 21
1.674310639099999
 31
0.0
  0
LINE
  5
34C
330
200
100
AcDbEntity
  8
0
  6
Continuous
 62
     7
100
AcDbLine
 10
2.544679176199999
 20
1.548326387199999
 30
0.0
 11
2.497435081699999
 21
1.548326387199999
 31
0.0
  0
LINE
  5
34D
330
200
100
AcDbEntity
  8
0
  6
Continuous
 62
     7
100
AcDbLine
 10
2.497435081699999
 20
1.6428145762
 30
0.0
 11
2.544679176199999
 21
1.6428145762
 31
0.0
  0
LINE
  5
34E
330
200
100
AcDbEntity
  8
0
  6
Continuous
 62
     7
100
AcDbLine
 10
2.241529569899999
 20
1.643995678499999
 30
0.0
 11
2.4789554906
 21
1.643995678499999
 31
0.0
  0
LINE
  5
34F
330
200
100
AcDbEntity
  8
0
  6
Continuous
 62
     7
100
AcDbLine
 10
1.685576742899999
 20
1.644783080099999
 30
0.0
 11
1.689143019099999
 21
1.644783080099999
 31
0.0
  0
LINE
  5
350
330
200
100
AcDbEntity
  8
0
  6
Continuous
 62
     7
100
AcDbLine
 10
2.5604272076
 20
1.644783080099999
 30
0.0
 11
3.357671302099999
 21
1.644783080099999
 31
0.0
  0
LINE
  5
351
330
200
100
AcDbEntity
  8
0
  6
Continuous
 62
     7
100
AcDbLine
 10
3.357671302099999
 20
1.647023548399999
 30
0.0
 11
3.3222382313
 21
1.647023548399999
 31
0.0
  0
LINE
  5
352
330
200
100
AcDbEntity
  8
0
  6
Continuous
 62
     7
100
AcDbLine
 10
2.5604272076
 20
1.647736483499999
 30
0.0
 11
3.3222382313
 21
1.647736483499999
 31
0.0
  0
LINE
  5
353
330
200
100
AcDbEntity
  8
0
  6
Continuous
 62
     7
100
AcDbLine
 10
1.628418112499999
 20
1.674310639099999
 30
0.0
 11
3.413696145299999
 21
1.674310639099999
 31
0.0
  0
LINE
  5
354
330
200
100
AcDbEntity
  8
0
  6
Continuous
 62
     7
100
AcDbLine
 10
2.0387736643
 20
1.6979326861
 30
0.0
 11
2.0978287824
 21
1.6979326861
 31
0.0
  0
LINE
  5
355
330
200
100
AcDbEntity
  8
0
  6
Continuous
 62
     7
100
AcDbLine
 10
2.9442854754
 20
1.697932686399999
 30
0.0
 11
3.0033405935
 21
1.697932686399999
 31
0.0
  0
LINE
  5
356
330
200
100
AcDbEntity
  8
0
  6
Continuous
 62
     7
100
AcDbLine
 10
2.479718546199999
 20
1.7138775683
 30
0.0
 11
2.562395711599999
 21
1.7138775683
 31
0.0
  0
LINE
  5
357
330
200
100
AcDbEntity
  8
0
  6
Continuous
 62
     7
100
AcDbLine
 10
2.800584688
 20
1.3121059147
 30
0.0
 11
2.800584688
 21
1.3395218648
 31
0.0
  0
LINE
  5
358
330
200
100
AcDbEntity
  8
0
  6
Continuous
 62
     7
100
AcDbLine
 10
3.413165984599999
 20
1.780609851699999
 30
0.0
 11
3.361608309999999
 21
1.780609851699999
 31
0.0
  0
LINE
  5
359
330
200
100
AcDbEntity
  8
0
  6
Continuous
 62
     7
100
AcDbLine
 10
1.628948273199999
 20
1.780609851699999
 30
0.0
 11
1.680505947799999
 21
1.780609851699999
 31
0.0
  0
LINE
  5
35A
330
200
100
AcDbEntity
  8
0
  6
Continuous
 62
     7
100
AcDbLine
 10
2.8793248454
 20
1.3121059147
 30
0.0
 11
2.8793248454
 21
1.338680717899999
 31
0.0
  0
LINE
  5
35B
330
200
100
AcDbEntity
  8
0
  6
Continuous
 62
     7
100
AcDbLine
 10
2.9442854754
 20
1.3121059147
 30
0.0
 11
2.9442854754
 21
1.2845468596
 31
0.0
  0
LINE
  5
35C
330
200
100
AcDbEntity
  8
0
  6
Continuous
 62
     7
100
AcDbLine
 10
2.9442854754
 20
1.674310639099999
 30
0.0
 11
2.9442854754
 21
1.6979326862
 31
0.0
  0
LINE
  5
35D
330
200
100
AcDbEntity
  8
0
  6
Continuous
 62
     7
100
AcDbLine
 10
2.969876026499999
 20
1.3121059147
 30
0.0
 11
2.969876026499999
 21
1.338680717899999
 31
0.0
  0
LINE
  5
35E
330
200
100
AcDbEntity
  8
0
  6
Continuous
 62
     7
100
AcDbLine
 10
3.0033405935
 20
1.3121059147
 30
0.0
 11
3.0033405935
 21
1.2845468596
 31
0.0
  0
LINE
  5
35F
330
200
100
AcDbEntity
  8
0
  6
Continuous
 62
     7
100
AcDbLine
 10
3.0033405935
 20
1.674310639099999
 30
0.0
 11
3.0033405935
 21
1.6979326861
 31
0.0
  0
LINE
  5
360
330
200
100
AcDbEntity
  8
0
  6
Continuous
 62
     7
100
AcDbLine
 10
3.230164407099999
 20
1.2569878045
 30
0.0
 11
3.230164407099999
 21
1.3121059147
 31
0.0
  0
LINE
  5
361
330
200
100
AcDbEntity
  8
0
  6
Continuous
 62
     7
100
AcDbLine
 10
3.3222382313
 20
1.674310639099999
 30
0.0
 11
3.3222382313
 21
1.647023548399999
 31
0.0
  0
LINE
  5
362
330
200
100
AcDbEntity
  8
0
  6
Continuous
 62
     7
100
AcDbLine
 10
3.3222382313
 20
1.3393930055
 30
0.0
 11
3.3222382313
 21
1.3121059147
 31
0.0
  0
LINE
  5
363
330
200
100
AcDbEntity
  8
0
  6
Continuous
 62
     7
100
AcDbLine
 10
3.3276978822
 20
1.3121059147
 30
0.0
 11
3.3276978822
 21
1.2569878045
 31
0.0
  0
LINE
  5
364
330
200
100
AcDbEntity
  8
0
  6
Continuous
 62
     7
100
AcDbLine
 10
3.357671302099999
 20
1.674310639099999
 30
0.0
 11
3.357671302099999
 21
1.3121059147
 31
0.0
  0
LINE
  5
365
330
200
100
AcDbEntity
  8
0
  6
Continuous
 62
     7
100
AcDbLine
 10
3.361608309999999
 20
1.674310639099999
 30
0.0
 11
3.361608309999999
 21
1.780609851699999
 31
0.0
  0
LINE
  5
366
330
200
100
AcDbEntity
  8
0
  6
Continuous
 62
     7
100
AcDbLine
 10
3.369482325799999
 20
1.674310639099999
 30
0.0
 11
3.369482325799999
 21
1.3121059147
 31
0.0
  0
LINE
  5
367
330
200
100
AcDbEntity
  8
0
  6
Continuous
 62
     7
100
AcDbLine
 10
3.413165984599999
 20
1.780609851699999
 30
0.0
 11
3.413165984599999
 21
1.674310639099999
 31
0.0
  0
LINE
  5
368
330
200
100
AcDbEntity
  8
0
  6
Continuous
 62
     7
100
AcDbLine
 10
3.413696145299999
 20
1.674310639099999
 30
0.0
 11
3.413696145299999
 21
1.3121059147
 31
0.0
  0
LINE
  5
369
330
200
100
AcDbEntity
  8
0
  6
Continuous
 62
     7
100
AcDbLine
 10
4.7656937246
 20
2.8787361205
 30
0.0
 11
4.860181913599999
 21
2.8787361205
 31
0.0
  0
LINE
  5
36A
330
200
100
AcDbEntity
  8
0
  6
Continuous
 62
     7
100
AcDbLine
 10
4.7341976616
 20
2.9887754906
 30
0.0
 11
5.0698275829
 21
2.9887754906
 31
0.0
  0
LINE
  5
36B
330
200
100
AcDbEntity
  8
0
  6
Continuous
 62
     7
100
AcDbLine
 10
5.0698275829
 20
2.988972341
 30
0.0
 11
5.096402386
 21
2.988972341
 31
0.0
  0
LINE
  5
36C
330
200
100
AcDbEntity
  8
0
  6
Continuous
 62
     7
100
AcDbLine
 10
4.627898448999999
 20
3.2488148607
 30
0.0
 11
4.627898448999999
 21
3.796058955199999
 31
0.0
  0
LINE
  5
36D
330
200
100
AcDbEntity
  8
0
  6
Continuous
 62
     7
100
AcDbLine
 10
4.7341976616
 20
3.1543266717
 30
0.0
 11
4.7105756147
 21
3.1543266716
 31
0.0
  0
LINE
  5
36E
330
200
100
AcDbEntity
  8
0
  6
Continuous
 62
     7
100
AcDbLine
 10
4.7341976616
 20
3.162200687399999
 30
0.0
 11
5.096402386
 21
3.162200687399999
 31
0.0
  0
LINE
  5
36F
330
200
100
AcDbEntity
  8
0
  6
Continuous
 62
     7
100
AcDbLine
 10
5.096402386
 20
3.166137695299999
 30
0.0
 11
5.123961441199999
 21
3.166137695299999
 31
0.0
  0
LINE
  5
370
330
200
100
AcDbEntity
  8
0
  6
Continuous
 62
     7
100
AcDbLine
 10
4.710575614399999
 20
3.2094447818
 30
0.0
 11
4.7341976616
 21
3.209444781899999
 31
0.0
  0
LINE
  5
371
330
200
100
AcDbEntity
  8
0
  6
Continuous
 62
     7
100
AcDbLine
 10
4.710575614399999
 20
3.1543266716
 30
0.0
 11
4.710575614399999
 21
3.2094447818
 31
0.0
  0
LINE
  5
372
330
200
100
AcDbEntity
  8
0
  6
Continuous
 62
     7
100
AcDbLine
 10
4.7341976616
 20
2.9887754906
 30
0.0
 11
4.7341976616
 21
3.2488148607
 31
0.0
  0
LINE
  5
373
330
200
100
AcDbEntity
  8
0
  6
Continuous
 62
     7
100
AcDbLine
 10
4.7341976616
 20
3.796058955199999
 30
0.0
 11
4.7341976616
 21
3.953539270099999
 31
0.0
  0
LINE
  5
374
330
200
100
AcDbEntity
  8
0
  6
Continuous
 62
     7
100
AcDbLine
 10
5.123961441199999
 20
3.229129821299999
 30
0.0
 11
5.096402386
 21
3.229129821299999
 31
0.0
  0
LINE
  5
375
330
200
100
AcDbEntity
  8
0
  6
Continuous
 62
     7
100
AcDbLine
 10
4.627898448999999
 20
3.2488148607
 30
0.0
 11
4.7341976616
 21
3.2488148607
 31
0.0
  0
LINE
  5
376
330
200
100
AcDbEntity
  8
0
  6
Continuous
 62
     7
100
AcDbLine
 10
4.7656937246
 20
2.9887754906
 30
0.0
 11
4.7656937246
 21
2.8787361205
 31
0.0
  0
LINE
  5
377
330
200
100
AcDbEntity
  8
0
  6
Continuous
 62
     7
100
AcDbLine
 10
4.7607718172
 20
2.9887754906
 30
0.0
 11
4.7613422949
 21
3.162200687399999
 31
0.0
  0
LINE
  5
378
330
200
100
AcDbEntity
  8
0
  6
Continuous
 62
     7
100
AcDbLine
 10
4.860181913599999
 20
2.9887754906
 30
0.0
 11
4.860181913599999
 21
2.8787361205
 31
0.0
  0
LINE
  5
379
330
200
100
AcDbEntity
  8
0
  6
Continuous
 62
     7
100
AcDbLine
 10
4.9782921498
 20
3.162200687399999
 30
0.0
 11
4.9782921498
 21
2.9887754906
 31
0.0
  0
LINE
  5
37A
330
200
100
AcDbEntity
  8
0
  6
Continuous
 62
     7
100
AcDbLine
 10
5.069257752799999
 20
3.162200687399999
 30
0.0
 11
5.0698275829
 21
2.988972341
 31
0.0
  0
LINE
  5
37B
330
200
100
AcDbEntity
  8
0
  6
Continuous
 62
     7
100
AcDbLine
 10
5.096402386
 20
2.988972341
 30
0.0
 11
5.096402386
 21
3.953539270099999
 31
0.0
  0
LINE
  5
37C
330
200
100
AcDbEntity
  8
0
  6
Continuous
 62
     7
100
AcDbLine
 10
5.123961441199999
 20
3.166137695299999
 30
0.0
 11
5.123961441199999
 21
3.229129821299999
 31
0.0
  0
LINE
  5
37D
330
200
100
AcDbEntity
  8
0
  6
Continuous
 62
     7
100
AcDbLine
 10
5.151520496299999
 20
3.953539270099999
 30
0.0
 11
5.151520496299999
 21
3.839366041799999
 31
0.0
  0
LINE
  5
37E
330
200
100
AcDbEntity
  8
0
  6
Continuous
 62
     7
100
AcDbLine
 10
4.7341976616
 20
3.796058955199999
 30
0.0
 11
4.627898448999999
 21
3.796058955199999
 31
0.0
  0
LINE
  5
37F
330
200
100
AcDbEntity
  8
0
  6
Continuous
 62
     7
100
AcDbLine
 10
5.096402386
 20
3.839366041799999
 30
0.0
 11
5.151520496299999
 21
3.839366041799999
 31
0.0
  0
LINE
  5
380
330
200
100
AcDbEntity
  8
0
  6
Continuous
 62
     7
100
AcDbLine
 10
4.7341976616
 20
3.953539270099999
 30
0.0
 11
5.151520496299999
 21
3.953539270099999
 31
0.0
  0
ARC
  5
381
330
200
100
AcDbEntity
  8
0
  6
Continuous
 62
     7
100
AcDbCircle
 10
8.1361760387
 20
6.231840868699999
 30
0.0
 40
0.2601369434
100
AcDbArc
 50
110.1942253494
 51
113.0844457098
  0
ARC
  5
382
330
200
100
AcDbEntity
  8
0
  6
Continuous
 62
     7
100
AcDbCircle
 10
7.434634106699999
 20
6.636867129099999
 30
0.0
 40
0.2601369434
100
AcDbArc
 50
110.1942253494
 51
113.0844457097
  0
ARC
  5
383
330
200
100
AcDbEntity
  8
0
  6
Continuous
 62
     7
100
AcDbCircle
 10
7.337036773899999
 20
6.7829839046
 30
0.0
 40
0.0697281245
100
AcDbArc
 50
161.959137536
 51
163.0649738444
  0
ARC
  5
384
330
200
100
AcDbEntity
  8
0
  6
Continuous
 62
     7
100
AcDbCircle
 10
8.0385787059
 20
6.377957644199999
 30
0.0
 40
0.0697281245
100
AcDbArc
 50
161.959137536
 51
163.0649738444
  0
CIRCLE
  5
385
330
200
100
AcDbEntity
  8
0
  6
Continuous
 62
     7
100
AcDbCircle
 10
1.832080750999999
 20
5.798295629299999
 30
0.0
 40
0.1299212598
  0
CIRCLE
  5
386
330
200
100
AcDbEntity
  8
0
  6
Continuous
 62
     7
100
AcDbCircle
 10
2.3281437431
 20
5.798295629299999
 30
0.0
 40
0.1299212598
  0
CIRCLE
  5
387
330
200
100
AcDbEntity
  8
0
  6
Continuous
 62
     7
100
AcDbCircle
 10
2.328143746399999
 20
5.798295629299999
 30
0.0
 40
0.1186781841
  0
CIRCLE
  5
388
330
200
100
AcDbEntity
  8
0
  6
Continuous
 62
     7
100
AcDbCircle
 10
1.8320807543
 20
5.798295629299999
 30
0.0
 40
0.1186781841
  0
ARC
  5
389
330
200
100
AcDbEntity
  8
0
  6
Continuous
 62
     7
100
AcDbCircle
 10
2.328143746399999
 20
5.798295629299999
 30
0.0
 40
0.1150499657
100
AcDbArc
 50
352.1326586635
 51
7.8673413365
  0
ARC
  5
38A
330
200
100
AcDbEntity
  8
0
  6
Continuous
 62
     7
100
AcDbCircle
 10
2.328143746399999
 20
5.798295629299999
 30
0.0
 40
0.1150499657
100
AcDbArc
 50
172.1326586635
 51
187.8673413365
  0
ARC
  5
38B
330
200
100
AcDbEntity
  8
0
  6
Continuous
 62
     7
100
AcDbCircle
 10
1.8320807543
 20
5.798295629299999
 30
0.0
 40
0.1150499657
100
AcDbArc
 50
352.1326586635
 51
7.8673413365
  0
ARC
  5
38C
330
200
100
AcDbEntity
  8
0
  6
Continuous
 62
     7
100
AcDbCircle
 10
1.8320807543
 20
5.798295629299999
 30
0.0
 40
0.1150499657
100
AcDbArc
 50
172.1326586635
 51
187.8673413365
  0
ARC
  5
38D
330
200
100
AcDbEntity
  8
0
  6
Continuous
 62
     7
100
AcDbCircle
 10
1.8320807543
 20
5.798295629299999
 30
0.0
 40
0.1111511315
100
AcDbArc
 50
8.1451447595
 51
171.8548552405
  0
ARC
  5
38E
330
200
100
AcDbEntity
  8
0
  6
Continuous
 62
     7
100
AcDbCircle
 10
1.8320807543
 20
5.798295629299999
 30
0.0
 40
0.1111511315
100
AcDbArc
 50
188.1451447595
 51
351.8548552405001
  0
ARC
  5
38F
330
200
100
AcDbEntity
  8
0
  6
Continuous
 62
     7
100
AcDbCircle
 10
2.328143746399999
 20
5.798295629299999
 30
0.0
 40
0.1111511315
100
AcDbArc
 50
188.1451447595
 51
351.8548552405001
  0
ARC
  5
390
330
200
100
AcDbEntity
  8
0
  6
Continuous
 62
     7
100
AcDbCircle
 10
2.328143746399999
 20
5.798295629299999
 30
0.0
 40
0.1111511315
100
AcDbArc
 50
8.1451447595
 51
171.8548552405
  0
ARC
  5
391
330
200
100
AcDbEntity
  8
0
  6
Continuous
 62
     7
100
AcDbCircle
 10
1.8320807543
 20
5.798295629299999
 30
0.0
 40
0.0955378266
100
AcDbArc
 50
189.4876821618
 51
350.5123178382
  0
ARC
  5
392
330
200
100
AcDbEntity
  8
0
  6
Continuous
 62
     7
100
AcDbCircle
 10
1.8320807543
 20
5.798295629299999
 30
0.0
 40
0.0955378266
100
AcDbArc
 50
9.487682161799998
 51
170.5123178382
  0
ARC
  5
393
330
200
100
AcDbEntity
  8
0
  6
Continuous
 62
     7
100
AcDbCircle
 10
2.328143746399999
 20
5.798295629299999
 30
0.0
 40
0.0955378266
100
AcDbArc
 50
9.487682161799998
 51
170.5123178382
  0
ARC
  5
394
330
200
100
AcDbEntity
  8
0
  6
Continuous
 62
     7
100
AcDbCircle
 10
2.328143746399999
 20
5.798295629299999
 30
0.0
 40
0.0955378266
100
AcDbArc
 50
189.4876821618
 51
350.5123178382
  0
SPLINE
  5
395
330
200
100
AcDbEntity
  8
0
  6
Continuous
 62
     7
100
AcDbSpline
210
0.0
220
0.0
230
1.0
 70
     8
 71
     3
 72
    17
 73
    13
 74
     0
 42
0.0000000001
 43
0.0000000001
 40
0.0
 40
0.0
 40
0.0
 40
0.0
 40
0.1284536944
 40
0.262233994
 40
0.3980373873
 40
0.5320778317000001
 40
0.6609075593
 40
0.7820336456999999
 40
0.8394209779999998
 40
0.8947102743
 40
0.9481217176999999
 40
1.0
 40
1.0
 40
1.0
 40
1.0
 10
8.0463758268
 20
6.4759866269
 30
0.0
 10
8.060280492
 20
6.48110864
 30
0.0
 10
8.089545190099999
 20
6.4892757072
 30
0.0
 10
8.1351769607
 20
6.4954061751
 30
0.0
 10
8.181867436399999
 20
6.4956074057
 30
0.0
 10
8.227633473099999
 20
6.489855982999999
 30
0.0
 10
8.2705562323
 20
6.4783339008
 30
0.0
 10
8.303140309999999
 20
6.463871794
 30
0.0
 10
8.326017187699999
 20
6.449510879199999
 30
0.0
 10
8.3411244675
 20
6.437661230199999
 30
0.0
 10
8.3542875522
 20
6.4245643746
 30
0.0
 10
8.3617219968
 20
6.4149000959
 30
0.0
 10
8.365010447000001
 20
6.4099000244
 30
0.0
  0
SPLINE
  5
396
330
200
100
AcDbEntity
  8
0
  6
Continuous
 62
     7
100
AcDbSpline
210
0.0
220
0.0
230
1.0
 70
     8
 71
     3
 72
     9
 73
     5
 74
     0
 42
0.0000000001
 43
0.0000000001
 40
0.0
 40
0.0
 40
0.0
 40
0.0
 40
0.4901996948
 40
1.0
 40
1.0
 40
1.0
 40
1.0
 10
7.9552105074
 20
6.4100509959
 30
0.0
 10
7.9594301596
 20
6.4164476825
 30
0.0
 10
7.9692930601
 20
6.4286964586
 30
0.0
 10
7.980997531799999
 20
6.4391550907
 30
0.0
 10
7.9872879571
 20
6.4440483083
 30
0.0
  0
SPLINE
  5
397
330
200
100
AcDbEntity
  8
0
  6
Continuous
 62
     7
100
AcDbSpline
210
0.0
220
0.0
230
1.0
 70
     8
 71
     3
 72
    14
 73
    10
 74
     0
 42
0.0000000001
 43
0.0000000001
 40
0.0
 40
0.0
 40
0.0
 40
0.0
 40
0.1080460027
 40
0.2181295927
 40
0.3321097483
 40
0.4514983585000001
 40
0.5774420206000001
 40
0.7107254967000002
 40
1.0
 40
1.0
 40
1.0
 40
1.0
 10
8.419903174699999
 20
6.501313395099999
 30
0.0
 10
8.419903174599999
 20
6.4963943278
 30
0.0
 10
8.419047069500001
 20
6.4864437257
 30
0.0
 10
8.4152369427
 20
6.471744904099999
 30
0.0
 10
8.4089399277
 20
6.457365001
 30
0.0
 10
8.4002483536
 20
6.4434455795
 30
0.0
 10
8.3892486311
 20
6.430114216499999
 30
0.0
 10
8.371177628499999
 20
6.412817899299999
 30
0.0
 10
8.3552038021
 20
6.4018200396
 30
0.0
 10
8.3437982713
 20
6.3952350927
 30
0.0
  0
SPLINE
  5
398
330
200
100
AcDbEntity
  8
0
  6
Continuous
 62
     7
100
AcDbSpline
210
0.0
220
0.0
230
1.0
 70
     8
 71
     3
 72
    17
 73
    13
 74
     0
 42
0.0000000001
 43
0.0000000001
 40
0.0
 40
0.0
 40
0.0
 40
0.0
 40
0.1284536944
 40
0.262233994
 40
0.3980373873
 40
0.5320778317000001
 40
0.6609075593
 40
0.7820336456999999
 40
0.8394209779999998
 40
0.8947102743
 40
0.9481217176999999
 40
1.0
 40
1.0
 40
1.0
 40
1.0
 10
7.344833894799999
 20
6.881012887299999
 30
0.0
 10
7.358738559999999
 20
6.886134900399999
 30
0.0
 10
7.388003258099999
 20
6.894301967599999
 30
0.0
 10
7.4336350286
 20
6.900432435499999
 30
0.0
 10
7.4803255044
 20
6.9006336661
 30
0.0
 10
7.5260915411
 20
6.8948822434
 30
0.0
 10
7.5690143003
 20
6.883360161199999
 30
0.0
 10
7.601598377899999
 20
6.8688980544
 30
0.0
 10
7.6244752557
 20
6.8545371396
 30
0.0
 10
7.639582535499999
 20
6.842687490599999
 30
0.0
 10
7.6527456202
 20
6.829590634999999
 30
0.0
 10
7.6601800647
 20
6.819926356199999
 30
0.0
 10
7.663468514999999
 20
6.8149262848
 30
0.0
  0
SPLINE
  5
399
330
200
100
AcDbEntity
  8
0
  6
Continuous
 62
     7
100
AcDbSpline
210
0.0
220
0.0
230
1.0
 70
     8
 71
     3
 72
     9
 73
     5
 74
     0
 42
0.0000000001
 43
0.0000000001
 40
0.0
 40
0.0
 40
0.0
 40
0.0
 40
0.4901996948
 40
1.0
 40
1.0
 40
1.0
 40
1.0
 10
7.253668575299999
 20
6.8150772563
 30
0.0
 10
7.257888227599999
 20
6.821473942899999
 30
0.0
 10
7.267751128099999
 20
6.833722718999999
 30
0.0
 10
7.2794555998
 20
6.844181351
 30
0.0
 10
7.285746024999999
 20
6.849074568699999
 30
0.0
  0
SPLINE
  5
39A
330
200
100
AcDbEntity
  8
0
  6
Continuous
 62
     7
100
AcDbSpline
210
0.0
220
0.0
230
1.0
 70
     8
 71
     3
 72
    14
 73
    10
 74
     0
 42
0.0000000001
 43
0.0000000001
 40
0.0
 40
0.0
 40
0.0
 40
0.0
 40
0.1080460027
 40
0.2181295927
 40
0.3321097483
 40
0.4514983585000001
 40
0.5774420206000001
 40
0.7107254967000002
 40
1.0
 40
1.0
 40
1.0
 40
1.0
 10
7.7183612426
 20
6.906339655499999
 30
0.0
 10
7.7183612425
 20
6.901420588099999
 30
0.0
 10
7.717505137399999
 20
6.891469986099999
 30
0.0
 10
7.713695010599999
 20
6.8767711645
 30
0.0
 10
7.707397995599999
 20
6.862391261299999
 30
0.0
 10
7.698706421599999
 20
6.8484718399
 30
0.0
 10
7.687706699099999
 20
6.8351404769
 30
0.0
 10
7.669635696399999
 20
6.817844159699999
 30
0.0
 10
7.653661870099999
 20
6.8068463
 30
0.0
 10
7.642256339199999
 20
6.800261352999999
 30
0.0
  0
SPLINE
  5
39B
330
200
100
AcDbEntity
  8
0
  6
Continuous
 62
     7
100
AcDbSpline
210
0.0
220
0.0
230
1.0
 70
     8
 71
     3
 72
    15
 73
    11
 74
     0
 42
0.0000000001
 43
0.0000000001
 40
0.0
 40
0.0
 40
0.0
 40
0.0
 40
0.1141545727
 40
0.2373261359
 40
0.366975604
 40
0.4999994966
 40
0.6330234588
 40
0.7626731321
 40
0.8858450148999999
 40
1.0
 40
1.0
 40
1.0
 40
1.0
 10
7.642256339199999
 20
6.800261352999999
 30
0.0
 10
7.629678145299999
 20
6.792999372699999
 30
0.0
 10
7.602173651499999
 20
6.780191575399999
 30
0.0
 10
7.5573841674
 20
6.766578253999999
 30
0.0
 10
7.508892536399999
 20
6.7581987312
 30
0.0
 10
7.458520234899999
 20
6.755371506699999
 30
0.0
 10
7.408147893999999
 20
6.7581984934
 30
0.0
 10
7.359656147299999
 20
6.766577787
 30
0.0
 10
7.3148664746
 20
6.7801908949
 30
0.0
 10
7.287361815599999
 20
6.792998553899999
 30
0.0
 10
7.2747835238
 20
6.8002604698
 30
0.0
  0
SPLINE
  5
39C
330
200
100
AcDbEntity
  8
0
  6
Continuous
 62
     7
100
AcDbSpline
210
0.0
220
0.0
230
1.0
 70
     8
 71
     3
 72
    14
 73
    10
 74
     0
 42
0.0000000001
 43
0.0000000001
 40
0.0
 40
0.0
 40
0.0
 40
0.0
 40
0.2892659843
 40
0.4225655822000001
 40
0.5485102922000001
 40
0.6678920002000001
 40
0.7818705979999999
 40
0.8919546559999998
 40
1.0
 40
1.0
 40
1.0
 40
1.0
 10
7.2747835238
 20
6.8002604698
 30
0.0
 10
7.263377207899999
 20
6.806845760299999
 30
0.0
 10
7.2474019887
 20
6.817845348899999
 30
0.0
 10
7.2293285994
 20
6.835143176099999
 30
0.0
 10
7.218328068499999
 20
6.848476600399999
 30
0.0
 10
7.2096366632
 20
6.8623976862
 30
0.0
 10
7.203341724099999
 20
6.876779530299999
 30
0.0
 10
7.199529937999999
 20
6.8914794847
 30
0.0
 10
7.198677416199999
 20
6.9014313547
 30
0.0
 10
7.1986775525
 20
6.906350855099999
 30
0.0
  0
SPLINE
  5
39D
330
200
100
AcDbEntity
  8
0
  6
Continuous
 62
     7
100
AcDbSpline
210
0.0
220
0.0
230
1.0
 70
     8
 71
     3
 72
    15
 73
    11
 74
     0
 42
0.0000000001
 43
0.0000000001
 40
0.0
 40
0.0
 40
0.0
 40
0.0
 40
0.1141545727
 40
0.2373261359
 40
0.366975604
 40
0.4999994966
 40
0.6330234588
 40
0.7626731321
 40
0.8858450148999999
 40
1.0
 40
1.0
 40
1.0
 40
1.0
 10
8.3437982713
 20
6.3952350927
 30
0.0
 10
8.331220077299999
 20
6.3879731123
 30
0.0
 10
8.3037155835
 20
6.375165315
 30
0.0
 10
8.258926099399999
 20
6.3615519936
 30
0.0
 10
8.2104344684
 20
6.3531724708
 30
0.0
 10
8.160062166900001
 20
6.350345246399999
 30
0.0
 10
8.109689826
 20
6.353172232999999
 30
0.0
 10
8.061198079299998
 20
6.361551526599999
 30
0.0
 10
8.0164084067
 20
6.3751646345
 30
0.0
 10
7.9889037476
 20
6.387972293499999
 30
0.0
 10
7.9763254559
 20
6.3952342094
 30
0.0
  0
SPLINE
  5
39E
330
200
100
AcDbEntity
  8
0
  6
Continuous
 62
     7
100
AcDbSpline
210
0.0
220
0.0
230
1.0
 70
     8
 71
     3
 72
    14
 73
    10
 74
     0
 42
0.0000000001
 43
0.0000000001
 40
0.0
 40
0.0
 40
0.0
 40
0.0
 40
0.2892659843
 40
0.4225655822000001
 40
0.5485102922000001
 40
0.6678920002000001
 40
0.7818705979999999
 40
0.8919546559999998
 40
1.0
 40
1.0
 40
1.0
 40
1.0
 10
7.9763254559
 20
6.3952342094
 30
0.0
 10
7.96491914
 20
6.4018194999
 30
0.0
 10
7.9489439207
 20
6.4128190886
 30
0.0
 10
7.9308705315
 20
6.4301169157
 30
0.0
 10
7.919870000599999
 20
6.44345034
 30
0.0
 10
7.911178595199999
 20
6.4573714258
 30
0.0
 10
7.904883656099999
 20
6.471753269899999
 30
0.0
 10
7.901071869999999
 20
6.486453224299999
 30
0.0
 10
7.9002193483
 20
6.496405094299999
 30
0.0
 10
7.9002194846
 20
6.5013245947
 30
0.0
  0
LINE
  5
39F
330
200
100
AcDbEntity
  8
0
  6
Continuous
 62
     7
100
AcDbLine
 10
7.321836092899999
 20
6.837382030299999
 30
0.0
 11
7.325183767999999
 21
6.864521273999999
 31
0.0
  0
SPLINE
  5
3A0
330
200
100
AcDbEntity
  8
0
  6
Continuous
 62
     7
100
AcDbSpline
210
0.0
220
0.0
230
1.0
 70
     8
 71
     3
 72
    11
 73
     7
 74
     0
 42
0.0000000001
 43
0.0000000001
 40
0.0
 40
0.0
 40
0.0
 40
0.0
 40
0.2916143512
 40
0.5504493508000001
 40
0.7815372378000001
 40
1.0
 40
1.0
 40
1.0
 40
1.0
 10
7.302984912899999
 20
6.8482655132
 30
0.0
 10
7.301447596799999
 20
6.849153062899999
 30
0.0
 10
7.2983879635
 20
6.850582072199999
 30
0.0
 10
7.2936805886
 20
6.851577030099999
 30
0.0
 10
7.2893069298
 20
6.8511640258
 30
0.0
 10
7.2867960049
 20
6.849890537
 30
0.0
 10
7.2857464062
 20
6.8490739522
 30
0.0
  0
SPLINE
  5
3A1
330
200
100
AcDbEntity
  8
0
  6
Continuous
 62
     7
100
AcDbSpline
210
0.0
220
0.0
230
1.0
 70
     8
 71
     3
 72
    11
 73
     7
 74
     0
 42
0.0000000001
 43
0.0000000001
 40
0.0
 40
0.0
 40
0.0
 40
0.0
 40
0.2827332184
 40
0.5387846562
 40
0.7738167873
 40
1.0
 40
1.0
 40
1.0
 40
1.0
 10
8.0267257
 20
6.459495013599999
 30
0.0
 10
8.026892604299998
 20
6.4608477784
 30
0.0
 10
8.027435996399999
 20
6.463407315399999
 30
0.0
 10
8.028995605
 20
6.4668368857
 30
0.0
 10
8.031255766799999
 20
6.469517484099999
 30
0.0
 10
8.033176667999999
 20
6.470720223599999
 30
0.0
 10
8.034179599399999
 20
6.471148130399999
 30
0.0
  0
SPLINE
  5
3A2
330
200
100
AcDbEntity
  8
0
  6
Continuous
 62
     7
100
AcDbSpline
210
0.0
220
0.0
230
1.0
 70
     8
 71
     3
 72
    11
 73
     7
 74
     0
 42
0.0000000001
 43
0.0000000001
 40
0.0
 40
0.0
 40
0.0
 40
0.0
 40
0.2827332184
 40
0.5387846562
 40
0.7738167873
 40
1.0
 40
1.0
 40
1.0
 40
1.0
 10
7.325183767999999
 20
6.864521273999999
 30
0.0
 10
7.325350672299999
 20
6.8658740388
 30
0.0
 10
7.3258940644
 20
6.8684335758
 30
0.0
 10
7.327453672999999
 20
6.871863146099999
 30
0.0
 10
7.3297138348
 20
6.8745437445
 30
0.0
 10
7.331634735999999
 20
6.875746483999999
 30
0.0
 10
7.3326376674
 20
6.8761743908
 30
0.0
  0
SPLINE
  5
3A3
330
200
100
AcDbEntity
  8
0
  6
Continuous
 62
     7
100
AcDbSpline
210
0.0
220
0.0
230
1.0
 70
     8
 71
     3
 72
    11
 73
     7
 74
     0
 42
0.0000000001
 43
0.0000000001
 40
0.0
 40
0.0
 40
0.0
 40
0.0
 40
0.2916143512
 40
0.5504493508000001
 40
0.7815372378000001
 40
1.0
 40
1.0
 40
1.0
 40
1.0
 10
8.0045268449
 20
6.443239252799999
 30
0.0
 10
8.0029895288
 20
6.444126802599999
 30
0.0
 10
7.999929895599999
 20
6.445555811799999
 30
0.0
 10
7.995222520599999
 20
6.446550769699999
 30
0.0
 10
7.990848861799999
 20
6.446137765399999
 30
0.0
 10
7.988337937
 20
6.444864276599999
 30
0.0
 10
7.9872883383
 20
6.444047691799999
 30
0.0
  0
LINE
  5
3A4
330
200
100
AcDbEntity
  8
0
  6
Continuous
 62
     7
100
AcDbLine
 10
8.023378024899999
 20
6.43235577
 30
0.0
 11
8.0267257
 21
6.459495013599999
 31
0.0
  0
SPLINE
  5
3A5
330
200
100
AcDbEntity
  8
0
  6
Continuous
 62
     7
100
AcDbSpline
210
0.0
220
0.0
230
1.0
 70
     8
 71
     3
 72
    14
 73
    10
 74
     0
 42
0.0000000001
 43
0.0000000001
 40
0.0
 40
0.0
 40
0.0
 40
0.0
 40
0.2892749832
 40
0.4225585987
 40
0.5485023020000001
 40
0.6678908561
 40
0.7818708694
 40
0.8919542476
 40
1.0
 40
1.0
 40
1.0
 40
1.0
 10
7.642254809299999
 20
7.012418848899999
 30
0.0
 10
7.6536605544
 20
7.005833887899999
 30
0.0
 10
7.6696346896
 20
6.994835981799999
 30
0.0
 10
7.6877060612
 20
6.977539537
 30
0.0
 10
7.6987060097
 20
6.9642080619
 30
0.0
 10
7.7073977646
 20
6.9502885103
 30
0.0
 10
7.7136949125
 20
6.9359084624
 30
0.0
 10
7.7175051202
 20
6.9212094858
 30
0.0
 10
7.718361242699999
 20
6.911258775299999
 30
0.0
 10
7.7183612426
 20
6.906339655499999
 30
0.0
  0
SPLINE
  5
3A6
330
200
100
AcDbEntity
  8
0
  6
Continuous
 62
     7
100
AcDbSpline
210
0.0
220
0.0
230
1.0
 70
     8
 71
     3
 72
    14
 73
    10
 74
     0
 42
0.0000000001
 43
0.0000000001
 40
0.0
 40
0.0
 40
0.0
 40
0.0
 40
0.2892749832
 40
0.4225585987
 40
0.5485023020000001
 40
0.6678908561
 40
0.7818708694
 40
0.8919542476
 40
1.0
 40
1.0
 40
1.0
 40
1.0
 10
8.3437967413
 20
6.6073925885
 30
0.0
 10
8.355202486399999
 20
6.6008076275
 30
0.0
 10
8.3711766217
 20
6.589809721399999
 30
0.0
 10
8.389247993299999
 20
6.572513276599999
 30
0.0
 10
8.4002479418
 20
6.559181801499999
 30
0.0
 10
8.408939696699999
 20
6.5452622499
 30
0.0
 10
8.4152368445
 20
6.5308822021
 30
0.0
 10
8.419047052299999
 20
6.516183225399999
 30
0.0
 10
8.419903174799999
 20
6.506232514899999
 30
0.0
 10
8.419903174699999
 20
6.501313395099999
 30
0.0
  0
SPLINE
  5
3A7
330
200
100
AcDbEntity
  8
0
  6
Continuous
 62
     7
100
AcDbSpline
210
0.0
220
0.0
230
1.0
 70
     8
 71
     3
 72
    11
 73
     7
 74
     0
 42
0.0000000001
 43
0.0000000001
 40
0.0
 40
0.0
 40
0.0
 40
0.0
 40
0.2178946044
 40
0.4531140861
 40
0.7133581996
 40
1.0
 40
1.0
 40
1.0
 40
1.0
 10
7.3326376674
 20
6.8761743908
 30
0.0
 10
7.3336771319
 20
6.876617884699999
 30
0.0
 10
7.335998956799999
 20
6.8771916072
 30
0.0
 10
7.3397340459
 20
6.877049111399999
 30
0.0
 10
7.343672128999999
 20
6.875965381
 30
0.0
 10
7.346239375499999
 20
6.8747250085
 30
0.0
 10
7.3475268869
 20
6.8739816803
 30
0.0
  0
SPLINE
  5
3A8
330
200
100
AcDbEntity
  8
0
  6
Continuous
 62
     7
100
AcDbSpline
210
0.0
220
0.0
230
1.0
 70
     8
 71
     3
 72
    11
 73
     7
 74
     0
 42
0.0000000001
 43
0.0000000001
 40
0.0
 40
0.0
 40
0.0
 40
0.0
 40
0.2178946044
 40
0.4531140861
 40
0.7133581996
 40
1.0
 40
1.0
 40
1.0
 40
1.0
 10
8.034179599399999
 20
6.471148130399999
 30
0.0
 10
8.035219063999999
 20
6.471591624299999
 30
0.0
 10
8.0375408888
 20
6.472165346799999
 30
0.0
 10
8.041275977999999
 20
6.472022851
 30
0.0
 10
8.045214060999999
 20
6.470939120599999
 30
0.0
 10
8.047781307599999
 20
6.469698748099999
 30
0.0
 10
8.0490688189
 20
6.4689554199
 30
0.0
  0
SPLINE
  5
3A9
330
200
100
AcDbEntity
  8
0
  6
Continuous
 62
     7
100
AcDbSpline
210
0.0
220
0.0
230
1.0
 70
     8
 71
     3
 72
    23
 73
    19
 74
     0
 42
0.0000000001
 43
0.0000000001
 40
0.0
 40
0.0
 40
0.0
 40
0.0
 40
0.0428131515
 40
0.0873950428
 40
0.1351790072
 40
0.1870897976
 40
0.2435362595
 40
0.3044933682
 40
0.3695918871
 40
0.4381992673
 40
0.5094963015000001
 40
0.5825323771999999
 40
0.6562735129
 40
0.7296623266
 40
0.8016518679
 40
0.8712484762999999
 40
0.9376213356999999
 40
1.0
 40
1.0
 40
1.0
 40
1.0
 10
7.9002194846
 20
6.5013245947
 30
0.0
 10
7.9002196895
 20
6.508721344999999
 30
0.0
 10
7.902201961699999
 20
6.5238841776
 30
0.0
 10
7.9108982109
 20
6.545778625499999
 30
0.0
 10
7.9250120787
 20
6.566533742199999
 30
0.0
 10
7.9441405948
 20
6.5857381897
 30
0.0
 10
7.967840802
 20
6.6030552888
 30
0.0
 10
7.9956096788
 20
6.618158187899999
 30
0.0
 10
8.0268665186
 20
6.6307481588
 30
0.0
 10
8.0609534023
 20
6.640571137
 30
0.0
 10
8.0971501919
 20
6.647422361699999
 30
0.0
 10
8.134688162499999
 20
6.651154276099999
 30
0.0
 10
8.172767414199999
 20
6.6516896249
 30
0.0
 10
8.210576103599999
 20
6.649016930599999
 30
0.0
 10
8.247306312399999
 20
6.6431927384
 30
0.0
 10
8.2821843823
 20
6.634340189299999
 30
0.0
 10
8.314455204199999
 20
6.622643125499999
 30
0.0
 10
8.334463490900001
 20
6.6127810213
 30
0.0
 10
8.3437967413
 20
6.6073925885
 30
0.0
  0
SPLINE
  5
3AA
330
200
100
AcDbEntity
  8
0
  6
Continuous
 62
     7
100
AcDbSpline
210
0.0
220
0.0
230
1.0
 70
     8
 71
     3
 72
    23
 73
    19
 74
     0
 42
0.0000000001
 43
0.0000000001
 40
0.0
 40
0.0
 40
0.0
 40
0.0
 40
0.0428131515
 40
0.0873950428
 40
0.1351790072
 40
0.1870897976
 40
0.2435362595
 40
0.3044933682
 40
0.3695918871
 40
0.4381992673
 40
0.5094963015000001
 40
0.5825323771999999
 40
0.6562735129
 40
0.7296623266
 40
0.8016518679
 40
0.8712484762999999
 40
0.9376213356999999
 40
1.0
 40
1.0
 40
1.0
 40
1.0
 10
7.1986775525
 20
6.906350855099999
 30
0.0
 10
7.198677757499999
 20
6.913747605399999
 30
0.0
 10
7.2006600296
 20
6.928910437999999
 30
0.0
 10
7.209356278899999
 20
6.9508048859
 30
0.0
 10
7.223470146699999
 20
6.971560002599999
 30
0.0
 10
7.242598662799999
 20
6.990764450099999
 30
0.0
 10
7.266298869999999
 20
7.008081549199999
 30
0.0
 10
7.294067746799999
 20
7.0231844483
 30
0.0
 10
7.325324586499999
 20
7.035774419199999
 30
0.0
 10
7.359411470299999
 20
7.045597397399999
 30
0.0
 10
7.3956082598
 20
7.0524486221
 30
0.0
 10
7.433146230399999
 20
7.056180536499999
 30
0.0
 10
7.4712254822
 20
7.0567158853
 30
0.0
 10
7.509034171599999
 20
7.054043190999999
 30
0.0
 10
7.545764380399999
 20
7.0482189988
 30
0.0
 10
7.5806424502
 20
7.0393664497
 30
0.0
 10
7.6129132721
 20
7.0276693858
 30
0.0
 10
7.632921558799999
 20
7.017807281699999
 30
0.0
 10
7.642254809299999
 20
7.012418848899999
 30
0.0
  0
SPLINE
  5
3AB
330
200
100
AcDbEntity
  8
0
  6
Continuous
 62
     7
100
AcDbSpline
210
0.0
220
0.0
230
1.0
 70
     8
 71
     3
 72
    18
 73
    14
 74
     0
 42
0.0000000001
 43
0.0000000001
 40
0.0
 40
0.0
 40
0.0
 40
0.0
 40
0.0436859813
 40
0.0900675898
 40
0.1398299097
 40
0.1933347811
 40
0.2506657214
 40
0.3116621699
 40
0.4430208599000001
 40
0.5832727803
 40
0.7268205237
 40
0.8676123205999999
 40
1.0
 40
1.0
 40
1.0
 40
1.0
 10
8.348372541299999
 20
6.3978521535
 30
0.0
 10
8.346979516399999
 20
6.4025311574
 30
0.0
 10
8.343069719099998
 20
6.4118912307
 30
0.0
 10
8.334421645199999
 20
6.424995867999999
 30
0.0
 10
8.323019851399999
 20
6.437319086
 30
0.0
 10
8.309064882899999
 20
6.448684423999999
 30
0.0
 10
8.292773467399999
 20
6.458929075399999
 30
0.0
 10
8.267664311499999
 20
6.471197071399999
 30
0.0
 10
8.2320592631
 20
6.482578381099999
 30
0.0
 10
8.186036406900001
 20
6.4896076087
 30
0.0
 10
8.138418527
 20
6.489916636499999
 30
0.0
 10
8.092135563300001
 20
6.483496556
 30
0.0
 10
8.062747810399999
 20
6.474591232599999
 30
0.0
 10
8.0490688189
 20
6.4689554199
 30
0.0
  0
SPLINE
  5
3AC
330
200
100
AcDbEntity
  8
0
  6
Continuous
 62
     7
100
AcDbSpline
210
0.0
220
0.0
230
1.0
 70
     8
 71
     3
 72
     9
 73
     5
 74
     0
 42
0.0000000001
 43
0.0000000001
 40
0.0
 40
0.0
 40
0.0
 40
0.0
 40
0.2544326322
 40
1.0
 40
1.0
 40
1.0
 40
1.0
 10
7.302984912899999
 20
6.8482655132
 30
0.0
 10
7.3022013641
 20
6.847631588699999
 30
0.0
 10
7.299149407499999
 20
6.845106187699999
 30
0.0
 10
7.2962102563
 20
6.8424437816
 30
0.0
 10
7.2940961882
 20
6.840381452699999
 30
0.0
  0
SPLINE
  5
3AD
330
200
100
AcDbEntity
  8
0
  6
Continuous
 62
     7
100
AcDbSpline
210
0.0
220
0.0
230
1.0
 70
     8
 71
     3
 72
     9
 73
     5
 74
     0
 42
0.0000000001
 43
0.0000000001
 40
0.0
 40
0.0
 40
0.0
 40
0.0
 40
0.5229052349000001
 40
1.0
 40
1.0
 40
1.0
 40
1.0
 10
7.2940961882
 20
6.840381452699999
 30
0.0
 10
7.2887232911
 20
6.835140050599999
 30
0.0
 10
7.279338879099999
 20
6.8241168378
 30
0.0
 10
7.2728575889
 20
6.8110901426
 30
0.0
 10
7.2707367707
 20
6.8045783697
 30
0.0
  0
SPLINE
  5
3AE
330
200
100
AcDbEntity
  8
0
  6
Continuous
 62
     7
100
AcDbSpline
210
0.0
220
0.0
230
1.0
 70
     8
 71
     3
 72
    18
 73
    14
 74
     0
 42
0.0000000001
 43
0.0000000001
 40
0.0
 40
0.0
 40
0.0
 40
0.0
 40
0.0436859813
 40
0.0900675898
 40
0.1398299097
 40
0.1933347811
 40
0.2506657214
 40
0.3116621699
 40
0.4430208599000001
 40
0.5832727803
 40
0.7268205237
 40
0.8676123205999999
 40
1.0
 40
1.0
 40
1.0
 40
1.0
 10
7.646830609199999
 20
6.8028784139
 30
0.0
 10
7.6454375844
 20
6.8075574178
 30
0.0
 10
7.641527787
 20
6.816917491099999
 30
0.0
 10
7.6328797132
 20
6.8300221284
 30
0.0
 10
7.621477919299999
 20
6.8423453464
 30
0.0
 10
7.607522950899999
 20
6.8537106844
 30
0.0
 10
7.591231535299999
 20
6.8639553358
 30
0.0
 10
7.5661223794
 20
6.876223331799999
 30
0.0
 10
7.5305173311
 20
6.887604641499999
 30
0.0
 10
7.484494474799999
 20
6.894633869099999
 30
0.0
 10
7.4368765949
 20
6.8949428969
 30
0.0
 10
7.390593631299999
 20
6.8885228164
 30
0.0
 10
7.3612058784
 20
6.879617492999999
 30
0.0
 10
7.3475268869
 20
6.8739816803
 30
0.0
  0
SPLINE
  5
3AF
330
200
100
AcDbEntity
  8
0
  6
Continuous
 62
     7
100
AcDbSpline
210
0.0
220
0.0
230
1.0
 70
     8
 71
     3
 72
     9
 73
     5
 74
     0
 42
0.0000000001
 43
0.0000000001
 40
0.0
 40
0.0
 40
0.0
 40
0.0
 40
0.2544326322
 40
1.0
 40
1.0
 40
1.0
 40
1.0
 10
8.0045268449
 20
6.443239252799999
 30
0.0
 10
8.003743296199999
 20
6.442605328299999
 30
0.0
 10
8.000691339500001
 20
6.4400799273
 30
0.0
 10
7.9977521883
 20
6.4374175212
 30
0.0
 10
7.995638120199999
 20
6.4353551923
 30
0.0
  0
SPLINE
  5
3B0
330
200
100
AcDbEntity
  8
0
  6
Continuous
 62
     7
100
AcDbSpline
210
0.0
220
0.0
230
1.0
 70
     8
 71
     3
 72
     9
 73
     5
 74
     0
 42
0.0000000001
 43
0.0000000001
 40
0.0
 40
0.0
 40
0.0
 40
0.0
 40
0.5229052349000001
 40
1.0
 40
1.0
 40
1.0
 40
1.0
 10
7.995638120199999
 20
6.4353551923
 30
0.0
 10
7.990265223099999
 20
6.4301137902
 30
0.0
 10
7.9808808111
 20
6.4190905774
 30
0.0
 10
7.9743995209
 20
6.4060638822
 30
0.0
 10
7.972278702799999
 20
6.399552109299999
 30
0.0
  0
DIMENSION
  5
481
102
{ACAD_XDICTIONARY
360
490
102
}
102
{ACAD_REACTORS
330
491
102
}
330
200
100
AcDbEntity
  8
0
100
AcDbDimension
  2
*D2
 10
3.413696145299999
 20
6.479397991499999
 30
0.0
 11
2.521057128899999
 21
6.479397991499999
 31
0.0
 70
    32
  1
<>[]
 71
     5
 42
1.785278032799999
  3
STANDARD$0
100
AcDbAlignedDimension
 13
1.628418112499999
 23
5.979397991499999
 33
0.0
 14
3.413696145299999
 24
5.979397991499999
 34
0.0
 50
0.0000000000000114
100
AcDbRotatedDimension
1001
ACAD
1000
DSTYLE
1002
{
1070
    42
1040
0.06875
1070
    43
1040
0.418
1070
    44
1040
0.198
1070
    47
1040
0.0
1070
    48
1040
0.0
1070
    78
1070
     0
1070
   141
1040
0.099
1070
   170
1070
     1
1070
   272
1070
     4
1070
   284
1070
     0
1002
}
  0
DIMENSION
  5
4BE
330
200
100
AcDbEntity
  8
0
100
AcDbDimension
  2
*D3
 10
4.314347320193725
 20
5.5108940545
 30
0.0
 11
4.314347320193724
 21
5.772705078100001
 31
0.0
 70
    32
  1
<>[]
 71
     5
 42
0.5236220471999991
  3
STANDARD$0
100
AcDbAlignedDimension
 13
3.499965712658912
 23
6.034516101699999
 33
0.0
 14
3.499965712658912
 24
5.5108940545
 34
0.0
 50
90.00000000000003
100
AcDbRotatedDimension
1001
ACAD
1000
DSTYLE
1002
{
1070
    42
1040
0.06875
1070
    43
1040
0.418
1070
    44
1040
0.198
1070
    47
1040
0.0
1070
    48
1040
0.0
1070
    78
1070
     0
1070
   141
1040
0.099
1070
   170
1070
     1
1070
   272
1070
     4
1002
}
  0
DIMENSION
  5
508
102
{ACAD_XDICTIONARY
360
516
102
}
102
{ACAD_REACTORS
330
517
102
}
330
200
100
AcDbEntity
  8
0
100
AcDbDimension
  2
*D4
 10
0.631807535447038
 20
2.8787361205
 30
0.0
 11
0.6318075354470376
 21
3.4161376953
 31
0.0
 70
    32
  1
<>\P[]
 71
     5
 42
1.074803149599999
  3
STANDARD$0
100
AcDbAlignedDimension
 13
1.6332618533
 23
3.953539270099999
 33
0.0
 14
1.633261853299999
 24
2.8787361205
 34
0.0
 50
90.00000000000003
100
AcDbRotatedDimension
1001
ACAD
1000
DSTYLE
1002
{
1070
    42
1040
0.06875
1070
    43
1040
0.418
1070
    44
1040
0.198
1070
    47
1040
0.0
1070
    48
1040
0.0
1070
    78
1070
     0
1070
   141
1040
0.099
1070
   170
1070
     1
1070
   272
1070
     4
1070
   284
1070
     0
1002
}
  0
ENDSEC
  0
SECTION
  2
OBJECTS
  0
DICTIONARY
  5
C
330
0
100
AcDbDictionary
281
     1
  3
ACAD_COLOR
350
3B6
  3
ACAD_GROUP
350
D
  3
ACAD_LAYOUT
350
1A
  3
ACAD_MATERIAL
350
3B5
  3
ACAD_MLINESTYLE
350
17
  3
ACAD_PLOTSETTINGS
350
19
  3
ACAD_PLOTSTYLENAME
350
E
  3
ACAD_TABLESTYLE
350
3B7
  3
AcDbVariableDictionary
350
550
  3
AcmDictionary
350
414
  3
AMG
350
3BC
  3
AMGSNAPSETTINGS
350
46D
  0
DICTIONARY
  5
490
330
481
100
AcDbDictionary
280
     1
281
     1
  3
ACAD_DIMASSOC
360
491
  0
DICTIONARY
  5
516
330
508
100
AcDbDictionary
280
     1
281
     1
  3
ACAD_DIMASSOC
360
517
  0
DICTIONARY
  5
3B6
102
{ACAD_REACTORS
330
C
102
}
330
C
100
AcDbDictionary
281
     1
  0
DICTIONARY
  5
D
102
{ACAD_REACTORS
330
C
102
}
330
C
100
AcDbDictionary
281
     1
  0
DICTIONARY
  5
1A
102
{ACAD_REACTORS
330
C
102
}
330
C
100
AcDbDictionary
281
     1
  3
Layout1
350
3B2
  3
Model
350
3B1
  0
DICTIONARY
  5
3B5
102
{ACAD_REACTORS
330
C
102
}
330
C
100
AcDbDictionary
281
     1
  0
DICTIONARY
  5
17
102
{ACAD_REACTORS
330
C
102
}
330
C
100
AcDbDictionary
281
     1
  3
Standard
350
18
  0
DICTIONARY
  5
19
102
{ACAD_REACTORS
330
C
102
}
330
C
100
AcDbDictionary
281
     1
  0
ACDBDICTIONARYWDFLT
  5
E
102
{ACAD_REACTORS
330
C
102
}
330
C
100
AcDbDictionary
281
     1
  3
Normal
350
F
100
AcDbDictionaryWithDefault
340
F
  0
DICTIONARY
  5
3B7
102
{ACAD_REACTORS
330
C
102
}
330
C
100
AcDbDictionary
281
     1
  3
Standard
350
3B8
  0
DICTIONARY
  5
550
102
{ACAD_REACTORS
330
C
102
}
330
C
100
AcDbDictionary
281
     1
  3
CTABLESTYLE
350
551
  0
DICTIONARY
  5
414
102
{ACAD_REACTORS
330
C
102
}
330
C
100
AcDbDictionary
281
     1
  3
AcmStdDictionary
350
41F
  3
AMDTSECTSYM_ARROWCOLOR
350
43E
  0
DICTIONARY
  5
3BC
102
{ACAD_REACTORS
330
C
102
}
330
C
100
AcDbDictionary
281
     1
  0
DICTIONARY
  5
46D
102
{ACAD_REACTORS
330
C
102
}
330
C
100
AcDbDictionary
281
     1
  0
DIMASSOC
  5
491
102
{ACAD_REACTORS
330
490
102
}
330
490
100
AcDbDimAssoc
330
481
 90
        3
 70
     0
 71
     0
  1
AcDbOsnapPointRef
 72
    13
331
317
 73
     0
 91
        0
 40
0.0
 10
0.0
 20
0.0
 30
2.000000000000000E+50
 75
     0
  1
AcDbOsnapPointRef
 72
     1
331
328
 73
     0
 91
        0
 40
0.0
 10
0.0
 20
0.0
 30
2.000000000000000E+50
 75
     0
  0
DIMASSOC
  5
517
102
{ACAD_REACTORS
330
516
102
}
330
516
100
AcDbDimAssoc
330
508
 90
        1
 70
     0
 71
     0
  1
AcDbOsnapPointRef
 72
     1
331
2E8
 73
     0
 91
        0
 40
0.0
 10
0.0
 20
0.0
 30
2.000000000000000E+50
 75
     0
  0
LAYOUT
  5
3B2
102
{ACAD_REACTORS
330
1A
102
}
330
1A
100
AcDbPlotSettings
  1

  2
none_device
  4
ANSI_A_(11.00_x_8.50_Inches)
  6

 40
0.0
 41
0.0
 42
0.0
 43
0.0
 44
279.4
 45
215.9
 46
0.0
 47
0.0
 48
0.0
 49
0.0
140
0.0
141
0.0
142
1.0
143
1.0
 70
     0
 72
     0
 73
     0
 74
     0
  7

 75
     0
147
1.0
 76
     0
 77
     2
 78
   300
148
0.0
149
0.0
100
AcDbLayout
  1
Layout1
 70
     1
 71
     1
 10
0.0
 20
0.0
 11
12.0
 21
9.0
 12
0.0
 22
0.0
 32
0.0
 14
1.000000000000000E+20
 24
1.000000000000000E+20
 34
1.000000000000000E+20
 15
-1.000000000000000E+20
 25
-1.000000000000000E+20
 35
-1.000000000000000E+20
146
0.0
 13
0.0
 23
0.0
 33
0.0
 16
1.0
 26
0.0
 36
0.0
 17
0.0
 27
1.0
 37
0.0
 76
     0
330
201
  0
LAYOUT
  5
3B1
102
{ACAD_REACTORS
330
1A
102
}
330
1A
100
AcDbPlotSettings
  1

  2
none_device
  4
ANSI_A_(11.00_x_8.50_Inches)
  6

 40
0.0
 41
0.0
 42
0.0
 43
0.0
 44
279.4
 45
215.9
 46
0.0
 47
0.0
 48
0.0
 49
0.0
140
0.0
141
0.0
142
1.0
143
1.0
 70
  1024
 72
     0
 73
     0
 74
     0
  7

 75
     0
147
1.0
 76
     0
 77
     2
 78
   300
148
0.0
149
0.0
100
AcDbLayout
  1
Model
 70
     0
 71
     0
 10
0.0
 20
0.0
 11
11.0
 21
8.5
 12
0.0
 22
0.0
 32
0.0
 14
0.0
 24
0.0
 34
0.0
 15
0.0
 25
0.0
 35
0.0
146
0.0
 13
0.0
 23
0.0
 33
0.0
 16
1.0
 26
0.0
 36
0.0
 17
0.0
 27
1.0
 37
0.0
 76
     0
330
200
  0
MLINESTYLE
  5
18
102
{ACAD_REACTORS
330
17
102
}
330
17
100
AcDbMlineStyle
  2
STANDARD
 70
     0
  3

 62
   256
 51
90.0
 52
90.0
 71
     2
 49
0.5
 62
   256
  6
BYLAYER
 49
-0.5
 62
   256
  6
BYLAYER
  0
ACDBPLACEHOLDER
  5
F
102
{ACAD_REACTORS
330
E
102
}
330
E
  0
TABLESTYLE
  5
3B8
102
{ACAD_REACTORS
330
3B7
102
}
330
3B7
100
AcDbTableStyle
  3
Standard
 70
     0
 71
     0
 40
0.06
 41
0.06
280
     0
281
     0
  7
STANDARD
140
0.18
170
     2
 62
     0
 63
     7
283
     0
274
    -2
284
     1
 64
     0
275
    -2
285
     1
 65
     0
276
    -2
286
     1
 66
     0
277
    -2
287
     1
 67
     0
278
    -2
288
     1
 68
     0
279
    -2
289
     1
 69
     0
  7
STANDARD
140
0.25
170
     5
 62
     0
 63
     7
283
     0
274
    -2
284
     1
 64
     0
275
    -2
285
     1
 65
     0
276
    -2
286
     1
 66
     0
277
    -2
287
     1
 67
     0
278
    -2
288
     1
 68
     0
279
    -2
289
     1
 69
     0
  7
STANDARD
140
0.18
170
     5
 62
     0
 63
     7
283
     0
274
    -2
284
     1
 64
     0
275
    -2
285
     1
 65
     0
276
    -2
286
     1
 66
     0
277
    -2
287
     1
 67
     0
278
    -2
288
     1
 68
     0
279
    -2
289
     1
 69
     0
  0
DICTIONARYVAR
  5
551
102
{ACAD_REACTORS
330
550
102
}
330
550
100
DictionaryVariables
280
     0
  1
STANDARD
  0
DICTIONARY
  5
41F
102
{ACAD_REACTORS
330
414
102
}
330
414
100
AcDbDictionary
281
     1
  0
XRECORD
  5
43E
102
{ACAD_REACTORS
330
414
102
}
330
414
100
AcDbXrecord
280
     1
 90
-1023410169
  0
ENDSEC
  0
EOF
