  0
SECTION
  2
HEADER
  9
$ACADVER
  1
AC1014
  9
$ACADMAINTVER
 70
     9
  9
$DWGCODEPAGE
  3
ANSI_1252
  9
$INSBASE
 10
46.21319678099516
 20
1.185248691363639
 30
1.0
  9
$EXTMIN
 10
0.3516808355164418
 20
-69.12647404777849
 30
0.9924846521817213
  9
$EXTMAX
 10
90.42639356199032
 20
12.43658976647968
 30
46.8499996185
  9
$LIMMIN
 10
0.0
 20
0.0
  9
$LIMMAX
 10
12.0
 20
9.0
  9
$ORTHOMODE
 70
     1
  9
$REGENMODE
 70
     1
  9
$FILLMODE
 70
     1
  9
$QTEXTMODE
 70
     0
  9
$MIRRTEXT
 70
     1
  9
$DRAGMODE
 70
     2
  9
$LTSCALE
 40
1.0
  9
$OSMODE
 70
    37
  9
$ATTMODE
 70
     1
  9
$TEXTSIZE
 40
0.12
  9
$TRACEWID
 40
0.05
  9
$TEXTSTYLE
  7
STANDARD
  9
$CLAYER
  8
0
  9
$CELTYPE
  6
BYLAYER
  9
$CECOLOR
 62
   256
  9
$CELTSCALE
 40
1.0
  9
$DELOBJ
 70
     1
  9
$DISPSILH
 70
     0
  9
$DIMSCALE
 40
1.0
  9
$DIMASZ
 40
4.572
  9
$DIMEXO
 40
1.587499999999999
  9
$DIMDLI
 40
9.525
  9
$DIMRND
 40
0.0
  9
$DIMDLE
 40
0.0
  9
$DIMEXE
 40
4.572
  9
$DIMTP
 40
0.0
  9
$DIMTM
 40
0.0
  9
$DIMTXT
 40
4.572
  9
$DIMCEN
 40
2.286
  9
$DIMTSZ
 40
0.0
  9
$DIMTOL
 70
     0
  9
$DIMLIM
 70
     0
  9
$DIMTIH
 70
     0
  9
$DIMTOH
 70
     1
  9
$DIMSE1
 70
     0
  9
$DIMSE2
 70
     0
  9
$DIMTAD
 70
     0
  9
$DIMZIN
 70
     4
  9
$DIMBLK
  1

  9
$DIMASO
 70
     1
  9
$DIMSHO
 70
     1
  9
$DIMPOST
  1

  9
$DIMAPOST
  1

  9
$DIMALT
 70
     1
  9
$DIMALTD
 70
     6
  9
$DIMALTF
 40
0.03937
  9
$DIMLFAC
 40
1.0
  9
$DIMTOFL
 70
     0
  9
$DIMTVP
 40
0.0
  9
$DIMTIX
 70
     0
  9
$DIMSOXD
 70
     0
  9
$DIMSAH
 70
     0
  9
$DIMBLK1
  1

  9
$DIMBLK2
  1

  9
$DIMSTYLE
  2
ABECAD_3D
  9
$DIMCLRD
 70
     0
  9
$DIMCLRE
 70
     0
  9
$DIMCLRT
 70
     0
  9
$DIMTFAC
 40
1.5
  9
$DIMGAP
 40
2.286
  9
$DIMJUST
 70
     0
  9
$DIMSD1
 70
     0
  9
$DIMSD2
 70
     0
  9
$DIMTOLJ
 70
     1
  9
$DIMTZIN
 70
     4
  9
$DIMALTZ
 70
     4
  9
$DIMALTTZ
 70
     4
  9
$DIMFIT
 70
     5
  9
$DIMUPT
 70
     1
  9
$DIMUNIT
 70
     2
  9
$DIMDEC
 70
     2
  9
$DIMTDEC
 70
     2
  9
$DIMALTU
 70
     7
  9
$DIMALTTD
 70
     6
  9
$DIMTXSTY
  7
STANDARD
  9
$DIMAUNIT
 70
     0
  9
$LUNITS
 70
     2
  9
$LUPREC
 70
     4
  9
$SKETCHINC
 40
0.1
  9
$FILLETRAD
 40
0.0
  9
$AUNITS
 70
     0
  9
$AUPREC
 70
     0
  9
$MENU
  1
ACAD
  9
$ELEVATION
 40
0.0
  9
$PELEVATION
 40
0.0
  9
$THICKNESS
 40
0.0
  9
$LIMCHECK
 70
     0
  9
$BLIPMODE
 70
     0
  9
$CHAMFERA
 40
0.0
  9
$CHAMFERB
 40
0.0
  9
$CHAMFERC
 40
0.0
  9
$CHAMFERD
 40
0.0
  9
$SKPOLY
 70
     0
  9
$TDCREATE
 40
2451760.428845717
  9
$TDUPDATE
 40
2453137.551483414
  9
$TDINDWG
 40
0.2769550116
  9
$TDUSRTIMER
 40
0.2769550116
  9
$USRTIMER
 70
     1
  9
$ANGBASE
 50
0.0
  9
$ANGDIR
 70
     0
  9
$PDMODE
 70
     3
  9
$PDSIZE
 40
2.5
  9
$PLINEWID
 40
0.0
  9
$COORDS
 70
     1
  9
$SPLFRAME
 70
     1
  9
$SPLINETYPE
 70
     6
  9
$SPLINESEGS
 70
     8
  9
$ATTDIA
 70
     0
  9
$ATTREQ
 70
     1
  9
$HANDLING
 70
 22529
  9
$HANDSEED
  5
45CD9
  9
$SURFTAB1
 70
     6
  9
$SURFTAB2
 70
     6
  9
$SURFTYPE
 70
     6
  9
$SURFU
 70
     6
  9
$SURFV
 70
     6
  9
$UCSNAME
  2

  9
$UCSORG
 10
46.21319678099516
 20
1.185248691363639
 30
1.0
  9
$UCSXDIR
 10
1.0
 20
0.0
 30
0.0
  9
$UCSYDIR
 10
0.0
 20
1.0
 30
0.0
  9
$PUCSNAME
  2

  9
$PUCSORG
 10
0.0
 20
0.0
 30
0.0
  9
$PUCSXDIR
 10
1.0
 20
0.0
 30
0.0
  9
$PUCSYDIR
 10
0.0
 20
1.0
 30
0.0
  9
$USERI1
 70
     0
  9
$USERI2
 70
     0
  9
$USERI3
 70
     0
  9
$USERI4
 70
     0
  9
$USERI5
 70
     0
  9
$USERR1
 40
0.0
  9
$USERR2
 40
0.0
  9
$USERR3
 40
0.0
  9
$USERR4
 40
0.0
  9
$USERR5
 40
0.0
  9
$WORLDVIEW
 70
     1
  9
$SHADEDGE
 70
     3
  9
$SHADEDIF
 70
    70
  9
$TILEMODE
 70
     1
  9
$MAXACTVP
 70
    16
  9
$PINSBASE
 10
0.0
 20
0.0
 30
0.0
  9
$PLIMCHECK
 70
     0
  9
$PEXTMIN
 10
1.000000000000000E+20
 20
1.000000000000000E+20
 30
1.000000000000000E+20
  9
$PEXTMAX
 10
-1.000000000000000E+20
 20
-1.000000000000000E+20
 30
-1.000000000000000E+20
  9
$PLIMMIN
 10
0.0
 20
0.0
  9
$PLIMMAX
 10
12.0
 20
9.0
  9
$UNITMODE
 70
     0
  9
$VISRETAIN
 70
     0
  9
$PLINEGEN
 70
     0
  9
$PSLTSCALE
 70
     1
  9
$TREEDEPTH
 70
  3020
  9
$PICKSTYLE
 70
     1
  9
$CMLSTYLE
  2
STANDARD
  9
$CMLJUST
 70
     0
  9
$CMLSCALE
 40
1.0
  9
$PROXYGRAPHICS
 70
     1
  9
$MEASUREMENT
 70
     1
  0
ENDSEC
  0
SECTION
  2
CLASSES
  0
CLASS
  1
DICTIONARYVAR
  2
AcDbDictionaryVar
  3
AutoCAD 2000
 90
        0
280
     0
281
     0
  0
CLASS
  1
ACDBDICTIONARYWDFLT
  2
AcDbDictionaryWithDefault
  3
AutoCAD 2000
 90
        0
280
     0
281
     0
  0
CLASS
  1
ACDBPLACEHOLDER
  2
AcDbPlaceHolder
  3
AutoCAD 2000
 90
        0
280
     0
281
     0
  0
CLASS
  1
LAYOUT
  2
AcDbLayout
  3
AutoCAD 2000
 90
        0
280
     0
281
     0
  0
CLASS
  1
LONG_TRANSACTION
  2
AcDbLongTransaction
  3
AutoCAD 2000
 90
        0
280
     0
281
     0
  0
CLASS
  1
LWPOLYLINE
  2
AcDbPolyline
  3
AutoCAD 2000
 90
        0
280
     0
281
     1
  0
CLASS
  1
HATCH
  2
AcDbHatch
  3
AutoCAD 2000
 90
        0
280
     0
281
     1
  0
CLASS
  1
XRECORD
  2
AcDbXrecord
  3
AutoCAD 2000
 90
        0
280
     0
281
     0
  0
CLASS
  1
LONG_TRANSACTION
  2
AcDbLongTransaction
  3
AutoCAD 2000
 90
        0
280
     0
281
     0
  0
CLASS
  1
LWPOLYLINE
  2
AcDbPolyline
  3
AutoCAD 2000
 90
        0
280
     0
281
     1
  0
CLASS
  1
HATCH
  2
AcDbHatch
  3
AutoCAD 2000
 90
        0
280
     0
281
     1
  0
CLASS
  1
XRECORD
  2
AcDbXrecord
  3
AutoCAD 2000
 90
        0
280
     0
281
     0
  0
CLASS
  1
LONG_TRANSACTION
  2
AcDbLongTransaction
  3
AutoCAD 2000
 90
        0
280
     0
281
     0
  0
CLASS
  1
LWPOLYLINE
  2
AcDbPolyline
  3
AutoCAD 2000
 90
        0
280
     0
281
     1
  0
CLASS
  1
HATCH
  2
AcDbHatch
  3
AutoCAD 2000
 90
        0
280
     0
281
     1
  0
CLASS
  1
XRECORD
  2
AcDbXrecord
  3
AutoCAD 2000
 90
        0
280
     0
281
     0
  0
CLASS
  1
TABLESTYLE
  2
AcDbTableStyle
  3
ObjectDBX Classes
 90
     2047
280
     0
281
     0
  0
CLASS
  1
SORTENTSTABLE
  2
AcDbSortentsTable
  3
AutoCAD 2000
 90
        0
280
     0
281
     0
  0
CLASS
  1
ACAD_PROXY_OBJECT_WRAPPER
  2
AcDbProxyObjectWrapper
  3
AutoCAD 2000
 90
        0
280
     0
281
     0
  0
CLASS
  1
LONG_TRANSACTION
  2
AcDbLongTransaction
  3
AutoCAD 2000
 90
        0
280
     0
281
     0
  0
CLASS
  1
LWPOLYLINE
  2
AcDbPolyline
  3
AutoCAD 2000
 90
        0
280
     0
281
     1
  0
CLASS
  1
HATCH
  2
AcDbHatch
  3
AutoCAD 2000
 90
        0
280
     0
281
     1
  0
CLASS
  1
XRECORD
  2
AcDbXrecord
  3
AutoCAD 2000
 90
        0
280
     0
281
     0
  0
CLASS
  1
LONG_TRANSACTION
  2
AcDbLongTransaction
  3
AutoCAD 2000
 90
        0
280
     0
281
     0
  0
CLASS
  1
LWPOLYLINE
  2
AcDbPolyline
  3
AutoCAD 2000
 90
        0
280
     0
281
     1
  0
CLASS
  1
HATCH
  2
AcDbHatch
  3
AutoCAD 2000
 90
        0
280
     0
281
     1
  0
CLASS
  1
XRECORD
  2
AcDbXrecord
  3
AutoCAD 2000
 90
        0
280
     0
281
     0
  0
CLASS
  1
LONG_TRANSACTION
  2
AcDbLongTransaction
  3
AutoCAD 2000
 90
        0
280
     0
281
     0
  0
CLASS
  1
LWPOLYLINE
  2
AcDbPolyline
  3
AutoCAD 2000
 90
        0
280
     0
281
     1
  0
CLASS
  1
HATCH
  2
AcDbHatch
  3
AutoCAD 2000
 90
        0
280
     0
281
     1
  0
CLASS
  1
XRECORD
  2
AcDbXrecord
  3
AutoCAD 2000
 90
        0
280
     0
281
     0
  0
ENDSEC
  0
SECTION
  2
TABLES
  0
TABLE
  2
VPORT
  5
458C7
330
0
100
AcDbSymbolTable
 70
     2
  0
VPORT
  5
45CB5
330
458C7
100
AcDbSymbolTableRecord
100
AcDbViewportTableRecord
  2
*ACTIVE
 70
     0
 10
0.0
 20
0.0
 11
1.0
 21
1.0
 12
4.437608007833091
 22
-0.5225449943427165
 13
0.0
 23
0.0
 14
0.25
 24
0.25
 15
0.25
 25
0.25
 16
0.0
 26
0.0
 36
1.0
 17
40.95151313520049
 27
-27.82239695640289
 37
23.02469327043559
 40
82.35868540852999
 41
1.830097087378641
 42
50.0
 43
0.0
 44
0.0
 50
0.0
 51
0.0
 71
     0
 72
 20000
 73
     1
 74
     1
 75
     0
 76
     0
 77
     0
 78
     0
  0
ENDTAB
  0
TABLE
  2
LTYPE
  5
458C4
330
0
100
AcDbSymbolTable
 70
     1
  0
LTYPE
  5
458D0
330
458C4
100
AcDbSymbolTableRecord
100
AcDbLinetypeTableRecord
  2
BYBLOCK
 70
     0
  3

 72
    65
 73
     0
 40
0.0
  0
LTYPE
  5
458D1
330
458C4
100
AcDbSymbolTableRecord
100
AcDbLinetypeTableRecord
  2
BYLAYER
 70
     0
  3

 72
    65
 73
     0
 40
0.0
  0
LTYPE
  5
458D2
330
458C4
100
AcDbSymbolTableRecord
100
AcDbLinetypeTableRecord
  2
CONTINUOUS
 70
     0
  3
Solid line
 72
    65
 73
     0
 40
0.0
  0
ENDTAB
  0
TABLE
  2
LAYER
  5
458C1
330
0
100
AcDbSymbolTable
 70
     8
  0
LAYER
  5
458CD
330
458C1
100
AcDbSymbolTableRecord
100
AcDbLayerTableRecord
  2
0
 70
     0
 62
     7
  6
CONTINUOUS
  0
LAYER
  5
458EA
330
458C1
100
AcDbSymbolTableRecord
100
AcDbLayerTableRecord
  2
DIMS-MTG-HOLES
 70
     0
 62
     1
  6
CONTINUOUS
  0
LAYER
  5
458EB
330
458C1
100
AcDbSymbolTableRecord
100
AcDbLayerTableRecord
  2
ATTRIBUTES
 70
     0
 62
     7
  6
CONTINUOUS
  0
LAYER
  5
4593F
330
458C1
100
AcDbSymbolTableRecord
100
AcDbLayerTableRecord
  2
AREA1
 70
     0
 62
    -7
  6
CONTINUOUS
  0
LAYER
  5
45946
330
458C1
100
AcDbSymbolTableRecord
100
AcDbLayerTableRecord
  2
DEFPOINTS
 70
     0
 62
    -7
  6
CONTINUOUS
  0
LAYER
  5
45972
330
458C1
100
AcDbSymbolTableRecord
100
AcDbLayerTableRecord
  2
SCALE
 70
     0
 62
    -7
  6
CONTINUOUS
  0
LAYER
  5
4597A
330
458C1
100
AcDbSymbolTableRecord
100
AcDbLayerTableRecord
  2
SNAP_POINTS
 70
     0
 62
    -1
  6
CONTINUOUS
  0
LAYER
  5
459D2
330
458C1
100
AcDbSymbolTableRecord
100
AcDbLayerTableRecord
  2
AREA2
 70
     0
 62
    -7
  6
CONTINUOUS
  0
ENDTAB
  0
TABLE
  2
STYLE
  5
458C2
330
0
100
AcDbSymbolTable
 70
     1
  0
STYLE
  5
458CE
330
458C2
100
AcDbSymbolTableRecord
100
AcDbTextStyleTableRecord
  2
STANDARD
 70
     0
 40
0.0
 41
1.0
 50
0.0
 71
     0
 42
0.12
  3
txt
  4

  0
ENDTAB
  0
TABLE
  2
VIEW
  5
458C5
330
0
100
AcDbSymbolTable
 70
     0
  0
ENDTAB
  0
TABLE
  2
UCS
  5
458C6
330
0
100
AcDbSymbolTable
 70
     0
  0
ENDTAB
  0
TABLE
  2
APPID
  5
458C8
330
0
100
AcDbSymbolTable
 70
     1
  0
APPID
  5
458CF
330
458C8
100
AcDbSymbolTableRecord
100
AcDbRegAppTableRecord
  2
ACAD
 70
     0
  0
ENDTAB
  0
TABLE
  2
DIMSTYLE
  5
458C9
330
0
100
AcDbSymbolTable
 70
     2
  0
DIMSTYLE
105
458F6
102
{ACAD_REACTORS
330
45A51
330
45A69
330
45A93
102
}
330
458C9
100
AcDbSymbolTableRecord
100
AcDbDimStyleTableRecord
  2
ABECAD_3D
 70
     0
  3

  4

  5

  6

  7

 40
1.0
 41
4.572
 42
1.587499999999999
 43
9.525
 44
4.572
 45
0.0
 46
0.0
 47
0.0
 48
0.0
140
4.572
141
2.286
142
0.0
143
0.03937
144
1.0
145
0.0
146
1.5
147
2.286
 71
     0
 72
     0
 73
     0
 74
     1
 75
     0
 76
     0
 77
     0
 78
     4
170
     1
171
     6
172
     0
173
     0
174
     0
175
     0
176
     0
177
     0
178
     0
270
     2
271
     2
272
     2
273
     7
274
     6
340
458CE
275
     0
280
     0
281
     0
282
     0
283
     1
284
     4
285
     4
286
     4
287
     5
288
     1
  0
DIMSTYLE
105
459E0
330
458C9
100
AcDbSymbolTableRecord
100
AcDbDimStyleTableRecord
  2
STANDARD
 70
     0
  3

  4

  5

  6

  7

 40
1.0
 41
0.18
 42
0.0625
 43
0.38
 44
0.18
 45
0.0
 46
0.0
 47
0.0
 48
0.0
140
0.18
141
0.09
142
0.0
143
25.4
144
1.0
145
0.0
146
1.0
147
0.09
 71
     0
 72
     0
 73
     1
 74
     1
 75
     0
 76
     0
 77
     0
 78
     0
170
     0
171
     2
172
     0
173
     0
174
     0
175
     0
176
     0
177
     0
178
     0
270
     2
271
     4
272
     4
273
     2
274
     2
340
458CE
275
     0
280
     0
281
     0
282
     0
283
     1
284
     0
285
     0
286
     0
287
     3
288
     0
  0
ENDTAB
  0
TABLE
  2
BLOCK_RECORD
  5
458C0
330
0
100
AcDbSymbolTable
 70
     3
  0
BLOCK_RECORD
  5
458D6
102
{ACAD_XDICTIONARY
360
45930
102
}
330
458C0
100
AcDbSymbolTableRecord
100
AcDbBlockTableRecord
  2
*MODEL_SPACE
  0
BLOCK_RECORD
  5
458D3
102
{ACAD_XDICTIONARY
360
4592E
102
}
330
458C0
100
AcDbSymbolTableRecord
100
AcDbBlockTableRecord
  2
*PAPER_SPACE
  0
BLOCK_RECORD
  5
45A52
330
458C0
100
AcDbSymbolTableRecord
100
AcDbBlockTableRecord
  2
*D0
  0
BLOCK_RECORD
  5
45A6A
330
458C0
100
AcDbSymbolTableRecord
100
AcDbBlockTableRecord
  2
*D1
  0
BLOCK_RECORD
  5
45A94
330
458C0
100
AcDbSymbolTableRecord
100
AcDbBlockTableRecord
  2
*D2
  0
ENDTAB
  0
ENDSEC
  0
SECTION
  2
BLOCKS
  0
BLOCK
  5
458DF
330
458D6
100
AcDbEntity
  8
0
100
AcDbBlockBegin
  2
*MODEL_SPACE
 70
     0
 10
0.0
 20
0.0
 30
0.0
  3
*MODEL_SPACE
  1

  0
ENDBLK
  5
458E0
330
458D6
100
AcDbEntity
  8
0
100
AcDbBlockEnd
  0
BLOCK
  5
458DD
330
458D3
100
AcDbEntity
 67
     1
  8
0
100
AcDbBlockBegin
  2
*PAPER_SPACE
 70
     0
 10
0.0
 20
0.0
 30
0.0
  3
*PAPER_SPACE
  1

  0
ENDBLK
  5
458DE
330
458D3
100
AcDbEntity
 67
     1
  8
0
100
AcDbBlockEnd
  0
BLOCK
  5
45A5D
330
45A52
100
AcDbEntity
  8
0
100
AcDbBlockBegin
  2
*D0
 70
     1
 10
0.0
 20
0.0
 30
0.0
  3
*D0
  1

  0
LINE
  5
45BED
330
45A52
100
AcDbEntity
  8
AREA1
 62
     0
100
AcDbLine
 10
44.21319678099517
 20
2.772748691363639
 30
0.0
 11
44.21319678099517
 21
9.52129660210441
 31
0.0
  0
LINE
  5
45BEE
330
45A52
100
AcDbEntity
  8
AREA1
 62
     0
100
AcDbLine
 10
46.21319678099516
 20
2.772748691363639
 30
0.0
 11
46.21319678099516
 21
9.52129660210441
 31
0.0
  0
LINE
  5
45BEF
330
45A52
100
AcDbEntity
  8
AREA1
 62
     0
100
AcDbLine
 10
42.21319678099518
 20
4.949296602104411
 30
0.0
 11
40.21319678099517
 21
4.949296602104411
 31
0.0
  0
LINE
  5
45BF0
330
45A52
100
AcDbEntity
  8
AREA1
 62
     0
100
AcDbLine
 10
48.21319678099516
 20
4.949296602104411
 30
0.0
 11
50.21319678099517
 21
4.949296602104411
 31
0.0
  0
MTEXT
  5
45BF1
330
45A52
100
AcDbEntity
  8
AREA1
 62
     0
100
AcDbMText
 10
46.31672327639459
 20
11.43658976647968
 30
0.0
 40
2.0
 41
0.0
 71
     5
 72
     1
  1
\A1;2.00 [5/64]
1001
ACAD
1000
MTEXTBEGIN
1070
    73
1070
     1
1070
    44
1040
1.0
1070
    74
1070
     0
1000
MTEXTEND
  0
SOLID
  5
45BF2
330
45A52
100
AcDbEntity
  8
AREA1
 62
     0
100
AcDbTrace
 10
42.21319678099518
 20
5.282629935437744
 30
0.0
 11
42.21319678099518
 21
4.615963268771078
 31
0.0
 12
44.21319678099517
 22
4.949296602104411
 32
0.0
 13
44.21319678099517
 23
4.949296602104411
 33
0.0
  0
SOLID
  5
45BF3
330
45A52
100
AcDbEntity
  8
AREA1
 62
     0
100
AcDbTrace
 10
48.21319678099516
 20
5.282629935437744
 30
0.0
 11
48.21319678099516
 21
4.615963268771078
 31
0.0
 12
46.21319678099516
 22
4.949296602104411
 32
0.0
 13
46.21319678099516
 23
4.949296602104411
 33
0.0
  0
POINT
  5
45BF4
330
45A52
100
AcDbEntity
  8
DEFPOINTS
 62
     0
100
AcDbPoint
 10
44.21319678099517
 20
1.185248691363639
 30
45.84999961850001
  0
POINT
  5
45BF5
330
45A52
100
AcDbEntity
  8
DEFPOINTS
 62
     0
100
AcDbPoint
 10
46.21319678099516
 20
1.185248691363639
 30
1.0
  0
POINT
  5
45BF6
330
45A52
100
AcDbEntity
  8
DEFPOINTS
 62
     0
100
AcDbPoint
 10
46.21319678099516
 20
4.949296602104411
 30
0.0
  0
ENDBLK
  5
45A5E
330
45A52
100
AcDbEntity
  8
0
100
AcDbBlockEnd
  0
BLOCK
  5
45A75
330
45A6A
100
AcDbEntity
  8
0
100
AcDbBlockBegin
  2
*D1
 70
     1
 10
0.0
 20
0.0
 30
0.0
  3
*D1
  1

  0
LINE
  5
45BCF
330
45A6A
100
AcDbEntity
  8
AREA1
 62
     0
100
AcDbLine
 10
47.80069678099517
 20
1.185248691363639
 30
0.0
 11
55.2019700641661
 21
1.185248691363637
 31
0.0
  0
LINE
  5
45BD0
330
45A6A
100
AcDbEntity
  8
AREA1
 62
     0
100
AcDbLine
 10
47.80069678099517
 20
-60.80225870063636
 30
0.0
 11
55.20197006416609
 21
-60.80225870063637
 31
0.0
  0
LINE
  5
45BD1
330
45A6A
100
AcDbEntity
  8
AREA1
 62
     0
100
AcDbLine
 10
50.6299700641661
 20
-0.8147513086363614
 30
0.0
 11
50.6299700641661
 21
-15.8558383379697
 31
0.0
  0
LINE
  5
45BD2
330
45A6A
100
AcDbEntity
  8
AREA1
 62
     0
100
AcDbLine
 10
50.62997006416608
 20
-58.80225870063637
 30
0.0
 11
50.62997006416609
 21
-43.76117167130304
 31
0.0
  0
MTEXT
  5
45BD3
330
45A6A
100
AcDbEntity
  8
AREA1
 62
     0
100
AcDbMText
 10
50.62997006416609
 20
-29.80850500463636
 30
0.0
 40
2.0
 41
0.0
 71
     5
 72
     1
  1
\A1;61.99 [2 7/16]
 11
0.0000000000000001
 21
1.0
 31
0.0
1001
ACAD
1000
MTEXTBEGIN
1070
    73
1070
     1
1070
    44
1040
1.0
1070
    74
1070
     0
1000
MTEXTEND
  0
SOLID
  5
45BD4
330
45A6A
100
AcDbEntity
  8
AREA1
 62
     0
100
AcDbTrace
 10
50.29663673083277
 20
-0.8147513086363614
 30
0.0
 11
50.96330339749943
 21
-0.8147513086363616
 31
0.0
 12
50.6299700641661
 22
1.185248691363638
 32
0.0
 13
50.6299700641661
 23
1.185248691363638
 33
0.0
  0
SOLID
  5
45BD5
330
45A6A
100
AcDbEntity
  8
AREA1
 62
     0
100
AcDbTrace
 10
50.29663673083275
 20
-58.80225870063637
 30
0.0
 11
50.96330339749942
 21
-58.80225870063637
 31
0.0
 12
50.62997006416608
 22
-60.80225870063637
 32
0.0
 13
50.62997006416608
 23
-60.80225870063637
 33
0.0
  0
POINT
  5
45BD6
330
45A6A
100
AcDbEntity
  8
DEFPOINTS
 62
     0
100
AcDbPoint
 10
46.21319678099517
 20
1.185248691363639
 30
45.84999961850001
  0
POINT
  5
45BD7
330
45A6A
100
AcDbEntity
  8
DEFPOINTS
 62
     0
100
AcDbPoint
 10
46.21319678099516
 20
-60.80225870063636
 30
45.84999961850001
  0
POINT
  5
45BD8
330
45A6A
100
AcDbEntity
  8
DEFPOINTS
 62
     0
100
AcDbPoint
 10
50.62997006416608
 20
-60.80225870063637
 30
0.0
  0
ENDBLK
  5
45A76
330
45A6A
100
AcDbEntity
  8
0
100
AcDbBlockEnd
  0
BLOCK
  5
45A9E
330
45A94
100
AcDbEntity
  8
0
100
AcDbBlockBegin
  2
*D2
 70
     1
 10
0.0
 20
0.0
 30
0.0
  3
*D2
  1

  0
LINE
  5
45BD9
330
45A94
100
AcDbEntity
  8
AREA2
 62
     0
100
AcDbLine
 10
62.38975870063637
 20
45.84999961850001
 30
0.0
 11
69.12647404777849
 21
45.84999961850001
 31
0.0
  0
LINE
  5
45BDA
330
45A94
100
AcDbEntity
  8
AREA2
 62
     0
100
AcDbLine
 10
62.38975870063637
 20
1.0
 30
0.0
 11
69.12647404777847
 21
0.9999999999999982
 31
0.0
  0
LINE
  5
45BDB
330
45A94
100
AcDbEntity
  8
AREA2
 62
     0
100
AcDbLine
 10
64.55447404777848
 20
43.84999961850001
 30
0.0
 11
64.55447404777848
 21
38.71099980924999
 31
0.0
  0
LINE
  5
45BDC
330
45A94
100
AcDbEntity
  8
AREA2
 62
     0
100
AcDbLine
 10
64.55447404777847
 20
2.999999999999999
 30
0.0
 11
64.55447404777847
 21
8.138999809249996
 31
0.0
  0
MTEXT
  5
45BDD
330
45A94
100
AcDbEntity
  8
AREA2
 62
     0
100
AcDbMText
 10
64.55447404777848
 20
23.42499980925
 30
0.0
 40
2.0
 41
0.0
 71
     5
 72
     1
  1
\A1;44.85 [1 49/64]
 11
0.0000000000000001
 21
1.0
 31
0.0
1001
ACAD
1000
MTEXTBEGIN
1070
    73
1070
     1
1070
    44
1040
1.0
1070
    74
1070
     0
1000
MTEXTEND
  0
SOLID
  5
45BDE
330
45A94
100
AcDbEntity
  8
AREA2
 62
     0
100
AcDbTrace
 10
64.22114071444515
 20
43.84999961850001
 30
0.0
 11
64.88780738111181
 21
43.84999961850001
 31
0.0
 12
64.55447404777848
 22
45.84999961850001
 32
0.0
 13
64.55447404777848
 23
45.84999961850001
 33
0.0
  0
SOLID
  5
45BDF
330
45A94
100
AcDbEntity
  8
AREA2
 62
     0
100
AcDbTrace
 10
64.22114071444514
 20
2.999999999999999
 30
0.0
 11
64.8878073811118
 21
2.999999999999999
 31
0.0
 12
64.55447404777847
 22
0.9999999999999994
 32
0.0
 13
64.55447404777847
 23
0.9999999999999994
 33
0.0
  0
POINT
  5
45BE0
330
45A94
100
AcDbEntity
  8
DEFPOINTS
 62
     0
100
AcDbPoint
 10
60.80225870063636
 20
45.84999961850001
 30
-44.21319678099515
  0
POINT
  5
45BE1
330
45A94
100
AcDbEntity
  8
DEFPOINTS
 62
     0
100
AcDbPoint
 10
60.80225870063636
 20
1.0
 30
-44.21319678099515
  0
POINT
  5
45BE2
330
45A94
100
AcDbEntity
  8
DEFPOINTS
 62
     0
100
AcDbPoint
 10
64.55447404777847
 20
0.9999999999999994
 30
0.0
  0
ENDBLK
  5
45A9F
330
45A94
100
AcDbEntity
  8
0
100
AcDbBlockEnd
  0
ENDSEC
  0
SECTION
  2
ENTITIES
  0
ATTDEF
  5
1
330
458D6
100
AcDbEntity
  8
ATTRIBUTES
100
AcDbText
 10
44.50168064660353
 20
-26.53046983415413
 30
0.9924846521817213
 40
0.11999952000048
  1
ALLEN-BRADLEY
100
AcDbAttributeDefinition
  3
MANUFACTURER NAME?
  2
AC_VND_LABEL
 70
     1
  0
ATTDEF
  5
2
330
458D6
100
AcDbEntity
  8
ATTRIBUTES
100
AcDbText
 10
44.50168064660353
 20
-26.78046883415513
 30
0.9924846521817213
 40
0.11999952000048
  1
1492-EBL4
100
AcDbAttributeDefinition
  3
CATALOG NUMBER?
  2
AC_PART_NO
 70
     1
  0
ATTDEF
  5
3
330
458D6
100
AcDbEntity
  8
ATTRIBUTES
100
AcDbText
 10
44.50168064660353
 20
-27.03046783415613
 30
0.9924846521817213
 40
0.11999952000048
  1
End Barrier
100
AcDbAttributeDefinition
  3
PART DESCRIPTION?
  2
AC_DESCRIPTION
 70
     1
  0
ATTDEF
  5
4
330
458D6
100
AcDbEntity
  8
ATTRIBUTES
100
AcDbText
 10
44.50168064660353
 20
-27.28046683415713
 30
0.9924846521817213
 40
0.11999952000048
  1

100
AcDbAttributeDefinition
  3
DEVICE ID?
  2
DEVICE_ID
 70
     1
  0
ATTDEF
  5
5
330
458D6
100
AcDbEntity
  8
ATTRIBUTES
100
AcDbText
 10
44.50168064660353
 20
-27.53046583415813
 30
0.9924846521817213
 40
0.11999952000048
  1

100
AcDbAttributeDefinition
  3
CUSTOMER PART NUMBER?
  2
AC_CPART_NO
 70
     1
  0
ATTDEF
  5
6
330
458D6
100
AcDbEntity
  8
ATTRIBUTES
100
AcDbText
 10
44.50168064660353
 20
-27.78046483415913
 30
0.9924846521817213
 40
0.11999952000048
  1

100
AcDbAttributeDefinition
  3
CUSTOMER NOTE?
  2
AC_NOTE
 70
     1
  0
ATTDEF
  5
7
330
458D6
100
AcDbEntity
  8
ATTRIBUTES
100
AcDbText
 10
44.50168064660353
 20
-28.03046383416013
 30
0.9924846521817213
 40
0.11999952000048
  1

100
AcDbAttributeDefinition
  3
FASTENER DATA?
  2
FASTENER
 70
     1
  0
ATTDEF
  5
8
330
458D6
100
AcDbEntity
  8
ATTRIBUTES
100
AcDbText
 10
44.50168064660353
 20
-28.28046283416113
 30
0.9924846521817213
 40
0.11999952000048
  1
MM
100
AcDbAttributeDefinition
  3
UNIT OF SCALE?
  2
AC_SCALE_UNIT
 70
     1
  0
ATTDEF
  5
9
330
458D6
100
AcDbEntity
  8
ATTRIBUTES
100
AcDbText
 10
44.50168064660353
 20
-28.53046183416213
 30
0.9924846521817213
 40
0.11999952000048
  1
0
100
AcDbAttributeDefinition
  3
VIEW CODE?
  2
AC_VIEW_CODE
 70
     1
  0
LINE
  5
45967
330
458D6
100
AcDbEntity
  8
SCALE
100
AcDbLine
 10
2.057631564008595
 20
-20.58353988219963
 30
1.0
 11
27.45763156400859
 21
-20.58353988219963
 31
1.0
  0
LINE
  5
45968
330
458D6
100
AcDbEntity
  8
SCALE
100
AcDbLine
 10
27.45763156400859
 20
-23.12353988219963
 30
1.0
 11
27.45763156400859
 21
-18.0435398821996
 31
1.0
  0
LINE
  5
4596A
330
458D6
100
AcDbEntity
  8
SCALE
100
AcDbLine
 10
2.057631564008595
 20
-23.12353988219963
 30
1.0
 11
2.057631564008595
 21
-18.0435398821996
 31
1.0
  0
LINE
  5
4596B
330
458D6
100
AcDbEntity
  8
SCALE
100
AcDbLine
 10
2.05763156400868
 20
-15.3971161449064
 30
1.0
 11
2.05763156400868
 21
-10.31711614490641
 31
1.0
  0
LINE
  5
4596C
330
458D6
100
AcDbEntity
  8
SCALE
100
AcDbLine
 10
12.05761156400868
 20
-15.3971161449064
 30
1.0
 11
12.05761156400868
 21
-10.31711614490641
 31
1.0
  0
LINE
  5
4596D
330
458D6
100
AcDbEntity
  8
SCALE
100
AcDbLine
 10
2.05763156400868
 20
-12.8571161449064
 30
1.0
 11
12.05761156400868
 21
-12.8571161449064
 31
1.0
  0
TEXT
  5
4596E
330
458D6
100
AcDbEntity
  8
SCALE
100
AcDbText
 10
3.566954304782541
 20
-11.6953291549439
 30
1.0
 40
1.587499999999999
  1
10 mm
100
AcDbText
  0
TEXT
  5
4596F
330
458D6
100
AcDbEntity
  8
SCALE
100
AcDbText
 10
9.65552429709659
 20
-18.82970301972032
 30
1.0
 40
1.587499999999999
  1
[1 Inch]
100
AcDbText
  0
TEXT
  5
45970
330
458D6
100
AcDbEntity
  8
SCALE
100
AcDbText
 10
1.863715644137954
 20
-7.323578530054533
 30
1.0
 40
1.587499999999999
  1
SCALE:
100
AcDbText
  0
3DSOLID
  5
45A50
330
458D6
100
AcDbEntity
  8
0
100
AcDbModelerGeometry
 70
     1
  1
noi nnk n o         
  1
=0;& {n {m {rn {rn |
  1
-:9@)+r3(;r>++-6= {rn {rn {rn {o {l {k |
  1
3*2/ {j {rn {i {o |
  1
-:961:2:1+ {rn o o o o oqnghjihjnhninliflm lo o o m o |
  1
):-+:'@+:2/3>+: {rn l o n g |
  1
-:9@)+r3(;r>++-6= {rn {rn {rn {m {l {k |
  1
,7:33 {h {rn {rn {g {m |
  1
-:9@)+r3(;r>++-6= {rn {rn {rn {i {l {k |
  1
9><: {f {no {nn {i {rn {nm 90-(>-; ,6183: |
  1
92:,7r3(;r>++-6= {rn {nl {rn {g |
  1
9><: {nk {nj {ni {i {rn {nh -:):-,:; ,6183: |
  1
300/ {rn {rn {ng {g |
  1
/3>1:r,*-9><: {rn kkqmnlnfihgoffjnjj rilqfonilkohomliljj rnqmkmkfffgofmkfffj rn nqglifofjlohlljijf:roni mqmmokkiokfmjolnln:roni rnqglifofjlohlljijf:roni rn o o V V V V |
  1
-:9@)+r3(;r>++-6= {rn {rn {f {g {l {k |
  1
92:,7r3(;r>++-6= {rn {nf {rn {no |
  1
9><: {mo {mn {mm {i {rn {ml 90-(>-; ,6183: |
  1
300/ {rn {rn {mk {no |
  1
/3>1:r,*-9><: {rn kiqmnlnfihgoffjnjj rilqfonilkohomliljj rnqmkmkfffgofmkffff rn nqglifofjlohlljijf:roni mqmmokkiokfmjolnln:roni rnqglifofjlohlljijf:roni rn o o V V V V |
  1
<0:;8: {rn {mj {mi {mh {mg o {nn {rn |
  1
-:9@)+r3(;r>++-6= {rn {rn {nk {no {l {k |
  1
92:,7r3(;r>++-6= {rn {mf {rn {nj |
  1
9><: {lo {ln {lm {i {rn {ll -:):-,:; ,6183: |
  1
300/ {rn {rn {lk {nj |
  1
/3>1:r,*-9><: {rn kiqlnlnfihgoffjnji rilqfonilkohomliljj n rmqmmokkiokfmjolnln:roni kqohghjgjnolkhjfmf:rolm rn n rnqglifofjlohlljijf:roni rmqmmokkiokfmjolnln:roni o V V V V |
  1
<0:;8: {rn {lj {li {lh {lg n {ni {rn |
  1
<0:;8: {rn {lf {ng {ko {kn n {nn {rn |
  1
<0:;8: {rn {ng {lf {lk {km o {nn {rn |
  1
<0:;8: {rn {kl {kk {ng {mg n {kj {rn |
  1
:;8: {ki {kh {kg {ng {kf o |
  1
-:9@)+r3(;r>++-6= {rn {rn {mo {nj {l {k |
  1
92:,7r3(;r>++-6= {rn {jo {rn {mn |
  1
9><: {jn {jm {jl {i {rn {jk -:):-,:; ,6183: |
  1
300/ {rn {rn {jj {mn |
  1
/3>1:r,*-9><: {rn kiqlnlnfihgoffjnhh nqngjmkgifnlililfg kgqofmkffjffkmkffh rnqglifofjlohlljijf:roni rn o n rnqglifofjlohlljijf:roni rmqmmokkiokfmjolnln:roni o V V V V |
  1
<0:;8: {rn {ji {jh {mi {km n {mm {rn |
  1
<0:;8: {rn {jg {mk {jf {io o {ni {rn |
  1
<0:;8: {rn {mk {jg {in {im n {ni {rn |
  1
<0:;8: {rn {jh {ji {mk {lg o {mm {rn |
  1
:;8: {il {ik {ij {mk {ii o |
  1
<0:;8: {rn {mi {mj {ih {ig n {nn {rn |
  1
<0:;8: {rn {if {ho {mj {kn o {jl {rn |
  1
:;8: {hn {hm {kg {mj {hl o |
  1
:;8: {hk {hj {kh {mi {hi o |
  1
<0:;8: {rn {in {mh {jh {hh o {kj {rn |
  1
<0:;8: {rn {mh {in {if {hg n {kj {rn |
  1
300/ {rn {rn {mh {jm |
  1
/+36,+r3(;r>++-6= {rn {rn {rn {mg |
  1
):-+:' {rn {mg {hf |
  1
):-+:' {rn {mg {go |
  1
,+->687+r<*-): {rn kkqmnlnfihgoffjnjj rioqgommjghooililij nqoooooooooooooook mqmmokkiokfmjolnln:roni rkqohghjgjnolkhjfmf:rolm n V V |
  1
-:9@)+r3(;r>++-6= {rn {rn {lo {mn {l {k |
  1
92:,7r3(;r>++-6= {rn {gn {rn {ln |
  1
9><: {gm {rn {kj {i {rn {gl 90-(>-; ,6183: |
  1
300/ {rn {rn {if {ln |
  1
/3>1:r,*-9><: {rn kiqlnlnfihgoffjnil rilqfonilkohomliljj kjqgkffffingjooooh rmqmmokkiokfmjolnln:roni kqohghjgjnolkhjfmf:rolm rn n rnqglifofjlohlljijf:roni rmqmmokkiokfmjolnln:roni o V V V V |
  1
<0:;8: {rn {jf {ih {ho {gk o {lm {rn |
  1
<0:;8: {rn {lh {lk {gj {gi o {mm {rn |
  1
<0:;8: {rn {lk {lh {kl {hh n {mm {rn |
  1
<0:;8: {rn {li {lj {gh {gg o {ni {rn |
  1
<0:;8: {rn {gj {jj {lj {io n {lm {rn |
  1
:;8: {gf {ik {fo {lj {fn o |
  1
<0:;8: {rn {kk {kl {li {im o {kj {rn |
  1
:;8: {fm {ij {fl {li {fk o |
  1
/+36,+r3(;r>++-6= {rn {rn {rn {lg |
  1
):-+:' {rn {lg {fj |
  1
):-+:' {rn {lg {fi |
  1
,+->687+r<*-): {rn kiqmnlnfihgoffjnif nqngjmkgifnlililfg n rnqglifofjlohlljijf:roni rn o V V |
  1
<0:;8: {rn {jj {gj {lf {ig o {lm {rn |
  1
:;8: {fh {hj {hm {lf {fg o |
  1
<0:;8: {rn {gh {ko {kk {hg o {jl {rn |
  1
<0:;8: {rn {ko {gh {jj {gk n {jl {rn |
  1
/+36,+r3(;r>++-6= {rn {rn {rn {kn |
  1
):-+:' {rn {kn {ff |
  1
,+->687+r<*-): {rn kkqmnlnfihgoffjnhi nqngjmkgifnlililfg kjqgkffffingjooooh rnqglifofjlohlljijf:roni rn o V V |
  1
/+36,+r3(;r>++-6= {rn {rn {rn {km |
  1
):-+:' {rn {ig {noo |
  1
,+->687+r<*-): {rn kkqmnlnfihgoffjnif nqngjmkgifnlililfg nqoooooooooooooook rnqglifofjlohlljijf:roni rn o V V |
  1
:;8: {non {kh {ij {jh {nom o |
  1
:;8: {nol {kg {fl {if {nok o |
  1
/061+ {rn kkqmnlnfihgoffjnjj rioqgommjghooililij nqoooooooooooooook |
  1
/061+ {rn kkqmnlnfihgoffjnim rioqgommjghooililij kjqgkffffingjooooh |
  1
-:9@)+r3(;r>++-6= {rn {rn {jn {ln {l {k |
  1
92:,7r3(;r>++-6= {rn {noj {rn {jm |
  1
/3>1:r,*-9><: {rn kiqlnlnfihgoffjnil rioqgommjghooililij kgqofmkffjffkmkffh rnqglifofjlohlljijf:roni rn o n rnqglifofjlohlljijf:roni rmqmmokkiokfmjolnln:roni o V V V V |
  1
:;8: {noi {hm {fo {jj {noh o |
  1
<0:;8: {rn {ih {jf {ji {gi n {lm {rn |
  1
:;8: {nog {hj {ik {ji {nof o |
  1
<0:;8: {rn {ho {if {jg {gg n {jl {rn |
  1
:;8: {nno {fo {fl {jg {nnn o |
  1
/+36,+r3(;r>++-6= {rn {rn {rn {io |
  1
):-+:' {rn {io {nnm |
  1
,+->687+r<*-): {rn kiqmnlnfihgoffjnif nqngjmkgifnlililfg n mqmmokkiokfmjolnln:roni rkqohghjgjnolkhjfmf:rolm n V V |
  1
/+36,+r3(;r>++-6= {rn {rn {rn {im |
  1
):-+:' {rn {gg {nnl |
  1
,+->687+r<*-): {rn kiqmnlnfihgoffjnjj rioqgommjghooililij n mqmmokkiokfmjolnln:roni rkqohghjgjnolkhjfmf:rolm n V V |
  1
/061+ {rn kiqmnlnfihgoffjnif nqngjmkgifnlililfg n |
  1
/061+ {rn kiqmnlnfihgoffjnjj rioqgommjghooililij n |
  1
/+36,+r3(;r>++-6= {rn {rn {rn {ig |
  1
,+->687+r<*-): {rn kkqmnlnfihgoffjnif nqngjmkgifnlililfg nqoooooooooooooook mqmmokkiokfmjolnln:roni rkqohghjgjnolkhjfmf:rolm n V V |
  1
/061+ {rn kkqmnlnfihgoffjnhi nqngjmkgifnlililfg kjqgkffffingjooooh |
  1
/061+ {rn kkqmnlnfihgoffjnif nqngjmkgifnlililfg nqoooooooooooooook |
  1
/+36,+r3(;r>++-6= {rn {rn {rn {hh |
  1
,+->687+r<*-): {rn kkqmnlnfihgoffjnjj rioqgommjghooililij nqoooooooooooooook n rnqglifofjlohlljijf:roni rmqmmokkiokfmjolnln:roni V V |
  1
/+36,+r3(;r>++-6= {rn {rn {rn {hg |
  1
,+->687+r<*-): {rn kkqmnlnfihgoffjnim rioqgommjghooililij kjqgkffffingjooooh n rnqglifofjlohlljijf:roni rmqmmokkiokfmjolnln:roni V V |
  1
-:9@)+r3(;r>++-6= {rn {rn {gm {jm {l {k |
  1
/+36,+r3(;r>++-6= {rn {rn {rn {gk |
  1
,+->687+r<*-): {rn kkqmnlnfihgoffjnhi nqngjmkgifnlililfg kjqgkffffingjooooh n rnqglifofjlohlljijf:roni rmqmmokkiokfmjolnln:roni V V |
  1
/+36,+r3(;r>++-6= {rn {rn {rn {gi |
  1
,+->687+r<*-): {rn kkqmnlnfihgoffjnif nqngjmkgifnlililfg nqoooooooooooooook n rnqglifofjlohlljijf:roni rmqmmokkiokfmjolnln:roni V V |
  1
/+36,+r3(;r>++-6= {rn {rn {rn {gg |
  1
,+->687+r<*-): {rn kiqmnlnfihgoffjnhi nqngjmkgifnlililfg kjqgkffffingjooooh rnqglifofjlohlljijf:roni rn o V V |
  1
/061+ {rn kiqmnlnfihgoffjnhi nqngjmkgifnlililfg kjqgkffffingjooooh |
  1
/061+ {rn kiqmnlnfihgoffjnif rioqgommjghooililij kjqgkffffingjooooh |
  0
DIMENSION
  5
45A51
330
458D6
100
AcDbEntity
  8
AREA1
100
AcDbDimension
  2
*D0
 10
46.21319678099516
 20
4.949296602104411
 30
1.0
 11
46.31672327639459
 21
11.43658976647968
 31
1.0
 70
   160
  3
ABECAD_3D
100
AcDbAlignedDimension
 13
44.21319678099517
 23
1.185248691363639
 33
46.8499996185
 14
46.21319678099516
 24
1.185248691363639
 34
2.0
100
AcDbRotatedDimension
1001
ACAD
1000
DSTYLE
1002
{
1070
   140
1040
2.0
1070
    41
1040
2.0
1002
}
  0
DIMENSION
  5
45A69
330
458D6
100
AcDbEntity
  8
AREA1
100
AcDbDimension
  2
*D1
 10
50.62997006416608
 20
-60.80225870063637
 30
1.0
 11
50.62997006416609
 21
-29.80850500463636
 31
1.0
 70
   160
  3
ABECAD_3D
100
AcDbAlignedDimension
 13
46.21319678099517
 23
1.185248691363639
 33
46.8499996185
 14
46.21319678099516
 24
-60.80225870063636
 34
46.8499996185
 50
90.0
100
AcDbRotatedDimension
1001
ACAD
1000
DSTYLE
1002
{
1070
   140
1040
2.0
1070
    41
1040
2.0
1002
}
  0
DIMENSION
  5
45A93
330
458D6
100
AcDbEntity
  8
AREA2
100
AcDbDimension
  2
*D2
 10
46.21319678099516
 20
-64.55447404777847
 30
0.9999999999999994
 11
64.55447404777848
 21
23.42499980925
 31
-46.21319678099516
 70
   160
210
-1.0
220
0.0
230
0.0
  3
ABECAD_3D
100
AcDbAlignedDimension
 13
90.42639356199032
 23
-60.80225870063636
 33
45.84999961850001
 14
90.42639356199032
 24
-60.80225870063636
 34
1.0
 50
90.0
100
AcDbRotatedDimension
1001
ACAD
1000
DSTYLE
1002
{
1070
   140
1040
2.0
1070
    41
1040
2.0
1002
}
  0
POINT
  5
45BF8
330
458D6
100
AcDbEntity
  8
SNAP_POINTS
100
AcDbPoint
 10
46.21319678099516
 20
1.185248691363639
 30
1.0
  0
LWPOLYLINE
  5
45C05
330
458D6
100
AcDbEntity
  8
SCALE
100
AcDbPolyline
 90
        4
 70
     1
 43
0.0
 38
1.0
 10
0.3516808355164418
 20
-4.651468115317229
 10
29.19665285188253
 20
-4.651468115317229
 10
29.19665285188253
 20
-26.0283511114788
 10
0.3516808355164418
 20
-26.0283511114788
  0
ENDSEC
  0
SECTION
  2
OBJECTS
  0
DICTIONARY
  5
458CB
330
0
100
AcDbDictionary
  3
ACAD_COLOR
350
459D8
  3
ACAD_GROUP
350
458CC
  3
ACAD_LAYOUT
350
458FB
  3
ACAD_MATERIAL
350
459D7
  3
ACAD_MLINESTYLE
350
458D9
  3
ACAD_PLOTSETTINGS
350
458FC
  3
ACAD_PLOTSTYLENAME
350
458F9
  3
ACAD_TABLESTYLE
350
45B93
  3
ACDBHEADERROUNDTRIPXREC
350
45CB6
  3
ACDBVARIABLEDICTIONARY
350
458E1
  3
AUXHDRRNDTRIPDATA
350
45C32
  3
BNS_VARIABLES
350
45BF9
  3
DWGPROPS
350
45C10
  0
DICTIONARY
  5
45930
330
458D6
100
AcDbDictionary
280
     1
  3
ACAD_LAYOUTSELFREF
360
45CD8
  3
ACAD_SORTENTS
360
45C04
  0
DICTIONARY
  5
4592E
330
458D3
100
AcDbDictionary
280
     1
  3
ACAD_LAYOUTSELFREF
360
45CD7
  0
DICTIONARY
  5
459D8
102
{ACAD_REACTORS
330
458CB
102
}
330
458CB
100
AcDbDictionary
  0
DICTIONARY
  5
458CC
102
{ACAD_REACTORS
330
458CB
102
}
330
458CB
100
AcDbDictionary
  0
DICTIONARY
  5
458FB
102
{ACAD_REACTORS
330
458CB
102
}
330
458CB
100
AcDbDictionary
  0
DICTIONARY
  5
459D7
102
{ACAD_REACTORS
330
458CB
102
}
330
458CB
100
AcDbDictionary
  0
DICTIONARY
  5
458D9
102
{ACAD_REACTORS
330
458CB
102
}
330
458CB
100
AcDbDictionary
  3
STANDARD
350
458DA
  0
DICTIONARY
  5
458FC
102
{ACAD_REACTORS
330
458CB
102
}
330
458CB
100
AcDbDictionary
  0
ACDBDICTIONARYWDFLT
  5
458F9
102
{ACAD_REACTORS
330
458CB
102
}
330
458CB
100
AcDbDictionary
281
     1
  3
Normal
350
458FA
100
AcDbDictionaryWithDefault
340
458FA
  0
DICTIONARY
  5
45B93
102
{ACAD_REACTORS
330
458CB
102
}
330
458CB
100
AcDbDictionary
  3
STANDARD
350
45B94
  0
DICTIONARY
  5
45CB6
102
{ACAD_REACTORS
330
458CB
102
}
330
458CB
100
AcDbDictionary
  3
CEPSNTYPE
350
45CC0
  3
DIMSTYLEDATA
350
45CC4
  3
FINGERPRINTGUID
350
45CC1
  3
HYPERLINKBASE
350
45CB9
  3
INSUNITS
350
45CBF
  3
LAYOUTDICT
350
45CBB
  3
LWETCUNION
350
45CBE
  3
PLOTSETDICT
350
45CBC
  3
PLOTSTYLNAMDICT
350
45CBD
  3
PSVPSCALE
350
45CC3
  3
PUCSBASE
350
45CC7
  3
PUCSORGBACK
350
45CCD
  3
PUCSORGBOTTOM
350
45CC9
  3
PUCSORGFRONT
350
45CCC
  3
PUCSORGLEFT
350
45CCA
  3
PUCSORGRIGHT
350
45CCB
  3
PUCSORGTOP
350
45CC8
  3
PUCSORTHOREF
350
45CC5
  3
PUCSORTHOVIEW
350
45CC6
  3
STYLESHEET
350
45CBA
  3
TSTACKALIGN
350
45CB7
  3
TSTACKSIZE
350
45CB8
  3
UCSBASE
350
45CD0
  3
UCSORGBACK
350
45CD6
  3
UCSORGBOTTOM
350
45CD2
  3
UCSORGFRONT
350
45CD5
  3
UCSORGLEFT
350
45CD3
  3
UCSORGRIGHT
350
45CD4
  3
UCSORGTOP
350
45CD1
  3
UCSORTHOREF
350
45CCE
  3
UCSORTHOVIEW
350
45CCF
  3
VERSIONGUID
350
45CC2
  0
DICTIONARY
  5
458E1
102
{ACAD_REACTORS
330
458CB
102
}
330
458CB
100
AcDbDictionary
  3
CTABLESTYLE
350
45C07
  3
DIMADEC
350
458E2
  3
DIMASSOC
350
45B06
  3
PROJECTNAME
350
45B07
  0
XRECORD
  5
45C32
102
{ACAD_REACTORS
330
458CB
102
}
330
458CB
100
AcDbXrecord
310
64000000000000000B000000190027000100090000000000150008001500080005009308050093080000000009000000000002000000F27E000000000A00000000000000000000000B00000000000000000000000000000000000000000000008AD7B714
  0
DICTIONARY
  5
45BF9
102
{ACAD_REACTORS
330
458CB
102
}
330
458CB
100
AcDbDictionary
  3
ACET-OVERKILL-FUZZ
350
45BFA
  3
ACET-OVERKILL-NO-ENDTOEND
350
45BFD
  3
ACET-OVERKILL-NO-PARTIAL
350
45BFC
  3
ACET-OVERKILL-NO-PLINES
350
45BFB
  0
XRECORD
  5
45C10
102
{ACAD_REACTORS
330
458CB
102
}
330
458CB
100
AcDbXrecord
  1
DWGPROPS COOKIE
  2

  3

  4

  6

  7

  8
jphassel
  9

300
=
301
=
302
=
303
=
304
=
305
=
306
=
307
=
308
=
309
=
 40
0.2769477083333333
 41
2451760.428845717
 42
2453115.665711343
  1

 90
        0
  0
XRECORD
  5
45CD8
102
{ACAD_REACTORS
330
45930
102
}
330
45930
100
AcDbXrecord
340
458D6
  0
SORTENTSTABLE
  5
45C04
102
{ACAD_REACTORS
330
45930
102
}
330
45930
100
AcDbSortentsTable
330
458D6
331
45A51
  5
45C01
331
1
  5
1
331
45C05
  5
45A51
331
45968
  5
45968
331
4596E
  5
4596E
331
4596B
  5
4596B
331
7
  5
7
331
4
  5
4
331
45A93
  5
45C03
331
4596C
  5
4596C
331
45A69
  5
45C02
331
4596F
  5
4596F
331
8
  5
8
331
5
  5
5
331
2
  5
2
331
3
  5
3
331
6
  5
6
331
9
  5
9
331
4596A
  5
4596A
331
4596D
  5
4596D
331
45970
  5
45970
331
45BF8
  5
45C05
331
45967
  5
45967
331
45A50
  5
45C00
  0
XRECORD
  5
45CD7
102
{ACAD_REACTORS
330
4592E
102
}
330
4592E
100
AcDbXrecord
340
458D3
  0
MLINESTYLE
  5
458DA
102
{ACAD_REACTORS
330
458D9
102
}
330
458D9
100
AcDbMlineStyle
  2
STANDARD
 70
     0
  3

 62
   256
 51
90.0
 52
90.0
 71
     2
 49
0.5
 62
   256
  6
BYLAYER
 49
-0.5
 62
   256
  6
BYLAYER
  0
ACDBPLACEHOLDER
  5
458FA
102
{ACAD_REACTORS
330
458F9
102
}
330
458F9
100
AcDbPlaceHolder
280
     0
  0
ACAD_PROXY_OBJECT
  5
45B94
102
{ACAD_REACTORS
330
45B93
102
}
330
45B93
100
AcDbProxyObject
 90
      499
 91
      518
 93
     1849
310
4214DD185B99185C992420000000000000F83F0000000000003E0FC00000000000004901028000000C1008070000C3001FDFF8000000C1003FBFF000000182007F7FE00000030400FEFFC00000060801FDFF8000000C1003FBFF000000182000000000000000C2020B0000001820100E000186003FBFF000000182007F7FE0
310
0000030400FEFFC00000060801FDFF8000000C1003FBFF000000182007F7FE0000003040000000000000012404160000003040201C00030C007F7FE00000030400FEFFC00000060801FDFF8000000C1003FBFF000000182007F7FE00000030400FEFFC000000608000
340
458CE
340
458CE
340
458CE
 94
        0
1001
ACAD
1000
AcRTDxfName
1000
TABLESTYLE
1000
AcadProxyRoundTripData
1071
      516
1071
  2555929
1070
     0
  0
XRECORD
  5
45CC0
102
{ACAD_REACTORS
330
45CB6
102
}
330
45CB6
100
AcDbXrecord
 90
        0
  0
XRECORD
  5
45CC4
102
{ACAD_REACTORS
330
45CB6
102
}
330
45CB6
100
AcDbXrecord
1000
DSTYLE
1002
{
1070
   276
 70
     2
1070
   279
 70
     2
1070
   289
 70
     2
1002
}
  0
XRECORD
  5
45CC1
102
{ACAD_REACTORS
330
45CB6
102
}
330
45CB6
100
AcDbXrecord
  1
{6E0CF4B8-225E-11D4-A150-00A0CC3303EC}
  0
XRECORD
  5
45CB9
102
{ACAD_REACTORS
330
45CB6
102
}
330
45CB6
100
AcDbXrecord
  1

  0
XRECORD
  5
45CBF
102
{ACAD_REACTORS
330
45CB6
102
}
330
45CB6
100
AcDbXrecord
 90
        0
  0
XRECORD
  5
45CBB
102
{ACAD_REACTORS
330
45CB6
102
}
330
45CB6
100
AcDbXrecord
340
458FB
  0
XRECORD
  5
45CBE
102
{ACAD_REACTORS
330
45CB6
102
}
330
45CB6
100
AcDbXrecord
 90
    14877
  0
XRECORD
  5
45CBC
102
{ACAD_REACTORS
330
45CB6
102
}
330
45CB6
100
AcDbXrecord
340
458FC
  0
XRECORD
  5
45CBD
102
{ACAD_REACTORS
330
45CB6
102
}
330
45CB6
100
AcDbXrecord
340
458F9
  0
XRECORD
  5
45CC3
102
{ACAD_REACTORS
330
45CB6
102
}
330
45CB6
100
AcDbXrecord
 40
0.0
  0
XRECORD
  5
45CC7
102
{ACAD_REACTORS
330
45CB6
102
}
330
45CB6
100
AcDbXrecord
340
0
  0
XRECORD
  5
45CCD
102
{ACAD_REACTORS
330
45CB6
102
}
330
45CB6
100
AcDbXrecord
 10
0.0
 20
0.0
 30
0.0
  0
XRECORD
  5
45CC9
102
{ACAD_REACTORS
330
45CB6
102
}
330
45CB6
100
AcDbXrecord
 10
0.0
 20
0.0
 30
0.0
  0
XRECORD
  5
45CCC
102
{ACAD_REACTORS
330
45CB6
102
}
330
45CB6
100
AcDbXrecord
 10
0.0
 20
0.0
 30
0.0
  0
XRECORD
  5
45CCA
102
{ACAD_REACTORS
330
45CB6
102
}
330
45CB6
100
AcDbXrecord
 10
0.0
 20
0.0
 30
0.0
  0
XRECORD
  5
45CCB
102
{ACAD_REACTORS
330
45CB6
102
}
330
45CB6
100
AcDbXrecord
 10
0.0
 20
0.0
 30
0.0
  0
XRECORD
  5
45CC8
102
{ACAD_REACTORS
330
45CB6
102
}
330
45CB6
100
AcDbXrecord
 10
0.0
 20
0.0
 30
0.0
  0
XRECORD
  5
45CC5
102
{ACAD_REACTORS
330
45CB6
102
}
330
45CB6
100
AcDbXrecord
340
0
  0
XRECORD
  5
45CC6
102
{ACAD_REACTORS
330
45CB6
102
}
330
45CB6
100
AcDbXrecord
 70
     0
  0
XRECORD
  5
45CBA
102
{ACAD_REACTORS
330
45CB6
102
}
330
45CB6
100
AcDbXrecord
  1

  0
XRECORD
  5
45CB7
102
{ACAD_REACTORS
330
45CB6
102
}
330
45CB6
100
AcDbXrecord
 90
        1
  0
XRECORD
  5
45CB8
102
{ACAD_REACTORS
330
45CB6
102
}
330
45CB6
100
AcDbXrecord
 90
       70
  0
XRECORD
  5
45CD0
102
{ACAD_REACTORS
330
45CB6
102
}
330
45CB6
100
AcDbXrecord
340
0
  0
XRECORD
  5
45CD6
102
{ACAD_REACTORS
330
45CB6
102
}
330
45CB6
100
AcDbXrecord
 10
0.0
 20
0.0
 30
0.0
  0
XRECORD
  5
45CD2
102
{ACAD_REACTORS
330
45CB6
102
}
330
45CB6
100
AcDbXrecord
 10
0.0
 20
0.0
 30
0.0
  0
XRECORD
  5
45CD5
102
{ACAD_REACTORS
330
45CB6
102
}
330
45CB6
100
AcDbXrecord
 10
0.0
 20
0.0
 30
0.0
  0
XRECORD
  5
45CD3
102
{ACAD_REACTORS
330
45CB6
102
}
330
45CB6
100
AcDbXrecord
 10
0.0
 20
0.0
 30
0.0
  0
XRECORD
  5
45CD4
102
{ACAD_REACTORS
330
45CB6
102
}
330
45CB6
100
AcDbXrecord
 10
44.57293710473379
 20
-10.57239502465733
 30
3.810000000000003
  0
XRECORD
  5
45CD1
102
{ACAD_REACTORS
330
45CB6
102
}
330
45CB6
100
AcDbXrecord
 10
46.21319678099516
 20
1.185248691363639
 30
1.0
  0
XRECORD
  5
45CCE
102
{ACAD_REACTORS
330
45CB6
102
}
330
45CB6
100
AcDbXrecord
340
0
  0
XRECORD
  5
45CCF
102
{ACAD_REACTORS
330
45CB6
102
}
330
45CB6
100
AcDbXrecord
 70
     1
  0
XRECORD
  5
45CC2
102
{ACAD_REACTORS
330
45CB6
102
}
330
45CB6
100
AcDbXrecord
  1
{365EE478-A41A-4C6B-A1F4-3B29F73A198E}
  0
DICTIONARYVAR
  5
45C07
102
{ACAD_REACTORS
330
458E1
102
}
330
458E1
100
DictionaryVariables
280
     0
  1
STANDARD
  0
DICTIONARYVAR
  5
458E2
102
{ACAD_REACTORS
330
458E1
102
}
330
458E1
100
DictionaryVariables
280
     0
  1
0
  0
DICTIONARYVAR
  5
45B06
102
{ACAD_REACTORS
330
458E1
102
}
330
458E1
100
DictionaryVariables
280
     0
  1
1
  0
DICTIONARYVAR
  5
45B07
102
{ACAD_REACTORS
330
458E1
102
}
330
458E1
100
DictionaryVariables
280
     0
  1

  0
XRECORD
  5
45BFA
102
{ACAD_REACTORS
330
45BF9
102
}
330
45BF9
100
AcDbXrecord
 40
0.000001
  0
XRECORD
  5
45BFD
102
{ACAD_REACTORS
330
45BF9
102
}
330
45BF9
100
AcDbXrecord
 70
     0
  0
XRECORD
  5
45BFC
102
{ACAD_REACTORS
330
45BF9
102
}
330
45BF9
100
AcDbXrecord
 70
     0
  0
XRECORD
  5
45BFB
102
{ACAD_REACTORS
330
45BF9
102
}
330
45BF9
100
AcDbXrecord
 70
     0
  0
ENDSEC
  0
EOF
