  0
SECTION
  2
HEADER
  9
$ACADVER
  1
AC1014
  9
$ACADMAINTVER
 70
     8
  9
$DWGCODEPAGE
  3
ANSI_1252
  9
$INSBASE
 10
0.0
 20
0.0
 30
0.0
  9
$EXTMIN
 10
-0.765303
 20
-3.172783
 30
0.0
  9
$EXTMAX
 10
1.840128
 20
1.808948
 30
3.332
  9
$LIMMIN
 10
0.0
 20
0.0
  9
$LIMMAX
 10
12.0
 20
9.0
  9
$ORTHOMODE
 70
     0
  9
$REGENMODE
 70
     1
  9
$FILLMODE
 70
     1
  9
$QTEXTMODE
 70
     0
  9
$MIRRTEXT
 70
     1
  9
$DRAGMODE
 70
     2
  9
$LTSCALE
 40
1.0
  9
$OSMODE
 70
    37
  9
$ATTMODE
 70
     1
  9
$TEXTSIZE
 40
0.12
  9
$TRACEWID
 40
0.05
  9
$TEXTSTYLE
  7
STANDARD
  9
$CLAYER
  8
0
  9
$CELTYPE
  6
BYLAYER
  9
$CECOLOR
 62
   256
  9
$CELTSCALE
 40
1.0
  9
$DELOBJ
 70
     1
  9
$DISPSILH
 70
     0
  9
$DIMSCALE
 40
1.0
  9
$DIMASZ
 40
0.18
  9
$DIMEXO
 40
0.0625
  9
$DIMDLI
 40
0.375
  9
$DIMRND
 40
0.0
  9
$DIMDLE
 40
0.0
  9
$DIMEXE
 40
0.18
  9
$DIMTP
 40
0.0
  9
$DIMTM
 40
0.0
  9
$DIMTXT
 40
0.14
  9
$DIMCEN
 40
0.09
  9
$DIMTSZ
 40
0.0
  9
$DIMTOL
 70
     0
  9
$DIMLIM
 70
     0
  9
$DIMTIH
 70
     0
  9
$DIMTOH
 70
     1
  9
$DIMSE1
 70
     0
  9
$DIMSE2
 70
     0
  9
$DIMTAD
 70
     0
  9
$DIMZIN
 70
     4
  9
$DIMBLK
  1

  9
$DIMASO
 70
     1
  9
$DIMSHO
 70
     1
  9
$DIMPOST
  1

  9
$DIMAPOST
  1

  9
$DIMALT
 70
     1
  9
$DIMALTD
 70
     2
  9
$DIMALTF
 40
25.4
  9
$DIMLFAC
 40
1.0
  9
$DIMTOFL
 70
     0
  9
$DIMTVP
 40
0.0
  9
$DIMTIX
 70
     0
  9
$DIMSOXD
 70
     0
  9
$DIMSAH
 70
     0
  9
$DIMBLK1
  1

  9
$DIMBLK2
  1

  9
$DIMSTYLE
  2
ABECAD_3D
  9
$DIMCLRD
 70
     0
  9
$DIMCLRE
 70
     0
  9
$DIMCLRT
 70
     0
  9
$DIMTFAC
 40
1.5
  9
$DIMGAP
 40
0.09
  9
$DIMJUST
 70
     0
  9
$DIMSD1
 70
     0
  9
$DIMSD2
 70
     0
  9
$DIMTOLJ
 70
     1
  9
$DIMTZIN
 70
     4
  9
$DIMALTZ
 70
     4
  9
$DIMALTTZ
 70
     4
  9
$DIMFIT
 70
     5
  9
$DIMUPT
 70
     1
  9
$DIMUNIT
 70
     7
  9
$DIMDEC
 70
     6
  9
$DIMTDEC
 70
     6
  9
$DIMALTU
 70
     2
  9
$DIMALTTD
 70
     2
  9
$DIMTXSTY
  7
STANDARD
  9
$DIMAUNIT
 70
     0
  9
$LUNITS
 70
     2
  9
$LUPREC
 70
     4
  9
$SKETCHINC
 40
0.1
  9
$FILLETRAD
 40
0.0
  9
$AUNITS
 70
     0
  9
$AUPREC
 70
     0
  9
$MENU
  1
ACAD
  9
$ELEVATION
 40
0.0
  9
$PELEVATION
 40
0.0
  9
$THICKNESS
 40
0.0
  9
$LIMCHECK
 70
     0
  9
$BLIPMODE
 70
     0
  9
$CHAMFERA
 40
0.0
  9
$CHAMFERB
 40
0.0
  9
$CHAMFERC
 40
0.0
  9
$CHAMFERD
 40
0.0
  9
$SKPOLY
 70
     0
  9
$TDCREATE
 40
2451726.438389120
  9
$TDUPDATE
 40
2452010.489818981
  9
$TDINDWG
 40
0.6498033565
  9
$TDUSRTIMER
 40
0.6498033565
  9
$USRTIMER
 70
     1
  9
$ANGBASE
 50
0.0
  9
$ANGDIR
 70
     0
  9
$PDMODE
 70
     3
  9
$PDSIZE
 40
0.09
  9
$PLINEWID
 40
0.0
  9
$COORDS
 70
     1
  9
$SPLFRAME
 70
     1
  9
$SPLINETYPE
 70
     6
  9
$SPLINESEGS
 70
     8
  9
$ATTDIA
 70
     0
  9
$ATTREQ
 70
     1
  9
$HANDLING
 70
     1
  9
$HANDSEED
  5
6060B
  9
$SURFTAB1
 70
     6
  9
$SURFTAB2
 70
     6
  9
$SURFTYPE
 70
     6
  9
$SURFU
 70
     6
  9
$SURFV
 70
     6
  9
$UCSNAME
  2

  9
$UCSORG
 10
0.0
 20
0.0
 30
0.0
  9
$UCSXDIR
 10
1.0
 20
0.0
 30
0.0
  9
$UCSYDIR
 10
0.0
 20
1.0
 30
0.0
  9
$PUCSNAME
  2

  9
$PUCSORG
 10
0.0
 20
0.0
 30
0.0
  9
$PUCSXDIR
 10
1.0
 20
0.0
 30
0.0
  9
$PUCSYDIR
 10
0.0
 20
1.0
 30
0.0
  9
$USERI1
 70
     0
  9
$USERI2
 70
     0
  9
$USERI3
 70
     0
  9
$USERI4
 70
     0
  9
$USERI5
 70
     0
  9
$USERR1
 40
0.0
  9
$USERR2
 40
0.0
  9
$USERR3
 40
0.0
  9
$USERR4
 40
0.0
  9
$USERR5
 40
0.0
  9
$WORLDVIEW
 70
     1
  9
$SHADEDGE
 70
     3
  9
$SHADEDIF
 70
    70
  9
$TILEMODE
 70
     1
  9
$MAXACTVP
 70
    16
  9
$PINSBASE
 10
0.0
 20
0.0
 30
0.0
  9
$PLIMCHECK
 70
     0
  9
$PEXTMIN
 10
1.05
 20
0.8
 30
0.0
  9
$PEXTMAX
 10
9.45
 20
7.2
 30
0.0
  9
$PLIMMIN
 10
-0.25
 20
-0.25
  9
$PLIMMAX
 10
10.75
 20
8.25
  9
$UNITMODE
 70
     0
  9
$VISRETAIN
 70
     0
  9
$PLINEGEN
 70
     0
  9
$PSLTSCALE
 70
     1
  9
$TREEDEPTH
 70
  3020
  9
$PICKSTYLE
 70
     1
  9
$CMLSTYLE
  2
STANDARD
  9
$CMLJUST
 70
     0
  9
$CMLSCALE
 40
1.0
  9
$PROXYGRAPHICS
 70
     1
  9
$MEASUREMENT
 70
     0
  0
ENDSEC
  0
SECTION
  2
CLASSES
  0
CLASS
  1
DICTIONARYVAR
  2
AcDbDictionaryVar
  3
"AutoCAD"
 90
        0
280
     0
281
     0
  0
CLASS
  1
ACDBDICTIONARYWDFLT
  2
AcDbDictionaryWithDefault
  3
AutoCAD 2000
 90
        0
280
     0
281
     0
  0
CLASS
  1
ACDBPLACEHOLDER
  2
AcDbPlaceHolder
  3
AutoCAD 2000
 90
        0
280
     0
281
     0
  0
CLASS
  1
LAYOUT
  2
AcDbLayout
  3
AutoCAD 2000
 90
        0
280
     0
281
     0
  0
CLASS
  1
LONG_TRANSACTION
  2
AcDbLongTransaction
  3
AutoCAD 2000
 90
        0
280
     0
281
     0
  0
CLASS
  1
LWPOLYLINE
  2
AcDbPolyline
  3
"AutoCAD"
 90
        0
280
     0
281
     1
  0
CLASS
  1
HATCH
  2
AcDbHatch
  3
"ACAD_SEDONA"
 90
        0
280
     0
281
     1
  0
CLASS
  1
XRECORD
  2
AcDbXrecord
  3
"<Built In>"
 90
        0
280
     0
281
     0
  0
CLASS
  1
LONG_TRANSACTION
  2
AcDbLongTransaction
  3
AutoCAD 2000
 90
        0
280
     0
281
     0
  0
CLASS
  1
LWPOLYLINE
  2
AcDbPolyline
  3
"AutoCAD"
 90
        0
280
     0
281
     1
  0
CLASS
  1
HATCH
  2
AcDbHatch
  3
"ACAD_SEDONA"
 90
        0
280
     0
281
     1
  0
CLASS
  1
XRECORD
  2
AcDbXrecord
  3
"<Built In>"
 90
        0
280
     0
281
     0
  0
CLASS
  1
LONG_TRANSACTION
  2
AcDbLongTransaction
  3
AutoCAD 2000
 90
        0
280
     0
281
     0
  0
CLASS
  1
LWPOLYLINE
  2
AcDbPolyline
  3
"AutoCAD"
 90
        0
280
     0
281
     1
  0
CLASS
  1
HATCH
  2
AcDbHatch
  3
"ACAD_SEDONA"
 90
        0
280
     0
281
     1
  0
CLASS
  1
XRECORD
  2
AcDbXrecord
  3
"<Built In>"
 90
        0
280
     0
281
     0
  0
CLASS
  1
LONG_TRANSACTION
  2
AcDbLongTransaction
  3
AutoCAD 2000
 90
        0
280
     0
281
     0
  0
CLASS
  1
LWPOLYLINE
  2
AcDbPolyline
  3
"AutoCAD"
 90
        0
280
     0
281
     1
  0
CLASS
  1
HATCH
  2
AcDbHatch
  3
"ACAD_SEDONA"
 90
        0
280
     0
281
     1
  0
CLASS
  1
XRECORD
  2
AcDbXrecord
  3
"<Built In>"
 90
        0
280
     0
281
     0
  0
CLASS
  1
LONG_TRANSACTION
  2
AcDbLongTransaction
  3
AutoCAD 2000
 90
        0
280
     0
281
     0
  0
CLASS
  1
LWPOLYLINE
  2
AcDbPolyline
  3
"AutoCAD"
 90
        0
280
     0
281
     1
  0
CLASS
  1
HATCH
  2
AcDbHatch
  3
"ACAD_SEDONA"
 90
        0
280
     0
281
     1
  0
CLASS
  1
XRECORD
  2
AcDbXrecord
  3
"<Built In>"
 90
        0
280
     0
281
     0
  0
CLASS
  1
LONG_TRANSACTION
  2
AcDbLongTransaction
  3
AutoCAD 2000
 90
        0
280
     0
281
     0
  0
CLASS
  1
LWPOLYLINE
  2
AcDbPolyline
  3
"AutoCAD"
 90
        0
280
     0
281
     1
  0
CLASS
  1
HATCH
  2
AcDbHatch
  3
"ACAD_SEDONA"
 90
        0
280
     0
281
     1
  0
CLASS
  1
XRECORD
  2
AcDbXrecord
  3
"<Built In>"
 90
        0
280
     0
281
     0
  0
CLASS
  1
LONG_TRANSACTION
  2
AcDbLongTransaction
  3
AutoCAD 2000
 90
        0
280
     0
281
     0
  0
CLASS
  1
LWPOLYLINE
  2
AcDbPolyline
  3
"AutoCAD"
 90
        0
280
     0
281
     1
  0
CLASS
  1
HATCH
  2
AcDbHatch
  3
"ACAD_SEDONA"
 90
        0
280
     0
281
     1
  0
CLASS
  1
XRECORD
  2
AcDbXrecord
  3
"<Built In>"
 90
        0
280
     0
281
     0
  0
CLASS
  1
LONG_TRANSACTION
  2
AcDbLongTransaction
  3
AutoCAD 2000
 90
        0
280
     0
281
     0
  0
CLASS
  1
LWPOLYLINE
  2
AcDbPolyline
  3
"AutoCAD"
 90
        0
280
     0
281
     1
  0
CLASS
  1
HATCH
  2
AcDbHatch
  3
"ACAD_SEDONA"
 90
        0
280
     0
281
     1
  0
CLASS
  1
XRECORD
  2
AcDbXrecord
  3
"<Built In>"
 90
        0
280
     0
281
     0
  0
CLASS
  1
LONG_TRANSACTION
  2
AcDbLongTransaction
  3
AutoCAD 2000
 90
        0
280
     0
281
     0
  0
CLASS
  1
LWPOLYLINE
  2
AcDbPolyline
  3
"AutoCAD"
 90
        0
280
     0
281
     1
  0
CLASS
  1
HATCH
  2
AcDbHatch
  3
"ACAD_SEDONA"
 90
        0
280
     0
281
     1
  0
CLASS
  1
XRECORD
  2
AcDbXrecord
  3
"<Built In>"
 90
        0
280
     0
281
     0
  0
CLASS
  1
LONG_TRANSACTION
  2
AcDbLongTransaction
  3
AutoCAD 2000
 90
        0
280
     0
281
     0
  0
CLASS
  1
LWPOLYLINE
  2
AcDbPolyline
  3
"AutoCAD"
 90
        0
280
     0
281
     1
  0
CLASS
  1
HATCH
  2
AcDbHatch
  3
"ACAD_SEDONA"
 90
        0
280
     0
281
     1
  0
CLASS
  1
XRECORD
  2
AcDbXrecord
  3
"<Built In>"
 90
        0
280
     0
281
     0
  0
CLASS
  1
LONG_TRANSACTION
  2
AcDbLongTransaction
  3
AutoCAD 2000
 90
        0
280
     0
281
     0
  0
CLASS
  1
LWPOLYLINE
  2
AcDbPolyline
  3
"AutoCAD"
 90
        0
280
     0
281
     1
  0
CLASS
  1
HATCH
  2
AcDbHatch
  3
"ACAD_SEDONA"
 90
        0
280
     0
281
     1
  0
CLASS
  1
XRECORD
  2
AcDbXrecord
  3
"<Built In>"
 90
        0
280
     0
281
     0
  0
CLASS
  1
LONG_TRANSACTION
  2
AcDbLongTransaction
  3
AutoCAD 2000
 90
        0
280
     0
281
     0
  0
CLASS
  1
LWPOLYLINE
  2
AcDbPolyline
  3
"AutoCAD"
 90
        0
280
     0
281
     1
  0
CLASS
  1
HATCH
  2
AcDbHatch
  3
"ACAD_SEDONA"
 90
        0
280
     0
281
     1
  0
CLASS
  1
XRECORD
  2
AcDbXrecord
  3
"<Built In>"
 90
        0
280
     0
281
     0
  0
CLASS
  1
LONG_TRANSACTION
  2
AcDbLongTransaction
  3
AutoCAD 2000
 90
        0
280
     0
281
     0
  0
CLASS
  1
LWPOLYLINE
  2
AcDbPolyline
  3
"AutoCAD"
 90
        0
280
     0
281
     1
  0
CLASS
  1
HATCH
  2
AcDbHatch
  3
"ACAD_SEDONA"
 90
        0
280
     0
281
     1
  0
CLASS
  1
XRECORD
  2
AcDbXrecord
  3
"<Built In>"
 90
        0
280
     0
281
     0
  0
CLASS
  1
LONG_TRANSACTION
  2
AcDbLongTransaction
  3
AutoCAD 2000
 90
        0
280
     0
281
     0
  0
CLASS
  1
LWPOLYLINE
  2
AcDbPolyline
  3
"AutoCAD"
 90
        0
280
     0
281
     1
  0
CLASS
  1
HATCH
  2
AcDbHatch
  3
"ACAD_SEDONA"
 90
        0
280
     0
281
     1
  0
CLASS
  1
XRECORD
  2
AcDbXrecord
  3
"<Built In>"
 90
        0
280
     0
281
     0
  0
CLASS
  1
LONG_TRANSACTION
  2
AcDbLongTransaction
  3
AutoCAD 2000
 90
        0
280
     0
281
     0
  0
CLASS
  1
LWPOLYLINE
  2
AcDbPolyline
  3
"AutoCAD"
 90
        0
280
     0
281
     1
  0
CLASS
  1
HATCH
  2
AcDbHatch
  3
"ACAD_SEDONA"
 90
        0
280
     0
281
     1
  0
CLASS
  1
XRECORD
  2
AcDbXrecord
  3
"<Built In>"
 90
        0
280
     0
281
     0
  0
CLASS
  1
LONG_TRANSACTION
  2
AcDbLongTransaction
  3
AutoCAD 2000
 90
        0
280
     0
281
     0
  0
CLASS
  1
LWPOLYLINE
  2
AcDbPolyline
  3
"AutoCAD"
 90
        0
280
     0
281
     1
  0
CLASS
  1
HATCH
  2
AcDbHatch
  3
"ACAD_SEDONA"
 90
        0
280
     0
281
     1
  0
CLASS
  1
XRECORD
  2
AcDbXrecord
  3
"<Built In>"
 90
        0
280
     0
281
     0
  0
CLASS
  1
LONG_TRANSACTION
  2
AcDbLongTransaction
  3
AutoCAD 2000
 90
        0
280
     0
281
     0
  0
CLASS
  1
LWPOLYLINE
  2
AcDbPolyline
  3
"AutoCAD"
 90
        0
280
     0
281
     1
  0
CLASS
  1
HATCH
  2
AcDbHatch
  3
"ACAD_SEDONA"
 90
        0
280
     0
281
     1
  0
CLASS
  1
XRECORD
  2
AcDbXrecord
  3
"<Built In>"
 90
        0
280
     0
281
     0
  0
CLASS
  1
LONG_TRANSACTION
  2
AcDbLongTransaction
  3
AutoCAD 2000
 90
        0
280
     0
281
     0
  0
CLASS
  1
LWPOLYLINE
  2
AcDbPolyline
  3
"AutoCAD"
 90
        0
280
     0
281
     1
  0
CLASS
  1
HATCH
  2
AcDbHatch
  3
"ACAD_SEDONA"
 90
        0
280
     0
281
     1
  0
CLASS
  1
XRECORD
  2
AcDbXrecord
  3
"<Built In>"
 90
        0
280
     0
281
     0
  0
CLASS
  1
LONG_TRANSACTION
  2
AcDbLongTransaction
  3
AutoCAD 2000
 90
        0
280
     0
281
     0
  0
CLASS
  1
LWPOLYLINE
  2
AcDbPolyline
  3
"AutoCAD"
 90
        0
280
     0
281
     1
  0
CLASS
  1
HATCH
  2
AcDbHatch
  3
"ACAD_SEDONA"
 90
        0
280
     0
281
     1
  0
CLASS
  1
XRECORD
  2
AcDbXrecord
  3
"<Built In>"
 90
        0
280
     0
281
     0
  0
CLASS
  1
LONG_TRANSACTION
  2
AcDbLongTransaction
  3
AutoCAD 2000
 90
        0
280
     0
281
     0
  0
CLASS
  1
LWPOLYLINE
  2
AcDbPolyline
  3
"AutoCAD"
 90
        0
280
     0
281
     1
  0
CLASS
  1
HATCH
  2
AcDbHatch
  3
"ACAD_SEDONA"
 90
        0
280
     0
281
     1
  0
CLASS
  1
XRECORD
  2
AcDbXrecord
  3
"<Built In>"
 90
        0
280
     0
281
     0
  0
CLASS
  1
LONG_TRANSACTION
  2
AcDbLongTransaction
  3
AutoCAD 2000
 90
        0
280
     0
281
     0
  0
CLASS
  1
LWPOLYLINE
  2
AcDbPolyline
  3
"AutoCAD"
 90
        0
280
     0
281
     1
  0
CLASS
  1
HATCH
  2
AcDbHatch
  3
"ACAD_SEDONA"
 90
        0
280
     0
281
     1
  0
CLASS
  1
XRECORD
  2
AcDbXrecord
  3
"<Built In>"
 90
        0
280
     0
281
     0
  0
CLASS
  1
LONG_TRANSACTION
  2
AcDbLongTransaction
  3
AutoCAD 2000
 90
        0
280
     0
281
     0
  0
CLASS
  1
LWPOLYLINE
  2
AcDbPolyline
  3
"AutoCAD"
 90
        0
280
     0
281
     1
  0
CLASS
  1
HATCH
  2
AcDbHatch
  3
"ACAD_SEDONA"
 90
        0
280
     0
281
     1
  0
CLASS
  1
XRECORD
  2
AcDbXrecord
  3
"<Built In>"
 90
        0
280
     0
281
     0
  0
ENDSEC
  0
SECTION
  2
TABLES
  0
TABLE
  2
VPORT
  5
458C7
100
AcDbSymbolTable
 70
     1
  0
VPORT
  5
605D6
102
{ACAD_XDICTIONARY
360
605D9
102
}
100
AcDbSymbolTableRecord
100
AcDbViewportTableRecord
  2
*ACTIVE
 70
     0
 10
0.0
 20
0.0
 11
1.0
 21
1.0
 12
-0.026038
 22
0.198246
 13
0.0
 23
0.0
 14
0.25
 24
0.25
 15
0.25
 25
0.25
 16
0.0
 26
0.0
 36
1.0
 17
0.563444
 27
-0.880137
 37
1.686493
 40
5.066267
 41
1.960674
 42
50.0
 43
0.0
 44
0.0
 50
0.0
 51
0.0
 71
     0
 72
 20000
 73
     1
 74
     1
 75
     0
 76
     0
 77
     0
 78
     0
  0
ENDTAB
  0
TABLE
  2
LTYPE
  5
458C4
100
AcDbSymbolTable
 70
     1
  0
LTYPE
  5
458D0
100
AcDbSymbolTableRecord
100
AcDbLinetypeTableRecord
  2
BYBLOCK
 70
     0
  3

 72
    65
 73
     0
 40
0.0
  0
LTYPE
  5
458D1
100
AcDbSymbolTableRecord
100
AcDbLinetypeTableRecord
  2
BYLAYER
 70
     0
  3

 72
    65
 73
     0
 40
0.0
  0
LTYPE
  5
458D2
100
AcDbSymbolTableRecord
100
AcDbLinetypeTableRecord
  2
CONTINUOUS
 70
     0
  3
Solid line
 72
    65
 73
     0
 40
0.0
  0
ENDTAB
  0
TABLE
  2
LAYER
  5
458C1
100
AcDbSymbolTable
 70
     7
  0
LAYER
  5
458CD
100
AcDbSymbolTableRecord
100
AcDbLayerTableRecord
  2
0
 70
     0
 62
     7
  6
CONTINUOUS
  0
LAYER
  5
458EA
100
AcDbSymbolTableRecord
100
AcDbLayerTableRecord
  2
DIMS-MTG-HOLES
 70
     0
 62
     1
  6
CONTINUOUS
  0
LAYER
  5
458EB
100
AcDbSymbolTableRecord
100
AcDbLayerTableRecord
  2
ATTRIBUTES
 70
     0
 62
     7
  6
CONTINUOUS
  0
LAYER
  5
4593B
102
{ACAD_XDICTIONARY
360
60602
102
}
100
AcDbSymbolTableRecord
100
AcDbLayerTableRecord
  2
AREA1
 70
     0
 62
    -7
  6
CONTINUOUS
  0
LAYER
  5
45940
102
{ACAD_XDICTIONARY
360
605D7
102
}
100
AcDbSymbolTableRecord
100
AcDbLayerTableRecord
  2
DEFPOINTS
 70
     0
 62
    -7
  6
CONTINUOUS
  0
LAYER
  5
45954
100
AcDbSymbolTableRecord
100
AcDbLayerTableRecord
  2
SCALE
 70
     0
 62
    -7
  6
CONTINUOUS
  0
LAYER
  5
4D59A
100
AcDbSymbolTableRecord
100
AcDbLayerTableRecord
  2
SNAP_POINTS
 70
     0
 62
    -1
  6
CONTINUOUS
  0
ENDTAB
  0
TABLE
  2
STYLE
  5
458C2
100
AcDbSymbolTable
 70
     1
  0
STYLE
  5
458CE
100
AcDbSymbolTableRecord
100
AcDbTextStyleTableRecord
  2
STANDARD
 70
     0
 40
0.0
 41
1.0
 50
0.0
 71
     0
 42
0.12
  3
txt
  4

  0
ENDTAB
  0
TABLE
  2
VIEW
  5
458C5
100
AcDbSymbolTable
 70
     0
  0
ENDTAB
  0
TABLE
  2
UCS
  5
458C6
100
AcDbSymbolTable
 70
     0
  0
ENDTAB
  0
TABLE
  2
APPID
  5
458C8
100
AcDbSymbolTable
 70
     2
  0
APPID
  5
458CF
100
AcDbSymbolTableRecord
100
AcDbRegAppTableRecord
  2
ACAD
 70
     0
  0
APPID
  5
5FD5B
100
AcDbSymbolTableRecord
100
AcDbRegAppTableRecord
  2
AVE_RENDER
 70
     0
  0
ENDTAB
  0
TABLE
  2
DIMSTYLE
  5
458C9
100
AcDbSymbolTable
 70
     1
  0
DIMSTYLE
105
458F6
102
{ACAD_XDICTIONARY
360
605FE
102
}
102
{ACAD_REACTORS
330
6051C
330
60529
102
}
100
AcDbSymbolTableRecord
100
AcDbDimStyleTableRecord
  2
ABECAD_3D
 70
     0
  3

  4

  5

  6

  7

 40
1.0
 41
0.18
 42
0.0625
 43
0.375
 44
0.18
 45
0.0
 46
0.0
 47
0.0
 48
0.0
140
0.14
141
0.09
142
0.0
143
25.4
144
1.0
145
0.0
146
1.5
147
0.09
 71
     0
 72
     0
 73
     0
 74
     1
 75
     0
 76
     0
 77
     0
 78
     4
170
     1
171
     2
172
     0
173
     0
174
     0
175
     0
176
     0
177
     0
178
     0
270
     7
271
     6
272
     6
273
     2
274
     2
340
458CE
275
     0
280
     0
281
     0
282
     0
283
     1
284
     4
285
     4
286
     4
287
     5
288
     1
  0
ENDTAB
  0
TABLE
  2
BLOCK_RECORD
  5
458C0
100
AcDbSymbolTable
 70
     3
  0
BLOCK_RECORD
  5
458D6
102
{ACAD_XDICTIONARY
360
4592C
102
}
100
AcDbSymbolTableRecord
100
AcDbBlockTableRecord
  2
*MODEL_SPACE
  0
BLOCK_RECORD
  5
458D3
102
{ACAD_XDICTIONARY
360
4592A
102
}
100
AcDbSymbolTableRecord
100
AcDbBlockTableRecord
  2
*PAPER_SPACE
  0
BLOCK_RECORD
  5
5FD57
100
AcDbSymbolTableRecord
100
AcDbBlockTableRecord
  2
AVE_RENDER
  0
BLOCK_RECORD
  5
6051D
100
AcDbSymbolTableRecord
100
AcDbBlockTableRecord
  2
*D1
  0
BLOCK_RECORD
  5
6052A
100
AcDbSymbolTableRecord
100
AcDbBlockTableRecord
  2
*D2
  0
ENDTAB
  0
ENDSEC
  0
SECTION
  2
BLOCKS
  0
BLOCK
  5
458DF
100
AcDbEntity
  8
0
100
AcDbBlockBegin
  2
*MODEL_SPACE
 70
     0
 10
0.0
 20
0.0
 30
0.0
  3
*MODEL_SPACE
  1

  0
ENDBLK
  5
458E0
100
AcDbEntity
  8
0
100
AcDbBlockEnd
  0
BLOCK
  5
458DD
100
AcDbEntity
 67
     1
  8
0
100
AcDbBlockBegin
  2
*PAPER_SPACE
 70
     0
 10
0.0
 20
0.0
 30
0.0
  3
*PAPER_SPACE
  1

  0
ENDBLK
  5
458DE
100
AcDbEntity
 67
     1
  8
0
100
AcDbBlockEnd
  0
BLOCK
  5
5FD58
100
AcDbEntity
  8
0
100
AcDbBlockBegin
  2
AVE_RENDER
 70
     0
 10
0.0
 20
0.0
 30
0.0
  3
AVE_RENDER
  1
AVE_RENDER
  0
ENDBLK
  5
5FD59
100
AcDbEntity
  8
0
100
AcDbBlockEnd
  0
BLOCK
  5
60527
100
AcDbEntity
  8
0
100
AcDbBlockBegin
  2
*D1
 70
     1
 10
0.0
 20
0.0
 30
0.0
  3
*D1
  1

  0
LINE
  5
60536
100
AcDbEntity
  8
AREA1
 62
     0
100
AcDbLine
 10
0.27021
 20
0.9585
 30
0.0
 11
-0.765303
 21
0.9585
 31
0.0
1001
ACAD
1000
RTLwPs
1070
   158
  0
LINE
  5
60537
100
AcDbEntity
  8
AREA1
 62
     0
100
AcDbLine
 10
0.63721
 20
-2.2215
 30
0.0
 11
-0.765303
 21
-2.2215
 31
0.0
1001
ACAD
1000
RTLwPs
1070
   158
  0
LINE
  5
60538
100
AcDbEntity
  8
AREA1
 62
     0
100
AcDbLine
 10
-0.585303
 20
0.7785
 30
0.0
 11
-0.585303
 21
0.268704
 31
0.0
1001
ACAD
1000
RTLwPs
1070
   158
  0
LINE
  5
60539
100
AcDbEntity
  8
AREA1
 62
     0
100
AcDbLine
 10
-0.585303
 20
-2.0415
 30
0.0
 11
-0.585303
 21
-1.567962
 31
0.0
1001
ACAD
1000
RTLwPs
1070
   158
  0
MTEXT
  5
6053A
100
AcDbEntity
  8
AREA1
 62
     0
100
AcDbMText
 10
-0.585303
 20
-0.649629
 30
0.0
 40
0.14
 41
0.0
 71
     5
 72
     1
  1
\A1;3 3/16 [80.77]
 11
0.0
 21
1.0
 31
0.0
1001
ACAD
1000
MTEXTBEGIN
1070
    73
1070
     1
1070
    44
1040
1.0
1070
    74
1070
     0
1000
MTEXTEND
1000
MTEXTBEGIN
1070
    73
1070
     1
1070
    44
1040
1.0
1070
    74
1070
     0
1000
MTEXTEND
1000
MTEXTBEGIN
1070
    73
1070
     1
1070
    44
1040
1.0
1070
    74
1070
     0
1000
MTEXTEND
  0
SOLID
  5
6053B
100
AcDbEntity
  8
AREA1
 62
     0
100
AcDbTrace
 10
-0.615303
 20
0.7785
 30
0.0
 11
-0.555303
 21
0.7785
 31
0.0
 12
-0.585303
 22
0.9585
 32
0.0
 13
-0.585303
 23
0.9585
 33
0.0
  0
SOLID
  5
6053C
100
AcDbEntity
  8
AREA1
 62
     0
100
AcDbTrace
 10
-0.615303
 20
-2.0415
 30
0.0
 11
-0.555303
 21
-2.0415
 31
0.0
 12
-0.585303
 22
-2.2215
 32
0.0
 13
-0.585303
 23
-2.2215
 33
0.0
  0
POINT
  5
6053D
100
AcDbEntity
  8
DEFPOINTS
 62
     0
100
AcDbPoint
 10
0.33271
 20
0.9585
 30
1.386
  0
POINT
  5
6053E
100
AcDbEntity
  8
DEFPOINTS
 62
     0
100
AcDbPoint
 10
0.69971
 20
-2.2215
 30
1.386
  0
POINT
  5
6053F
100
AcDbEntity
  8
DEFPOINTS
 62
     0
100
AcDbPoint
 10
-0.585303
 20
-2.2215
 30
0.0
  0
ENDBLK
  5
60528
100
AcDbEntity
  8
0
100
AcDbBlockEnd
  0
BLOCK
  5
60534
100
AcDbEntity
  8
0
100
AcDbBlockBegin
  2
*D2
 70
     1
 10
0.0
 20
0.0
 30
0.0
  3
*D2
  1

  0
LINE
  5
60549
100
AcDbEntity
  8
AREA1
 62
     0
100
AcDbLine
 10
0.00521
 20
0.781
 30
0.0
 11
0.00521
 21
1.591994
 31
0.0
1001
ACAD
1000
RTLwPs
1070
   158
  0
LINE
  5
6054A
100
AcDbEntity
  8
AREA1
 62
     0
100
AcDbLine
 10
1.76521
 20
0.637
 30
0.0
 11
1.76521
 21
1.591994
 31
0.0
1001
ACAD
1000
RTLwPs
1070
   158
  0
LINE
  5
6054B
100
AcDbEntity
  8
AREA1
 62
     0
100
AcDbLine
 10
0.18521
 20
1.411994
 30
0.0
 11
1.58521
 21
1.411994
 31
0.0
1001
ACAD
1000
RTLwPs
1070
   158
  0
MTEXT
  5
6054C
100
AcDbEntity
  8
AREA1
 62
     0
100
AcDbMText
 10
0.941794
 20
1.738948
 30
0.0
 40
0.14
 41
0.0
 71
     5
 72
     1
  1
\A1;1 49/64 [44.70]
1001
ACAD
1000
MTEXTBEGIN
1070
    73
1070
     1
1070
    44
1040
1.0
1070
    74
1070
     0
1000
MTEXTEND
1000
MTEXTBEGIN
1070
    73
1070
     1
1070
    44
1040
1.0
1070
    74
1070
     0
1000
MTEXTEND
1000
MTEXTBEGIN
1070
    73
1070
     1
1070
    44
1040
1.0
1070
    74
1070
     0
1000
MTEXTEND
  0
SOLID
  5
6054D
100
AcDbEntity
  8
AREA1
 62
     0
100
AcDbTrace
 10
0.18521
 20
1.441994
 30
0.0
 11
0.18521
 21
1.381994
 31
0.0
 12
0.00521
 22
1.411994
 32
0.0
 13
0.00521
 23
1.411994
 33
0.0
  0
SOLID
  5
6054E
100
AcDbEntity
  8
AREA1
 62
     0
100
AcDbTrace
 10
1.58521
 20
1.441994
 30
0.0
 11
1.58521
 21
1.381994
 31
0.0
 12
1.76521
 22
1.411994
 32
0.0
 13
1.76521
 23
1.411994
 33
0.0
  0
POINT
  5
6054F
100
AcDbEntity
  8
DEFPOINTS
 62
     0
100
AcDbPoint
 10
0.00521
 20
0.7185
 30
0.0
  0
POINT
  5
60550
100
AcDbEntity
  8
DEFPOINTS
 62
     0
100
AcDbPoint
 10
1.76521
 20
0.5745
 30
0.0
  0
POINT
  5
60551
100
AcDbEntity
  8
DEFPOINTS
 62
     0
100
AcDbPoint
 10
1.76521
 20
1.411994
 30
0.0
  0
ENDBLK
  5
60535
100
AcDbEntity
  8
0
100
AcDbBlockEnd
  0
ENDSEC
  0
SECTION
  2
ENTITIES
  0
ATTDEF
  5
60143
100
AcDbEntity
  8
ATTRIBUTES
100
AcDbText
 10
0.100105
 20
-0.134243
 30
0.0
 40
0.08052
  1
ALLEN-BRADLEY
100
AcDbAttributeDefinition
  3
MANUFACTURER NAME?
  2
AC_VND_LABEL
 70
     1
  0
ATTDEF
  5
60144
100
AcDbEntity
  8
ATTRIBUTES
100
AcDbText
 10
0.100105
 20
-0.301994
 30
0.0
 40
0.08052
  1
100-C09, C12, C16, C23*10
100
AcDbAttributeDefinition
  3
CATALOG NUMBER?
  2
AC_PART_NO
 70
     1
  0
ATTDEF
  5
60145
100
AcDbEntity
  8
ATTRIBUTES
100
AcDbText
 10
0.100105
 20
-0.469745
 30
0.0
 40
0.08052
  1
MCS IEC AC CONTACTOR; 9A-23A; 1 N.O.
100
AcDbAttributeDefinition
  3
PART DESCRIPTION?
  2
AC_DESCRIPTION
 70
     1
  0
ATTDEF
  5
60146
100
AcDbEntity
  8
ATTRIBUTES
100
AcDbText
 10
0.100105
 20
-0.637495
 30
0.0
 40
0.08052
  1

100
AcDbAttributeDefinition
  3
DEVICE ID?
  2
DEVICE_ID
 70
     1
  0
ATTDEF
  5
60147
100
AcDbEntity
  8
ATTRIBUTES
100
AcDbText
 10
0.100105
 20
-0.805246
 30
0.0
 40
0.08052
  1

100
AcDbAttributeDefinition
  3
CUSTOMER PART NUMBER?
  2
AC_CPART_NO
 70
     1
  0
ATTDEF
  5
60148
100
AcDbEntity
  8
ATTRIBUTES
100
AcDbText
 10
0.100105
 20
-0.972997
 30
0.0
 40
0.08052
  1

100
AcDbAttributeDefinition
  3
CUSTOMER NOTE?
  2
AC_NOTE
 70
     1
  0
ATTDEF
  5
60149
100
AcDbEntity
  8
ATTRIBUTES
100
AcDbText
 10
0.100105
 20
-1.140748
 30
0.0
 40
0.08052
  1

100
AcDbAttributeDefinition
  3
FASTENER DATA?
  2
FASTENER
 70
     1
  0
ATTDEF
  5
6014A
100
AcDbEntity
  8
ATTRIBUTES
100
AcDbText
 10
0.100105
 20
-1.308498
 30
0.0
 40
0.08052
  1
INCH
100
AcDbAttributeDefinition
  3
UNIT OF SCALE?
  2
AC_SCALE_UNIT
 70
     1
  0
ATTDEF
  5
6014B
100
AcDbEntity
  8
ATTRIBUTES
100
AcDbText
 10
0.100105
 20
-1.476249
 30
0.0
 40
0.08052
  1
0
100
AcDbAttributeDefinition
  3
VIEW CODE?
  2
AC_VIEW_CODE
 70
     1
  0
POLYLINE
  5
6014C
100
AcDbEntity
  8
0
100
AcDbPolygonMesh
 66
     1
 10
0.0
 20
0.0
 30
0.0
 70
    16
 71
     6
 72
     3
  0
VERTEX
  5
6014D
100
AcDbEntity
  8
0
100
AcDbVertex
100
AcDbPolygonMeshVertex
 10
1.76521
 20
0.2385
 30
0.316
 70
    64
  0
VERTEX
  5
6014E
100
AcDbEntity
  8
0
100
AcDbVertex
100
AcDbPolygonMeshVertex
 10
1.76521
 20
0.2385
 30
0.0
 70
    64
  0
VERTEX
  5
6014F
100
AcDbEntity
  8
0
100
AcDbVertex
100
AcDbPolygonMeshVertex
 10
1.76521
 20
0.2385
 30
0.0
 70
    64
  0
VERTEX
  5
60150
100
AcDbEntity
  8
0
100
AcDbVertex
100
AcDbPolygonMeshVertex
 10
1.37421
 20
0.2385
 30
0.316
 70
    64
  0
VERTEX
  5
60151
100
AcDbEntity
  8
0
100
AcDbVertex
100
AcDbPolygonMeshVertex
 10
1.37421
 20
0.2385
 30
0.0
 70
    64
  0
VERTEX
  5
60152
100
AcDbEntity
  8
0
100
AcDbVertex
100
AcDbPolygonMeshVertex
 10
1.37421
 20
0.2385
 30
0.0
 70
    64
  0
VERTEX
  5
60153
100
AcDbEntity
  8
0
100
AcDbVertex
100
AcDbPolygonMeshVertex
 10
1.37421
 20
0.5745
 30
0.316
 70
    64
  0
VERTEX
  5
60154
100
AcDbEntity
  8
0
100
AcDbVertex
100
AcDbPolygonMeshVertex
 10
1.37421
 20
0.5745
 30
0.0
 70
    64
  0
VERTEX
  5
60155
100
AcDbEntity
  8
0
100
AcDbVertex
100
AcDbPolygonMeshVertex
 10
1.37421
 20
0.2385
 30
0.0
 70
    64
  0
VERTEX
  5
60156
100
AcDbEntity
  8
0
100
AcDbVertex
100
AcDbPolygonMeshVertex
 10
1.76521
 20
0.5745
 30
0.316
 70
    64
  0
VERTEX
  5
60157
100
AcDbEntity
  8
0
100
AcDbVertex
100
AcDbPolygonMeshVertex
 10
1.76521
 20
0.5745
 30
0.0
 70
    64
  0
VERTEX
  5
60158
100
AcDbEntity
  8
0
100
AcDbVertex
100
AcDbPolygonMeshVertex
 10
1.76521
 20
0.2385
 30
0.0
 70
    64
  0
VERTEX
  5
60159
100
AcDbEntity
  8
0
100
AcDbVertex
100
AcDbPolygonMeshVertex
 10
1.76521
 20
0.5745
 30
0.316
 70
    64
  0
VERTEX
  5
6015A
100
AcDbEntity
  8
0
100
AcDbVertex
100
AcDbPolygonMeshVertex
 10
1.76521
 20
0.5745
 30
0.316
 70
    64
  0
VERTEX
  5
6015B
100
AcDbEntity
  8
0
100
AcDbVertex
100
AcDbPolygonMeshVertex
 10
1.76521
 20
0.2385
 30
0.316
 70
    64
  0
VERTEX
  5
6015C
100
AcDbEntity
  8
0
100
AcDbVertex
100
AcDbPolygonMeshVertex
 10
1.37421
 20
0.5745
 30
0.316
 70
    64
  0
VERTEX
  5
6015D
100
AcDbEntity
  8
0
100
AcDbVertex
100
AcDbPolygonMeshVertex
 10
1.37421
 20
0.5745
 30
0.316
 70
    64
  0
VERTEX
  5
6015E
100
AcDbEntity
  8
0
100
AcDbVertex
100
AcDbPolygonMeshVertex
 10
1.37421
 20
0.2385
 30
0.316
 70
    64
  0
SEQEND
  5
6015F
100
AcDbEntity
  8
0
  0
POLYLINE
  5
60160
100
AcDbEntity
  8
0
100
AcDbPolygonMesh
 66
     1
 10
0.0
 20
0.0
 30
0.0
 70
    16
 71
     6
 72
     3
  0
VERTEX
  5
60161
100
AcDbEntity
  8
0
100
AcDbVertex
100
AcDbPolygonMeshVertex
 10
0.39621
 20
-1.6855
 30
1.318
 70
    64
  0
VERTEX
  5
60162
100
AcDbEntity
  8
0
100
AcDbVertex
100
AcDbPolygonMeshVertex
 10
0.39621
 20
-1.6855
 30
0.187
 70
    64
  0
VERTEX
  5
60163
100
AcDbEntity
  8
0
100
AcDbVertex
100
AcDbPolygonMeshVertex
 10
0.39621
 20
-1.6855
 30
0.187
 70
    64
  0
VERTEX
  5
60164
100
AcDbEntity
  8
0
100
AcDbVertex
100
AcDbPolygonMeshVertex
 10
0.00521
 20
-1.6855
 30
1.318
 70
    64
  0
VERTEX
  5
60165
100
AcDbEntity
  8
0
100
AcDbVertex
100
AcDbPolygonMeshVertex
 10
0.00521
 20
-1.6855
 30
0.187
 70
    64
  0
VERTEX
  5
60166
100
AcDbEntity
  8
0
100
AcDbVertex
100
AcDbPolygonMeshVertex
 10
0.00521
 20
-1.6855
 30
0.187
 70
    64
  0
VERTEX
  5
60167
100
AcDbEntity
  8
0
100
AcDbVertex
100
AcDbPolygonMeshVertex
 10
0.00521
 20
0.5215
 30
1.318
 70
    64
  0
VERTEX
  5
60168
100
AcDbEntity
  8
0
100
AcDbVertex
100
AcDbPolygonMeshVertex
 10
0.00521
 20
0.5215
 30
0.187
 70
    64
  0
VERTEX
  5
60169
100
AcDbEntity
  8
0
100
AcDbVertex
100
AcDbPolygonMeshVertex
 10
0.00521
 20
-1.6855
 30
0.187
 70
    64
  0
VERTEX
  5
6016A
100
AcDbEntity
  8
0
100
AcDbVertex
100
AcDbPolygonMeshVertex
 10
0.39621
 20
0.5215
 30
1.318
 70
    64
  0
VERTEX
  5
6016B
100
AcDbEntity
  8
0
100
AcDbVertex
100
AcDbPolygonMeshVertex
 10
0.39621
 20
0.5215
 30
0.187
 70
    64
  0
VERTEX
  5
6016C
100
AcDbEntity
  8
0
100
AcDbVertex
100
AcDbPolygonMeshVertex
 10
0.39621
 20
-1.6855
 30
0.187
 70
    64
  0
VERTEX
  5
6016D
100
AcDbEntity
  8
0
100
AcDbVertex
100
AcDbPolygonMeshVertex
 10
0.39621
 20
0.5215
 30
1.318
 70
    64
  0
VERTEX
  5
6016E
100
AcDbEntity
  8
0
100
AcDbVertex
100
AcDbPolygonMeshVertex
 10
0.39621
 20
0.5215
 30
1.318
 70
    64
  0
VERTEX
  5
6016F
100
AcDbEntity
  8
0
100
AcDbVertex
100
AcDbPolygonMeshVertex
 10
0.39621
 20
-1.6855
 30
1.318
 70
    64
  0
VERTEX
  5
60170
100
AcDbEntity
  8
0
100
AcDbVertex
100
AcDbPolygonMeshVertex
 10
0.00521
 20
0.5215
 30
1.318
 70
    64
  0
VERTEX
  5
60171
100
AcDbEntity
  8
0
100
AcDbVertex
100
AcDbPolygonMeshVertex
 10
0.00521
 20
0.5215
 30
1.318
 70
    64
  0
VERTEX
  5
60172
100
AcDbEntity
  8
0
100
AcDbVertex
100
AcDbPolygonMeshVertex
 10
0.00521
 20
-1.6855
 30
1.318
 70
    64
  0
SEQEND
  5
60173
100
AcDbEntity
  8
0
  0
POLYLINE
  5
60174
100
AcDbEntity
  8
0
100
AcDbPolygonMesh
 66
     1
 10
0.0
 20
0.0
 30
0.0
 70
    16
 71
     6
 72
     3
  0
VERTEX
  5
60175
100
AcDbEntity
  8
0
100
AcDbVertex
100
AcDbPolygonMeshVertex
 10
1.76521
 20
-1.9685
 30
1.318
 70
    64
  0
VERTEX
  5
60176
100
AcDbEntity
  8
0
100
AcDbVertex
100
AcDbPolygonMeshVertex
 10
1.76521
 20
-1.9685
 30
0.187
 70
    64
  0
VERTEX
  5
60177
100
AcDbEntity
  8
0
100
AcDbVertex
100
AcDbPolygonMeshVertex
 10
1.76521
 20
-1.9685
 30
0.187
 70
    64
  0
VERTEX
  5
60178
100
AcDbEntity
  8
0
100
AcDbVertex
100
AcDbPolygonMeshVertex
 10
1.37421
 20
-1.9685
 30
1.318
 70
    64
  0
VERTEX
  5
60179
100
AcDbEntity
  8
0
100
AcDbVertex
100
AcDbPolygonMeshVertex
 10
1.37421
 20
-1.9685
 30
0.187
 70
    64
  0
VERTEX
  5
6017A
100
AcDbEntity
  8
0
100
AcDbVertex
100
AcDbPolygonMeshVertex
 10
1.37421
 20
-1.9685
 30
0.187
 70
    64
  0
VERTEX
  5
6017B
100
AcDbEntity
  8
0
100
AcDbVertex
100
AcDbPolygonMeshVertex
 10
1.37421
 20
0.2385
 30
1.318
 70
    64
  0
VERTEX
  5
6017C
100
AcDbEntity
  8
0
100
AcDbVertex
100
AcDbPolygonMeshVertex
 10
1.37421
 20
0.2385
 30
0.187
 70
    64
  0
VERTEX
  5
6017D
100
AcDbEntity
  8
0
100
AcDbVertex
100
AcDbPolygonMeshVertex
 10
1.37421
 20
-1.9685
 30
0.187
 70
    64
  0
VERTEX
  5
6017E
100
AcDbEntity
  8
0
100
AcDbVertex
100
AcDbPolygonMeshVertex
 10
1.76521
 20
0.2385
 30
1.318
 70
    64
  0
VERTEX
  5
6017F
100
AcDbEntity
  8
0
100
AcDbVertex
100
AcDbPolygonMeshVertex
 10
1.76521
 20
0.2385
 30
0.187
 70
    64
  0
VERTEX
  5
60180
100
AcDbEntity
  8
0
100
AcDbVertex
100
AcDbPolygonMeshVertex
 10
1.76521
 20
-1.9685
 30
0.187
 70
    64
  0
VERTEX
  5
60181
100
AcDbEntity
  8
0
100
AcDbVertex
100
AcDbPolygonMeshVertex
 10
1.76521
 20
0.2385
 30
1.318
 70
    64
  0
VERTEX
  5
60182
100
AcDbEntity
  8
0
100
AcDbVertex
100
AcDbPolygonMeshVertex
 10
1.76521
 20
0.2385
 30
1.318
 70
    64
  0
VERTEX
  5
60183
100
AcDbEntity
  8
0
100
AcDbVertex
100
AcDbPolygonMeshVertex
 10
1.76521
 20
-1.9685
 30
1.318
 70
    64
  0
VERTEX
  5
60184
100
AcDbEntity
  8
0
100
AcDbVertex
100
AcDbPolygonMeshVertex
 10
1.37421
 20
0.2385
 30
1.318
 70
    64
  0
VERTEX
  5
60185
100
AcDbEntity
  8
0
100
AcDbVertex
100
AcDbPolygonMeshVertex
 10
1.37421
 20
0.2385
 30
1.318
 70
    64
  0
VERTEX
  5
60186
100
AcDbEntity
  8
0
100
AcDbVertex
100
AcDbPolygonMeshVertex
 10
1.37421
 20
-1.9685
 30
1.318
 70
    64
  0
SEQEND
  5
60187
100
AcDbEntity
  8
0
  0
POLYLINE
  5
60188
100
AcDbEntity
  8
0
100
AcDbPolygonMesh
 66
     1
 10
0.0
 20
0.0
 30
0.0
 70
    16
 71
     6
 72
     3
  0
VERTEX
  5
60189
100
AcDbEntity
  8
0
100
AcDbVertex
100
AcDbPolygonMeshVertex
 10
1.37421
 20
-1.9685
 30
1.318
 70
    64
  0
VERTEX
  5
6018A
100
AcDbEntity
  8
0
100
AcDbVertex
100
AcDbPolygonMeshVertex
 10
1.37421
 20
-1.9685
 30
0.187
 70
    64
  0
VERTEX
  5
6018B
100
AcDbEntity
  8
0
100
AcDbVertex
100
AcDbPolygonMeshVertex
 10
1.37421
 20
-1.9685
 30
0.187
 70
    64
  0
VERTEX
  5
6018C
100
AcDbEntity
  8
0
100
AcDbVertex
100
AcDbPolygonMeshVertex
 10
0.39621
 20
-1.9685
 30
1.318
 70
    64
  0
VERTEX
  5
6018D
100
AcDbEntity
  8
0
100
AcDbVertex
100
AcDbPolygonMeshVertex
 10
0.39621
 20
-1.9685
 30
0.187
 70
    64
  0
VERTEX
  5
6018E
100
AcDbEntity
  8
0
100
AcDbVertex
100
AcDbPolygonMeshVertex
 10
0.39621
 20
-1.9685
 30
0.187
 70
    64
  0
VERTEX
  5
6018F
100
AcDbEntity
  8
0
100
AcDbVertex
100
AcDbPolygonMeshVertex
 10
0.39621
 20
0.5215
 30
1.318
 70
    64
  0
VERTEX
  5
60190
100
AcDbEntity
  8
0
100
AcDbVertex
100
AcDbPolygonMeshVertex
 10
0.39621
 20
0.5215
 30
0.187
 70
    64
  0
VERTEX
  5
60191
100
AcDbEntity
  8
0
100
AcDbVertex
100
AcDbPolygonMeshVertex
 10
0.39621
 20
-1.9685
 30
0.187
 70
    64
  0
VERTEX
  5
60192
100
AcDbEntity
  8
0
100
AcDbVertex
100
AcDbPolygonMeshVertex
 10
1.37421
 20
0.5215
 30
1.318
 70
    64
  0
VERTEX
  5
60193
100
AcDbEntity
  8
0
100
AcDbVertex
100
AcDbPolygonMeshVertex
 10
1.37421
 20
0.5215
 30
0.187
 70
    64
  0
VERTEX
  5
60194
100
AcDbEntity
  8
0
100
AcDbVertex
100
AcDbPolygonMeshVertex
 10
1.37421
 20
-1.9685
 30
0.187
 70
    64
  0
VERTEX
  5
60195
100
AcDbEntity
  8
0
100
AcDbVertex
100
AcDbPolygonMeshVertex
 10
1.37421
 20
0.5215
 30
1.318
 70
    64
  0
VERTEX
  5
60196
100
AcDbEntity
  8
0
100
AcDbVertex
100
AcDbPolygonMeshVertex
 10
1.37421
 20
0.5215
 30
1.318
 70
    64
  0
VERTEX
  5
60197
100
AcDbEntity
  8
0
100
AcDbVertex
100
AcDbPolygonMeshVertex
 10
1.37421
 20
-1.9685
 30
1.318
 70
    64
  0
VERTEX
  5
60198
100
AcDbEntity
  8
0
100
AcDbVertex
100
AcDbPolygonMeshVertex
 10
0.39621
 20
0.5215
 30
1.318
 70
    64
  0
VERTEX
  5
60199
100
AcDbEntity
  8
0
100
AcDbVertex
100
AcDbPolygonMeshVertex
 10
0.39621
 20
0.5215
 30
1.318
 70
    64
  0
VERTEX
  5
6019A
100
AcDbEntity
  8
0
100
AcDbVertex
100
AcDbPolygonMeshVertex
 10
0.39621
 20
-1.9685
 30
1.318
 70
    64
  0
SEQEND
  5
6019B
100
AcDbEntity
  8
0
  0
POLYLINE
  5
6019C
100
AcDbEntity
  8
0
100
AcDbPolygonMesh
 66
     1
 10
0.0
 20
0.0
 30
0.0
 70
    16
 71
     6
 72
     3
  0
VERTEX
  5
6019D
100
AcDbEntity
  8
0
100
AcDbVertex
100
AcDbPolygonMeshVertex
 10
1.07071
 20
-2.2215
 30
2.06
 70
    64
  0
VERTEX
  5
6019E
100
AcDbEntity
  8
0
100
AcDbVertex
100
AcDbPolygonMeshVertex
 10
1.07071
 20
-2.2215
 30
1.386
 70
    64
  0
VERTEX
  5
6019F
100
AcDbEntity
  8
0
100
AcDbVertex
100
AcDbPolygonMeshVertex
 10
1.07071
 20
-2.2215
 30
1.386
 70
    64
  0
VERTEX
  5
601A0
100
AcDbEntity
  8
0
100
AcDbVertex
100
AcDbPolygonMeshVertex
 10
0.69971
 20
-2.2215
 30
2.06
 70
    64
  0
VERTEX
  5
601A1
100
AcDbEntity
  8
0
100
AcDbVertex
100
AcDbPolygonMeshVertex
 10
0.69971
 20
-2.2215
 30
1.386
 70
    64
  0
VERTEX
  5
601A2
100
AcDbEntity
  8
0
100
AcDbVertex
100
AcDbPolygonMeshVertex
 10
0.69971
 20
-2.2215
 30
1.386
 70
    64
  0
VERTEX
  5
601A3
100
AcDbEntity
  8
0
100
AcDbVertex
100
AcDbPolygonMeshVertex
 10
0.69971
 20
-1.9685
 30
2.06
 70
    64
  0
VERTEX
  5
601A4
100
AcDbEntity
  8
0
100
AcDbVertex
100
AcDbPolygonMeshVertex
 10
0.69971
 20
-1.9685
 30
1.386
 70
    64
  0
VERTEX
  5
601A5
100
AcDbEntity
  8
0
100
AcDbVertex
100
AcDbPolygonMeshVertex
 10
0.69971
 20
-2.2215
 30
1.386
 70
    64
  0
VERTEX
  5
601A6
100
AcDbEntity
  8
0
100
AcDbVertex
100
AcDbPolygonMeshVertex
 10
1.07071
 20
-1.9685
 30
2.06
 70
    64
  0
VERTEX
  5
601A7
100
AcDbEntity
  8
0
100
AcDbVertex
100
AcDbPolygonMeshVertex
 10
1.07071
 20
-1.9685
 30
1.386
 70
    64
  0
VERTEX
  5
601A8
100
AcDbEntity
  8
0
100
AcDbVertex
100
AcDbPolygonMeshVertex
 10
1.07071
 20
-2.2215
 30
1.386
 70
    64
  0
VERTEX
  5
601A9
100
AcDbEntity
  8
0
100
AcDbVertex
100
AcDbPolygonMeshVertex
 10
1.07071
 20
-1.9685
 30
2.06
 70
    64
  0
VERTEX
  5
601AA
100
AcDbEntity
  8
0
100
AcDbVertex
100
AcDbPolygonMeshVertex
 10
1.07071
 20
-1.9685
 30
2.06
 70
    64
  0
VERTEX
  5
601AB
100
AcDbEntity
  8
0
100
AcDbVertex
100
AcDbPolygonMeshVertex
 10
1.07071
 20
-2.2215
 30
2.06
 70
    64
  0
VERTEX
  5
601AC
100
AcDbEntity
  8
0
100
AcDbVertex
100
AcDbPolygonMeshVertex
 10
0.69971
 20
-1.9685
 30
2.06
 70
    64
  0
VERTEX
  5
601AD
100
AcDbEntity
  8
0
100
AcDbVertex
100
AcDbPolygonMeshVertex
 10
0.69971
 20
-1.9685
 30
2.06
 70
    64
  0
VERTEX
  5
601AE
100
AcDbEntity
  8
0
100
AcDbVertex
100
AcDbPolygonMeshVertex
 10
0.69971
 20
-2.2215
 30
2.06
 70
    64
  0
SEQEND
  5
601AF
100
AcDbEntity
  8
0
  0
LWPOLYLINE
  5
601B0
100
AcDbEntity
  8
0
100
AcDbPolyline
 90
        4
 70
     1
 43
0.0
 38
2.062
 10
0.75171
 20
-2.0205
 10
1.01871
 20
-2.0205
 10
1.01871
 20
-2.1695
 10
0.75171
 20
-2.1695
  0
LWPOLYLINE
  5
601B1
100
AcDbEntity
  8
0
100
AcDbPolyline
 90
        4
 70
     1
 43
0.0
 38
1.388
 10
0.75171
 20
-2.0205
 10
1.01871
 20
-2.0205
 10
1.01871
 20
-2.1695
 10
0.75171
 20
-2.1695
  0
POLYLINE
  5
601B2
100
AcDbEntity
  8
0
100
AcDbPolygonMesh
 66
     1
 10
0.0
 20
0.0
 30
0.0
 70
    16
 71
     6
 72
     3
  0
VERTEX
  5
601B3
100
AcDbEntity
  8
0
100
AcDbVertex
100
AcDbPolygonMeshVertex
 10
0.33271
 20
0.9585
 30
2.06
 70
    64
  0
VERTEX
  5
601B4
100
AcDbEntity
  8
0
100
AcDbVertex
100
AcDbPolygonMeshVertex
 10
0.33271
 20
0.9585
 30
1.386
 70
    64
  0
VERTEX
  5
601B5
100
AcDbEntity
  8
0
100
AcDbVertex
100
AcDbPolygonMeshVertex
 10
0.33271
 20
0.9585
 30
1.386
 70
    64
  0
VERTEX
  5
601B6
100
AcDbEntity
  8
0
100
AcDbVertex
100
AcDbPolygonMeshVertex
 10
1.43771
 20
0.9585
 30
2.06
 70
    64
  0
VERTEX
  5
601B7
100
AcDbEntity
  8
0
100
AcDbVertex
100
AcDbPolygonMeshVertex
 10
1.43771
 20
0.9585
 30
1.386
 70
    64
  0
VERTEX
  5
601B8
100
AcDbEntity
  8
0
100
AcDbVertex
100
AcDbPolygonMeshVertex
 10
1.43771
 20
0.9585
 30
1.386
 70
    64
  0
VERTEX
  5
601B9
100
AcDbEntity
  8
0
100
AcDbVertex
100
AcDbPolygonMeshVertex
 10
1.43771
 20
0.5215
 30
2.06
 70
    64
  0
VERTEX
  5
601BA
100
AcDbEntity
  8
0
100
AcDbVertex
100
AcDbPolygonMeshVertex
 10
1.43771
 20
0.5215
 30
1.386
 70
    64
  0
VERTEX
  5
601BB
100
AcDbEntity
  8
0
100
AcDbVertex
100
AcDbPolygonMeshVertex
 10
1.43771
 20
0.9585
 30
1.386
 70
    64
  0
VERTEX
  5
601BC
100
AcDbEntity
  8
0
100
AcDbVertex
100
AcDbPolygonMeshVertex
 10
0.33271
 20
0.5215
 30
2.06
 70
    64
  0
VERTEX
  5
601BD
100
AcDbEntity
  8
0
100
AcDbVertex
100
AcDbPolygonMeshVertex
 10
0.33271
 20
0.5215
 30
1.386
 70
    64
  0
VERTEX
  5
601BE
100
AcDbEntity
  8
0
100
AcDbVertex
100
AcDbPolygonMeshVertex
 10
0.33271
 20
0.9585
 30
1.386
 70
    64
  0
VERTEX
  5
601BF
100
AcDbEntity
  8
0
100
AcDbVertex
100
AcDbPolygonMeshVertex
 10
0.33271
 20
0.5215
 30
2.06
 70
    64
  0
VERTEX
  5
601C0
100
AcDbEntity
  8
0
100
AcDbVertex
100
AcDbPolygonMeshVertex
 10
0.33271
 20
0.5215
 30
2.06
 70
    64
  0
VERTEX
  5
601C1
100
AcDbEntity
  8
0
100
AcDbVertex
100
AcDbPolygonMeshVertex
 10
0.33271
 20
0.9585
 30
2.06
 70
    64
  0
VERTEX
  5
601C2
100
AcDbEntity
  8
0
100
AcDbVertex
100
AcDbPolygonMeshVertex
 10
1.43771
 20
0.5215
 30
2.06
 70
    64
  0
VERTEX
  5
601C3
100
AcDbEntity
  8
0
100
AcDbVertex
100
AcDbPolygonMeshVertex
 10
1.43771
 20
0.5215
 30
2.06
 70
    64
  0
VERTEX
  5
601C4
100
AcDbEntity
  8
0
100
AcDbVertex
100
AcDbPolygonMeshVertex
 10
1.43771
 20
0.9585
 30
2.06
 70
    64
  0
SEQEND
  5
601C5
100
AcDbEntity
  8
0
  0
LINE
  5
601C6
100
AcDbEntity
  8
0
100
AcDbLine
 10
0.74521
 20
0.5215
 30
2.06
 11
0.74521
 21
0.7565
 31
2.06
  0
LINE
  5
601C7
100
AcDbEntity
  8
0
100
AcDbLine
 10
1.02521
 20
0.5215
 30
2.06
 11
1.02521
 21
0.7565
 31
2.06
  0
LINE
  5
601C8
100
AcDbEntity
  8
0
100
AcDbLine
 10
1.02521
 20
0.7565
 30
2.06
 11
0.74521
 21
0.7565
 31
2.06
  0
CIRCLE
  5
601C9
100
AcDbEntity
  8
0
100
AcDbCircle
 10
0.54621
 20
0.74
 30
2.06
 40
0.12
  0
CIRCLE
  5
601CA
100
AcDbEntity
  8
0
100
AcDbCircle
 10
1.22421
 20
0.74
 30
2.06
 40
0.12
  0
POLYLINE
  5
601CB
100
AcDbEntity
  8
0
100
AcDb3dPolyline
 66
     1
 10
0.0
 20
0.0
 30
0.0
 70
     8
  0
VERTEX
  5
601CC
100
AcDbEntity
  8
0
100
AcDbVertex
100
AcDb3dPolylineVertex
 10
1.76521
 20
-1.3525
 30
0.187
 70
    32
  0
VERTEX
  5
601CD
100
AcDbEntity
  8
0
100
AcDbVertex
100
AcDb3dPolylineVertex
 10
1.76521
 20
-1.3525
 30
1.057
 70
    32
  0
VERTEX
  5
601CE
100
AcDbEntity
  8
0
100
AcDbVertex
100
AcDb3dPolylineVertex
 10
1.76521
 20
-1.5075
 30
1.057
 70
    32
  0
VERTEX
  5
601CF
100
AcDbEntity
  8
0
100
AcDbVertex
100
AcDb3dPolylineVertex
 10
1.76521
 20
-1.5075
 30
0.187
 70
    32
  0
SEQEND
  5
601D0
100
AcDbEntity
  8
0
  0
POLYLINE
  5
601D1
100
AcDbEntity
  8
0
100
AcDb3dPolyline
 66
     1
 10
0.0
 20
0.0
 30
0.0
 70
     8
  0
VERTEX
  5
601D2
100
AcDbEntity
  8
0
100
AcDbVertex
100
AcDb3dPolylineVertex
 10
1.76521
 20
0.0265
 30
0.187
 70
    32
  0
VERTEX
  5
601D3
100
AcDbEntity
  8
0
100
AcDbVertex
100
AcDb3dPolylineVertex
 10
1.76521
 20
0.0265
 30
1.057
 70
    32
  0
VERTEX
  5
601D4
100
AcDbEntity
  8
0
100
AcDbVertex
100
AcDb3dPolylineVertex
 10
1.76521
 20
-0.1285
 30
1.057
 70
    32
  0
VERTEX
  5
601D5
100
AcDbEntity
  8
0
100
AcDbVertex
100
AcDb3dPolylineVertex
 10
1.76521
 20
-0.1285
 30
0.187
 70
    32
  0
SEQEND
  5
601D6
100
AcDbEntity
  8
0
  0
LINE
  5
601D7
100
AcDbEntity
  8
0
100
AcDbLine
 10
1.76521
 20
-0.6295
 30
0.517
 11
1.76521
 21
-0.8515
 31
0.517
  0
LINE
  5
601D8
100
AcDbEntity
  8
0
100
AcDbLine
 10
1.76521
 20
-0.8515
 30
0.517
 11
1.76521
 21
-0.8515
 31
0.187
  0
LINE
  5
601D9
100
AcDbEntity
  8
0
100
AcDbLine
 10
1.76521
 20
-0.6295
 30
0.517
 11
1.76521
 21
-0.6295
 31
0.187
  0
POLYLINE
  5
601DA
100
AcDbEntity
  8
0
100
AcDb3dPolyline
 66
     1
 10
0.0
 20
0.0
 30
0.0
 70
     8
  0
VERTEX
  5
601DB
100
AcDbEntity
  8
0
100
AcDbVertex
100
AcDb3dPolylineVertex
 10
0.00521
 20
0.0265
 30
0.187
 70
    32
  0
VERTEX
  5
601DC
100
AcDbEntity
  8
0
100
AcDbVertex
100
AcDb3dPolylineVertex
 10
0.00521
 20
0.0265
 30
1.057
 70
    32
  0
VERTEX
  5
601DD
100
AcDbEntity
  8
0
100
AcDbVertex
100
AcDb3dPolylineVertex
 10
0.00521
 20
-0.1285
 30
1.057
 70
    32
  0
VERTEX
  5
601DE
100
AcDbEntity
  8
0
100
AcDbVertex
100
AcDb3dPolylineVertex
 10
0.00521
 20
-0.1285
 30
0.187
 70
    32
  0
SEQEND
  5
601DF
100
AcDbEntity
  8
0
  0
POLYLINE
  5
601E0
100
AcDbEntity
  8
0
100
AcDb3dPolyline
 66
     1
 10
0.0
 20
0.0
 30
0.0
 70
     8
  0
VERTEX
  5
601E1
100
AcDbEntity
  8
0
100
AcDbVertex
100
AcDb3dPolylineVertex
 10
0.00521
 20
-1.3525
 30
0.187
 70
    32
  0
VERTEX
  5
601E2
100
AcDbEntity
  8
0
100
AcDbVertex
100
AcDb3dPolylineVertex
 10
0.00521
 20
-1.3525
 30
1.057
 70
    32
  0
VERTEX
  5
601E3
100
AcDbEntity
  8
0
100
AcDbVertex
100
AcDb3dPolylineVertex
 10
0.00521
 20
-1.5075
 30
1.057
 70
    32
  0
VERTEX
  5
601E4
100
AcDbEntity
  8
0
100
AcDbVertex
100
AcDb3dPolylineVertex
 10
0.00521
 20
-1.5075
 30
0.187
 70
    32
  0
SEQEND
  5
601E5
100
AcDbEntity
  8
0
  0
LINE
  5
601E6
100
AcDbEntity
  8
0
100
AcDbLine
 10
1.76521
 20
-1.5675
 30
0.187
 11
1.76521
 21
-1.5675
 31
0.0
  0
LINE
  5
601E7
100
AcDbEntity
  8
0
100
AcDbLine
 10
1.76521
 20
-1.5675
 30
0.0
 11
0.88521
 21
-1.5675
 31
0.0
  0
POLYLINE
  5
601E8
100
AcDbEntity
  8
0
100
AcDbPolygonMesh
 66
     1
 10
0.0
 20
0.0
 30
0.0
 70
    16
 71
     6
 72
     3
  0
VERTEX
  5
601E9
100
AcDbEntity
  8
0
100
AcDbVertex
100
AcDbPolygonMeshVertex
 10
0.88521
 20
-1.5675
 30
0.187
 70
    64
  0
VERTEX
  5
601EA
100
AcDbEntity
  8
0
100
AcDbVertex
100
AcDbPolygonMeshVertex
 10
0.88521
 20
-1.5675
 30
0.0
 70
    64
  0
VERTEX
  5
601EB
100
AcDbEntity
  8
0
100
AcDbVertex
100
AcDbPolygonMeshVertex
 10
0.88521
 20
-1.5675
 30
0.0
 70
    64
  0
VERTEX
  5
601EC
100
AcDbEntity
  8
0
100
AcDbVertex
100
AcDbPolygonMeshVertex
 10
1.76521
 20
-1.5675
 30
0.187
 70
    64
  0
VERTEX
  5
601ED
100
AcDbEntity
  8
0
100
AcDbVertex
100
AcDbPolygonMeshVertex
 10
1.76521
 20
-1.5675
 30
0.0
 70
    64
  0
VERTEX
  5
601EE
100
AcDbEntity
  8
0
100
AcDbVertex
100
AcDbPolygonMeshVertex
 10
1.76521
 20
-1.5675
 30
0.0
 70
    64
  0
VERTEX
  5
601EF
100
AcDbEntity
  8
0
100
AcDbVertex
100
AcDbPolygonMeshVertex
 10
1.76521
 20
-2.1655
 30
0.187
 70
    64
  0
VERTEX
  5
601F0
100
AcDbEntity
  8
0
100
AcDbVertex
100
AcDbPolygonMeshVertex
 10
1.76521
 20
-2.1655
 30
0.0
 70
    64
  0
VERTEX
  5
601F1
100
AcDbEntity
  8
0
100
AcDbVertex
100
AcDbPolygonMeshVertex
 10
1.76521
 20
-1.5675
 30
0.0
 70
    64
  0
VERTEX
  5
601F2
100
AcDbEntity
  8
0
100
AcDbVertex
100
AcDbPolygonMeshVertex
 10
0.88521
 20
-2.1655
 30
0.187
 70
    64
  0
VERTEX
  5
601F3
100
AcDbEntity
  8
0
100
AcDbVertex
100
AcDbPolygonMeshVertex
 10
0.88521
 20
-2.1655
 30
0.0
 70
    64
  0
VERTEX
  5
601F4
100
AcDbEntity
  8
0
100
AcDbVertex
100
AcDbPolygonMeshVertex
 10
0.88521
 20
-1.5675
 30
0.0
 70
    64
  0
VERTEX
  5
601F5
100
AcDbEntity
  8
0
100
AcDbVertex
100
AcDbPolygonMeshVertex
 10
0.88521
 20
-2.1655
 30
0.187
 70
    64
  0
VERTEX
  5
601F6
100
AcDbEntity
  8
0
100
AcDbVertex
100
AcDbPolygonMeshVertex
 10
0.88521
 20
-2.1655
 30
0.187
 70
    64
  0
VERTEX
  5
601F7
100
AcDbEntity
  8
0
100
AcDbVertex
100
AcDbPolygonMeshVertex
 10
0.88521
 20
-1.5675
 30
0.187
 70
    64
  0
VERTEX
  5
601F8
100
AcDbEntity
  8
0
100
AcDbVertex
100
AcDbPolygonMeshVertex
 10
1.76521
 20
-2.1655
 30
0.187
 70
    64
  0
VERTEX
  5
601F9
100
AcDbEntity
  8
0
100
AcDbVertex
100
AcDbPolygonMeshVertex
 10
1.76521
 20
-2.1655
 30
0.187
 70
    64
  0
VERTEX
  5
601FA
100
AcDbEntity
  8
0
100
AcDbVertex
100
AcDbPolygonMeshVertex
 10
1.76521
 20
-1.5675
 30
0.187
 70
    64
  0
SEQEND
  5
601FB
100
AcDbEntity
  8
0
  0
POLYLINE
  5
601FC
100
AcDbEntity
  8
0
100
AcDbPolygonMesh
 66
     1
 10
0.0
 20
0.0
 30
0.0
 70
    16
 71
     6
 72
     3
  0
VERTEX
  5
601FD
100
AcDbEntity
  8
0
100
AcDbVertex
100
AcDbPolygonMeshVertex
 10
0.00521
 20
0.7185
 30
0.187
 70
    64
  0
VERTEX
  5
601FE
100
AcDbEntity
  8
0
100
AcDbVertex
100
AcDbPolygonMeshVertex
 10
0.00521
 20
0.7185
 30
0.0
 70
    64
  0
VERTEX
  5
601FF
100
AcDbEntity
  8
0
100
AcDbVertex
100
AcDbPolygonMeshVertex
 10
0.00521
 20
0.7185
 30
0.0
 70
    64
  0
VERTEX
  5
60200
100
AcDbEntity
  8
0
100
AcDbVertex
100
AcDbPolygonMeshVertex
 10
0.88521
 20
0.7185
 30
0.187
 70
    64
  0
VERTEX
  5
60201
100
AcDbEntity
  8
0
100
AcDbVertex
100
AcDbPolygonMeshVertex
 10
0.88521
 20
0.7185
 30
0.0
 70
    64
  0
VERTEX
  5
60202
100
AcDbEntity
  8
0
100
AcDbVertex
100
AcDbPolygonMeshVertex
 10
0.88521
 20
0.7185
 30
0.0
 70
    64
  0
VERTEX
  5
60203
100
AcDbEntity
  8
0
100
AcDbVertex
100
AcDbPolygonMeshVertex
 10
0.88521
 20
0.1205
 30
0.187
 70
    64
  0
VERTEX
  5
60204
100
AcDbEntity
  8
0
100
AcDbVertex
100
AcDbPolygonMeshVertex
 10
0.88521
 20
0.1205
 30
0.0
 70
    64
  0
VERTEX
  5
60205
100
AcDbEntity
  8
0
100
AcDbVertex
100
AcDbPolygonMeshVertex
 10
0.88521
 20
0.7185
 30
0.0
 70
    64
  0
VERTEX
  5
60206
100
AcDbEntity
  8
0
100
AcDbVertex
100
AcDbPolygonMeshVertex
 10
0.00521
 20
0.1205
 30
0.187
 70
    64
  0
VERTEX
  5
60207
100
AcDbEntity
  8
0
100
AcDbVertex
100
AcDbPolygonMeshVertex
 10
0.00521
 20
0.1205
 30
0.0
 70
    64
  0
VERTEX
  5
60208
100
AcDbEntity
  8
0
100
AcDbVertex
100
AcDbPolygonMeshVertex
 10
0.00521
 20
0.7185
 30
0.0
 70
    64
  0
VERTEX
  5
60209
100
AcDbEntity
  8
0
100
AcDbVertex
100
AcDbPolygonMeshVertex
 10
0.00521
 20
0.1205
 30
0.187
 70
    64
  0
VERTEX
  5
6020A
100
AcDbEntity
  8
0
100
AcDbVertex
100
AcDbPolygonMeshVertex
 10
0.00521
 20
0.1205
 30
0.187
 70
    64
  0
VERTEX
  5
6020B
100
AcDbEntity
  8
0
100
AcDbVertex
100
AcDbPolygonMeshVertex
 10
0.00521
 20
0.7185
 30
0.187
 70
    64
  0
VERTEX
  5
6020C
100
AcDbEntity
  8
0
100
AcDbVertex
100
AcDbPolygonMeshVertex
 10
0.88521
 20
0.1205
 30
0.187
 70
    64
  0
VERTEX
  5
6020D
100
AcDbEntity
  8
0
100
AcDbVertex
100
AcDbPolygonMeshVertex
 10
0.88521
 20
0.1205
 30
0.187
 70
    64
  0
VERTEX
  5
6020E
100
AcDbEntity
  8
0
100
AcDbVertex
100
AcDbPolygonMeshVertex
 10
0.88521
 20
0.7185
 30
0.187
 70
    64
  0
SEQEND
  5
6020F
100
AcDbEntity
  8
0
  0
LINE
  5
60210
100
AcDbEntity
  8
0
100
AcDbLine
 10
1.76521
 20
-0.8065
 30
1.8785
 11
1.76521
 21
-0.6405
 31
1.8785
  0
POLYLINE
  5
60211
100
AcDbEntity
  8
0
100
AcDb3dPolyline
 66
     1
 10
0.0
 20
0.0
 30
0.0
 70
     8
  0
VERTEX
  5
60212
100
AcDbEntity
  8
0
100
AcDbVertex
100
AcDb3dPolylineVertex
 10
0.0
 20
-0.6405
 30
1.592
 70
    32
  0
VERTEX
  5
60213
100
AcDbEntity
  8
0
100
AcDbVertex
100
AcDb3dPolylineVertex
 10
0.0
 20
-0.6405
 30
2.165
 70
    32
  0
VERTEX
  5
60214
100
AcDbEntity
  8
0
100
AcDbVertex
100
AcDb3dPolylineVertex
 10
0.0
 20
-0.8065
 30
2.165
 70
    32
  0
VERTEX
  5
60215
100
AcDbEntity
  8
0
100
AcDbVertex
100
AcDb3dPolylineVertex
 10
0.0
 20
-0.8065
 30
1.592
 70
    32
  0
VERTEX
  5
60216
100
AcDbEntity
  8
0
100
AcDbVertex
100
AcDb3dPolylineVertex
 10
0.0
 20
-0.6405
 30
1.592
 70
    32
  0
SEQEND
  5
60217
100
AcDbEntity
  8
0
  0
LINE
  5
60218
100
AcDbEntity
  8
0
100
AcDbLine
 10
0.0
 20
-0.8065
 30
1.8785
 11
0.0
 21
-0.6405
 31
1.8785
  0
LINE
  5
60219
100
AcDbEntity
  8
0
100
AcDbLine
 10
0.0
 20
-0.8065
 30
2.0685
 11
0.0
 21
-0.6405
 31
2.0685
  0
CIRCLE
  5
6021A
100
AcDbEntity
  8
0
100
AcDbCircle
 10
1.57121
 20
0.4255
 30
0.316
 40
0.086
  0
POLYLINE
  5
6021B
100
AcDbEntity
  8
0
100
AcDb3dPolyline
 66
     1
 10
0.0
 20
0.0
 30
0.0
 70
     8
  0
VERTEX
  5
6021C
100
AcDbEntity
  8
0
100
AcDbVertex
100
AcDb3dPolylineVertex
 10
0.550544
 20
0.5215
 30
0.187
 70
    32
  0
VERTEX
  5
6021D
100
AcDbEntity
  8
0
100
AcDbVertex
100
AcDb3dPolylineVertex
 10
0.550544
 20
0.6565
 30
0.187
 70
    32
  0
VERTEX
  5
6021E
100
AcDbEntity
  8
0
100
AcDbVertex
100
AcDb3dPolylineVertex
 10
0.339877
 20
0.6565
 30
0.187
 70
    32
  0
VERTEX
  5
6021F
100
AcDbEntity
  8
0
100
AcDbVertex
100
AcDb3dPolylineVertex
 10
0.339877
 20
0.5215
 30
0.187
 70
    32
  0
SEQEND
  5
60220
100
AcDbEntity
  8
0
  0
POLYLINE
  5
60221
100
AcDbEntity
  8
0
100
AcDb3dPolyline
 66
     1
 10
0.0
 20
0.0
 30
0.0
 70
     8
  0
VERTEX
  5
60222
100
AcDbEntity
  8
0
100
AcDbVertex
100
AcDb3dPolylineVertex
 10
0.277877
 20
0.5215
 30
0.187
 70
    32
  0
VERTEX
  5
60223
100
AcDbEntity
  8
0
100
AcDbVertex
100
AcDb3dPolylineVertex
 10
0.277877
 20
0.6565
 30
0.187
 70
    32
  0
VERTEX
  5
60224
100
AcDbEntity
  8
0
100
AcDbVertex
100
AcDb3dPolylineVertex
 10
0.06721
 20
0.6565
 30
0.187
 70
    32
  0
VERTEX
  5
60225
100
AcDbEntity
  8
0
100
AcDbVertex
100
AcDb3dPolylineVertex
 10
0.06721
 20
0.5215
 30
0.187
 70
    32
  0
SEQEND
  5
60226
100
AcDbEntity
  8
0
  0
POLYLINE
  5
60227
100
AcDbEntity
  8
0
100
AcDb3dPolyline
 66
     1
 10
0.0
 20
0.0
 30
0.0
 70
     8
  0
VERTEX
  5
60228
100
AcDbEntity
  8
0
100
AcDbVertex
100
AcDb3dPolylineVertex
 10
0.82321
 20
0.5215
 30
0.187
 70
    32
  0
VERTEX
  5
60229
100
AcDbEntity
  8
0
100
AcDbVertex
100
AcDb3dPolylineVertex
 10
0.82321
 20
0.6565
 30
0.187
 70
    32
  0
VERTEX
  5
6022A
100
AcDbEntity
  8
0
100
AcDbVertex
100
AcDb3dPolylineVertex
 10
0.612544
 20
0.6565
 30
0.187
 70
    32
  0
VERTEX
  5
6022B
100
AcDbEntity
  8
0
100
AcDbVertex
100
AcDb3dPolylineVertex
 10
0.612544
 20
0.5215
 30
0.187
 70
    32
  0
SEQEND
  5
6022C
100
AcDbEntity
  8
0
  0
POLYLINE
  5
6022D
100
AcDbEntity
  8
0
100
AcDb3dPolyline
 66
     1
 10
0.0
 20
0.0
 30
0.0
 70
     8
  0
VERTEX
  5
6022E
100
AcDbEntity
  8
0
100
AcDbVertex
100
AcDb3dPolylineVertex
 10
1.492544
 20
-1.9685
 30
0.187
 70
    32
  0
VERTEX
  5
6022F
100
AcDbEntity
  8
0
100
AcDbVertex
100
AcDb3dPolylineVertex
 10
1.492544
 20
-2.1035
 30
0.187
 70
    32
  0
VERTEX
  5
60230
100
AcDbEntity
  8
0
100
AcDbVertex
100
AcDb3dPolylineVertex
 10
1.70321
 20
-2.1035
 30
0.187
 70
    32
  0
VERTEX
  5
60231
100
AcDbEntity
  8
0
100
AcDbVertex
100
AcDb3dPolylineVertex
 10
1.70321
 20
-1.9685
 30
0.187
 70
    32
  0
SEQEND
  5
60232
100
AcDbEntity
  8
0
  0
POLYLINE
  5
60233
100
AcDbEntity
  8
0
100
AcDb3dPolyline
 66
     1
 10
0.0
 20
0.0
 30
0.0
 70
     8
  0
VERTEX
  5
60234
100
AcDbEntity
  8
0
100
AcDbVertex
100
AcDb3dPolylineVertex
 10
1.219877
 20
-1.9685
 30
0.187
 70
    32
  0
VERTEX
  5
60235
100
AcDbEntity
  8
0
100
AcDbVertex
100
AcDb3dPolylineVertex
 10
1.219877
 20
-2.1035
 30
0.187
 70
    32
  0
VERTEX
  5
60236
100
AcDbEntity
  8
0
100
AcDbVertex
100
AcDb3dPolylineVertex
 10
1.430544
 20
-2.1035
 30
0.187
 70
    32
  0
VERTEX
  5
60237
100
AcDbEntity
  8
0
100
AcDbVertex
100
AcDb3dPolylineVertex
 10
1.430544
 20
-1.9685
 30
0.187
 70
    32
  0
SEQEND
  5
60238
100
AcDbEntity
  8
0
  0
POLYLINE
  5
60239
100
AcDbEntity
  8
0
100
AcDb3dPolyline
 66
     1
 10
0.0
 20
0.0
 30
0.0
 70
     8
  0
VERTEX
  5
6023A
100
AcDbEntity
  8
0
100
AcDbVertex
100
AcDb3dPolylineVertex
 10
0.94721
 20
-1.9685
 30
0.187
 70
    32
  0
VERTEX
  5
6023B
100
AcDbEntity
  8
0
100
AcDbVertex
100
AcDb3dPolylineVertex
 10
0.94721
 20
-2.1035
 30
0.187
 70
    32
  0
VERTEX
  5
6023C
100
AcDbEntity
  8
0
100
AcDbVertex
100
AcDb3dPolylineVertex
 10
1.157877
 20
-2.1035
 30
0.187
 70
    32
  0
VERTEX
  5
6023D
100
AcDbEntity
  8
0
100
AcDbVertex
100
AcDb3dPolylineVertex
 10
1.157877
 20
-1.9685
 30
0.187
 70
    32
  0
SEQEND
  5
6023E
100
AcDbEntity
  8
0
  0
CIRCLE
  5
6023F
100
AcDbEntity
  8
0
100
AcDbCircle
 10
0.19121
 20
-1.9345
 30
0.316
 40
0.086
  0
INSERT
  5
60240
100
AcDbEntity
  8
0
 62
     1
100
AcDbBlockReference
  2
AVE_RENDER
 10
-6.627499
 20
-2.735105
 30
0.0
1001
AVE_RENDER
1002
{
1070
     2
1000
Pref
1070
    30
1070
    20
1070
     0
1070
     0
1000

1070
    10
1070
     0
1070
    30
1040
1.0
1070
     1
1040
0.3
1040
0.4
1040
0.76
1040
1.538462
1010
-1.0
1020
-1.0
1030
-1.0
1040
0.3
1070
    49
1002
}
  0
INSERT
  5
60241
100
AcDbEntity
  8
0
 62
     3
100
AcDbBlockReference
  2
AVE_RENDER
 10
-6.627499
 20
-2.735105
 30
0.0
1001
AVE_RENDER
1002
{
1070
     0
1000
Full Opt
1070
     0
1070
     1
1070
     1
1070
     1
1070
     0
1070
     0
1070
     0
1070
     1
1070
     1
1040
0.0001
1040
0.0001
1002
}
  0
INSERT
  5
60242
100
AcDbEntity
  8
0
 62
     4
100
AcDbBlockReference
  2
AVE_RENDER
 10
-6.627499
 20
-2.735105
 30
0.0
1001
AVE_RENDER
1002
{
1070
     0
1000
Quick Opt
1070
     0
1070
     1
1070
     1
1070
     1
1070
     0
1070
     0
1070
     1
1002
}
  0
CIRCLE
  5
60243
100
AcDbEntity
  8
0
100
AcDbCircle
 10
0.19121
 20
-1.9345
 30
0.0
 40
0.086
  0
CIRCLE
  5
60244
100
AcDbEntity
  8
0
100
AcDbCircle
 10
1.57121
 20
0.4255
 30
0.0
 40
0.086
  0
POLYLINE
  5
60245
100
AcDbEntity
  8
0
100
AcDb3dPolyline
 66
     1
 10
0.0
 20
0.0
 30
0.0
 70
     8
  0
VERTEX
  5
60246
100
AcDbEntity
  8
0
100
AcDbVertex
100
AcDb3dPolylineVertex
 10
0.94721
 20
-1.9685
 30
0.0
 70
    32
  0
VERTEX
  5
60247
100
AcDbEntity
  8
0
100
AcDbVertex
100
AcDb3dPolylineVertex
 10
0.94721
 20
-2.1035
 30
0.0
 70
    32
  0
VERTEX
  5
60248
100
AcDbEntity
  8
0
100
AcDbVertex
100
AcDb3dPolylineVertex
 10
1.157877
 20
-2.1035
 30
0.0
 70
    32
  0
VERTEX
  5
60249
100
AcDbEntity
  8
0
100
AcDbVertex
100
AcDb3dPolylineVertex
 10
1.157877
 20
-1.9685
 30
0.0
 70
    32
  0
SEQEND
  5
6024A
100
AcDbEntity
  8
0
  0
POLYLINE
  5
6024B
100
AcDbEntity
  8
0
100
AcDb3dPolyline
 66
     1
 10
0.0
 20
0.0
 30
0.0
 70
     8
  0
VERTEX
  5
6024C
100
AcDbEntity
  8
0
100
AcDbVertex
100
AcDb3dPolylineVertex
 10
1.219877
 20
-1.9685
 30
0.0
 70
    32
  0
VERTEX
  5
6024D
100
AcDbEntity
  8
0
100
AcDbVertex
100
AcDb3dPolylineVertex
 10
1.219877
 20
-2.1035
 30
0.0
 70
    32
  0
VERTEX
  5
6024E
100
AcDbEntity
  8
0
100
AcDbVertex
100
AcDb3dPolylineVertex
 10
1.430544
 20
-2.1035
 30
0.0
 70
    32
  0
VERTEX
  5
6024F
100
AcDbEntity
  8
0
100
AcDbVertex
100
AcDb3dPolylineVertex
 10
1.430544
 20
-1.9685
 30
0.0
 70
    32
  0
SEQEND
  5
60250
100
AcDbEntity
  8
0
  0
POLYLINE
  5
60251
100
AcDbEntity
  8
0
100
AcDb3dPolyline
 66
     1
 10
0.0
 20
0.0
 30
0.0
 70
     8
  0
VERTEX
  5
60252
100
AcDbEntity
  8
0
100
AcDbVertex
100
AcDb3dPolylineVertex
 10
1.492544
 20
-1.9685
 30
0.0
 70
    32
  0
VERTEX
  5
60253
100
AcDbEntity
  8
0
100
AcDbVertex
100
AcDb3dPolylineVertex
 10
1.492544
 20
-2.1035
 30
0.0
 70
    32
  0
VERTEX
  5
60254
100
AcDbEntity
  8
0
100
AcDbVertex
100
AcDb3dPolylineVertex
 10
1.70321
 20
-2.1035
 30
0.0
 70
    32
  0
VERTEX
  5
60255
100
AcDbEntity
  8
0
100
AcDbVertex
100
AcDb3dPolylineVertex
 10
1.70321
 20
-1.9685
 30
0.0
 70
    32
  0
SEQEND
  5
60256
100
AcDbEntity
  8
0
  0
POLYLINE
  5
60257
100
AcDbEntity
  8
0
100
AcDb3dPolyline
 66
     1
 10
0.0
 20
0.0
 30
0.0
 70
     8
  0
VERTEX
  5
60258
100
AcDbEntity
  8
0
100
AcDbVertex
100
AcDb3dPolylineVertex
 10
0.82321
 20
0.5215
 30
0.0
 70
    32
  0
VERTEX
  5
60259
100
AcDbEntity
  8
0
100
AcDbVertex
100
AcDb3dPolylineVertex
 10
0.82321
 20
0.6565
 30
0.0
 70
    32
  0
VERTEX
  5
6025A
100
AcDbEntity
  8
0
100
AcDbVertex
100
AcDb3dPolylineVertex
 10
0.612544
 20
0.6565
 30
0.0
 70
    32
  0
VERTEX
  5
6025B
100
AcDbEntity
  8
0
100
AcDbVertex
100
AcDb3dPolylineVertex
 10
0.612544
 20
0.5215
 30
0.0
 70
    32
  0
SEQEND
  5
6025C
100
AcDbEntity
  8
0
  0
POLYLINE
  5
6025D
100
AcDbEntity
  8
0
100
AcDb3dPolyline
 66
     1
 10
0.0
 20
0.0
 30
0.0
 70
     8
  0
VERTEX
  5
6025E
100
AcDbEntity
  8
0
100
AcDbVertex
100
AcDb3dPolylineVertex
 10
0.550544
 20
0.5215
 30
0.0
 70
    32
  0
VERTEX
  5
6025F
100
AcDbEntity
  8
0
100
AcDbVertex
100
AcDb3dPolylineVertex
 10
0.550544
 20
0.6565
 30
0.0
 70
    32
  0
VERTEX
  5
60260
100
AcDbEntity
  8
0
100
AcDbVertex
100
AcDb3dPolylineVertex
 10
0.339877
 20
0.6565
 30
0.0
 70
    32
  0
VERTEX
  5
60261
100
AcDbEntity
  8
0
100
AcDbVertex
100
AcDb3dPolylineVertex
 10
0.339877
 20
0.5215
 30
0.0
 70
    32
  0
SEQEND
  5
60262
100
AcDbEntity
  8
0
  0
POLYLINE
  5
60263
100
AcDbEntity
  8
0
100
AcDb3dPolyline
 66
     1
 10
0.0
 20
0.0
 30
0.0
 70
     8
  0
VERTEX
  5
60264
100
AcDbEntity
  8
0
100
AcDbVertex
100
AcDb3dPolylineVertex
 10
0.277877
 20
0.5215
 30
0.0
 70
    32
  0
VERTEX
  5
60265
100
AcDbEntity
  8
0
100
AcDbVertex
100
AcDb3dPolylineVertex
 10
0.277877
 20
0.6565
 30
0.0
 70
    32
  0
VERTEX
  5
60266
100
AcDbEntity
  8
0
100
AcDbVertex
100
AcDb3dPolylineVertex
 10
0.06721
 20
0.6565
 30
0.0
 70
    32
  0
VERTEX
  5
60267
100
AcDbEntity
  8
0
100
AcDbVertex
100
AcDb3dPolylineVertex
 10
0.06721
 20
0.5215
 30
0.0
 70
    32
  0
SEQEND
  5
60268
100
AcDbEntity
  8
0
  0
LINE
  5
60269
100
AcDbEntity
  8
0
100
AcDbLine
 10
1.70321
 20
-1.9685
 30
0.0
 11
1.492544
 21
-1.9685
 31
0.0
  0
LINE
  5
6026A
100
AcDbEntity
  8
0
100
AcDbLine
 10
1.430544
 20
-1.9685
 30
0.0
 11
1.219877
 21
-1.9685
 31
0.0
  0
LINE
  5
6026B
100
AcDbEntity
  8
0
100
AcDbLine
 10
1.157877
 20
-1.9685
 30
0.0
 11
0.94721
 21
-1.9685
 31
0.0
  0
LINE
  5
6026C
100
AcDbEntity
  8
0
100
AcDbLine
 10
0.82321
 20
0.5215
 30
0.0
 11
0.612544
 21
0.5215
 31
0.0
  0
LINE
  5
6026D
100
AcDbEntity
  8
0
100
AcDbLine
 10
0.550544
 20
0.5215
 30
0.0
 11
0.339877
 21
0.5215
 31
0.0
  0
LINE
  5
6026E
100
AcDbEntity
  8
0
100
AcDbLine
 10
0.277877
 20
0.5215
 30
0.0
 11
0.06721
 21
0.5215
 31
0.0
  0
POLYLINE
  5
6026F
100
AcDbEntity
  8
0
100
AcDbPolygonMesh
 66
     1
 10
0.0
 20
0.0
 30
0.0
 70
    16
 71
     6
 72
     3
  0
VERTEX
  5
60270
100
AcDbEntity
  8
0
100
AcDbVertex
100
AcDbPolygonMeshVertex
 10
0.90571
 20
-1.9855
 30
2.929
 70
    64
  0
VERTEX
  5
60271
100
AcDbEntity
  8
0
100
AcDbVertex
100
AcDbPolygonMeshVertex
 10
0.90571
 20
-1.9855
 30
2.319
 70
    64
  0
VERTEX
  5
60272
100
AcDbEntity
  8
0
100
AcDbVertex
100
AcDbPolygonMeshVertex
 10
0.90571
 20
-1.9855
 30
2.319
 70
    64
  0
VERTEX
  5
60273
100
AcDbEntity
  8
0
100
AcDbVertex
100
AcDbPolygonMeshVertex
 10
0.85971
 20
-1.9855
 30
2.929
 70
    64
  0
VERTEX
  5
60274
100
AcDbEntity
  8
0
100
AcDbVertex
100
AcDbPolygonMeshVertex
 10
0.85971
 20
-1.9855
 30
2.319
 70
    64
  0
VERTEX
  5
60275
100
AcDbEntity
  8
0
100
AcDbVertex
100
AcDbPolygonMeshVertex
 10
0.85971
 20
-1.9855
 30
2.319
 70
    64
  0
VERTEX
  5
60276
100
AcDbEntity
  8
0
100
AcDbVertex
100
AcDbPolygonMeshVertex
 10
0.85971
 20
-1.8455
 30
2.929
 70
    64
  0
VERTEX
  5
60277
100
AcDbEntity
  8
0
100
AcDbVertex
100
AcDbPolygonMeshVertex
 10
0.85971
 20
-1.8455
 30
2.319
 70
    64
  0
VERTEX
  5
60278
100
AcDbEntity
  8
0
100
AcDbVertex
100
AcDbPolygonMeshVertex
 10
0.85971
 20
-1.9855
 30
2.319
 70
    64
  0
VERTEX
  5
60279
100
AcDbEntity
  8
0
100
AcDbVertex
100
AcDbPolygonMeshVertex
 10
0.90571
 20
-1.8455
 30
2.929
 70
    64
  0
VERTEX
  5
6027A
100
AcDbEntity
  8
0
100
AcDbVertex
100
AcDbPolygonMeshVertex
 10
0.90571
 20
-1.8455
 30
2.319
 70
    64
  0
VERTEX
  5
6027B
100
AcDbEntity
  8
0
100
AcDbVertex
100
AcDbPolygonMeshVertex
 10
0.90571
 20
-1.9855
 30
2.319
 70
    64
  0
VERTEX
  5
6027C
100
AcDbEntity
  8
0
100
AcDbVertex
100
AcDbPolygonMeshVertex
 10
0.90571
 20
-1.8455
 30
2.929
 70
    64
  0
VERTEX
  5
6027D
100
AcDbEntity
  8
0
100
AcDbVertex
100
AcDbPolygonMeshVertex
 10
0.90571
 20
-1.8455
 30
2.929
 70
    64
  0
VERTEX
  5
6027E
100
AcDbEntity
  8
0
100
AcDbVertex
100
AcDbPolygonMeshVertex
 10
0.90571
 20
-1.9855
 30
2.929
 70
    64
  0
VERTEX
  5
6027F
100
AcDbEntity
  8
0
100
AcDbVertex
100
AcDbPolygonMeshVertex
 10
0.85971
 20
-1.8455
 30
2.929
 70
    64
  0
VERTEX
  5
60280
100
AcDbEntity
  8
0
100
AcDbVertex
100
AcDbPolygonMeshVertex
 10
0.85971
 20
-1.8455
 30
2.929
 70
    64
  0
VERTEX
  5
60281
100
AcDbEntity
  8
0
100
AcDbVertex
100
AcDbPolygonMeshVertex
 10
0.85971
 20
-1.9855
 30
2.929
 70
    64
  0
SEQEND
  5
60282
100
AcDbEntity
  8
0
  0
POLYLINE
  5
60283
100
AcDbEntity
  8
0
100
AcDbPolygonMesh
 66
     1
 10
0.0
 20
0.0
 30
0.0
 70
    16
 71
     6
 72
     3
  0
VERTEX
  5
60284
100
AcDbEntity
  8
0
100
AcDbVertex
100
AcDbPolygonMeshVertex
 10
1.33546
 20
-1.9855
 30
2.929
 70
    64
  0
VERTEX
  5
60285
100
AcDbEntity
  8
0
100
AcDbVertex
100
AcDbPolygonMeshVertex
 10
1.33546
 20
-1.9855
 30
2.319
 70
    64
  0
VERTEX
  5
60286
100
AcDbEntity
  8
0
100
AcDbVertex
100
AcDbPolygonMeshVertex
 10
1.33546
 20
-1.9855
 30
2.319
 70
    64
  0
VERTEX
  5
60287
100
AcDbEntity
  8
0
100
AcDbVertex
100
AcDbPolygonMeshVertex
 10
1.28946
 20
-1.9855
 30
2.929
 70
    64
  0
VERTEX
  5
60288
100
AcDbEntity
  8
0
100
AcDbVertex
100
AcDbPolygonMeshVertex
 10
1.28946
 20
-1.9855
 30
2.319
 70
    64
  0
VERTEX
  5
60289
100
AcDbEntity
  8
0
100
AcDbVertex
100
AcDbPolygonMeshVertex
 10
1.28946
 20
-1.9855
 30
2.319
 70
    64
  0
VERTEX
  5
6028A
100
AcDbEntity
  8
0
100
AcDbVertex
100
AcDbPolygonMeshVertex
 10
1.28946
 20
-1.8455
 30
2.929
 70
    64
  0
VERTEX
  5
6028B
100
AcDbEntity
  8
0
100
AcDbVertex
100
AcDbPolygonMeshVertex
 10
1.28946
 20
-1.8455
 30
2.319
 70
    64
  0
VERTEX
  5
6028C
100
AcDbEntity
  8
0
100
AcDbVertex
100
AcDbPolygonMeshVertex
 10
1.28946
 20
-1.9855
 30
2.319
 70
    64
  0
VERTEX
  5
6028D
100
AcDbEntity
  8
0
100
AcDbVertex
100
AcDbPolygonMeshVertex
 10
1.33546
 20
-1.8455
 30
2.929
 70
    64
  0
VERTEX
  5
6028E
100
AcDbEntity
  8
0
100
AcDbVertex
100
AcDbPolygonMeshVertex
 10
1.33546
 20
-1.8455
 30
2.319
 70
    64
  0
VERTEX
  5
6028F
100
AcDbEntity
  8
0
100
AcDbVertex
100
AcDbPolygonMeshVertex
 10
1.33546
 20
-1.9855
 30
2.319
 70
    64
  0
VERTEX
  5
60290
100
AcDbEntity
  8
0
100
AcDbVertex
100
AcDbPolygonMeshVertex
 10
1.33546
 20
-1.8455
 30
2.929
 70
    64
  0
VERTEX
  5
60291
100
AcDbEntity
  8
0
100
AcDbVertex
100
AcDbPolygonMeshVertex
 10
1.33546
 20
-1.8455
 30
2.929
 70
    64
  0
VERTEX
  5
60292
100
AcDbEntity
  8
0
100
AcDbVertex
100
AcDbPolygonMeshVertex
 10
1.33546
 20
-1.9855
 30
2.929
 70
    64
  0
VERTEX
  5
60293
100
AcDbEntity
  8
0
100
AcDbVertex
100
AcDbPolygonMeshVertex
 10
1.28946
 20
-1.8455
 30
2.929
 70
    64
  0
VERTEX
  5
60294
100
AcDbEntity
  8
0
100
AcDbVertex
100
AcDbPolygonMeshVertex
 10
1.28946
 20
-1.8455
 30
2.929
 70
    64
  0
VERTEX
  5
60295
100
AcDbEntity
  8
0
100
AcDbVertex
100
AcDbPolygonMeshVertex
 10
1.28946
 20
-1.9855
 30
2.929
 70
    64
  0
SEQEND
  5
60296
100
AcDbEntity
  8
0
  0
POLYLINE
  5
60297
100
AcDbEntity
  8
0
100
AcDbPolygonMesh
 66
     1
 10
0.0
 20
0.0
 30
0.0
 70
    16
 71
     6
 72
     3
  0
VERTEX
  5
60298
100
AcDbEntity
  8
0
100
AcDbVertex
100
AcDbPolygonMeshVertex
 10
1.71921
 20
-2.0575
 30
2.319
 70
    64
  0
VERTEX
  5
60299
100
AcDbEntity
  8
0
100
AcDbVertex
100
AcDbPolygonMeshVertex
 10
1.71921
 20
-2.0575
 30
2.06
 70
    64
  0
VERTEX
  5
6029A
100
AcDbEntity
  8
0
100
AcDbVertex
100
AcDbPolygonMeshVertex
 10
1.71921
 20
-2.0575
 30
2.06
 70
    64
  0
VERTEX
  5
6029B
100
AcDbEntity
  8
0
100
AcDbVertex
100
AcDbPolygonMeshVertex
 10
0.04621
 20
-2.0575
 30
2.319
 70
    64
  0
VERTEX
  5
6029C
100
AcDbEntity
  8
0
100
AcDbVertex
100
AcDbPolygonMeshVertex
 10
0.04621
 20
-2.0575
 30
2.06
 70
    64
  0
VERTEX
  5
6029D
100
AcDbEntity
  8
0
100
AcDbVertex
100
AcDbPolygonMeshVertex
 10
0.04621
 20
-2.0575
 30
2.06
 70
    64
  0
VERTEX
  5
6029E
100
AcDbEntity
  8
0
100
AcDbVertex
100
AcDbPolygonMeshVertex
 10
0.04621
 20
-1.8455
 30
2.319
 70
    64
  0
VERTEX
  5
6029F
100
AcDbEntity
  8
0
100
AcDbVertex
100
AcDbPolygonMeshVertex
 10
0.04621
 20
-1.8455
 30
2.06
 70
    64
  0
VERTEX
  5
602A0
100
AcDbEntity
  8
0
100
AcDbVertex
100
AcDbPolygonMeshVertex
 10
0.04621
 20
-2.0575
 30
2.06
 70
    64
  0
VERTEX
  5
602A1
100
AcDbEntity
  8
0
100
AcDbVertex
100
AcDbPolygonMeshVertex
 10
1.71921
 20
-1.8455
 30
2.319
 70
    64
  0
VERTEX
  5
602A2
100
AcDbEntity
  8
0
100
AcDbVertex
100
AcDbPolygonMeshVertex
 10
1.71921
 20
-1.8455
 30
2.06
 70
    64
  0
VERTEX
  5
602A3
100
AcDbEntity
  8
0
100
AcDbVertex
100
AcDbPolygonMeshVertex
 10
1.71921
 20
-2.0575
 30
2.06
 70
    64
  0
VERTEX
  5
602A4
100
AcDbEntity
  8
0
100
AcDbVertex
100
AcDbPolygonMeshVertex
 10
1.71921
 20
-1.8455
 30
2.319
 70
    64
  0
VERTEX
  5
602A5
100
AcDbEntity
  8
0
100
AcDbVertex
100
AcDbPolygonMeshVertex
 10
1.71921
 20
-1.8455
 30
2.319
 70
    64
  0
VERTEX
  5
602A6
100
AcDbEntity
  8
0
100
AcDbVertex
100
AcDbPolygonMeshVertex
 10
1.71921
 20
-2.0575
 30
2.319
 70
    64
  0
VERTEX
  5
602A7
100
AcDbEntity
  8
0
100
AcDbVertex
100
AcDbPolygonMeshVertex
 10
0.04621
 20
-1.8455
 30
2.319
 70
    64
  0
VERTEX
  5
602A8
100
AcDbEntity
  8
0
100
AcDbVertex
100
AcDbPolygonMeshVertex
 10
0.04621
 20
-1.8455
 30
2.319
 70
    64
  0
VERTEX
  5
602A9
100
AcDbEntity
  8
0
100
AcDbVertex
100
AcDbPolygonMeshVertex
 10
0.04621
 20
-2.0575
 30
2.319
 70
    64
  0
SEQEND
  5
602AA
100
AcDbEntity
  8
0
  0
POLYLINE
  5
602AB
100
AcDbEntity
  8
0
100
AcDbPolygonMesh
 66
     1
 10
0.0
 20
0.0
 30
0.0
 70
    16
 71
     6
 72
     3
  0
VERTEX
  5
602AC
100
AcDbEntity
  8
0
100
AcDbVertex
100
AcDbPolygonMeshVertex
 10
1.76521
 20
-1.9685
 30
2.06
 70
    64
  0
VERTEX
  5
602AD
100
AcDbEntity
  8
0
100
AcDbVertex
100
AcDbPolygonMeshVertex
 10
1.76521
 20
-1.9685
 30
1.318
 70
    64
  0
VERTEX
  5
602AE
100
AcDbEntity
  8
0
100
AcDbVertex
100
AcDbPolygonMeshVertex
 10
1.76521
 20
-1.9685
 30
1.318
 70
    64
  0
VERTEX
  5
602AF
100
AcDbEntity
  8
0
100
AcDbVertex
100
AcDbPolygonMeshVertex
 10
0.00021
 20
-1.9685
 30
2.06
 70
    64
  0
VERTEX
  5
602B0
100
AcDbEntity
  8
0
100
AcDbVertex
100
AcDbPolygonMeshVertex
 10
0.00021
 20
-1.9685
 30
1.318
 70
    64
  0
VERTEX
  5
602B1
100
AcDbEntity
  8
0
100
AcDbVertex
100
AcDbPolygonMeshVertex
 10
0.00021
 20
-1.9685
 30
1.318
 70
    64
  0
VERTEX
  5
602B2
100
AcDbEntity
  8
0
100
AcDbVertex
100
AcDbPolygonMeshVertex
 10
0.00021
 20
0.5215
 30
2.06
 70
    64
  0
VERTEX
  5
602B3
100
AcDbEntity
  8
0
100
AcDbVertex
100
AcDbPolygonMeshVertex
 10
0.00021
 20
0.5215
 30
1.318
 70
    64
  0
VERTEX
  5
602B4
100
AcDbEntity
  8
0
100
AcDbVertex
100
AcDbPolygonMeshVertex
 10
0.00021
 20
-1.9685
 30
1.318
 70
    64
  0
VERTEX
  5
602B5
100
AcDbEntity
  8
0
100
AcDbVertex
100
AcDbPolygonMeshVertex
 10
1.76521
 20
0.5215
 30
2.06
 70
    64
  0
VERTEX
  5
602B6
100
AcDbEntity
  8
0
100
AcDbVertex
100
AcDbPolygonMeshVertex
 10
1.76521
 20
0.5215
 30
1.318
 70
    64
  0
VERTEX
  5
602B7
100
AcDbEntity
  8
0
100
AcDbVertex
100
AcDbPolygonMeshVertex
 10
1.76521
 20
-1.9685
 30
1.318
 70
    64
  0
VERTEX
  5
602B8
100
AcDbEntity
  8
0
100
AcDbVertex
100
AcDbPolygonMeshVertex
 10
1.76521
 20
0.5215
 30
2.06
 70
    64
  0
VERTEX
  5
602B9
100
AcDbEntity
  8
0
100
AcDbVertex
100
AcDbPolygonMeshVertex
 10
1.76521
 20
0.5215
 30
2.06
 70
    64
  0
VERTEX
  5
602BA
100
AcDbEntity
  8
0
100
AcDbVertex
100
AcDbPolygonMeshVertex
 10
1.76521
 20
-1.9685
 30
2.06
 70
    64
  0
VERTEX
  5
602BB
100
AcDbEntity
  8
0
100
AcDbVertex
100
AcDbPolygonMeshVertex
 10
0.00021
 20
0.5215
 30
2.06
 70
    64
  0
VERTEX
  5
602BC
100
AcDbEntity
  8
0
100
AcDbVertex
100
AcDbPolygonMeshVertex
 10
0.00021
 20
0.5215
 30
2.06
 70
    64
  0
VERTEX
  5
602BD
100
AcDbEntity
  8
0
100
AcDbVertex
100
AcDbPolygonMeshVertex
 10
0.00021
 20
-1.9685
 30
2.06
 70
    64
  0
SEQEND
  5
602BE
100
AcDbEntity
  8
0
  0
POLYLINE
  5
602BF
100
AcDbEntity
  8
0
100
AcDbPolygonMesh
 66
     1
 10
0.0
 20
0.0
 30
0.0
 70
    16
 71
     6
 72
     3
  0
VERTEX
  5
602C0
100
AcDbEntity
  8
0
100
AcDbVertex
100
AcDbPolygonMeshVertex
 10
0.42996
 20
-1.9855
 30
2.929
 70
    64
  0
VERTEX
  5
602C1
100
AcDbEntity
  8
0
100
AcDbVertex
100
AcDbPolygonMeshVertex
 10
0.42996
 20
-1.9855
 30
2.319
 70
    64
  0
VERTEX
  5
602C2
100
AcDbEntity
  8
0
100
AcDbVertex
100
AcDbPolygonMeshVertex
 10
0.42996
 20
-1.9855
 30
2.319
 70
    64
  0
VERTEX
  5
602C3
100
AcDbEntity
  8
0
100
AcDbVertex
100
AcDbPolygonMeshVertex
 10
0.47596
 20
-1.9855
 30
2.929
 70
    64
  0
VERTEX
  5
602C4
100
AcDbEntity
  8
0
100
AcDbVertex
100
AcDbPolygonMeshVertex
 10
0.47596
 20
-1.9855
 30
2.319
 70
    64
  0
VERTEX
  5
602C5
100
AcDbEntity
  8
0
100
AcDbVertex
100
AcDbPolygonMeshVertex
 10
0.47596
 20
-1.9855
 30
2.319
 70
    64
  0
VERTEX
  5
602C6
100
AcDbEntity
  8
0
100
AcDbVertex
100
AcDbPolygonMeshVertex
 10
0.47596
 20
-1.8455
 30
2.929
 70
    64
  0
VERTEX
  5
602C7
100
AcDbEntity
  8
0
100
AcDbVertex
100
AcDbPolygonMeshVertex
 10
0.47596
 20
-1.8455
 30
2.319
 70
    64
  0
VERTEX
  5
602C8
100
AcDbEntity
  8
0
100
AcDbVertex
100
AcDbPolygonMeshVertex
 10
0.47596
 20
-1.9855
 30
2.319
 70
    64
  0
VERTEX
  5
602C9
100
AcDbEntity
  8
0
100
AcDbVertex
100
AcDbPolygonMeshVertex
 10
0.42996
 20
-1.8455
 30
2.929
 70
    64
  0
VERTEX
  5
602CA
100
AcDbEntity
  8
0
100
AcDbVertex
100
AcDbPolygonMeshVertex
 10
0.42996
 20
-1.8455
 30
2.319
 70
    64
  0
VERTEX
  5
602CB
100
AcDbEntity
  8
0
100
AcDbVertex
100
AcDbPolygonMeshVertex
 10
0.42996
 20
-1.9855
 30
2.319
 70
    64
  0
VERTEX
  5
602CC
100
AcDbEntity
  8
0
100
AcDbVertex
100
AcDbPolygonMeshVertex
 10
0.42996
 20
-1.8455
 30
2.929
 70
    64
  0
VERTEX
  5
602CD
100
AcDbEntity
  8
0
100
AcDbVertex
100
AcDbPolygonMeshVertex
 10
0.42996
 20
-1.8455
 30
2.929
 70
    64
  0
VERTEX
  5
602CE
100
AcDbEntity
  8
0
100
AcDbVertex
100
AcDbPolygonMeshVertex
 10
0.42996
 20
-1.9855
 30
2.929
 70
    64
  0
VERTEX
  5
602CF
100
AcDbEntity
  8
0
100
AcDbVertex
100
AcDbPolygonMeshVertex
 10
0.47596
 20
-1.8455
 30
2.929
 70
    64
  0
VERTEX
  5
602D0
100
AcDbEntity
  8
0
100
AcDbVertex
100
AcDbPolygonMeshVertex
 10
0.47596
 20
-1.8455
 30
2.929
 70
    64
  0
VERTEX
  5
602D1
100
AcDbEntity
  8
0
100
AcDbVertex
100
AcDbPolygonMeshVertex
 10
0.47596
 20
-1.9855
 30
2.929
 70
    64
  0
SEQEND
  5
602D2
100
AcDbEntity
  8
0
  0
LINE
  5
602D3
100
AcDbEntity
  8
0
100
AcDbLine
 10
0.90571
 20
-1.8455
 30
2.646
 11
1.28946
 21
-1.8455
 31
2.646
  0
LINE
  5
602D4
100
AcDbEntity
  8
0
100
AcDbLine
 10
1.33546
 20
-1.8455
 30
2.646
 11
1.71921
 21
-1.8455
 31
2.646
  0
LINE
  5
602D5
100
AcDbEntity
  8
0
100
AcDbLine
 10
0.47596
 20
-1.8455
 30
2.646
 11
0.85971
 21
-1.8455
 31
2.646
  0
LINE
  5
602D6
100
AcDbEntity
  8
0
100
AcDbLine
 10
0.04621
 20
-1.8455
 30
2.646
 11
0.42996
 21
-1.8455
 31
2.646
  0
POLYLINE
  5
602D7
100
AcDbEntity
  8
0
100
AcDbPolygonMesh
 66
     1
 10
0.0
 20
0.0
 30
0.0
 70
    16
 71
     6
 72
     3
  0
VERTEX
  5
602D8
100
AcDbEntity
  8
0
100
AcDbVertex
100
AcDbPolygonMeshVertex
 10
0.04621
 20
-1.9855
 30
2.929
 70
    64
  0
VERTEX
  5
602D9
100
AcDbEntity
  8
0
100
AcDbVertex
100
AcDbPolygonMeshVertex
 10
0.04621
 20
-1.9855
 30
2.06
 70
    64
  0
VERTEX
  5
602DA
100
AcDbEntity
  8
0
100
AcDbVertex
100
AcDbPolygonMeshVertex
 10
0.04621
 20
-1.9855
 30
2.06
 70
    64
  0
VERTEX
  5
602DB
100
AcDbEntity
  8
0
100
AcDbVertex
100
AcDbPolygonMeshVertex
 10
0.00021
 20
-1.9855
 30
2.929
 70
    64
  0
VERTEX
  5
602DC
100
AcDbEntity
  8
0
100
AcDbVertex
100
AcDbPolygonMeshVertex
 10
0.00021
 20
-1.9855
 30
2.06
 70
    64
  0
VERTEX
  5
602DD
100
AcDbEntity
  8
0
100
AcDbVertex
100
AcDbPolygonMeshVertex
 10
0.00021
 20
-1.9855
 30
2.06
 70
    64
  0
VERTEX
  5
602DE
100
AcDbEntity
  8
0
100
AcDbVertex
100
AcDbPolygonMeshVertex
 10
0.00021
 20
-1.8455
 30
2.929
 70
    64
  0
VERTEX
  5
602DF
100
AcDbEntity
  8
0
100
AcDbVertex
100
AcDbPolygonMeshVertex
 10
0.00021
 20
-1.8455
 30
2.06
 70
    64
  0
VERTEX
  5
602E0
100
AcDbEntity
  8
0
100
AcDbVertex
100
AcDbPolygonMeshVertex
 10
0.00021
 20
-1.9855
 30
2.06
 70
    64
  0
VERTEX
  5
602E1
100
AcDbEntity
  8
0
100
AcDbVertex
100
AcDbPolygonMeshVertex
 10
0.04621
 20
-1.8455
 30
2.929
 70
    64
  0
VERTEX
  5
602E2
100
AcDbEntity
  8
0
100
AcDbVertex
100
AcDbPolygonMeshVertex
 10
0.04621
 20
-1.8455
 30
2.06
 70
    64
  0
VERTEX
  5
602E3
100
AcDbEntity
  8
0
100
AcDbVertex
100
AcDbPolygonMeshVertex
 10
0.04621
 20
-1.9855
 30
2.06
 70
    64
  0
VERTEX
  5
602E4
100
AcDbEntity
  8
0
100
AcDbVertex
100
AcDbPolygonMeshVertex
 10
0.04621
 20
-1.8455
 30
2.929
 70
    64
  0
VERTEX
  5
602E5
100
AcDbEntity
  8
0
100
AcDbVertex
100
AcDbPolygonMeshVertex
 10
0.04621
 20
-1.8455
 30
2.929
 70
    64
  0
VERTEX
  5
602E6
100
AcDbEntity
  8
0
100
AcDbVertex
100
AcDbPolygonMeshVertex
 10
0.04621
 20
-1.9855
 30
2.929
 70
    64
  0
VERTEX
  5
602E7
100
AcDbEntity
  8
0
100
AcDbVertex
100
AcDbPolygonMeshVertex
 10
0.00021
 20
-1.8455
 30
2.929
 70
    64
  0
VERTEX
  5
602E8
100
AcDbEntity
  8
0
100
AcDbVertex
100
AcDbPolygonMeshVertex
 10
0.00021
 20
-1.8455
 30
2.929
 70
    64
  0
VERTEX
  5
602E9
100
AcDbEntity
  8
0
100
AcDbVertex
100
AcDbPolygonMeshVertex
 10
0.00021
 20
-1.9855
 30
2.929
 70
    64
  0
SEQEND
  5
602EA
100
AcDbEntity
  8
0
  0
POLYLINE
  5
602EB
100
AcDbEntity
  8
0
100
AcDbPolygonMesh
 66
     1
 10
0.0
 20
0.0
 30
0.0
 70
    16
 71
     6
 72
     3
  0
VERTEX
  5
602EC
100
AcDbEntity
  8
0
100
AcDbVertex
100
AcDbPolygonMeshVertex
 10
1.76521
 20
-1.9855
 30
2.929
 70
    64
  0
VERTEX
  5
602ED
100
AcDbEntity
  8
0
100
AcDbVertex
100
AcDbPolygonMeshVertex
 10
1.76521
 20
-1.9855
 30
2.06
 70
    64
  0
VERTEX
  5
602EE
100
AcDbEntity
  8
0
100
AcDbVertex
100
AcDbPolygonMeshVertex
 10
1.76521
 20
-1.9855
 30
2.06
 70
    64
  0
VERTEX
  5
602EF
100
AcDbEntity
  8
0
100
AcDbVertex
100
AcDbPolygonMeshVertex
 10
1.71921
 20
-1.9855
 30
2.929
 70
    64
  0
VERTEX
  5
602F0
100
AcDbEntity
  8
0
100
AcDbVertex
100
AcDbPolygonMeshVertex
 10
1.71921
 20
-1.9855
 30
2.06
 70
    64
  0
VERTEX
  5
602F1
100
AcDbEntity
  8
0
100
AcDbVertex
100
AcDbPolygonMeshVertex
 10
1.71921
 20
-1.9855
 30
2.06
 70
    64
  0
VERTEX
  5
602F2
100
AcDbEntity
  8
0
100
AcDbVertex
100
AcDbPolygonMeshVertex
 10
1.71921
 20
-1.8455
 30
2.929
 70
    64
  0
VERTEX
  5
602F3
100
AcDbEntity
  8
0
100
AcDbVertex
100
AcDbPolygonMeshVertex
 10
1.71921
 20
-1.8455
 30
2.06
 70
    64
  0
VERTEX
  5
602F4
100
AcDbEntity
  8
0
100
AcDbVertex
100
AcDbPolygonMeshVertex
 10
1.71921
 20
-1.9855
 30
2.06
 70
    64
  0
VERTEX
  5
602F5
100
AcDbEntity
  8
0
100
AcDbVertex
100
AcDbPolygonMeshVertex
 10
1.76521
 20
-1.8455
 30
2.929
 70
    64
  0
VERTEX
  5
602F6
100
AcDbEntity
  8
0
100
AcDbVertex
100
AcDbPolygonMeshVertex
 10
1.76521
 20
-1.8455
 30
2.06
 70
    64
  0
VERTEX
  5
602F7
100
AcDbEntity
  8
0
100
AcDbVertex
100
AcDbPolygonMeshVertex
 10
1.76521
 20
-1.9855
 30
2.06
 70
    64
  0
VERTEX
  5
602F8
100
AcDbEntity
  8
0
100
AcDbVertex
100
AcDbPolygonMeshVertex
 10
1.76521
 20
-1.8455
 30
2.929
 70
    64
  0
VERTEX
  5
602F9
100
AcDbEntity
  8
0
100
AcDbVertex
100
AcDbPolygonMeshVertex
 10
1.76521
 20
-1.8455
 30
2.929
 70
    64
  0
VERTEX
  5
602FA
100
AcDbEntity
  8
0
100
AcDbVertex
100
AcDbPolygonMeshVertex
 10
1.76521
 20
-1.9855
 30
2.929
 70
    64
  0
VERTEX
  5
602FB
100
AcDbEntity
  8
0
100
AcDbVertex
100
AcDbPolygonMeshVertex
 10
1.71921
 20
-1.8455
 30
2.929
 70
    64
  0
VERTEX
  5
602FC
100
AcDbEntity
  8
0
100
AcDbVertex
100
AcDbPolygonMeshVertex
 10
1.71921
 20
-1.8455
 30
2.929
 70
    64
  0
VERTEX
  5
602FD
100
AcDbEntity
  8
0
100
AcDbVertex
100
AcDbPolygonMeshVertex
 10
1.71921
 20
-1.9855
 30
2.929
 70
    64
  0
SEQEND
  5
602FE
100
AcDbEntity
  8
0
  0
POLYLINE
  5
602FF
100
AcDbEntity
  8
0
100
AcDbPolygonMesh
 66
     1
 10
0.0
 20
0.0
 30
0.0
 70
    16
 71
     6
 72
     3
  0
VERTEX
  5
60300
100
AcDbEntity
  8
0
100
AcDbVertex
100
AcDbPolygonMeshVertex
 10
1.76521
 20
0.5385
 30
2.929
 70
    64
  0
VERTEX
  5
60301
100
AcDbEntity
  8
0
100
AcDbVertex
100
AcDbPolygonMeshVertex
 10
1.76521
 20
0.5385
 30
2.06
 70
    64
  0
VERTEX
  5
60302
100
AcDbEntity
  8
0
100
AcDbVertex
100
AcDbPolygonMeshVertex
 10
1.76521
 20
0.5385
 30
2.06
 70
    64
  0
VERTEX
  5
60303
100
AcDbEntity
  8
0
100
AcDbVertex
100
AcDbPolygonMeshVertex
 10
1.71921
 20
0.5385
 30
2.929
 70
    64
  0
VERTEX
  5
60304
100
AcDbEntity
  8
0
100
AcDbVertex
100
AcDbPolygonMeshVertex
 10
1.71921
 20
0.5385
 30
2.06
 70
    64
  0
VERTEX
  5
60305
100
AcDbEntity
  8
0
100
AcDbVertex
100
AcDbPolygonMeshVertex
 10
1.71921
 20
0.5385
 30
2.06
 70
    64
  0
VERTEX
  5
60306
100
AcDbEntity
  8
0
100
AcDbVertex
100
AcDbPolygonMeshVertex
 10
1.71921
 20
0.3985
 30
2.929
 70
    64
  0
VERTEX
  5
60307
100
AcDbEntity
  8
0
100
AcDbVertex
100
AcDbPolygonMeshVertex
 10
1.71921
 20
0.3985
 30
2.06
 70
    64
  0
VERTEX
  5
60308
100
AcDbEntity
  8
0
100
AcDbVertex
100
AcDbPolygonMeshVertex
 10
1.71921
 20
0.5385
 30
2.06
 70
    64
  0
VERTEX
  5
60309
100
AcDbEntity
  8
0
100
AcDbVertex
100
AcDbPolygonMeshVertex
 10
1.76521
 20
0.3985
 30
2.929
 70
    64
  0
VERTEX
  5
6030A
100
AcDbEntity
  8
0
100
AcDbVertex
100
AcDbPolygonMeshVertex
 10
1.76521
 20
0.3985
 30
2.06
 70
    64
  0
VERTEX
  5
6030B
100
AcDbEntity
  8
0
100
AcDbVertex
100
AcDbPolygonMeshVertex
 10
1.76521
 20
0.5385
 30
2.06
 70
    64
  0
VERTEX
  5
6030C
100
AcDbEntity
  8
0
100
AcDbVertex
100
AcDbPolygonMeshVertex
 10
1.76521
 20
0.3985
 30
2.929
 70
    64
  0
VERTEX
  5
6030D
100
AcDbEntity
  8
0
100
AcDbVertex
100
AcDbPolygonMeshVertex
 10
1.76521
 20
0.3985
 30
2.929
 70
    64
  0
VERTEX
  5
6030E
100
AcDbEntity
  8
0
100
AcDbVertex
100
AcDbPolygonMeshVertex
 10
1.76521
 20
0.5385
 30
2.929
 70
    64
  0
VERTEX
  5
6030F
100
AcDbEntity
  8
0
100
AcDbVertex
100
AcDbPolygonMeshVertex
 10
1.71921
 20
0.3985
 30
2.929
 70
    64
  0
VERTEX
  5
60310
100
AcDbEntity
  8
0
100
AcDbVertex
100
AcDbPolygonMeshVertex
 10
1.71921
 20
0.3985
 30
2.929
 70
    64
  0
VERTEX
  5
60311
100
AcDbEntity
  8
0
100
AcDbVertex
100
AcDbPolygonMeshVertex
 10
1.71921
 20
0.5385
 30
2.929
 70
    64
  0
SEQEND
  5
60312
100
AcDbEntity
  8
0
  0
LINE
  5
60313
100
AcDbEntity
  8
0
100
AcDbLine
 10
1.33546
 20
0.3985
 30
2.646
 11
1.71921
 21
0.3985
 31
2.646
  0
POLYLINE
  5
60314
100
AcDbEntity
  8
0
100
AcDbPolygonMesh
 66
     1
 10
0.0
 20
0.0
 30
0.0
 70
    16
 71
     6
 72
     3
  0
VERTEX
  5
60315
100
AcDbEntity
  8
0
100
AcDbVertex
100
AcDbPolygonMeshVertex
 10
1.33546
 20
0.5385
 30
2.929
 70
    64
  0
VERTEX
  5
60316
100
AcDbEntity
  8
0
100
AcDbVertex
100
AcDbPolygonMeshVertex
 10
1.33546
 20
0.5385
 30
2.319
 70
    64
  0
VERTEX
  5
60317
100
AcDbEntity
  8
0
100
AcDbVertex
100
AcDbPolygonMeshVertex
 10
1.33546
 20
0.5385
 30
2.319
 70
    64
  0
VERTEX
  5
60318
100
AcDbEntity
  8
0
100
AcDbVertex
100
AcDbPolygonMeshVertex
 10
1.28946
 20
0.5385
 30
2.929
 70
    64
  0
VERTEX
  5
60319
100
AcDbEntity
  8
0
100
AcDbVertex
100
AcDbPolygonMeshVertex
 10
1.28946
 20
0.5385
 30
2.319
 70
    64
  0
VERTEX
  5
6031A
100
AcDbEntity
  8
0
100
AcDbVertex
100
AcDbPolygonMeshVertex
 10
1.28946
 20
0.5385
 30
2.319
 70
    64
  0
VERTEX
  5
6031B
100
AcDbEntity
  8
0
100
AcDbVertex
100
AcDbPolygonMeshVertex
 10
1.28946
 20
0.3985
 30
2.929
 70
    64
  0
VERTEX
  5
6031C
100
AcDbEntity
  8
0
100
AcDbVertex
100
AcDbPolygonMeshVertex
 10
1.28946
 20
0.3985
 30
2.319
 70
    64
  0
VERTEX
  5
6031D
100
AcDbEntity
  8
0
100
AcDbVertex
100
AcDbPolygonMeshVertex
 10
1.28946
 20
0.5385
 30
2.319
 70
    64
  0
VERTEX
  5
6031E
100
AcDbEntity
  8
0
100
AcDbVertex
100
AcDbPolygonMeshVertex
 10
1.33546
 20
0.3985
 30
2.929
 70
    64
  0
VERTEX
  5
6031F
100
AcDbEntity
  8
0
100
AcDbVertex
100
AcDbPolygonMeshVertex
 10
1.33546
 20
0.3985
 30
2.319
 70
    64
  0
VERTEX
  5
60320
100
AcDbEntity
  8
0
100
AcDbVertex
100
AcDbPolygonMeshVertex
 10
1.33546
 20
0.5385
 30
2.319
 70
    64
  0
VERTEX
  5
60321
100
AcDbEntity
  8
0
100
AcDbVertex
100
AcDbPolygonMeshVertex
 10
1.33546
 20
0.3985
 30
2.929
 70
    64
  0
VERTEX
  5
60322
100
AcDbEntity
  8
0
100
AcDbVertex
100
AcDbPolygonMeshVertex
 10
1.33546
 20
0.3985
 30
2.929
 70
    64
  0
VERTEX
  5
60323
100
AcDbEntity
  8
0
100
AcDbVertex
100
AcDbPolygonMeshVertex
 10
1.33546
 20
0.5385
 30
2.929
 70
    64
  0
VERTEX
  5
60324
100
AcDbEntity
  8
0
100
AcDbVertex
100
AcDbPolygonMeshVertex
 10
1.28946
 20
0.3985
 30
2.929
 70
    64
  0
VERTEX
  5
60325
100
AcDbEntity
  8
0
100
AcDbVertex
100
AcDbPolygonMeshVertex
 10
1.28946
 20
0.3985
 30
2.929
 70
    64
  0
VERTEX
  5
60326
100
AcDbEntity
  8
0
100
AcDbVertex
100
AcDbPolygonMeshVertex
 10
1.28946
 20
0.5385
 30
2.929
 70
    64
  0
SEQEND
  5
60327
100
AcDbEntity
  8
0
  0
LINE
  5
60328
100
AcDbEntity
  8
0
100
AcDbLine
 10
0.90571
 20
0.3985
 30
2.646
 11
1.28946
 21
0.3985
 31
2.646
  0
POLYLINE
  5
60329
100
AcDbEntity
  8
0
100
AcDbPolygonMesh
 66
     1
 10
0.0
 20
0.0
 30
0.0
 70
    16
 71
     6
 72
     3
  0
VERTEX
  5
6032A
100
AcDbEntity
  8
0
100
AcDbVertex
100
AcDbPolygonMeshVertex
 10
0.90571
 20
0.5385
 30
2.929
 70
    64
  0
VERTEX
  5
6032B
100
AcDbEntity
  8
0
100
AcDbVertex
100
AcDbPolygonMeshVertex
 10
0.90571
 20
0.5385
 30
2.319
 70
    64
  0
VERTEX
  5
6032C
100
AcDbEntity
  8
0
100
AcDbVertex
100
AcDbPolygonMeshVertex
 10
0.90571
 20
0.5385
 30
2.319
 70
    64
  0
VERTEX
  5
6032D
100
AcDbEntity
  8
0
100
AcDbVertex
100
AcDbPolygonMeshVertex
 10
0.85971
 20
0.5385
 30
2.929
 70
    64
  0
VERTEX
  5
6032E
100
AcDbEntity
  8
0
100
AcDbVertex
100
AcDbPolygonMeshVertex
 10
0.85971
 20
0.5385
 30
2.319
 70
    64
  0
VERTEX
  5
6032F
100
AcDbEntity
  8
0
100
AcDbVertex
100
AcDbPolygonMeshVertex
 10
0.85971
 20
0.5385
 30
2.319
 70
    64
  0
VERTEX
  5
60330
100
AcDbEntity
  8
0
100
AcDbVertex
100
AcDbPolygonMeshVertex
 10
0.85971
 20
0.3985
 30
2.929
 70
    64
  0
VERTEX
  5
60331
100
AcDbEntity
  8
0
100
AcDbVertex
100
AcDbPolygonMeshVertex
 10
0.85971
 20
0.3985
 30
2.319
 70
    64
  0
VERTEX
  5
60332
100
AcDbEntity
  8
0
100
AcDbVertex
100
AcDbPolygonMeshVertex
 10
0.85971
 20
0.5385
 30
2.319
 70
    64
  0
VERTEX
  5
60333
100
AcDbEntity
  8
0
100
AcDbVertex
100
AcDbPolygonMeshVertex
 10
0.90571
 20
0.3985
 30
2.929
 70
    64
  0
VERTEX
  5
60334
100
AcDbEntity
  8
0
100
AcDbVertex
100
AcDbPolygonMeshVertex
 10
0.90571
 20
0.3985
 30
2.319
 70
    64
  0
VERTEX
  5
60335
100
AcDbEntity
  8
0
100
AcDbVertex
100
AcDbPolygonMeshVertex
 10
0.90571
 20
0.5385
 30
2.319
 70
    64
  0
VERTEX
  5
60336
100
AcDbEntity
  8
0
100
AcDbVertex
100
AcDbPolygonMeshVertex
 10
0.90571
 20
0.3985
 30
2.929
 70
    64
  0
VERTEX
  5
60337
100
AcDbEntity
  8
0
100
AcDbVertex
100
AcDbPolygonMeshVertex
 10
0.90571
 20
0.3985
 30
2.929
 70
    64
  0
VERTEX
  5
60338
100
AcDbEntity
  8
0
100
AcDbVertex
100
AcDbPolygonMeshVertex
 10
0.90571
 20
0.5385
 30
2.929
 70
    64
  0
VERTEX
  5
60339
100
AcDbEntity
  8
0
100
AcDbVertex
100
AcDbPolygonMeshVertex
 10
0.85971
 20
0.3985
 30
2.929
 70
    64
  0
VERTEX
  5
6033A
100
AcDbEntity
  8
0
100
AcDbVertex
100
AcDbPolygonMeshVertex
 10
0.85971
 20
0.3985
 30
2.929
 70
    64
  0
VERTEX
  5
6033B
100
AcDbEntity
  8
0
100
AcDbVertex
100
AcDbPolygonMeshVertex
 10
0.85971
 20
0.5385
 30
2.929
 70
    64
  0
SEQEND
  5
6033C
100
AcDbEntity
  8
0
  0
POLYLINE
  5
6033D
100
AcDbEntity
  8
0
100
AcDbPolygonMesh
 66
     1
 10
0.0
 20
0.0
 30
0.0
 70
    16
 71
     6
 72
     3
  0
VERTEX
  5
6033E
100
AcDbEntity
  8
0
100
AcDbVertex
100
AcDbPolygonMeshVertex
 10
0.42996
 20
0.5385
 30
2.929
 70
    64
  0
VERTEX
  5
6033F
100
AcDbEntity
  8
0
100
AcDbVertex
100
AcDbPolygonMeshVertex
 10
0.42996
 20
0.5385
 30
2.319
 70
    64
  0
VERTEX
  5
60340
100
AcDbEntity
  8
0
100
AcDbVertex
100
AcDbPolygonMeshVertex
 10
0.42996
 20
0.5385
 30
2.319
 70
    64
  0
VERTEX
  5
60341
100
AcDbEntity
  8
0
100
AcDbVertex
100
AcDbPolygonMeshVertex
 10
0.47596
 20
0.5385
 30
2.929
 70
    64
  0
VERTEX
  5
60342
100
AcDbEntity
  8
0
100
AcDbVertex
100
AcDbPolygonMeshVertex
 10
0.47596
 20
0.5385
 30
2.319
 70
    64
  0
VERTEX
  5
60343
100
AcDbEntity
  8
0
100
AcDbVertex
100
AcDbPolygonMeshVertex
 10
0.47596
 20
0.5385
 30
2.319
 70
    64
  0
VERTEX
  5
60344
100
AcDbEntity
  8
0
100
AcDbVertex
100
AcDbPolygonMeshVertex
 10
0.47596
 20
0.3985
 30
2.929
 70
    64
  0
VERTEX
  5
60345
100
AcDbEntity
  8
0
100
AcDbVertex
100
AcDbPolygonMeshVertex
 10
0.47596
 20
0.3985
 30
2.319
 70
    64
  0
VERTEX
  5
60346
100
AcDbEntity
  8
0
100
AcDbVertex
100
AcDbPolygonMeshVertex
 10
0.47596
 20
0.5385
 30
2.319
 70
    64
  0
VERTEX
  5
60347
100
AcDbEntity
  8
0
100
AcDbVertex
100
AcDbPolygonMeshVertex
 10
0.42996
 20
0.3985
 30
2.929
 70
    64
  0
VERTEX
  5
60348
100
AcDbEntity
  8
0
100
AcDbVertex
100
AcDbPolygonMeshVertex
 10
0.42996
 20
0.3985
 30
2.319
 70
    64
  0
VERTEX
  5
60349
100
AcDbEntity
  8
0
100
AcDbVertex
100
AcDbPolygonMeshVertex
 10
0.42996
 20
0.5385
 30
2.319
 70
    64
  0
VERTEX
  5
6034A
100
AcDbEntity
  8
0
100
AcDbVertex
100
AcDbPolygonMeshVertex
 10
0.42996
 20
0.3985
 30
2.929
 70
    64
  0
VERTEX
  5
6034B
100
AcDbEntity
  8
0
100
AcDbVertex
100
AcDbPolygonMeshVertex
 10
0.42996
 20
0.3985
 30
2.929
 70
    64
  0
VERTEX
  5
6034C
100
AcDbEntity
  8
0
100
AcDbVertex
100
AcDbPolygonMeshVertex
 10
0.42996
 20
0.5385
 30
2.929
 70
    64
  0
VERTEX
  5
6034D
100
AcDbEntity
  8
0
100
AcDbVertex
100
AcDbPolygonMeshVertex
 10
0.47596
 20
0.3985
 30
2.929
 70
    64
  0
VERTEX
  5
6034E
100
AcDbEntity
  8
0
100
AcDbVertex
100
AcDbPolygonMeshVertex
 10
0.47596
 20
0.3985
 30
2.929
 70
    64
  0
VERTEX
  5
6034F
100
AcDbEntity
  8
0
100
AcDbVertex
100
AcDbPolygonMeshVertex
 10
0.47596
 20
0.5385
 30
2.929
 70
    64
  0
SEQEND
  5
60350
100
AcDbEntity
  8
0
  0
LINE
  5
60351
100
AcDbEntity
  8
0
100
AcDbLine
 10
0.04621
 20
0.3985
 30
2.646
 11
0.42996
 21
0.3985
 31
2.646
  0
LINE
  5
60352
100
AcDbEntity
  8
0
100
AcDbLine
 10
0.47596
 20
0.3985
 30
2.646
 11
0.85971
 21
0.3985
 31
2.646
  0
POLYLINE
  5
60353
100
AcDbEntity
  8
0
100
AcDbPolygonMesh
 66
     1
 10
0.0
 20
0.0
 30
0.0
 70
    16
 71
     6
 72
     3
  0
VERTEX
  5
60354
100
AcDbEntity
  8
0
100
AcDbVertex
100
AcDbPolygonMeshVertex
 10
0.04621
 20
0.5385
 30
2.929
 70
    64
  0
VERTEX
  5
60355
100
AcDbEntity
  8
0
100
AcDbVertex
100
AcDbPolygonMeshVertex
 10
0.04621
 20
0.5385
 30
2.06
 70
    64
  0
VERTEX
  5
60356
100
AcDbEntity
  8
0
100
AcDbVertex
100
AcDbPolygonMeshVertex
 10
0.04621
 20
0.5385
 30
2.06
 70
    64
  0
VERTEX
  5
60357
100
AcDbEntity
  8
0
100
AcDbVertex
100
AcDbPolygonMeshVertex
 10
0.00021
 20
0.5385
 30
2.929
 70
    64
  0
VERTEX
  5
60358
100
AcDbEntity
  8
0
100
AcDbVertex
100
AcDbPolygonMeshVertex
 10
0.00021
 20
0.5385
 30
2.06
 70
    64
  0
VERTEX
  5
60359
100
AcDbEntity
  8
0
100
AcDbVertex
100
AcDbPolygonMeshVertex
 10
0.00021
 20
0.5385
 30
2.06
 70
    64
  0
VERTEX
  5
6035A
100
AcDbEntity
  8
0
100
AcDbVertex
100
AcDbPolygonMeshVertex
 10
0.00021
 20
0.3985
 30
2.929
 70
    64
  0
VERTEX
  5
6035B
100
AcDbEntity
  8
0
100
AcDbVertex
100
AcDbPolygonMeshVertex
 10
0.00021
 20
0.3985
 30
2.06
 70
    64
  0
VERTEX
  5
6035C
100
AcDbEntity
  8
0
100
AcDbVertex
100
AcDbPolygonMeshVertex
 10
0.00021
 20
0.5385
 30
2.06
 70
    64
  0
VERTEX
  5
6035D
100
AcDbEntity
  8
0
100
AcDbVertex
100
AcDbPolygonMeshVertex
 10
0.04621
 20
0.3985
 30
2.929
 70
    64
  0
VERTEX
  5
6035E
100
AcDbEntity
  8
0
100
AcDbVertex
100
AcDbPolygonMeshVertex
 10
0.04621
 20
0.3985
 30
2.06
 70
    64
  0
VERTEX
  5
6035F
100
AcDbEntity
  8
0
100
AcDbVertex
100
AcDbPolygonMeshVertex
 10
0.04621
 20
0.5385
 30
2.06
 70
    64
  0
VERTEX
  5
60360
100
AcDbEntity
  8
0
100
AcDbVertex
100
AcDbPolygonMeshVertex
 10
0.04621
 20
0.3985
 30
2.929
 70
    64
  0
VERTEX
  5
60361
100
AcDbEntity
  8
0
100
AcDbVertex
100
AcDbPolygonMeshVertex
 10
0.04621
 20
0.3985
 30
2.929
 70
    64
  0
VERTEX
  5
60362
100
AcDbEntity
  8
0
100
AcDbVertex
100
AcDbPolygonMeshVertex
 10
0.04621
 20
0.5385
 30
2.929
 70
    64
  0
VERTEX
  5
60363
100
AcDbEntity
  8
0
100
AcDbVertex
100
AcDbPolygonMeshVertex
 10
0.00021
 20
0.3985
 30
2.929
 70
    64
  0
VERTEX
  5
60364
100
AcDbEntity
  8
0
100
AcDbVertex
100
AcDbPolygonMeshVertex
 10
0.00021
 20
0.3985
 30
2.929
 70
    64
  0
VERTEX
  5
60365
100
AcDbEntity
  8
0
100
AcDbVertex
100
AcDbPolygonMeshVertex
 10
0.00021
 20
0.5385
 30
2.929
 70
    64
  0
SEQEND
  5
60366
100
AcDbEntity
  8
0
  0
POLYLINE
  5
60367
100
AcDbEntity
  8
0
100
AcDbPolygonMesh
 66
     1
 10
0.0
 20
0.0
 30
0.0
 70
    16
 71
     6
 72
     3
  0
VERTEX
  5
60368
100
AcDbEntity
  8
0
100
AcDbVertex
100
AcDbPolygonMeshVertex
 10
1.71921
 20
0.6105
 30
2.319
 70
    64
  0
VERTEX
  5
60369
100
AcDbEntity
  8
0
100
AcDbVertex
100
AcDbPolygonMeshVertex
 10
1.71921
 20
0.6105
 30
2.06
 70
    64
  0
VERTEX
  5
6036A
100
AcDbEntity
  8
0
100
AcDbVertex
100
AcDbPolygonMeshVertex
 10
1.71921
 20
0.6105
 30
2.06
 70
    64
  0
VERTEX
  5
6036B
100
AcDbEntity
  8
0
100
AcDbVertex
100
AcDbPolygonMeshVertex
 10
0.04621
 20
0.6105
 30
2.319
 70
    64
  0
VERTEX
  5
6036C
100
AcDbEntity
  8
0
100
AcDbVertex
100
AcDbPolygonMeshVertex
 10
0.04621
 20
0.6105
 30
2.06
 70
    64
  0
VERTEX
  5
6036D
100
AcDbEntity
  8
0
100
AcDbVertex
100
AcDbPolygonMeshVertex
 10
0.04621
 20
0.6105
 30
2.06
 70
    64
  0
VERTEX
  5
6036E
100
AcDbEntity
  8
0
100
AcDbVertex
100
AcDbPolygonMeshVertex
 10
0.04621
 20
0.3985
 30
2.319
 70
    64
  0
VERTEX
  5
6036F
100
AcDbEntity
  8
0
100
AcDbVertex
100
AcDbPolygonMeshVertex
 10
0.04621
 20
0.3985
 30
2.06
 70
    64
  0
VERTEX
  5
60370
100
AcDbEntity
  8
0
100
AcDbVertex
100
AcDbPolygonMeshVertex
 10
0.04621
 20
0.6105
 30
2.06
 70
    64
  0
VERTEX
  5
60371
100
AcDbEntity
  8
0
100
AcDbVertex
100
AcDbPolygonMeshVertex
 10
1.71921
 20
0.3985
 30
2.319
 70
    64
  0
VERTEX
  5
60372
100
AcDbEntity
  8
0
100
AcDbVertex
100
AcDbPolygonMeshVertex
 10
1.71921
 20
0.3985
 30
2.06
 70
    64
  0
VERTEX
  5
60373
100
AcDbEntity
  8
0
100
AcDbVertex
100
AcDbPolygonMeshVertex
 10
1.71921
 20
0.6105
 30
2.06
 70
    64
  0
VERTEX
  5
60374
100
AcDbEntity
  8
0
100
AcDbVertex
100
AcDbPolygonMeshVertex
 10
1.71921
 20
0.3985
 30
2.319
 70
    64
  0
VERTEX
  5
60375
100
AcDbEntity
  8
0
100
AcDbVertex
100
AcDbPolygonMeshVertex
 10
1.71921
 20
0.3985
 30
2.319
 70
    64
  0
VERTEX
  5
60376
100
AcDbEntity
  8
0
100
AcDbVertex
100
AcDbPolygonMeshVertex
 10
1.71921
 20
0.6105
 30
2.319
 70
    64
  0
VERTEX
  5
60377
100
AcDbEntity
  8
0
100
AcDbVertex
100
AcDbPolygonMeshVertex
 10
0.04621
 20
0.3985
 30
2.319
 70
    64
  0
VERTEX
  5
60378
100
AcDbEntity
  8
0
100
AcDbVertex
100
AcDbPolygonMeshVertex
 10
0.04621
 20
0.3985
 30
2.319
 70
    64
  0
VERTEX
  5
60379
100
AcDbEntity
  8
0
100
AcDbVertex
100
AcDbPolygonMeshVertex
 10
0.04621
 20
0.6105
 30
2.319
 70
    64
  0
SEQEND
  5
6037A
100
AcDbEntity
  8
0
  0
TEXT
  5
6037B
100
AcDbEntity
  8
0
100
AcDbText
 39
0.0
 10
0.364847
 20
0.854582
 30
2.06
 40
0.083465
  1
A1
100
AcDbText
  0
TEXT
  5
6037C
100
AcDbEntity
  8
0
100
AcDbText
 39
0.0
 10
1.285828
 20
0.853741
 30
2.06
 40
0.083465
  1
A2
100
AcDbText
  0
LINE
  5
6037D
100
AcDbEntity
  8
0
100
AcDbLine
 10
0.652934
 20
-1.9685
 30
0.0
 11
0.8636
 21
-1.9685
 31
0.0
  0
POLYLINE
  5
6037E
100
AcDbEntity
  8
0
100
AcDb3dPolyline
 66
     1
 10
0.0
 20
0.0
 30
0.0
 70
     8
  0
VERTEX
  5
6037F
100
AcDbEntity
  8
0
100
AcDbVertex
100
AcDb3dPolylineVertex
 10
0.652934
 20
-1.9685
 30
0.0
 70
    32
  0
VERTEX
  5
60380
100
AcDbEntity
  8
0
100
AcDbVertex
100
AcDb3dPolylineVertex
 10
0.652934
 20
-2.1035
 30
0.0
 70
    32
  0
VERTEX
  5
60381
100
AcDbEntity
  8
0
100
AcDbVertex
100
AcDb3dPolylineVertex
 10
0.8636
 20
-2.1035
 30
0.0
 70
    32
  0
VERTEX
  5
60382
100
AcDbEntity
  8
0
100
AcDbVertex
100
AcDb3dPolylineVertex
 10
0.8636
 20
-1.9685
 30
0.0
 70
    32
  0
SEQEND
  5
60383
100
AcDbEntity
  8
0
  0
POLYLINE
  5
60384
100
AcDbEntity
  8
0
100
AcDb3dPolyline
 66
     1
 10
0.0
 20
0.0
 30
0.0
 70
     8
  0
VERTEX
  5
60385
100
AcDbEntity
  8
0
100
AcDbVertex
100
AcDb3dPolylineVertex
 10
0.581143
 20
-1.9685
 30
0.187
 70
    32
  0
VERTEX
  5
60386
100
AcDbEntity
  8
0
100
AcDbVertex
100
AcDb3dPolylineVertex
 10
0.581143
 20
-2.1035
 30
0.187
 70
    32
  0
VERTEX
  5
60387
100
AcDbEntity
  8
0
100
AcDbVertex
100
AcDb3dPolylineVertex
 10
0.79181
 20
-2.1035
 30
0.187
 70
    32
  0
VERTEX
  5
60388
100
AcDbEntity
  8
0
100
AcDbVertex
100
AcDb3dPolylineVertex
 10
0.79181
 20
-1.9685
 30
0.187
 70
    32
  0
SEQEND
  5
60389
100
AcDbEntity
  8
0
  0
POLYLINE
  5
6038A
100
AcDbEntity
  8
0
100
AcDbPolygonMesh
 66
     1
 10
0.0
 20
0.0
 30
0.0
 70
    16
 71
     6
 72
     3
  0
VERTEX
  5
6038B
100
AcDbEntity
  8
0
100
AcDbVertex
100
AcDbPolygonMeshVertex
 10
0.85381
 20
-2.1655
 30
0.187
 70
    64
  0
VERTEX
  5
6038C
100
AcDbEntity
  8
0
100
AcDbVertex
100
AcDbPolygonMeshVertex
 10
0.85381
 20
-2.1655
 30
0.0
 70
    64
  0
VERTEX
  5
6038D
100
AcDbEntity
  8
0
100
AcDbVertex
100
AcDbPolygonMeshVertex
 10
0.85381
 20
-2.1655
 30
0.0
 70
    64
  0
VERTEX
  5
6038E
100
AcDbEntity
  8
0
100
AcDbVertex
100
AcDbPolygonMeshVertex
 10
0.246476
 20
-2.1655
 30
0.187
 70
    64
  0
VERTEX
  5
6038F
100
AcDbEntity
  8
0
100
AcDbVertex
100
AcDbPolygonMeshVertex
 10
0.246476
 20
-2.1655
 30
0.0
 70
    64
  0
VERTEX
  5
60390
100
AcDbEntity
  8
0
100
AcDbVertex
100
AcDbPolygonMeshVertex
 10
0.246476
 20
-2.1655
 30
0.0
 70
    64
  0
VERTEX
  5
60391
100
AcDbEntity
  8
0
100
AcDbVertex
100
AcDbPolygonMeshVertex
 10
0.246476
 20
-2.1035
 30
0.187
 70
    64
  0
VERTEX
  5
60392
100
AcDbEntity
  8
0
100
AcDbVertex
100
AcDbPolygonMeshVertex
 10
0.246476
 20
-2.1035
 30
0.0
 70
    64
  0
VERTEX
  5
60393
100
AcDbEntity
  8
0
100
AcDbVertex
100
AcDbPolygonMeshVertex
 10
0.246476
 20
-2.1655
 30
0.0
 70
    64
  0
VERTEX
  5
60394
100
AcDbEntity
  8
0
100
AcDbVertex
100
AcDbPolygonMeshVertex
 10
0.85381
 20
-2.1035
 30
0.187
 70
    64
  0
VERTEX
  5
60395
100
AcDbEntity
  8
0
100
AcDbVertex
100
AcDbPolygonMeshVertex
 10
0.85381
 20
-2.1035
 30
0.0
 70
    64
  0
VERTEX
  5
60396
100
AcDbEntity
  8
0
100
AcDbVertex
100
AcDbPolygonMeshVertex
 10
0.85381
 20
-2.1655
 30
0.0
 70
    64
  0
VERTEX
  5
60397
100
AcDbEntity
  8
0
100
AcDbVertex
100
AcDbPolygonMeshVertex
 10
0.85381
 20
-2.1035
 30
0.187
 70
    64
  0
VERTEX
  5
60398
100
AcDbEntity
  8
0
100
AcDbVertex
100
AcDbPolygonMeshVertex
 10
0.85381
 20
-2.1035
 30
0.187
 70
    64
  0
VERTEX
  5
60399
100
AcDbEntity
  8
0
100
AcDbVertex
100
AcDbPolygonMeshVertex
 10
0.85381
 20
-2.1655
 30
0.187
 70
    64
  0
VERTEX
  5
6039A
100
AcDbEntity
  8
0
100
AcDbVertex
100
AcDbPolygonMeshVertex
 10
0.246476
 20
-2.1035
 30
0.187
 70
    64
  0
VERTEX
  5
6039B
100
AcDbEntity
  8
0
100
AcDbVertex
100
AcDbPolygonMeshVertex
 10
0.246476
 20
-2.1035
 30
0.187
 70
    64
  0
VERTEX
  5
6039C
100
AcDbEntity
  8
0
100
AcDbVertex
100
AcDbPolygonMeshVertex
 10
0.246476
 20
-2.1655
 30
0.187
 70
    64
  0
SEQEND
  5
6039D
100
AcDbEntity
  8
0
  0
POLYLINE
  5
6039E
100
AcDbEntity
  8
0
100
AcDbPolygonMesh
 66
     1
 10
0.0
 20
0.0
 30
0.0
 70
    16
 71
     6
 72
     3
  0
VERTEX
  5
6039F
100
AcDbEntity
  8
0
100
AcDbVertex
100
AcDbPolygonMeshVertex
 10
0.85381
 20
-2.1035
 30
0.187
 70
    64
  0
VERTEX
  5
603A0
100
AcDbEntity
  8
0
100
AcDbVertex
100
AcDbPolygonMeshVertex
 10
0.85381
 20
-2.1035
 30
0.0
 70
    64
  0
VERTEX
  5
603A1
100
AcDbEntity
  8
0
100
AcDbVertex
100
AcDbPolygonMeshVertex
 10
0.85381
 20
-2.1035
 30
0.0
 70
    64
  0
VERTEX
  5
603A2
100
AcDbEntity
  8
0
100
AcDbVertex
100
AcDbPolygonMeshVertex
 10
0.519143
 20
-2.1035
 30
0.187
 70
    64
  0
VERTEX
  5
603A3
100
AcDbEntity
  8
0
100
AcDbVertex
100
AcDbPolygonMeshVertex
 10
0.519143
 20
-2.1035
 30
0.0
 70
    64
  0
VERTEX
  5
603A4
100
AcDbEntity
  8
0
100
AcDbVertex
100
AcDbPolygonMeshVertex
 10
0.519143
 20
-2.1035
 30
0.0
 70
    64
  0
VERTEX
  5
603A5
100
AcDbEntity
  8
0
100
AcDbVertex
100
AcDbPolygonMeshVertex
 10
0.519143
 20
-1.9065
 30
0.187
 70
    64
  0
VERTEX
  5
603A6
100
AcDbEntity
  8
0
100
AcDbVertex
100
AcDbPolygonMeshVertex
 10
0.519143
 20
-1.9065
 30
0.0
 70
    64
  0
VERTEX
  5
603A7
100
AcDbEntity
  8
0
100
AcDbVertex
100
AcDbPolygonMeshVertex
 10
0.519143
 20
-2.1035
 30
0.0
 70
    64
  0
VERTEX
  5
603A8
100
AcDbEntity
  8
0
100
AcDbVertex
100
AcDbPolygonMeshVertex
 10
0.85381
 20
-1.9065
 30
0.187
 70
    64
  0
VERTEX
  5
603A9
100
AcDbEntity
  8
0
100
AcDbVertex
100
AcDbPolygonMeshVertex
 10
0.85381
 20
-1.9065
 30
0.0
 70
    64
  0
VERTEX
  5
603AA
100
AcDbEntity
  8
0
100
AcDbVertex
100
AcDbPolygonMeshVertex
 10
0.85381
 20
-2.1035
 30
0.0
 70
    64
  0
VERTEX
  5
603AB
100
AcDbEntity
  8
0
100
AcDbVertex
100
AcDbPolygonMeshVertex
 10
0.85381
 20
-1.9065
 30
0.187
 70
    64
  0
VERTEX
  5
603AC
100
AcDbEntity
  8
0
100
AcDbVertex
100
AcDbPolygonMeshVertex
 10
0.85381
 20
-1.9065
 30
0.187
 70
    64
  0
VERTEX
  5
603AD
100
AcDbEntity
  8
0
100
AcDbVertex
100
AcDbPolygonMeshVertex
 10
0.85381
 20
-2.1035
 30
0.187
 70
    64
  0
VERTEX
  5
603AE
100
AcDbEntity
  8
0
100
AcDbVertex
100
AcDbPolygonMeshVertex
 10
0.519143
 20
-1.9065
 30
0.187
 70
    64
  0
VERTEX
  5
603AF
100
AcDbEntity
  8
0
100
AcDbVertex
100
AcDbPolygonMeshVertex
 10
0.519143
 20
-1.9065
 30
0.187
 70
    64
  0
VERTEX
  5
603B0
100
AcDbEntity
  8
0
100
AcDbVertex
100
AcDbPolygonMeshVertex
 10
0.519143
 20
-2.1035
 30
0.187
 70
    64
  0
SEQEND
  5
603B1
100
AcDbEntity
  8
0
  0
LINE
  5
603B2
100
AcDbEntity
  8
0
100
AcDbLine
 10
0.652934
 20
-1.9685
 30
0.187
 11
0.8636
 21
-1.9685
 31
0.187
  0
POLYLINE
  5
603B3
100
AcDbEntity
  8
0
100
AcDbPolygonMesh
 66
     1
 10
0.0
 20
0.0
 30
0.0
 70
    16
 71
     6
 72
     3
  0
VERTEX
  5
603B4
100
AcDbEntity
  8
0
100
AcDbVertex
100
AcDbPolygonMeshVertex
 10
1.76521
 20
-1.6855
 30
0.187
 70
    64
  0
VERTEX
  5
603B5
100
AcDbEntity
  8
0
100
AcDbVertex
100
AcDbPolygonMeshVertex
 10
1.76521
 20
-1.6855
 30
0.0
 70
    64
  0
VERTEX
  5
603B6
100
AcDbEntity
  8
0
100
AcDbVertex
100
AcDbPolygonMeshVertex
 10
1.76521
 20
-1.6855
 30
0.0
 70
    64
  0
VERTEX
  5
603B7
100
AcDbEntity
  8
0
100
AcDbVertex
100
AcDbPolygonMeshVertex
 10
0.00521
 20
-1.6855
 30
0.187
 70
    64
  0
VERTEX
  5
603B8
100
AcDbEntity
  8
0
100
AcDbVertex
100
AcDbPolygonMeshVertex
 10
0.00521
 20
-1.6855
 30
0.0
 70
    64
  0
VERTEX
  5
603B9
100
AcDbEntity
  8
0
100
AcDbVertex
100
AcDbPolygonMeshVertex
 10
0.00521
 20
-1.6855
 30
0.0
 70
    64
  0
VERTEX
  5
603BA
100
AcDbEntity
  8
0
100
AcDbVertex
100
AcDbPolygonMeshVertex
 10
0.00521
 20
-1.481
 30
0.187
 70
    64
  0
VERTEX
  5
603BB
100
AcDbEntity
  8
0
100
AcDbVertex
100
AcDbPolygonMeshVertex
 10
0.00521
 20
-1.481
 30
0.0
 70
    64
  0
VERTEX
  5
603BC
100
AcDbEntity
  8
0
100
AcDbVertex
100
AcDbPolygonMeshVertex
 10
0.00521
 20
-1.6855
 30
0.0
 70
    64
  0
VERTEX
  5
603BD
100
AcDbEntity
  8
0
100
AcDbVertex
100
AcDbPolygonMeshVertex
 10
1.76521
 20
-1.481
 30
0.187
 70
    64
  0
VERTEX
  5
603BE
100
AcDbEntity
  8
0
100
AcDbVertex
100
AcDbPolygonMeshVertex
 10
1.76521
 20
-1.481
 30
0.0
 70
    64
  0
VERTEX
  5
603BF
100
AcDbEntity
  8
0
100
AcDbVertex
100
AcDbPolygonMeshVertex
 10
1.76521
 20
-1.6855
 30
0.0
 70
    64
  0
VERTEX
  5
603C0
100
AcDbEntity
  8
0
100
AcDbVertex
100
AcDbPolygonMeshVertex
 10
1.76521
 20
-1.481
 30
0.187
 70
    64
  0
VERTEX
  5
603C1
100
AcDbEntity
  8
0
100
AcDbVertex
100
AcDbPolygonMeshVertex
 10
1.76521
 20
-1.481
 30
0.187
 70
    64
  0
VERTEX
  5
603C2
100
AcDbEntity
  8
0
100
AcDbVertex
100
AcDbPolygonMeshVertex
 10
1.76521
 20
-1.6855
 30
0.187
 70
    64
  0
VERTEX
  5
603C3
100
AcDbEntity
  8
0
100
AcDbVertex
100
AcDbPolygonMeshVertex
 10
0.00521
 20
-1.481
 30
0.187
 70
    64
  0
VERTEX
  5
603C4
100
AcDbEntity
  8
0
100
AcDbVertex
100
AcDbPolygonMeshVertex
 10
0.00521
 20
-1.481
 30
0.187
 70
    64
  0
VERTEX
  5
603C5
100
AcDbEntity
  8
0
100
AcDbVertex
100
AcDbPolygonMeshVertex
 10
0.00521
 20
-1.6855
 30
0.187
 70
    64
  0
SEQEND
  5
603C6
100
AcDbEntity
  8
0
  0
POLYLINE
  5
603C7
100
AcDbEntity
  8
0
100
AcDbPolygonMesh
 66
     1
 10
0.0
 20
0.0
 30
0.0
 70
    16
 71
     6
 72
     3
  0
VERTEX
  5
603C8
100
AcDbEntity
  8
0
100
AcDbVertex
100
AcDbPolygonMeshVertex
 10
1.76521
 20
0.2045
 30
0.187
 70
    64
  0
VERTEX
  5
603C9
100
AcDbEntity
  8
0
100
AcDbVertex
100
AcDbPolygonMeshVertex
 10
1.76521
 20
0.2045
 30
0.0
 70
    64
  0
VERTEX
  5
603CA
100
AcDbEntity
  8
0
100
AcDbVertex
100
AcDbPolygonMeshVertex
 10
1.76521
 20
0.2045
 30
0.0
 70
    64
  0
VERTEX
  5
603CB
100
AcDbEntity
  8
0
100
AcDbVertex
100
AcDbPolygonMeshVertex
 10
0.00521
 20
0.2045
 30
0.187
 70
    64
  0
VERTEX
  5
603CC
100
AcDbEntity
  8
0
100
AcDbVertex
100
AcDbPolygonMeshVertex
 10
0.00521
 20
0.2045
 30
0.0
 70
    64
  0
VERTEX
  5
603CD
100
AcDbEntity
  8
0
100
AcDbVertex
100
AcDbPolygonMeshVertex
 10
0.00521
 20
0.2045
 30
0.0
 70
    64
  0
VERTEX
  5
603CE
100
AcDbEntity
  8
0
100
AcDbVertex
100
AcDbPolygonMeshVertex
 10
0.00521
 20
0.0
 30
0.187
 70
    64
  0
VERTEX
  5
603CF
100
AcDbEntity
  8
0
100
AcDbVertex
100
AcDbPolygonMeshVertex
 10
0.00521
 20
0.0
 30
0.0
 70
    64
  0
VERTEX
  5
603D0
100
AcDbEntity
  8
0
100
AcDbVertex
100
AcDbPolygonMeshVertex
 10
0.00521
 20
0.2045
 30
0.0
 70
    64
  0
VERTEX
  5
603D1
100
AcDbEntity
  8
0
100
AcDbVertex
100
AcDbPolygonMeshVertex
 10
1.76521
 20
0.0
 30
0.187
 70
    64
  0
VERTEX
  5
603D2
100
AcDbEntity
  8
0
100
AcDbVertex
100
AcDbPolygonMeshVertex
 10
1.76521
 20
0.0
 30
0.0
 70
    64
  0
VERTEX
  5
603D3
100
AcDbEntity
  8
0
100
AcDbVertex
100
AcDbPolygonMeshVertex
 10
1.76521
 20
0.2045
 30
0.0
 70
    64
  0
VERTEX
  5
603D4
100
AcDbEntity
  8
0
100
AcDbVertex
100
AcDbPolygonMeshVertex
 10
1.76521
 20
0.0
 30
0.187
 70
    64
  0
VERTEX
  5
603D5
100
AcDbEntity
  8
0
100
AcDbVertex
100
AcDbPolygonMeshVertex
 10
1.76521
 20
0.0
 30
0.187
 70
    64
  0
VERTEX
  5
603D6
100
AcDbEntity
  8
0
100
AcDbVertex
100
AcDbPolygonMeshVertex
 10
1.76521
 20
0.2045
 30
0.187
 70
    64
  0
VERTEX
  5
603D7
100
AcDbEntity
  8
0
100
AcDbVertex
100
AcDbPolygonMeshVertex
 10
0.00521
 20
0.0
 30
0.187
 70
    64
  0
VERTEX
  5
603D8
100
AcDbEntity
  8
0
100
AcDbVertex
100
AcDbPolygonMeshVertex
 10
0.00521
 20
0.0
 30
0.187
 70
    64
  0
VERTEX
  5
603D9
100
AcDbEntity
  8
0
100
AcDbVertex
100
AcDbPolygonMeshVertex
 10
0.00521
 20
0.2045
 30
0.187
 70
    64
  0
SEQEND
  5
603DA
100
AcDbEntity
  8
0
  0
POLYLINE
  5
603DB
100
AcDbEntity
  8
0
100
AcDbPolygonMesh
 66
     1
 10
0.0
 20
0.0
 30
0.0
 70
    16
 71
     6
 72
     3
  0
VERTEX
  5
603DC
100
AcDbEntity
  8
0
100
AcDbVertex
100
AcDbPolygonMeshVertex
 10
0.39621
 20
-2.0815
 30
0.316
 70
    64
  0
VERTEX
  5
603DD
100
AcDbEntity
  8
0
100
AcDbVertex
100
AcDbPolygonMeshVertex
 10
0.39621
 20
-2.0815
 30
0.0
 70
    64
  0
VERTEX
  5
603DE
100
AcDbEntity
  8
0
100
AcDbVertex
100
AcDbPolygonMeshVertex
 10
0.39621
 20
-2.0815
 30
0.0
 70
    64
  0
VERTEX
  5
603DF
100
AcDbEntity
  8
0
100
AcDbVertex
100
AcDbPolygonMeshVertex
 10
0.00521
 20
-2.0815
 30
0.316
 70
    64
  0
VERTEX
  5
603E0
100
AcDbEntity
  8
0
100
AcDbVertex
100
AcDbPolygonMeshVertex
 10
0.00521
 20
-2.0815
 30
0.0
 70
    64
  0
VERTEX
  5
603E1
100
AcDbEntity
  8
0
100
AcDbVertex
100
AcDbPolygonMeshVertex
 10
0.00521
 20
-2.0815
 30
0.0
 70
    64
  0
VERTEX
  5
603E2
100
AcDbEntity
  8
0
100
AcDbVertex
100
AcDbPolygonMeshVertex
 10
0.00521
 20
-1.6855
 30
0.316
 70
    64
  0
VERTEX
  5
603E3
100
AcDbEntity
  8
0
100
AcDbVertex
100
AcDbPolygonMeshVertex
 10
0.00521
 20
-1.6855
 30
0.0
 70
    64
  0
VERTEX
  5
603E4
100
AcDbEntity
  8
0
100
AcDbVertex
100
AcDbPolygonMeshVertex
 10
0.00521
 20
-2.0815
 30
0.0
 70
    64
  0
VERTEX
  5
603E5
100
AcDbEntity
  8
0
100
AcDbVertex
100
AcDbPolygonMeshVertex
 10
0.39621
 20
-1.6855
 30
0.316
 70
    64
  0
VERTEX
  5
603E6
100
AcDbEntity
  8
0
100
AcDbVertex
100
AcDbPolygonMeshVertex
 10
0.39621
 20
-1.6855
 30
0.0
 70
    64
  0
VERTEX
  5
603E7
100
AcDbEntity
  8
0
100
AcDbVertex
100
AcDbPolygonMeshVertex
 10
0.39621
 20
-2.0815
 30
0.0
 70
    64
  0
VERTEX
  5
603E8
100
AcDbEntity
  8
0
100
AcDbVertex
100
AcDbPolygonMeshVertex
 10
0.39621
 20
-1.6855
 30
0.316
 70
    64
  0
VERTEX
  5
603E9
100
AcDbEntity
  8
0
100
AcDbVertex
100
AcDbPolygonMeshVertex
 10
0.39621
 20
-1.6855
 30
0.316
 70
    64
  0
VERTEX
  5
603EA
100
AcDbEntity
  8
0
100
AcDbVertex
100
AcDbPolygonMeshVertex
 10
0.39621
 20
-2.0815
 30
0.316
 70
    64
  0
VERTEX
  5
603EB
100
AcDbEntity
  8
0
100
AcDbVertex
100
AcDbPolygonMeshVertex
 10
0.00521
 20
-1.6855
 30
0.316
 70
    64
  0
VERTEX
  5
603EC
100
AcDbEntity
  8
0
100
AcDbVertex
100
AcDbPolygonMeshVertex
 10
0.00521
 20
-1.6855
 30
0.316
 70
    64
  0
VERTEX
  5
603ED
100
AcDbEntity
  8
0
100
AcDbVertex
100
AcDbPolygonMeshVertex
 10
0.00521
 20
-2.0815
 30
0.316
 70
    64
  0
SEQEND
  5
603EE
100
AcDbEntity
  8
0
  0
POINT
  5
603EF
100
AcDbEntity
  8
SNAP_POINTS
100
AcDbPoint
 10
0.0
 20
0.0
 30
0.0
  0
3DFACE
  5
603F0
100
AcDbEntity
  8
0
100
AcDbFace
 10
1.76521
 20
-1.8455
 30
2.06
 11
1.76521
 21
-1.8455
 31
2.06
 12
0.00021
 22
-1.8455
 32
2.06
 13
0.00021
 23
-1.8455
 33
2.06
  0
3DFACE
  5
603F1
100
AcDbEntity
  8
0
100
AcDbFace
 10
0.00021
 20
-1.8455
 30
2.06
 11
0.00021
 21
-1.8455
 31
2.06
 12
0.00021
 22
-1.8455
 32
2.06
 13
0.00021
 23
0.3985
 33
2.06
  0
3DFACE
  5
603F2
100
AcDbEntity
  8
0
100
AcDbFace
 10
0.00021
 20
0.3985
 30
2.06
 11
0.00021
 21
-1.8455
 31
2.06
 12
1.76521
 22
-1.8455
 32
2.06
 13
1.76521
 23
0.3985
 33
2.06
  0
POLYLINE
  5
603F3
100
AcDbEntity
  8
0
  6
CONTINUOUS
100
AcDb3dPolyline
 66
     1
 10
0.0
 20
0.0
 30
0.0
 70
     8
  0
VERTEX
  5
603F4
100
AcDbEntity
  8
0
  6
CONTINUOUS
100
AcDbVertex
100
AcDb3dPolylineVertex
 10
1.76521
 20
0.3985
 30
2.06
 70
    32
1001
ACAD
1000
R13OBJECT
1002
{
1005
603F3
1002
}
  0
VERTEX
  5
603F5
100
AcDbEntity
  8
0
  6
CONTINUOUS
100
AcDbVertex
100
AcDb3dPolylineVertex
 10
1.76521
 20
-1.8455
 30
2.06
 70
    32
1001
ACAD
1000
R13OBJECT
1002
{
1005
603F3
1002
}
  0
SEQEND
  5
603F6
100
AcDbEntity
  8
0
  6
CONTINUOUS
1001
ACAD
1000
R13OBJECT
1002
{
1005
603F3
1002
}
  0
POLYLINE
  5
603F7
100
AcDbEntity
  8
0
  6
CONTINUOUS
100
AcDb3dPolyline
 66
     1
 10
0.0
 20
0.0
 30
0.0
 70
     8
1001
ACAD
1000
R13OBJECT
1002
{
1005
603F3
1002
}
  0
VERTEX
  5
603F8
100
AcDbEntity
  8
0
  6
CONTINUOUS
100
AcDbVertex
100
AcDb3dPolylineVertex
 10
1.76521
 20
-1.8455
 30
2.06
 70
    32
1001
ACAD
1000
R13OBJECT
1002
{
1005
603F3
1002
}
  0
VERTEX
  5
603F9
100
AcDbEntity
  8
0
  6
CONTINUOUS
100
AcDbVertex
100
AcDb3dPolylineVertex
 10
0.00021
 20
-1.8455
 30
2.06
 70
    32
1001
ACAD
1000
R13OBJECT
1002
{
1005
603F3
1002
}
  0
SEQEND
  5
603FA
100
AcDbEntity
  8
0
  6
CONTINUOUS
1001
ACAD
1000
R13OBJECT
1002
{
1005
603F3
1002
}
  0
POLYLINE
  5
603FB
100
AcDbEntity
  8
0
  6
CONTINUOUS
100
AcDb3dPolyline
 66
     1
 10
0.0
 20
0.0
 30
0.0
 70
     8
1001
ACAD
1000
R13OBJECT
1002
{
1005
603F3
1002
}
  0
VERTEX
  5
603FC
100
AcDbEntity
  8
0
  6
CONTINUOUS
100
AcDbVertex
100
AcDb3dPolylineVertex
 10
0.00021
 20
-1.8455
 30
2.06
 70
    32
1001
ACAD
1000
R13OBJECT
1002
{
1005
603F3
1002
}
  0
VERTEX
  5
603FD
100
AcDbEntity
  8
0
  6
CONTINUOUS
100
AcDbVertex
100
AcDb3dPolylineVertex
 10
0.00021
 20
0.3985
 30
2.06
 70
    32
1001
ACAD
1000
R13OBJECT
1002
{
1005
603F3
1002
}
  0
SEQEND
  5
603FE
100
AcDbEntity
  8
0
  6
CONTINUOUS
1001
ACAD
1000
R13OBJECT
1002
{
1005
603F3
1002
}
  0
POLYLINE
  5
603FF
100
AcDbEntity
  8
0
  6
CONTINUOUS
100
AcDb3dPolyline
 66
     1
 10
0.0
 20
0.0
 30
0.0
 70
     8
1001
ACAD
1000
R13OBJECT
1002
{
1005
603F3
1002
}
  0
VERTEX
  5
60400
100
AcDbEntity
  8
0
  6
CONTINUOUS
100
AcDbVertex
100
AcDb3dPolylineVertex
 10
0.00021
 20
0.3985
 30
2.06
 70
    32
1001
ACAD
1000
R13OBJECT
1002
{
1005
603F3
1002
}
  0
VERTEX
  5
60401
100
AcDbEntity
  8
0
  6
CONTINUOUS
100
AcDbVertex
100
AcDb3dPolylineVertex
 10
1.76521
 20
0.3985
 30
2.06
 70
    32
1001
ACAD
1000
R13OBJECT
1002
{
1005
603F3
1002
}
  0
SEQEND
  5
60402
100
AcDbEntity
  8
0
  6
CONTINUOUS
1001
ACAD
1000
R13OBJECT
1002
{
1005
603F3
1002
}
  0
POLYLINE
  5
60403
100
AcDbEntity
  8
0
  6
CONTINUOUS
100
AcDb3dPolyline
 66
     1
 10
0.0
 20
0.0
 30
0.0
 70
     8
  0
VERTEX
  5
60404
100
AcDbEntity
  8
0
  6
CONTINUOUS
100
AcDbVertex
100
AcDb3dPolylineVertex
 10
0.00021
 20
-1.8455
 30
3.082
 70
    32
1001
ACAD
1000
R13OBJECT
1002
{
1005
60403
1002
}
  0
VERTEX
  5
60405
100
AcDbEntity
  8
0
  6
CONTINUOUS
100
AcDbVertex
100
AcDb3dPolylineVertex
 10
0.00021
 20
-1.8455
 30
2.06
 70
    32
1001
ACAD
1000
R13OBJECT
1002
{
1005
60403
1002
}
  0
SEQEND
  5
60406
100
AcDbEntity
  8
0
  6
CONTINUOUS
1001
ACAD
1000
R13OBJECT
1002
{
1005
60403
1002
}
  0
POLYLINE
  5
60407
100
AcDbEntity
  8
0
  6
CONTINUOUS
100
AcDb3dPolyline
 66
     1
 10
0.0
 20
0.0
 30
0.0
 70
     8
1001
ACAD
1000
R13OBJECT
1002
{
1005
60403
1002
}
  0
VERTEX
  5
60408
100
AcDbEntity
  8
0
  6
CONTINUOUS
100
AcDbVertex
100
AcDb3dPolylineVertex
 10
1.76521
 20
-1.8455
 30
2.06
 70
    32
1001
ACAD
1000
R13OBJECT
1002
{
1005
60403
1002
}
  0
VERTEX
  5
60409
100
AcDbEntity
  8
0
  6
CONTINUOUS
100
AcDbVertex
100
AcDb3dPolylineVertex
 10
0.00021
 20
-1.8455
 30
2.06
 70
    32
1001
ACAD
1000
R13OBJECT
1002
{
1005
60403
1002
}
  0
SEQEND
  5
6040A
100
AcDbEntity
  8
0
  6
CONTINUOUS
1001
ACAD
1000
R13OBJECT
1002
{
1005
60403
1002
}
  0
POLYLINE
  5
6040B
100
AcDbEntity
  8
0
  6
CONTINUOUS
100
AcDb3dPolyline
 66
     1
 10
0.0
 20
0.0
 30
0.0
 70
     8
1001
ACAD
1000
R13OBJECT
1002
{
1005
60403
1002
}
  0
VERTEX
  5
6040C
100
AcDbEntity
  8
0
  6
CONTINUOUS
100
AcDbVertex
100
AcDb3dPolylineVertex
 10
1.76521
 20
-1.8455
 30
3.082
 70
    32
1001
ACAD
1000
R13OBJECT
1002
{
1005
60403
1002
}
  0
VERTEX
  5
6040D
100
AcDbEntity
  8
0
  6
CONTINUOUS
100
AcDbVertex
100
AcDb3dPolylineVertex
 10
1.76521
 20
-1.8455
 30
2.06
 70
    32
1001
ACAD
1000
R13OBJECT
1002
{
1005
60403
1002
}
  0
SEQEND
  5
6040E
100
AcDbEntity
  8
0
  6
CONTINUOUS
1001
ACAD
1000
R13OBJECT
1002
{
1005
60403
1002
}
  0
POLYLINE
  5
6040F
100
AcDbEntity
  8
0
  6
CONTINUOUS
100
AcDb3dPolyline
 66
     1
 10
0.0
 20
0.0
 30
0.0
 70
     8
1001
ACAD
1000
R13OBJECT
1002
{
1005
60403
1002
}
  0
VERTEX
  5
60410
100
AcDbEntity
  8
0
  6
CONTINUOUS
100
AcDbVertex
100
AcDb3dPolylineVertex
 10
0.00021
 20
-1.8455
 30
3.082
 70
    32
1001
ACAD
1000
R13OBJECT
1002
{
1005
60403
1002
}
  0
VERTEX
  5
60411
100
AcDbEntity
  8
0
  6
CONTINUOUS
100
AcDbVertex
100
AcDb3dPolylineVertex
 10
1.76521
 20
-1.8455
 30
3.082
 70
    32
1001
ACAD
1000
R13OBJECT
1002
{
1005
60403
1002
}
  0
SEQEND
  5
60412
100
AcDbEntity
  8
0
  6
CONTINUOUS
1001
ACAD
1000
R13OBJECT
1002
{
1005
60403
1002
}
  0
POLYLINE
  5
60413
100
AcDbEntity
  8
0
  6
CONTINUOUS
100
AcDb3dPolyline
 66
     1
 10
0.0
 20
0.0
 30
0.0
 70
     8
  0
VERTEX
  5
60414
100
AcDbEntity
  8
0
  6
CONTINUOUS
100
AcDbVertex
100
AcDb3dPolylineVertex
 10
1.76521
 20
0.3985
 30
3.082
 70
    32
1001
ACAD
1000
R13OBJECT
1002
{
1005
60413
1002
}
  0
VERTEX
  5
60415
100
AcDbEntity
  8
0
  6
CONTINUOUS
100
AcDbVertex
100
AcDb3dPolylineVertex
 10
1.76521
 20
0.3985
 30
2.06
 70
    32
1001
ACAD
1000
R13OBJECT
1002
{
1005
60413
1002
}
  0
SEQEND
  5
60416
100
AcDbEntity
  8
0
  6
CONTINUOUS
1001
ACAD
1000
R13OBJECT
1002
{
1005
60413
1002
}
  0
POLYLINE
  5
60417
100
AcDbEntity
  8
0
  6
CONTINUOUS
100
AcDb3dPolyline
 66
     1
 10
0.0
 20
0.0
 30
0.0
 70
     8
1001
ACAD
1000
R13OBJECT
1002
{
1005
60413
1002
}
  0
VERTEX
  5
60418
100
AcDbEntity
  8
0
  6
CONTINUOUS
100
AcDbVertex
100
AcDb3dPolylineVertex
 10
0.00021
 20
0.3985
 30
2.06
 70
    32
1001
ACAD
1000
R13OBJECT
1002
{
1005
60413
1002
}
  0
VERTEX
  5
60419
100
AcDbEntity
  8
0
  6
CONTINUOUS
100
AcDbVertex
100
AcDb3dPolylineVertex
 10
1.76521
 20
0.3985
 30
2.06
 70
    32
1001
ACAD
1000
R13OBJECT
1002
{
1005
60413
1002
}
  0
SEQEND
  5
6041A
100
AcDbEntity
  8
0
  6
CONTINUOUS
1001
ACAD
1000
R13OBJECT
1002
{
1005
60413
1002
}
  0
POLYLINE
  5
6041B
100
AcDbEntity
  8
0
  6
CONTINUOUS
100
AcDb3dPolyline
 66
     1
 10
0.0
 20
0.0
 30
0.0
 70
     8
1001
ACAD
1000
R13OBJECT
1002
{
1005
60413
1002
}
  0
VERTEX
  5
6041C
100
AcDbEntity
  8
0
  6
CONTINUOUS
100
AcDbVertex
100
AcDb3dPolylineVertex
 10
0.00021
 20
0.3985
 30
3.082
 70
    32
1001
ACAD
1000
R13OBJECT
1002
{
1005
60413
1002
}
  0
VERTEX
  5
6041D
100
AcDbEntity
  8
0
  6
CONTINUOUS
100
AcDbVertex
100
AcDb3dPolylineVertex
 10
0.00021
 20
0.3985
 30
2.06
 70
    32
1001
ACAD
1000
R13OBJECT
1002
{
1005
60413
1002
}
  0
SEQEND
  5
6041E
100
AcDbEntity
  8
0
  6
CONTINUOUS
1001
ACAD
1000
R13OBJECT
1002
{
1005
60413
1002
}
  0
POLYLINE
  5
6041F
100
AcDbEntity
  8
0
  6
CONTINUOUS
100
AcDb3dPolyline
 66
     1
 10
0.0
 20
0.0
 30
0.0
 70
     8
1001
ACAD
1000
R13OBJECT
1002
{
1005
60413
1002
}
  0
VERTEX
  5
60420
100
AcDbEntity
  8
0
  6
CONTINUOUS
100
AcDbVertex
100
AcDb3dPolylineVertex
 10
1.76521
 20
0.3985
 30
3.082
 70
    32
1001
ACAD
1000
R13OBJECT
1002
{
1005
60413
1002
}
  0
VERTEX
  5
60421
100
AcDbEntity
  8
0
  6
CONTINUOUS
100
AcDbVertex
100
AcDb3dPolylineVertex
 10
0.00021
 20
0.3985
 30
3.082
 70
    32
1001
ACAD
1000
R13OBJECT
1002
{
1005
60413
1002
}
  0
SEQEND
  5
60422
100
AcDbEntity
  8
0
  6
CONTINUOUS
1001
ACAD
1000
R13OBJECT
1002
{
1005
60413
1002
}
  0
POLYLINE
  5
60423
100
AcDbEntity
  8
0
  6
CONTINUOUS
100
AcDb3dPolyline
 66
     1
 10
0.0
 20
0.0
 30
0.0
 70
     8
  0
VERTEX
  5
60424
100
AcDbEntity
  8
0
  6
CONTINUOUS
100
AcDbVertex
100
AcDb3dPolylineVertex
 10
1.76521
 20
-1.8455
 30
3.082
 70
    32
1001
ACAD
1000
R13OBJECT
1002
{
1005
60423
1002
}
  0
VERTEX
  5
60425
100
AcDbEntity
  8
0
  6
CONTINUOUS
100
AcDbVertex
100
AcDb3dPolylineVertex
 10
1.76521
 20
-1.8455
 30
2.06
 70
    32
1001
ACAD
1000
R13OBJECT
1002
{
1005
60423
1002
}
  0
SEQEND
  5
60426
100
AcDbEntity
  8
0
  6
CONTINUOUS
1001
ACAD
1000
R13OBJECT
1002
{
1005
60423
1002
}
  0
POLYLINE
  5
60427
100
AcDbEntity
  8
0
  6
CONTINUOUS
100
AcDb3dPolyline
 66
     1
 10
0.0
 20
0.0
 30
0.0
 70
     8
1001
ACAD
1000
R13OBJECT
1002
{
1005
60423
1002
}
  0
VERTEX
  5
60428
100
AcDbEntity
  8
0
  6
CONTINUOUS
100
AcDbVertex
100
AcDb3dPolylineVertex
 10
1.76521
 20
0.3985
 30
2.06
 70
    32
1001
ACAD
1000
R13OBJECT
1002
{
1005
60423
1002
}
  0
VERTEX
  5
60429
100
AcDbEntity
  8
0
  6
CONTINUOUS
100
AcDbVertex
100
AcDb3dPolylineVertex
 10
1.76521
 20
-1.8455
 30
2.06
 70
    32
1001
ACAD
1000
R13OBJECT
1002
{
1005
60423
1002
}
  0
SEQEND
  5
6042A
100
AcDbEntity
  8
0
  6
CONTINUOUS
1001
ACAD
1000
R13OBJECT
1002
{
1005
60423
1002
}
  0
POLYLINE
  5
6042B
100
AcDbEntity
  8
0
  6
CONTINUOUS
100
AcDb3dPolyline
 66
     1
 10
0.0
 20
0.0
 30
0.0
 70
     8
1001
ACAD
1000
R13OBJECT
1002
{
1005
60423
1002
}
  0
VERTEX
  5
6042C
100
AcDbEntity
  8
0
  6
CONTINUOUS
100
AcDbVertex
100
AcDb3dPolylineVertex
 10
1.76521
 20
0.3985
 30
3.082
 70
    32
1001
ACAD
1000
R13OBJECT
1002
{
1005
60423
1002
}
  0
VERTEX
  5
6042D
100
AcDbEntity
  8
0
  6
CONTINUOUS
100
AcDbVertex
100
AcDb3dPolylineVertex
 10
1.76521
 20
0.3985
 30
2.06
 70
    32
1001
ACAD
1000
R13OBJECT
1002
{
1005
60423
1002
}
  0
SEQEND
  5
6042E
100
AcDbEntity
  8
0
  6
CONTINUOUS
1001
ACAD
1000
R13OBJECT
1002
{
1005
60423
1002
}
  0
POLYLINE
  5
6042F
100
AcDbEntity
  8
0
  6
CONTINUOUS
100
AcDb3dPolyline
 66
     1
 10
0.0
 20
0.0
 30
0.0
 70
     8
1001
ACAD
1000
R13OBJECT
1002
{
1005
60423
1002
}
  0
VERTEX
  5
60430
100
AcDbEntity
  8
0
  6
CONTINUOUS
100
AcDbVertex
100
AcDb3dPolylineVertex
 10
1.76521
 20
-1.8455
 30
3.082
 70
    32
1001
ACAD
1000
R13OBJECT
1002
{
1005
60423
1002
}
  0
VERTEX
  5
60431
100
AcDbEntity
  8
0
  6
CONTINUOUS
100
AcDbVertex
100
AcDb3dPolylineVertex
 10
1.76521
 20
0.3985
 30
3.082
 70
    32
1001
ACAD
1000
R13OBJECT
1002
{
1005
60423
1002
}
  0
SEQEND
  5
60432
100
AcDbEntity
  8
0
  6
CONTINUOUS
1001
ACAD
1000
R13OBJECT
1002
{
1005
60423
1002
}
  0
LINE
  5
60433
100
AcDbEntity
  8
0
100
AcDbLine
 10
0.00021
 20
0.3985
 30
3.082
 11
0.00021
 21
0.3985
 31
2.06
210
-1.0
220
0.0
230
0.0
  0
LINE
  5
60434
100
AcDbEntity
  8
0
100
AcDbLine
 10
0.00021
 20
0.3985
 30
3.082
 11
0.00021
 21
-1.8455
 31
3.082
210
-1.0
220
0.0
230
0.0
  0
LINE
  5
60435
100
AcDbEntity
  8
0
100
AcDbLine
 10
0.00021
 20
-1.8455
 30
3.082
 11
0.00021
 21
-1.8455
 31
2.06
210
-1.0
220
0.0
230
0.0
  0
3DFACE
  5
60436
100
AcDbEntity
  8
0
100
AcDbFace
 10
1.76521
 20
0.3985
 30
3.082
 11
1.76521
 21
-1.8455
 31
3.082
 12
0.00021
 22
-1.8455
 32
3.082
 13
0.00021
 23
0.3985
 33
3.082
  0
POLYLINE
  5
60437
100
AcDbEntity
  8
0
100
AcDbPolygonMesh
 66
     1
 10
0.0
 20
0.0
 30
0.0
 70
    16
 71
     6
 72
     3
  0
VERTEX
  5
60438
100
AcDbEntity
  8
0
100
AcDbVertex
100
AcDbPolygonMeshVertex
 10
1.25071
 20
-0.439486
 30
3.293
 70
    64
  0
VERTEX
  5
60439
100
AcDbEntity
  8
0
100
AcDbVertex
100
AcDbPolygonMeshVertex
 10
1.25071
 20
-0.439486
 30
3.116
 70
    64
  0
VERTEX
  5
6043A
100
AcDbEntity
  8
0
100
AcDbVertex
100
AcDbPolygonMeshVertex
 10
1.25071
 20
-0.439486
 30
3.116
 70
    64
  0
VERTEX
  5
6043B
100
AcDbEntity
  8
0
100
AcDbVertex
100
AcDbPolygonMeshVertex
 10
1.08121
 20
-0.439486
 30
3.293
 70
    64
  0
VERTEX
  5
6043C
100
AcDbEntity
  8
0
100
AcDbVertex
100
AcDbPolygonMeshVertex
 10
1.08121
 20
-0.439486
 30
3.116
 70
    64
  0
VERTEX
  5
6043D
100
AcDbEntity
  8
0
100
AcDbVertex
100
AcDbPolygonMeshVertex
 10
1.08121
 20
-0.439486
 30
3.116
 70
    64
  0
VERTEX
  5
6043E
100
AcDbEntity
  8
0
100
AcDbVertex
100
AcDbPolygonMeshVertex
 10
1.08121
 20
-0.086486
 30
3.293
 70
    64
  0
VERTEX
  5
6043F
100
AcDbEntity
  8
0
100
AcDbVertex
100
AcDbPolygonMeshVertex
 10
1.08121
 20
-0.086486
 30
3.116
 70
    64
  0
VERTEX
  5
60440
100
AcDbEntity
  8
0
100
AcDbVertex
100
AcDbPolygonMeshVertex
 10
1.08121
 20
-0.439486
 30
3.116
 70
    64
  0
VERTEX
  5
60441
100
AcDbEntity
  8
0
100
AcDbVertex
100
AcDbPolygonMeshVertex
 10
1.25071
 20
-0.086486
 30
3.293
 70
    64
  0
VERTEX
  5
60442
100
AcDbEntity
  8
0
100
AcDbVertex
100
AcDbPolygonMeshVertex
 10
1.25071
 20
-0.086486
 30
3.116
 70
    64
  0
VERTEX
  5
60443
100
AcDbEntity
  8
0
100
AcDbVertex
100
AcDbPolygonMeshVertex
 10
1.25071
 20
-0.439486
 30
3.116
 70
    64
  0
VERTEX
  5
60444
100
AcDbEntity
  8
0
100
AcDbVertex
100
AcDbPolygonMeshVertex
 10
1.25071
 20
-0.086486
 30
3.293
 70
    64
  0
VERTEX
  5
60445
100
AcDbEntity
  8
0
100
AcDbVertex
100
AcDbPolygonMeshVertex
 10
1.25071
 20
-0.086486
 30
3.293
 70
    64
  0
VERTEX
  5
60446
100
AcDbEntity
  8
0
100
AcDbVertex
100
AcDbPolygonMeshVertex
 10
1.25071
 20
-0.439486
 30
3.293
 70
    64
  0
VERTEX
  5
60447
100
AcDbEntity
  8
0
100
AcDbVertex
100
AcDbPolygonMeshVertex
 10
1.08121
 20
-0.086486
 30
3.293
 70
    64
  0
VERTEX
  5
60448
100
AcDbEntity
  8
0
100
AcDbVertex
100
AcDbPolygonMeshVertex
 10
1.08121
 20
-0.086486
 30
3.293
 70
    64
  0
VERTEX
  5
60449
100
AcDbEntity
  8
0
100
AcDbVertex
100
AcDbPolygonMeshVertex
 10
1.08121
 20
-0.439486
 30
3.293
 70
    64
  0
SEQEND
  5
6044A
100
AcDbEntity
  8
0
  0
POLYLINE
  5
6044B
100
AcDbEntity
  8
0
100
AcDbPolygonMesh
 66
     1
 10
0.0
 20
0.0
 30
0.0
 70
    16
 71
     6
 72
     3
  0
VERTEX
  5
6044C
100
AcDbEntity
  8
0
100
AcDbVertex
100
AcDbPolygonMeshVertex
 10
1.12271
 20
-0.894486
 30
3.332
 70
    64
  0
VERTEX
  5
6044D
100
AcDbEntity
  8
0
100
AcDbVertex
100
AcDbPolygonMeshVertex
 10
1.12271
 20
-0.894486
 30
3.116
 70
    64
  0
VERTEX
  5
6044E
100
AcDbEntity
  8
0
100
AcDbVertex
100
AcDbPolygonMeshVertex
 10
1.12271
 20
-0.894486
 30
3.116
 70
    64
  0
VERTEX
  5
6044F
100
AcDbEntity
  8
0
100
AcDbVertex
100
AcDbPolygonMeshVertex
 10
0.98771
 20
-0.894486
 30
3.332
 70
    64
  0
VERTEX
  5
60450
100
AcDbEntity
  8
0
100
AcDbVertex
100
AcDbPolygonMeshVertex
 10
0.98771
 20
-0.894486
 30
3.116
 70
    64
  0
VERTEX
  5
60451
100
AcDbEntity
  8
0
100
AcDbVertex
100
AcDbPolygonMeshVertex
 10
0.98771
 20
-0.894486
 30
3.116
 70
    64
  0
VERTEX
  5
60452
100
AcDbEntity
  8
0
100
AcDbVertex
100
AcDbPolygonMeshVertex
 10
0.98771
 20
-0.549486
 30
3.332
 70
    64
  0
VERTEX
  5
60453
100
AcDbEntity
  8
0
100
AcDbVertex
100
AcDbPolygonMeshVertex
 10
0.98771
 20
-0.549486
 30
3.116
 70
    64
  0
VERTEX
  5
60454
100
AcDbEntity
  8
0
100
AcDbVertex
100
AcDbPolygonMeshVertex
 10
0.98771
 20
-0.894486
 30
3.116
 70
    64
  0
VERTEX
  5
60455
100
AcDbEntity
  8
0
100
AcDbVertex
100
AcDbPolygonMeshVertex
 10
1.12271
 20
-0.549486
 30
3.332
 70
    64
  0
VERTEX
  5
60456
100
AcDbEntity
  8
0
100
AcDbVertex
100
AcDbPolygonMeshVertex
 10
1.12271
 20
-0.549486
 30
3.116
 70
    64
  0
VERTEX
  5
60457
100
AcDbEntity
  8
0
100
AcDbVertex
100
AcDbPolygonMeshVertex
 10
1.12271
 20
-0.894486
 30
3.116
 70
    64
  0
VERTEX
  5
60458
100
AcDbEntity
  8
0
100
AcDbVertex
100
AcDbPolygonMeshVertex
 10
1.12271
 20
-0.549486
 30
3.332
 70
    64
  0
VERTEX
  5
60459
100
AcDbEntity
  8
0
100
AcDbVertex
100
AcDbPolygonMeshVertex
 10
1.12271
 20
-0.549486
 30
3.332
 70
    64
  0
VERTEX
  5
6045A
100
AcDbEntity
  8
0
100
AcDbVertex
100
AcDbPolygonMeshVertex
 10
1.12271
 20
-0.894486
 30
3.332
 70
    64
  0
VERTEX
  5
6045B
100
AcDbEntity
  8
0
100
AcDbVertex
100
AcDbPolygonMeshVertex
 10
0.98771
 20
-0.549486
 30
3.332
 70
    64
  0
VERTEX
  5
6045C
100
AcDbEntity
  8
0
100
AcDbVertex
100
AcDbPolygonMeshVertex
 10
0.98771
 20
-0.549486
 30
3.332
 70
    64
  0
VERTEX
  5
6045D
100
AcDbEntity
  8
0
100
AcDbVertex
100
AcDbPolygonMeshVertex
 10
0.98771
 20
-0.894486
 30
3.332
 70
    64
  0
SEQEND
  5
6045E
100
AcDbEntity
  8
0
  0
3DFACE
  5
6045F
100
AcDbEntity
  8
0
100
AcDbFace
 10
1.76521
 20
0.3985
 30
3.082
 11
1.76521
 21
0.3985
 31
3.082
 12
0.00021
 22
0.3985
 32
3.082
 13
0.00021
 23
0.3985
 33
3.082
  0
TEXT
  5
60460
100
AcDbEntity
  8
0
100
AcDbText
 10
0.072628
 20
0.301596
 30
3.082
 40
0.083465
  1
1
100
AcDbText
  0
TEXT
  5
60461
100
AcDbEntity
  8
0
100
AcDbText
 10
1.169577
 20
0.304736
 30
3.082
 40
0.083465
  1
L3
100
AcDbText
  0
TEXT
  5
60462
100
AcDbEntity
  8
0
100
AcDbText
 10
0.763029
 20
0.301324
 30
3.082
 40
0.083465
  1
L2
100
AcDbText
  0
TEXT
  5
60463
100
AcDbEntity
  8
0
100
AcDbText
 10
0.336406
 20
0.300754
 30
3.082
 40
0.083465
  1
L1
100
AcDbText
  0
TEXT
  5
60464
100
AcDbEntity
  8
0
100
AcDbText
 10
0.523379
 20
0.299912
 30
3.082
 40
0.083465
  1
3
100
AcDbText
  0
TEXT
  5
60465
100
AcDbEntity
  8
0
100
AcDbText
 10
0.964913
 20
0.302735
 30
3.082
 40
0.083465
  1
5
100
AcDbText
  0
TEXT
  5
60466
100
AcDbEntity
  8
0
100
AcDbText
 10
1.599327
 20
0.304736
 30
3.082
 40
0.083465
  1
NO
100
AcDbText
  0
TEXT
  5
60467
100
AcDbEntity
  8
0
100
AcDbText
 10
1.370118
 20
0.302735
 30
3.082
 40
0.083465
  1
13
100
AcDbText
  0
POLYLINE
  5
60468
100
AcDbEntity
  8
0
100
AcDbPolygonMesh
 66
     1
 10
0.0
 20
0.0
 30
0.0
 70
    16
 71
     6
 72
     3
  0
VERTEX
  5
60469
100
AcDbEntity
  8
0
100
AcDbVertex
100
AcDbPolygonMeshVertex
 10
1.27071
 20
-1.376486
 30
3.282
 70
    64
  0
VERTEX
  5
6046A
100
AcDbEntity
  8
0
100
AcDbVertex
100
AcDbPolygonMeshVertex
 10
1.27071
 20
-1.376486
 30
3.082
 70
    64
  0
VERTEX
  5
6046B
100
AcDbEntity
  8
0
100
AcDbVertex
100
AcDbPolygonMeshVertex
 10
1.27071
 20
-1.376486
 30
3.082
 70
    64
  0
VERTEX
  5
6046C
100
AcDbEntity
  8
0
100
AcDbVertex
100
AcDbPolygonMeshVertex
 10
0.49971
 20
-1.376486
 30
3.282
 70
    64
  0
VERTEX
  5
6046D
100
AcDbEntity
  8
0
100
AcDbVertex
100
AcDbPolygonMeshVertex
 10
0.49971
 20
-1.376486
 30
3.082
 70
    64
  0
VERTEX
  5
6046E
100
AcDbEntity
  8
0
100
AcDbVertex
100
AcDbPolygonMeshVertex
 10
0.49971
 20
-1.376486
 30
3.082
 70
    64
  0
VERTEX
  5
6046F
100
AcDbEntity
  8
0
100
AcDbVertex
100
AcDbPolygonMeshVertex
 10
0.49971
 20
-1.094486
 30
3.282
 70
    64
  0
VERTEX
  5
60470
100
AcDbEntity
  8
0
100
AcDbVertex
100
AcDbPolygonMeshVertex
 10
0.49971
 20
-1.094486
 30
3.082
 70
    64
  0
VERTEX
  5
60471
100
AcDbEntity
  8
0
100
AcDbVertex
100
AcDbPolygonMeshVertex
 10
0.49971
 20
-1.376486
 30
3.082
 70
    64
  0
VERTEX
  5
60472
100
AcDbEntity
  8
0
100
AcDbVertex
100
AcDbPolygonMeshVertex
 10
1.27071
 20
-1.094486
 30
3.282
 70
    64
  0
VERTEX
  5
60473
100
AcDbEntity
  8
0
100
AcDbVertex
100
AcDbPolygonMeshVertex
 10
1.27071
 20
-1.094486
 30
3.082
 70
    64
  0
VERTEX
  5
60474
100
AcDbEntity
  8
0
100
AcDbVertex
100
AcDbPolygonMeshVertex
 10
1.27071
 20
-1.376486
 30
3.082
 70
    64
  0
VERTEX
  5
60475
100
AcDbEntity
  8
0
100
AcDbVertex
100
AcDbPolygonMeshVertex
 10
1.27071
 20
-1.094486
 30
3.282
 70
    64
  0
VERTEX
  5
60476
100
AcDbEntity
  8
0
100
AcDbVertex
100
AcDbPolygonMeshVertex
 10
1.27071
 20
-1.094486
 30
3.282
 70
    64
  0
VERTEX
  5
60477
100
AcDbEntity
  8
0
100
AcDbVertex
100
AcDbPolygonMeshVertex
 10
1.27071
 20
-1.376486
 30
3.282
 70
    64
  0
VERTEX
  5
60478
100
AcDbEntity
  8
0
100
AcDbVertex
100
AcDbPolygonMeshVertex
 10
0.49971
 20
-1.094486
 30
3.282
 70
    64
  0
VERTEX
  5
60479
100
AcDbEntity
  8
0
100
AcDbVertex
100
AcDbPolygonMeshVertex
 10
0.49971
 20
-1.094486
 30
3.282
 70
    64
  0
VERTEX
  5
6047A
100
AcDbEntity
  8
0
100
AcDbVertex
100
AcDbPolygonMeshVertex
 10
0.49971
 20
-1.376486
 30
3.282
 70
    64
  0
SEQEND
  5
6047B
100
AcDbEntity
  8
0
  0
POLYLINE
  5
6047C
100
AcDbEntity
  8
0
100
AcDbPolygonMesh
 66
     1
 10
0.0
 20
0.0
 30
0.0
 70
    16
 71
     6
 72
     3
  0
VERTEX
  5
6047D
100
AcDbEntity
  8
0
100
AcDbVertex
100
AcDbPolygonMeshVertex
 10
1.25071
 20
-0.439486
 30
3.116
 70
    64
  0
VERTEX
  5
6047E
100
AcDbEntity
  8
0
100
AcDbVertex
100
AcDbPolygonMeshVertex
 10
1.25071
 20
-0.439486
 30
3.082
 70
    64
  0
VERTEX
  5
6047F
100
AcDbEntity
  8
0
100
AcDbVertex
100
AcDbPolygonMeshVertex
 10
1.25071
 20
-0.439486
 30
3.082
 70
    64
  0
VERTEX
  5
60480
100
AcDbEntity
  8
0
100
AcDbVertex
100
AcDbPolygonMeshVertex
 10
0.51971
 20
-0.439486
 30
3.116
 70
    64
  0
VERTEX
  5
60481
100
AcDbEntity
  8
0
100
AcDbVertex
100
AcDbPolygonMeshVertex
 10
0.51971
 20
-0.439486
 30
3.082
 70
    64
  0
VERTEX
  5
60482
100
AcDbEntity
  8
0
100
AcDbVertex
100
AcDbPolygonMeshVertex
 10
0.51971
 20
-0.439486
 30
3.082
 70
    64
  0
VERTEX
  5
60483
100
AcDbEntity
  8
0
100
AcDbVertex
100
AcDbPolygonMeshVertex
 10
0.51971
 20
-0.086486
 30
3.116
 70
    64
  0
VERTEX
  5
60484
100
AcDbEntity
  8
0
100
AcDbVertex
100
AcDbPolygonMeshVertex
 10
0.51971
 20
-0.086486
 30
3.082
 70
    64
  0
VERTEX
  5
60485
100
AcDbEntity
  8
0
100
AcDbVertex
100
AcDbPolygonMeshVertex
 10
0.51971
 20
-0.439486
 30
3.082
 70
    64
  0
VERTEX
  5
60486
100
AcDbEntity
  8
0
100
AcDbVertex
100
AcDbPolygonMeshVertex
 10
1.25071
 20
-0.086486
 30
3.116
 70
    64
  0
VERTEX
  5
60487
100
AcDbEntity
  8
0
100
AcDbVertex
100
AcDbPolygonMeshVertex
 10
1.25071
 20
-0.086486
 30
3.082
 70
    64
  0
VERTEX
  5
60488
100
AcDbEntity
  8
0
100
AcDbVertex
100
AcDbPolygonMeshVertex
 10
1.25071
 20
-0.439486
 30
3.082
 70
    64
  0
VERTEX
  5
60489
100
AcDbEntity
  8
0
100
AcDbVertex
100
AcDbPolygonMeshVertex
 10
1.25071
 20
-0.086486
 30
3.116
 70
    64
  0
VERTEX
  5
6048A
100
AcDbEntity
  8
0
100
AcDbVertex
100
AcDbPolygonMeshVertex
 10
1.25071
 20
-0.086486
 30
3.116
 70
    64
  0
VERTEX
  5
6048B
100
AcDbEntity
  8
0
100
AcDbVertex
100
AcDbPolygonMeshVertex
 10
1.25071
 20
-0.439486
 30
3.116
 70
    64
  0
VERTEX
  5
6048C
100
AcDbEntity
  8
0
100
AcDbVertex
100
AcDbPolygonMeshVertex
 10
0.51971
 20
-0.086486
 30
3.116
 70
    64
  0
VERTEX
  5
6048D
100
AcDbEntity
  8
0
100
AcDbVertex
100
AcDbPolygonMeshVertex
 10
0.51971
 20
-0.086486
 30
3.116
 70
    64
  0
VERTEX
  5
6048E
100
AcDbEntity
  8
0
100
AcDbVertex
100
AcDbPolygonMeshVertex
 10
0.51971
 20
-0.439486
 30
3.116
 70
    64
  0
SEQEND
  5
6048F
100
AcDbEntity
  8
0
  0
POLYLINE
  5
60490
100
AcDbEntity
  8
0
100
AcDbPolygonMesh
 66
     1
 10
0.0
 20
0.0
 30
0.0
 70
    16
 71
     6
 72
     3
  0
VERTEX
  5
60491
100
AcDbEntity
  8
0
100
AcDbVertex
100
AcDbPolygonMeshVertex
 10
0.68921
 20
-0.439486
 30
3.293
 70
    64
  0
VERTEX
  5
60492
100
AcDbEntity
  8
0
100
AcDbVertex
100
AcDbPolygonMeshVertex
 10
0.68921
 20
-0.439486
 30
3.116
 70
    64
  0
VERTEX
  5
60493
100
AcDbEntity
  8
0
100
AcDbVertex
100
AcDbPolygonMeshVertex
 10
0.68921
 20
-0.439486
 30
3.116
 70
    64
  0
VERTEX
  5
60494
100
AcDbEntity
  8
0
100
AcDbVertex
100
AcDbPolygonMeshVertex
 10
0.51971
 20
-0.439486
 30
3.293
 70
    64
  0
VERTEX
  5
60495
100
AcDbEntity
  8
0
100
AcDbVertex
100
AcDbPolygonMeshVertex
 10
0.51971
 20
-0.439486
 30
3.116
 70
    64
  0
VERTEX
  5
60496
100
AcDbEntity
  8
0
100
AcDbVertex
100
AcDbPolygonMeshVertex
 10
0.51971
 20
-0.439486
 30
3.116
 70
    64
  0
VERTEX
  5
60497
100
AcDbEntity
  8
0
100
AcDbVertex
100
AcDbPolygonMeshVertex
 10
0.51971
 20
-0.086486
 30
3.293
 70
    64
  0
VERTEX
  5
60498
100
AcDbEntity
  8
0
100
AcDbVertex
100
AcDbPolygonMeshVertex
 10
0.51971
 20
-0.086486
 30
3.116
 70
    64
  0
VERTEX
  5
60499
100
AcDbEntity
  8
0
100
AcDbVertex
100
AcDbPolygonMeshVertex
 10
0.51971
 20
-0.439486
 30
3.116
 70
    64
  0
VERTEX
  5
6049A
100
AcDbEntity
  8
0
100
AcDbVertex
100
AcDbPolygonMeshVertex
 10
0.68921
 20
-0.086486
 30
3.293
 70
    64
  0
VERTEX
  5
6049B
100
AcDbEntity
  8
0
100
AcDbVertex
100
AcDbPolygonMeshVertex
 10
0.68921
 20
-0.086486
 30
3.116
 70
    64
  0
VERTEX
  5
6049C
100
AcDbEntity
  8
0
100
AcDbVertex
100
AcDbPolygonMeshVertex
 10
0.68921
 20
-0.439486
 30
3.116
 70
    64
  0
VERTEX
  5
6049D
100
AcDbEntity
  8
0
100
AcDbVertex
100
AcDbPolygonMeshVertex
 10
0.68921
 20
-0.086486
 30
3.293
 70
    64
  0
VERTEX
  5
6049E
100
AcDbEntity
  8
0
100
AcDbVertex
100
AcDbPolygonMeshVertex
 10
0.68921
 20
-0.086486
 30
3.293
 70
    64
  0
VERTEX
  5
6049F
100
AcDbEntity
  8
0
100
AcDbVertex
100
AcDbPolygonMeshVertex
 10
0.68921
 20
-0.439486
 30
3.293
 70
    64
  0
VERTEX
  5
604A0
100
AcDbEntity
  8
0
100
AcDbVertex
100
AcDbPolygonMeshVertex
 10
0.51971
 20
-0.086486
 30
3.293
 70
    64
  0
VERTEX
  5
604A1
100
AcDbEntity
  8
0
100
AcDbVertex
100
AcDbPolygonMeshVertex
 10
0.51971
 20
-0.086486
 30
3.293
 70
    64
  0
VERTEX
  5
604A2
100
AcDbEntity
  8
0
100
AcDbVertex
100
AcDbPolygonMeshVertex
 10
0.51971
 20
-0.439486
 30
3.293
 70
    64
  0
SEQEND
  5
604A3
100
AcDbEntity
  8
0
  0
POLYLINE
  5
604A4
100
AcDbEntity
  8
0
100
AcDbPolygonMesh
 66
     1
 10
0.0
 20
0.0
 30
0.0
 70
    16
 71
     6
 72
     3
  0
VERTEX
  5
604A5
100
AcDbEntity
  8
0
100
AcDbVertex
100
AcDbPolygonMeshVertex
 10
0.78271
 20
-0.894486
 30
3.332
 70
    64
  0
VERTEX
  5
604A6
100
AcDbEntity
  8
0
100
AcDbVertex
100
AcDbPolygonMeshVertex
 10
0.78271
 20
-0.894486
 30
3.116
 70
    64
  0
VERTEX
  5
604A7
100
AcDbEntity
  8
0
100
AcDbVertex
100
AcDbPolygonMeshVertex
 10
0.78271
 20
-0.894486
 30
3.116
 70
    64
  0
VERTEX
  5
604A8
100
AcDbEntity
  8
0
100
AcDbVertex
100
AcDbPolygonMeshVertex
 10
0.64771
 20
-0.894486
 30
3.332
 70
    64
  0
VERTEX
  5
604A9
100
AcDbEntity
  8
0
100
AcDbVertex
100
AcDbPolygonMeshVertex
 10
0.64771
 20
-0.894486
 30
3.116
 70
    64
  0
VERTEX
  5
604AA
100
AcDbEntity
  8
0
100
AcDbVertex
100
AcDbPolygonMeshVertex
 10
0.64771
 20
-0.894486
 30
3.116
 70
    64
  0
VERTEX
  5
604AB
100
AcDbEntity
  8
0
100
AcDbVertex
100
AcDbPolygonMeshVertex
 10
0.64771
 20
-0.549486
 30
3.332
 70
    64
  0
VERTEX
  5
604AC
100
AcDbEntity
  8
0
100
AcDbVertex
100
AcDbPolygonMeshVertex
 10
0.64771
 20
-0.549486
 30
3.116
 70
    64
  0
VERTEX
  5
604AD
100
AcDbEntity
  8
0
100
AcDbVertex
100
AcDbPolygonMeshVertex
 10
0.64771
 20
-0.894486
 30
3.116
 70
    64
  0
VERTEX
  5
604AE
100
AcDbEntity
  8
0
100
AcDbVertex
100
AcDbPolygonMeshVertex
 10
0.78271
 20
-0.549486
 30
3.332
 70
    64
  0
VERTEX
  5
604AF
100
AcDbEntity
  8
0
100
AcDbVertex
100
AcDbPolygonMeshVertex
 10
0.78271
 20
-0.549486
 30
3.116
 70
    64
  0
VERTEX
  5
604B0
100
AcDbEntity
  8
0
100
AcDbVertex
100
AcDbPolygonMeshVertex
 10
0.78271
 20
-0.894486
 30
3.116
 70
    64
  0
VERTEX
  5
604B1
100
AcDbEntity
  8
0
100
AcDbVertex
100
AcDbPolygonMeshVertex
 10
0.78271
 20
-0.549486
 30
3.332
 70
    64
  0
VERTEX
  5
604B2
100
AcDbEntity
  8
0
100
AcDbVertex
100
AcDbPolygonMeshVertex
 10
0.78271
 20
-0.549486
 30
3.332
 70
    64
  0
VERTEX
  5
604B3
100
AcDbEntity
  8
0
100
AcDbVertex
100
AcDbPolygonMeshVertex
 10
0.78271
 20
-0.894486
 30
3.332
 70
    64
  0
VERTEX
  5
604B4
100
AcDbEntity
  8
0
100
AcDbVertex
100
AcDbPolygonMeshVertex
 10
0.64771
 20
-0.549486
 30
3.332
 70
    64
  0
VERTEX
  5
604B5
100
AcDbEntity
  8
0
100
AcDbVertex
100
AcDbPolygonMeshVertex
 10
0.64771
 20
-0.549486
 30
3.332
 70
    64
  0
VERTEX
  5
604B6
100
AcDbEntity
  8
0
100
AcDbVertex
100
AcDbPolygonMeshVertex
 10
0.64771
 20
-0.894486
 30
3.332
 70
    64
  0
SEQEND
  5
604B7
100
AcDbEntity
  8
0
  0
CIRCLE
  5
604B8
100
AcDbEntity
  8
0
100
AcDbCircle
 10
0.667835
 20
-1.58788
 30
3.082
 40
0.138
  0
TEXT
  5
604B9
100
AcDbEntity
  8
0
100
AcDbText
 10
0.749732
 20
-1.819571
 30
3.082
 40
0.083465
  1
T2
100
AcDbText
  0
TEXT
  5
604BA
100
AcDbEntity
  8
0
100
AcDbText
 10
0.968783
 20
-1.820413
 30
3.082
 40
0.083465
  1
6
100
AcDbText
  0
CIRCLE
  5
604BB
100
AcDbEntity
  8
0
100
AcDbCircle
 10
1.097585
 20
-1.58788
 30
3.082
 40
0.138
  0
POLYLINE
  5
604BC
100
AcDbEntity
  8
0
100
AcDbPolygonMesh
 66
     1
 10
0.0
 20
0.0
 30
0.0
 70
    16
 71
     6
 72
     3
  0
VERTEX
  5
604BD
100
AcDbEntity
  8
0
100
AcDbVertex
100
AcDbPolygonMeshVertex
 10
1.12271
 20
-0.894486
 30
3.116
 70
    64
  0
VERTEX
  5
604BE
100
AcDbEntity
  8
0
100
AcDbVertex
100
AcDbPolygonMeshVertex
 10
1.12271
 20
-0.894486
 30
3.082
 70
    64
  0
VERTEX
  5
604BF
100
AcDbEntity
  8
0
100
AcDbVertex
100
AcDbPolygonMeshVertex
 10
1.12271
 20
-0.894486
 30
3.082
 70
    64
  0
VERTEX
  5
604C0
100
AcDbEntity
  8
0
100
AcDbVertex
100
AcDbPolygonMeshVertex
 10
0.64771
 20
-0.894486
 30
3.116
 70
    64
  0
VERTEX
  5
604C1
100
AcDbEntity
  8
0
100
AcDbVertex
100
AcDbPolygonMeshVertex
 10
0.64771
 20
-0.894486
 30
3.082
 70
    64
  0
VERTEX
  5
604C2
100
AcDbEntity
  8
0
100
AcDbVertex
100
AcDbPolygonMeshVertex
 10
0.64771
 20
-0.894486
 30
3.082
 70
    64
  0
VERTEX
  5
604C3
100
AcDbEntity
  8
0
100
AcDbVertex
100
AcDbPolygonMeshVertex
 10
0.64771
 20
-0.549486
 30
3.116
 70
    64
  0
VERTEX
  5
604C4
100
AcDbEntity
  8
0
100
AcDbVertex
100
AcDbPolygonMeshVertex
 10
0.64771
 20
-0.549486
 30
3.082
 70
    64
  0
VERTEX
  5
604C5
100
AcDbEntity
  8
0
100
AcDbVertex
100
AcDbPolygonMeshVertex
 10
0.64771
 20
-0.894486
 30
3.082
 70
    64
  0
VERTEX
  5
604C6
100
AcDbEntity
  8
0
100
AcDbVertex
100
AcDbPolygonMeshVertex
 10
1.12271
 20
-0.549486
 30
3.116
 70
    64
  0
VERTEX
  5
604C7
100
AcDbEntity
  8
0
100
AcDbVertex
100
AcDbPolygonMeshVertex
 10
1.12271
 20
-0.549486
 30
3.082
 70
    64
  0
VERTEX
  5
604C8
100
AcDbEntity
  8
0
100
AcDbVertex
100
AcDbPolygonMeshVertex
 10
1.12271
 20
-0.894486
 30
3.082
 70
    64
  0
VERTEX
  5
604C9
100
AcDbEntity
  8
0
100
AcDbVertex
100
AcDbPolygonMeshVertex
 10
1.12271
 20
-0.549486
 30
3.116
 70
    64
  0
VERTEX
  5
604CA
100
AcDbEntity
  8
0
100
AcDbVertex
100
AcDbPolygonMeshVertex
 10
1.12271
 20
-0.549486
 30
3.116
 70
    64
  0
VERTEX
  5
604CB
100
AcDbEntity
  8
0
100
AcDbVertex
100
AcDbPolygonMeshVertex
 10
1.12271
 20
-0.894486
 30
3.116
 70
    64
  0
VERTEX
  5
604CC
100
AcDbEntity
  8
0
100
AcDbVertex
100
AcDbPolygonMeshVertex
 10
0.64771
 20
-0.549486
 30
3.116
 70
    64
  0
VERTEX
  5
604CD
100
AcDbEntity
  8
0
100
AcDbVertex
100
AcDbPolygonMeshVertex
 10
0.64771
 20
-0.549486
 30
3.116
 70
    64
  0
VERTEX
  5
604CE
100
AcDbEntity
  8
0
100
AcDbVertex
100
AcDbPolygonMeshVertex
 10
0.64771
 20
-0.894486
 30
3.116
 70
    64
  0
SEQEND
  5
604CF
100
AcDbEntity
  8
0
  0
TEXT
  5
604D0
100
AcDbEntity
  8
0
100
AcDbText
 10
1.168755
 20
-1.819002
 30
3.082
 40
0.083465
  1
T3
100
AcDbText
  0
TEXT
  5
604D1
100
AcDbEntity
  8
0
100
AcDbText
 10
0.325022
 20
-1.817525
 30
3.082
 40
0.083465
  1
T1
100
AcDbText
  0
CIRCLE
  5
604D2
100
AcDbEntity
  8
0
100
AcDbCircle
 10
0.238085
 20
-1.58788
 30
3.082
 40
0.138
  0
TEXT
  5
604D3
100
AcDbEntity
  8
0
100
AcDbText
 10
0.080569
 20
-1.821552
 30
3.082
 40
0.083465
  1
2
100
AcDbText
  0
TEXT
  5
604D4
100
AcDbEntity
  8
0
100
AcDbText
 10
1.598505
 20
-1.819002
 30
3.082
 40
0.083465
  1
NO
100
AcDbText
  0
TEXT
  5
604D5
100
AcDbEntity
  8
0
100
AcDbText
 10
1.398533
 20
-1.820413
 30
3.082
 40
0.083465
  1
14
100
AcDbText
  0
CIRCLE
  5
604D6
100
AcDbEntity
  8
0
100
AcDbCircle
 10
1.527335
 20
-1.58788
 30
3.082
 40
0.138
  0
LWPOLYLINE
  5
604D7
100
AcDbEntity
  8
0
100
AcDbPolyline
 90
        2
 70
     0
 43
0.0
 38
2.06
 10
0.00021
 20
-1.8455
 10
0.00021
 20
0.3985
  0
POLYLINE
  5
604D8
100
AcDbEntity
  8
0
100
AcDbPolygonMesh
 66
     1
 10
0.0
 20
0.0
 30
0.0
 70
    16
 71
     6
 72
     3
  0
VERTEX
  5
604D9
100
AcDbEntity
  8
0
100
AcDbVertex
100
AcDbPolygonMeshVertex
 10
1.76521
 20
-1.8455
 30
3.082
 70
    64
  0
VERTEX
  5
604DA
100
AcDbEntity
  8
0
100
AcDbVertex
100
AcDbPolygonMeshVertex
 10
1.76521
 20
-1.8455
 30
2.06
 70
    64
  0
VERTEX
  5
604DB
100
AcDbEntity
  8
0
100
AcDbVertex
100
AcDbPolygonMeshVertex
 10
1.76521
 20
-1.8455
 30
2.06
 70
    64
  0
VERTEX
  5
604DC
100
AcDbEntity
  8
0
100
AcDbVertex
100
AcDbPolygonMeshVertex
 10
0.00021
 20
-1.8455
 30
3.082
 70
    64
  0
VERTEX
  5
604DD
100
AcDbEntity
  8
0
100
AcDbVertex
100
AcDbPolygonMeshVertex
 10
0.00021
 20
-1.8455
 30
2.06
 70
    64
  0
VERTEX
  5
604DE
100
AcDbEntity
  8
0
100
AcDbVertex
100
AcDbPolygonMeshVertex
 10
0.00021
 20
-1.8455
 30
2.06
 70
    64
  0
VERTEX
  5
604DF
100
AcDbEntity
  8
0
100
AcDbVertex
100
AcDbPolygonMeshVertex
 10
0.00021
 20
0.3985
 30
3.082
 70
    64
  0
VERTEX
  5
604E0
100
AcDbEntity
  8
0
100
AcDbVertex
100
AcDbPolygonMeshVertex
 10
0.00021
 20
0.3985
 30
2.06
 70
    64
  0
VERTEX
  5
604E1
100
AcDbEntity
  8
0
100
AcDbVertex
100
AcDbPolygonMeshVertex
 10
0.00021
 20
-1.8455
 30
2.06
 70
    64
  0
VERTEX
  5
604E2
100
AcDbEntity
  8
0
100
AcDbVertex
100
AcDbPolygonMeshVertex
 10
1.76521
 20
0.3985
 30
3.082
 70
    64
  0
VERTEX
  5
604E3
100
AcDbEntity
  8
0
100
AcDbVertex
100
AcDbPolygonMeshVertex
 10
1.76521
 20
0.3985
 30
2.06
 70
    64
  0
VERTEX
  5
604E4
100
AcDbEntity
  8
0
100
AcDbVertex
100
AcDbPolygonMeshVertex
 10
1.76521
 20
-1.8455
 30
2.06
 70
    64
  0
VERTEX
  5
604E5
100
AcDbEntity
  8
0
100
AcDbVertex
100
AcDbPolygonMeshVertex
 10
1.76521
 20
0.3985
 30
3.082
 70
    64
  0
VERTEX
  5
604E6
100
AcDbEntity
  8
0
100
AcDbVertex
100
AcDbPolygonMeshVertex
 10
1.76521
 20
0.3985
 30
3.082
 70
    64
  0
VERTEX
  5
604E7
100
AcDbEntity
  8
0
100
AcDbVertex
100
AcDbPolygonMeshVertex
 10
1.76521
 20
-1.8455
 30
3.082
 70
    64
  0
VERTEX
  5
604E8
100
AcDbEntity
  8
0
100
AcDbVertex
100
AcDbPolygonMeshVertex
 10
0.00021
 20
0.3985
 30
3.082
 70
    64
  0
VERTEX
  5
604E9
100
AcDbEntity
  8
0
100
AcDbVertex
100
AcDbPolygonMeshVertex
 10
0.00021
 20
0.3985
 30
3.082
 70
    64
  0
VERTEX
  5
604EA
100
AcDbEntity
  8
0
100
AcDbVertex
100
AcDbPolygonMeshVertex
 10
0.00021
 20
-1.8455
 30
3.082
 70
    64
  0
SEQEND
  5
604EB
100
AcDbEntity
  8
0
  0
POLYLINE
  5
604EC
100
AcDbEntity
  8
0
100
AcDb3dPolyline
 66
     1
 10
0.0
 20
0.0
 30
0.0
 70
     8
  0
VERTEX
  5
604ED
100
AcDbEntity
  8
0
100
AcDbVertex
100
AcDb3dPolylineVertex
 10
1.765421
 20
-0.6405
 30
1.592
 70
    32
  0
VERTEX
  5
604EE
100
AcDbEntity
  8
0
100
AcDbVertex
100
AcDb3dPolylineVertex
 10
1.765421
 20
-0.6405
 30
2.165
 70
    32
  0
VERTEX
  5
604EF
100
AcDbEntity
  8
0
100
AcDbVertex
100
AcDb3dPolylineVertex
 10
1.765421
 20
-0.8065
 30
2.165
 70
    32
  0
VERTEX
  5
604F0
100
AcDbEntity
  8
0
100
AcDbVertex
100
AcDb3dPolylineVertex
 10
1.765421
 20
-0.8065
 30
1.592
 70
    32
  0
VERTEX
  5
604F1
100
AcDbEntity
  8
0
100
AcDbVertex
100
AcDb3dPolylineVertex
 10
1.765421
 20
-0.6405
 30
1.592
 70
    32
  0
SEQEND
  5
604F2
100
AcDbEntity
  8
0
  0
LINE
  5
604F3
100
AcDbEntity
  8
0
100
AcDbLine
 10
1.765421
 20
-0.8065
 30
1.8785
 11
1.765421
 21
-0.6405
 31
1.8785
  0
LINE
  5
604F4
100
AcDbEntity
  8
0
100
AcDbLine
 10
1.765421
 20
-0.8065
 30
2.0685
 11
1.765421
 21
-0.6405
 31
2.0685
  0
POINT
  5
604F5
100
AcDbEntity
  8
SNAP_POINTS
100
AcDbPoint
 10
0.88521
 20
-0.721986
 30
3.116
  0
POINT
  5
604F6
100
AcDbEntity
  8
SNAP_POINTS
100
AcDbPoint
 10
0.0
 20
-0.7735
 30
2.0685
  0
POINT
  5
604F7
100
AcDbEntity
  8
SNAP_POINTS
100
AcDbPoint
 10
1.765421
 20
-0.6735
 30
2.0685
  0
LINE
  5
604F8
100
AcDbEntity
  8
0
100
AcDbLine
 10
0.38771
 20
0.9585
 30
1.839
 11
0.38771
 21
0.9585
 31
1.639
  0
LINE
  5
604F9
100
AcDbEntity
  8
0
100
AcDbLine
 10
0.70471
 20
0.9585
 30
1.639
 11
0.38771
 21
0.9585
 31
1.639
  0
POINT
  5
604FA
100
AcDbEntity
  8
SNAP_POINTS
100
AcDbPoint
 10
0.70471
 20
0.9585
 30
1.639
  0
LINE
  5
604FB
100
AcDbEntity
  8
0
100
AcDbLine
 10
0.70471
 20
0.9585
 30
1.839
 11
0.70471
 21
0.9585
 31
1.639
  0
LINE
  5
604FC
100
AcDbEntity
  8
0
100
AcDbLine
 10
1.06571
 20
0.9585
 30
1.639
 11
1.38271
 21
0.9585
 31
1.639
  0
LINE
  5
604FD
100
AcDbEntity
  8
0
100
AcDbLine
 10
1.38271
 20
0.9585
 30
1.839
 11
1.38271
 21
0.9585
 31
1.639
  0
LINE
  5
604FE
100
AcDbEntity
  8
0
100
AcDbLine
 10
1.06571
 20
0.9585
 30
1.839
 11
1.38271
 21
0.9585
 31
1.839
  0
LINE
  5
604FF
100
AcDbEntity
  8
0
100
AcDbLine
 10
1.06571
 20
0.9585
 30
1.839
 11
1.06571
 21
0.9585
 31
1.639
  0
LINE
  5
60500
100
AcDbEntity
  8
0
100
AcDbLine
 10
0.70471
 20
0.9585
 30
1.839
 11
0.38771
 21
0.9585
 31
1.839
  0
POINT
  5
60501
100
AcDbEntity
  8
DIMS-MTG-HOLES
100
AcDbPoint
 10
0.19121
 20
-1.9345
 30
0.0
  0
POINT
  5
60502
100
AcDbEntity
  8
DIMS-MTG-HOLES
100
AcDbPoint
 10
1.57121
 20
0.4255
 30
0.0
  0
LWPOLYLINE
  5
60503
100
AcDbEntity
  8
0
100
AcDbPolyline
 90
        6
 70
     0
 43
0.0
 38
3.082
 10
0.258085
 20
-1.451337
 10
0.258085
 20
-1.56788
 10
0.318085
 20
-1.56788
 10
0.318085
 20
-1.60788
 10
0.258085
 20
-1.60788
 10
0.258085
 20
-1.724423
  0
LWPOLYLINE
  5
60504
100
AcDbEntity
  8
0
100
AcDbPolyline
 90
        6
 70
     0
 43
0.0
 38
3.082
 10
0.218085
 20
-1.451337
 10
0.218085
 20
-1.56788
 10
0.158085
 20
-1.56788
 10
0.158085
 20
-1.60788
 10
0.218085
 20
-1.60788
 10
0.218085
 20
-1.724423
  0
LWPOLYLINE
  5
60505
100
AcDbEntity
  8
0
100
AcDbPolyline
 90
        6
 70
     0
 43
0.0
 38
3.082
 10
0.687835
 20
-1.451337
 10
0.687835
 20
-1.56788
 10
0.747835
 20
-1.56788
 10
0.747835
 20
-1.60788
 10
0.687835
 20
-1.60788
 10
0.687835
 20
-1.724423
  0
LWPOLYLINE
  5
60506
100
AcDbEntity
  8
0
100
AcDbPolyline
 90
        6
 70
     0
 43
0.0
 38
3.082
 10
0.647835
 20
-1.451337
 10
0.647835
 20
-1.56788
 10
0.587835
 20
-1.56788
 10
0.587835
 20
-1.60788
 10
0.647835
 20
-1.60788
 10
0.647835
 20
-1.724423
  0
LWPOLYLINE
  5
60507
100
AcDbEntity
  8
0
100
AcDbPolyline
 90
        6
 70
     0
 43
0.0
 38
3.082
 10
1.117585
 20
-1.451337
 10
1.117585
 20
-1.56788
 10
1.177585
 20
-1.56788
 10
1.177585
 20
-1.60788
 10
1.117585
 20
-1.60788
 10
1.117585
 20
-1.724423
  0
LWPOLYLINE
  5
60508
100
AcDbEntity
  8
0
100
AcDbPolyline
 90
        6
 70
     0
 43
0.0
 38
3.082
 10
1.077585
 20
-1.451337
 10
1.077585
 20
-1.56788
 10
1.017585
 20
-1.56788
 10
1.017585
 20
-1.60788
 10
1.077585
 20
-1.60788
 10
1.077585
 20
-1.724423
  0
LWPOLYLINE
  5
60509
100
AcDbEntity
  8
0
100
AcDbPolyline
 90
        6
 70
     0
 43
0.0
 38
3.082
 10
1.547335
 20
-1.451337
 10
1.547335
 20
-1.56788
 10
1.607335
 20
-1.56788
 10
1.607335
 20
-1.60788
 10
1.547335
 20
-1.60788
 10
1.547335
 20
-1.724423
  0
LWPOLYLINE
  5
6050A
100
AcDbEntity
  8
0
100
AcDbPolyline
 90
        6
 70
     0
 43
0.0
 38
3.082
 10
1.507335
 20
-1.451337
 10
1.507335
 20
-1.56788
 10
1.447335
 20
-1.56788
 10
1.447335
 20
-1.60788
 10
1.507335
 20
-1.60788
 10
1.507335
 20
-1.724423
  0
CIRCLE
  5
6050B
100
AcDbEntity
  8
0
100
AcDbCircle
 10
1.527335
 20
0.154908
 30
3.082
 40
0.138
  0
CIRCLE
  5
6050C
100
AcDbEntity
  8
0
100
AcDbCircle
 10
0.667835
 20
0.154908
 30
3.082
 40
0.138
  0
LWPOLYLINE
  5
6050D
100
AcDbEntity
  8
0
100
AcDbPolyline
 90
        6
 70
     0
 43
0.0
 38
3.082
 10
0.647835
 20
0.291451
 10
0.647835
 20
0.174908
 10
0.587835
 20
0.174908
 10
0.587835
 20
0.134908
 10
0.647835
 20
0.134908
 10
0.647835
 20
0.018365
  0
LWPOLYLINE
  5
6050E
100
AcDbEntity
  8
0
100
AcDbPolyline
 90
        6
 70
     0
 43
0.0
 38
3.082
 10
0.687835
 20
0.291451
 10
0.687835
 20
0.174908
 10
0.747835
 20
0.174908
 10
0.747835
 20
0.134908
 10
0.687835
 20
0.134908
 10
0.687835
 20
0.018365
  0
LWPOLYLINE
  5
6050F
100
AcDbEntity
  8
0
100
AcDbPolyline
 90
        6
 70
     0
 43
0.0
 38
3.082
 10
1.077585
 20
0.291451
 10
1.077585
 20
0.174908
 10
1.017585
 20
0.174908
 10
1.017585
 20
0.134908
 10
1.077585
 20
0.134908
 10
1.077585
 20
0.018365
  0
CIRCLE
  5
60510
100
AcDbEntity
  8
0
100
AcDbCircle
 10
1.097585
 20
0.154908
 30
3.082
 40
0.138
  0
LWPOLYLINE
  5
60511
100
AcDbEntity
  8
0
100
AcDbPolyline
 90
        6
 70
     0
 43
0.0
 38
3.082
 10
1.117585
 20
0.291451
 10
1.117585
 20
0.174908
 10
1.177585
 20
0.174908
 10
1.177585
 20
0.134908
 10
1.117585
 20
0.134908
 10
1.117585
 20
0.018365
  0
LWPOLYLINE
  5
60512
100
AcDbEntity
  8
0
100
AcDbPolyline
 90
        6
 70
     0
 43
0.0
 38
3.082
 10
1.507335
 20
0.291451
 10
1.507335
 20
0.174908
 10
1.447335
 20
0.174908
 10
1.447335
 20
0.134908
 10
1.507335
 20
0.134908
 10
1.507335
 20
0.018365
  0
LWPOLYLINE
  5
60513
100
AcDbEntity
  8
0
100
AcDbPolyline
 90
        6
 70
     0
 43
0.0
 38
3.082
 10
1.547335
 20
0.291451
 10
1.547335
 20
0.174908
 10
1.607335
 20
0.174908
 10
1.607335
 20
0.134908
 10
1.547335
 20
0.134908
 10
1.547335
 20
0.018365
  0
LWPOLYLINE
  5
60514
100
AcDbEntity
  8
0
100
AcDbPolyline
 90
        6
 70
     0
 43
0.0
 38
3.082
 10
0.258085
 20
0.291451
 10
0.258085
 20
0.174908
 10
0.318085
 20
0.174908
 10
0.318085
 20
0.134908
 10
0.258085
 20
0.134908
 10
0.258085
 20
0.018365
  0
CIRCLE
  5
60515
100
AcDbEntity
  8
0
100
AcDbCircle
 10
0.238085
 20
0.154908
 30
3.082
 40
0.138
  0
LWPOLYLINE
  5
60516
100
AcDbEntity
  8
0
100
AcDbPolyline
 90
        6
 70
     0
 43
0.0
 38
3.082
 10
0.218085
 20
0.291451
 10
0.218085
 20
0.174908
 10
0.158085
 20
0.174908
 10
0.158085
 20
0.134908
 10
0.218085
 20
0.134908
 10
0.218085
 20
0.018365
  0
LWPOLYLINE
  5
60517
100
AcDbEntity
  8
0
100
AcDbPolyline
 90
        6
 70
     0
 43
0.0
 38
2.06
 10
0.56621
 20
0.858322
 10
0.56621
 20
0.76
 10
0.62621
 20
0.76
 10
0.62621
 20
0.72
 10
0.56621
 20
0.72
 10
0.56621
 20
0.621678
  0
LWPOLYLINE
  5
60518
100
AcDbEntity
  8
0
100
AcDbPolyline
 90
        6
 70
     0
 43
0.0
 38
2.06
 10
0.52621
 20
0.858322
 10
0.52621
 20
0.76
 10
0.46621
 20
0.76
 10
0.46621
 20
0.72
 10
0.52621
 20
0.72
 10
0.52621
 20
0.621678
  0
LWPOLYLINE
  5
60519
100
AcDbEntity
  8
0
100
AcDbPolyline
 90
        6
 70
     0
 43
0.0
 38
2.06
 10
1.20421
 20
0.858322
 10
1.20421
 20
0.76
 10
1.14421
 20
0.76
 10
1.14421
 20
0.72
 10
1.20421
 20
0.72
 10
1.20421
 20
0.621678
  0
LWPOLYLINE
  5
6051A
100
AcDbEntity
  8
0
100
AcDbPolyline
 90
        6
 70
     0
 43
0.0
 38
2.06
 10
1.24421
 20
0.858322
 10
1.24421
 20
0.76
 10
1.30421
 20
0.76
 10
1.30421
 20
0.72
 10
1.24421
 20
0.72
 10
1.24421
 20
0.621678
  0
TEXT
  5
6051B
100
AcDbEntity
  8
0
100
AcDbText
 10
0.510268
 20
-1.820413
 30
3.082
 40
0.083465
  1
4
100
AcDbText
  0
DIMENSION
  5
6051C
100
AcDbEntity
  8
AREA1
100
AcDbDimension
  2
*D1
 10
-0.585303
 20
-2.2215
 30
0.0
 11
-0.585303
 21
-0.649629
 31
0.0
 70
   160
  3
ABECAD_3D
100
AcDbAlignedDimension
 13
0.33271
 23
0.9585
 33
1.386
 14
0.69971
 24
-2.2215
 34
1.386
 50
90.0
100
AcDbRotatedDimension
  0
DIMENSION
  5
60529
100
AcDbEntity
  8
AREA1
100
AcDbDimension
  2
*D2
 10
1.76521
 20
1.411994
 30
0.0
 11
0.941794
 21
1.738948
 31
0.0
 70
   160
  3
ABECAD_3D
100
AcDbAlignedDimension
 13
0.00521
 23
0.7185
 33
0.0
 14
1.76521
 24
0.5745
 34
0.0
100
AcDbRotatedDimension
  0
LWPOLYLINE
  5
60561
100
AcDbEntity
  8
SCALE
100
AcDbPolyline
 90
        4
 70
     1
 43
0.0
 10
0.347494
 20
-2.331174
 10
1.483122
 20
-2.331174
 10
1.483122
 20
-3.172783
 10
0.347494
 20
-3.172783
  0
LINE
  5
60562
100
AcDbEntity
  8
SCALE
100
AcDbLine
 10
0.405492
 20
-2.711252
 30
0.0
 11
1.405492
 21
-2.711252
 31
0.0
  0
LINE
  5
60563
100
AcDbEntity
  8
SCALE
100
AcDbLine
 10
0.405492
 20
-3.011252
 30
0.0
 11
0.799192
 21
-3.011252
 31
0.0
  0
LINE
  5
60564
100
AcDbEntity
  8
SCALE
100
AcDbLine
 10
0.405492
 20
-2.811252
 30
0.0
 11
0.405492
 21
-2.611252
 31
0.0
  0
TEXT
  5
60565
100
AcDbEntity
  8
SCALE
100
AcDbText
 10
0.461468
 20
-2.963567
 30
0.0
 40
0.0625
  1
[10mm]
100
AcDbText
  0
LINE
  5
60566
100
AcDbEntity
  8
SCALE
100
AcDbLine
 10
0.405492
 20
-3.111252
 30
0.0
 11
0.405492
 21
-2.911252
 31
0.0
  0
TEXT
  5
60567
100
AcDbEntity
  8
SCALE
100
AcDbText
 10
0.407023
 20
-2.436375
 30
0.0
 40
0.0625
  1
SCALE:
100
AcDbText
  0
LINE
  5
60568
100
AcDbEntity
  8
SCALE
100
AcDbLine
 10
0.799192
 20
-3.111252
 30
0.0
 11
0.799192
 21
-2.911252
 31
0.0
  0
TEXT
  5
60569
100
AcDbEntity
  8
SCALE
100
AcDbText
 10
0.768775
 20
-2.642203
 30
0.0
 40
0.0625
  1
1 Inch
100
AcDbText
  0
LINE
  5
6056A
100
AcDbEntity
  8
SCALE
100
AcDbLine
 10
1.405492
 20
-2.711252
 30
0.0
 11
1.405492
 21
-2.811252
 31
0.0
  0
LINE
  5
6056B
100
AcDbEntity
  8
SCALE
100
AcDbLine
 10
1.405492
 20
-2.811252
 30
0.0
 11
1.405492
 21
-2.611252
 31
0.0
  0
VIEWPORT
  5
5677D
102
{ACAD_XDICTIONARY
360
60604
102
}
100
AcDbEntity
 67
     1
  8
0
100
AcDbViewport
 10
5.25
 20
4.0
 30
0.0
 40
16.386862
 41
8.993
 68
    -1
 69
     1
1001
ACAD
1000
MVIEW
1002
{
1070
    16
1010
0.0
1020
0.0
1030
0.0
1010
0.0
1020
0.0
1030
1.0
1040
0.0
1040
8.993
1040
5.25
1040
4.0
1040
50.0
1040
0.0
1040
0.0
1070
     0
1070
 20000
1070
     1
1070
     1
1070
     0
1070
     0
1070
     0
1070
     0
1040
0.0
1040
0.0
1040
0.0
1040
0.5
1040
0.5
1040
0.5
1040
0.5
1070
     0
1002
{
1002
}
1002
}
  0
VIEWPORT
  5
5677F
102
{ACAD_XDICTIONARY
360
60606
102
}
100
AcDbEntity
 67
     1
  8
AREA1
100
AcDbViewport
 10
5.25
 20
4.0
 30
0.0
 40
8.4
 41
6.4
 68
     1
 69
     2
1001
ACAD
1000
MVIEW
1002
{
1070
    16
1010
0.563444
1020
-0.880137
1030
1.686493
1010
0.0
1020
0.0
1030
1.0
1040
0.0
1040
4.582914
1040
-1.017175
1040
0.747813
1040
50.0
1040
0.0
1040
0.0
1070
     0
1070
 20000
1070
     1
1070
     1
1070
     0
1070
     0
1070
     0
1070
     0
1040
0.0
1040
0.0
1040
0.0
1040
0.25
1040
0.25
1040
0.25
1040
0.25
1070
     0
1002
{
1002
}
1002
}
  0
ENDSEC
  0
SECTION
  2
OBJECTS
  0
DICTIONARY
  5
458CB
100
AcDbDictionary
  3
ACAD_GROUP
350
458CC
  3
ACAD_LAYOUT
350
458FB
  3
ACAD_MLINESTYLE
350
458D9
  3
ACAD_PLOTSETTINGS
350
458FC
  3
ACAD_PLOTSTYLENAME
350
458F9
  3
ACDBHEADERROUNDTRIPXREC
350
605DB
  3
ACDBVARIABLEDICTIONARY
350
458E1
  3
DWGPROPS
350
45901
  0
DICTIONARY
  5
605D9
100
AcDbDictionary
280
     1
  3
ACAD_XREC_ROUNDTRIP
360
605DA
  0
DICTIONARY
  5
60602
100
AcDbDictionary
280
     1
  3
ACAD_XREC_ROUNDTRIP
360
60603
  0
DICTIONARY
  5
605D7
100
AcDbDictionary
280
     1
  3
ACAD_XREC_ROUNDTRIP
360
605D8
  0
DICTIONARY
  5
605FE
100
AcDbDictionary
280
     1
  3
ACAD_XREC_ROUNDTRIP
360
605FF
  0
DICTIONARY
  5
4592C
100
AcDbDictionary
280
     1
  3
ACAD_LAYOUTSELFREF
360
605FD
  0
DICTIONARY
  5
4592A
100
AcDbDictionary
280
     1
  3
ACAD_LAYOUTSELFREF
360
605FC
  0
DICTIONARY
  5
60604
100
AcDbDictionary
280
     1
  3
ACAD_XREC_ROUNDTRIP
360
60605
  0
DICTIONARY
  5
60606
100
AcDbDictionary
280
     1
  3
ACAD_XREC_ROUNDTRIP
360
60607
  0
DICTIONARY
  5
458CC
102
{ACAD_REACTORS
330
458CB
102
}
100
AcDbDictionary
  0
DICTIONARY
  5
458FB
102
{ACAD_XDICTIONARY
360
60600
102
}
102
{ACAD_REACTORS
330
458CB
102
}
100
AcDbDictionary
  3
LAYOUT1
350
458FE
  3
MODEL
350
458FD
  0
DICTIONARY
  5
458D9
102
{ACAD_REACTORS
330
458CB
102
}
100
AcDbDictionary
  3
STANDARD
350
458DA
  0
DICTIONARY
  5
458FC
102
{ACAD_REACTORS
330
458CB
102
}
100
AcDbDictionary
  0
ACAD_PROXY_OBJECT
  5
458F9
102
{ACAD_REACTORS
330
458CB
102
}
100
AcDbProxyObject
 90
      499
 91
      501
 93
       86
310
405010041939BDC9B585B1
350
458FA
340
458FA
 94
        0
  0
DICTIONARY
  5
605DB
102
{ACAD_REACTORS
330
458CB
102
}
100
AcDbDictionary
  3
CEPSNTYPE
350
605E5
  3
DIMSTYLEDATA
350
605E9
  3
FINGERPRINTGUID
350
605E6
  3
HYPERLINKBASE
350
605DE
  3
INSUNITS
350
605E4
  3
LAYOUTDICT
350
605E0
  3
LWETCUNION
350
605E3
  3
PLOTSETDICT
350
605E1
  3
PLOTSTYLNAMDICT
350
605E2
  3
PSVPSCALE
350
605E8
  3
PUCSBASE
350
605EC
  3
PUCSORGBACK
350
605F2
  3
PUCSORGBOTTOM
350
605EE
  3
PUCSORGFRONT
350
605F1
  3
PUCSORGLEFT
350
605EF
  3
PUCSORGRIGHT
350
605F0
  3
PUCSORGTOP
350
605ED
  3
PUCSORTHOREF
350
605EA
  3
PUCSORTHOVIEW
350
605EB
  3
STYLESHEET
350
605DF
  3
TSTACKALIGN
350
605DC
  3
TSTACKSIZE
350
605DD
  3
UCSBASE
350
605F5
  3
UCSORGBACK
350
605FB
  3
UCSORGBOTTOM
350
605F7
  3
UCSORGFRONT
350
605FA
  3
UCSORGLEFT
350
605F8
  3
UCSORGRIGHT
350
605F9
  3
UCSORGTOP
350
605F6
  3
UCSORTHOREF
350
605F3
  3
UCSORTHOVIEW
350
605F4
  3
VERSIONGUID
350
605E7
  0
DICTIONARY
  5
458E1
102
{ACAD_REACTORS
330
458CB
102
}
100
AcDbDictionary
  3
DIMADEC
350
458E2
  0
XRECORD
  5
45901
102
{ACAD_REACTORS
330
458CB
102
}
100
AcDbXrecord
  1
DWGPROPS COOKIE
  2

  3

  4

  6

  7

  8
colin
  9

300
=
301
=
302
=
303
=
304
=
305
=
306
=
307
=
308
=
309
=
 40
0.000599
 41
2451670.444777
 42
2451670.445376
  1

 90
        0
  0
XRECORD
  5
605DA
102
{ACAD_REACTORS
330
605D9
102
}
100
AcDbXrecord
102
EXTNAMES
  1
*ACTIVE
  2
*Active
102
UCS
 74
     0
 71
     1
 10
0.0
 20
0.0
 30
0.0
 10
1.0
 20
0.0
 30
0.0
 10
0.0
 20
1.0
 30
0.0
146
0.0
 79
     1
102
VIEW
281
     1
  0
XRECORD
  5
60603
102
{ACAD_REACTORS
330
60602
102
}
100
AcDbXrecord
102
PLOTBIT
280
     0
  0
XRECORD
  5
605D8
102
{ACAD_REACTORS
330
605D7
102
}
100
AcDbXrecord
102
EXTNAMES
  1
DEFPOINTS
  2
Defpoints
102
PLOTBIT
280
     0
  0
XRECORD
  5
605FF
102
{ACAD_REACTORS
330
605FE
102
}
100
AcDbXrecord
102
ACADR14ROUNDTRIP
1000
DSTYLE
1002
{
1070
   276
 70
     2
1070
   277
 70
     5
1070
   279
 70
     2
1070
   289
 70
     2
1002
}
  0
XRECORD
  5
605FD
102
{ACAD_REACTORS
330
4592C
102
}
100
AcDbXrecord
340
458D6
  0
XRECORD
  5
605FC
102
{ACAD_REACTORS
330
4592A
102
}
100
AcDbXrecord
340
458D3
  0
XRECORD
  5
60605
102
{ACAD_REACTORS
330
60604
102
}
100
AcDbXrecord
102
UCS
 74
     0
 71
     1
 10
0.0
 20
0.0
 30
0.0
 10
1.0
 20
0.0
 30
0.0
 10
0.0
 20
1.0
 30
0.0
146
0.0
 79
     0
102
VIEW
281
     0
102
NEWVIEWCONTROL
280
     4
  0
XRECORD
  5
60607
102
{ACAD_REACTORS
330
60606
102
}
100
AcDbXrecord
102
UCS
 74
     0
 71
     1
 10
0.0
 20
0.0
 30
0.0
 10
1.0
 20
0.0
 30
0.0
 10
0.0
 20
1.0
 30
0.0
146
0.0
 79
     1
102
VIEW
281
     1
102
NEWVIEWCONTROL
280
     4
  0
DICTIONARY
  5
60600
100
AcDbDictionary
280
     1
  3
ACAD_XREC_ROUNDTRIP
360
60601
  0
ACAD_PROXY_OBJECT
  5
458FE
102
{ACAD_REACTORS
330
458FB
102
}
100
AcDbProxyObject
 90
      499
 91
      503
 93
     1700
310
90B6E6F6E655F6465766963652C0080000006066661940000000181999865000000000068661940000000001A1986500000000C0CCFC6A4000000018199D9C5011C4C65747465725F28382E35305F785F31312E30305F496E6368657329A901416AA547D11959985D5B1D08148C4D081C195B88185CDCDA59DB9B595B9D1CC
310
B98DD1891069074C61796F75743140501A840201008040342FEFF7FBFDFFFFF3EFDFAFF7FBFFDFC9501008043E3FDFC8102A6A6A0000003033333C0FC000000809999E93F8FFFFFF5766E622403FFFFFEBF333071020
330
458D3
330
5677D
340
0
340
0
 94
        0
  0
ACAD_PROXY_OBJECT
  5
458FD
102
{ACAD_REACTORS
330
458FB
102
}
100
AcDbProxyObject
 90
      499
 91
      503
 93
      924
310
91D4850204C617365724A65742035303030205365726965732050434C20362C01AAAAAAAAA547D11959985D5B1D08148C4D081C195B88185CDCDA59DB9B595B9D1CCB98DD18A69054D6F64656C901A800000000000000000000000000000000000000000000A1000000000000008902A6A6AAAA0
330
458D6
330
0
340
0
340
0
 94
        0
  0
MLINESTYLE
  5
458DA
102
{ACAD_REACTORS
330
458D9
102
}
100
AcDbMlineStyle
  2
STANDARD
 70
     0
  3

 62
   256
 51
90.0
 52
90.0
 71
     2
 49
0.5
 62
   256
  6
BYLAYER
 49
-0.5
 62
   256
  6
BYLAYER
  0
ACAD_PROXY_OBJECT
  5
458FA
102
{ACAD_REACTORS
330
458F9
102
}
100
AcDbProxyObject
 90
      499
 91
      502
 93
        0
 94
        0
  0
XRECORD
  5
605E5
102
{ACAD_REACTORS
330
605DB
102
}
100
AcDbXrecord
 90
        0
  0
XRECORD
  5
605E9
102
{ACAD_REACTORS
330
605DB
102
}
100
AcDbXrecord
1000
DSTYLE
1002
{
1070
   276
 70
     2
1070
   277
 70
     5
1070
   279
 70
     2
1070
   289
 70
     2
1002
}
  0
XRECORD
  5
605E6
102
{ACAD_REACTORS
330
605DB
102
}
100
AcDbXrecord
  1
{6E0CF4B8-225E-11D4-A150-00A0CC3303EC}
  0
XRECORD
  5
605DE
102
{ACAD_REACTORS
330
605DB
102
}
100
AcDbXrecord
  1

  0
XRECORD
  5
605E4
102
{ACAD_REACTORS
330
605DB
102
}
100
AcDbXrecord
 90
        0
  0
XRECORD
  5
605E0
102
{ACAD_REACTORS
330
605DB
102
}
100
AcDbXrecord
340
458FB
  0
XRECORD
  5
605E3
102
{ACAD_REACTORS
330
605DB
102
}
100
AcDbXrecord
 90
    14877
  0
XRECORD
  5
605E1
102
{ACAD_REACTORS
330
605DB
102
}
100
AcDbXrecord
340
458FC
  0
XRECORD
  5
605E2
102
{ACAD_REACTORS
330
605DB
102
}
100
AcDbXrecord
340
458F9
  0
XRECORD
  5
605E8
102
{ACAD_REACTORS
330
605DB
102
}
100
AcDbXrecord
 40
0.0
  0
XRECORD
  5
605EC
102
{ACAD_REACTORS
330
605DB
102
}
100
AcDbXrecord
340
0
  0
XRECORD
  5
605F2
102
{ACAD_REACTORS
330
605DB
102
}
100
AcDbXrecord
 10
0.0
 20
0.0
 30
0.0
  0
XRECORD
  5
605EE
102
{ACAD_REACTORS
330
605DB
102
}
100
AcDbXrecord
 10
0.0
 20
0.0
 30
0.0
  0
XRECORD
  5
605F1
102
{ACAD_REACTORS
330
605DB
102
}
100
AcDbXrecord
 10
0.0
 20
0.0
 30
0.0
  0
XRECORD
  5
605EF
102
{ACAD_REACTORS
330
605DB
102
}
100
AcDbXrecord
 10
0.0
 20
0.0
 30
0.0
  0
XRECORD
  5
605F0
102
{ACAD_REACTORS
330
605DB
102
}
100
AcDbXrecord
 10
0.0
 20
0.0
 30
0.0
  0
XRECORD
  5
605ED
102
{ACAD_REACTORS
330
605DB
102
}
100
AcDbXrecord
 10
0.0
 20
0.0
 30
0.0
  0
XRECORD
  5
605EA
102
{ACAD_REACTORS
330
605DB
102
}
100
AcDbXrecord
340
0
  0
XRECORD
  5
605EB
102
{ACAD_REACTORS
330
605DB
102
}
100
AcDbXrecord
 70
     0
  0
XRECORD
  5
605DF
102
{ACAD_REACTORS
330
605DB
102
}
100
AcDbXrecord
  1

  0
XRECORD
  5
605DC
102
{ACAD_REACTORS
330
605DB
102
}
100
AcDbXrecord
 90
        1
  0
XRECORD
  5
605DD
102
{ACAD_REACTORS
330
605DB
102
}
100
AcDbXrecord
 90
       70
  0
XRECORD
  5
605F5
102
{ACAD_REACTORS
330
605DB
102
}
100
AcDbXrecord
340
0
  0
XRECORD
  5
605FB
102
{ACAD_REACTORS
330
605DB
102
}
100
AcDbXrecord
 10
0.0
 20
0.0
 30
0.0
  0
XRECORD
  5
605F7
102
{ACAD_REACTORS
330
605DB
102
}
100
AcDbXrecord
 10
0.0
 20
0.0
 30
0.0
  0
XRECORD
  5
605FA
102
{ACAD_REACTORS
330
605DB
102
}
100
AcDbXrecord
 10
0.0
 20
0.0
 30
0.0
  0
XRECORD
  5
605F8
102
{ACAD_REACTORS
330
605DB
102
}
100
AcDbXrecord
 10
0.0
 20
0.0
 30
0.0
  0
XRECORD
  5
605F9
102
{ACAD_REACTORS
330
605DB
102
}
100
AcDbXrecord
 10
0.0
 20
0.0
 30
0.0
  0
XRECORD
  5
605F6
102
{ACAD_REACTORS
330
605DB
102
}
100
AcDbXrecord
 10
0.0
 20
0.0
 30
0.0
  0
XRECORD
  5
605F3
102
{ACAD_REACTORS
330
605DB
102
}
100
AcDbXrecord
340
0
  0
XRECORD
  5
605F4
102
{ACAD_REACTORS
330
605DB
102
}
100
AcDbXrecord
 70
     1
  0
XRECORD
  5
605E7
102
{ACAD_REACTORS
330
605DB
102
}
100
AcDbXrecord
  1
{573BC216-B582-4526-A71F-7893AA721283}
  0
DICTIONARYVAR
  5
458E2
102
{ACAD_REACTORS
330
458E1
102
}
100
DictionaryVariables
280
     0
  1
0
  0
XRECORD
  5
60601
102
{ACAD_REACTORS
330
60600
102
}
100
AcDbXrecord
102
EXTNAMES
  1
LAYOUT1
  2
Layout1
  1
MODEL
  2
Model
  0
ENDSEC
  0
EOF
