  0
SECTION
  2
HEADER
  9
$ACADVER
  1
AC1014
  9
$ACADMAINTVER
 70
     8
  9
$DWGCODEPAGE
  3
ANSI_1252
  9
$INSBASE
 10
0.0
 20
0.0
 30
0.0
  9
$EXTMIN
 10
-0.65778
 20
-3.128399
 30
0.0
  9
$EXTMAX
 10
1.829065
 20
1.763211
 30
3.332
  9
$LIMMIN
 10
0.0
 20
0.0
  9
$LIMMAX
 10
12.0
 20
9.0
  9
$ORTHOMODE
 70
     0
  9
$REGENMODE
 70
     1
  9
$FILLMODE
 70
     1
  9
$QTEXTMODE
 70
     0
  9
$MIRRTEXT
 70
     1
  9
$DRAGMODE
 70
     2
  9
$LTSCALE
 40
1.0
  9
$OSMODE
 70
    37
  9
$ATTMODE
 70
     1
  9
$TEXTSIZE
 40
0.12
  9
$TRACEWID
 40
0.05
  9
$TEXTSTYLE
  7
STANDARD
  9
$CLAYER
  8
0
  9
$CELTYPE
  6
BYLAYER
  9
$CECOLOR
 62
   256
  9
$CELTSCALE
 40
1.0
  9
$DELOBJ
 70
     1
  9
$DISPSILH
 70
     0
  9
$DIMSCALE
 40
1.0
  9
$DIMASZ
 40
0.18
  9
$DIMEXO
 40
0.0625
  9
$DIMDLI
 40
0.375
  9
$DIMRND
 40
0.0
  9
$DIMDLE
 40
0.0
  9
$DIMEXE
 40
0.18
  9
$DIMTP
 40
0.0
  9
$DIMTM
 40
0.0
  9
$DIMTXT
 40
0.14
  9
$DIMCEN
 40
0.09
  9
$DIMTSZ
 40
0.0
  9
$DIMTOL
 70
     0
  9
$DIMLIM
 70
     0
  9
$DIMTIH
 70
     0
  9
$DIMTOH
 70
     1
  9
$DIMSE1
 70
     0
  9
$DIMSE2
 70
     0
  9
$DIMTAD
 70
     0
  9
$DIMZIN
 70
     4
  9
$DIMBLK
  1

  9
$DIMASO
 70
     1
  9
$DIMSHO
 70
     1
  9
$DIMPOST
  1

  9
$DIMAPOST
  1

  9
$DIMALT
 70
     1
  9
$DIMALTD
 70
     2
  9
$DIMALTF
 40
25.4
  9
$DIMLFAC
 40
1.0
  9
$DIMTOFL
 70
     0
  9
$DIMTVP
 40
0.0
  9
$DIMTIX
 70
     0
  9
$DIMSOXD
 70
     0
  9
$DIMSAH
 70
     0
  9
$DIMBLK1
  1

  9
$DIMBLK2
  1

  9
$DIMSTYLE
  2
ABECAD_3D
  9
$DIMCLRD
 70
     0
  9
$DIMCLRE
 70
     0
  9
$DIMCLRT
 70
     0
  9
$DIMTFAC
 40
1.5
  9
$DIMGAP
 40
0.09
  9
$DIMJUST
 70
     0
  9
$DIMSD1
 70
     0
  9
$DIMSD2
 70
     0
  9
$DIMTOLJ
 70
     1
  9
$DIMTZIN
 70
     4
  9
$DIMALTZ
 70
     4
  9
$DIMALTTZ
 70
     4
  9
$DIMFIT
 70
     5
  9
$DIMUPT
 70
     1
  9
$DIMUNIT
 70
     7
  9
$DIMDEC
 70
     6
  9
$DIMTDEC
 70
     6
  9
$DIMALTU
 70
     2
  9
$DIMALTTD
 70
     2
  9
$DIMTXSTY
  7
STANDARD
  9
$DIMAUNIT
 70
     0
  9
$LUNITS
 70
     2
  9
$LUPREC
 70
     4
  9
$SKETCHINC
 40
0.1
  9
$FILLETRAD
 40
0.0
  9
$AUNITS
 70
     0
  9
$AUPREC
 70
     0
  9
$MENU
  1
ACAD
  9
$ELEVATION
 40
0.0
  9
$PELEVATION
 40
0.0
  9
$THICKNESS
 40
0.0
  9
$LIMCHECK
 70
     0
  9
$BLIPMODE
 70
     0
  9
$CHAMFERA
 40
0.0
  9
$CHAMFERB
 40
0.0
  9
$CHAMFERC
 40
0.0
  9
$CHAMFERD
 40
0.0
  9
$SKPOLY
 70
     0
  9
$TDCREATE
 40
2451726.438389120
  9
$TDUPDATE
 40
2452010.489892129
  9
$TDINDWG
 40
0.7105569444
  9
$TDUSRTIMER
 40
0.7105569444
  9
$USRTIMER
 70
     1
  9
$ANGBASE
 50
0.0
  9
$ANGDIR
 70
     0
  9
$PDMODE
 70
     3
  9
$PDSIZE
 40
0.09
  9
$PLINEWID
 40
0.0
  9
$COORDS
 70
     1
  9
$SPLFRAME
 70
     1
  9
$SPLINETYPE
 70
     6
  9
$SPLINESEGS
 70
     8
  9
$ATTDIA
 70
     0
  9
$ATTREQ
 70
     1
  9
$HANDLING
 70
     1
  9
$HANDSEED
  5
64450
  9
$SURFTAB1
 70
     6
  9
$SURFTAB2
 70
     6
  9
$SURFTYPE
 70
     6
  9
$SURFU
 70
     6
  9
$SURFV
 70
     6
  9
$UCSNAME
  2

  9
$UCSORG
 10
0.0
 20
0.0
 30
0.0
  9
$UCSXDIR
 10
1.0
 20
0.0
 30
0.0
  9
$UCSYDIR
 10
0.0
 20
1.0
 30
0.0
  9
$PUCSNAME
  2

  9
$PUCSORG
 10
0.0
 20
0.0
 30
0.0
  9
$PUCSXDIR
 10
1.0
 20
0.0
 30
0.0
  9
$PUCSYDIR
 10
0.0
 20
1.0
 30
0.0
  9
$USERI1
 70
     0
  9
$USERI2
 70
     0
  9
$USERI3
 70
     0
  9
$USERI4
 70
     0
  9
$USERI5
 70
     0
  9
$USERR1
 40
0.0
  9
$USERR2
 40
0.0
  9
$USERR3
 40
0.0
  9
$USERR4
 40
0.0
  9
$USERR5
 40
0.0
  9
$WORLDVIEW
 70
     1
  9
$SHADEDGE
 70
     3
  9
$SHADEDIF
 70
    70
  9
$TILEMODE
 70
     1
  9
$MAXACTVP
 70
    16
  9
$PINSBASE
 10
0.0
 20
0.0
 30
0.0
  9
$PLIMCHECK
 70
     0
  9
$PEXTMIN
 10
1.05
 20
0.8
 30
0.0
  9
$PEXTMAX
 10
9.45
 20
7.2
 30
0.0
  9
$PLIMMIN
 10
-0.25
 20
-0.25
  9
$PLIMMAX
 10
10.75
 20
8.25
  9
$UNITMODE
 70
     0
  9
$VISRETAIN
 70
     0
  9
$PLINEGEN
 70
     0
  9
$PSLTSCALE
 70
     1
  9
$TREEDEPTH
 70
  3020
  9
$PICKSTYLE
 70
     1
  9
$CMLSTYLE
  2
STANDARD
  9
$CMLJUST
 70
     0
  9
$CMLSCALE
 40
1.0
  9
$PROXYGRAPHICS
 70
     1
  9
$MEASUREMENT
 70
     0
  0
ENDSEC
  0
SECTION
  2
CLASSES
  0
CLASS
  1
DICTIONARYVAR
  2
AcDbDictionaryVar
  3
"AutoCAD"
 90
        0
280
     0
281
     0
  0
CLASS
  1
ACDBDICTIONARYWDFLT
  2
AcDbDictionaryWithDefault
  3
AutoCAD 2000
 90
        0
280
     0
281
     0
  0
CLASS
  1
ACDBPLACEHOLDER
  2
AcDbPlaceHolder
  3
AutoCAD 2000
 90
        0
280
     0
281
     0
  0
CLASS
  1
LAYOUT
  2
AcDbLayout
  3
AutoCAD 2000
 90
        0
280
     0
281
     0
  0
CLASS
  1
LONG_TRANSACTION
  2
AcDbLongTransaction
  3
AutoCAD 2000
 90
        0
280
     0
281
     0
  0
CLASS
  1
LWPOLYLINE
  2
AcDbPolyline
  3
"AutoCAD"
 90
        0
280
     0
281
     1
  0
CLASS
  1
HATCH
  2
AcDbHatch
  3
"ACAD_SEDONA"
 90
        0
280
     0
281
     1
  0
CLASS
  1
XRECORD
  2
AcDbXrecord
  3
"<Built In>"
 90
        0
280
     0
281
     0
  0
CLASS
  1
LONG_TRANSACTION
  2
AcDbLongTransaction
  3
AutoCAD 2000
 90
        0
280
     0
281
     0
  0
CLASS
  1
LWPOLYLINE
  2
AcDbPolyline
  3
"AutoCAD"
 90
        0
280
     0
281
     1
  0
CLASS
  1
HATCH
  2
AcDbHatch
  3
"ACAD_SEDONA"
 90
        0
280
     0
281
     1
  0
CLASS
  1
XRECORD
  2
AcDbXrecord
  3
"<Built In>"
 90
        0
280
     0
281
     0
  0
CLASS
  1
LONG_TRANSACTION
  2
AcDbLongTransaction
  3
AutoCAD 2000
 90
        0
280
     0
281
     0
  0
CLASS
  1
LWPOLYLINE
  2
AcDbPolyline
  3
"AutoCAD"
 90
        0
280
     0
281
     1
  0
CLASS
  1
HATCH
  2
AcDbHatch
  3
"ACAD_SEDONA"
 90
        0
280
     0
281
     1
  0
CLASS
  1
XRECORD
  2
AcDbXrecord
  3
"<Built In>"
 90
        0
280
     0
281
     0
  0
CLASS
  1
LONG_TRANSACTION
  2
AcDbLongTransaction
  3
AutoCAD 2000
 90
        0
280
     0
281
     0
  0
CLASS
  1
LWPOLYLINE
  2
AcDbPolyline
  3
"AutoCAD"
 90
        0
280
     0
281
     1
  0
CLASS
  1
HATCH
  2
AcDbHatch
  3
"ACAD_SEDONA"
 90
        0
280
     0
281
     1
  0
CLASS
  1
XRECORD
  2
AcDbXrecord
  3
"<Built In>"
 90
        0
280
     0
281
     0
  0
CLASS
  1
LONG_TRANSACTION
  2
AcDbLongTransaction
  3
AutoCAD 2000
 90
        0
280
     0
281
     0
  0
CLASS
  1
LWPOLYLINE
  2
AcDbPolyline
  3
"AutoCAD"
 90
        0
280
     0
281
     1
  0
CLASS
  1
HATCH
  2
AcDbHatch
  3
"ACAD_SEDONA"
 90
        0
280
     0
281
     1
  0
CLASS
  1
XRECORD
  2
AcDbXrecord
  3
"<Built In>"
 90
        0
280
     0
281
     0
  0
CLASS
  1
LONG_TRANSACTION
  2
AcDbLongTransaction
  3
AutoCAD 2000
 90
        0
280
     0
281
     0
  0
CLASS
  1
LWPOLYLINE
  2
AcDbPolyline
  3
"AutoCAD"
 90
        0
280
     0
281
     1
  0
CLASS
  1
HATCH
  2
AcDbHatch
  3
"ACAD_SEDONA"
 90
        0
280
     0
281
     1
  0
CLASS
  1
XRECORD
  2
AcDbXrecord
  3
"<Built In>"
 90
        0
280
     0
281
     0
  0
CLASS
  1
LONG_TRANSACTION
  2
AcDbLongTransaction
  3
AutoCAD 2000
 90
        0
280
     0
281
     0
  0
CLASS
  1
LWPOLYLINE
  2
AcDbPolyline
  3
"AutoCAD"
 90
        0
280
     0
281
     1
  0
CLASS
  1
HATCH
  2
AcDbHatch
  3
"ACAD_SEDONA"
 90
        0
280
     0
281
     1
  0
CLASS
  1
XRECORD
  2
AcDbXrecord
  3
"<Built In>"
 90
        0
280
     0
281
     0
  0
CLASS
  1
LONG_TRANSACTION
  2
AcDbLongTransaction
  3
AutoCAD 2000
 90
        0
280
     0
281
     0
  0
CLASS
  1
LWPOLYLINE
  2
AcDbPolyline
  3
"AutoCAD"
 90
        0
280
     0
281
     1
  0
CLASS
  1
HATCH
  2
AcDbHatch
  3
"ACAD_SEDONA"
 90
        0
280
     0
281
     1
  0
CLASS
  1
XRECORD
  2
AcDbXrecord
  3
"<Built In>"
 90
        0
280
     0
281
     0
  0
CLASS
  1
LONG_TRANSACTION
  2
AcDbLongTransaction
  3
AutoCAD 2000
 90
        0
280
     0
281
     0
  0
CLASS
  1
LWPOLYLINE
  2
AcDbPolyline
  3
"AutoCAD"
 90
        0
280
     0
281
     1
  0
CLASS
  1
HATCH
  2
AcDbHatch
  3
"ACAD_SEDONA"
 90
        0
280
     0
281
     1
  0
CLASS
  1
XRECORD
  2
AcDbXrecord
  3
"<Built In>"
 90
        0
280
     0
281
     0
  0
CLASS
  1
LONG_TRANSACTION
  2
AcDbLongTransaction
  3
AutoCAD 2000
 90
        0
280
     0
281
     0
  0
CLASS
  1
LWPOLYLINE
  2
AcDbPolyline
  3
"AutoCAD"
 90
        0
280
     0
281
     1
  0
CLASS
  1
HATCH
  2
AcDbHatch
  3
"ACAD_SEDONA"
 90
        0
280
     0
281
     1
  0
CLASS
  1
XRECORD
  2
AcDbXrecord
  3
"<Built In>"
 90
        0
280
     0
281
     0
  0
CLASS
  1
LONG_TRANSACTION
  2
AcDbLongTransaction
  3
AutoCAD 2000
 90
        0
280
     0
281
     0
  0
CLASS
  1
LWPOLYLINE
  2
AcDbPolyline
  3
"AutoCAD"
 90
        0
280
     0
281
     1
  0
CLASS
  1
HATCH
  2
AcDbHatch
  3
"ACAD_SEDONA"
 90
        0
280
     0
281
     1
  0
CLASS
  1
XRECORD
  2
AcDbXrecord
  3
"<Built In>"
 90
        0
280
     0
281
     0
  0
CLASS
  1
LONG_TRANSACTION
  2
AcDbLongTransaction
  3
AutoCAD 2000
 90
        0
280
     0
281
     0
  0
CLASS
  1
LWPOLYLINE
  2
AcDbPolyline
  3
"AutoCAD"
 90
        0
280
     0
281
     1
  0
CLASS
  1
HATCH
  2
AcDbHatch
  3
"ACAD_SEDONA"
 90
        0
280
     0
281
     1
  0
CLASS
  1
XRECORD
  2
AcDbXrecord
  3
"<Built In>"
 90
        0
280
     0
281
     0
  0
CLASS
  1
LONG_TRANSACTION
  2
AcDbLongTransaction
  3
AutoCAD 2000
 90
        0
280
     0
281
     0
  0
CLASS
  1
LWPOLYLINE
  2
AcDbPolyline
  3
"AutoCAD"
 90
        0
280
     0
281
     1
  0
CLASS
  1
HATCH
  2
AcDbHatch
  3
"ACAD_SEDONA"
 90
        0
280
     0
281
     1
  0
CLASS
  1
XRECORD
  2
AcDbXrecord
  3
"<Built In>"
 90
        0
280
     0
281
     0
  0
CLASS
  1
LONG_TRANSACTION
  2
AcDbLongTransaction
  3
AutoCAD 2000
 90
        0
280
     0
281
     0
  0
CLASS
  1
LWPOLYLINE
  2
AcDbPolyline
  3
"AutoCAD"
 90
        0
280
     0
281
     1
  0
CLASS
  1
HATCH
  2
AcDbHatch
  3
"ACAD_SEDONA"
 90
        0
280
     0
281
     1
  0
CLASS
  1
XRECORD
  2
AcDbXrecord
  3
"<Built In>"
 90
        0
280
     0
281
     0
  0
CLASS
  1
LONG_TRANSACTION
  2
AcDbLongTransaction
  3
AutoCAD 2000
 90
        0
280
     0
281
     0
  0
CLASS
  1
LWPOLYLINE
  2
AcDbPolyline
  3
"AutoCAD"
 90
        0
280
     0
281
     1
  0
CLASS
  1
HATCH
  2
AcDbHatch
  3
"ACAD_SEDONA"
 90
        0
280
     0
281
     1
  0
CLASS
  1
XRECORD
  2
AcDbXrecord
  3
"<Built In>"
 90
        0
280
     0
281
     0
  0
CLASS
  1
LONG_TRANSACTION
  2
AcDbLongTransaction
  3
AutoCAD 2000
 90
        0
280
     0
281
     0
  0
CLASS
  1
LWPOLYLINE
  2
AcDbPolyline
  3
"AutoCAD"
 90
        0
280
     0
281
     1
  0
CLASS
  1
HATCH
  2
AcDbHatch
  3
"ACAD_SEDONA"
 90
        0
280
     0
281
     1
  0
CLASS
  1
XRECORD
  2
AcDbXrecord
  3
"<Built In>"
 90
        0
280
     0
281
     0
  0
CLASS
  1
LONG_TRANSACTION
  2
AcDbLongTransaction
  3
AutoCAD 2000
 90
        0
280
     0
281
     0
  0
CLASS
  1
LWPOLYLINE
  2
AcDbPolyline
  3
"AutoCAD"
 90
        0
280
     0
281
     1
  0
CLASS
  1
HATCH
  2
AcDbHatch
  3
"ACAD_SEDONA"
 90
        0
280
     0
281
     1
  0
CLASS
  1
XRECORD
  2
AcDbXrecord
  3
"<Built In>"
 90
        0
280
     0
281
     0
  0
CLASS
  1
LONG_TRANSACTION
  2
AcDbLongTransaction
  3
AutoCAD 2000
 90
        0
280
     0
281
     0
  0
CLASS
  1
LWPOLYLINE
  2
AcDbPolyline
  3
"AutoCAD"
 90
        0
280
     0
281
     1
  0
CLASS
  1
HATCH
  2
AcDbHatch
  3
"ACAD_SEDONA"
 90
        0
280
     0
281
     1
  0
CLASS
  1
XRECORD
  2
AcDbXrecord
  3
"<Built In>"
 90
        0
280
     0
281
     0
  0
CLASS
  1
LONG_TRANSACTION
  2
AcDbLongTransaction
  3
AutoCAD 2000
 90
        0
280
     0
281
     0
  0
CLASS
  1
LWPOLYLINE
  2
AcDbPolyline
  3
"AutoCAD"
 90
        0
280
     0
281
     1
  0
CLASS
  1
HATCH
  2
AcDbHatch
  3
"ACAD_SEDONA"
 90
        0
280
     0
281
     1
  0
CLASS
  1
XRECORD
  2
AcDbXrecord
  3
"<Built In>"
 90
        0
280
     0
281
     0
  0
CLASS
  1
LONG_TRANSACTION
  2
AcDbLongTransaction
  3
AutoCAD 2000
 90
        0
280
     0
281
     0
  0
CLASS
  1
LWPOLYLINE
  2
AcDbPolyline
  3
"AutoCAD"
 90
        0
280
     0
281
     1
  0
CLASS
  1
HATCH
  2
AcDbHatch
  3
"ACAD_SEDONA"
 90
        0
280
     0
281
     1
  0
CLASS
  1
XRECORD
  2
AcDbXrecord
  3
"<Built In>"
 90
        0
280
     0
281
     0
  0
CLASS
  1
LONG_TRANSACTION
  2
AcDbLongTransaction
  3
AutoCAD 2000
 90
        0
280
     0
281
     0
  0
CLASS
  1
LWPOLYLINE
  2
AcDbPolyline
  3
"AutoCAD"
 90
        0
280
     0
281
     1
  0
CLASS
  1
HATCH
  2
AcDbHatch
  3
"ACAD_SEDONA"
 90
        0
280
     0
281
     1
  0
CLASS
  1
XRECORD
  2
AcDbXrecord
  3
"<Built In>"
 90
        0
280
     0
281
     0
  0
CLASS
  1
LONG_TRANSACTION
  2
AcDbLongTransaction
  3
AutoCAD 2000
 90
        0
280
     0
281
     0
  0
CLASS
  1
LWPOLYLINE
  2
AcDbPolyline
  3
"AutoCAD"
 90
        0
280
     0
281
     1
  0
CLASS
  1
HATCH
  2
AcDbHatch
  3
"ACAD_SEDONA"
 90
        0
280
     0
281
     1
  0
CLASS
  1
XRECORD
  2
AcDbXrecord
  3
"<Built In>"
 90
        0
280
     0
281
     0
  0
ENDSEC
  0
SECTION
  2
TABLES
  0
TABLE
  2
VPORT
  5
458C7
100
AcDbSymbolTable
 70
     1
  0
VPORT
  5
6441B
102
{ACAD_XDICTIONARY
360
6441E
102
}
100
AcDbSymbolTableRecord
100
AcDbViewportTableRecord
  2
*ACTIVE
 70
     0
 10
0.0
 20
0.0
 11
1.0
 21
1.0
 12
0.022227
 22
0.19746
 13
0.0
 23
0.0
 14
0.25
 24
0.25
 15
0.25
 25
0.25
 16
0.0
 26
0.0
 36
1.0
 17
0.563444
 27
-0.880137
 37
1.686493
 40
4.974407
 41
1.960674
 42
50.0
 43
0.0
 44
0.0
 50
0.0
 51
0.0
 71
     0
 72
 20000
 73
     1
 74
     1
 75
     0
 76
     0
 77
     0
 78
     0
  0
ENDTAB
  0
TABLE
  2
LTYPE
  5
458C4
100
AcDbSymbolTable
 70
     1
  0
LTYPE
  5
458D0
100
AcDbSymbolTableRecord
100
AcDbLinetypeTableRecord
  2
BYBLOCK
 70
     0
  3

 72
    65
 73
     0
 40
0.0
  0
LTYPE
  5
458D1
100
AcDbSymbolTableRecord
100
AcDbLinetypeTableRecord
  2
BYLAYER
 70
     0
  3

 72
    65
 73
     0
 40
0.0
  0
LTYPE
  5
458D2
100
AcDbSymbolTableRecord
100
AcDbLinetypeTableRecord
  2
CONTINUOUS
 70
     0
  3
Solid line
 72
    65
 73
     0
 40
0.0
  0
ENDTAB
  0
TABLE
  2
LAYER
  5
458C1
100
AcDbSymbolTable
 70
     7
  0
LAYER
  5
458CD
100
AcDbSymbolTableRecord
100
AcDbLayerTableRecord
  2
0
 70
     0
 62
     7
  6
CONTINUOUS
  0
LAYER
  5
458EA
100
AcDbSymbolTableRecord
100
AcDbLayerTableRecord
  2
DIMS-MTG-HOLES
 70
     0
 62
     1
  6
CONTINUOUS
  0
LAYER
  5
458EB
100
AcDbSymbolTableRecord
100
AcDbLayerTableRecord
  2
ATTRIBUTES
 70
     0
 62
     7
  6
CONTINUOUS
  0
LAYER
  5
4593B
102
{ACAD_XDICTIONARY
360
64447
102
}
100
AcDbSymbolTableRecord
100
AcDbLayerTableRecord
  2
AREA1
 70
     0
 62
    -7
  6
CONTINUOUS
  0
LAYER
  5
45940
102
{ACAD_XDICTIONARY
360
6441C
102
}
100
AcDbSymbolTableRecord
100
AcDbLayerTableRecord
  2
DEFPOINTS
 70
     0
 62
    -7
  6
CONTINUOUS
  0
LAYER
  5
45954
100
AcDbSymbolTableRecord
100
AcDbLayerTableRecord
  2
SCALE
 70
     0
 62
    -7
  6
CONTINUOUS
  0
LAYER
  5
4D59A
100
AcDbSymbolTableRecord
100
AcDbLayerTableRecord
  2
SNAP_POINTS
 70
     0
 62
    -1
  6
CONTINUOUS
  0
ENDTAB
  0
TABLE
  2
STYLE
  5
458C2
100
AcDbSymbolTable
 70
     1
  0
STYLE
  5
458CE
100
AcDbSymbolTableRecord
100
AcDbTextStyleTableRecord
  2
STANDARD
 70
     0
 40
0.0
 41
1.0
 50
0.0
 71
     0
 42
0.12
  3
txt
  4

  0
ENDTAB
  0
TABLE
  2
VIEW
  5
458C5
100
AcDbSymbolTable
 70
     0
  0
ENDTAB
  0
TABLE
  2
UCS
  5
458C6
100
AcDbSymbolTable
 70
     0
  0
ENDTAB
  0
TABLE
  2
APPID
  5
458C8
100
AcDbSymbolTable
 70
     2
  0
APPID
  5
458CF
100
AcDbSymbolTableRecord
100
AcDbRegAppTableRecord
  2
ACAD
 70
     0
  0
APPID
  5
5FD5B
100
AcDbSymbolTableRecord
100
AcDbRegAppTableRecord
  2
AVE_RENDER
 70
     0
  0
ENDTAB
  0
TABLE
  2
DIMSTYLE
  5
458C9
100
AcDbSymbolTable
 70
     1
  0
DIMSTYLE
105
458F6
102
{ACAD_XDICTIONARY
360
64443
102
}
102
{ACAD_REACTORS
330
64373
330
64381
102
}
100
AcDbSymbolTableRecord
100
AcDbDimStyleTableRecord
  2
ABECAD_3D
 70
     0
  3

  4

  5

  6

  7

 40
1.0
 41
0.18
 42
0.0625
 43
0.375
 44
0.18
 45
0.0
 46
0.0
 47
0.0
 48
0.0
140
0.14
141
0.09
142
0.0
143
25.4
144
1.0
145
0.0
146
1.5
147
0.09
 71
     0
 72
     0
 73
     0
 74
     1
 75
     0
 76
     0
 77
     0
 78
     4
170
     1
171
     2
172
     0
173
     0
174
     0
175
     0
176
     0
177
     0
178
     0
270
     7
271
     6
272
     6
273
     2
274
     2
340
458CE
275
     0
280
     0
281
     0
282
     0
283
     1
284
     4
285
     4
286
     4
287
     5
288
     1
  0
ENDTAB
  0
TABLE
  2
BLOCK_RECORD
  5
458C0
100
AcDbSymbolTable
 70
     3
  0
BLOCK_RECORD
  5
458D6
102
{ACAD_XDICTIONARY
360
4592C
102
}
100
AcDbSymbolTableRecord
100
AcDbBlockTableRecord
  2
*MODEL_SPACE
  0
BLOCK_RECORD
  5
458D3
102
{ACAD_XDICTIONARY
360
4592A
102
}
100
AcDbSymbolTableRecord
100
AcDbBlockTableRecord
  2
*PAPER_SPACE
  0
BLOCK_RECORD
  5
63BAF
100
AcDbSymbolTableRecord
100
AcDbBlockTableRecord
  2
AVE_RENDER
  0
BLOCK_RECORD
  5
64374
100
AcDbSymbolTableRecord
100
AcDbBlockTableRecord
  2
*D1
  0
BLOCK_RECORD
  5
64382
100
AcDbSymbolTableRecord
100
AcDbBlockTableRecord
  2
*D2
  0
ENDTAB
  0
ENDSEC
  0
SECTION
  2
BLOCKS
  0
BLOCK
  5
458DF
100
AcDbEntity
  8
0
100
AcDbBlockBegin
  2
*MODEL_SPACE
 70
     0
 10
0.0
 20
0.0
 30
0.0
  3
*MODEL_SPACE
  1

  0
ENDBLK
  5
458E0
100
AcDbEntity
  8
0
100
AcDbBlockEnd
  0
BLOCK
  5
458DD
100
AcDbEntity
 67
     1
  8
0
100
AcDbBlockBegin
  2
*PAPER_SPACE
 70
     0
 10
0.0
 20
0.0
 30
0.0
  3
*PAPER_SPACE
  1

  0
ENDBLK
  5
458DE
100
AcDbEntity
 67
     1
  8
0
100
AcDbBlockEnd
  0
BLOCK
  5
63BB0
100
AcDbEntity
  8
0
100
AcDbBlockBegin
  2
AVE_RENDER
 70
     0
 10
0.0
 20
0.0
 30
0.0
  3
AVE_RENDER
  1
AVE_RENDER
  0
ENDBLK
  5
63BB1
100
AcDbEntity
  8
0
100
AcDbBlockEnd
  0
BLOCK
  5
6437F
100
AcDbEntity
  8
0
100
AcDbBlockBegin
  2
*D1
 70
     1
 10
0.0
 20
0.0
 30
0.0
  3
*D1
  1

  0
LINE
  5
64375
100
AcDbEntity
  8
AREA1
 62
     0
100
AcDbLine
 10
0.27021
 20
0.9585
 30
0.0
 11
-0.65778
 21
0.9585
 31
0.0
1001
ACAD
1000
RTLwPs
1070
   158
  0
LINE
  5
64376
100
AcDbEntity
  8
AREA1
 62
     0
100
AcDbLine
 10
0.63721
 20
-2.2215
 30
0.0
 11
-0.65778
 21
-2.2215
 31
0.0
1001
ACAD
1000
RTLwPs
1070
   158
  0
LINE
  5
64377
100
AcDbEntity
  8
AREA1
 62
     0
100
AcDbLine
 10
-0.47778
 20
0.7785
 30
0.0
 11
-0.47778
 21
0.241713
 31
0.0
1001
ACAD
1000
RTLwPs
1070
   158
  0
LINE
  5
64378
100
AcDbEntity
  8
AREA1
 62
     0
100
AcDbLine
 10
-0.47778
 20
-2.0415
 30
0.0
 11
-0.47778
 21
-1.594954
 31
0.0
1001
ACAD
1000
RTLwPs
1070
   158
  0
MTEXT
  5
64379
100
AcDbEntity
  8
AREA1
 62
     0
100
AcDbMText
 10
-0.47778
 20
-0.67662
 30
0.0
 40
0.14
 41
0.0
 71
     5
 72
     1
  1
\A1;3 3/16 [80.77]
 11
0.0
 21
1.0
 31
0.0
1001
ACAD
1000
MTEXTBEGIN
1070
    73
1070
     1
1070
    44
1040
1.0
1070
    74
1070
     0
1000
MTEXTEND
1000
MTEXTBEGIN
1070
    73
1070
     1
1070
    44
1040
1.0
1070
    74
1070
     0
1000
MTEXTEND
1000
MTEXTBEGIN
1070
    73
1070
     1
1070
    44
1040
1.0
1070
    74
1070
     0
1000
MTEXTEND
  0
SOLID
  5
6437A
100
AcDbEntity
  8
AREA1
 62
     0
100
AcDbTrace
 10
-0.50778
 20
0.7785
 30
0.0
 11
-0.44778
 21
0.7785
 31
0.0
 12
-0.47778
 22
0.9585
 32
0.0
 13
-0.47778
 23
0.9585
 33
0.0
  0
SOLID
  5
6437B
100
AcDbEntity
  8
AREA1
 62
     0
100
AcDbTrace
 10
-0.50778
 20
-2.0415
 30
0.0
 11
-0.44778
 21
-2.0415
 31
0.0
 12
-0.47778
 22
-2.2215
 32
0.0
 13
-0.47778
 23
-2.2215
 33
0.0
  0
POINT
  5
6437C
100
AcDbEntity
  8
DEFPOINTS
 62
     0
100
AcDbPoint
 10
0.33271
 20
0.9585
 30
1.386
  0
POINT
  5
6437D
100
AcDbEntity
  8
DEFPOINTS
 62
     0
100
AcDbPoint
 10
0.69971
 20
-2.2215
 30
1.386
  0
POINT
  5
6437E
100
AcDbEntity
  8
DEFPOINTS
 62
     0
100
AcDbPoint
 10
-0.47778
 20
-2.2215
 30
0.0
  0
ENDBLK
  5
64380
100
AcDbEntity
  8
0
100
AcDbBlockEnd
  0
BLOCK
  5
6438C
100
AcDbEntity
  8
0
100
AcDbBlockBegin
  2
*D2
 70
     1
 10
0.0
 20
0.0
 30
0.0
  3
*D2
  1

  0
LINE
  5
6438E
100
AcDbEntity
  8
AREA1
 62
     0
100
AcDbLine
 10
0.00521
 20
0.781
 30
0.0
 11
0.00521
 21
1.483369
 31
0.0
1001
ACAD
1000
RTLwPs
1070
   158
  0
LINE
  5
6438F
100
AcDbEntity
  8
AREA1
 62
     0
100
AcDbLine
 10
1.76521
 20
0.637
 30
0.0
 11
1.76521
 21
1.483369
 31
0.0
1001
ACAD
1000
RTLwPs
1070
   158
  0
LINE
  5
64390
100
AcDbEntity
  8
AREA1
 62
     0
100
AcDbLine
 10
0.18521
 20
1.303369
 30
0.0
 11
1.58521
 21
1.303369
 31
0.0
1001
ACAD
1000
RTLwPs
1070
   158
  0
MTEXT
  5
64391
100
AcDbEntity
  8
AREA1
 62
     0
100
AcDbMText
 10
0.877576
 20
1.693211
 30
0.0
 40
0.14
 41
0.0
 71
     5
 72
     1
  1
\A1;1 49/64 [44.70]
1001
ACAD
1000
MTEXTBEGIN
1070
    73
1070
     1
1070
    44
1040
1.0
1070
    74
1070
     0
1000
MTEXTEND
1000
MTEXTBEGIN
1070
    73
1070
     1
1070
    44
1040
1.0
1070
    74
1070
     0
1000
MTEXTEND
1000
MTEXTBEGIN
1070
    73
1070
     1
1070
    44
1040
1.0
1070
    74
1070
     0
1000
MTEXTEND
  0
SOLID
  5
64392
100
AcDbEntity
  8
AREA1
 62
     0
100
AcDbTrace
 10
0.18521
 20
1.333369
 30
0.0
 11
0.18521
 21
1.273369
 31
0.0
 12
0.00521
 22
1.303369
 32
0.0
 13
0.00521
 23
1.303369
 33
0.0
  0
SOLID
  5
64393
100
AcDbEntity
  8
AREA1
 62
     0
100
AcDbTrace
 10
1.58521
 20
1.333369
 30
0.0
 11
1.58521
 21
1.273369
 31
0.0
 12
1.76521
 22
1.303369
 32
0.0
 13
1.76521
 23
1.303369
 33
0.0
  0
POINT
  5
64394
100
AcDbEntity
  8
DEFPOINTS
 62
     0
100
AcDbPoint
 10
0.00521
 20
0.7185
 30
0.0
  0
POINT
  5
64395
100
AcDbEntity
  8
DEFPOINTS
 62
     0
100
AcDbPoint
 10
1.76521
 20
0.5745
 30
0.0
  0
POINT
  5
64396
100
AcDbEntity
  8
DEFPOINTS
 62
     0
100
AcDbPoint
 10
1.76521
 20
1.303369
 30
0.0
  0
ENDBLK
  5
6438D
100
AcDbEntity
  8
0
100
AcDbBlockEnd
  0
ENDSEC
  0
SECTION
  2
ENTITIES
  0
ATTDEF
  5
63F9A
100
AcDbEntity
  8
ATTRIBUTES
100
AcDbText
 10
0.100105
 20
-0.134243
 30
0.0
 40
0.08052
  1
ALLEN-BRADLEY
100
AcDbAttributeDefinition
  3
MANUFACTURER NAME?
  2
AC_VND_LABEL
 70
     1
  0
ATTDEF
  5
63F9B
100
AcDbEntity
  8
ATTRIBUTES
100
AcDbText
 10
0.100105
 20
-0.301994
 30
0.0
 40
0.08052
  1
100-C09, C12, C16, C23*01
100
AcDbAttributeDefinition
  3
CATALOG NUMBER?
  2
AC_PART_NO
 70
     1
  0
ATTDEF
  5
63F9C
100
AcDbEntity
  8
ATTRIBUTES
100
AcDbText
 10
0.100105
 20
-0.469745
 30
0.0
 40
0.08052
  1
MCS IEC AC CONTACTOR; 9A-23A; 1 N.C.
100
AcDbAttributeDefinition
  3
PART DESCRIPTION?
  2
AC_DESCRIPTION
 70
     1
  0
ATTDEF
  5
63F9D
100
AcDbEntity
  8
ATTRIBUTES
100
AcDbText
 10
0.100105
 20
-0.637495
 30
0.0
 40
0.08052
  1

100
AcDbAttributeDefinition
  3
DEVICE ID?
  2
DEVICE_ID
 70
     1
  0
ATTDEF
  5
63F9E
100
AcDbEntity
  8
ATTRIBUTES
100
AcDbText
 10
0.100105
 20
-0.805246
 30
0.0
 40
0.08052
  1

100
AcDbAttributeDefinition
  3
CUSTOMER PART NUMBER?
  2
AC_CPART_NO
 70
     1
  0
ATTDEF
  5
63F9F
100
AcDbEntity
  8
ATTRIBUTES
100
AcDbText
 10
0.100105
 20
-0.972997
 30
0.0
 40
0.08052
  1

100
AcDbAttributeDefinition
  3
CUSTOMER NOTE?
  2
AC_NOTE
 70
     1
  0
ATTDEF
  5
63FA0
100
AcDbEntity
  8
ATTRIBUTES
100
AcDbText
 10
0.100105
 20
-1.140748
 30
0.0
 40
0.08052
  1

100
AcDbAttributeDefinition
  3
FASTENER DATA?
  2
FASTENER
 70
     1
  0
ATTDEF
  5
63FA1
100
AcDbEntity
  8
ATTRIBUTES
100
AcDbText
 10
0.100105
 20
-1.308498
 30
0.0
 40
0.08052
  1
INCH
100
AcDbAttributeDefinition
  3
UNIT OF SCALE?
  2
AC_SCALE_UNIT
 70
     1
  0
ATTDEF
  5
63FA2
100
AcDbEntity
  8
ATTRIBUTES
100
AcDbText
 10
0.100105
 20
-1.476249
 30
0.0
 40
0.08052
  1
0
100
AcDbAttributeDefinition
  3
VIEW CODE?
  2
AC_VIEW_CODE
 70
     1
  0
POLYLINE
  5
63FA3
100
AcDbEntity
  8
0
100
AcDbPolygonMesh
 66
     1
 10
0.0
 20
0.0
 30
0.0
 70
    16
 71
     6
 72
     3
  0
VERTEX
  5
63FA4
100
AcDbEntity
  8
0
100
AcDbVertex
100
AcDbPolygonMeshVertex
 10
1.76521
 20
0.2385
 30
0.316
 70
    64
  0
VERTEX
  5
63FA5
100
AcDbEntity
  8
0
100
AcDbVertex
100
AcDbPolygonMeshVertex
 10
1.76521
 20
0.2385
 30
0.0
 70
    64
  0
VERTEX
  5
63FA6
100
AcDbEntity
  8
0
100
AcDbVertex
100
AcDbPolygonMeshVertex
 10
1.76521
 20
0.2385
 30
0.0
 70
    64
  0
VERTEX
  5
63FA7
100
AcDbEntity
  8
0
100
AcDbVertex
100
AcDbPolygonMeshVertex
 10
1.37421
 20
0.2385
 30
0.316
 70
    64
  0
VERTEX
  5
63FA8
100
AcDbEntity
  8
0
100
AcDbVertex
100
AcDbPolygonMeshVertex
 10
1.37421
 20
0.2385
 30
0.0
 70
    64
  0
VERTEX
  5
63FA9
100
AcDbEntity
  8
0
100
AcDbVertex
100
AcDbPolygonMeshVertex
 10
1.37421
 20
0.2385
 30
0.0
 70
    64
  0
VERTEX
  5
63FAA
100
AcDbEntity
  8
0
100
AcDbVertex
100
AcDbPolygonMeshVertex
 10
1.37421
 20
0.5745
 30
0.316
 70
    64
  0
VERTEX
  5
63FAB
100
AcDbEntity
  8
0
100
AcDbVertex
100
AcDbPolygonMeshVertex
 10
1.37421
 20
0.5745
 30
0.0
 70
    64
  0
VERTEX
  5
63FAC
100
AcDbEntity
  8
0
100
AcDbVertex
100
AcDbPolygonMeshVertex
 10
1.37421
 20
0.2385
 30
0.0
 70
    64
  0
VERTEX
  5
63FAD
100
AcDbEntity
  8
0
100
AcDbVertex
100
AcDbPolygonMeshVertex
 10
1.76521
 20
0.5745
 30
0.316
 70
    64
  0
VERTEX
  5
63FAE
100
AcDbEntity
  8
0
100
AcDbVertex
100
AcDbPolygonMeshVertex
 10
1.76521
 20
0.5745
 30
0.0
 70
    64
  0
VERTEX
  5
63FAF
100
AcDbEntity
  8
0
100
AcDbVertex
100
AcDbPolygonMeshVertex
 10
1.76521
 20
0.2385
 30
0.0
 70
    64
  0
VERTEX
  5
63FB0
100
AcDbEntity
  8
0
100
AcDbVertex
100
AcDbPolygonMeshVertex
 10
1.76521
 20
0.5745
 30
0.316
 70
    64
  0
VERTEX
  5
63FB1
100
AcDbEntity
  8
0
100
AcDbVertex
100
AcDbPolygonMeshVertex
 10
1.76521
 20
0.5745
 30
0.316
 70
    64
  0
VERTEX
  5
63FB2
100
AcDbEntity
  8
0
100
AcDbVertex
100
AcDbPolygonMeshVertex
 10
1.76521
 20
0.2385
 30
0.316
 70
    64
  0
VERTEX
  5
63FB3
100
AcDbEntity
  8
0
100
AcDbVertex
100
AcDbPolygonMeshVertex
 10
1.37421
 20
0.5745
 30
0.316
 70
    64
  0
VERTEX
  5
63FB4
100
AcDbEntity
  8
0
100
AcDbVertex
100
AcDbPolygonMeshVertex
 10
1.37421
 20
0.5745
 30
0.316
 70
    64
  0
VERTEX
  5
63FB5
100
AcDbEntity
  8
0
100
AcDbVertex
100
AcDbPolygonMeshVertex
 10
1.37421
 20
0.2385
 30
0.316
 70
    64
  0
SEQEND
  5
63FB6
100
AcDbEntity
  8
0
  0
POLYLINE
  5
63FB7
100
AcDbEntity
  8
0
100
AcDbPolygonMesh
 66
     1
 10
0.0
 20
0.0
 30
0.0
 70
    16
 71
     6
 72
     3
  0
VERTEX
  5
63FB8
100
AcDbEntity
  8
0
100
AcDbVertex
100
AcDbPolygonMeshVertex
 10
0.39621
 20
-1.6855
 30
1.318
 70
    64
  0
VERTEX
  5
63FB9
100
AcDbEntity
  8
0
100
AcDbVertex
100
AcDbPolygonMeshVertex
 10
0.39621
 20
-1.6855
 30
0.187
 70
    64
  0
VERTEX
  5
63FBA
100
AcDbEntity
  8
0
100
AcDbVertex
100
AcDbPolygonMeshVertex
 10
0.39621
 20
-1.6855
 30
0.187
 70
    64
  0
VERTEX
  5
63FBB
100
AcDbEntity
  8
0
100
AcDbVertex
100
AcDbPolygonMeshVertex
 10
0.00521
 20
-1.6855
 30
1.318
 70
    64
  0
VERTEX
  5
63FBC
100
AcDbEntity
  8
0
100
AcDbVertex
100
AcDbPolygonMeshVertex
 10
0.00521
 20
-1.6855
 30
0.187
 70
    64
  0
VERTEX
  5
63FBD
100
AcDbEntity
  8
0
100
AcDbVertex
100
AcDbPolygonMeshVertex
 10
0.00521
 20
-1.6855
 30
0.187
 70
    64
  0
VERTEX
  5
63FBE
100
AcDbEntity
  8
0
100
AcDbVertex
100
AcDbPolygonMeshVertex
 10
0.00521
 20
0.5215
 30
1.318
 70
    64
  0
VERTEX
  5
63FBF
100
AcDbEntity
  8
0
100
AcDbVertex
100
AcDbPolygonMeshVertex
 10
0.00521
 20
0.5215
 30
0.187
 70
    64
  0
VERTEX
  5
63FC0
100
AcDbEntity
  8
0
100
AcDbVertex
100
AcDbPolygonMeshVertex
 10
0.00521
 20
-1.6855
 30
0.187
 70
    64
  0
VERTEX
  5
63FC1
100
AcDbEntity
  8
0
100
AcDbVertex
100
AcDbPolygonMeshVertex
 10
0.39621
 20
0.5215
 30
1.318
 70
    64
  0
VERTEX
  5
63FC2
100
AcDbEntity
  8
0
100
AcDbVertex
100
AcDbPolygonMeshVertex
 10
0.39621
 20
0.5215
 30
0.187
 70
    64
  0
VERTEX
  5
63FC3
100
AcDbEntity
  8
0
100
AcDbVertex
100
AcDbPolygonMeshVertex
 10
0.39621
 20
-1.6855
 30
0.187
 70
    64
  0
VERTEX
  5
63FC4
100
AcDbEntity
  8
0
100
AcDbVertex
100
AcDbPolygonMeshVertex
 10
0.39621
 20
0.5215
 30
1.318
 70
    64
  0
VERTEX
  5
63FC5
100
AcDbEntity
  8
0
100
AcDbVertex
100
AcDbPolygonMeshVertex
 10
0.39621
 20
0.5215
 30
1.318
 70
    64
  0
VERTEX
  5
63FC6
100
AcDbEntity
  8
0
100
AcDbVertex
100
AcDbPolygonMeshVertex
 10
0.39621
 20
-1.6855
 30
1.318
 70
    64
  0
VERTEX
  5
63FC7
100
AcDbEntity
  8
0
100
AcDbVertex
100
AcDbPolygonMeshVertex
 10
0.00521
 20
0.5215
 30
1.318
 70
    64
  0
VERTEX
  5
63FC8
100
AcDbEntity
  8
0
100
AcDbVertex
100
AcDbPolygonMeshVertex
 10
0.00521
 20
0.5215
 30
1.318
 70
    64
  0
VERTEX
  5
63FC9
100
AcDbEntity
  8
0
100
AcDbVertex
100
AcDbPolygonMeshVertex
 10
0.00521
 20
-1.6855
 30
1.318
 70
    64
  0
SEQEND
  5
63FCA
100
AcDbEntity
  8
0
  0
POLYLINE
  5
63FCB
100
AcDbEntity
  8
0
100
AcDbPolygonMesh
 66
     1
 10
0.0
 20
0.0
 30
0.0
 70
    16
 71
     6
 72
     3
  0
VERTEX
  5
63FCC
100
AcDbEntity
  8
0
100
AcDbVertex
100
AcDbPolygonMeshVertex
 10
1.76521
 20
-1.9685
 30
1.318
 70
    64
  0
VERTEX
  5
63FCD
100
AcDbEntity
  8
0
100
AcDbVertex
100
AcDbPolygonMeshVertex
 10
1.76521
 20
-1.9685
 30
0.187
 70
    64
  0
VERTEX
  5
63FCE
100
AcDbEntity
  8
0
100
AcDbVertex
100
AcDbPolygonMeshVertex
 10
1.76521
 20
-1.9685
 30
0.187
 70
    64
  0
VERTEX
  5
63FCF
100
AcDbEntity
  8
0
100
AcDbVertex
100
AcDbPolygonMeshVertex
 10
1.37421
 20
-1.9685
 30
1.318
 70
    64
  0
VERTEX
  5
63FD0
100
AcDbEntity
  8
0
100
AcDbVertex
100
AcDbPolygonMeshVertex
 10
1.37421
 20
-1.9685
 30
0.187
 70
    64
  0
VERTEX
  5
63FD1
100
AcDbEntity
  8
0
100
AcDbVertex
100
AcDbPolygonMeshVertex
 10
1.37421
 20
-1.9685
 30
0.187
 70
    64
  0
VERTEX
  5
63FD2
100
AcDbEntity
  8
0
100
AcDbVertex
100
AcDbPolygonMeshVertex
 10
1.37421
 20
0.2385
 30
1.318
 70
    64
  0
VERTEX
  5
63FD3
100
AcDbEntity
  8
0
100
AcDbVertex
100
AcDbPolygonMeshVertex
 10
1.37421
 20
0.2385
 30
0.187
 70
    64
  0
VERTEX
  5
63FD4
100
AcDbEntity
  8
0
100
AcDbVertex
100
AcDbPolygonMeshVertex
 10
1.37421
 20
-1.9685
 30
0.187
 70
    64
  0
VERTEX
  5
63FD5
100
AcDbEntity
  8
0
100
AcDbVertex
100
AcDbPolygonMeshVertex
 10
1.76521
 20
0.2385
 30
1.318
 70
    64
  0
VERTEX
  5
63FD6
100
AcDbEntity
  8
0
100
AcDbVertex
100
AcDbPolygonMeshVertex
 10
1.76521
 20
0.2385
 30
0.187
 70
    64
  0
VERTEX
  5
63FD7
100
AcDbEntity
  8
0
100
AcDbVertex
100
AcDbPolygonMeshVertex
 10
1.76521
 20
-1.9685
 30
0.187
 70
    64
  0
VERTEX
  5
63FD8
100
AcDbEntity
  8
0
100
AcDbVertex
100
AcDbPolygonMeshVertex
 10
1.76521
 20
0.2385
 30
1.318
 70
    64
  0
VERTEX
  5
63FD9
100
AcDbEntity
  8
0
100
AcDbVertex
100
AcDbPolygonMeshVertex
 10
1.76521
 20
0.2385
 30
1.318
 70
    64
  0
VERTEX
  5
63FDA
100
AcDbEntity
  8
0
100
AcDbVertex
100
AcDbPolygonMeshVertex
 10
1.76521
 20
-1.9685
 30
1.318
 70
    64
  0
VERTEX
  5
63FDB
100
AcDbEntity
  8
0
100
AcDbVertex
100
AcDbPolygonMeshVertex
 10
1.37421
 20
0.2385
 30
1.318
 70
    64
  0
VERTEX
  5
63FDC
100
AcDbEntity
  8
0
100
AcDbVertex
100
AcDbPolygonMeshVertex
 10
1.37421
 20
0.2385
 30
1.318
 70
    64
  0
VERTEX
  5
63FDD
100
AcDbEntity
  8
0
100
AcDbVertex
100
AcDbPolygonMeshVertex
 10
1.37421
 20
-1.9685
 30
1.318
 70
    64
  0
SEQEND
  5
63FDE
100
AcDbEntity
  8
0
  0
POLYLINE
  5
63FDF
100
AcDbEntity
  8
0
100
AcDbPolygonMesh
 66
     1
 10
0.0
 20
0.0
 30
0.0
 70
    16
 71
     6
 72
     3
  0
VERTEX
  5
63FE0
100
AcDbEntity
  8
0
100
AcDbVertex
100
AcDbPolygonMeshVertex
 10
1.37421
 20
-1.9685
 30
1.318
 70
    64
  0
VERTEX
  5
63FE1
100
AcDbEntity
  8
0
100
AcDbVertex
100
AcDbPolygonMeshVertex
 10
1.37421
 20
-1.9685
 30
0.187
 70
    64
  0
VERTEX
  5
63FE2
100
AcDbEntity
  8
0
100
AcDbVertex
100
AcDbPolygonMeshVertex
 10
1.37421
 20
-1.9685
 30
0.187
 70
    64
  0
VERTEX
  5
63FE3
100
AcDbEntity
  8
0
100
AcDbVertex
100
AcDbPolygonMeshVertex
 10
0.39621
 20
-1.9685
 30
1.318
 70
    64
  0
VERTEX
  5
63FE4
100
AcDbEntity
  8
0
100
AcDbVertex
100
AcDbPolygonMeshVertex
 10
0.39621
 20
-1.9685
 30
0.187
 70
    64
  0
VERTEX
  5
63FE5
100
AcDbEntity
  8
0
100
AcDbVertex
100
AcDbPolygonMeshVertex
 10
0.39621
 20
-1.9685
 30
0.187
 70
    64
  0
VERTEX
  5
63FE6
100
AcDbEntity
  8
0
100
AcDbVertex
100
AcDbPolygonMeshVertex
 10
0.39621
 20
0.5215
 30
1.318
 70
    64
  0
VERTEX
  5
63FE7
100
AcDbEntity
  8
0
100
AcDbVertex
100
AcDbPolygonMeshVertex
 10
0.39621
 20
0.5215
 30
0.187
 70
    64
  0
VERTEX
  5
63FE8
100
AcDbEntity
  8
0
100
AcDbVertex
100
AcDbPolygonMeshVertex
 10
0.39621
 20
-1.9685
 30
0.187
 70
    64
  0
VERTEX
  5
63FE9
100
AcDbEntity
  8
0
100
AcDbVertex
100
AcDbPolygonMeshVertex
 10
1.37421
 20
0.5215
 30
1.318
 70
    64
  0
VERTEX
  5
63FEA
100
AcDbEntity
  8
0
100
AcDbVertex
100
AcDbPolygonMeshVertex
 10
1.37421
 20
0.5215
 30
0.187
 70
    64
  0
VERTEX
  5
63FEB
100
AcDbEntity
  8
0
100
AcDbVertex
100
AcDbPolygonMeshVertex
 10
1.37421
 20
-1.9685
 30
0.187
 70
    64
  0
VERTEX
  5
63FEC
100
AcDbEntity
  8
0
100
AcDbVertex
100
AcDbPolygonMeshVertex
 10
1.37421
 20
0.5215
 30
1.318
 70
    64
  0
VERTEX
  5
63FED
100
AcDbEntity
  8
0
100
AcDbVertex
100
AcDbPolygonMeshVertex
 10
1.37421
 20
0.5215
 30
1.318
 70
    64
  0
VERTEX
  5
63FEE
100
AcDbEntity
  8
0
100
AcDbVertex
100
AcDbPolygonMeshVertex
 10
1.37421
 20
-1.9685
 30
1.318
 70
    64
  0
VERTEX
  5
63FEF
100
AcDbEntity
  8
0
100
AcDbVertex
100
AcDbPolygonMeshVertex
 10
0.39621
 20
0.5215
 30
1.318
 70
    64
  0
VERTEX
  5
63FF0
100
AcDbEntity
  8
0
100
AcDbVertex
100
AcDbPolygonMeshVertex
 10
0.39621
 20
0.5215
 30
1.318
 70
    64
  0
VERTEX
  5
63FF1
100
AcDbEntity
  8
0
100
AcDbVertex
100
AcDbPolygonMeshVertex
 10
0.39621
 20
-1.9685
 30
1.318
 70
    64
  0
SEQEND
  5
63FF2
100
AcDbEntity
  8
0
  0
POLYLINE
  5
63FF3
100
AcDbEntity
  8
0
100
AcDbPolygonMesh
 66
     1
 10
0.0
 20
0.0
 30
0.0
 70
    16
 71
     6
 72
     3
  0
VERTEX
  5
63FF4
100
AcDbEntity
  8
0
100
AcDbVertex
100
AcDbPolygonMeshVertex
 10
1.07071
 20
-2.2215
 30
2.06
 70
    64
  0
VERTEX
  5
63FF5
100
AcDbEntity
  8
0
100
AcDbVertex
100
AcDbPolygonMeshVertex
 10
1.07071
 20
-2.2215
 30
1.386
 70
    64
  0
VERTEX
  5
63FF6
100
AcDbEntity
  8
0
100
AcDbVertex
100
AcDbPolygonMeshVertex
 10
1.07071
 20
-2.2215
 30
1.386
 70
    64
  0
VERTEX
  5
63FF7
100
AcDbEntity
  8
0
100
AcDbVertex
100
AcDbPolygonMeshVertex
 10
0.69971
 20
-2.2215
 30
2.06
 70
    64
  0
VERTEX
  5
63FF8
100
AcDbEntity
  8
0
100
AcDbVertex
100
AcDbPolygonMeshVertex
 10
0.69971
 20
-2.2215
 30
1.386
 70
    64
  0
VERTEX
  5
63FF9
100
AcDbEntity
  8
0
100
AcDbVertex
100
AcDbPolygonMeshVertex
 10
0.69971
 20
-2.2215
 30
1.386
 70
    64
  0
VERTEX
  5
63FFA
100
AcDbEntity
  8
0
100
AcDbVertex
100
AcDbPolygonMeshVertex
 10
0.69971
 20
-1.9685
 30
2.06
 70
    64
  0
VERTEX
  5
63FFB
100
AcDbEntity
  8
0
100
AcDbVertex
100
AcDbPolygonMeshVertex
 10
0.69971
 20
-1.9685
 30
1.386
 70
    64
  0
VERTEX
  5
63FFC
100
AcDbEntity
  8
0
100
AcDbVertex
100
AcDbPolygonMeshVertex
 10
0.69971
 20
-2.2215
 30
1.386
 70
    64
  0
VERTEX
  5
63FFD
100
AcDbEntity
  8
0
100
AcDbVertex
100
AcDbPolygonMeshVertex
 10
1.07071
 20
-1.9685
 30
2.06
 70
    64
  0
VERTEX
  5
63FFE
100
AcDbEntity
  8
0
100
AcDbVertex
100
AcDbPolygonMeshVertex
 10
1.07071
 20
-1.9685
 30
1.386
 70
    64
  0
VERTEX
  5
63FFF
100
AcDbEntity
  8
0
100
AcDbVertex
100
AcDbPolygonMeshVertex
 10
1.07071
 20
-2.2215
 30
1.386
 70
    64
  0
VERTEX
  5
64000
100
AcDbEntity
  8
0
100
AcDbVertex
100
AcDbPolygonMeshVertex
 10
1.07071
 20
-1.9685
 30
2.06
 70
    64
  0
VERTEX
  5
64001
100
AcDbEntity
  8
0
100
AcDbVertex
100
AcDbPolygonMeshVertex
 10
1.07071
 20
-1.9685
 30
2.06
 70
    64
  0
VERTEX
  5
64002
100
AcDbEntity
  8
0
100
AcDbVertex
100
AcDbPolygonMeshVertex
 10
1.07071
 20
-2.2215
 30
2.06
 70
    64
  0
VERTEX
  5
64003
100
AcDbEntity
  8
0
100
AcDbVertex
100
AcDbPolygonMeshVertex
 10
0.69971
 20
-1.9685
 30
2.06
 70
    64
  0
VERTEX
  5
64004
100
AcDbEntity
  8
0
100
AcDbVertex
100
AcDbPolygonMeshVertex
 10
0.69971
 20
-1.9685
 30
2.06
 70
    64
  0
VERTEX
  5
64005
100
AcDbEntity
  8
0
100
AcDbVertex
100
AcDbPolygonMeshVertex
 10
0.69971
 20
-2.2215
 30
2.06
 70
    64
  0
SEQEND
  5
64006
100
AcDbEntity
  8
0
  0
LWPOLYLINE
  5
64007
100
AcDbEntity
  8
0
100
AcDbPolyline
 90
        4
 70
     1
 43
0.0
 38
2.062
 10
0.75171
 20
-2.0205
 10
1.01871
 20
-2.0205
 10
1.01871
 20
-2.1695
 10
0.75171
 20
-2.1695
  0
LWPOLYLINE
  5
64008
100
AcDbEntity
  8
0
100
AcDbPolyline
 90
        4
 70
     1
 43
0.0
 38
1.388
 10
0.75171
 20
-2.0205
 10
1.01871
 20
-2.0205
 10
1.01871
 20
-2.1695
 10
0.75171
 20
-2.1695
  0
POLYLINE
  5
64009
100
AcDbEntity
  8
0
100
AcDbPolygonMesh
 66
     1
 10
0.0
 20
0.0
 30
0.0
 70
    16
 71
     6
 72
     3
  0
VERTEX
  5
6400A
100
AcDbEntity
  8
0
100
AcDbVertex
100
AcDbPolygonMeshVertex
 10
0.33271
 20
0.9585
 30
2.06
 70
    64
  0
VERTEX
  5
6400B
100
AcDbEntity
  8
0
100
AcDbVertex
100
AcDbPolygonMeshVertex
 10
0.33271
 20
0.9585
 30
1.386
 70
    64
  0
VERTEX
  5
6400C
100
AcDbEntity
  8
0
100
AcDbVertex
100
AcDbPolygonMeshVertex
 10
0.33271
 20
0.9585
 30
1.386
 70
    64
  0
VERTEX
  5
6400D
100
AcDbEntity
  8
0
100
AcDbVertex
100
AcDbPolygonMeshVertex
 10
1.43771
 20
0.9585
 30
2.06
 70
    64
  0
VERTEX
  5
6400E
100
AcDbEntity
  8
0
100
AcDbVertex
100
AcDbPolygonMeshVertex
 10
1.43771
 20
0.9585
 30
1.386
 70
    64
  0
VERTEX
  5
6400F
100
AcDbEntity
  8
0
100
AcDbVertex
100
AcDbPolygonMeshVertex
 10
1.43771
 20
0.9585
 30
1.386
 70
    64
  0
VERTEX
  5
64010
100
AcDbEntity
  8
0
100
AcDbVertex
100
AcDbPolygonMeshVertex
 10
1.43771
 20
0.5215
 30
2.06
 70
    64
  0
VERTEX
  5
64011
100
AcDbEntity
  8
0
100
AcDbVertex
100
AcDbPolygonMeshVertex
 10
1.43771
 20
0.5215
 30
1.386
 70
    64
  0
VERTEX
  5
64012
100
AcDbEntity
  8
0
100
AcDbVertex
100
AcDbPolygonMeshVertex
 10
1.43771
 20
0.9585
 30
1.386
 70
    64
  0
VERTEX
  5
64013
100
AcDbEntity
  8
0
100
AcDbVertex
100
AcDbPolygonMeshVertex
 10
0.33271
 20
0.5215
 30
2.06
 70
    64
  0
VERTEX
  5
64014
100
AcDbEntity
  8
0
100
AcDbVertex
100
AcDbPolygonMeshVertex
 10
0.33271
 20
0.5215
 30
1.386
 70
    64
  0
VERTEX
  5
64015
100
AcDbEntity
  8
0
100
AcDbVertex
100
AcDbPolygonMeshVertex
 10
0.33271
 20
0.9585
 30
1.386
 70
    64
  0
VERTEX
  5
64016
100
AcDbEntity
  8
0
100
AcDbVertex
100
AcDbPolygonMeshVertex
 10
0.33271
 20
0.5215
 30
2.06
 70
    64
  0
VERTEX
  5
64017
100
AcDbEntity
  8
0
100
AcDbVertex
100
AcDbPolygonMeshVertex
 10
0.33271
 20
0.5215
 30
2.06
 70
    64
  0
VERTEX
  5
64018
100
AcDbEntity
  8
0
100
AcDbVertex
100
AcDbPolygonMeshVertex
 10
0.33271
 20
0.9585
 30
2.06
 70
    64
  0
VERTEX
  5
64019
100
AcDbEntity
  8
0
100
AcDbVertex
100
AcDbPolygonMeshVertex
 10
1.43771
 20
0.5215
 30
2.06
 70
    64
  0
VERTEX
  5
6401A
100
AcDbEntity
  8
0
100
AcDbVertex
100
AcDbPolygonMeshVertex
 10
1.43771
 20
0.5215
 30
2.06
 70
    64
  0
VERTEX
  5
6401B
100
AcDbEntity
  8
0
100
AcDbVertex
100
AcDbPolygonMeshVertex
 10
1.43771
 20
0.9585
 30
2.06
 70
    64
  0
SEQEND
  5
6401C
100
AcDbEntity
  8
0
  0
LINE
  5
6401D
100
AcDbEntity
  8
0
100
AcDbLine
 10
0.74521
 20
0.5215
 30
2.06
 11
0.74521
 21
0.7565
 31
2.06
  0
LINE
  5
6401E
100
AcDbEntity
  8
0
100
AcDbLine
 10
1.02521
 20
0.5215
 30
2.06
 11
1.02521
 21
0.7565
 31
2.06
  0
LINE
  5
6401F
100
AcDbEntity
  8
0
100
AcDbLine
 10
1.02521
 20
0.7565
 30
2.06
 11
0.74521
 21
0.7565
 31
2.06
  0
CIRCLE
  5
64020
100
AcDbEntity
  8
0
100
AcDbCircle
 10
0.54621
 20
0.74
 30
2.06
 40
0.12
  0
CIRCLE
  5
64021
100
AcDbEntity
  8
0
100
AcDbCircle
 10
1.22421
 20
0.74
 30
2.06
 40
0.12
  0
POLYLINE
  5
64022
100
AcDbEntity
  8
0
100
AcDb3dPolyline
 66
     1
 10
0.0
 20
0.0
 30
0.0
 70
     8
  0
VERTEX
  5
64023
100
AcDbEntity
  8
0
100
AcDbVertex
100
AcDb3dPolylineVertex
 10
1.76521
 20
-1.3525
 30
0.187
 70
    32
  0
VERTEX
  5
64024
100
AcDbEntity
  8
0
100
AcDbVertex
100
AcDb3dPolylineVertex
 10
1.76521
 20
-1.3525
 30
1.057
 70
    32
  0
VERTEX
  5
64025
100
AcDbEntity
  8
0
100
AcDbVertex
100
AcDb3dPolylineVertex
 10
1.76521
 20
-1.5075
 30
1.057
 70
    32
  0
VERTEX
  5
64026
100
AcDbEntity
  8
0
100
AcDbVertex
100
AcDb3dPolylineVertex
 10
1.76521
 20
-1.5075
 30
0.187
 70
    32
  0
SEQEND
  5
64027
100
AcDbEntity
  8
0
  0
POLYLINE
  5
64028
100
AcDbEntity
  8
0
100
AcDb3dPolyline
 66
     1
 10
0.0
 20
0.0
 30
0.0
 70
     8
  0
VERTEX
  5
64029
100
AcDbEntity
  8
0
100
AcDbVertex
100
AcDb3dPolylineVertex
 10
1.76521
 20
0.0265
 30
0.187
 70
    32
  0
VERTEX
  5
6402A
100
AcDbEntity
  8
0
100
AcDbVertex
100
AcDb3dPolylineVertex
 10
1.76521
 20
0.0265
 30
1.057
 70
    32
  0
VERTEX
  5
6402B
100
AcDbEntity
  8
0
100
AcDbVertex
100
AcDb3dPolylineVertex
 10
1.76521
 20
-0.1285
 30
1.057
 70
    32
  0
VERTEX
  5
6402C
100
AcDbEntity
  8
0
100
AcDbVertex
100
AcDb3dPolylineVertex
 10
1.76521
 20
-0.1285
 30
0.187
 70
    32
  0
SEQEND
  5
6402D
100
AcDbEntity
  8
0
  0
LINE
  5
6402E
100
AcDbEntity
  8
0
100
AcDbLine
 10
1.76521
 20
-0.6295
 30
0.517
 11
1.76521
 21
-0.8515
 31
0.517
  0
LINE
  5
6402F
100
AcDbEntity
  8
0
100
AcDbLine
 10
1.76521
 20
-0.8515
 30
0.517
 11
1.76521
 21
-0.8515
 31
0.187
  0
LINE
  5
64030
100
AcDbEntity
  8
0
100
AcDbLine
 10
1.76521
 20
-0.6295
 30
0.517
 11
1.76521
 21
-0.6295
 31
0.187
  0
POLYLINE
  5
64031
100
AcDbEntity
  8
0
100
AcDb3dPolyline
 66
     1
 10
0.0
 20
0.0
 30
0.0
 70
     8
  0
VERTEX
  5
64032
100
AcDbEntity
  8
0
100
AcDbVertex
100
AcDb3dPolylineVertex
 10
0.00521
 20
0.0265
 30
0.187
 70
    32
  0
VERTEX
  5
64033
100
AcDbEntity
  8
0
100
AcDbVertex
100
AcDb3dPolylineVertex
 10
0.00521
 20
0.0265
 30
1.057
 70
    32
  0
VERTEX
  5
64034
100
AcDbEntity
  8
0
100
AcDbVertex
100
AcDb3dPolylineVertex
 10
0.00521
 20
-0.1285
 30
1.057
 70
    32
  0
VERTEX
  5
64035
100
AcDbEntity
  8
0
100
AcDbVertex
100
AcDb3dPolylineVertex
 10
0.00521
 20
-0.1285
 30
0.187
 70
    32
  0
SEQEND
  5
64036
100
AcDbEntity
  8
0
  0
POLYLINE
  5
64037
100
AcDbEntity
  8
0
100
AcDb3dPolyline
 66
     1
 10
0.0
 20
0.0
 30
0.0
 70
     8
  0
VERTEX
  5
64038
100
AcDbEntity
  8
0
100
AcDbVertex
100
AcDb3dPolylineVertex
 10
0.00521
 20
-1.3525
 30
0.187
 70
    32
  0
VERTEX
  5
64039
100
AcDbEntity
  8
0
100
AcDbVertex
100
AcDb3dPolylineVertex
 10
0.00521
 20
-1.3525
 30
1.057
 70
    32
  0
VERTEX
  5
6403A
100
AcDbEntity
  8
0
100
AcDbVertex
100
AcDb3dPolylineVertex
 10
0.00521
 20
-1.5075
 30
1.057
 70
    32
  0
VERTEX
  5
6403B
100
AcDbEntity
  8
0
100
AcDbVertex
100
AcDb3dPolylineVertex
 10
0.00521
 20
-1.5075
 30
0.187
 70
    32
  0
SEQEND
  5
6403C
100
AcDbEntity
  8
0
  0
LINE
  5
6403D
100
AcDbEntity
  8
0
100
AcDbLine
 10
1.76521
 20
-1.5675
 30
0.187
 11
1.76521
 21
-1.5675
 31
0.0
  0
LINE
  5
6403E
100
AcDbEntity
  8
0
100
AcDbLine
 10
1.76521
 20
-1.5675
 30
0.0
 11
0.88521
 21
-1.5675
 31
0.0
  0
POLYLINE
  5
6403F
100
AcDbEntity
  8
0
100
AcDbPolygonMesh
 66
     1
 10
0.0
 20
0.0
 30
0.0
 70
    16
 71
     6
 72
     3
  0
VERTEX
  5
64040
100
AcDbEntity
  8
0
100
AcDbVertex
100
AcDbPolygonMeshVertex
 10
0.88521
 20
-1.5675
 30
0.187
 70
    64
  0
VERTEX
  5
64041
100
AcDbEntity
  8
0
100
AcDbVertex
100
AcDbPolygonMeshVertex
 10
0.88521
 20
-1.5675
 30
0.0
 70
    64
  0
VERTEX
  5
64042
100
AcDbEntity
  8
0
100
AcDbVertex
100
AcDbPolygonMeshVertex
 10
0.88521
 20
-1.5675
 30
0.0
 70
    64
  0
VERTEX
  5
64043
100
AcDbEntity
  8
0
100
AcDbVertex
100
AcDbPolygonMeshVertex
 10
1.76521
 20
-1.5675
 30
0.187
 70
    64
  0
VERTEX
  5
64044
100
AcDbEntity
  8
0
100
AcDbVertex
100
AcDbPolygonMeshVertex
 10
1.76521
 20
-1.5675
 30
0.0
 70
    64
  0
VERTEX
  5
64045
100
AcDbEntity
  8
0
100
AcDbVertex
100
AcDbPolygonMeshVertex
 10
1.76521
 20
-1.5675
 30
0.0
 70
    64
  0
VERTEX
  5
64046
100
AcDbEntity
  8
0
100
AcDbVertex
100
AcDbPolygonMeshVertex
 10
1.76521
 20
-2.1655
 30
0.187
 70
    64
  0
VERTEX
  5
64047
100
AcDbEntity
  8
0
100
AcDbVertex
100
AcDbPolygonMeshVertex
 10
1.76521
 20
-2.1655
 30
0.0
 70
    64
  0
VERTEX
  5
64048
100
AcDbEntity
  8
0
100
AcDbVertex
100
AcDbPolygonMeshVertex
 10
1.76521
 20
-1.5675
 30
0.0
 70
    64
  0
VERTEX
  5
64049
100
AcDbEntity
  8
0
100
AcDbVertex
100
AcDbPolygonMeshVertex
 10
0.88521
 20
-2.1655
 30
0.187
 70
    64
  0
VERTEX
  5
6404A
100
AcDbEntity
  8
0
100
AcDbVertex
100
AcDbPolygonMeshVertex
 10
0.88521
 20
-2.1655
 30
0.0
 70
    64
  0
VERTEX
  5
6404B
100
AcDbEntity
  8
0
100
AcDbVertex
100
AcDbPolygonMeshVertex
 10
0.88521
 20
-1.5675
 30
0.0
 70
    64
  0
VERTEX
  5
6404C
100
AcDbEntity
  8
0
100
AcDbVertex
100
AcDbPolygonMeshVertex
 10
0.88521
 20
-2.1655
 30
0.187
 70
    64
  0
VERTEX
  5
6404D
100
AcDbEntity
  8
0
100
AcDbVertex
100
AcDbPolygonMeshVertex
 10
0.88521
 20
-2.1655
 30
0.187
 70
    64
  0
VERTEX
  5
6404E
100
AcDbEntity
  8
0
100
AcDbVertex
100
AcDbPolygonMeshVertex
 10
0.88521
 20
-1.5675
 30
0.187
 70
    64
  0
VERTEX
  5
6404F
100
AcDbEntity
  8
0
100
AcDbVertex
100
AcDbPolygonMeshVertex
 10
1.76521
 20
-2.1655
 30
0.187
 70
    64
  0
VERTEX
  5
64050
100
AcDbEntity
  8
0
100
AcDbVertex
100
AcDbPolygonMeshVertex
 10
1.76521
 20
-2.1655
 30
0.187
 70
    64
  0
VERTEX
  5
64051
100
AcDbEntity
  8
0
100
AcDbVertex
100
AcDbPolygonMeshVertex
 10
1.76521
 20
-1.5675
 30
0.187
 70
    64
  0
SEQEND
  5
64052
100
AcDbEntity
  8
0
  0
POLYLINE
  5
64053
100
AcDbEntity
  8
0
100
AcDbPolygonMesh
 66
     1
 10
0.0
 20
0.0
 30
0.0
 70
    16
 71
     6
 72
     3
  0
VERTEX
  5
64054
100
AcDbEntity
  8
0
100
AcDbVertex
100
AcDbPolygonMeshVertex
 10
0.00521
 20
0.7185
 30
0.187
 70
    64
  0
VERTEX
  5
64055
100
AcDbEntity
  8
0
100
AcDbVertex
100
AcDbPolygonMeshVertex
 10
0.00521
 20
0.7185
 30
0.0
 70
    64
  0
VERTEX
  5
64056
100
AcDbEntity
  8
0
100
AcDbVertex
100
AcDbPolygonMeshVertex
 10
0.00521
 20
0.7185
 30
0.0
 70
    64
  0
VERTEX
  5
64057
100
AcDbEntity
  8
0
100
AcDbVertex
100
AcDbPolygonMeshVertex
 10
0.88521
 20
0.7185
 30
0.187
 70
    64
  0
VERTEX
  5
64058
100
AcDbEntity
  8
0
100
AcDbVertex
100
AcDbPolygonMeshVertex
 10
0.88521
 20
0.7185
 30
0.0
 70
    64
  0
VERTEX
  5
64059
100
AcDbEntity
  8
0
100
AcDbVertex
100
AcDbPolygonMeshVertex
 10
0.88521
 20
0.7185
 30
0.0
 70
    64
  0
VERTEX
  5
6405A
100
AcDbEntity
  8
0
100
AcDbVertex
100
AcDbPolygonMeshVertex
 10
0.88521
 20
0.1205
 30
0.187
 70
    64
  0
VERTEX
  5
6405B
100
AcDbEntity
  8
0
100
AcDbVertex
100
AcDbPolygonMeshVertex
 10
0.88521
 20
0.1205
 30
0.0
 70
    64
  0
VERTEX
  5
6405C
100
AcDbEntity
  8
0
100
AcDbVertex
100
AcDbPolygonMeshVertex
 10
0.88521
 20
0.7185
 30
0.0
 70
    64
  0
VERTEX
  5
6405D
100
AcDbEntity
  8
0
100
AcDbVertex
100
AcDbPolygonMeshVertex
 10
0.00521
 20
0.1205
 30
0.187
 70
    64
  0
VERTEX
  5
6405E
100
AcDbEntity
  8
0
100
AcDbVertex
100
AcDbPolygonMeshVertex
 10
0.00521
 20
0.1205
 30
0.0
 70
    64
  0
VERTEX
  5
6405F
100
AcDbEntity
  8
0
100
AcDbVertex
100
AcDbPolygonMeshVertex
 10
0.00521
 20
0.7185
 30
0.0
 70
    64
  0
VERTEX
  5
64060
100
AcDbEntity
  8
0
100
AcDbVertex
100
AcDbPolygonMeshVertex
 10
0.00521
 20
0.1205
 30
0.187
 70
    64
  0
VERTEX
  5
64061
100
AcDbEntity
  8
0
100
AcDbVertex
100
AcDbPolygonMeshVertex
 10
0.00521
 20
0.1205
 30
0.187
 70
    64
  0
VERTEX
  5
64062
100
AcDbEntity
  8
0
100
AcDbVertex
100
AcDbPolygonMeshVertex
 10
0.00521
 20
0.7185
 30
0.187
 70
    64
  0
VERTEX
  5
64063
100
AcDbEntity
  8
0
100
AcDbVertex
100
AcDbPolygonMeshVertex
 10
0.88521
 20
0.1205
 30
0.187
 70
    64
  0
VERTEX
  5
64064
100
AcDbEntity
  8
0
100
AcDbVertex
100
AcDbPolygonMeshVertex
 10
0.88521
 20
0.1205
 30
0.187
 70
    64
  0
VERTEX
  5
64065
100
AcDbEntity
  8
0
100
AcDbVertex
100
AcDbPolygonMeshVertex
 10
0.88521
 20
0.7185
 30
0.187
 70
    64
  0
SEQEND
  5
64066
100
AcDbEntity
  8
0
  0
LINE
  5
64067
100
AcDbEntity
  8
0
100
AcDbLine
 10
1.76521
 20
-0.8065
 30
1.8785
 11
1.76521
 21
-0.6405
 31
1.8785
  0
POLYLINE
  5
64068
100
AcDbEntity
  8
0
100
AcDb3dPolyline
 66
     1
 10
0.0
 20
0.0
 30
0.0
 70
     8
  0
VERTEX
  5
64069
100
AcDbEntity
  8
0
100
AcDbVertex
100
AcDb3dPolylineVertex
 10
0.0
 20
-0.6405
 30
1.592
 70
    32
  0
VERTEX
  5
6406A
100
AcDbEntity
  8
0
100
AcDbVertex
100
AcDb3dPolylineVertex
 10
0.0
 20
-0.6405
 30
2.165
 70
    32
  0
VERTEX
  5
6406B
100
AcDbEntity
  8
0
100
AcDbVertex
100
AcDb3dPolylineVertex
 10
0.0
 20
-0.8065
 30
2.165
 70
    32
  0
VERTEX
  5
6406C
100
AcDbEntity
  8
0
100
AcDbVertex
100
AcDb3dPolylineVertex
 10
0.0
 20
-0.8065
 30
1.592
 70
    32
  0
VERTEX
  5
6406D
100
AcDbEntity
  8
0
100
AcDbVertex
100
AcDb3dPolylineVertex
 10
0.0
 20
-0.6405
 30
1.592
 70
    32
  0
SEQEND
  5
6406E
100
AcDbEntity
  8
0
  0
LINE
  5
6406F
100
AcDbEntity
  8
0
100
AcDbLine
 10
0.0
 20
-0.8065
 30
1.8785
 11
0.0
 21
-0.6405
 31
1.8785
  0
LINE
  5
64070
100
AcDbEntity
  8
0
100
AcDbLine
 10
0.0
 20
-0.8065
 30
2.0685
 11
0.0
 21
-0.6405
 31
2.0685
  0
CIRCLE
  5
64071
100
AcDbEntity
  8
0
100
AcDbCircle
 10
1.57121
 20
0.4255
 30
0.316
 40
0.086
  0
POLYLINE
  5
64072
100
AcDbEntity
  8
0
100
AcDb3dPolyline
 66
     1
 10
0.0
 20
0.0
 30
0.0
 70
     8
  0
VERTEX
  5
64073
100
AcDbEntity
  8
0
100
AcDbVertex
100
AcDb3dPolylineVertex
 10
0.550544
 20
0.5215
 30
0.187
 70
    32
  0
VERTEX
  5
64074
100
AcDbEntity
  8
0
100
AcDbVertex
100
AcDb3dPolylineVertex
 10
0.550544
 20
0.6565
 30
0.187
 70
    32
  0
VERTEX
  5
64075
100
AcDbEntity
  8
0
100
AcDbVertex
100
AcDb3dPolylineVertex
 10
0.339877
 20
0.6565
 30
0.187
 70
    32
  0
VERTEX
  5
64076
100
AcDbEntity
  8
0
100
AcDbVertex
100
AcDb3dPolylineVertex
 10
0.339877
 20
0.5215
 30
0.187
 70
    32
  0
SEQEND
  5
64077
100
AcDbEntity
  8
0
  0
POLYLINE
  5
64078
100
AcDbEntity
  8
0
100
AcDb3dPolyline
 66
     1
 10
0.0
 20
0.0
 30
0.0
 70
     8
  0
VERTEX
  5
64079
100
AcDbEntity
  8
0
100
AcDbVertex
100
AcDb3dPolylineVertex
 10
0.277877
 20
0.5215
 30
0.187
 70
    32
  0
VERTEX
  5
6407A
100
AcDbEntity
  8
0
100
AcDbVertex
100
AcDb3dPolylineVertex
 10
0.277877
 20
0.6565
 30
0.187
 70
    32
  0
VERTEX
  5
6407B
100
AcDbEntity
  8
0
100
AcDbVertex
100
AcDb3dPolylineVertex
 10
0.06721
 20
0.6565
 30
0.187
 70
    32
  0
VERTEX
  5
6407C
100
AcDbEntity
  8
0
100
AcDbVertex
100
AcDb3dPolylineVertex
 10
0.06721
 20
0.5215
 30
0.187
 70
    32
  0
SEQEND
  5
6407D
100
AcDbEntity
  8
0
  0
POLYLINE
  5
6407E
100
AcDbEntity
  8
0
100
AcDb3dPolyline
 66
     1
 10
0.0
 20
0.0
 30
0.0
 70
     8
  0
VERTEX
  5
6407F
100
AcDbEntity
  8
0
100
AcDbVertex
100
AcDb3dPolylineVertex
 10
0.82321
 20
0.5215
 30
0.187
 70
    32
  0
VERTEX
  5
64080
100
AcDbEntity
  8
0
100
AcDbVertex
100
AcDb3dPolylineVertex
 10
0.82321
 20
0.6565
 30
0.187
 70
    32
  0
VERTEX
  5
64081
100
AcDbEntity
  8
0
100
AcDbVertex
100
AcDb3dPolylineVertex
 10
0.612544
 20
0.6565
 30
0.187
 70
    32
  0
VERTEX
  5
64082
100
AcDbEntity
  8
0
100
AcDbVertex
100
AcDb3dPolylineVertex
 10
0.612544
 20
0.5215
 30
0.187
 70
    32
  0
SEQEND
  5
64083
100
AcDbEntity
  8
0
  0
POLYLINE
  5
64084
100
AcDbEntity
  8
0
100
AcDb3dPolyline
 66
     1
 10
0.0
 20
0.0
 30
0.0
 70
     8
  0
VERTEX
  5
64085
100
AcDbEntity
  8
0
100
AcDbVertex
100
AcDb3dPolylineVertex
 10
1.492544
 20
-1.9685
 30
0.187
 70
    32
  0
VERTEX
  5
64086
100
AcDbEntity
  8
0
100
AcDbVertex
100
AcDb3dPolylineVertex
 10
1.492544
 20
-2.1035
 30
0.187
 70
    32
  0
VERTEX
  5
64087
100
AcDbEntity
  8
0
100
AcDbVertex
100
AcDb3dPolylineVertex
 10
1.70321
 20
-2.1035
 30
0.187
 70
    32
  0
VERTEX
  5
64088
100
AcDbEntity
  8
0
100
AcDbVertex
100
AcDb3dPolylineVertex
 10
1.70321
 20
-1.9685
 30
0.187
 70
    32
  0
SEQEND
  5
64089
100
AcDbEntity
  8
0
  0
POLYLINE
  5
6408A
100
AcDbEntity
  8
0
100
AcDb3dPolyline
 66
     1
 10
0.0
 20
0.0
 30
0.0
 70
     8
  0
VERTEX
  5
6408B
100
AcDbEntity
  8
0
100
AcDbVertex
100
AcDb3dPolylineVertex
 10
1.219877
 20
-1.9685
 30
0.187
 70
    32
  0
VERTEX
  5
6408C
100
AcDbEntity
  8
0
100
AcDbVertex
100
AcDb3dPolylineVertex
 10
1.219877
 20
-2.1035
 30
0.187
 70
    32
  0
VERTEX
  5
6408D
100
AcDbEntity
  8
0
100
AcDbVertex
100
AcDb3dPolylineVertex
 10
1.430544
 20
-2.1035
 30
0.187
 70
    32
  0
VERTEX
  5
6408E
100
AcDbEntity
  8
0
100
AcDbVertex
100
AcDb3dPolylineVertex
 10
1.430544
 20
-1.9685
 30
0.187
 70
    32
  0
SEQEND
  5
6408F
100
AcDbEntity
  8
0
  0
POLYLINE
  5
64090
100
AcDbEntity
  8
0
100
AcDb3dPolyline
 66
     1
 10
0.0
 20
0.0
 30
0.0
 70
     8
  0
VERTEX
  5
64091
100
AcDbEntity
  8
0
100
AcDbVertex
100
AcDb3dPolylineVertex
 10
0.94721
 20
-1.9685
 30
0.187
 70
    32
  0
VERTEX
  5
64092
100
AcDbEntity
  8
0
100
AcDbVertex
100
AcDb3dPolylineVertex
 10
0.94721
 20
-2.1035
 30
0.187
 70
    32
  0
VERTEX
  5
64093
100
AcDbEntity
  8
0
100
AcDbVertex
100
AcDb3dPolylineVertex
 10
1.157877
 20
-2.1035
 30
0.187
 70
    32
  0
VERTEX
  5
64094
100
AcDbEntity
  8
0
100
AcDbVertex
100
AcDb3dPolylineVertex
 10
1.157877
 20
-1.9685
 30
0.187
 70
    32
  0
SEQEND
  5
64095
100
AcDbEntity
  8
0
  0
CIRCLE
  5
64096
100
AcDbEntity
  8
0
100
AcDbCircle
 10
0.19121
 20
-1.9345
 30
0.316
 40
0.086
  0
INSERT
  5
64097
100
AcDbEntity
  8
0
 62
     1
100
AcDbBlockReference
  2
AVE_RENDER
 10
-6.627499
 20
-2.735105
 30
0.0
1001
AVE_RENDER
1002
{
1070
     2
1000
Pref
1070
    30
1070
    20
1070
     0
1070
     0
1000

1070
    10
1070
     0
1070
    30
1040
1.0
1070
     1
1040
0.3
1040
0.4
1040
0.76
1040
1.538462
1010
-1.0
1020
-1.0
1030
-1.0
1040
0.3
1070
    49
1002
}
  0
INSERT
  5
64098
100
AcDbEntity
  8
0
 62
     3
100
AcDbBlockReference
  2
AVE_RENDER
 10
-6.627499
 20
-2.735105
 30
0.0
1001
AVE_RENDER
1002
{
1070
     0
1000
Full Opt
1070
     0
1070
     1
1070
     1
1070
     1
1070
     0
1070
     0
1070
     0
1070
     1
1070
     1
1040
0.0001
1040
0.0001
1002
}
  0
INSERT
  5
64099
100
AcDbEntity
  8
0
 62
     4
100
AcDbBlockReference
  2
AVE_RENDER
 10
-6.627499
 20
-2.735105
 30
0.0
1001
AVE_RENDER
1002
{
1070
     0
1000
Quick Opt
1070
     0
1070
     1
1070
     1
1070
     1
1070
     0
1070
     0
1070
     1
1002
}
  0
CIRCLE
  5
6409A
100
AcDbEntity
  8
0
100
AcDbCircle
 10
0.19121
 20
-1.9345
 30
0.0
 40
0.086
  0
CIRCLE
  5
6409B
100
AcDbEntity
  8
0
100
AcDbCircle
 10
1.57121
 20
0.4255
 30
0.0
 40
0.086
  0
POLYLINE
  5
6409C
100
AcDbEntity
  8
0
100
AcDb3dPolyline
 66
     1
 10
0.0
 20
0.0
 30
0.0
 70
     8
  0
VERTEX
  5
6409D
100
AcDbEntity
  8
0
100
AcDbVertex
100
AcDb3dPolylineVertex
 10
0.94721
 20
-1.9685
 30
0.0
 70
    32
  0
VERTEX
  5
6409E
100
AcDbEntity
  8
0
100
AcDbVertex
100
AcDb3dPolylineVertex
 10
0.94721
 20
-2.1035
 30
0.0
 70
    32
  0
VERTEX
  5
6409F
100
AcDbEntity
  8
0
100
AcDbVertex
100
AcDb3dPolylineVertex
 10
1.157877
 20
-2.1035
 30
0.0
 70
    32
  0
VERTEX
  5
640A0
100
AcDbEntity
  8
0
100
AcDbVertex
100
AcDb3dPolylineVertex
 10
1.157877
 20
-1.9685
 30
0.0
 70
    32
  0
SEQEND
  5
640A1
100
AcDbEntity
  8
0
  0
POLYLINE
  5
640A2
100
AcDbEntity
  8
0
100
AcDb3dPolyline
 66
     1
 10
0.0
 20
0.0
 30
0.0
 70
     8
  0
VERTEX
  5
640A3
100
AcDbEntity
  8
0
100
AcDbVertex
100
AcDb3dPolylineVertex
 10
1.219877
 20
-1.9685
 30
0.0
 70
    32
  0
VERTEX
  5
640A4
100
AcDbEntity
  8
0
100
AcDbVertex
100
AcDb3dPolylineVertex
 10
1.219877
 20
-2.1035
 30
0.0
 70
    32
  0
VERTEX
  5
640A5
100
AcDbEntity
  8
0
100
AcDbVertex
100
AcDb3dPolylineVertex
 10
1.430544
 20
-2.1035
 30
0.0
 70
    32
  0
VERTEX
  5
640A6
100
AcDbEntity
  8
0
100
AcDbVertex
100
AcDb3dPolylineVertex
 10
1.430544
 20
-1.9685
 30
0.0
 70
    32
  0
SEQEND
  5
640A7
100
AcDbEntity
  8
0
  0
POLYLINE
  5
640A8
100
AcDbEntity
  8
0
100
AcDb3dPolyline
 66
     1
 10
0.0
 20
0.0
 30
0.0
 70
     8
  0
VERTEX
  5
640A9
100
AcDbEntity
  8
0
100
AcDbVertex
100
AcDb3dPolylineVertex
 10
1.492544
 20
-1.9685
 30
0.0
 70
    32
  0
VERTEX
  5
640AA
100
AcDbEntity
  8
0
100
AcDbVertex
100
AcDb3dPolylineVertex
 10
1.492544
 20
-2.1035
 30
0.0
 70
    32
  0
VERTEX
  5
640AB
100
AcDbEntity
  8
0
100
AcDbVertex
100
AcDb3dPolylineVertex
 10
1.70321
 20
-2.1035
 30
0.0
 70
    32
  0
VERTEX
  5
640AC
100
AcDbEntity
  8
0
100
AcDbVertex
100
AcDb3dPolylineVertex
 10
1.70321
 20
-1.9685
 30
0.0
 70
    32
  0
SEQEND
  5
640AD
100
AcDbEntity
  8
0
  0
POLYLINE
  5
640AE
100
AcDbEntity
  8
0
100
AcDb3dPolyline
 66
     1
 10
0.0
 20
0.0
 30
0.0
 70
     8
  0
VERTEX
  5
640AF
100
AcDbEntity
  8
0
100
AcDbVertex
100
AcDb3dPolylineVertex
 10
0.82321
 20
0.5215
 30
0.0
 70
    32
  0
VERTEX
  5
640B0
100
AcDbEntity
  8
0
100
AcDbVertex
100
AcDb3dPolylineVertex
 10
0.82321
 20
0.6565
 30
0.0
 70
    32
  0
VERTEX
  5
640B1
100
AcDbEntity
  8
0
100
AcDbVertex
100
AcDb3dPolylineVertex
 10
0.612544
 20
0.6565
 30
0.0
 70
    32
  0
VERTEX
  5
640B2
100
AcDbEntity
  8
0
100
AcDbVertex
100
AcDb3dPolylineVertex
 10
0.612544
 20
0.5215
 30
0.0
 70
    32
  0
SEQEND
  5
640B3
100
AcDbEntity
  8
0
  0
POLYLINE
  5
640B4
100
AcDbEntity
  8
0
100
AcDb3dPolyline
 66
     1
 10
0.0
 20
0.0
 30
0.0
 70
     8
  0
VERTEX
  5
640B5
100
AcDbEntity
  8
0
100
AcDbVertex
100
AcDb3dPolylineVertex
 10
0.550544
 20
0.5215
 30
0.0
 70
    32
  0
VERTEX
  5
640B6
100
AcDbEntity
  8
0
100
AcDbVertex
100
AcDb3dPolylineVertex
 10
0.550544
 20
0.6565
 30
0.0
 70
    32
  0
VERTEX
  5
640B7
100
AcDbEntity
  8
0
100
AcDbVertex
100
AcDb3dPolylineVertex
 10
0.339877
 20
0.6565
 30
0.0
 70
    32
  0
VERTEX
  5
640B8
100
AcDbEntity
  8
0
100
AcDbVertex
100
AcDb3dPolylineVertex
 10
0.339877
 20
0.5215
 30
0.0
 70
    32
  0
SEQEND
  5
640B9
100
AcDbEntity
  8
0
  0
POLYLINE
  5
640BA
100
AcDbEntity
  8
0
100
AcDb3dPolyline
 66
     1
 10
0.0
 20
0.0
 30
0.0
 70
     8
  0
VERTEX
  5
640BB
100
AcDbEntity
  8
0
100
AcDbVertex
100
AcDb3dPolylineVertex
 10
0.277877
 20
0.5215
 30
0.0
 70
    32
  0
VERTEX
  5
640BC
100
AcDbEntity
  8
0
100
AcDbVertex
100
AcDb3dPolylineVertex
 10
0.277877
 20
0.6565
 30
0.0
 70
    32
  0
VERTEX
  5
640BD
100
AcDbEntity
  8
0
100
AcDbVertex
100
AcDb3dPolylineVertex
 10
0.06721
 20
0.6565
 30
0.0
 70
    32
  0
VERTEX
  5
640BE
100
AcDbEntity
  8
0
100
AcDbVertex
100
AcDb3dPolylineVertex
 10
0.06721
 20
0.5215
 30
0.0
 70
    32
  0
SEQEND
  5
640BF
100
AcDbEntity
  8
0
  0
LINE
  5
640C0
100
AcDbEntity
  8
0
100
AcDbLine
 10
1.70321
 20
-1.9685
 30
0.0
 11
1.492544
 21
-1.9685
 31
0.0
  0
LINE
  5
640C1
100
AcDbEntity
  8
0
100
AcDbLine
 10
1.430544
 20
-1.9685
 30
0.0
 11
1.219877
 21
-1.9685
 31
0.0
  0
LINE
  5
640C2
100
AcDbEntity
  8
0
100
AcDbLine
 10
1.157877
 20
-1.9685
 30
0.0
 11
0.94721
 21
-1.9685
 31
0.0
  0
LINE
  5
640C3
100
AcDbEntity
  8
0
100
AcDbLine
 10
0.82321
 20
0.5215
 30
0.0
 11
0.612544
 21
0.5215
 31
0.0
  0
LINE
  5
640C4
100
AcDbEntity
  8
0
100
AcDbLine
 10
0.550544
 20
0.5215
 30
0.0
 11
0.339877
 21
0.5215
 31
0.0
  0
LINE
  5
640C5
100
AcDbEntity
  8
0
100
AcDbLine
 10
0.277877
 20
0.5215
 30
0.0
 11
0.06721
 21
0.5215
 31
0.0
  0
POLYLINE
  5
640C6
100
AcDbEntity
  8
0
100
AcDbPolygonMesh
 66
     1
 10
0.0
 20
0.0
 30
0.0
 70
    16
 71
     6
 72
     3
  0
VERTEX
  5
640C7
100
AcDbEntity
  8
0
100
AcDbVertex
100
AcDbPolygonMeshVertex
 10
0.90571
 20
-1.9855
 30
2.929
 70
    64
  0
VERTEX
  5
640C8
100
AcDbEntity
  8
0
100
AcDbVertex
100
AcDbPolygonMeshVertex
 10
0.90571
 20
-1.9855
 30
2.319
 70
    64
  0
VERTEX
  5
640C9
100
AcDbEntity
  8
0
100
AcDbVertex
100
AcDbPolygonMeshVertex
 10
0.90571
 20
-1.9855
 30
2.319
 70
    64
  0
VERTEX
  5
640CA
100
AcDbEntity
  8
0
100
AcDbVertex
100
AcDbPolygonMeshVertex
 10
0.85971
 20
-1.9855
 30
2.929
 70
    64
  0
VERTEX
  5
640CB
100
AcDbEntity
  8
0
100
AcDbVertex
100
AcDbPolygonMeshVertex
 10
0.85971
 20
-1.9855
 30
2.319
 70
    64
  0
VERTEX
  5
640CC
100
AcDbEntity
  8
0
100
AcDbVertex
100
AcDbPolygonMeshVertex
 10
0.85971
 20
-1.9855
 30
2.319
 70
    64
  0
VERTEX
  5
640CD
100
AcDbEntity
  8
0
100
AcDbVertex
100
AcDbPolygonMeshVertex
 10
0.85971
 20
-1.8455
 30
2.929
 70
    64
  0
VERTEX
  5
640CE
100
AcDbEntity
  8
0
100
AcDbVertex
100
AcDbPolygonMeshVertex
 10
0.85971
 20
-1.8455
 30
2.319
 70
    64
  0
VERTEX
  5
640CF
100
AcDbEntity
  8
0
100
AcDbVertex
100
AcDbPolygonMeshVertex
 10
0.85971
 20
-1.9855
 30
2.319
 70
    64
  0
VERTEX
  5
640D0
100
AcDbEntity
  8
0
100
AcDbVertex
100
AcDbPolygonMeshVertex
 10
0.90571
 20
-1.8455
 30
2.929
 70
    64
  0
VERTEX
  5
640D1
100
AcDbEntity
  8
0
100
AcDbVertex
100
AcDbPolygonMeshVertex
 10
0.90571
 20
-1.8455
 30
2.319
 70
    64
  0
VERTEX
  5
640D2
100
AcDbEntity
  8
0
100
AcDbVertex
100
AcDbPolygonMeshVertex
 10
0.90571
 20
-1.9855
 30
2.319
 70
    64
  0
VERTEX
  5
640D3
100
AcDbEntity
  8
0
100
AcDbVertex
100
AcDbPolygonMeshVertex
 10
0.90571
 20
-1.8455
 30
2.929
 70
    64
  0
VERTEX
  5
640D4
100
AcDbEntity
  8
0
100
AcDbVertex
100
AcDbPolygonMeshVertex
 10
0.90571
 20
-1.8455
 30
2.929
 70
    64
  0
VERTEX
  5
640D5
100
AcDbEntity
  8
0
100
AcDbVertex
100
AcDbPolygonMeshVertex
 10
0.90571
 20
-1.9855
 30
2.929
 70
    64
  0
VERTEX
  5
640D6
100
AcDbEntity
  8
0
100
AcDbVertex
100
AcDbPolygonMeshVertex
 10
0.85971
 20
-1.8455
 30
2.929
 70
    64
  0
VERTEX
  5
640D7
100
AcDbEntity
  8
0
100
AcDbVertex
100
AcDbPolygonMeshVertex
 10
0.85971
 20
-1.8455
 30
2.929
 70
    64
  0
VERTEX
  5
640D8
100
AcDbEntity
  8
0
100
AcDbVertex
100
AcDbPolygonMeshVertex
 10
0.85971
 20
-1.9855
 30
2.929
 70
    64
  0
SEQEND
  5
640D9
100
AcDbEntity
  8
0
  0
POLYLINE
  5
640DA
100
AcDbEntity
  8
0
100
AcDbPolygonMesh
 66
     1
 10
0.0
 20
0.0
 30
0.0
 70
    16
 71
     6
 72
     3
  0
VERTEX
  5
640DB
100
AcDbEntity
  8
0
100
AcDbVertex
100
AcDbPolygonMeshVertex
 10
1.33546
 20
-1.9855
 30
2.929
 70
    64
  0
VERTEX
  5
640DC
100
AcDbEntity
  8
0
100
AcDbVertex
100
AcDbPolygonMeshVertex
 10
1.33546
 20
-1.9855
 30
2.319
 70
    64
  0
VERTEX
  5
640DD
100
AcDbEntity
  8
0
100
AcDbVertex
100
AcDbPolygonMeshVertex
 10
1.33546
 20
-1.9855
 30
2.319
 70
    64
  0
VERTEX
  5
640DE
100
AcDbEntity
  8
0
100
AcDbVertex
100
AcDbPolygonMeshVertex
 10
1.28946
 20
-1.9855
 30
2.929
 70
    64
  0
VERTEX
  5
640DF
100
AcDbEntity
  8
0
100
AcDbVertex
100
AcDbPolygonMeshVertex
 10
1.28946
 20
-1.9855
 30
2.319
 70
    64
  0
VERTEX
  5
640E0
100
AcDbEntity
  8
0
100
AcDbVertex
100
AcDbPolygonMeshVertex
 10
1.28946
 20
-1.9855
 30
2.319
 70
    64
  0
VERTEX
  5
640E1
100
AcDbEntity
  8
0
100
AcDbVertex
100
AcDbPolygonMeshVertex
 10
1.28946
 20
-1.8455
 30
2.929
 70
    64
  0
VERTEX
  5
640E2
100
AcDbEntity
  8
0
100
AcDbVertex
100
AcDbPolygonMeshVertex
 10
1.28946
 20
-1.8455
 30
2.319
 70
    64
  0
VERTEX
  5
640E3
100
AcDbEntity
  8
0
100
AcDbVertex
100
AcDbPolygonMeshVertex
 10
1.28946
 20
-1.9855
 30
2.319
 70
    64
  0
VERTEX
  5
640E4
100
AcDbEntity
  8
0
100
AcDbVertex
100
AcDbPolygonMeshVertex
 10
1.33546
 20
-1.8455
 30
2.929
 70
    64
  0
VERTEX
  5
640E5
100
AcDbEntity
  8
0
100
AcDbVertex
100
AcDbPolygonMeshVertex
 10
1.33546
 20
-1.8455
 30
2.319
 70
    64
  0
VERTEX
  5
640E6
100
AcDbEntity
  8
0
100
AcDbVertex
100
AcDbPolygonMeshVertex
 10
1.33546
 20
-1.9855
 30
2.319
 70
    64
  0
VERTEX
  5
640E7
100
AcDbEntity
  8
0
100
AcDbVertex
100
AcDbPolygonMeshVertex
 10
1.33546
 20
-1.8455
 30
2.929
 70
    64
  0
VERTEX
  5
640E8
100
AcDbEntity
  8
0
100
AcDbVertex
100
AcDbPolygonMeshVertex
 10
1.33546
 20
-1.8455
 30
2.929
 70
    64
  0
VERTEX
  5
640E9
100
AcDbEntity
  8
0
100
AcDbVertex
100
AcDbPolygonMeshVertex
 10
1.33546
 20
-1.9855
 30
2.929
 70
    64
  0
VERTEX
  5
640EA
100
AcDbEntity
  8
0
100
AcDbVertex
100
AcDbPolygonMeshVertex
 10
1.28946
 20
-1.8455
 30
2.929
 70
    64
  0
VERTEX
  5
640EB
100
AcDbEntity
  8
0
100
AcDbVertex
100
AcDbPolygonMeshVertex
 10
1.28946
 20
-1.8455
 30
2.929
 70
    64
  0
VERTEX
  5
640EC
100
AcDbEntity
  8
0
100
AcDbVertex
100
AcDbPolygonMeshVertex
 10
1.28946
 20
-1.9855
 30
2.929
 70
    64
  0
SEQEND
  5
640ED
100
AcDbEntity
  8
0
  0
POLYLINE
  5
640EE
100
AcDbEntity
  8
0
100
AcDbPolygonMesh
 66
     1
 10
0.0
 20
0.0
 30
0.0
 70
    16
 71
     6
 72
     3
  0
VERTEX
  5
640EF
100
AcDbEntity
  8
0
100
AcDbVertex
100
AcDbPolygonMeshVertex
 10
1.71921
 20
-2.0575
 30
2.319
 70
    64
  0
VERTEX
  5
640F0
100
AcDbEntity
  8
0
100
AcDbVertex
100
AcDbPolygonMeshVertex
 10
1.71921
 20
-2.0575
 30
2.06
 70
    64
  0
VERTEX
  5
640F1
100
AcDbEntity
  8
0
100
AcDbVertex
100
AcDbPolygonMeshVertex
 10
1.71921
 20
-2.0575
 30
2.06
 70
    64
  0
VERTEX
  5
640F2
100
AcDbEntity
  8
0
100
AcDbVertex
100
AcDbPolygonMeshVertex
 10
0.04621
 20
-2.0575
 30
2.319
 70
    64
  0
VERTEX
  5
640F3
100
AcDbEntity
  8
0
100
AcDbVertex
100
AcDbPolygonMeshVertex
 10
0.04621
 20
-2.0575
 30
2.06
 70
    64
  0
VERTEX
  5
640F4
100
AcDbEntity
  8
0
100
AcDbVertex
100
AcDbPolygonMeshVertex
 10
0.04621
 20
-2.0575
 30
2.06
 70
    64
  0
VERTEX
  5
640F5
100
AcDbEntity
  8
0
100
AcDbVertex
100
AcDbPolygonMeshVertex
 10
0.04621
 20
-1.8455
 30
2.319
 70
    64
  0
VERTEX
  5
640F6
100
AcDbEntity
  8
0
100
AcDbVertex
100
AcDbPolygonMeshVertex
 10
0.04621
 20
-1.8455
 30
2.06
 70
    64
  0
VERTEX
  5
640F7
100
AcDbEntity
  8
0
100
AcDbVertex
100
AcDbPolygonMeshVertex
 10
0.04621
 20
-2.0575
 30
2.06
 70
    64
  0
VERTEX
  5
640F8
100
AcDbEntity
  8
0
100
AcDbVertex
100
AcDbPolygonMeshVertex
 10
1.71921
 20
-1.8455
 30
2.319
 70
    64
  0
VERTEX
  5
640F9
100
AcDbEntity
  8
0
100
AcDbVertex
100
AcDbPolygonMeshVertex
 10
1.71921
 20
-1.8455
 30
2.06
 70
    64
  0
VERTEX
  5
640FA
100
AcDbEntity
  8
0
100
AcDbVertex
100
AcDbPolygonMeshVertex
 10
1.71921
 20
-2.0575
 30
2.06
 70
    64
  0
VERTEX
  5
640FB
100
AcDbEntity
  8
0
100
AcDbVertex
100
AcDbPolygonMeshVertex
 10
1.71921
 20
-1.8455
 30
2.319
 70
    64
  0
VERTEX
  5
640FC
100
AcDbEntity
  8
0
100
AcDbVertex
100
AcDbPolygonMeshVertex
 10
1.71921
 20
-1.8455
 30
2.319
 70
    64
  0
VERTEX
  5
640FD
100
AcDbEntity
  8
0
100
AcDbVertex
100
AcDbPolygonMeshVertex
 10
1.71921
 20
-2.0575
 30
2.319
 70
    64
  0
VERTEX
  5
640FE
100
AcDbEntity
  8
0
100
AcDbVertex
100
AcDbPolygonMeshVertex
 10
0.04621
 20
-1.8455
 30
2.319
 70
    64
  0
VERTEX
  5
640FF
100
AcDbEntity
  8
0
100
AcDbVertex
100
AcDbPolygonMeshVertex
 10
0.04621
 20
-1.8455
 30
2.319
 70
    64
  0
VERTEX
  5
64100
100
AcDbEntity
  8
0
100
AcDbVertex
100
AcDbPolygonMeshVertex
 10
0.04621
 20
-2.0575
 30
2.319
 70
    64
  0
SEQEND
  5
64101
100
AcDbEntity
  8
0
  0
POLYLINE
  5
64102
100
AcDbEntity
  8
0
100
AcDbPolygonMesh
 66
     1
 10
0.0
 20
0.0
 30
0.0
 70
    16
 71
     6
 72
     3
  0
VERTEX
  5
64103
100
AcDbEntity
  8
0
100
AcDbVertex
100
AcDbPolygonMeshVertex
 10
1.76521
 20
-1.9685
 30
2.06
 70
    64
  0
VERTEX
  5
64104
100
AcDbEntity
  8
0
100
AcDbVertex
100
AcDbPolygonMeshVertex
 10
1.76521
 20
-1.9685
 30
1.318
 70
    64
  0
VERTEX
  5
64105
100
AcDbEntity
  8
0
100
AcDbVertex
100
AcDbPolygonMeshVertex
 10
1.76521
 20
-1.9685
 30
1.318
 70
    64
  0
VERTEX
  5
64106
100
AcDbEntity
  8
0
100
AcDbVertex
100
AcDbPolygonMeshVertex
 10
0.00021
 20
-1.9685
 30
2.06
 70
    64
  0
VERTEX
  5
64107
100
AcDbEntity
  8
0
100
AcDbVertex
100
AcDbPolygonMeshVertex
 10
0.00021
 20
-1.9685
 30
1.318
 70
    64
  0
VERTEX
  5
64108
100
AcDbEntity
  8
0
100
AcDbVertex
100
AcDbPolygonMeshVertex
 10
0.00021
 20
-1.9685
 30
1.318
 70
    64
  0
VERTEX
  5
64109
100
AcDbEntity
  8
0
100
AcDbVertex
100
AcDbPolygonMeshVertex
 10
0.00021
 20
0.5215
 30
2.06
 70
    64
  0
VERTEX
  5
6410A
100
AcDbEntity
  8
0
100
AcDbVertex
100
AcDbPolygonMeshVertex
 10
0.00021
 20
0.5215
 30
1.318
 70
    64
  0
VERTEX
  5
6410B
100
AcDbEntity
  8
0
100
AcDbVertex
100
AcDbPolygonMeshVertex
 10
0.00021
 20
-1.9685
 30
1.318
 70
    64
  0
VERTEX
  5
6410C
100
AcDbEntity
  8
0
100
AcDbVertex
100
AcDbPolygonMeshVertex
 10
1.76521
 20
0.5215
 30
2.06
 70
    64
  0
VERTEX
  5
6410D
100
AcDbEntity
  8
0
100
AcDbVertex
100
AcDbPolygonMeshVertex
 10
1.76521
 20
0.5215
 30
1.318
 70
    64
  0
VERTEX
  5
6410E
100
AcDbEntity
  8
0
100
AcDbVertex
100
AcDbPolygonMeshVertex
 10
1.76521
 20
-1.9685
 30
1.318
 70
    64
  0
VERTEX
  5
6410F
100
AcDbEntity
  8
0
100
AcDbVertex
100
AcDbPolygonMeshVertex
 10
1.76521
 20
0.5215
 30
2.06
 70
    64
  0
VERTEX
  5
64110
100
AcDbEntity
  8
0
100
AcDbVertex
100
AcDbPolygonMeshVertex
 10
1.76521
 20
0.5215
 30
2.06
 70
    64
  0
VERTEX
  5
64111
100
AcDbEntity
  8
0
100
AcDbVertex
100
AcDbPolygonMeshVertex
 10
1.76521
 20
-1.9685
 30
2.06
 70
    64
  0
VERTEX
  5
64112
100
AcDbEntity
  8
0
100
AcDbVertex
100
AcDbPolygonMeshVertex
 10
0.00021
 20
0.5215
 30
2.06
 70
    64
  0
VERTEX
  5
64113
100
AcDbEntity
  8
0
100
AcDbVertex
100
AcDbPolygonMeshVertex
 10
0.00021
 20
0.5215
 30
2.06
 70
    64
  0
VERTEX
  5
64114
100
AcDbEntity
  8
0
100
AcDbVertex
100
AcDbPolygonMeshVertex
 10
0.00021
 20
-1.9685
 30
2.06
 70
    64
  0
SEQEND
  5
64115
100
AcDbEntity
  8
0
  0
POLYLINE
  5
64116
100
AcDbEntity
  8
0
100
AcDbPolygonMesh
 66
     1
 10
0.0
 20
0.0
 30
0.0
 70
    16
 71
     6
 72
     3
  0
VERTEX
  5
64117
100
AcDbEntity
  8
0
100
AcDbVertex
100
AcDbPolygonMeshVertex
 10
0.42996
 20
-1.9855
 30
2.929
 70
    64
  0
VERTEX
  5
64118
100
AcDbEntity
  8
0
100
AcDbVertex
100
AcDbPolygonMeshVertex
 10
0.42996
 20
-1.9855
 30
2.319
 70
    64
  0
VERTEX
  5
64119
100
AcDbEntity
  8
0
100
AcDbVertex
100
AcDbPolygonMeshVertex
 10
0.42996
 20
-1.9855
 30
2.319
 70
    64
  0
VERTEX
  5
6411A
100
AcDbEntity
  8
0
100
AcDbVertex
100
AcDbPolygonMeshVertex
 10
0.47596
 20
-1.9855
 30
2.929
 70
    64
  0
VERTEX
  5
6411B
100
AcDbEntity
  8
0
100
AcDbVertex
100
AcDbPolygonMeshVertex
 10
0.47596
 20
-1.9855
 30
2.319
 70
    64
  0
VERTEX
  5
6411C
100
AcDbEntity
  8
0
100
AcDbVertex
100
AcDbPolygonMeshVertex
 10
0.47596
 20
-1.9855
 30
2.319
 70
    64
  0
VERTEX
  5
6411D
100
AcDbEntity
  8
0
100
AcDbVertex
100
AcDbPolygonMeshVertex
 10
0.47596
 20
-1.8455
 30
2.929
 70
    64
  0
VERTEX
  5
6411E
100
AcDbEntity
  8
0
100
AcDbVertex
100
AcDbPolygonMeshVertex
 10
0.47596
 20
-1.8455
 30
2.319
 70
    64
  0
VERTEX
  5
6411F
100
AcDbEntity
  8
0
100
AcDbVertex
100
AcDbPolygonMeshVertex
 10
0.47596
 20
-1.9855
 30
2.319
 70
    64
  0
VERTEX
  5
64120
100
AcDbEntity
  8
0
100
AcDbVertex
100
AcDbPolygonMeshVertex
 10
0.42996
 20
-1.8455
 30
2.929
 70
    64
  0
VERTEX
  5
64121
100
AcDbEntity
  8
0
100
AcDbVertex
100
AcDbPolygonMeshVertex
 10
0.42996
 20
-1.8455
 30
2.319
 70
    64
  0
VERTEX
  5
64122
100
AcDbEntity
  8
0
100
AcDbVertex
100
AcDbPolygonMeshVertex
 10
0.42996
 20
-1.9855
 30
2.319
 70
    64
  0
VERTEX
  5
64123
100
AcDbEntity
  8
0
100
AcDbVertex
100
AcDbPolygonMeshVertex
 10
0.42996
 20
-1.8455
 30
2.929
 70
    64
  0
VERTEX
  5
64124
100
AcDbEntity
  8
0
100
AcDbVertex
100
AcDbPolygonMeshVertex
 10
0.42996
 20
-1.8455
 30
2.929
 70
    64
  0
VERTEX
  5
64125
100
AcDbEntity
  8
0
100
AcDbVertex
100
AcDbPolygonMeshVertex
 10
0.42996
 20
-1.9855
 30
2.929
 70
    64
  0
VERTEX
  5
64126
100
AcDbEntity
  8
0
100
AcDbVertex
100
AcDbPolygonMeshVertex
 10
0.47596
 20
-1.8455
 30
2.929
 70
    64
  0
VERTEX
  5
64127
100
AcDbEntity
  8
0
100
AcDbVertex
100
AcDbPolygonMeshVertex
 10
0.47596
 20
-1.8455
 30
2.929
 70
    64
  0
VERTEX
  5
64128
100
AcDbEntity
  8
0
100
AcDbVertex
100
AcDbPolygonMeshVertex
 10
0.47596
 20
-1.9855
 30
2.929
 70
    64
  0
SEQEND
  5
64129
100
AcDbEntity
  8
0
  0
LINE
  5
6412A
100
AcDbEntity
  8
0
100
AcDbLine
 10
0.90571
 20
-1.8455
 30
2.646
 11
1.28946
 21
-1.8455
 31
2.646
  0
LINE
  5
6412B
100
AcDbEntity
  8
0
100
AcDbLine
 10
1.33546
 20
-1.8455
 30
2.646
 11
1.71921
 21
-1.8455
 31
2.646
  0
LINE
  5
6412C
100
AcDbEntity
  8
0
100
AcDbLine
 10
0.47596
 20
-1.8455
 30
2.646
 11
0.85971
 21
-1.8455
 31
2.646
  0
LINE
  5
6412D
100
AcDbEntity
  8
0
100
AcDbLine
 10
0.04621
 20
-1.8455
 30
2.646
 11
0.42996
 21
-1.8455
 31
2.646
  0
POLYLINE
  5
6412E
100
AcDbEntity
  8
0
100
AcDbPolygonMesh
 66
     1
 10
0.0
 20
0.0
 30
0.0
 70
    16
 71
     6
 72
     3
  0
VERTEX
  5
6412F
100
AcDbEntity
  8
0
100
AcDbVertex
100
AcDbPolygonMeshVertex
 10
0.04621
 20
-1.9855
 30
2.929
 70
    64
  0
VERTEX
  5
64130
100
AcDbEntity
  8
0
100
AcDbVertex
100
AcDbPolygonMeshVertex
 10
0.04621
 20
-1.9855
 30
2.06
 70
    64
  0
VERTEX
  5
64131
100
AcDbEntity
  8
0
100
AcDbVertex
100
AcDbPolygonMeshVertex
 10
0.04621
 20
-1.9855
 30
2.06
 70
    64
  0
VERTEX
  5
64132
100
AcDbEntity
  8
0
100
AcDbVertex
100
AcDbPolygonMeshVertex
 10
0.00021
 20
-1.9855
 30
2.929
 70
    64
  0
VERTEX
  5
64133
100
AcDbEntity
  8
0
100
AcDbVertex
100
AcDbPolygonMeshVertex
 10
0.00021
 20
-1.9855
 30
2.06
 70
    64
  0
VERTEX
  5
64134
100
AcDbEntity
  8
0
100
AcDbVertex
100
AcDbPolygonMeshVertex
 10
0.00021
 20
-1.9855
 30
2.06
 70
    64
  0
VERTEX
  5
64135
100
AcDbEntity
  8
0
100
AcDbVertex
100
AcDbPolygonMeshVertex
 10
0.00021
 20
-1.8455
 30
2.929
 70
    64
  0
VERTEX
  5
64136
100
AcDbEntity
  8
0
100
AcDbVertex
100
AcDbPolygonMeshVertex
 10
0.00021
 20
-1.8455
 30
2.06
 70
    64
  0
VERTEX
  5
64137
100
AcDbEntity
  8
0
100
AcDbVertex
100
AcDbPolygonMeshVertex
 10
0.00021
 20
-1.9855
 30
2.06
 70
    64
  0
VERTEX
  5
64138
100
AcDbEntity
  8
0
100
AcDbVertex
100
AcDbPolygonMeshVertex
 10
0.04621
 20
-1.8455
 30
2.929
 70
    64
  0
VERTEX
  5
64139
100
AcDbEntity
  8
0
100
AcDbVertex
100
AcDbPolygonMeshVertex
 10
0.04621
 20
-1.8455
 30
2.06
 70
    64
  0
VERTEX
  5
6413A
100
AcDbEntity
  8
0
100
AcDbVertex
100
AcDbPolygonMeshVertex
 10
0.04621
 20
-1.9855
 30
2.06
 70
    64
  0
VERTEX
  5
6413B
100
AcDbEntity
  8
0
100
AcDbVertex
100
AcDbPolygonMeshVertex
 10
0.04621
 20
-1.8455
 30
2.929
 70
    64
  0
VERTEX
  5
6413C
100
AcDbEntity
  8
0
100
AcDbVertex
100
AcDbPolygonMeshVertex
 10
0.04621
 20
-1.8455
 30
2.929
 70
    64
  0
VERTEX
  5
6413D
100
AcDbEntity
  8
0
100
AcDbVertex
100
AcDbPolygonMeshVertex
 10
0.04621
 20
-1.9855
 30
2.929
 70
    64
  0
VERTEX
  5
6413E
100
AcDbEntity
  8
0
100
AcDbVertex
100
AcDbPolygonMeshVertex
 10
0.00021
 20
-1.8455
 30
2.929
 70
    64
  0
VERTEX
  5
6413F
100
AcDbEntity
  8
0
100
AcDbVertex
100
AcDbPolygonMeshVertex
 10
0.00021
 20
-1.8455
 30
2.929
 70
    64
  0
VERTEX
  5
64140
100
AcDbEntity
  8
0
100
AcDbVertex
100
AcDbPolygonMeshVertex
 10
0.00021
 20
-1.9855
 30
2.929
 70
    64
  0
SEQEND
  5
64141
100
AcDbEntity
  8
0
  0
POLYLINE
  5
64142
100
AcDbEntity
  8
0
100
AcDbPolygonMesh
 66
     1
 10
0.0
 20
0.0
 30
0.0
 70
    16
 71
     6
 72
     3
  0
VERTEX
  5
64143
100
AcDbEntity
  8
0
100
AcDbVertex
100
AcDbPolygonMeshVertex
 10
1.76521
 20
-1.9855
 30
2.929
 70
    64
  0
VERTEX
  5
64144
100
AcDbEntity
  8
0
100
AcDbVertex
100
AcDbPolygonMeshVertex
 10
1.76521
 20
-1.9855
 30
2.06
 70
    64
  0
VERTEX
  5
64145
100
AcDbEntity
  8
0
100
AcDbVertex
100
AcDbPolygonMeshVertex
 10
1.76521
 20
-1.9855
 30
2.06
 70
    64
  0
VERTEX
  5
64146
100
AcDbEntity
  8
0
100
AcDbVertex
100
AcDbPolygonMeshVertex
 10
1.71921
 20
-1.9855
 30
2.929
 70
    64
  0
VERTEX
  5
64147
100
AcDbEntity
  8
0
100
AcDbVertex
100
AcDbPolygonMeshVertex
 10
1.71921
 20
-1.9855
 30
2.06
 70
    64
  0
VERTEX
  5
64148
100
AcDbEntity
  8
0
100
AcDbVertex
100
AcDbPolygonMeshVertex
 10
1.71921
 20
-1.9855
 30
2.06
 70
    64
  0
VERTEX
  5
64149
100
AcDbEntity
  8
0
100
AcDbVertex
100
AcDbPolygonMeshVertex
 10
1.71921
 20
-1.8455
 30
2.929
 70
    64
  0
VERTEX
  5
6414A
100
AcDbEntity
  8
0
100
AcDbVertex
100
AcDbPolygonMeshVertex
 10
1.71921
 20
-1.8455
 30
2.06
 70
    64
  0
VERTEX
  5
6414B
100
AcDbEntity
  8
0
100
AcDbVertex
100
AcDbPolygonMeshVertex
 10
1.71921
 20
-1.9855
 30
2.06
 70
    64
  0
VERTEX
  5
6414C
100
AcDbEntity
  8
0
100
AcDbVertex
100
AcDbPolygonMeshVertex
 10
1.76521
 20
-1.8455
 30
2.929
 70
    64
  0
VERTEX
  5
6414D
100
AcDbEntity
  8
0
100
AcDbVertex
100
AcDbPolygonMeshVertex
 10
1.76521
 20
-1.8455
 30
2.06
 70
    64
  0
VERTEX
  5
6414E
100
AcDbEntity
  8
0
100
AcDbVertex
100
AcDbPolygonMeshVertex
 10
1.76521
 20
-1.9855
 30
2.06
 70
    64
  0
VERTEX
  5
6414F
100
AcDbEntity
  8
0
100
AcDbVertex
100
AcDbPolygonMeshVertex
 10
1.76521
 20
-1.8455
 30
2.929
 70
    64
  0
VERTEX
  5
64150
100
AcDbEntity
  8
0
100
AcDbVertex
100
AcDbPolygonMeshVertex
 10
1.76521
 20
-1.8455
 30
2.929
 70
    64
  0
VERTEX
  5
64151
100
AcDbEntity
  8
0
100
AcDbVertex
100
AcDbPolygonMeshVertex
 10
1.76521
 20
-1.9855
 30
2.929
 70
    64
  0
VERTEX
  5
64152
100
AcDbEntity
  8
0
100
AcDbVertex
100
AcDbPolygonMeshVertex
 10
1.71921
 20
-1.8455
 30
2.929
 70
    64
  0
VERTEX
  5
64153
100
AcDbEntity
  8
0
100
AcDbVertex
100
AcDbPolygonMeshVertex
 10
1.71921
 20
-1.8455
 30
2.929
 70
    64
  0
VERTEX
  5
64154
100
AcDbEntity
  8
0
100
AcDbVertex
100
AcDbPolygonMeshVertex
 10
1.71921
 20
-1.9855
 30
2.929
 70
    64
  0
SEQEND
  5
64155
100
AcDbEntity
  8
0
  0
POLYLINE
  5
64156
100
AcDbEntity
  8
0
100
AcDbPolygonMesh
 66
     1
 10
0.0
 20
0.0
 30
0.0
 70
    16
 71
     6
 72
     3
  0
VERTEX
  5
64157
100
AcDbEntity
  8
0
100
AcDbVertex
100
AcDbPolygonMeshVertex
 10
1.76521
 20
0.5385
 30
2.929
 70
    64
  0
VERTEX
  5
64158
100
AcDbEntity
  8
0
100
AcDbVertex
100
AcDbPolygonMeshVertex
 10
1.76521
 20
0.5385
 30
2.06
 70
    64
  0
VERTEX
  5
64159
100
AcDbEntity
  8
0
100
AcDbVertex
100
AcDbPolygonMeshVertex
 10
1.76521
 20
0.5385
 30
2.06
 70
    64
  0
VERTEX
  5
6415A
100
AcDbEntity
  8
0
100
AcDbVertex
100
AcDbPolygonMeshVertex
 10
1.71921
 20
0.5385
 30
2.929
 70
    64
  0
VERTEX
  5
6415B
100
AcDbEntity
  8
0
100
AcDbVertex
100
AcDbPolygonMeshVertex
 10
1.71921
 20
0.5385
 30
2.06
 70
    64
  0
VERTEX
  5
6415C
100
AcDbEntity
  8
0
100
AcDbVertex
100
AcDbPolygonMeshVertex
 10
1.71921
 20
0.5385
 30
2.06
 70
    64
  0
VERTEX
  5
6415D
100
AcDbEntity
  8
0
100
AcDbVertex
100
AcDbPolygonMeshVertex
 10
1.71921
 20
0.3985
 30
2.929
 70
    64
  0
VERTEX
  5
6415E
100
AcDbEntity
  8
0
100
AcDbVertex
100
AcDbPolygonMeshVertex
 10
1.71921
 20
0.3985
 30
2.06
 70
    64
  0
VERTEX
  5
6415F
100
AcDbEntity
  8
0
100
AcDbVertex
100
AcDbPolygonMeshVertex
 10
1.71921
 20
0.5385
 30
2.06
 70
    64
  0
VERTEX
  5
64160
100
AcDbEntity
  8
0
100
AcDbVertex
100
AcDbPolygonMeshVertex
 10
1.76521
 20
0.3985
 30
2.929
 70
    64
  0
VERTEX
  5
64161
100
AcDbEntity
  8
0
100
AcDbVertex
100
AcDbPolygonMeshVertex
 10
1.76521
 20
0.3985
 30
2.06
 70
    64
  0
VERTEX
  5
64162
100
AcDbEntity
  8
0
100
AcDbVertex
100
AcDbPolygonMeshVertex
 10
1.76521
 20
0.5385
 30
2.06
 70
    64
  0
VERTEX
  5
64163
100
AcDbEntity
  8
0
100
AcDbVertex
100
AcDbPolygonMeshVertex
 10
1.76521
 20
0.3985
 30
2.929
 70
    64
  0
VERTEX
  5
64164
100
AcDbEntity
  8
0
100
AcDbVertex
100
AcDbPolygonMeshVertex
 10
1.76521
 20
0.3985
 30
2.929
 70
    64
  0
VERTEX
  5
64165
100
AcDbEntity
  8
0
100
AcDbVertex
100
AcDbPolygonMeshVertex
 10
1.76521
 20
0.5385
 30
2.929
 70
    64
  0
VERTEX
  5
64166
100
AcDbEntity
  8
0
100
AcDbVertex
100
AcDbPolygonMeshVertex
 10
1.71921
 20
0.3985
 30
2.929
 70
    64
  0
VERTEX
  5
64167
100
AcDbEntity
  8
0
100
AcDbVertex
100
AcDbPolygonMeshVertex
 10
1.71921
 20
0.3985
 30
2.929
 70
    64
  0
VERTEX
  5
64168
100
AcDbEntity
  8
0
100
AcDbVertex
100
AcDbPolygonMeshVertex
 10
1.71921
 20
0.5385
 30
2.929
 70
    64
  0
SEQEND
  5
64169
100
AcDbEntity
  8
0
  0
LINE
  5
6416A
100
AcDbEntity
  8
0
100
AcDbLine
 10
1.33546
 20
0.3985
 30
2.646
 11
1.71921
 21
0.3985
 31
2.646
  0
POLYLINE
  5
6416B
100
AcDbEntity
  8
0
100
AcDbPolygonMesh
 66
     1
 10
0.0
 20
0.0
 30
0.0
 70
    16
 71
     6
 72
     3
  0
VERTEX
  5
6416C
100
AcDbEntity
  8
0
100
AcDbVertex
100
AcDbPolygonMeshVertex
 10
1.33546
 20
0.5385
 30
2.929
 70
    64
  0
VERTEX
  5
6416D
100
AcDbEntity
  8
0
100
AcDbVertex
100
AcDbPolygonMeshVertex
 10
1.33546
 20
0.5385
 30
2.319
 70
    64
  0
VERTEX
  5
6416E
100
AcDbEntity
  8
0
100
AcDbVertex
100
AcDbPolygonMeshVertex
 10
1.33546
 20
0.5385
 30
2.319
 70
    64
  0
VERTEX
  5
6416F
100
AcDbEntity
  8
0
100
AcDbVertex
100
AcDbPolygonMeshVertex
 10
1.28946
 20
0.5385
 30
2.929
 70
    64
  0
VERTEX
  5
64170
100
AcDbEntity
  8
0
100
AcDbVertex
100
AcDbPolygonMeshVertex
 10
1.28946
 20
0.5385
 30
2.319
 70
    64
  0
VERTEX
  5
64171
100
AcDbEntity
  8
0
100
AcDbVertex
100
AcDbPolygonMeshVertex
 10
1.28946
 20
0.5385
 30
2.319
 70
    64
  0
VERTEX
  5
64172
100
AcDbEntity
  8
0
100
AcDbVertex
100
AcDbPolygonMeshVertex
 10
1.28946
 20
0.3985
 30
2.929
 70
    64
  0
VERTEX
  5
64173
100
AcDbEntity
  8
0
100
AcDbVertex
100
AcDbPolygonMeshVertex
 10
1.28946
 20
0.3985
 30
2.319
 70
    64
  0
VERTEX
  5
64174
100
AcDbEntity
  8
0
100
AcDbVertex
100
AcDbPolygonMeshVertex
 10
1.28946
 20
0.5385
 30
2.319
 70
    64
  0
VERTEX
  5
64175
100
AcDbEntity
  8
0
100
AcDbVertex
100
AcDbPolygonMeshVertex
 10
1.33546
 20
0.3985
 30
2.929
 70
    64
  0
VERTEX
  5
64176
100
AcDbEntity
  8
0
100
AcDbVertex
100
AcDbPolygonMeshVertex
 10
1.33546
 20
0.3985
 30
2.319
 70
    64
  0
VERTEX
  5
64177
100
AcDbEntity
  8
0
100
AcDbVertex
100
AcDbPolygonMeshVertex
 10
1.33546
 20
0.5385
 30
2.319
 70
    64
  0
VERTEX
  5
64178
100
AcDbEntity
  8
0
100
AcDbVertex
100
AcDbPolygonMeshVertex
 10
1.33546
 20
0.3985
 30
2.929
 70
    64
  0
VERTEX
  5
64179
100
AcDbEntity
  8
0
100
AcDbVertex
100
AcDbPolygonMeshVertex
 10
1.33546
 20
0.3985
 30
2.929
 70
    64
  0
VERTEX
  5
6417A
100
AcDbEntity
  8
0
100
AcDbVertex
100
AcDbPolygonMeshVertex
 10
1.33546
 20
0.5385
 30
2.929
 70
    64
  0
VERTEX
  5
6417B
100
AcDbEntity
  8
0
100
AcDbVertex
100
AcDbPolygonMeshVertex
 10
1.28946
 20
0.3985
 30
2.929
 70
    64
  0
VERTEX
  5
6417C
100
AcDbEntity
  8
0
100
AcDbVertex
100
AcDbPolygonMeshVertex
 10
1.28946
 20
0.3985
 30
2.929
 70
    64
  0
VERTEX
  5
6417D
100
AcDbEntity
  8
0
100
AcDbVertex
100
AcDbPolygonMeshVertex
 10
1.28946
 20
0.5385
 30
2.929
 70
    64
  0
SEQEND
  5
6417E
100
AcDbEntity
  8
0
  0
LINE
  5
6417F
100
AcDbEntity
  8
0
100
AcDbLine
 10
0.90571
 20
0.3985
 30
2.646
 11
1.28946
 21
0.3985
 31
2.646
  0
POLYLINE
  5
64180
100
AcDbEntity
  8
0
100
AcDbPolygonMesh
 66
     1
 10
0.0
 20
0.0
 30
0.0
 70
    16
 71
     6
 72
     3
  0
VERTEX
  5
64181
100
AcDbEntity
  8
0
100
AcDbVertex
100
AcDbPolygonMeshVertex
 10
0.90571
 20
0.5385
 30
2.929
 70
    64
  0
VERTEX
  5
64182
100
AcDbEntity
  8
0
100
AcDbVertex
100
AcDbPolygonMeshVertex
 10
0.90571
 20
0.5385
 30
2.319
 70
    64
  0
VERTEX
  5
64183
100
AcDbEntity
  8
0
100
AcDbVertex
100
AcDbPolygonMeshVertex
 10
0.90571
 20
0.5385
 30
2.319
 70
    64
  0
VERTEX
  5
64184
100
AcDbEntity
  8
0
100
AcDbVertex
100
AcDbPolygonMeshVertex
 10
0.85971
 20
0.5385
 30
2.929
 70
    64
  0
VERTEX
  5
64185
100
AcDbEntity
  8
0
100
AcDbVertex
100
AcDbPolygonMeshVertex
 10
0.85971
 20
0.5385
 30
2.319
 70
    64
  0
VERTEX
  5
64186
100
AcDbEntity
  8
0
100
AcDbVertex
100
AcDbPolygonMeshVertex
 10
0.85971
 20
0.5385
 30
2.319
 70
    64
  0
VERTEX
  5
64187
100
AcDbEntity
  8
0
100
AcDbVertex
100
AcDbPolygonMeshVertex
 10
0.85971
 20
0.3985
 30
2.929
 70
    64
  0
VERTEX
  5
64188
100
AcDbEntity
  8
0
100
AcDbVertex
100
AcDbPolygonMeshVertex
 10
0.85971
 20
0.3985
 30
2.319
 70
    64
  0
VERTEX
  5
64189
100
AcDbEntity
  8
0
100
AcDbVertex
100
AcDbPolygonMeshVertex
 10
0.85971
 20
0.5385
 30
2.319
 70
    64
  0
VERTEX
  5
6418A
100
AcDbEntity
  8
0
100
AcDbVertex
100
AcDbPolygonMeshVertex
 10
0.90571
 20
0.3985
 30
2.929
 70
    64
  0
VERTEX
  5
6418B
100
AcDbEntity
  8
0
100
AcDbVertex
100
AcDbPolygonMeshVertex
 10
0.90571
 20
0.3985
 30
2.319
 70
    64
  0
VERTEX
  5
6418C
100
AcDbEntity
  8
0
100
AcDbVertex
100
AcDbPolygonMeshVertex
 10
0.90571
 20
0.5385
 30
2.319
 70
    64
  0
VERTEX
  5
6418D
100
AcDbEntity
  8
0
100
AcDbVertex
100
AcDbPolygonMeshVertex
 10
0.90571
 20
0.3985
 30
2.929
 70
    64
  0
VERTEX
  5
6418E
100
AcDbEntity
  8
0
100
AcDbVertex
100
AcDbPolygonMeshVertex
 10
0.90571
 20
0.3985
 30
2.929
 70
    64
  0
VERTEX
  5
6418F
100
AcDbEntity
  8
0
100
AcDbVertex
100
AcDbPolygonMeshVertex
 10
0.90571
 20
0.5385
 30
2.929
 70
    64
  0
VERTEX
  5
64190
100
AcDbEntity
  8
0
100
AcDbVertex
100
AcDbPolygonMeshVertex
 10
0.85971
 20
0.3985
 30
2.929
 70
    64
  0
VERTEX
  5
64191
100
AcDbEntity
  8
0
100
AcDbVertex
100
AcDbPolygonMeshVertex
 10
0.85971
 20
0.3985
 30
2.929
 70
    64
  0
VERTEX
  5
64192
100
AcDbEntity
  8
0
100
AcDbVertex
100
AcDbPolygonMeshVertex
 10
0.85971
 20
0.5385
 30
2.929
 70
    64
  0
SEQEND
  5
64193
100
AcDbEntity
  8
0
  0
POLYLINE
  5
64194
100
AcDbEntity
  8
0
100
AcDbPolygonMesh
 66
     1
 10
0.0
 20
0.0
 30
0.0
 70
    16
 71
     6
 72
     3
  0
VERTEX
  5
64195
100
AcDbEntity
  8
0
100
AcDbVertex
100
AcDbPolygonMeshVertex
 10
0.42996
 20
0.5385
 30
2.929
 70
    64
  0
VERTEX
  5
64196
100
AcDbEntity
  8
0
100
AcDbVertex
100
AcDbPolygonMeshVertex
 10
0.42996
 20
0.5385
 30
2.319
 70
    64
  0
VERTEX
  5
64197
100
AcDbEntity
  8
0
100
AcDbVertex
100
AcDbPolygonMeshVertex
 10
0.42996
 20
0.5385
 30
2.319
 70
    64
  0
VERTEX
  5
64198
100
AcDbEntity
  8
0
100
AcDbVertex
100
AcDbPolygonMeshVertex
 10
0.47596
 20
0.5385
 30
2.929
 70
    64
  0
VERTEX
  5
64199
100
AcDbEntity
  8
0
100
AcDbVertex
100
AcDbPolygonMeshVertex
 10
0.47596
 20
0.5385
 30
2.319
 70
    64
  0
VERTEX
  5
6419A
100
AcDbEntity
  8
0
100
AcDbVertex
100
AcDbPolygonMeshVertex
 10
0.47596
 20
0.5385
 30
2.319
 70
    64
  0
VERTEX
  5
6419B
100
AcDbEntity
  8
0
100
AcDbVertex
100
AcDbPolygonMeshVertex
 10
0.47596
 20
0.3985
 30
2.929
 70
    64
  0
VERTEX
  5
6419C
100
AcDbEntity
  8
0
100
AcDbVertex
100
AcDbPolygonMeshVertex
 10
0.47596
 20
0.3985
 30
2.319
 70
    64
  0
VERTEX
  5
6419D
100
AcDbEntity
  8
0
100
AcDbVertex
100
AcDbPolygonMeshVertex
 10
0.47596
 20
0.5385
 30
2.319
 70
    64
  0
VERTEX
  5
6419E
100
AcDbEntity
  8
0
100
AcDbVertex
100
AcDbPolygonMeshVertex
 10
0.42996
 20
0.3985
 30
2.929
 70
    64
  0
VERTEX
  5
6419F
100
AcDbEntity
  8
0
100
AcDbVertex
100
AcDbPolygonMeshVertex
 10
0.42996
 20
0.3985
 30
2.319
 70
    64
  0
VERTEX
  5
641A0
100
AcDbEntity
  8
0
100
AcDbVertex
100
AcDbPolygonMeshVertex
 10
0.42996
 20
0.5385
 30
2.319
 70
    64
  0
VERTEX
  5
641A1
100
AcDbEntity
  8
0
100
AcDbVertex
100
AcDbPolygonMeshVertex
 10
0.42996
 20
0.3985
 30
2.929
 70
    64
  0
VERTEX
  5
641A2
100
AcDbEntity
  8
0
100
AcDbVertex
100
AcDbPolygonMeshVertex
 10
0.42996
 20
0.3985
 30
2.929
 70
    64
  0
VERTEX
  5
641A3
100
AcDbEntity
  8
0
100
AcDbVertex
100
AcDbPolygonMeshVertex
 10
0.42996
 20
0.5385
 30
2.929
 70
    64
  0
VERTEX
  5
641A4
100
AcDbEntity
  8
0
100
AcDbVertex
100
AcDbPolygonMeshVertex
 10
0.47596
 20
0.3985
 30
2.929
 70
    64
  0
VERTEX
  5
641A5
100
AcDbEntity
  8
0
100
AcDbVertex
100
AcDbPolygonMeshVertex
 10
0.47596
 20
0.3985
 30
2.929
 70
    64
  0
VERTEX
  5
641A6
100
AcDbEntity
  8
0
100
AcDbVertex
100
AcDbPolygonMeshVertex
 10
0.47596
 20
0.5385
 30
2.929
 70
    64
  0
SEQEND
  5
641A7
100
AcDbEntity
  8
0
  0
LINE
  5
641A8
100
AcDbEntity
  8
0
100
AcDbLine
 10
0.04621
 20
0.3985
 30
2.646
 11
0.42996
 21
0.3985
 31
2.646
  0
LINE
  5
641A9
100
AcDbEntity
  8
0
100
AcDbLine
 10
0.47596
 20
0.3985
 30
2.646
 11
0.85971
 21
0.3985
 31
2.646
  0
POLYLINE
  5
641AA
100
AcDbEntity
  8
0
100
AcDbPolygonMesh
 66
     1
 10
0.0
 20
0.0
 30
0.0
 70
    16
 71
     6
 72
     3
  0
VERTEX
  5
641AB
100
AcDbEntity
  8
0
100
AcDbVertex
100
AcDbPolygonMeshVertex
 10
0.04621
 20
0.5385
 30
2.929
 70
    64
  0
VERTEX
  5
641AC
100
AcDbEntity
  8
0
100
AcDbVertex
100
AcDbPolygonMeshVertex
 10
0.04621
 20
0.5385
 30
2.06
 70
    64
  0
VERTEX
  5
641AD
100
AcDbEntity
  8
0
100
AcDbVertex
100
AcDbPolygonMeshVertex
 10
0.04621
 20
0.5385
 30
2.06
 70
    64
  0
VERTEX
  5
641AE
100
AcDbEntity
  8
0
100
AcDbVertex
100
AcDbPolygonMeshVertex
 10
0.00021
 20
0.5385
 30
2.929
 70
    64
  0
VERTEX
  5
641AF
100
AcDbEntity
  8
0
100
AcDbVertex
100
AcDbPolygonMeshVertex
 10
0.00021
 20
0.5385
 30
2.06
 70
    64
  0
VERTEX
  5
641B0
100
AcDbEntity
  8
0
100
AcDbVertex
100
AcDbPolygonMeshVertex
 10
0.00021
 20
0.5385
 30
2.06
 70
    64
  0
VERTEX
  5
641B1
100
AcDbEntity
  8
0
100
AcDbVertex
100
AcDbPolygonMeshVertex
 10
0.00021
 20
0.3985
 30
2.929
 70
    64
  0
VERTEX
  5
641B2
100
AcDbEntity
  8
0
100
AcDbVertex
100
AcDbPolygonMeshVertex
 10
0.00021
 20
0.3985
 30
2.06
 70
    64
  0
VERTEX
  5
641B3
100
AcDbEntity
  8
0
100
AcDbVertex
100
AcDbPolygonMeshVertex
 10
0.00021
 20
0.5385
 30
2.06
 70
    64
  0
VERTEX
  5
641B4
100
AcDbEntity
  8
0
100
AcDbVertex
100
AcDbPolygonMeshVertex
 10
0.04621
 20
0.3985
 30
2.929
 70
    64
  0
VERTEX
  5
641B5
100
AcDbEntity
  8
0
100
AcDbVertex
100
AcDbPolygonMeshVertex
 10
0.04621
 20
0.3985
 30
2.06
 70
    64
  0
VERTEX
  5
641B6
100
AcDbEntity
  8
0
100
AcDbVertex
100
AcDbPolygonMeshVertex
 10
0.04621
 20
0.5385
 30
2.06
 70
    64
  0
VERTEX
  5
641B7
100
AcDbEntity
  8
0
100
AcDbVertex
100
AcDbPolygonMeshVertex
 10
0.04621
 20
0.3985
 30
2.929
 70
    64
  0
VERTEX
  5
641B8
100
AcDbEntity
  8
0
100
AcDbVertex
100
AcDbPolygonMeshVertex
 10
0.04621
 20
0.3985
 30
2.929
 70
    64
  0
VERTEX
  5
641B9
100
AcDbEntity
  8
0
100
AcDbVertex
100
AcDbPolygonMeshVertex
 10
0.04621
 20
0.5385
 30
2.929
 70
    64
  0
VERTEX
  5
641BA
100
AcDbEntity
  8
0
100
AcDbVertex
100
AcDbPolygonMeshVertex
 10
0.00021
 20
0.3985
 30
2.929
 70
    64
  0
VERTEX
  5
641BB
100
AcDbEntity
  8
0
100
AcDbVertex
100
AcDbPolygonMeshVertex
 10
0.00021
 20
0.3985
 30
2.929
 70
    64
  0
VERTEX
  5
641BC
100
AcDbEntity
  8
0
100
AcDbVertex
100
AcDbPolygonMeshVertex
 10
0.00021
 20
0.5385
 30
2.929
 70
    64
  0
SEQEND
  5
641BD
100
AcDbEntity
  8
0
  0
POLYLINE
  5
641BE
100
AcDbEntity
  8
0
100
AcDbPolygonMesh
 66
     1
 10
0.0
 20
0.0
 30
0.0
 70
    16
 71
     6
 72
     3
  0
VERTEX
  5
641BF
100
AcDbEntity
  8
0
100
AcDbVertex
100
AcDbPolygonMeshVertex
 10
1.71921
 20
0.6105
 30
2.319
 70
    64
  0
VERTEX
  5
641C0
100
AcDbEntity
  8
0
100
AcDbVertex
100
AcDbPolygonMeshVertex
 10
1.71921
 20
0.6105
 30
2.06
 70
    64
  0
VERTEX
  5
641C1
100
AcDbEntity
  8
0
100
AcDbVertex
100
AcDbPolygonMeshVertex
 10
1.71921
 20
0.6105
 30
2.06
 70
    64
  0
VERTEX
  5
641C2
100
AcDbEntity
  8
0
100
AcDbVertex
100
AcDbPolygonMeshVertex
 10
0.04621
 20
0.6105
 30
2.319
 70
    64
  0
VERTEX
  5
641C3
100
AcDbEntity
  8
0
100
AcDbVertex
100
AcDbPolygonMeshVertex
 10
0.04621
 20
0.6105
 30
2.06
 70
    64
  0
VERTEX
  5
641C4
100
AcDbEntity
  8
0
100
AcDbVertex
100
AcDbPolygonMeshVertex
 10
0.04621
 20
0.6105
 30
2.06
 70
    64
  0
VERTEX
  5
641C5
100
AcDbEntity
  8
0
100
AcDbVertex
100
AcDbPolygonMeshVertex
 10
0.04621
 20
0.3985
 30
2.319
 70
    64
  0
VERTEX
  5
641C6
100
AcDbEntity
  8
0
100
AcDbVertex
100
AcDbPolygonMeshVertex
 10
0.04621
 20
0.3985
 30
2.06
 70
    64
  0
VERTEX
  5
641C7
100
AcDbEntity
  8
0
100
AcDbVertex
100
AcDbPolygonMeshVertex
 10
0.04621
 20
0.6105
 30
2.06
 70
    64
  0
VERTEX
  5
641C8
100
AcDbEntity
  8
0
100
AcDbVertex
100
AcDbPolygonMeshVertex
 10
1.71921
 20
0.3985
 30
2.319
 70
    64
  0
VERTEX
  5
641C9
100
AcDbEntity
  8
0
100
AcDbVertex
100
AcDbPolygonMeshVertex
 10
1.71921
 20
0.3985
 30
2.06
 70
    64
  0
VERTEX
  5
641CA
100
AcDbEntity
  8
0
100
AcDbVertex
100
AcDbPolygonMeshVertex
 10
1.71921
 20
0.6105
 30
2.06
 70
    64
  0
VERTEX
  5
641CB
100
AcDbEntity
  8
0
100
AcDbVertex
100
AcDbPolygonMeshVertex
 10
1.71921
 20
0.3985
 30
2.319
 70
    64
  0
VERTEX
  5
641CC
100
AcDbEntity
  8
0
100
AcDbVertex
100
AcDbPolygonMeshVertex
 10
1.71921
 20
0.3985
 30
2.319
 70
    64
  0
VERTEX
  5
641CD
100
AcDbEntity
  8
0
100
AcDbVertex
100
AcDbPolygonMeshVertex
 10
1.71921
 20
0.6105
 30
2.319
 70
    64
  0
VERTEX
  5
641CE
100
AcDbEntity
  8
0
100
AcDbVertex
100
AcDbPolygonMeshVertex
 10
0.04621
 20
0.3985
 30
2.319
 70
    64
  0
VERTEX
  5
641CF
100
AcDbEntity
  8
0
100
AcDbVertex
100
AcDbPolygonMeshVertex
 10
0.04621
 20
0.3985
 30
2.319
 70
    64
  0
VERTEX
  5
641D0
100
AcDbEntity
  8
0
100
AcDbVertex
100
AcDbPolygonMeshVertex
 10
0.04621
 20
0.6105
 30
2.319
 70
    64
  0
SEQEND
  5
641D1
100
AcDbEntity
  8
0
  0
TEXT
  5
641D2
100
AcDbEntity
  8
0
100
AcDbText
 39
0.0
 10
0.364847
 20
0.854582
 30
2.06
 40
0.083465
  1
A1
100
AcDbText
  0
TEXT
  5
641D3
100
AcDbEntity
  8
0
100
AcDbText
 39
0.0
 10
1.285828
 20
0.853741
 30
2.06
 40
0.083465
  1
A2
100
AcDbText
  0
LINE
  5
641D4
100
AcDbEntity
  8
0
100
AcDbLine
 10
0.652934
 20
-1.9685
 30
0.0
 11
0.8636
 21
-1.9685
 31
0.0
  0
POLYLINE
  5
641D5
100
AcDbEntity
  8
0
100
AcDb3dPolyline
 66
     1
 10
0.0
 20
0.0
 30
0.0
 70
     8
  0
VERTEX
  5
641D6
100
AcDbEntity
  8
0
100
AcDbVertex
100
AcDb3dPolylineVertex
 10
0.652934
 20
-1.9685
 30
0.0
 70
    32
  0
VERTEX
  5
641D7
100
AcDbEntity
  8
0
100
AcDbVertex
100
AcDb3dPolylineVertex
 10
0.652934
 20
-2.1035
 30
0.0
 70
    32
  0
VERTEX
  5
641D8
100
AcDbEntity
  8
0
100
AcDbVertex
100
AcDb3dPolylineVertex
 10
0.8636
 20
-2.1035
 30
0.0
 70
    32
  0
VERTEX
  5
641D9
100
AcDbEntity
  8
0
100
AcDbVertex
100
AcDb3dPolylineVertex
 10
0.8636
 20
-1.9685
 30
0.0
 70
    32
  0
SEQEND
  5
641DA
100
AcDbEntity
  8
0
  0
POLYLINE
  5
641DB
100
AcDbEntity
  8
0
100
AcDb3dPolyline
 66
     1
 10
0.0
 20
0.0
 30
0.0
 70
     8
  0
VERTEX
  5
641DC
100
AcDbEntity
  8
0
100
AcDbVertex
100
AcDb3dPolylineVertex
 10
0.581143
 20
-1.9685
 30
0.187
 70
    32
  0
VERTEX
  5
641DD
100
AcDbEntity
  8
0
100
AcDbVertex
100
AcDb3dPolylineVertex
 10
0.581143
 20
-2.1035
 30
0.187
 70
    32
  0
VERTEX
  5
641DE
100
AcDbEntity
  8
0
100
AcDbVertex
100
AcDb3dPolylineVertex
 10
0.79181
 20
-2.1035
 30
0.187
 70
    32
  0
VERTEX
  5
641DF
100
AcDbEntity
  8
0
100
AcDbVertex
100
AcDb3dPolylineVertex
 10
0.79181
 20
-1.9685
 30
0.187
 70
    32
  0
SEQEND
  5
641E0
100
AcDbEntity
  8
0
  0
POLYLINE
  5
641E1
100
AcDbEntity
  8
0
100
AcDbPolygonMesh
 66
     1
 10
0.0
 20
0.0
 30
0.0
 70
    16
 71
     6
 72
     3
  0
VERTEX
  5
641E2
100
AcDbEntity
  8
0
100
AcDbVertex
100
AcDbPolygonMeshVertex
 10
0.85381
 20
-2.1655
 30
0.187
 70
    64
  0
VERTEX
  5
641E3
100
AcDbEntity
  8
0
100
AcDbVertex
100
AcDbPolygonMeshVertex
 10
0.85381
 20
-2.1655
 30
0.0
 70
    64
  0
VERTEX
  5
641E4
100
AcDbEntity
  8
0
100
AcDbVertex
100
AcDbPolygonMeshVertex
 10
0.85381
 20
-2.1655
 30
0.0
 70
    64
  0
VERTEX
  5
641E5
100
AcDbEntity
  8
0
100
AcDbVertex
100
AcDbPolygonMeshVertex
 10
0.246476
 20
-2.1655
 30
0.187
 70
    64
  0
VERTEX
  5
641E6
100
AcDbEntity
  8
0
100
AcDbVertex
100
AcDbPolygonMeshVertex
 10
0.246476
 20
-2.1655
 30
0.0
 70
    64
  0
VERTEX
  5
641E7
100
AcDbEntity
  8
0
100
AcDbVertex
100
AcDbPolygonMeshVertex
 10
0.246476
 20
-2.1655
 30
0.0
 70
    64
  0
VERTEX
  5
641E8
100
AcDbEntity
  8
0
100
AcDbVertex
100
AcDbPolygonMeshVertex
 10
0.246476
 20
-2.1035
 30
0.187
 70
    64
  0
VERTEX
  5
641E9
100
AcDbEntity
  8
0
100
AcDbVertex
100
AcDbPolygonMeshVertex
 10
0.246476
 20
-2.1035
 30
0.0
 70
    64
  0
VERTEX
  5
641EA
100
AcDbEntity
  8
0
100
AcDbVertex
100
AcDbPolygonMeshVertex
 10
0.246476
 20
-2.1655
 30
0.0
 70
    64
  0
VERTEX
  5
641EB
100
AcDbEntity
  8
0
100
AcDbVertex
100
AcDbPolygonMeshVertex
 10
0.85381
 20
-2.1035
 30
0.187
 70
    64
  0
VERTEX
  5
641EC
100
AcDbEntity
  8
0
100
AcDbVertex
100
AcDbPolygonMeshVertex
 10
0.85381
 20
-2.1035
 30
0.0
 70
    64
  0
VERTEX
  5
641ED
100
AcDbEntity
  8
0
100
AcDbVertex
100
AcDbPolygonMeshVertex
 10
0.85381
 20
-2.1655
 30
0.0
 70
    64
  0
VERTEX
  5
641EE
100
AcDbEntity
  8
0
100
AcDbVertex
100
AcDbPolygonMeshVertex
 10
0.85381
 20
-2.1035
 30
0.187
 70
    64
  0
VERTEX
  5
641EF
100
AcDbEntity
  8
0
100
AcDbVertex
100
AcDbPolygonMeshVertex
 10
0.85381
 20
-2.1035
 30
0.187
 70
    64
  0
VERTEX
  5
641F0
100
AcDbEntity
  8
0
100
AcDbVertex
100
AcDbPolygonMeshVertex
 10
0.85381
 20
-2.1655
 30
0.187
 70
    64
  0
VERTEX
  5
641F1
100
AcDbEntity
  8
0
100
AcDbVertex
100
AcDbPolygonMeshVertex
 10
0.246476
 20
-2.1035
 30
0.187
 70
    64
  0
VERTEX
  5
641F2
100
AcDbEntity
  8
0
100
AcDbVertex
100
AcDbPolygonMeshVertex
 10
0.246476
 20
-2.1035
 30
0.187
 70
    64
  0
VERTEX
  5
641F3
100
AcDbEntity
  8
0
100
AcDbVertex
100
AcDbPolygonMeshVertex
 10
0.246476
 20
-2.1655
 30
0.187
 70
    64
  0
SEQEND
  5
641F4
100
AcDbEntity
  8
0
  0
POLYLINE
  5
641F5
100
AcDbEntity
  8
0
100
AcDbPolygonMesh
 66
     1
 10
0.0
 20
0.0
 30
0.0
 70
    16
 71
     6
 72
     3
  0
VERTEX
  5
641F6
100
AcDbEntity
  8
0
100
AcDbVertex
100
AcDbPolygonMeshVertex
 10
0.85381
 20
-2.1035
 30
0.187
 70
    64
  0
VERTEX
  5
641F7
100
AcDbEntity
  8
0
100
AcDbVertex
100
AcDbPolygonMeshVertex
 10
0.85381
 20
-2.1035
 30
0.0
 70
    64
  0
VERTEX
  5
641F8
100
AcDbEntity
  8
0
100
AcDbVertex
100
AcDbPolygonMeshVertex
 10
0.85381
 20
-2.1035
 30
0.0
 70
    64
  0
VERTEX
  5
641F9
100
AcDbEntity
  8
0
100
AcDbVertex
100
AcDbPolygonMeshVertex
 10
0.519143
 20
-2.1035
 30
0.187
 70
    64
  0
VERTEX
  5
641FA
100
AcDbEntity
  8
0
100
AcDbVertex
100
AcDbPolygonMeshVertex
 10
0.519143
 20
-2.1035
 30
0.0
 70
    64
  0
VERTEX
  5
641FB
100
AcDbEntity
  8
0
100
AcDbVertex
100
AcDbPolygonMeshVertex
 10
0.519143
 20
-2.1035
 30
0.0
 70
    64
  0
VERTEX
  5
641FC
100
AcDbEntity
  8
0
100
AcDbVertex
100
AcDbPolygonMeshVertex
 10
0.519143
 20
-1.9065
 30
0.187
 70
    64
  0
VERTEX
  5
641FD
100
AcDbEntity
  8
0
100
AcDbVertex
100
AcDbPolygonMeshVertex
 10
0.519143
 20
-1.9065
 30
0.0
 70
    64
  0
VERTEX
  5
641FE
100
AcDbEntity
  8
0
100
AcDbVertex
100
AcDbPolygonMeshVertex
 10
0.519143
 20
-2.1035
 30
0.0
 70
    64
  0
VERTEX
  5
641FF
100
AcDbEntity
  8
0
100
AcDbVertex
100
AcDbPolygonMeshVertex
 10
0.85381
 20
-1.9065
 30
0.187
 70
    64
  0
VERTEX
  5
64200
100
AcDbEntity
  8
0
100
AcDbVertex
100
AcDbPolygonMeshVertex
 10
0.85381
 20
-1.9065
 30
0.0
 70
    64
  0
VERTEX
  5
64201
100
AcDbEntity
  8
0
100
AcDbVertex
100
AcDbPolygonMeshVertex
 10
0.85381
 20
-2.1035
 30
0.0
 70
    64
  0
VERTEX
  5
64202
100
AcDbEntity
  8
0
100
AcDbVertex
100
AcDbPolygonMeshVertex
 10
0.85381
 20
-1.9065
 30
0.187
 70
    64
  0
VERTEX
  5
64203
100
AcDbEntity
  8
0
100
AcDbVertex
100
AcDbPolygonMeshVertex
 10
0.85381
 20
-1.9065
 30
0.187
 70
    64
  0
VERTEX
  5
64204
100
AcDbEntity
  8
0
100
AcDbVertex
100
AcDbPolygonMeshVertex
 10
0.85381
 20
-2.1035
 30
0.187
 70
    64
  0
VERTEX
  5
64205
100
AcDbEntity
  8
0
100
AcDbVertex
100
AcDbPolygonMeshVertex
 10
0.519143
 20
-1.9065
 30
0.187
 70
    64
  0
VERTEX
  5
64206
100
AcDbEntity
  8
0
100
AcDbVertex
100
AcDbPolygonMeshVertex
 10
0.519143
 20
-1.9065
 30
0.187
 70
    64
  0
VERTEX
  5
64207
100
AcDbEntity
  8
0
100
AcDbVertex
100
AcDbPolygonMeshVertex
 10
0.519143
 20
-2.1035
 30
0.187
 70
    64
  0
SEQEND
  5
64208
100
AcDbEntity
  8
0
  0
LINE
  5
64209
100
AcDbEntity
  8
0
100
AcDbLine
 10
0.652934
 20
-1.9685
 30
0.187
 11
0.8636
 21
-1.9685
 31
0.187
  0
POLYLINE
  5
6420A
100
AcDbEntity
  8
0
100
AcDbPolygonMesh
 66
     1
 10
0.0
 20
0.0
 30
0.0
 70
    16
 71
     6
 72
     3
  0
VERTEX
  5
6420B
100
AcDbEntity
  8
0
100
AcDbVertex
100
AcDbPolygonMeshVertex
 10
1.76521
 20
-1.6855
 30
0.187
 70
    64
  0
VERTEX
  5
6420C
100
AcDbEntity
  8
0
100
AcDbVertex
100
AcDbPolygonMeshVertex
 10
1.76521
 20
-1.6855
 30
0.0
 70
    64
  0
VERTEX
  5
6420D
100
AcDbEntity
  8
0
100
AcDbVertex
100
AcDbPolygonMeshVertex
 10
1.76521
 20
-1.6855
 30
0.0
 70
    64
  0
VERTEX
  5
6420E
100
AcDbEntity
  8
0
100
AcDbVertex
100
AcDbPolygonMeshVertex
 10
0.00521
 20
-1.6855
 30
0.187
 70
    64
  0
VERTEX
  5
6420F
100
AcDbEntity
  8
0
100
AcDbVertex
100
AcDbPolygonMeshVertex
 10
0.00521
 20
-1.6855
 30
0.0
 70
    64
  0
VERTEX
  5
64210
100
AcDbEntity
  8
0
100
AcDbVertex
100
AcDbPolygonMeshVertex
 10
0.00521
 20
-1.6855
 30
0.0
 70
    64
  0
VERTEX
  5
64211
100
AcDbEntity
  8
0
100
AcDbVertex
100
AcDbPolygonMeshVertex
 10
0.00521
 20
-1.481
 30
0.187
 70
    64
  0
VERTEX
  5
64212
100
AcDbEntity
  8
0
100
AcDbVertex
100
AcDbPolygonMeshVertex
 10
0.00521
 20
-1.481
 30
0.0
 70
    64
  0
VERTEX
  5
64213
100
AcDbEntity
  8
0
100
AcDbVertex
100
AcDbPolygonMeshVertex
 10
0.00521
 20
-1.6855
 30
0.0
 70
    64
  0
VERTEX
  5
64214
100
AcDbEntity
  8
0
100
AcDbVertex
100
AcDbPolygonMeshVertex
 10
1.76521
 20
-1.481
 30
0.187
 70
    64
  0
VERTEX
  5
64215
100
AcDbEntity
  8
0
100
AcDbVertex
100
AcDbPolygonMeshVertex
 10
1.76521
 20
-1.481
 30
0.0
 70
    64
  0
VERTEX
  5
64216
100
AcDbEntity
  8
0
100
AcDbVertex
100
AcDbPolygonMeshVertex
 10
1.76521
 20
-1.6855
 30
0.0
 70
    64
  0
VERTEX
  5
64217
100
AcDbEntity
  8
0
100
AcDbVertex
100
AcDbPolygonMeshVertex
 10
1.76521
 20
-1.481
 30
0.187
 70
    64
  0
VERTEX
  5
64218
100
AcDbEntity
  8
0
100
AcDbVertex
100
AcDbPolygonMeshVertex
 10
1.76521
 20
-1.481
 30
0.187
 70
    64
  0
VERTEX
  5
64219
100
AcDbEntity
  8
0
100
AcDbVertex
100
AcDbPolygonMeshVertex
 10
1.76521
 20
-1.6855
 30
0.187
 70
    64
  0
VERTEX
  5
6421A
100
AcDbEntity
  8
0
100
AcDbVertex
100
AcDbPolygonMeshVertex
 10
0.00521
 20
-1.481
 30
0.187
 70
    64
  0
VERTEX
  5
6421B
100
AcDbEntity
  8
0
100
AcDbVertex
100
AcDbPolygonMeshVertex
 10
0.00521
 20
-1.481
 30
0.187
 70
    64
  0
VERTEX
  5
6421C
100
AcDbEntity
  8
0
100
AcDbVertex
100
AcDbPolygonMeshVertex
 10
0.00521
 20
-1.6855
 30
0.187
 70
    64
  0
SEQEND
  5
6421D
100
AcDbEntity
  8
0
  0
POLYLINE
  5
6421E
100
AcDbEntity
  8
0
100
AcDbPolygonMesh
 66
     1
 10
0.0
 20
0.0
 30
0.0
 70
    16
 71
     6
 72
     3
  0
VERTEX
  5
6421F
100
AcDbEntity
  8
0
100
AcDbVertex
100
AcDbPolygonMeshVertex
 10
1.76521
 20
0.2045
 30
0.187
 70
    64
  0
VERTEX
  5
64220
100
AcDbEntity
  8
0
100
AcDbVertex
100
AcDbPolygonMeshVertex
 10
1.76521
 20
0.2045
 30
0.0
 70
    64
  0
VERTEX
  5
64221
100
AcDbEntity
  8
0
100
AcDbVertex
100
AcDbPolygonMeshVertex
 10
1.76521
 20
0.2045
 30
0.0
 70
    64
  0
VERTEX
  5
64222
100
AcDbEntity
  8
0
100
AcDbVertex
100
AcDbPolygonMeshVertex
 10
0.00521
 20
0.2045
 30
0.187
 70
    64
  0
VERTEX
  5
64223
100
AcDbEntity
  8
0
100
AcDbVertex
100
AcDbPolygonMeshVertex
 10
0.00521
 20
0.2045
 30
0.0
 70
    64
  0
VERTEX
  5
64224
100
AcDbEntity
  8
0
100
AcDbVertex
100
AcDbPolygonMeshVertex
 10
0.00521
 20
0.2045
 30
0.0
 70
    64
  0
VERTEX
  5
64225
100
AcDbEntity
  8
0
100
AcDbVertex
100
AcDbPolygonMeshVertex
 10
0.00521
 20
0.0
 30
0.187
 70
    64
  0
VERTEX
  5
64226
100
AcDbEntity
  8
0
100
AcDbVertex
100
AcDbPolygonMeshVertex
 10
0.00521
 20
0.0
 30
0.0
 70
    64
  0
VERTEX
  5
64227
100
AcDbEntity
  8
0
100
AcDbVertex
100
AcDbPolygonMeshVertex
 10
0.00521
 20
0.2045
 30
0.0
 70
    64
  0
VERTEX
  5
64228
100
AcDbEntity
  8
0
100
AcDbVertex
100
AcDbPolygonMeshVertex
 10
1.76521
 20
0.0
 30
0.187
 70
    64
  0
VERTEX
  5
64229
100
AcDbEntity
  8
0
100
AcDbVertex
100
AcDbPolygonMeshVertex
 10
1.76521
 20
0.0
 30
0.0
 70
    64
  0
VERTEX
  5
6422A
100
AcDbEntity
  8
0
100
AcDbVertex
100
AcDbPolygonMeshVertex
 10
1.76521
 20
0.2045
 30
0.0
 70
    64
  0
VERTEX
  5
6422B
100
AcDbEntity
  8
0
100
AcDbVertex
100
AcDbPolygonMeshVertex
 10
1.76521
 20
0.0
 30
0.187
 70
    64
  0
VERTEX
  5
6422C
100
AcDbEntity
  8
0
100
AcDbVertex
100
AcDbPolygonMeshVertex
 10
1.76521
 20
0.0
 30
0.187
 70
    64
  0
VERTEX
  5
6422D
100
AcDbEntity
  8
0
100
AcDbVertex
100
AcDbPolygonMeshVertex
 10
1.76521
 20
0.2045
 30
0.187
 70
    64
  0
VERTEX
  5
6422E
100
AcDbEntity
  8
0
100
AcDbVertex
100
AcDbPolygonMeshVertex
 10
0.00521
 20
0.0
 30
0.187
 70
    64
  0
VERTEX
  5
6422F
100
AcDbEntity
  8
0
100
AcDbVertex
100
AcDbPolygonMeshVertex
 10
0.00521
 20
0.0
 30
0.187
 70
    64
  0
VERTEX
  5
64230
100
AcDbEntity
  8
0
100
AcDbVertex
100
AcDbPolygonMeshVertex
 10
0.00521
 20
0.2045
 30
0.187
 70
    64
  0
SEQEND
  5
64231
100
AcDbEntity
  8
0
  0
POLYLINE
  5
64232
100
AcDbEntity
  8
0
100
AcDbPolygonMesh
 66
     1
 10
0.0
 20
0.0
 30
0.0
 70
    16
 71
     6
 72
     3
  0
VERTEX
  5
64233
100
AcDbEntity
  8
0
100
AcDbVertex
100
AcDbPolygonMeshVertex
 10
0.39621
 20
-2.0815
 30
0.316
 70
    64
  0
VERTEX
  5
64234
100
AcDbEntity
  8
0
100
AcDbVertex
100
AcDbPolygonMeshVertex
 10
0.39621
 20
-2.0815
 30
0.0
 70
    64
  0
VERTEX
  5
64235
100
AcDbEntity
  8
0
100
AcDbVertex
100
AcDbPolygonMeshVertex
 10
0.39621
 20
-2.0815
 30
0.0
 70
    64
  0
VERTEX
  5
64236
100
AcDbEntity
  8
0
100
AcDbVertex
100
AcDbPolygonMeshVertex
 10
0.00521
 20
-2.0815
 30
0.316
 70
    64
  0
VERTEX
  5
64237
100
AcDbEntity
  8
0
100
AcDbVertex
100
AcDbPolygonMeshVertex
 10
0.00521
 20
-2.0815
 30
0.0
 70
    64
  0
VERTEX
  5
64238
100
AcDbEntity
  8
0
100
AcDbVertex
100
AcDbPolygonMeshVertex
 10
0.00521
 20
-2.0815
 30
0.0
 70
    64
  0
VERTEX
  5
64239
100
AcDbEntity
  8
0
100
AcDbVertex
100
AcDbPolygonMeshVertex
 10
0.00521
 20
-1.6855
 30
0.316
 70
    64
  0
VERTEX
  5
6423A
100
AcDbEntity
  8
0
100
AcDbVertex
100
AcDbPolygonMeshVertex
 10
0.00521
 20
-1.6855
 30
0.0
 70
    64
  0
VERTEX
  5
6423B
100
AcDbEntity
  8
0
100
AcDbVertex
100
AcDbPolygonMeshVertex
 10
0.00521
 20
-2.0815
 30
0.0
 70
    64
  0
VERTEX
  5
6423C
100
AcDbEntity
  8
0
100
AcDbVertex
100
AcDbPolygonMeshVertex
 10
0.39621
 20
-1.6855
 30
0.316
 70
    64
  0
VERTEX
  5
6423D
100
AcDbEntity
  8
0
100
AcDbVertex
100
AcDbPolygonMeshVertex
 10
0.39621
 20
-1.6855
 30
0.0
 70
    64
  0
VERTEX
  5
6423E
100
AcDbEntity
  8
0
100
AcDbVertex
100
AcDbPolygonMeshVertex
 10
0.39621
 20
-2.0815
 30
0.0
 70
    64
  0
VERTEX
  5
6423F
100
AcDbEntity
  8
0
100
AcDbVertex
100
AcDbPolygonMeshVertex
 10
0.39621
 20
-1.6855
 30
0.316
 70
    64
  0
VERTEX
  5
64240
100
AcDbEntity
  8
0
100
AcDbVertex
100
AcDbPolygonMeshVertex
 10
0.39621
 20
-1.6855
 30
0.316
 70
    64
  0
VERTEX
  5
64241
100
AcDbEntity
  8
0
100
AcDbVertex
100
AcDbPolygonMeshVertex
 10
0.39621
 20
-2.0815
 30
0.316
 70
    64
  0
VERTEX
  5
64242
100
AcDbEntity
  8
0
100
AcDbVertex
100
AcDbPolygonMeshVertex
 10
0.00521
 20
-1.6855
 30
0.316
 70
    64
  0
VERTEX
  5
64243
100
AcDbEntity
  8
0
100
AcDbVertex
100
AcDbPolygonMeshVertex
 10
0.00521
 20
-1.6855
 30
0.316
 70
    64
  0
VERTEX
  5
64244
100
AcDbEntity
  8
0
100
AcDbVertex
100
AcDbPolygonMeshVertex
 10
0.00521
 20
-2.0815
 30
0.316
 70
    64
  0
SEQEND
  5
64245
100
AcDbEntity
  8
0
  0
POINT
  5
64246
100
AcDbEntity
  8
SNAP_POINTS
100
AcDbPoint
 10
0.0
 20
0.0
 30
0.0
  0
3DFACE
  5
64247
100
AcDbEntity
  8
0
100
AcDbFace
 10
1.76521
 20
-1.8455
 30
2.06
 11
1.76521
 21
-1.8455
 31
2.06
 12
0.00021
 22
-1.8455
 32
2.06
 13
0.00021
 23
-1.8455
 33
2.06
  0
3DFACE
  5
64248
100
AcDbEntity
  8
0
100
AcDbFace
 10
0.00021
 20
-1.8455
 30
2.06
 11
0.00021
 21
-1.8455
 31
2.06
 12
0.00021
 22
-1.8455
 32
2.06
 13
0.00021
 23
0.3985
 33
2.06
  0
3DFACE
  5
64249
100
AcDbEntity
  8
0
100
AcDbFace
 10
0.00021
 20
0.3985
 30
2.06
 11
0.00021
 21
-1.8455
 31
2.06
 12
1.76521
 22
-1.8455
 32
2.06
 13
1.76521
 23
0.3985
 33
2.06
  0
POLYLINE
  5
6424A
100
AcDbEntity
  8
0
  6
CONTINUOUS
100
AcDb3dPolyline
 66
     1
 10
0.0
 20
0.0
 30
0.0
 70
     8
  0
VERTEX
  5
6424B
100
AcDbEntity
  8
0
  6
CONTINUOUS
100
AcDbVertex
100
AcDb3dPolylineVertex
 10
1.76521
 20
0.3985
 30
2.06
 70
    32
1001
ACAD
1000
R13OBJECT
1002
{
1005
6424A
1002
}
  0
VERTEX
  5
6424C
100
AcDbEntity
  8
0
  6
CONTINUOUS
100
AcDbVertex
100
AcDb3dPolylineVertex
 10
1.76521
 20
-1.8455
 30
2.06
 70
    32
1001
ACAD
1000
R13OBJECT
1002
{
1005
6424A
1002
}
  0
SEQEND
  5
6424D
100
AcDbEntity
  8
0
  6
CONTINUOUS
1001
ACAD
1000
R13OBJECT
1002
{
1005
6424A
1002
}
  0
POLYLINE
  5
6424E
100
AcDbEntity
  8
0
  6
CONTINUOUS
100
AcDb3dPolyline
 66
     1
 10
0.0
 20
0.0
 30
0.0
 70
     8
1001
ACAD
1000
R13OBJECT
1002
{
1005
6424A
1002
}
  0
VERTEX
  5
6424F
100
AcDbEntity
  8
0
  6
CONTINUOUS
100
AcDbVertex
100
AcDb3dPolylineVertex
 10
1.76521
 20
-1.8455
 30
2.06
 70
    32
1001
ACAD
1000
R13OBJECT
1002
{
1005
6424A
1002
}
  0
VERTEX
  5
64250
100
AcDbEntity
  8
0
  6
CONTINUOUS
100
AcDbVertex
100
AcDb3dPolylineVertex
 10
0.00021
 20
-1.8455
 30
2.06
 70
    32
1001
ACAD
1000
R13OBJECT
1002
{
1005
6424A
1002
}
  0
SEQEND
  5
64251
100
AcDbEntity
  8
0
  6
CONTINUOUS
1001
ACAD
1000
R13OBJECT
1002
{
1005
6424A
1002
}
  0
POLYLINE
  5
64252
100
AcDbEntity
  8
0
  6
CONTINUOUS
100
AcDb3dPolyline
 66
     1
 10
0.0
 20
0.0
 30
0.0
 70
     8
1001
ACAD
1000
R13OBJECT
1002
{
1005
6424A
1002
}
  0
VERTEX
  5
64253
100
AcDbEntity
  8
0
  6
CONTINUOUS
100
AcDbVertex
100
AcDb3dPolylineVertex
 10
0.00021
 20
-1.8455
 30
2.06
 70
    32
1001
ACAD
1000
R13OBJECT
1002
{
1005
6424A
1002
}
  0
VERTEX
  5
64254
100
AcDbEntity
  8
0
  6
CONTINUOUS
100
AcDbVertex
100
AcDb3dPolylineVertex
 10
0.00021
 20
0.3985
 30
2.06
 70
    32
1001
ACAD
1000
R13OBJECT
1002
{
1005
6424A
1002
}
  0
SEQEND
  5
64255
100
AcDbEntity
  8
0
  6
CONTINUOUS
1001
ACAD
1000
R13OBJECT
1002
{
1005
6424A
1002
}
  0
POLYLINE
  5
64256
100
AcDbEntity
  8
0
  6
CONTINUOUS
100
AcDb3dPolyline
 66
     1
 10
0.0
 20
0.0
 30
0.0
 70
     8
1001
ACAD
1000
R13OBJECT
1002
{
1005
6424A
1002
}
  0
VERTEX
  5
64257
100
AcDbEntity
  8
0
  6
CONTINUOUS
100
AcDbVertex
100
AcDb3dPolylineVertex
 10
0.00021
 20
0.3985
 30
2.06
 70
    32
1001
ACAD
1000
R13OBJECT
1002
{
1005
6424A
1002
}
  0
VERTEX
  5
64258
100
AcDbEntity
  8
0
  6
CONTINUOUS
100
AcDbVertex
100
AcDb3dPolylineVertex
 10
1.76521
 20
0.3985
 30
2.06
 70
    32
1001
ACAD
1000
R13OBJECT
1002
{
1005
6424A
1002
}
  0
SEQEND
  5
64259
100
AcDbEntity
  8
0
  6
CONTINUOUS
1001
ACAD
1000
R13OBJECT
1002
{
1005
6424A
1002
}
  0
POLYLINE
  5
6425A
100
AcDbEntity
  8
0
  6
CONTINUOUS
100
AcDb3dPolyline
 66
     1
 10
0.0
 20
0.0
 30
0.0
 70
     8
  0
VERTEX
  5
6425B
100
AcDbEntity
  8
0
  6
CONTINUOUS
100
AcDbVertex
100
AcDb3dPolylineVertex
 10
0.00021
 20
-1.8455
 30
3.082
 70
    32
1001
ACAD
1000
R13OBJECT
1002
{
1005
6425A
1002
}
  0
VERTEX
  5
6425C
100
AcDbEntity
  8
0
  6
CONTINUOUS
100
AcDbVertex
100
AcDb3dPolylineVertex
 10
0.00021
 20
-1.8455
 30
2.06
 70
    32
1001
ACAD
1000
R13OBJECT
1002
{
1005
6425A
1002
}
  0
SEQEND
  5
6425D
100
AcDbEntity
  8
0
  6
CONTINUOUS
1001
ACAD
1000
R13OBJECT
1002
{
1005
6425A
1002
}
  0
POLYLINE
  5
6425E
100
AcDbEntity
  8
0
  6
CONTINUOUS
100
AcDb3dPolyline
 66
     1
 10
0.0
 20
0.0
 30
0.0
 70
     8
1001
ACAD
1000
R13OBJECT
1002
{
1005
6425A
1002
}
  0
VERTEX
  5
6425F
100
AcDbEntity
  8
0
  6
CONTINUOUS
100
AcDbVertex
100
AcDb3dPolylineVertex
 10
1.76521
 20
-1.8455
 30
2.06
 70
    32
1001
ACAD
1000
R13OBJECT
1002
{
1005
6425A
1002
}
  0
VERTEX
  5
64260
100
AcDbEntity
  8
0
  6
CONTINUOUS
100
AcDbVertex
100
AcDb3dPolylineVertex
 10
0.00021
 20
-1.8455
 30
2.06
 70
    32
1001
ACAD
1000
R13OBJECT
1002
{
1005
6425A
1002
}
  0
SEQEND
  5
64261
100
AcDbEntity
  8
0
  6
CONTINUOUS
1001
ACAD
1000
R13OBJECT
1002
{
1005
6425A
1002
}
  0
POLYLINE
  5
64262
100
AcDbEntity
  8
0
  6
CONTINUOUS
100
AcDb3dPolyline
 66
     1
 10
0.0
 20
0.0
 30
0.0
 70
     8
1001
ACAD
1000
R13OBJECT
1002
{
1005
6425A
1002
}
  0
VERTEX
  5
64263
100
AcDbEntity
  8
0
  6
CONTINUOUS
100
AcDbVertex
100
AcDb3dPolylineVertex
 10
1.76521
 20
-1.8455
 30
3.082
 70
    32
1001
ACAD
1000
R13OBJECT
1002
{
1005
6425A
1002
}
  0
VERTEX
  5
64264
100
AcDbEntity
  8
0
  6
CONTINUOUS
100
AcDbVertex
100
AcDb3dPolylineVertex
 10
1.76521
 20
-1.8455
 30
2.06
 70
    32
1001
ACAD
1000
R13OBJECT
1002
{
1005
6425A
1002
}
  0
SEQEND
  5
64265
100
AcDbEntity
  8
0
  6
CONTINUOUS
1001
ACAD
1000
R13OBJECT
1002
{
1005
6425A
1002
}
  0
POLYLINE
  5
64266
100
AcDbEntity
  8
0
  6
CONTINUOUS
100
AcDb3dPolyline
 66
     1
 10
0.0
 20
0.0
 30
0.0
 70
     8
1001
ACAD
1000
R13OBJECT
1002
{
1005
6425A
1002
}
  0
VERTEX
  5
64267
100
AcDbEntity
  8
0
  6
CONTINUOUS
100
AcDbVertex
100
AcDb3dPolylineVertex
 10
0.00021
 20
-1.8455
 30
3.082
 70
    32
1001
ACAD
1000
R13OBJECT
1002
{
1005
6425A
1002
}
  0
VERTEX
  5
64268
100
AcDbEntity
  8
0
  6
CONTINUOUS
100
AcDbVertex
100
AcDb3dPolylineVertex
 10
1.76521
 20
-1.8455
 30
3.082
 70
    32
1001
ACAD
1000
R13OBJECT
1002
{
1005
6425A
1002
}
  0
SEQEND
  5
64269
100
AcDbEntity
  8
0
  6
CONTINUOUS
1001
ACAD
1000
R13OBJECT
1002
{
1005
6425A
1002
}
  0
POLYLINE
  5
6426A
100
AcDbEntity
  8
0
  6
CONTINUOUS
100
AcDb3dPolyline
 66
     1
 10
0.0
 20
0.0
 30
0.0
 70
     8
  0
VERTEX
  5
6426B
100
AcDbEntity
  8
0
  6
CONTINUOUS
100
AcDbVertex
100
AcDb3dPolylineVertex
 10
1.76521
 20
0.3985
 30
3.082
 70
    32
1001
ACAD
1000
R13OBJECT
1002
{
1005
6426A
1002
}
  0
VERTEX
  5
6426C
100
AcDbEntity
  8
0
  6
CONTINUOUS
100
AcDbVertex
100
AcDb3dPolylineVertex
 10
1.76521
 20
0.3985
 30
2.06
 70
    32
1001
ACAD
1000
R13OBJECT
1002
{
1005
6426A
1002
}
  0
SEQEND
  5
6426D
100
AcDbEntity
  8
0
  6
CONTINUOUS
1001
ACAD
1000
R13OBJECT
1002
{
1005
6426A
1002
}
  0
POLYLINE
  5
6426E
100
AcDbEntity
  8
0
  6
CONTINUOUS
100
AcDb3dPolyline
 66
     1
 10
0.0
 20
0.0
 30
0.0
 70
     8
1001
ACAD
1000
R13OBJECT
1002
{
1005
6426A
1002
}
  0
VERTEX
  5
6426F
100
AcDbEntity
  8
0
  6
CONTINUOUS
100
AcDbVertex
100
AcDb3dPolylineVertex
 10
0.00021
 20
0.3985
 30
2.06
 70
    32
1001
ACAD
1000
R13OBJECT
1002
{
1005
6426A
1002
}
  0
VERTEX
  5
64270
100
AcDbEntity
  8
0
  6
CONTINUOUS
100
AcDbVertex
100
AcDb3dPolylineVertex
 10
1.76521
 20
0.3985
 30
2.06
 70
    32
1001
ACAD
1000
R13OBJECT
1002
{
1005
6426A
1002
}
  0
SEQEND
  5
64271
100
AcDbEntity
  8
0
  6
CONTINUOUS
1001
ACAD
1000
R13OBJECT
1002
{
1005
6426A
1002
}
  0
POLYLINE
  5
64272
100
AcDbEntity
  8
0
  6
CONTINUOUS
100
AcDb3dPolyline
 66
     1
 10
0.0
 20
0.0
 30
0.0
 70
     8
1001
ACAD
1000
R13OBJECT
1002
{
1005
6426A
1002
}
  0
VERTEX
  5
64273
100
AcDbEntity
  8
0
  6
CONTINUOUS
100
AcDbVertex
100
AcDb3dPolylineVertex
 10
0.00021
 20
0.3985
 30
3.082
 70
    32
1001
ACAD
1000
R13OBJECT
1002
{
1005
6426A
1002
}
  0
VERTEX
  5
64274
100
AcDbEntity
  8
0
  6
CONTINUOUS
100
AcDbVertex
100
AcDb3dPolylineVertex
 10
0.00021
 20
0.3985
 30
2.06
 70
    32
1001
ACAD
1000
R13OBJECT
1002
{
1005
6426A
1002
}
  0
SEQEND
  5
64275
100
AcDbEntity
  8
0
  6
CONTINUOUS
1001
ACAD
1000
R13OBJECT
1002
{
1005
6426A
1002
}
  0
POLYLINE
  5
64276
100
AcDbEntity
  8
0
  6
CONTINUOUS
100
AcDb3dPolyline
 66
     1
 10
0.0
 20
0.0
 30
0.0
 70
     8
1001
ACAD
1000
R13OBJECT
1002
{
1005
6426A
1002
}
  0
VERTEX
  5
64277
100
AcDbEntity
  8
0
  6
CONTINUOUS
100
AcDbVertex
100
AcDb3dPolylineVertex
 10
1.76521
 20
0.3985
 30
3.082
 70
    32
1001
ACAD
1000
R13OBJECT
1002
{
1005
6426A
1002
}
  0
VERTEX
  5
64278
100
AcDbEntity
  8
0
  6
CONTINUOUS
100
AcDbVertex
100
AcDb3dPolylineVertex
 10
0.00021
 20
0.3985
 30
3.082
 70
    32
1001
ACAD
1000
R13OBJECT
1002
{
1005
6426A
1002
}
  0
SEQEND
  5
64279
100
AcDbEntity
  8
0
  6
CONTINUOUS
1001
ACAD
1000
R13OBJECT
1002
{
1005
6426A
1002
}
  0
POLYLINE
  5
6427A
100
AcDbEntity
  8
0
  6
CONTINUOUS
100
AcDb3dPolyline
 66
     1
 10
0.0
 20
0.0
 30
0.0
 70
     8
  0
VERTEX
  5
6427B
100
AcDbEntity
  8
0
  6
CONTINUOUS
100
AcDbVertex
100
AcDb3dPolylineVertex
 10
1.76521
 20
-1.8455
 30
3.082
 70
    32
1001
ACAD
1000
R13OBJECT
1002
{
1005
6427A
1002
}
  0
VERTEX
  5
6427C
100
AcDbEntity
  8
0
  6
CONTINUOUS
100
AcDbVertex
100
AcDb3dPolylineVertex
 10
1.76521
 20
-1.8455
 30
2.06
 70
    32
1001
ACAD
1000
R13OBJECT
1002
{
1005
6427A
1002
}
  0
SEQEND
  5
6427D
100
AcDbEntity
  8
0
  6
CONTINUOUS
1001
ACAD
1000
R13OBJECT
1002
{
1005
6427A
1002
}
  0
POLYLINE
  5
6427E
100
AcDbEntity
  8
0
  6
CONTINUOUS
100
AcDb3dPolyline
 66
     1
 10
0.0
 20
0.0
 30
0.0
 70
     8
1001
ACAD
1000
R13OBJECT
1002
{
1005
6427A
1002
}
  0
VERTEX
  5
6427F
100
AcDbEntity
  8
0
  6
CONTINUOUS
100
AcDbVertex
100
AcDb3dPolylineVertex
 10
1.76521
 20
0.3985
 30
2.06
 70
    32
1001
ACAD
1000
R13OBJECT
1002
{
1005
6427A
1002
}
  0
VERTEX
  5
64280
100
AcDbEntity
  8
0
  6
CONTINUOUS
100
AcDbVertex
100
AcDb3dPolylineVertex
 10
1.76521
 20
-1.8455
 30
2.06
 70
    32
1001
ACAD
1000
R13OBJECT
1002
{
1005
6427A
1002
}
  0
SEQEND
  5
64281
100
AcDbEntity
  8
0
  6
CONTINUOUS
1001
ACAD
1000
R13OBJECT
1002
{
1005
6427A
1002
}
  0
POLYLINE
  5
64282
100
AcDbEntity
  8
0
  6
CONTINUOUS
100
AcDb3dPolyline
 66
     1
 10
0.0
 20
0.0
 30
0.0
 70
     8
1001
ACAD
1000
R13OBJECT
1002
{
1005
6427A
1002
}
  0
VERTEX
  5
64283
100
AcDbEntity
  8
0
  6
CONTINUOUS
100
AcDbVertex
100
AcDb3dPolylineVertex
 10
1.76521
 20
0.3985
 30
3.082
 70
    32
1001
ACAD
1000
R13OBJECT
1002
{
1005
6427A
1002
}
  0
VERTEX
  5
64284
100
AcDbEntity
  8
0
  6
CONTINUOUS
100
AcDbVertex
100
AcDb3dPolylineVertex
 10
1.76521
 20
0.3985
 30
2.06
 70
    32
1001
ACAD
1000
R13OBJECT
1002
{
1005
6427A
1002
}
  0
SEQEND
  5
64285
100
AcDbEntity
  8
0
  6
CONTINUOUS
1001
ACAD
1000
R13OBJECT
1002
{
1005
6427A
1002
}
  0
POLYLINE
  5
64286
100
AcDbEntity
  8
0
  6
CONTINUOUS
100
AcDb3dPolyline
 66
     1
 10
0.0
 20
0.0
 30
0.0
 70
     8
1001
ACAD
1000
R13OBJECT
1002
{
1005
6427A
1002
}
  0
VERTEX
  5
64287
100
AcDbEntity
  8
0
  6
CONTINUOUS
100
AcDbVertex
100
AcDb3dPolylineVertex
 10
1.76521
 20
-1.8455
 30
3.082
 70
    32
1001
ACAD
1000
R13OBJECT
1002
{
1005
6427A
1002
}
  0
VERTEX
  5
64288
100
AcDbEntity
  8
0
  6
CONTINUOUS
100
AcDbVertex
100
AcDb3dPolylineVertex
 10
1.76521
 20
0.3985
 30
3.082
 70
    32
1001
ACAD
1000
R13OBJECT
1002
{
1005
6427A
1002
}
  0
SEQEND
  5
64289
100
AcDbEntity
  8
0
  6
CONTINUOUS
1001
ACAD
1000
R13OBJECT
1002
{
1005
6427A
1002
}
  0
LINE
  5
6428A
100
AcDbEntity
  8
0
100
AcDbLine
 10
0.00021
 20
0.3985
 30
3.082
 11
0.00021
 21
0.3985
 31
2.06
210
-1.0
220
0.0
230
0.0
  0
LINE
  5
6428B
100
AcDbEntity
  8
0
100
AcDbLine
 10
0.00021
 20
0.3985
 30
3.082
 11
0.00021
 21
-1.8455
 31
3.082
210
-1.0
220
0.0
230
0.0
  0
LINE
  5
6428C
100
AcDbEntity
  8
0
100
AcDbLine
 10
0.00021
 20
-1.8455
 30
3.082
 11
0.00021
 21
-1.8455
 31
2.06
210
-1.0
220
0.0
230
0.0
  0
3DFACE
  5
6428D
100
AcDbEntity
  8
0
100
AcDbFace
 10
1.76521
 20
0.3985
 30
3.082
 11
1.76521
 21
-1.8455
 31
3.082
 12
0.00021
 22
-1.8455
 32
3.082
 13
0.00021
 23
0.3985
 33
3.082
  0
POLYLINE
  5
6428E
100
AcDbEntity
  8
0
100
AcDbPolygonMesh
 66
     1
 10
0.0
 20
0.0
 30
0.0
 70
    16
 71
     6
 72
     3
  0
VERTEX
  5
6428F
100
AcDbEntity
  8
0
100
AcDbVertex
100
AcDbPolygonMeshVertex
 10
1.25071
 20
-0.439486
 30
3.293
 70
    64
  0
VERTEX
  5
64290
100
AcDbEntity
  8
0
100
AcDbVertex
100
AcDbPolygonMeshVertex
 10
1.25071
 20
-0.439486
 30
3.116
 70
    64
  0
VERTEX
  5
64291
100
AcDbEntity
  8
0
100
AcDbVertex
100
AcDbPolygonMeshVertex
 10
1.25071
 20
-0.439486
 30
3.116
 70
    64
  0
VERTEX
  5
64292
100
AcDbEntity
  8
0
100
AcDbVertex
100
AcDbPolygonMeshVertex
 10
1.08121
 20
-0.439486
 30
3.293
 70
    64
  0
VERTEX
  5
64293
100
AcDbEntity
  8
0
100
AcDbVertex
100
AcDbPolygonMeshVertex
 10
1.08121
 20
-0.439486
 30
3.116
 70
    64
  0
VERTEX
  5
64294
100
AcDbEntity
  8
0
100
AcDbVertex
100
AcDbPolygonMeshVertex
 10
1.08121
 20
-0.439486
 30
3.116
 70
    64
  0
VERTEX
  5
64295
100
AcDbEntity
  8
0
100
AcDbVertex
100
AcDbPolygonMeshVertex
 10
1.08121
 20
-0.086486
 30
3.293
 70
    64
  0
VERTEX
  5
64296
100
AcDbEntity
  8
0
100
AcDbVertex
100
AcDbPolygonMeshVertex
 10
1.08121
 20
-0.086486
 30
3.116
 70
    64
  0
VERTEX
  5
64297
100
AcDbEntity
  8
0
100
AcDbVertex
100
AcDbPolygonMeshVertex
 10
1.08121
 20
-0.439486
 30
3.116
 70
    64
  0
VERTEX
  5
64298
100
AcDbEntity
  8
0
100
AcDbVertex
100
AcDbPolygonMeshVertex
 10
1.25071
 20
-0.086486
 30
3.293
 70
    64
  0
VERTEX
  5
64299
100
AcDbEntity
  8
0
100
AcDbVertex
100
AcDbPolygonMeshVertex
 10
1.25071
 20
-0.086486
 30
3.116
 70
    64
  0
VERTEX
  5
6429A
100
AcDbEntity
  8
0
100
AcDbVertex
100
AcDbPolygonMeshVertex
 10
1.25071
 20
-0.439486
 30
3.116
 70
    64
  0
VERTEX
  5
6429B
100
AcDbEntity
  8
0
100
AcDbVertex
100
AcDbPolygonMeshVertex
 10
1.25071
 20
-0.086486
 30
3.293
 70
    64
  0
VERTEX
  5
6429C
100
AcDbEntity
  8
0
100
AcDbVertex
100
AcDbPolygonMeshVertex
 10
1.25071
 20
-0.086486
 30
3.293
 70
    64
  0
VERTEX
  5
6429D
100
AcDbEntity
  8
0
100
AcDbVertex
100
AcDbPolygonMeshVertex
 10
1.25071
 20
-0.439486
 30
3.293
 70
    64
  0
VERTEX
  5
6429E
100
AcDbEntity
  8
0
100
AcDbVertex
100
AcDbPolygonMeshVertex
 10
1.08121
 20
-0.086486
 30
3.293
 70
    64
  0
VERTEX
  5
6429F
100
AcDbEntity
  8
0
100
AcDbVertex
100
AcDbPolygonMeshVertex
 10
1.08121
 20
-0.086486
 30
3.293
 70
    64
  0
VERTEX
  5
642A0
100
AcDbEntity
  8
0
100
AcDbVertex
100
AcDbPolygonMeshVertex
 10
1.08121
 20
-0.439486
 30
3.293
 70
    64
  0
SEQEND
  5
642A1
100
AcDbEntity
  8
0
  0
POLYLINE
  5
642A2
100
AcDbEntity
  8
0
100
AcDbPolygonMesh
 66
     1
 10
0.0
 20
0.0
 30
0.0
 70
    16
 71
     6
 72
     3
  0
VERTEX
  5
642A3
100
AcDbEntity
  8
0
100
AcDbVertex
100
AcDbPolygonMeshVertex
 10
1.12271
 20
-0.894486
 30
3.332
 70
    64
  0
VERTEX
  5
642A4
100
AcDbEntity
  8
0
100
AcDbVertex
100
AcDbPolygonMeshVertex
 10
1.12271
 20
-0.894486
 30
3.116
 70
    64
  0
VERTEX
  5
642A5
100
AcDbEntity
  8
0
100
AcDbVertex
100
AcDbPolygonMeshVertex
 10
1.12271
 20
-0.894486
 30
3.116
 70
    64
  0
VERTEX
  5
642A6
100
AcDbEntity
  8
0
100
AcDbVertex
100
AcDbPolygonMeshVertex
 10
0.98771
 20
-0.894486
 30
3.332
 70
    64
  0
VERTEX
  5
642A7
100
AcDbEntity
  8
0
100
AcDbVertex
100
AcDbPolygonMeshVertex
 10
0.98771
 20
-0.894486
 30
3.116
 70
    64
  0
VERTEX
  5
642A8
100
AcDbEntity
  8
0
100
AcDbVertex
100
AcDbPolygonMeshVertex
 10
0.98771
 20
-0.894486
 30
3.116
 70
    64
  0
VERTEX
  5
642A9
100
AcDbEntity
  8
0
100
AcDbVertex
100
AcDbPolygonMeshVertex
 10
0.98771
 20
-0.549486
 30
3.332
 70
    64
  0
VERTEX
  5
642AA
100
AcDbEntity
  8
0
100
AcDbVertex
100
AcDbPolygonMeshVertex
 10
0.98771
 20
-0.549486
 30
3.116
 70
    64
  0
VERTEX
  5
642AB
100
AcDbEntity
  8
0
100
AcDbVertex
100
AcDbPolygonMeshVertex
 10
0.98771
 20
-0.894486
 30
3.116
 70
    64
  0
VERTEX
  5
642AC
100
AcDbEntity
  8
0
100
AcDbVertex
100
AcDbPolygonMeshVertex
 10
1.12271
 20
-0.549486
 30
3.332
 70
    64
  0
VERTEX
  5
642AD
100
AcDbEntity
  8
0
100
AcDbVertex
100
AcDbPolygonMeshVertex
 10
1.12271
 20
-0.549486
 30
3.116
 70
    64
  0
VERTEX
  5
642AE
100
AcDbEntity
  8
0
100
AcDbVertex
100
AcDbPolygonMeshVertex
 10
1.12271
 20
-0.894486
 30
3.116
 70
    64
  0
VERTEX
  5
642AF
100
AcDbEntity
  8
0
100
AcDbVertex
100
AcDbPolygonMeshVertex
 10
1.12271
 20
-0.549486
 30
3.332
 70
    64
  0
VERTEX
  5
642B0
100
AcDbEntity
  8
0
100
AcDbVertex
100
AcDbPolygonMeshVertex
 10
1.12271
 20
-0.549486
 30
3.332
 70
    64
  0
VERTEX
  5
642B1
100
AcDbEntity
  8
0
100
AcDbVertex
100
AcDbPolygonMeshVertex
 10
1.12271
 20
-0.894486
 30
3.332
 70
    64
  0
VERTEX
  5
642B2
100
AcDbEntity
  8
0
100
AcDbVertex
100
AcDbPolygonMeshVertex
 10
0.98771
 20
-0.549486
 30
3.332
 70
    64
  0
VERTEX
  5
642B3
100
AcDbEntity
  8
0
100
AcDbVertex
100
AcDbPolygonMeshVertex
 10
0.98771
 20
-0.549486
 30
3.332
 70
    64
  0
VERTEX
  5
642B4
100
AcDbEntity
  8
0
100
AcDbVertex
100
AcDbPolygonMeshVertex
 10
0.98771
 20
-0.894486
 30
3.332
 70
    64
  0
SEQEND
  5
642B5
100
AcDbEntity
  8
0
  0
3DFACE
  5
642B6
100
AcDbEntity
  8
0
100
AcDbFace
 10
1.76521
 20
0.3985
 30
3.082
 11
1.76521
 21
0.3985
 31
3.082
 12
0.00021
 22
0.3985
 32
3.082
 13
0.00021
 23
0.3985
 33
3.082
  0
TEXT
  5
642B7
100
AcDbEntity
  8
0
100
AcDbText
 10
0.072628
 20
0.301596
 30
3.082
 40
0.083465
  1
1
100
AcDbText
  0
TEXT
  5
642B8
100
AcDbEntity
  8
0
100
AcDbText
 10
1.169577
 20
0.304736
 30
3.082
 40
0.083465
  1
L3
100
AcDbText
  0
TEXT
  5
642B9
100
AcDbEntity
  8
0
100
AcDbText
 10
0.763029
 20
0.301324
 30
3.082
 40
0.083465
  1
L2
100
AcDbText
  0
TEXT
  5
642BA
100
AcDbEntity
  8
0
100
AcDbText
 10
0.336406
 20
0.300754
 30
3.082
 40
0.083465
  1
L1
100
AcDbText
  0
TEXT
  5
642BB
100
AcDbEntity
  8
0
100
AcDbText
 10
0.523379
 20
0.299912
 30
3.082
 40
0.083465
  1
3
100
AcDbText
  0
TEXT
  5
642BC
100
AcDbEntity
  8
0
100
AcDbText
 10
0.964913
 20
0.302735
 30
3.082
 40
0.083465
  1
5
100
AcDbText
  0
TEXT
  5
642BD
100
AcDbEntity
  8
0
100
AcDbText
 10
1.599327
 20
0.304736
 30
3.082
 40
0.083465
  1
NC
100
AcDbText
  0
TEXT
  5
642BE
100
AcDbEntity
  8
0
100
AcDbText
 10
1.370118
 20
0.302735
 30
3.082
 40
0.083465
  1
21
100
AcDbText
  0
POLYLINE
  5
642BF
100
AcDbEntity
  8
0
100
AcDbPolygonMesh
 66
     1
 10
0.0
 20
0.0
 30
0.0
 70
    16
 71
     6
 72
     3
  0
VERTEX
  5
642C0
100
AcDbEntity
  8
0
100
AcDbVertex
100
AcDbPolygonMeshVertex
 10
1.27071
 20
-1.376486
 30
3.282
 70
    64
  0
VERTEX
  5
642C1
100
AcDbEntity
  8
0
100
AcDbVertex
100
AcDbPolygonMeshVertex
 10
1.27071
 20
-1.376486
 30
3.082
 70
    64
  0
VERTEX
  5
642C2
100
AcDbEntity
  8
0
100
AcDbVertex
100
AcDbPolygonMeshVertex
 10
1.27071
 20
-1.376486
 30
3.082
 70
    64
  0
VERTEX
  5
642C3
100
AcDbEntity
  8
0
100
AcDbVertex
100
AcDbPolygonMeshVertex
 10
0.49971
 20
-1.376486
 30
3.282
 70
    64
  0
VERTEX
  5
642C4
100
AcDbEntity
  8
0
100
AcDbVertex
100
AcDbPolygonMeshVertex
 10
0.49971
 20
-1.376486
 30
3.082
 70
    64
  0
VERTEX
  5
642C5
100
AcDbEntity
  8
0
100
AcDbVertex
100
AcDbPolygonMeshVertex
 10
0.49971
 20
-1.376486
 30
3.082
 70
    64
  0
VERTEX
  5
642C6
100
AcDbEntity
  8
0
100
AcDbVertex
100
AcDbPolygonMeshVertex
 10
0.49971
 20
-1.094486
 30
3.282
 70
    64
  0
VERTEX
  5
642C7
100
AcDbEntity
  8
0
100
AcDbVertex
100
AcDbPolygonMeshVertex
 10
0.49971
 20
-1.094486
 30
3.082
 70
    64
  0
VERTEX
  5
642C8
100
AcDbEntity
  8
0
100
AcDbVertex
100
AcDbPolygonMeshVertex
 10
0.49971
 20
-1.376486
 30
3.082
 70
    64
  0
VERTEX
  5
642C9
100
AcDbEntity
  8
0
100
AcDbVertex
100
AcDbPolygonMeshVertex
 10
1.27071
 20
-1.094486
 30
3.282
 70
    64
  0
VERTEX
  5
642CA
100
AcDbEntity
  8
0
100
AcDbVertex
100
AcDbPolygonMeshVertex
 10
1.27071
 20
-1.094486
 30
3.082
 70
    64
  0
VERTEX
  5
642CB
100
AcDbEntity
  8
0
100
AcDbVertex
100
AcDbPolygonMeshVertex
 10
1.27071
 20
-1.376486
 30
3.082
 70
    64
  0
VERTEX
  5
642CC
100
AcDbEntity
  8
0
100
AcDbVertex
100
AcDbPolygonMeshVertex
 10
1.27071
 20
-1.094486
 30
3.282
 70
    64
  0
VERTEX
  5
642CD
100
AcDbEntity
  8
0
100
AcDbVertex
100
AcDbPolygonMeshVertex
 10
1.27071
 20
-1.094486
 30
3.282
 70
    64
  0
VERTEX
  5
642CE
100
AcDbEntity
  8
0
100
AcDbVertex
100
AcDbPolygonMeshVertex
 10
1.27071
 20
-1.376486
 30
3.282
 70
    64
  0
VERTEX
  5
642CF
100
AcDbEntity
  8
0
100
AcDbVertex
100
AcDbPolygonMeshVertex
 10
0.49971
 20
-1.094486
 30
3.282
 70
    64
  0
VERTEX
  5
642D0
100
AcDbEntity
  8
0
100
AcDbVertex
100
AcDbPolygonMeshVertex
 10
0.49971
 20
-1.094486
 30
3.282
 70
    64
  0
VERTEX
  5
642D1
100
AcDbEntity
  8
0
100
AcDbVertex
100
AcDbPolygonMeshVertex
 10
0.49971
 20
-1.376486
 30
3.282
 70
    64
  0
SEQEND
  5
642D2
100
AcDbEntity
  8
0
  0
POLYLINE
  5
642D3
100
AcDbEntity
  8
0
100
AcDbPolygonMesh
 66
     1
 10
0.0
 20
0.0
 30
0.0
 70
    16
 71
     6
 72
     3
  0
VERTEX
  5
642D4
100
AcDbEntity
  8
0
100
AcDbVertex
100
AcDbPolygonMeshVertex
 10
1.25071
 20
-0.439486
 30
3.116
 70
    64
  0
VERTEX
  5
642D5
100
AcDbEntity
  8
0
100
AcDbVertex
100
AcDbPolygonMeshVertex
 10
1.25071
 20
-0.439486
 30
3.082
 70
    64
  0
VERTEX
  5
642D6
100
AcDbEntity
  8
0
100
AcDbVertex
100
AcDbPolygonMeshVertex
 10
1.25071
 20
-0.439486
 30
3.082
 70
    64
  0
VERTEX
  5
642D7
100
AcDbEntity
  8
0
100
AcDbVertex
100
AcDbPolygonMeshVertex
 10
0.51971
 20
-0.439486
 30
3.116
 70
    64
  0
VERTEX
  5
642D8
100
AcDbEntity
  8
0
100
AcDbVertex
100
AcDbPolygonMeshVertex
 10
0.51971
 20
-0.439486
 30
3.082
 70
    64
  0
VERTEX
  5
642D9
100
AcDbEntity
  8
0
100
AcDbVertex
100
AcDbPolygonMeshVertex
 10
0.51971
 20
-0.439486
 30
3.082
 70
    64
  0
VERTEX
  5
642DA
100
AcDbEntity
  8
0
100
AcDbVertex
100
AcDbPolygonMeshVertex
 10
0.51971
 20
-0.086486
 30
3.116
 70
    64
  0
VERTEX
  5
642DB
100
AcDbEntity
  8
0
100
AcDbVertex
100
AcDbPolygonMeshVertex
 10
0.51971
 20
-0.086486
 30
3.082
 70
    64
  0
VERTEX
  5
642DC
100
AcDbEntity
  8
0
100
AcDbVertex
100
AcDbPolygonMeshVertex
 10
0.51971
 20
-0.439486
 30
3.082
 70
    64
  0
VERTEX
  5
642DD
100
AcDbEntity
  8
0
100
AcDbVertex
100
AcDbPolygonMeshVertex
 10
1.25071
 20
-0.086486
 30
3.116
 70
    64
  0
VERTEX
  5
642DE
100
AcDbEntity
  8
0
100
AcDbVertex
100
AcDbPolygonMeshVertex
 10
1.25071
 20
-0.086486
 30
3.082
 70
    64
  0
VERTEX
  5
642DF
100
AcDbEntity
  8
0
100
AcDbVertex
100
AcDbPolygonMeshVertex
 10
1.25071
 20
-0.439486
 30
3.082
 70
    64
  0
VERTEX
  5
642E0
100
AcDbEntity
  8
0
100
AcDbVertex
100
AcDbPolygonMeshVertex
 10
1.25071
 20
-0.086486
 30
3.116
 70
    64
  0
VERTEX
  5
642E1
100
AcDbEntity
  8
0
100
AcDbVertex
100
AcDbPolygonMeshVertex
 10
1.25071
 20
-0.086486
 30
3.116
 70
    64
  0
VERTEX
  5
642E2
100
AcDbEntity
  8
0
100
AcDbVertex
100
AcDbPolygonMeshVertex
 10
1.25071
 20
-0.439486
 30
3.116
 70
    64
  0
VERTEX
  5
642E3
100
AcDbEntity
  8
0
100
AcDbVertex
100
AcDbPolygonMeshVertex
 10
0.51971
 20
-0.086486
 30
3.116
 70
    64
  0
VERTEX
  5
642E4
100
AcDbEntity
  8
0
100
AcDbVertex
100
AcDbPolygonMeshVertex
 10
0.51971
 20
-0.086486
 30
3.116
 70
    64
  0
VERTEX
  5
642E5
100
AcDbEntity
  8
0
100
AcDbVertex
100
AcDbPolygonMeshVertex
 10
0.51971
 20
-0.439486
 30
3.116
 70
    64
  0
SEQEND
  5
642E6
100
AcDbEntity
  8
0
  0
POLYLINE
  5
642E7
100
AcDbEntity
  8
0
100
AcDbPolygonMesh
 66
     1
 10
0.0
 20
0.0
 30
0.0
 70
    16
 71
     6
 72
     3
  0
VERTEX
  5
642E8
100
AcDbEntity
  8
0
100
AcDbVertex
100
AcDbPolygonMeshVertex
 10
0.68921
 20
-0.439486
 30
3.293
 70
    64
  0
VERTEX
  5
642E9
100
AcDbEntity
  8
0
100
AcDbVertex
100
AcDbPolygonMeshVertex
 10
0.68921
 20
-0.439486
 30
3.116
 70
    64
  0
VERTEX
  5
642EA
100
AcDbEntity
  8
0
100
AcDbVertex
100
AcDbPolygonMeshVertex
 10
0.68921
 20
-0.439486
 30
3.116
 70
    64
  0
VERTEX
  5
642EB
100
AcDbEntity
  8
0
100
AcDbVertex
100
AcDbPolygonMeshVertex
 10
0.51971
 20
-0.439486
 30
3.293
 70
    64
  0
VERTEX
  5
642EC
100
AcDbEntity
  8
0
100
AcDbVertex
100
AcDbPolygonMeshVertex
 10
0.51971
 20
-0.439486
 30
3.116
 70
    64
  0
VERTEX
  5
642ED
100
AcDbEntity
  8
0
100
AcDbVertex
100
AcDbPolygonMeshVertex
 10
0.51971
 20
-0.439486
 30
3.116
 70
    64
  0
VERTEX
  5
642EE
100
AcDbEntity
  8
0
100
AcDbVertex
100
AcDbPolygonMeshVertex
 10
0.51971
 20
-0.086486
 30
3.293
 70
    64
  0
VERTEX
  5
642EF
100
AcDbEntity
  8
0
100
AcDbVertex
100
AcDbPolygonMeshVertex
 10
0.51971
 20
-0.086486
 30
3.116
 70
    64
  0
VERTEX
  5
642F0
100
AcDbEntity
  8
0
100
AcDbVertex
100
AcDbPolygonMeshVertex
 10
0.51971
 20
-0.439486
 30
3.116
 70
    64
  0
VERTEX
  5
642F1
100
AcDbEntity
  8
0
100
AcDbVertex
100
AcDbPolygonMeshVertex
 10
0.68921
 20
-0.086486
 30
3.293
 70
    64
  0
VERTEX
  5
642F2
100
AcDbEntity
  8
0
100
AcDbVertex
100
AcDbPolygonMeshVertex
 10
0.68921
 20
-0.086486
 30
3.116
 70
    64
  0
VERTEX
  5
642F3
100
AcDbEntity
  8
0
100
AcDbVertex
100
AcDbPolygonMeshVertex
 10
0.68921
 20
-0.439486
 30
3.116
 70
    64
  0
VERTEX
  5
642F4
100
AcDbEntity
  8
0
100
AcDbVertex
100
AcDbPolygonMeshVertex
 10
0.68921
 20
-0.086486
 30
3.293
 70
    64
  0
VERTEX
  5
642F5
100
AcDbEntity
  8
0
100
AcDbVertex
100
AcDbPolygonMeshVertex
 10
0.68921
 20
-0.086486
 30
3.293
 70
    64
  0
VERTEX
  5
642F6
100
AcDbEntity
  8
0
100
AcDbVertex
100
AcDbPolygonMeshVertex
 10
0.68921
 20
-0.439486
 30
3.293
 70
    64
  0
VERTEX
  5
642F7
100
AcDbEntity
  8
0
100
AcDbVertex
100
AcDbPolygonMeshVertex
 10
0.51971
 20
-0.086486
 30
3.293
 70
    64
  0
VERTEX
  5
642F8
100
AcDbEntity
  8
0
100
AcDbVertex
100
AcDbPolygonMeshVertex
 10
0.51971
 20
-0.086486
 30
3.293
 70
    64
  0
VERTEX
  5
642F9
100
AcDbEntity
  8
0
100
AcDbVertex
100
AcDbPolygonMeshVertex
 10
0.51971
 20
-0.439486
 30
3.293
 70
    64
  0
SEQEND
  5
642FA
100
AcDbEntity
  8
0
  0
POLYLINE
  5
642FB
100
AcDbEntity
  8
0
100
AcDbPolygonMesh
 66
     1
 10
0.0
 20
0.0
 30
0.0
 70
    16
 71
     6
 72
     3
  0
VERTEX
  5
642FC
100
AcDbEntity
  8
0
100
AcDbVertex
100
AcDbPolygonMeshVertex
 10
0.78271
 20
-0.894486
 30
3.332
 70
    64
  0
VERTEX
  5
642FD
100
AcDbEntity
  8
0
100
AcDbVertex
100
AcDbPolygonMeshVertex
 10
0.78271
 20
-0.894486
 30
3.116
 70
    64
  0
VERTEX
  5
642FE
100
AcDbEntity
  8
0
100
AcDbVertex
100
AcDbPolygonMeshVertex
 10
0.78271
 20
-0.894486
 30
3.116
 70
    64
  0
VERTEX
  5
642FF
100
AcDbEntity
  8
0
100
AcDbVertex
100
AcDbPolygonMeshVertex
 10
0.64771
 20
-0.894486
 30
3.332
 70
    64
  0
VERTEX
  5
64300
100
AcDbEntity
  8
0
100
AcDbVertex
100
AcDbPolygonMeshVertex
 10
0.64771
 20
-0.894486
 30
3.116
 70
    64
  0
VERTEX
  5
64301
100
AcDbEntity
  8
0
100
AcDbVertex
100
AcDbPolygonMeshVertex
 10
0.64771
 20
-0.894486
 30
3.116
 70
    64
  0
VERTEX
  5
64302
100
AcDbEntity
  8
0
100
AcDbVertex
100
AcDbPolygonMeshVertex
 10
0.64771
 20
-0.549486
 30
3.332
 70
    64
  0
VERTEX
  5
64303
100
AcDbEntity
  8
0
100
AcDbVertex
100
AcDbPolygonMeshVertex
 10
0.64771
 20
-0.549486
 30
3.116
 70
    64
  0
VERTEX
  5
64304
100
AcDbEntity
  8
0
100
AcDbVertex
100
AcDbPolygonMeshVertex
 10
0.64771
 20
-0.894486
 30
3.116
 70
    64
  0
VERTEX
  5
64305
100
AcDbEntity
  8
0
100
AcDbVertex
100
AcDbPolygonMeshVertex
 10
0.78271
 20
-0.549486
 30
3.332
 70
    64
  0
VERTEX
  5
64306
100
AcDbEntity
  8
0
100
AcDbVertex
100
AcDbPolygonMeshVertex
 10
0.78271
 20
-0.549486
 30
3.116
 70
    64
  0
VERTEX
  5
64307
100
AcDbEntity
  8
0
100
AcDbVertex
100
AcDbPolygonMeshVertex
 10
0.78271
 20
-0.894486
 30
3.116
 70
    64
  0
VERTEX
  5
64308
100
AcDbEntity
  8
0
100
AcDbVertex
100
AcDbPolygonMeshVertex
 10
0.78271
 20
-0.549486
 30
3.332
 70
    64
  0
VERTEX
  5
64309
100
AcDbEntity
  8
0
100
AcDbVertex
100
AcDbPolygonMeshVertex
 10
0.78271
 20
-0.549486
 30
3.332
 70
    64
  0
VERTEX
  5
6430A
100
AcDbEntity
  8
0
100
AcDbVertex
100
AcDbPolygonMeshVertex
 10
0.78271
 20
-0.894486
 30
3.332
 70
    64
  0
VERTEX
  5
6430B
100
AcDbEntity
  8
0
100
AcDbVertex
100
AcDbPolygonMeshVertex
 10
0.64771
 20
-0.549486
 30
3.332
 70
    64
  0
VERTEX
  5
6430C
100
AcDbEntity
  8
0
100
AcDbVertex
100
AcDbPolygonMeshVertex
 10
0.64771
 20
-0.549486
 30
3.332
 70
    64
  0
VERTEX
  5
6430D
100
AcDbEntity
  8
0
100
AcDbVertex
100
AcDbPolygonMeshVertex
 10
0.64771
 20
-0.894486
 30
3.332
 70
    64
  0
SEQEND
  5
6430E
100
AcDbEntity
  8
0
  0
CIRCLE
  5
6430F
100
AcDbEntity
  8
0
100
AcDbCircle
 10
0.667835
 20
-1.58788
 30
3.082
 40
0.138
  0
TEXT
  5
64310
100
AcDbEntity
  8
0
100
AcDbText
 10
0.749732
 20
-1.819571
 30
3.082
 40
0.083465
  1
T2
100
AcDbText
  0
TEXT
  5
64311
100
AcDbEntity
  8
0
100
AcDbText
 10
0.968783
 20
-1.820413
 30
3.082
 40
0.083465
  1
6
100
AcDbText
  0
CIRCLE
  5
64312
100
AcDbEntity
  8
0
100
AcDbCircle
 10
1.097585
 20
-1.58788
 30
3.082
 40
0.138
  0
POLYLINE
  5
64313
100
AcDbEntity
  8
0
100
AcDbPolygonMesh
 66
     1
 10
0.0
 20
0.0
 30
0.0
 70
    16
 71
     6
 72
     3
  0
VERTEX
  5
64314
100
AcDbEntity
  8
0
100
AcDbVertex
100
AcDbPolygonMeshVertex
 10
1.12271
 20
-0.894486
 30
3.116
 70
    64
  0
VERTEX
  5
64315
100
AcDbEntity
  8
0
100
AcDbVertex
100
AcDbPolygonMeshVertex
 10
1.12271
 20
-0.894486
 30
3.082
 70
    64
  0
VERTEX
  5
64316
100
AcDbEntity
  8
0
100
AcDbVertex
100
AcDbPolygonMeshVertex
 10
1.12271
 20
-0.894486
 30
3.082
 70
    64
  0
VERTEX
  5
64317
100
AcDbEntity
  8
0
100
AcDbVertex
100
AcDbPolygonMeshVertex
 10
0.64771
 20
-0.894486
 30
3.116
 70
    64
  0
VERTEX
  5
64318
100
AcDbEntity
  8
0
100
AcDbVertex
100
AcDbPolygonMeshVertex
 10
0.64771
 20
-0.894486
 30
3.082
 70
    64
  0
VERTEX
  5
64319
100
AcDbEntity
  8
0
100
AcDbVertex
100
AcDbPolygonMeshVertex
 10
0.64771
 20
-0.894486
 30
3.082
 70
    64
  0
VERTEX
  5
6431A
100
AcDbEntity
  8
0
100
AcDbVertex
100
AcDbPolygonMeshVertex
 10
0.64771
 20
-0.549486
 30
3.116
 70
    64
  0
VERTEX
  5
6431B
100
AcDbEntity
  8
0
100
AcDbVertex
100
AcDbPolygonMeshVertex
 10
0.64771
 20
-0.549486
 30
3.082
 70
    64
  0
VERTEX
  5
6431C
100
AcDbEntity
  8
0
100
AcDbVertex
100
AcDbPolygonMeshVertex
 10
0.64771
 20
-0.894486
 30
3.082
 70
    64
  0
VERTEX
  5
6431D
100
AcDbEntity
  8
0
100
AcDbVertex
100
AcDbPolygonMeshVertex
 10
1.12271
 20
-0.549486
 30
3.116
 70
    64
  0
VERTEX
  5
6431E
100
AcDbEntity
  8
0
100
AcDbVertex
100
AcDbPolygonMeshVertex
 10
1.12271
 20
-0.549486
 30
3.082
 70
    64
  0
VERTEX
  5
6431F
100
AcDbEntity
  8
0
100
AcDbVertex
100
AcDbPolygonMeshVertex
 10
1.12271
 20
-0.894486
 30
3.082
 70
    64
  0
VERTEX
  5
64320
100
AcDbEntity
  8
0
100
AcDbVertex
100
AcDbPolygonMeshVertex
 10
1.12271
 20
-0.549486
 30
3.116
 70
    64
  0
VERTEX
  5
64321
100
AcDbEntity
  8
0
100
AcDbVertex
100
AcDbPolygonMeshVertex
 10
1.12271
 20
-0.549486
 30
3.116
 70
    64
  0
VERTEX
  5
64322
100
AcDbEntity
  8
0
100
AcDbVertex
100
AcDbPolygonMeshVertex
 10
1.12271
 20
-0.894486
 30
3.116
 70
    64
  0
VERTEX
  5
64323
100
AcDbEntity
  8
0
100
AcDbVertex
100
AcDbPolygonMeshVertex
 10
0.64771
 20
-0.549486
 30
3.116
 70
    64
  0
VERTEX
  5
64324
100
AcDbEntity
  8
0
100
AcDbVertex
100
AcDbPolygonMeshVertex
 10
0.64771
 20
-0.549486
 30
3.116
 70
    64
  0
VERTEX
  5
64325
100
AcDbEntity
  8
0
100
AcDbVertex
100
AcDbPolygonMeshVertex
 10
0.64771
 20
-0.894486
 30
3.116
 70
    64
  0
SEQEND
  5
64326
100
AcDbEntity
  8
0
  0
TEXT
  5
64327
100
AcDbEntity
  8
0
100
AcDbText
 10
1.168755
 20
-1.819002
 30
3.082
 40
0.083465
  1
T3
100
AcDbText
  0
TEXT
  5
64328
100
AcDbEntity
  8
0
100
AcDbText
 10
0.325022
 20
-1.817525
 30
3.082
 40
0.083465
  1
T1
100
AcDbText
  0
CIRCLE
  5
64329
100
AcDbEntity
  8
0
100
AcDbCircle
 10
0.238085
 20
-1.58788
 30
3.082
 40
0.138
  0
TEXT
  5
6432A
100
AcDbEntity
  8
0
100
AcDbText
 10
0.080569
 20
-1.821552
 30
3.082
 40
0.083465
  1
2
100
AcDbText
  0
TEXT
  5
6432B
100
AcDbEntity
  8
0
100
AcDbText
 10
1.598505
 20
-1.819002
 30
3.082
 40
0.083465
  1
NC
100
AcDbText
  0
TEXT
  5
6432C
100
AcDbEntity
  8
0
100
AcDbText
 10
1.398533
 20
-1.820413
 30
3.082
 40
0.083465
  1
22
100
AcDbText
  0
CIRCLE
  5
6432D
100
AcDbEntity
  8
0
100
AcDbCircle
 10
1.527335
 20
-1.58788
 30
3.082
 40
0.138
  0
LWPOLYLINE
  5
6432E
100
AcDbEntity
  8
0
100
AcDbPolyline
 90
        2
 70
     0
 43
0.0
 38
2.06
 10
0.00021
 20
-1.8455
 10
0.00021
 20
0.3985
  0
POLYLINE
  5
6432F
100
AcDbEntity
  8
0
100
AcDbPolygonMesh
 66
     1
 10
0.0
 20
0.0
 30
0.0
 70
    16
 71
     6
 72
     3
  0
VERTEX
  5
64330
100
AcDbEntity
  8
0
100
AcDbVertex
100
AcDbPolygonMeshVertex
 10
1.76521
 20
-1.8455
 30
3.082
 70
    64
  0
VERTEX
  5
64331
100
AcDbEntity
  8
0
100
AcDbVertex
100
AcDbPolygonMeshVertex
 10
1.76521
 20
-1.8455
 30
2.06
 70
    64
  0
VERTEX
  5
64332
100
AcDbEntity
  8
0
100
AcDbVertex
100
AcDbPolygonMeshVertex
 10
1.76521
 20
-1.8455
 30
2.06
 70
    64
  0
VERTEX
  5
64333
100
AcDbEntity
  8
0
100
AcDbVertex
100
AcDbPolygonMeshVertex
 10
0.00021
 20
-1.8455
 30
3.082
 70
    64
  0
VERTEX
  5
64334
100
AcDbEntity
  8
0
100
AcDbVertex
100
AcDbPolygonMeshVertex
 10
0.00021
 20
-1.8455
 30
2.06
 70
    64
  0
VERTEX
  5
64335
100
AcDbEntity
  8
0
100
AcDbVertex
100
AcDbPolygonMeshVertex
 10
0.00021
 20
-1.8455
 30
2.06
 70
    64
  0
VERTEX
  5
64336
100
AcDbEntity
  8
0
100
AcDbVertex
100
AcDbPolygonMeshVertex
 10
0.00021
 20
0.3985
 30
3.082
 70
    64
  0
VERTEX
  5
64337
100
AcDbEntity
  8
0
100
AcDbVertex
100
AcDbPolygonMeshVertex
 10
0.00021
 20
0.3985
 30
2.06
 70
    64
  0
VERTEX
  5
64338
100
AcDbEntity
  8
0
100
AcDbVertex
100
AcDbPolygonMeshVertex
 10
0.00021
 20
-1.8455
 30
2.06
 70
    64
  0
VERTEX
  5
64339
100
AcDbEntity
  8
0
100
AcDbVertex
100
AcDbPolygonMeshVertex
 10
1.76521
 20
0.3985
 30
3.082
 70
    64
  0
VERTEX
  5
6433A
100
AcDbEntity
  8
0
100
AcDbVertex
100
AcDbPolygonMeshVertex
 10
1.76521
 20
0.3985
 30
2.06
 70
    64
  0
VERTEX
  5
6433B
100
AcDbEntity
  8
0
100
AcDbVertex
100
AcDbPolygonMeshVertex
 10
1.76521
 20
-1.8455
 30
2.06
 70
    64
  0
VERTEX
  5
6433C
100
AcDbEntity
  8
0
100
AcDbVertex
100
AcDbPolygonMeshVertex
 10
1.76521
 20
0.3985
 30
3.082
 70
    64
  0
VERTEX
  5
6433D
100
AcDbEntity
  8
0
100
AcDbVertex
100
AcDbPolygonMeshVertex
 10
1.76521
 20
0.3985
 30
3.082
 70
    64
  0
VERTEX
  5
6433E
100
AcDbEntity
  8
0
100
AcDbVertex
100
AcDbPolygonMeshVertex
 10
1.76521
 20
-1.8455
 30
3.082
 70
    64
  0
VERTEX
  5
6433F
100
AcDbEntity
  8
0
100
AcDbVertex
100
AcDbPolygonMeshVertex
 10
0.00021
 20
0.3985
 30
3.082
 70
    64
  0
VERTEX
  5
64340
100
AcDbEntity
  8
0
100
AcDbVertex
100
AcDbPolygonMeshVertex
 10
0.00021
 20
0.3985
 30
3.082
 70
    64
  0
VERTEX
  5
64341
100
AcDbEntity
  8
0
100
AcDbVertex
100
AcDbPolygonMeshVertex
 10
0.00021
 20
-1.8455
 30
3.082
 70
    64
  0
SEQEND
  5
64342
100
AcDbEntity
  8
0
  0
POLYLINE
  5
64343
100
AcDbEntity
  8
0
100
AcDb3dPolyline
 66
     1
 10
0.0
 20
0.0
 30
0.0
 70
     8
  0
VERTEX
  5
64344
100
AcDbEntity
  8
0
100
AcDbVertex
100
AcDb3dPolylineVertex
 10
1.765421
 20
-0.6405
 30
1.592
 70
    32
  0
VERTEX
  5
64345
100
AcDbEntity
  8
0
100
AcDbVertex
100
AcDb3dPolylineVertex
 10
1.765421
 20
-0.6405
 30
2.165
 70
    32
  0
VERTEX
  5
64346
100
AcDbEntity
  8
0
100
AcDbVertex
100
AcDb3dPolylineVertex
 10
1.765421
 20
-0.8065
 30
2.165
 70
    32
  0
VERTEX
  5
64347
100
AcDbEntity
  8
0
100
AcDbVertex
100
AcDb3dPolylineVertex
 10
1.765421
 20
-0.8065
 30
1.592
 70
    32
  0
VERTEX
  5
64348
100
AcDbEntity
  8
0
100
AcDbVertex
100
AcDb3dPolylineVertex
 10
1.765421
 20
-0.6405
 30
1.592
 70
    32
  0
SEQEND
  5
64349
100
AcDbEntity
  8
0
  0
LINE
  5
6434A
100
AcDbEntity
  8
0
100
AcDbLine
 10
1.765421
 20
-0.8065
 30
1.8785
 11
1.765421
 21
-0.6405
 31
1.8785
  0
LINE
  5
6434B
100
AcDbEntity
  8
0
100
AcDbLine
 10
1.765421
 20
-0.8065
 30
2.0685
 11
1.765421
 21
-0.6405
 31
2.0685
  0
POINT
  5
6434C
100
AcDbEntity
  8
SNAP_POINTS
100
AcDbPoint
 10
0.88521
 20
-0.721986
 30
3.116
  0
POINT
  5
6434D
100
AcDbEntity
  8
SNAP_POINTS
100
AcDbPoint
 10
0.0
 20
-0.7735
 30
2.0685
  0
POINT
  5
6434E
100
AcDbEntity
  8
SNAP_POINTS
100
AcDbPoint
 10
1.765421
 20
-0.6735
 30
2.0685
  0
LINE
  5
6434F
100
AcDbEntity
  8
0
100
AcDbLine
 10
0.38771
 20
0.9585
 30
1.839
 11
0.38771
 21
0.9585
 31
1.639
  0
LINE
  5
64350
100
AcDbEntity
  8
0
100
AcDbLine
 10
0.70471
 20
0.9585
 30
1.639
 11
0.38771
 21
0.9585
 31
1.639
  0
POINT
  5
64351
100
AcDbEntity
  8
SNAP_POINTS
100
AcDbPoint
 10
0.70471
 20
0.9585
 30
1.639
  0
LINE
  5
64352
100
AcDbEntity
  8
0
100
AcDbLine
 10
0.70471
 20
0.9585
 30
1.839
 11
0.70471
 21
0.9585
 31
1.639
  0
LINE
  5
64353
100
AcDbEntity
  8
0
100
AcDbLine
 10
1.06571
 20
0.9585
 30
1.639
 11
1.38271
 21
0.9585
 31
1.639
  0
LINE
  5
64354
100
AcDbEntity
  8
0
100
AcDbLine
 10
1.38271
 20
0.9585
 30
1.839
 11
1.38271
 21
0.9585
 31
1.639
  0
LINE
  5
64355
100
AcDbEntity
  8
0
100
AcDbLine
 10
1.06571
 20
0.9585
 30
1.839
 11
1.38271
 21
0.9585
 31
1.839
  0
LINE
  5
64356
100
AcDbEntity
  8
0
100
AcDbLine
 10
1.06571
 20
0.9585
 30
1.839
 11
1.06571
 21
0.9585
 31
1.639
  0
LINE
  5
64357
100
AcDbEntity
  8
0
100
AcDbLine
 10
0.70471
 20
0.9585
 30
1.839
 11
0.38771
 21
0.9585
 31
1.839
  0
POINT
  5
64358
100
AcDbEntity
  8
DIMS-MTG-HOLES
100
AcDbPoint
 10
0.19121
 20
-1.9345
 30
0.0
  0
POINT
  5
64359
100
AcDbEntity
  8
DIMS-MTG-HOLES
100
AcDbPoint
 10
1.57121
 20
0.4255
 30
0.0
  0
LWPOLYLINE
  5
6435A
100
AcDbEntity
  8
0
100
AcDbPolyline
 90
        6
 70
     0
 43
0.0
 38
3.082
 10
0.258085
 20
-1.451337
 10
0.258085
 20
-1.56788
 10
0.318085
 20
-1.56788
 10
0.318085
 20
-1.60788
 10
0.258085
 20
-1.60788
 10
0.258085
 20
-1.724423
  0
LWPOLYLINE
  5
6435B
100
AcDbEntity
  8
0
100
AcDbPolyline
 90
        6
 70
     0
 43
0.0
 38
3.082
 10
0.218085
 20
-1.451337
 10
0.218085
 20
-1.56788
 10
0.158085
 20
-1.56788
 10
0.158085
 20
-1.60788
 10
0.218085
 20
-1.60788
 10
0.218085
 20
-1.724423
  0
LWPOLYLINE
  5
6435C
100
AcDbEntity
  8
0
100
AcDbPolyline
 90
        6
 70
     0
 43
0.0
 38
3.082
 10
0.687835
 20
-1.451337
 10
0.687835
 20
-1.56788
 10
0.747835
 20
-1.56788
 10
0.747835
 20
-1.60788
 10
0.687835
 20
-1.60788
 10
0.687835
 20
-1.724423
  0
LWPOLYLINE
  5
6435D
100
AcDbEntity
  8
0
100
AcDbPolyline
 90
        6
 70
     0
 43
0.0
 38
3.082
 10
0.647835
 20
-1.451337
 10
0.647835
 20
-1.56788
 10
0.587835
 20
-1.56788
 10
0.587835
 20
-1.60788
 10
0.647835
 20
-1.60788
 10
0.647835
 20
-1.724423
  0
LWPOLYLINE
  5
6435E
100
AcDbEntity
  8
0
100
AcDbPolyline
 90
        6
 70
     0
 43
0.0
 38
3.082
 10
1.117585
 20
-1.451337
 10
1.117585
 20
-1.56788
 10
1.177585
 20
-1.56788
 10
1.177585
 20
-1.60788
 10
1.117585
 20
-1.60788
 10
1.117585
 20
-1.724423
  0
LWPOLYLINE
  5
6435F
100
AcDbEntity
  8
0
100
AcDbPolyline
 90
        6
 70
     0
 43
0.0
 38
3.082
 10
1.077585
 20
-1.451337
 10
1.077585
 20
-1.56788
 10
1.017585
 20
-1.56788
 10
1.017585
 20
-1.60788
 10
1.077585
 20
-1.60788
 10
1.077585
 20
-1.724423
  0
LWPOLYLINE
  5
64360
100
AcDbEntity
  8
0
100
AcDbPolyline
 90
        6
 70
     0
 43
0.0
 38
3.082
 10
1.547335
 20
-1.451337
 10
1.547335
 20
-1.56788
 10
1.607335
 20
-1.56788
 10
1.607335
 20
-1.60788
 10
1.547335
 20
-1.60788
 10
1.547335
 20
-1.724423
  0
LWPOLYLINE
  5
64361
100
AcDbEntity
  8
0
100
AcDbPolyline
 90
        6
 70
     0
 43
0.0
 38
3.082
 10
1.507335
 20
-1.451337
 10
1.507335
 20
-1.56788
 10
1.447335
 20
-1.56788
 10
1.447335
 20
-1.60788
 10
1.507335
 20
-1.60788
 10
1.507335
 20
-1.724423
  0
CIRCLE
  5
64362
100
AcDbEntity
  8
0
100
AcDbCircle
 10
1.527335
 20
0.154908
 30
3.082
 40
0.138
  0
CIRCLE
  5
64363
100
AcDbEntity
  8
0
100
AcDbCircle
 10
0.667835
 20
0.154908
 30
3.082
 40
0.138
  0
LWPOLYLINE
  5
64364
100
AcDbEntity
  8
0
100
AcDbPolyline
 90
        6
 70
     0
 43
0.0
 38
3.082
 10
0.647835
 20
0.291451
 10
0.647835
 20
0.174908
 10
0.587835
 20
0.174908
 10
0.587835
 20
0.134908
 10
0.647835
 20
0.134908
 10
0.647835
 20
0.018365
  0
LWPOLYLINE
  5
64365
100
AcDbEntity
  8
0
100
AcDbPolyline
 90
        6
 70
     0
 43
0.0
 38
3.082
 10
0.687835
 20
0.291451
 10
0.687835
 20
0.174908
 10
0.747835
 20
0.174908
 10
0.747835
 20
0.134908
 10
0.687835
 20
0.134908
 10
0.687835
 20
0.018365
  0
LWPOLYLINE
  5
64366
100
AcDbEntity
  8
0
100
AcDbPolyline
 90
        6
 70
     0
 43
0.0
 38
3.082
 10
1.077585
 20
0.291451
 10
1.077585
 20
0.174908
 10
1.017585
 20
0.174908
 10
1.017585
 20
0.134908
 10
1.077585
 20
0.134908
 10
1.077585
 20
0.018365
  0
CIRCLE
  5
64367
100
AcDbEntity
  8
0
100
AcDbCircle
 10
1.097585
 20
0.154908
 30
3.082
 40
0.138
  0
LWPOLYLINE
  5
64368
100
AcDbEntity
  8
0
100
AcDbPolyline
 90
        6
 70
     0
 43
0.0
 38
3.082
 10
1.117585
 20
0.291451
 10
1.117585
 20
0.174908
 10
1.177585
 20
0.174908
 10
1.177585
 20
0.134908
 10
1.117585
 20
0.134908
 10
1.117585
 20
0.018365
  0
LWPOLYLINE
  5
64369
100
AcDbEntity
  8
0
100
AcDbPolyline
 90
        6
 70
     0
 43
0.0
 38
3.082
 10
1.507335
 20
0.291451
 10
1.507335
 20
0.174908
 10
1.447335
 20
0.174908
 10
1.447335
 20
0.134908
 10
1.507335
 20
0.134908
 10
1.507335
 20
0.018365
  0
LWPOLYLINE
  5
6436A
100
AcDbEntity
  8
0
100
AcDbPolyline
 90
        6
 70
     0
 43
0.0
 38
3.082
 10
1.547335
 20
0.291451
 10
1.547335
 20
0.174908
 10
1.607335
 20
0.174908
 10
1.607335
 20
0.134908
 10
1.547335
 20
0.134908
 10
1.547335
 20
0.018365
  0
LWPOLYLINE
  5
6436B
100
AcDbEntity
  8
0
100
AcDbPolyline
 90
        6
 70
     0
 43
0.0
 38
3.082
 10
0.258085
 20
0.291451
 10
0.258085
 20
0.174908
 10
0.318085
 20
0.174908
 10
0.318085
 20
0.134908
 10
0.258085
 20
0.134908
 10
0.258085
 20
0.018365
  0
CIRCLE
  5
6436C
100
AcDbEntity
  8
0
100
AcDbCircle
 10
0.238085
 20
0.154908
 30
3.082
 40
0.138
  0
LWPOLYLINE
  5
6436D
100
AcDbEntity
  8
0
100
AcDbPolyline
 90
        6
 70
     0
 43
0.0
 38
3.082
 10
0.218085
 20
0.291451
 10
0.218085
 20
0.174908
 10
0.158085
 20
0.174908
 10
0.158085
 20
0.134908
 10
0.218085
 20
0.134908
 10
0.218085
 20
0.018365
  0
LWPOLYLINE
  5
6436E
100
AcDbEntity
  8
0
100
AcDbPolyline
 90
        6
 70
     0
 43
0.0
 38
2.06
 10
0.56621
 20
0.858322
 10
0.56621
 20
0.76
 10
0.62621
 20
0.76
 10
0.62621
 20
0.72
 10
0.56621
 20
0.72
 10
0.56621
 20
0.621678
  0
LWPOLYLINE
  5
6436F
100
AcDbEntity
  8
0
100
AcDbPolyline
 90
        6
 70
     0
 43
0.0
 38
2.06
 10
0.52621
 20
0.858322
 10
0.52621
 20
0.76
 10
0.46621
 20
0.76
 10
0.46621
 20
0.72
 10
0.52621
 20
0.72
 10
0.52621
 20
0.621678
  0
LWPOLYLINE
  5
64370
100
AcDbEntity
  8
0
100
AcDbPolyline
 90
        6
 70
     0
 43
0.0
 38
2.06
 10
1.20421
 20
0.858322
 10
1.20421
 20
0.76
 10
1.14421
 20
0.76
 10
1.14421
 20
0.72
 10
1.20421
 20
0.72
 10
1.20421
 20
0.621678
  0
LWPOLYLINE
  5
64371
100
AcDbEntity
  8
0
100
AcDbPolyline
 90
        6
 70
     0
 43
0.0
 38
2.06
 10
1.24421
 20
0.858322
 10
1.24421
 20
0.76
 10
1.30421
 20
0.76
 10
1.30421
 20
0.72
 10
1.24421
 20
0.72
 10
1.24421
 20
0.621678
  0
TEXT
  5
64372
100
AcDbEntity
  8
0
100
AcDbText
 10
0.49317
 20
-1.821552
 30
3.082
 40
0.083465
  1
4
100
AcDbText
  0
DIMENSION
  5
64373
100
AcDbEntity
  8
AREA1
100
AcDbDimension
  2
*D1
 10
-0.47778
 20
-2.2215
 30
0.0
 11
-0.47778
 21
-0.67662
 31
0.0
 70
   160
  3
ABECAD_3D
100
AcDbAlignedDimension
 13
0.33271
 23
0.9585
 33
1.386
 14
0.69971
 24
-2.2215
 34
1.386
 50
90.0
100
AcDbRotatedDimension
  0
DIMENSION
  5
64381
100
AcDbEntity
  8
AREA1
100
AcDbDimension
  2
*D2
 10
1.76521
 20
1.303369
 30
0.0
 11
0.877576
 21
1.693211
 31
0.0
 70
   160
  3
ABECAD_3D
100
AcDbAlignedDimension
 13
0.00521
 23
0.7185
 33
0.0
 14
1.76521
 24
0.5745
 34
0.0
100
AcDbRotatedDimension
  0
LWPOLYLINE
  5
643A6
100
AcDbEntity
  8
SCALE
100
AcDbPolyline
 90
        4
 70
     1
 43
0.0
 10
0.347257
 20
-2.28679
 10
1.482885
 20
-2.28679
 10
1.482885
 20
-3.128399
 10
0.347257
 20
-3.128399
  0
LINE
  5
643A7
100
AcDbEntity
  8
SCALE
100
AcDbLine
 10
0.405255
 20
-2.666868
 30
0.0
 11
1.405255
 21
-2.666868
 31
0.0
  0
LINE
  5
643A8
100
AcDbEntity
  8
SCALE
100
AcDbLine
 10
0.405255
 20
-2.966868
 30
0.0
 11
0.798955
 21
-2.966868
 31
0.0
  0
LINE
  5
643A9
100
AcDbEntity
  8
SCALE
100
AcDbLine
 10
0.405255
 20
-2.766868
 30
0.0
 11
0.405255
 21
-2.566868
 31
0.0
  0
TEXT
  5
643AA
100
AcDbEntity
  8
SCALE
100
AcDbText
 10
0.461231
 20
-2.919183
 30
0.0
 40
0.0625
  1
[10mm]
100
AcDbText
  0
LINE
  5
643AB
100
AcDbEntity
  8
SCALE
100
AcDbLine
 10
0.405255
 20
-3.066868
 30
0.0
 11
0.405255
 21
-2.866868
 31
0.0
  0
TEXT
  5
643AC
100
AcDbEntity
  8
SCALE
100
AcDbText
 10
0.406786
 20
-2.391991
 30
0.0
 40
0.0625
  1
SCALE:
100
AcDbText
  0
LINE
  5
643AD
100
AcDbEntity
  8
SCALE
100
AcDbLine
 10
0.798955
 20
-3.066868
 30
0.0
 11
0.798955
 21
-2.866868
 31
0.0
  0
TEXT
  5
643AE
100
AcDbEntity
  8
SCALE
100
AcDbText
 10
0.768538
 20
-2.597819
 30
0.0
 40
0.0625
  1
1 Inch
100
AcDbText
  0
LINE
  5
643AF
100
AcDbEntity
  8
SCALE
100
AcDbLine
 10
1.405255
 20
-2.666868
 30
0.0
 11
1.405255
 21
-2.766868
 31
0.0
  0
LINE
  5
643B0
100
AcDbEntity
  8
SCALE
100
AcDbLine
 10
1.405255
 20
-2.766868
 30
0.0
 11
1.405255
 21
-2.566868
 31
0.0
  0
VIEWPORT
  5
5677D
102
{ACAD_XDICTIONARY
360
64449
102
}
100
AcDbEntity
 67
     1
  8
0
100
AcDbViewport
 10
5.25
 20
4.0
 30
0.0
 40
16.386862
 41
8.993
 68
    -1
 69
     1
1001
ACAD
1000
MVIEW
1002
{
1070
    16
1010
0.0
1020
0.0
1030
0.0
1010
0.0
1020
0.0
1030
1.0
1040
0.0
1040
8.993
1040
5.25
1040
4.0
1040
50.0
1040
0.0
1040
0.0
1070
     0
1070
 20000
1070
     1
1070
     1
1070
     0
1070
     0
1070
     0
1070
     0
1040
0.0
1040
0.0
1040
0.0
1040
0.5
1040
0.5
1040
0.5
1040
0.5
1070
     0
1002
{
1002
}
1002
}
  0
VIEWPORT
  5
5677F
102
{ACAD_XDICTIONARY
360
6444B
102
}
100
AcDbEntity
 67
     1
  8
AREA1
100
AcDbViewport
 10
5.25
 20
4.0
 30
0.0
 40
8.4
 41
6.4
 68
     1
 69
     2
1001
ACAD
1000
MVIEW
1002
{
1070
    16
1010
0.563444
1020
-0.880137
1030
1.686493
1010
0.0
1020
0.0
1030
1.0
1040
0.0
1040
4.582914
1040
-1.017175
1040
0.747813
1040
50.0
1040
0.0
1040
0.0
1070
     0
1070
 20000
1070
     1
1070
     1
1070
     0
1070
     0
1070
     0
1070
     0
1040
0.0
1040
0.0
1040
0.0
1040
0.25
1040
0.25
1040
0.25
1040
0.25
1070
     0
1002
{
1002
}
1002
}
  0
ENDSEC
  0
SECTION
  2
OBJECTS
  0
DICTIONARY
  5
458CB
100
AcDbDictionary
  3
ACAD_GROUP
350
458CC
  3
ACAD_LAYOUT
350
458FB
  3
ACAD_MLINESTYLE
350
458D9
  3
ACAD_PLOTSETTINGS
350
458FC
  3
ACAD_PLOTSTYLENAME
350
458F9
  3
ACDBHEADERROUNDTRIPXREC
350
64420
  3
ACDBVARIABLEDICTIONARY
350
458E1
  3
DWGPROPS
350
45901
  0
DICTIONARY
  5
6441E
100
AcDbDictionary
280
     1
  3
ACAD_XREC_ROUNDTRIP
360
6441F
  0
DICTIONARY
  5
64447
100
AcDbDictionary
280
     1
  3
ACAD_XREC_ROUNDTRIP
360
64448
  0
DICTIONARY
  5
6441C
100
AcDbDictionary
280
     1
  3
ACAD_XREC_ROUNDTRIP
360
6441D
  0
DICTIONARY
  5
64443
100
AcDbDictionary
280
     1
  3
ACAD_XREC_ROUNDTRIP
360
64444
  0
DICTIONARY
  5
4592C
100
AcDbDictionary
280
     1
  3
ACAD_LAYOUTSELFREF
360
64442
  0
DICTIONARY
  5
4592A
100
AcDbDictionary
280
     1
  3
ACAD_LAYOUTSELFREF
360
64441
  0
DICTIONARY
  5
64449
100
AcDbDictionary
280
     1
  3
ACAD_XREC_ROUNDTRIP
360
6444A
  0
DICTIONARY
  5
6444B
100
AcDbDictionary
280
     1
  3
ACAD_XREC_ROUNDTRIP
360
6444C
  0
DICTIONARY
  5
458CC
102
{ACAD_REACTORS
330
458CB
102
}
100
AcDbDictionary
  0
DICTIONARY
  5
458FB
102
{ACAD_XDICTIONARY
360
64445
102
}
102
{ACAD_REACTORS
330
458CB
102
}
100
AcDbDictionary
  3
LAYOUT1
350
458FE
  3
MODEL
350
458FD
  0
DICTIONARY
  5
458D9
102
{ACAD_REACTORS
330
458CB
102
}
100
AcDbDictionary
  3
STANDARD
350
458DA
  0
DICTIONARY
  5
458FC
102
{ACAD_REACTORS
330
458CB
102
}
100
AcDbDictionary
  0
ACAD_PROXY_OBJECT
  5
458F9
102
{ACAD_REACTORS
330
458CB
102
}
100
AcDbProxyObject
 90
      499
 91
      501
 93
       86
310
405010041939BDC9B585B0
350
458FA
340
458FA
 94
        0
  0
DICTIONARY
  5
64420
102
{ACAD_REACTORS
330
458CB
102
}
100
AcDbDictionary
  3
CEPSNTYPE
350
6442A
  3
DIMSTYLEDATA
350
6442E
  3
FINGERPRINTGUID
350
6442B
  3
HYPERLINKBASE
350
64423
  3
INSUNITS
350
64429
  3
LAYOUTDICT
350
64425
  3
LWETCUNION
350
64428
  3
PLOTSETDICT
350
64426
  3
PLOTSTYLNAMDICT
350
64427
  3
PSVPSCALE
350
6442D
  3
PUCSBASE
350
64431
  3
PUCSORGBACK
350
64437
  3
PUCSORGBOTTOM
350
64433
  3
PUCSORGFRONT
350
64436
  3
PUCSORGLEFT
350
64434
  3
PUCSORGRIGHT
350
64435
  3
PUCSORGTOP
350
64432
  3
PUCSORTHOREF
350
6442F
  3
PUCSORTHOVIEW
350
64430
  3
STYLESHEET
350
64424
  3
TSTACKALIGN
350
64421
  3
TSTACKSIZE
350
64422
  3
UCSBASE
350
6443A
  3
UCSORGBACK
350
64440
  3
UCSORGBOTTOM
350
6443C
  3
UCSORGFRONT
350
6443F
  3
UCSORGLEFT
350
6443D
  3
UCSORGRIGHT
350
6443E
  3
UCSORGTOP
350
6443B
  3
UCSORTHOREF
350
64438
  3
UCSORTHOVIEW
350
64439
  3
VERSIONGUID
350
6442C
  0
DICTIONARY
  5
458E1
102
{ACAD_REACTORS
330
458CB
102
}
100
AcDbDictionary
  3
DIMADEC
350
458E2
  0
XRECORD
  5
45901
102
{ACAD_REACTORS
330
458CB
102
}
100
AcDbXrecord
  1
DWGPROPS COOKIE
  2

  3

  4

  6

  7

  8
colin
  9

300
=
301
=
302
=
303
=
304
=
305
=
306
=
307
=
308
=
309
=
 40
0.000599
 41
2451670.444777
 42
2451670.445376
  1

 90
        0
  0
XRECORD
  5
6441F
102
{ACAD_REACTORS
330
6441E
102
}
100
AcDbXrecord
102
EXTNAMES
  1
*ACTIVE
  2
*Active
102
UCS
 74
     0
 71
     1
 10
0.0
 20
0.0
 30
0.0
 10
1.0
 20
0.0
 30
0.0
 10
0.0
 20
1.0
 30
0.0
146
0.0
 79
     1
102
VIEW
281
     1
  0
XRECORD
  5
64448
102
{ACAD_REACTORS
330
64447
102
}
100
AcDbXrecord
102
PLOTBIT
280
     0
  0
XRECORD
  5
6441D
102
{ACAD_REACTORS
330
6441C
102
}
100
AcDbXrecord
102
EXTNAMES
  1
DEFPOINTS
  2
Defpoints
102
PLOTBIT
280
     0
  0
XRECORD
  5
64444
102
{ACAD_REACTORS
330
64443
102
}
100
AcDbXrecord
102
ACADR14ROUNDTRIP
1000
DSTYLE
1002
{
1070
   276
 70
     2
1070
   277
 70
     5
1070
   279
 70
     2
1070
   289
 70
     2
1002
}
  0
XRECORD
  5
64442
102
{ACAD_REACTORS
330
4592C
102
}
100
AcDbXrecord
340
458D6
  0
XRECORD
  5
64441
102
{ACAD_REACTORS
330
4592A
102
}
100
AcDbXrecord
340
458D3
  0
XRECORD
  5
6444A
102
{ACAD_REACTORS
330
64449
102
}
100
AcDbXrecord
102
UCS
 74
     0
 71
     1
 10
0.0
 20
0.0
 30
0.0
 10
1.0
 20
0.0
 30
0.0
 10
0.0
 20
1.0
 30
0.0
146
0.0
 79
     0
102
VIEW
281
     0
102
NEWVIEWCONTROL
280
     4
  0
XRECORD
  5
6444C
102
{ACAD_REACTORS
330
6444B
102
}
100
AcDbXrecord
102
UCS
 74
     0
 71
     1
 10
0.0
 20
0.0
 30
0.0
 10
1.0
 20
0.0
 30
0.0
 10
0.0
 20
1.0
 30
0.0
146
0.0
 79
     1
102
VIEW
281
     1
102
NEWVIEWCONTROL
280
     4
  0
DICTIONARY
  5
64445
100
AcDbDictionary
280
     1
  3
ACAD_XREC_ROUNDTRIP
360
64446
  0
ACAD_PROXY_OBJECT
  5
458FE
102
{ACAD_REACTORS
330
458FB
102
}
100
AcDbProxyObject
 90
      499
 91
      503
 93
     1700
310
90B6E6F6E655F6465766963652C0080000006066661940000000181999865000000000068661940000000001A1986500000000C0CCFC6A4000000018199D9C5011C4C65747465725F28382E35305F785F31312E30305F496E6368657329A901416AA547D11959985D5B1D08148C4D081C195B88185CDCDA59DB9B595B9D1CC
310
B98DD1891069074C61796F75743140501A840201008040342FEFF7FBFDFFFFF3EFDFAFF7FBFFDFC9501008043E3FDFC8102A6A6A0000003033333C0FC000000809999E93F8FFFFFF5766E622403FFFFFEBF333071020
330
458D3
330
5677D
340
0
340
0
 94
        0
  0
ACAD_PROXY_OBJECT
  5
458FD
102
{ACAD_REACTORS
330
458FB
102
}
100
AcDbProxyObject
 90
      499
 91
      503
 93
      924
310
91D4850204C617365724A65742035303030205365726965732050434C20362C01AAAAAAAAA547D11959985D5B1D08148C4D081C195B88185CDCDA59DB9B595B9D1CCB98DD18A69054D6F64656C901A800000000000000000000000000000000000000000000A1000000000000008902A6A6AAAAF
330
458D6
330
0
340
0
340
0
 94
        0
  0
MLINESTYLE
  5
458DA
102
{ACAD_REACTORS
330
458D9
102
}
100
AcDbMlineStyle
  2
STANDARD
 70
     0
  3

 62
   256
 51
90.0
 52
90.0
 71
     2
 49
0.5
 62
   256
  6
BYLAYER
 49
-0.5
 62
   256
  6
BYLAYER
  0
ACAD_PROXY_OBJECT
  5
458FA
102
{ACAD_REACTORS
330
458F9
102
}
100
AcDbProxyObject
 90
      499
 91
      502
 93
        0
 94
        0
  0
XRECORD
  5
6442A
102
{ACAD_REACTORS
330
64420
102
}
100
AcDbXrecord
 90
        0
  0
XRECORD
  5
6442E
102
{ACAD_REACTORS
330
64420
102
}
100
AcDbXrecord
1000
DSTYLE
1002
{
1070
   276
 70
     2
1070
   277
 70
     5
1070
   279
 70
     2
1070
   289
 70
     2
1002
}
  0
XRECORD
  5
6442B
102
{ACAD_REACTORS
330
64420
102
}
100
AcDbXrecord
  1
{6E0CF4B8-225E-11D4-A150-00A0CC3303EC}
  0
XRECORD
  5
64423
102
{ACAD_REACTORS
330
64420
102
}
100
AcDbXrecord
  1

  0
XRECORD
  5
64429
102
{ACAD_REACTORS
330
64420
102
}
100
AcDbXrecord
 90
        0
  0
XRECORD
  5
64425
102
{ACAD_REACTORS
330
64420
102
}
100
AcDbXrecord
340
458FB
  0
XRECORD
  5
64428
102
{ACAD_REACTORS
330
64420
102
}
100
AcDbXrecord
 90
    14877
  0
XRECORD
  5
64426
102
{ACAD_REACTORS
330
64420
102
}
100
AcDbXrecord
340
458FC
  0
XRECORD
  5
64427
102
{ACAD_REACTORS
330
64420
102
}
100
AcDbXrecord
340
458F9
  0
XRECORD
  5
6442D
102
{ACAD_REACTORS
330
64420
102
}
100
AcDbXrecord
 40
0.0
  0
XRECORD
  5
64431
102
{ACAD_REACTORS
330
64420
102
}
100
AcDbXrecord
340
0
  0
XRECORD
  5
64437
102
{ACAD_REACTORS
330
64420
102
}
100
AcDbXrecord
 10
0.0
 20
0.0
 30
0.0
  0
XRECORD
  5
64433
102
{ACAD_REACTORS
330
64420
102
}
100
AcDbXrecord
 10
0.0
 20
0.0
 30
0.0
  0
XRECORD
  5
64436
102
{ACAD_REACTORS
330
64420
102
}
100
AcDbXrecord
 10
0.0
 20
0.0
 30
0.0
  0
XRECORD
  5
64434
102
{ACAD_REACTORS
330
64420
102
}
100
AcDbXrecord
 10
0.0
 20
0.0
 30
0.0
  0
XRECORD
  5
64435
102
{ACAD_REACTORS
330
64420
102
}
100
AcDbXrecord
 10
0.0
 20
0.0
 30
0.0
  0
XRECORD
  5
64432
102
{ACAD_REACTORS
330
64420
102
}
100
AcDbXrecord
 10
0.0
 20
0.0
 30
0.0
  0
XRECORD
  5
6442F
102
{ACAD_REACTORS
330
64420
102
}
100
AcDbXrecord
340
0
  0
XRECORD
  5
64430
102
{ACAD_REACTORS
330
64420
102
}
100
AcDbXrecord
 70
     0
  0
XRECORD
  5
64424
102
{ACAD_REACTORS
330
64420
102
}
100
AcDbXrecord
  1

  0
XRECORD
  5
64421
102
{ACAD_REACTORS
330
64420
102
}
100
AcDbXrecord
 90
        1
  0
XRECORD
  5
64422
102
{ACAD_REACTORS
330
64420
102
}
100
AcDbXrecord
 90
       70
  0
XRECORD
  5
6443A
102
{ACAD_REACTORS
330
64420
102
}
100
AcDbXrecord
340
0
  0
XRECORD
  5
64440
102
{ACAD_REACTORS
330
64420
102
}
100
AcDbXrecord
 10
0.0
 20
0.0
 30
0.0
  0
XRECORD
  5
6443C
102
{ACAD_REACTORS
330
64420
102
}
100
AcDbXrecord
 10
0.0
 20
0.0
 30
0.0
  0
XRECORD
  5
6443F
102
{ACAD_REACTORS
330
64420
102
}
100
AcDbXrecord
 10
0.0
 20
0.0
 30
0.0
  0
XRECORD
  5
6443D
102
{ACAD_REACTORS
330
64420
102
}
100
AcDbXrecord
 10
0.0
 20
0.0
 30
0.0
  0
XRECORD
  5
6443E
102
{ACAD_REACTORS
330
64420
102
}
100
AcDbXrecord
 10
0.0
 20
0.0
 30
0.0
  0
XRECORD
  5
6443B
102
{ACAD_REACTORS
330
64420
102
}
100
AcDbXrecord
 10
0.0
 20
0.0
 30
0.0
  0
XRECORD
  5
64438
102
{ACAD_REACTORS
330
64420
102
}
100
AcDbXrecord
340
0
  0
XRECORD
  5
64439
102
{ACAD_REACTORS
330
64420
102
}
100
AcDbXrecord
 70
     1
  0
XRECORD
  5
6442C
102
{ACAD_REACTORS
330
64420
102
}
100
AcDbXrecord
  1
{EF14B4CA-6F27-419C-92AB-A9DF78036F21}
  0
DICTIONARYVAR
  5
458E2
102
{ACAD_REACTORS
330
458E1
102
}
100
DictionaryVariables
280
     0
  1
0
  0
XRECORD
  5
64446
102
{ACAD_REACTORS
330
64445
102
}
100
AcDbXrecord
102
EXTNAMES
  1
LAYOUT1
  2
Layout1
  1
MODEL
  2
Model
  0
ENDSEC
  0
EOF
