  0
SECTION
  2
HEADER
  9
$ACADVER
  1
AC1014
  9
$ACADMAINTVER
 70
     9
  9
$DWGCODEPAGE
  3
ANSI_1252
  9
$INSBASE
 10
-934.4321662342375
 20
43.40922762372033
 30
-1.0
  9
$EXTMIN
 10
-973.9325958393818
 20
32.6073955757549
 30
-1.007515347818277
  9
$EXTMAX
 10
-863.8983786455353
 20
53.98427857191648
 30
44.8499996185
  9
$LIMMIN
 10
0.0
 20
0.0
  9
$LIMMAX
 10
12.0
 20
9.0
  9
$ORTHOMODE
 70
     0
  9
$REGENMODE
 70
     1
  9
$FILLMODE
 70
     1
  9
$QTEXTMODE
 70
     0
  9
$MIRRTEXT
 70
     1
  9
$DRAGMODE
 70
     2
  9
$LTSCALE
 40
1.0
  9
$OSMODE
 70
    37
  9
$ATTMODE
 70
     0
  9
$TEXTSIZE
 40
0.2
  9
$TRACEWID
 40
0.05
  9
$TEXTSTYLE
  7
STANDARD
  9
$CLAYER
  8
0
  9
$CELTYPE
  6
BYLAYER
  9
$CECOLOR
 62
   256
  9
$CELTSCALE
 40
1.0
  9
$DELOBJ
 70
     1
  9
$DISPSILH
 70
     0
  9
$DIMSCALE
 40
0.0
  9
$DIMASZ
 40
0.1796875
  9
$DIMEXO
 40
0.0625
  9
$DIMDLI
 40
0.375
  9
$DIMRND
 40
0.0
  9
$DIMDLE
 40
0.0
  9
$DIMEXE
 40
0.1796875
  9
$DIMTP
 40
0.0
  9
$DIMTM
 40
0.0
  9
$DIMTXT
 40
0.125
  9
$DIMCEN
 40
0.08984375
  9
$DIMTSZ
 40
0.0
  9
$DIMTOL
 70
     0
  9
$DIMLIM
 70
     0
  9
$DIMTIH
 70
     0
  9
$DIMTOH
 70
     0
  9
$DIMSE1
 70
     0
  9
$DIMSE2
 70
     0
  9
$DIMTAD
 70
     0
  9
$DIMZIN
 70
     4
  9
$DIMBLK
  1

  9
$DIMASO
 70
     1
  9
$DIMSHO
 70
     1
  9
$DIMPOST
  1

  9
$DIMAPOST
  1

  9
$DIMALT
 70
     1
  9
$DIMALTD
 70
     6
  9
$DIMALTF
 40
0.03937
  9
$DIMLFAC
 40
1.0
  9
$DIMTOFL
 70
     0
  9
$DIMTVP
 40
0.0
  9
$DIMTIX
 70
     1
  9
$DIMSOXD
 70
     0
  9
$DIMSAH
 70
     0
  9
$DIMBLK1
  1

  9
$DIMBLK2
  1

  9
$DIMSTYLE
  2
ABECAD_3V
  9
$DIMCLRD
 70
     0
  9
$DIMCLRE
 70
     0
  9
$DIMCLRT
 70
     0
  9
$DIMTFAC
 40
1.5
  9
$DIMGAP
 40
0.09375
  9
$DIMJUST
 70
     0
  9
$DIMSD1
 70
     0
  9
$DIMSD2
 70
     0
  9
$DIMTOLJ
 70
     1
  9
$DIMTZIN
 70
     4
  9
$DIMALTZ
 70
     4
  9
$DIMALTTZ
 70
     4
  9
$DIMFIT
 70
     5
  9
$DIMUPT
 70
     0
  9
$DIMUNIT
 70
     2
  9
$DIMDEC
 70
     2
  9
$DIMTDEC
 70
     2
  9
$DIMALTU
 70
     7
  9
$DIMALTTD
 70
     6
  9
$DIMTXSTY
  7
STANDARD
  9
$DIMAUNIT
 70
     0
  9
$LUNITS
 70
     2
  9
$LUPREC
 70
     6
  9
$SKETCHINC
 40
0.1
  9
$FILLETRAD
 40
0.0
  9
$AUNITS
 70
     0
  9
$AUPREC
 70
     0
  9
$MENU
  1
acad
  9
$ELEVATION
 40
0.0
  9
$PELEVATION
 40
0.0
  9
$THICKNESS
 40
0.0
  9
$LIMCHECK
 70
     0
  9
$BLIPMODE
 70
     0
  9
$CHAMFERA
 40
0.0
  9
$CHAMFERB
 40
0.0
  9
$CHAMFERC
 40
0.0
  9
$CHAMFERD
 40
0.0
  9
$SKPOLY
 70
     0
  9
$TDCREATE
 40
2451670.449415046
  9
$TDUPDATE
 40
2453137.557261863
  9
$TDINDWG
 40
0.4077140509
  9
$TDUSRTIMER
 40
0.4077140509
  9
$USRTIMER
 70
     1
  9
$ANGBASE
 50
0.0
  9
$ANGDIR
 70
     0
  9
$PDMODE
 70
     3
  9
$PDSIZE
 40
2.286
  9
$PLINEWID
 40
0.0
  9
$COORDS
 70
     1
  9
$SPLFRAME
 70
     0
  9
$SPLINETYPE
 70
     6
  9
$SPLINESEGS
 70
     8
  9
$ATTDIA
 70
     0
  9
$ATTREQ
 70
     1
  9
$HANDLING
 70
 22529
  9
$HANDSEED
  5
2A7C
  9
$SURFTAB1
 70
     6
  9
$SURFTAB2
 70
     6
  9
$SURFTYPE
 70
     6
  9
$SURFU
 70
     6
  9
$SURFV
 70
     6
  9
$UCSNAME
  2

  9
$UCSORG
 10
0.0
 20
0.0
 30
0.0
  9
$UCSXDIR
 10
1.0
 20
0.0
 30
0.0
  9
$UCSYDIR
 10
0.0
 20
0.0
 30
1.0
  9
$PUCSNAME
  2

  9
$PUCSORG
 10
0.0
 20
0.0
 30
0.0
  9
$PUCSXDIR
 10
1.0
 20
0.0
 30
0.0
  9
$PUCSYDIR
 10
0.0
 20
1.0
 30
0.0
  9
$USERI1
 70
     0
  9
$USERI2
 70
     0
  9
$USERI3
 70
     0
  9
$USERI4
 70
     0
  9
$USERI5
 70
     0
  9
$USERR1
 40
0.0
  9
$USERR2
 40
0.0
  9
$USERR3
 40
0.0
  9
$USERR4
 40
0.0
  9
$USERR5
 40
0.0
  9
$WORLDVIEW
 70
     1
  9
$SHADEDGE
 70
     3
  9
$SHADEDIF
 70
    70
  9
$TILEMODE
 70
     0
  9
$MAXACTVP
 70
    16
  9
$PINSBASE
 10
0.0
 20
0.0
 30
0.0
  9
$PLIMCHECK
 70
     0
  9
$PEXTMIN
 10
0.0226429257092988
 20
0.0040681204654334
 30
0.0
  9
$PEXTMAX
 10
10.55573210096327
 20
8.074637622092751
 30
0.0
  9
$PLIMMIN
 10
-0.2112501249538632
 20
-0.2112499935420479
  9
$PLIMMAX
 10
10.78874963475024
 20
8.288749766162061
  9
$UNITMODE
 70
     0
  9
$VISRETAIN
 70
     0
  9
$PLINEGEN
 70
     0
  9
$PSLTSCALE
 70
     1
  9
$TREEDEPTH
 70
  3020
  9
$PICKSTYLE
 70
     1
  9
$CMLSTYLE
  2
STANDARD
  9
$CMLJUST
 70
     0
  9
$CMLSCALE
 40
1.0
  9
$PROXYGRAPHICS
 70
     1
  9
$MEASUREMENT
 70
     1
  0
ENDSEC
  0
SECTION
  2
CLASSES
  0
CLASS
  1
DICTIONARYVAR
  2
AcDbDictionaryVar
  3
AutoCAD 2000
 90
        0
280
     0
281
     0
  0
CLASS
  1
ACDBDICTIONARYWDFLT
  2
AcDbDictionaryWithDefault
  3
AutoCAD 2000
 90
        0
280
     0
281
     0
  0
CLASS
  1
ACDBPLACEHOLDER
  2
AcDbPlaceHolder
  3
AutoCAD 2000
 90
        0
280
     0
281
     0
  0
CLASS
  1
LAYOUT
  2
AcDbLayout
  3
AutoCAD 2000
 90
        0
280
     0
281
     0
  0
CLASS
  1
LONG_TRANSACTION
  2
AcDbLongTransaction
  3
AutoCAD 2000
 90
        0
280
     0
281
     0
  0
CLASS
  1
LWPOLYLINE
  2
AcDbPolyline
  3
AutoCAD 2000
 90
        0
280
     0
281
     1
  0
CLASS
  1
HATCH
  2
AcDbHatch
  3
AutoCAD 2000
 90
        0
280
     0
281
     1
  0
CLASS
  1
XRECORD
  2
AcDbXrecord
  3
AutoCAD 2000
 90
        0
280
     0
281
     0
  0
CLASS
  1
LONG_TRANSACTION
  2
AcDbLongTransaction
  3
AutoCAD 2000
 90
        0
280
     0
281
     0
  0
CLASS
  1
LWPOLYLINE
  2
AcDbPolyline
  3
AutoCAD 2000
 90
        0
280
     0
281
     1
  0
CLASS
  1
HATCH
  2
AcDbHatch
  3
AutoCAD 2000
 90
        0
280
     0
281
     1
  0
CLASS
  1
XRECORD
  2
AcDbXrecord
  3
AutoCAD 2000
 90
        0
280
     0
281
     0
  0
CLASS
  1
LONG_TRANSACTION
  2
AcDbLongTransaction
  3
AutoCAD 2000
 90
        0
280
     0
281
     0
  0
CLASS
  1
LWPOLYLINE
  2
AcDbPolyline
  3
AutoCAD 2000
 90
        0
280
     0
281
     1
  0
CLASS
  1
HATCH
  2
AcDbHatch
  3
AutoCAD 2000
 90
        0
280
     0
281
     1
  0
CLASS
  1
XRECORD
  2
AcDbXrecord
  3
AutoCAD 2000
 90
        0
280
     0
281
     0
  0
CLASS
  1
LONG_TRANSACTION
  2
AcDbLongTransaction
  3
AutoCAD 2000
 90
        0
280
     0
281
     0
  0
CLASS
  1
LWPOLYLINE
  2
AcDbPolyline
  3
AutoCAD 2000
 90
        0
280
     0
281
     1
  0
CLASS
  1
HATCH
  2
AcDbHatch
  3
AutoCAD 2000
 90
        0
280
     0
281
     1
  0
CLASS
  1
XRECORD
  2
AcDbXrecord
  3
AutoCAD 2000
 90
        0
280
     0
281
     0
  0
CLASS
  1
LONG_TRANSACTION
  2
AcDbLongTransaction
  3
AutoCAD 2000
 90
        0
280
     0
281
     0
  0
CLASS
  1
LWPOLYLINE
  2
AcDbPolyline
  3
AutoCAD 2000
 90
        0
280
     0
281
     1
  0
CLASS
  1
HATCH
  2
AcDbHatch
  3
AutoCAD 2000
 90
        0
280
     0
281
     1
  0
CLASS
  1
XRECORD
  2
AcDbXrecord
  3
AutoCAD 2000
 90
        0
280
     0
281
     0
  0
CLASS
  1
TABLESTYLE
  2
AcDbTableStyle
  3
ObjectDBX Classes
 90
     2047
280
     0
281
     0
  0
CLASS
  1
SORTENTSTABLE
  2
AcDbSortentsTable
  3
AutoCAD 2000
 90
        0
280
     0
281
     0
  0
CLASS
  1
ACAD_PROXY_OBJECT_WRAPPER
  2
AcDbProxyObjectWrapper
  3
AutoCAD 2000
 90
        0
280
     0
281
     0
  0
CLASS
  1
LONG_TRANSACTION
  2
AcDbLongTransaction
  3
AutoCAD 2000
 90
        0
280
     0
281
     0
  0
CLASS
  1
LWPOLYLINE
  2
AcDbPolyline
  3
AutoCAD 2000
 90
        0
280
     0
281
     1
  0
CLASS
  1
HATCH
  2
AcDbHatch
  3
AutoCAD 2000
 90
        0
280
     0
281
     1
  0
CLASS
  1
XRECORD
  2
AcDbXrecord
  3
AutoCAD 2000
 90
        0
280
     0
281
     0
  0
CLASS
  1
LONG_TRANSACTION
  2
AcDbLongTransaction
  3
AutoCAD 2000
 90
        0
280
     0
281
     0
  0
CLASS
  1
LWPOLYLINE
  2
AcDbPolyline
  3
AutoCAD 2000
 90
        0
280
     0
281
     1
  0
CLASS
  1
HATCH
  2
AcDbHatch
  3
AutoCAD 2000
 90
        0
280
     0
281
     1
  0
CLASS
  1
XRECORD
  2
AcDbXrecord
  3
AutoCAD 2000
 90
        0
280
     0
281
     0
  0
ENDSEC
  0
SECTION
  2
TABLES
  0
TABLE
  2
VPORT
  5
469
330
0
100
AcDbSymbolTable
 70
     1
  0
VPORT
  5
29C7
330
469
100
AcDbSymbolTableRecord
100
AcDbViewportTableRecord
  2
*ACTIVE
 70
     0
 10
0.0
 20
0.0
 11
1.0
 21
1.0
 12
-708.114366008843
 22
-90.51581970385585
 13
0.0
 23
0.0
 14
1.0
 24
1.0
 15
0.0
 25
0.0
 16
0.0
 26
0.0
 36
1.0
 17
-201.2859912414894
 27
133.0085389778893
 37
31.31551725228996
 40
94.6507346231418
 41
1.775510204081632
 42
50.0
 43
0.0
 44
0.0
 50
0.0
 51
0.0
 71
     0
 72
   100
 73
     1
 74
     1
 75
     0
 76
     0
 77
     0
 78
     0
  0
ENDTAB
  0
TABLE
  2
LTYPE
  5
466
330
0
100
AcDbSymbolTable
 70
     1
  0
LTYPE
  5
472
330
466
100
AcDbSymbolTableRecord
100
AcDbLinetypeTableRecord
  2
BYBLOCK
 70
     0
  3

 72
    65
 73
     0
 40
0.0
  0
LTYPE
  5
473
330
466
100
AcDbSymbolTableRecord
100
AcDbLinetypeTableRecord
  2
BYLAYER
 70
     0
  3

 72
    65
 73
     0
 40
0.0
  0
LTYPE
  5
474
330
466
100
AcDbSymbolTableRecord
100
AcDbLinetypeTableRecord
  2
CONTINUOUS
 70
     0
  3
Solid line
 72
    65
 73
     0
 40
0.0
  0
ENDTAB
  0
TABLE
  2
LAYER
  5
463
102
{ACAD_XDICTIONARY
360
2908
102
}
330
0
100
AcDbSymbolTable
 70
     8
  0
LAYER
  5
46F
330
463
100
AcDbSymbolTableRecord
100
AcDbLayerTableRecord
  2
0
 70
     0
 62
     7
  6
CONTINUOUS
  0
LAYER
  5
485
330
463
100
AcDbSymbolTableRecord
100
AcDbLayerTableRecord
  2
AREA1
 70
     0
 62
     7
  6
CONTINUOUS
  0
LAYER
  5
486
330
463
100
AcDbSymbolTableRecord
100
AcDbLayerTableRecord
  2
AREA2
 70
     0
 62
     7
  6
CONTINUOUS
  0
LAYER
  5
494
330
463
100
AcDbSymbolTableRecord
100
AcDbLayerTableRecord
  2
DEFPOINTS
 70
     0
 62
    -7
  6
CONTINUOUS
  0
LAYER
  5
495
330
463
100
AcDbSymbolTableRecord
100
AcDbLayerTableRecord
  2
DIMS-MTG-HOLES
 70
     0
 62
    -1
  6
CONTINUOUS
  0
LAYER
  5
4EB
330
463
100
AcDbSymbolTableRecord
100
AcDbLayerTableRecord
  2
SCALE
 70
     0
 62
    -7
  6
CONTINUOUS
  0
LAYER
  5
560
330
463
100
AcDbSymbolTableRecord
100
AcDbLayerTableRecord
  2
ATTRIBUTES
 70
     0
 62
    -7
  6
CONTINUOUS
  0
LAYER
  5
561
330
463
100
AcDbSymbolTableRecord
100
AcDbLayerTableRecord
  2
SNAP_POINTS
 70
     0
 62
    -1
  6
CONTINUOUS
  0
ENDTAB
  0
TABLE
  2
STYLE
  5
464
330
0
100
AcDbSymbolTable
 70
     1
  0
STYLE
  5
470
330
464
100
AcDbSymbolTableRecord
100
AcDbTextStyleTableRecord
  2
STANDARD
 70
     0
 40
0.0
 41
1.0
 50
0.0
 71
     0
 42
0.2
  3
txt
  4

  0
ENDTAB
  0
TABLE
  2
VIEW
  5
467
330
0
100
AcDbSymbolTable
 70
     0
  0
ENDTAB
  0
TABLE
  2
UCS
  5
468
330
0
100
AcDbSymbolTable
 70
     0
  0
ENDTAB
  0
TABLE
  2
APPID
  5
46A
330
0
100
AcDbSymbolTable
 70
     2
  0
APPID
  5
471
330
46A
100
AcDbSymbolTableRecord
100
AcDbRegAppTableRecord
  2
ACAD
 70
     0
  0
APPID
  5
47E
330
46A
100
AcDbSymbolTableRecord
100
AcDbRegAppTableRecord
  2
AVE_RENDER
 70
     0
  0
ENDTAB
  0
TABLE
  2
DIMSTYLE
  5
46B
330
0
100
AcDbSymbolTable
 70
     3
  0
DIMSTYLE
105
47F
330
46B
100
AcDbSymbolTableRecord
100
AcDbDimStyleTableRecord
  2
STANDARD
 70
     0
  3

  4

  5

  6

  7

 40
1.0
 41
0.18
 42
0.0625
 43
0.38
 44
0.18
 45
0.0
 46
0.0
 47
0.0
 48
0.0
140
0.18
141
0.09
142
0.0
143
25.4
144
1.0
145
0.0
146
1.0
147
0.09
 71
     0
 72
     0
 73
     1
 74
     1
 75
     0
 76
     0
 77
     0
 78
     0
170
     0
171
     2
172
     0
173
     0
174
     0
175
     0
176
     0
177
     0
178
     0
270
     5
271
     6
272
     6
273
     5
274
     1
340
470
275
     0
280
     0
281
     0
282
     0
283
     1
284
     4
285
     4
286
     4
287
     5
288
     0
  0
DIMSTYLE
105
49A
330
46B
100
AcDbSymbolTableRecord
100
AcDbDimStyleTableRecord
  2
ABECAD_3V
 70
     0
  3

  4

  5

  6

  7

 40
0.0
 41
0.1796875
 42
0.0625
 43
0.375
 44
0.1796875
 45
0.0
 46
0.0
 47
0.0
 48
0.0
140
0.125
141
0.08984375
142
0.0
143
0.03937
144
1.0
145
0.0
146
1.5
147
0.09375
 71
     0
 72
     0
 73
     0
 74
     0
 75
     0
 76
     0
 77
     0
 78
     4
170
     1
171
     6
172
     0
173
     0
174
     1
175
     0
176
     0
177
     0
178
     0
270
     2
271
     2
272
     2
273
     7
274
     6
340
470
275
     0
280
     0
281
     0
282
     0
283
     1
284
     4
285
     4
286
     4
287
     5
288
     0
  0
DIMSTYLE
105
565
102
{ACAD_REACTORS
330
2971
330
2972
330
2973
102
}
330
46B
100
AcDbSymbolTableRecord
100
AcDbDimStyleTableRecord
  2
ABECAD_3D
 70
     0
  3

  4

  5

  6

  7

 40
1.0
 41
4.572
 42
1.587499999999999
 43
9.525
 44
4.572
 45
0.0
 46
0.0
 47
0.0
 48
0.0
140
4.572
141
2.286
142
0.0
143
0.03937
144
1.0
145
0.0
146
1.5
147
2.286
 71
     0
 72
     0
 73
     0
 74
     1
 75
     0
 76
     0
 77
     0
 78
     4
170
     1
171
     6
172
     0
173
     0
174
     0
175
     0
176
     0
177
     0
178
     0
270
     2
271
     2
272
     2
273
     7
274
     6
340
470
275
     0
280
     0
281
     0
282
     0
283
     1
284
     4
285
     4
286
     4
287
     5
288
     1
  0
ENDTAB
  0
TABLE
  2
BLOCK_RECORD
  5
462
330
0
100
AcDbSymbolTable
 70
     3
  0
BLOCK_RECORD
  5
478
102
{ACAD_XDICTIONARY
360
4D7
102
}
330
462
100
AcDbSymbolTableRecord
100
AcDbBlockTableRecord
  2
*MODEL_SPACE
  0
BLOCK_RECORD
  5
2851
102
{ACAD_XDICTIONARY
360
2887
102
}
330
462
100
AcDbSymbolTableRecord
100
AcDbBlockTableRecord
  2
*PAPER_SPACE
  0
BLOCK_RECORD
  5
2975
330
462
100
AcDbSymbolTableRecord
100
AcDbBlockTableRecord
  2
*D0
  0
BLOCK_RECORD
  5
2982
330
462
100
AcDbSymbolTableRecord
100
AcDbBlockTableRecord
  2
*D1
  0
BLOCK_RECORD
  5
298F
330
462
100
AcDbSymbolTableRecord
100
AcDbBlockTableRecord
  2
*D2
  0
ENDTAB
  0
ENDSEC
  0
SECTION
  2
BLOCKS
  0
BLOCK
  5
48B
330
478
100
AcDbEntity
  8
0
100
AcDbBlockBegin
  2
*MODEL_SPACE
 70
     0
 10
0.0
 20
0.0
 30
0.0
  3
*MODEL_SPACE
  1

  0
ENDBLK
  5
48C
330
478
100
AcDbEntity
  8
0
100
AcDbBlockEnd
  0
BLOCK
  5
2858
330
2851
100
AcDbEntity
 67
     1
  8
0
100
AcDbBlockBegin
  2
*PAPER_SPACE
 70
     0
 10
0.0
 20
0.0
 30
0.0
  3
*PAPER_SPACE
  1

  0
ENDBLK
  5
2859
330
2851
100
AcDbEntity
 67
     1
  8
0
100
AcDbBlockEnd
  0
BLOCK
  5
2980
330
2975
100
AcDbEntity
  8
0
100
AcDbBlockBegin
  2
*D0
 70
     1
 10
0.0
 20
0.0
 30
0.0
  3
*D0
  1

  0
LINE
  5
299C
330
2975
100
AcDbEntity
  8
AREA1
 62
     0
100
AcDbLine
 10
-870.8571588422374
 20
41.40922762372032
 30
0.0
 11
-866.2851588422375
 21
41.40922762372032
 31
0.0
  0
LINE
  5
299D
330
2975
100
AcDbEntity
  8
AREA1
 62
     0
100
AcDbLine
 10
-870.8571588422374
 20
43.40922762372032
 30
0.0
 11
-866.2851588422375
 21
43.40922762372032
 31
0.0
  0
LINE
  5
299E
330
2975
100
AcDbEntity
  8
AREA1
 62
     0
100
AcDbLine
 10
-870.8571588422374
 20
39.40922762372032
 30
0.0
 11
-870.8571588422374
 21
37.40922762372032
 31
0.0
  0
LINE
  5
299F
330
2975
100
AcDbEntity
  8
AREA1
 62
     0
100
AcDbLine
 10
-870.8571588422374
 20
45.40922762372032
 30
0.0
 11
-870.8571588422374
 21
47.40922762372032
 31
0.0
  0
MTEXT
  5
29A0
330
2975
100
AcDbEntity
  8
AREA1
 62
     0
100
AcDbMText
 10
-864.8983786455357
 20
42.28786470366431
 30
0.0
 40
2.0
 41
0.0
 71
     5
 72
     1
  1
\A1;2.00 [5/64]
 11
0.0000000000000001
 21
1.0
 31
0.0
1001
ACAD
1000
MTEXTBEGIN
1070
    73
1070
     1
1070
    44
1040
1.0
1070
    74
1070
     0
1000
MTEXTEND
  0
SOLID
  5
29A1
330
2975
100
AcDbEntity
  8
AREA1
 62
     0
100
AcDbTrace
 10
-871.1904921755708
 20
39.40922762372032
 30
0.0
 11
-870.5238255089041
 21
39.40922762372032
 31
0.0
 12
-870.8571588422374
 22
41.40922762372032
 32
0.0
 13
-870.8571588422374
 23
41.40922762372032
 33
0.0
  0
SOLID
  5
29A2
330
2975
100
AcDbEntity
  8
AREA1
 62
     0
100
AcDbTrace
 10
-871.1904921755708
 20
45.40922762372032
 30
0.0
 11
-870.5238255089041
 21
45.40922762372032
 31
0.0
 12
-870.8571588422374
 22
43.40922762372032
 32
0.0
 13
-870.8571588422374
 23
43.40922762372032
 33
0.0
  0
POINT
  5
29A3
330
2975
100
AcDbEntity
  8
DEFPOINTS
 62
     0
100
AcDbPoint
 10
-872.4446588422374
 20
41.40922762372032
 30
44.8499996185
  0
POINT
  5
29A4
330
2975
100
AcDbEntity
  8
DEFPOINTS
 62
     0
100
AcDbPoint
 10
-872.4446588422374
 20
43.40922762372032
 30
0.0
  0
POINT
  5
29A5
330
2975
100
AcDbEntity
  8
DEFPOINTS
 62
     0
100
AcDbPoint
 10
-870.8571588422374
 20
43.40922762372032
 30
0.0
  0
ENDBLK
  5
2981
330
2975
100
AcDbEntity
  8
0
100
AcDbBlockEnd
  0
BLOCK
  5
298D
330
2982
100
AcDbEntity
  8
0
100
AcDbBlockBegin
  2
*D1
 70
     1
 10
0.0
 20
0.0
 30
0.0
  3
*D1
  1

  0
LINE
  5
29A6
330
2982
100
AcDbEntity
  8
AREA1
 62
     0
100
AcDbLine
 10
-934.4321662342375
 20
44.99672762372035
 30
0.0
 11
-934.4321662342375
 21
52.39800090689126
 31
0.0
  0
LINE
  5
29A7
330
2982
100
AcDbEntity
  8
AREA1
 62
     0
100
AcDbLine
 10
-872.4446588422374
 20
44.99672762372033
 30
0.0
 11
-872.4446588422374
 21
52.39800090689126
 31
0.0
  0
LINE
  5
29A8
330
2982
100
AcDbEntity
  8
AREA1
 62
     0
100
AcDbLine
 10
-932.4321662342374
 20
47.82600090689125
 30
0.0
 11
-917.391079204904
 21
47.82600090689125
 31
0.0
  0
LINE
  5
29A9
330
2982
100
AcDbEntity
  8
AREA1
 62
     0
100
AcDbLine
 10
-874.4446588422375
 20
47.82600090689125
 30
0.0
 11
-889.4857458715707
 21
47.82600090689125
 31
0.0
  0
MTEXT
  5
29AA
330
2982
100
AcDbEntity
  8
AREA1
 62
     0
100
AcDbMText
 10
-903.4384125382374
 20
47.82600090689126
 30
0.0
 40
2.0
 41
0.0
 71
     5
 72
     1
  1
\A1;61.99 [2 7/16]
1001
ACAD
1000
MTEXTBEGIN
1070
    73
1070
     1
1070
    44
1040
1.0
1070
    74
1070
     0
1000
MTEXTEND
  0
SOLID
  5
29AB
330
2982
100
AcDbEntity
  8
AREA1
 62
     0
100
AcDbTrace
 10
-932.4321662342374
 20
48.15933424022459
 30
0.0
 11
-932.4321662342374
 21
47.49266757355791
 31
0.0
 12
-934.4321662342375
 22
47.82600090689125
 32
0.0
 13
-934.4321662342375
 23
47.82600090689125
 33
0.0
  0
SOLID
  5
29AC
330
2982
100
AcDbEntity
  8
AREA1
 62
     0
100
AcDbTrace
 10
-874.4446588422375
 20
48.15933424022459
 30
0.0
 11
-874.4446588422375
 21
47.49266757355791
 31
0.0
 12
-872.4446588422374
 22
47.82600090689125
 32
0.0
 13
-872.4446588422374
 23
47.82600090689125
 33
0.0
  0
POINT
  5
29AD
330
2982
100
AcDbEntity
  8
DEFPOINTS
 62
     0
100
AcDbPoint
 10
-934.4321662342375
 20
43.40922762372034
 30
45.84999961850001
  0
POINT
  5
29AE
330
2982
100
AcDbEntity
  8
DEFPOINTS
 62
     0
100
AcDbPoint
 10
-872.4446588422374
 20
43.40922762372033
 30
45.84999961850001
  0
POINT
  5
29AF
330
2982
100
AcDbEntity
  8
DEFPOINTS
 62
     0
100
AcDbPoint
 10
-872.4446588422374
 20
47.82600090689125
 30
0.0
  0
ENDBLK
  5
298E
330
2982
100
AcDbEntity
  8
0
100
AcDbBlockEnd
  0
BLOCK
  5
299A
330
298F
100
AcDbEntity
  8
0
100
AcDbBlockBegin
  2
*D2
 70
     1
 10
0.0
 20
0.0
 30
0.0
  3
*D2
  1

  0
LINE
  5
29B0
330
298F
100
AcDbEntity
  8
AREA2
 62
     0
100
AcDbLine
 10
-870.8571588422374
 20
43.84999961850001
 30
0.0
 11
-864.1204434950953
 21
43.84999961850001
 31
0.0
  0
LINE
  5
29B1
330
298F
100
AcDbEntity
  8
AREA2
 62
     0
100
AcDbLine
 10
-870.8571588422374
 20
-0.9999999999999998
 30
0.0
 11
-864.1204434950953
 21
-1.000000000000001
 31
0.0
  0
LINE
  5
29B2
330
298F
100
AcDbEntity
  8
AREA2
 62
     0
100
AcDbLine
 10
-868.6924434950954
 20
41.8499996185
 30
0.0
 11
-868.6924434950954
 21
36.71099980925013
 31
0.0
  0
LINE
  5
29B3
330
298F
100
AcDbEntity
  8
AREA2
 62
     0
100
AcDbLine
 10
-868.6924434950954
 20
0.9999999999999994
 30
0.0
 11
-868.6924434950954
 21
6.138999809250146
 31
0.0
  0
MTEXT
  5
29B4
330
298F
100
AcDbEntity
  8
AREA2
 62
     0
100
AcDbMText
 10
-868.6924434950954
 20
21.42499980925
 30
0.0
 40
2.0
 41
0.0
 71
     5
 72
     1
  1
\A1;44.85 [1 49/64]
 11
0.0000000000000001
 21
1.0
 31
0.0
1001
ACAD
1000
MTEXTBEGIN
1070
    73
1070
     1
1070
    44
1040
1.0
1070
    74
1070
     0
1000
MTEXTEND
  0
SOLID
  5
29B5
330
298F
100
AcDbEntity
  8
AREA2
 62
     0
100
AcDbTrace
 10
-869.0257768284288
 20
41.8499996185
 30
0.0
 11
-868.359110161762
 21
41.8499996185
 31
0.0
 12
-868.6924434950954
 22
43.84999961850001
 32
0.0
 13
-868.6924434950954
 23
43.84999961850001
 33
0.0
  0
SOLID
  5
29B6
330
298F
100
AcDbEntity
  8
AREA2
 62
     0
100
AcDbTrace
 10
-869.0257768284288
 20
0.9999999999999996
 30
0.0
 11
-868.359110161762
 21
0.9999999999999994
 31
0.0
 12
-868.6924434950954
 22
-1.0
 32
0.0
 13
-868.6924434950954
 23
-1.0
 33
0.0
  0
POINT
  5
29B7
330
298F
100
AcDbEntity
  8
DEFPOINTS
 62
     0
100
AcDbPoint
 10
-872.4446588422374
 20
43.84999961850001
 30
0.0000000000000071
  0
POINT
  5
29B8
330
298F
100
AcDbEntity
  8
DEFPOINTS
 62
     0
100
AcDbPoint
 10
-872.4446588422374
 20
-0.9999999999999994
 30
2.000000000000021
  0
POINT
  5
29B9
330
298F
100
AcDbEntity
  8
DEFPOINTS
 62
     0
100
AcDbPoint
 10
-868.6924434950954
 20
-1.0
 30
0.0
  0
ENDBLK
  5
299B
330
298F
100
AcDbEntity
  8
0
100
AcDbBlockEnd
  0
ENDSEC
  0
SECTION
  2
ENTITIES
  0
ATTDEF
  5
295D
330
478
100
AcDbEntity
  8
ATTRIBUTES
100
AcDbText
 10
-906.7164477087196
 20
41.69771148932869
 30
-1.007515347818277
 40
0.11999952000048
  1
ALLEN-BRADLEY
 50
90.0
100
AcDbAttributeDefinition
  3
MANUFACTURER NAME?
  2
AC_VND_LABEL
 70
     1
  0
ATTDEF
  5
295E
330
478
100
AcDbEntity
  8
ATTRIBUTES
100
AcDbText
 10
-906.4664487087187
 20
41.69771148932869
 30
-1.007515347818277
 40
0.11999952000048
  1
1492-EBL4
 50
90.0
100
AcDbAttributeDefinition
  3
CATALOG NUMBER?
  2
AC_PART_NO
 70
     1
  0
ATTDEF
  5
295F
330
478
100
AcDbEntity
  8
ATTRIBUTES
100
AcDbText
 10
-906.2164497087177
 20
41.69771148932869
 30
-1.007515347818277
 40
0.11999952000048
  1
End Barrier
 50
90.0
100
AcDbAttributeDefinition
  3
PART DESCRIPTION?
  2
AC_DESCRIPTION
 70
     1
  0
ATTDEF
  5
2960
330
478
100
AcDbEntity
  8
ATTRIBUTES
100
AcDbText
 10
-905.9664507087166
 20
41.69771148932869
 30
-1.007515347818277
 40
0.11999952000048
  1

 50
90.0
100
AcDbAttributeDefinition
  3
DEVICE ID?
  2
DEVICE_ID
 70
     1
  0
ATTDEF
  5
2961
330
478
100
AcDbEntity
  8
ATTRIBUTES
100
AcDbText
 10
-905.7164517087157
 20
41.69771148932869
 30
-1.007515347818277
 40
0.11999952000048
  1

 50
90.0
100
AcDbAttributeDefinition
  3
CUSTOMER PART NUMBER?
  2
AC_CPART_NO
 70
     1
  0
ATTDEF
  5
2962
330
478
100
AcDbEntity
  8
ATTRIBUTES
100
AcDbText
 10
-905.4664527087146
 20
41.69771148932869
 30
-1.007515347818277
 40
0.11999952000048
  1

 50
90.0
100
AcDbAttributeDefinition
  3
CUSTOMER NOTE?
  2
AC_NOTE
 70
     1
  0
ATTDEF
  5
2963
330
478
100
AcDbEntity
  8
ATTRIBUTES
100
AcDbText
 10
-905.2164537087136
 20
41.69771148932869
 30
-1.007515347818277
 40
0.11999952000048
  1

 50
90.0
100
AcDbAttributeDefinition
  3
FASTENER DATA?
  2
FASTENER
 70
     1
  0
ATTDEF
  5
2964
330
478
100
AcDbEntity
  8
ATTRIBUTES
100
AcDbText
 10
-904.9664547087127
 20
41.69771148932869
 30
-1.007515347818277
 40
0.11999952000048
  1
MM
 50
90.0
100
AcDbAttributeDefinition
  3
UNIT OF SCALE?
  2
AC_SCALE_UNIT
 70
     1
  0
ATTDEF
  5
2965
330
478
100
AcDbEntity
  8
ATTRIBUTES
100
AcDbText
 10
-904.7164557087116
 20
41.69771148932869
 30
-1.007515347818277
 40
0.11999952000048
  1
0
 50
90.0
100
AcDbAttributeDefinition
  3
VIEW CODE?
  2
AC_VIEW_CODE
 70
     1
  0
LINE
  5
2966
330
478
100
AcDbEntity
  8
SCALE
100
AcDbLine
 10
-972.2266451108897
 20
38.05220680503406
 30
-1.0
 11
-946.8266451108897
 21
38.05220680503406
 31
-1.0
  0
LINE
  5
2967
330
478
100
AcDbEntity
  8
SCALE
100
AcDbLine
 10
-946.8266451108897
 20
35.51220680503407
 30
-1.0
 11
-946.8266451108897
 21
40.5922068050341
 31
-1.0
  0
LINE
  5
2968
330
478
100
AcDbEntity
  8
SCALE
100
AcDbLine
 10
-972.2266451108897
 20
35.51220680503407
 30
-1.0
 11
-972.2266451108897
 21
40.5922068050341
 31
-1.0
  0
LINE
  5
2969
330
478
100
AcDbEntity
  8
SCALE
100
AcDbLine
 10
-972.2266451108895
 20
43.2386305423273
 30
-1.0
 11
-972.2266451108895
 21
48.31863054232729
 31
-1.0
  0
LINE
  5
296A
330
478
100
AcDbEntity
  8
SCALE
100
AcDbLine
 10
-962.2266651108896
 20
43.2386305423273
 30
-1.0
 11
-962.2266651108896
 21
48.31863054232729
 31
-1.0
  0
LINE
  5
296B
330
478
100
AcDbEntity
  8
SCALE
100
AcDbLine
 10
-972.2266451108895
 20
45.7786305423273
 30
-1.0
 11
-962.2266651108896
 21
45.7786305423273
 31
-1.0
  0
TEXT
  5
296C
330
478
100
AcDbEntity
  8
SCALE
100
AcDbText
 10
-970.7173223701158
 20
46.94041753228979
 30
-1.0
 40
1.587499999999999
  1
10 mm
100
AcDbText
  0
TEXT
  5
296D
330
478
100
AcDbEntity
  8
SCALE
100
AcDbText
 10
-964.6287523778017
 20
39.80604366751338
 30
-1.0
 40
1.587499999999999
  1
[1 Inch]
100
AcDbText
  0
TEXT
  5
296E
330
478
100
AcDbEntity
  8
SCALE
100
AcDbText
 10
-972.4205610307603
 20
51.31216815717917
 30
-1.0
 40
1.587499999999999
  1
SCALE:
100
AcDbText
  0
3DSOLID
  5
2970
330
478
100
AcDbEntity
  8
0
100
AcDbModelerGeometry
 70
     1
  1
noi nnk n o         
  1
=0;& {n {m {rn {rn |
  1
-:9@)+r3(;r>++-6= {rn {rn {rn {o {l {k |
  1
3*2/ {j {rn {i {o |
  1
-:961:2:1+ {rn o o o o oqlonogkhjigjnnfimf lo o o m o |
  1
):-+:'@+:2/3>+: {rn l o n g |
  1
-:9@)+r3(;r>++-6= {rn {rn {rn {m {l {k |
  1
,7:33 {h {rn {rn {g {m |
  1
-:9@)+r3(;r>++-6= {rn {rn {rn {i {l {k |
  1
9><: {f {no {nn {i {rn {nm 90-(>-; ,6183: |
  1
92:,7r3(;r>++-6= {rn {nl {rn {g |
  1
9><: {nk {nj {ni {i {rn {nh -:):-,:; ,6183: |
  1
300/ {rn {rn {ng {g |
  1
/3>1:r,*-9><: {rn rgifqlkjmglkhmilhkj knqkofmmhimlhmolnf rlqmkmkfffgofmkfffj rmqkkfmnmhohikkhjkj:roni rn mqmmokkiokfmjolnln:roni n rmqkkfmnmhohikkhjkj:roni o o V V V V |
  1
-:9@)+r3(;r>++-6= {rn {rn {f {g {l {k |
  1
92:,7r3(;r>++-6= {rn {nf {rn {no |
  1
9><: {mo {mn {mm {i {rn {ml 90-(>-; ,6183: |
  1
300/ {rn {rn {mk {no |
  1
/3>1:r,*-9><: {rn rgifqlkjmglkhmilhkj klqkofmmhimlhmolnf rlqmkmkfffgofmkffff rmqkkfmnmhohikkhjkj:roni rn mqmmokkiokfmjolnln:roni n rmqkkfmnmhohikkhjkj:roni o o V V V V |
  1
<0:;8: {rn {mj {mi {mh {mg o {nn {rn |
  1
-:9@)+r3(;r>++-6= {rn {rn {nk {no {l {k |
  1
92:,7r3(;r>++-6= {rn {mf {rn {nj |
  1
9><: {lo {ln {lm {i {rn {ll -:):-,:; ,6183: |
  1
300/ {rn {rn {lk {nj |
  1
/3>1:r,*-9><: {rn rgifqlkjmglkhmilhkj klqjofmmhimlhmolmn rn rjqklglkkigokilkjhm:rolm rmqmmokkiokfmjolnln:roni rn mqkkfmnmhohikkhjkj:roni n rmqmmokkiokfmjolnln:roni o V V V V |
  1
<0:;8: {rn {lj {li {lh {lg n {ni {rn |
  1
<0:;8: {rn {lf {ng {ko {kn n {nn {rn |
  1
<0:;8: {rn {ng {lf {lk {km o {nn {rn |
  1
<0:;8: {rn {kl {kk {ng {mg n {kj {rn |
  1
:;8: {ki {kh {kg {ng {kf o |
  1
-:9@)+r3(;r>++-6= {rn {rn {mo {nj {l {k |
  1
92:,7r3(;r>++-6= {rn {jo {rn {mn |
  1
9><: {jn {jm {jl {i {rn {jk -:):-,:; ,6183: |
  1
300/ {rn {rn {jj {mn |
  1
/3>1:r,*-9><: {rn rflkqklmniimlkmlhki klqjofmmhimlhmolkf kiqofmkffjffkmkffh n rmqkkfmnmhohikkhjkj:roni o mqkkfmnmhohikkhjkj:roni n rmqmmokkiokfmjolnln:roni o V V V V |
  1
<0:;8: {rn {ji {jh {mi {km n {mm {rn |
  1
<0:;8: {rn {jg {mk {jf {io o {ni {rn |
  1
<0:;8: {rn {mk {jg {in {im n {ni {rn |
  1
<0:;8: {rn {jh {ji {mk {lg o {mm {rn |
  1
:;8: {il {ik {ij {mk {ii o |
  1
<0:;8: {rn {mi {mj {ih {ig n {nn {rn |
  1
<0:;8: {rn {if {ho {mj {kn o {jl {rn |
  1
:;8: {hn {hm {kg {mj {hl o |
  1
:;8: {hk {hj {kh {mi {hi o |
  1
<0:;8: {rn {in {mh {jh {hh o {kj {rn |
  1
<0:;8: {rn {mh {in {if {hg n {kj {rn |
  1
300/ {rn {rn {mh {jm |
  1
/+36,+r3(;r>++-6= {rn {rn {rn {mg |
  1
):-+:' {rn {mg {hf |
  1
):-+:' {rn {mg {go |
  1
,+->687+r<*-): {rn rghmqkkkijggkmmlhki knqkofmmhimlhmolnf roqfffffffffffffffji jqklglkkigokilkjhm:rolm mqmmokkiokfmjolnln:roni n V V |
  1
-:9@)+r3(;r>++-6= {rn {rn {lo {mn {l {k |
  1
92:,7r3(;r>++-6= {rn {gn {rn {ln |
  1
9><: {gm {rn {kj {i {rn {gl 90-(>-; ,6183: |
  1
300/ {rn {rn {if {ln |
  1
/3>1:r,*-9><: {rn rgifqlkjmglkhmilhkj klqjofmmhimlhmolmg klqgkffffingjooooh rjqklglkkigokilkjhm:rolm rmqmmokkiokfmjolnln:roni rn mqkkfmnmhohikkhjkj:roni n rmqmmokkiokfmjolnln:roni o V V V V |
  1
<0:;8: {rn {jf {ih {ho {gk o {lm {rn |
  1
<0:;8: {rn {lh {lk {gj {gi o {mm {rn |
  1
<0:;8: {rn {lk {lh {kl {hh n {mm {rn |
  1
<0:;8: {rn {li {lj {gh {gg o {ni {rn |
  1
<0:;8: {rn {gj {jj {lj {io n {lm {rn |
  1
:;8: {gf {ik {fo {lj {fn o |
  1
<0:;8: {rn {kk {kl {li {im o {kj {rn |
  1
:;8: {fm {ij {fl {li {fk o |
  1
/+36,+r3(;r>++-6= {rn {rn {rn {lg |
  1
):-+:' {rn {lg {fj |
  1
):-+:' {rn {lg {fi |
  1
,+->687+r<*-): {rn rflkqklmniimlkmlhki klqkofmmhimlhmolkn rn n rmqkkfmnmhohikkhjkj:roni o V V |
  1
<0:;8: {rn {jj {gj {lf {ig o {lm {rn |
  1
:;8: {fh {hj {hm {lf {fg o |
  1
<0:;8: {rn {gh {ko {kk {hg o {jl {rn |
  1
<0:;8: {rn {ko {gh {jj {gk n {jl {rn |
  1
/+36,+r3(;r>++-6= {rn {rn {rn {kn |
  1
):-+:' {rn {kn {ff |
  1
,+->687+r<*-): {rn rflkqklmniimlkmlhki knqkofmmhimlhmolkg klqgkffffingjooooh n rmqkkfmnmhohikkhjkj:roni o V V |
  1
/+36,+r3(;r>++-6= {rn {rn {rn {km |
  1
):-+:' {rn {ig {noo |
  1
,+->687+r<*-): {rn rflkqklmniimlkmlhki knqkofmmhimlhmolkn roqfffffffffffffffji n rmqkkfmnmhohikkhjkj:roni o V V |
  1
:;8: {non {kh {ij {jh {nom o |
  1
:;8: {nol {kg {fl {if {nok o |
  1
/061+ {rn rghmqkkkijggkmmlhki knqkofmmhimlhmolnf roqfffffffffffffffji |
  1
/061+ {rn rghmqkkkijggkmmlhki knqkofmmhimlhmolmh klqgkffffingjooooh |
  1
-:9@)+r3(;r>++-6= {rn {rn {jn {ln {l {k |
  1
92:,7r3(;r>++-6= {rn {noj {rn {jm |
  1
/3>1:r,*-9><: {rn rghmqkkkijggkmmlhki klqjofmmhimlhmolmg kiqofmkffjffkmkffh n rmqkkfmnmhohikkhjkj:roni o mqkkfmnmhohikkhjkj:roni n rmqmmokkiokfmjolnln:roni o V V V V |
  1
:;8: {noi {hm {fo {jj {noh o |
  1
<0:;8: {rn {ih {jf {ji {gi n {lm {rn |
  1
:;8: {nog {hj {ik {ji {nof o |
  1
<0:;8: {rn {ho {if {jg {gg n {jl {rn |
  1
:;8: {nno {fo {fl {jg {nnn o |
  1
/+36,+r3(;r>++-6= {rn {rn {rn {io |
  1
):-+:' {rn {io {nnm |
  1
,+->687+r<*-): {rn rflkqklmniimlkmlhki klqkofmmhimlhmolkn rn jqklglkkigokilkjhm:rolm mqmmokkiokfmjolnln:roni n V V |
  1
/+36,+r3(;r>++-6= {rn {rn {rn {im |
  1
):-+:' {rn {gg {nnl |
  1
,+->687+r<*-): {rn rghmqkkkijggkmmlhki klqkofmmhimlhmolnf rn jqklglkkigokilkjhm:rolm mqmmokkiokfmjolnln:roni n V V |
  1
/061+ {rn rflkqklmniimlkmlhki klqkofmmhimlhmolkn rn |
  1
/061+ {rn rghmqkkkijggkmmlhki klqkofmmhimlhmolnf rn |
  1
/+36,+r3(;r>++-6= {rn {rn {rn {ig |
  1
,+->687+r<*-): {rn rflkqklmniimlkmlhki knqkofmmhimlhmolkn roqfffffffffffffffji jqklglkkigokilkjhm:rolm mqmmokkiokfmjolnln:roni n V V |
  1
/061+ {rn rflkqklmniimlkmlhki knqkofmmhimlhmolkg klqgkffffingjooooh |
  1
/061+ {rn rflkqklmniimlkmlhki knqkofmmhimlhmolkn roqfffffffffffffffji |
  1
/+36,+r3(;r>++-6= {rn {rn {rn {hh |
  1
,+->687+r<*-): {rn rghmqkkkijggkmmlhki knqkofmmhimlhmolnf roqfffffffffffffffji mqkkfmnmhohikkhjkj:roni n rmqmmokkiokfmjolnln:roni V V |
  1
/+36,+r3(;r>++-6= {rn {rn {rn {hg |
  1
,+->687+r<*-): {rn rghmqkkkijggkmmlhki knqkofmmhimlhmolmh klqgkffffingjooooh mqkkfmnmhohikkhjkj:roni n rmqmmokkiokfmjolnln:roni V V |
  1
-:9@)+r3(;r>++-6= {rn {rn {gm {jm {l {k |
  1
/+36,+r3(;r>++-6= {rn {rn {rn {gk |
  1
,+->687+r<*-): {rn rflkqklmniimlkmlhki knqkofmmhimlhmolkg klqgkffffingjooooh mqkkfmnmhohikkhjkj:roni n rmqmmokkiokfmjolnln:roni V V |
  1
/+36,+r3(;r>++-6= {rn {rn {rn {gi |
  1
,+->687+r<*-): {rn rflkqklmniimlkmlhki knqkofmmhimlhmolkn roqfffffffffffffffji mqkkfmnmhohikkhjkj:roni n rmqmmokkiokfmjolnln:roni V V |
  1
/+36,+r3(;r>++-6= {rn {rn {rn {gg |
  1
,+->687+r<*-): {rn rflkqklmniimlkmlhki klqkofmmhimlhmolkg klqgkffffingjooooh n rmqkkfmnmhohikkhjkj:roni o V V |
  1
/061+ {rn rflkqklmniimlkmlhki klqkofmmhimlhmolkg klqgkffffingjooooh |
  1
/061+ {rn rghmqkkkijggkmmlhki klqkofmmhimlhmollk klqgkffffingjooooh |
  0
DIMENSION
  5
2971
330
478
100
AcDbEntity
  8
AREA1
100
AcDbDimension
  2
*D0
 10
-870.8571588422374
 20
43.40922762372032
 30
-1.0
 11
-864.8983786455357
 21
42.28786470366431
 31
-1.0
 70
   160
  3
ABECAD_3D
100
AcDbAlignedDimension
 13
-872.4446588422374
 23
41.40922762372032
 33
43.84999961850001
 14
-872.4446588422374
 24
43.40922762372032
 34
-1.0
 50
90.0
100
AcDbRotatedDimension
1001
ACAD
1000
DSTYLE
1002
{
1070
   140
1040
2.0
1070
    41
1040
2.0
1002
}
  0
DIMENSION
  5
2972
330
478
100
AcDbEntity
  8
AREA1
100
AcDbDimension
  2
*D1
 10
-872.4446588422374
 20
47.82600090689125
 30
-1.0
 11
-903.4384125382374
 21
47.82600090689126
 31
-1.0
 70
   160
  3
ABECAD_3D
100
AcDbAlignedDimension
 13
-934.4321662342375
 23
43.40922762372034
 33
44.8499996185
 14
-872.4446588422374
 24
43.40922762372033
 34
44.8499996185
 50
180.0
100
AcDbRotatedDimension
1001
ACAD
1000
DSTYLE
1002
{
1070
   140
1040
2.0
1070
    41
1040
2.0
1002
}
  0
DIMENSION
  5
2973
330
478
100
AcDbEntity
  8
AREA2
100
AcDbDimension
  2
*D2
 10
-868.6924434950954
 20
43.40922762372033
 30
-1.0
 11
-868.6924434950954
 21
21.42499980925
 31
-43.40922762372028
 70
   160
210
-0.0000000000000001
220
-1.0
230
0.0
  3
ABECAD_3D
100
AcDbAlignedDimension
 13
-872.4446588422374
 23
43.40922762372033
 33
43.84999961850001
 14
-872.4446588422374
 24
41.40922762372031
 34
-0.9999999999999996
 50
90.0
100
AcDbRotatedDimension
1001
ACAD
1000
DSTYLE
1002
{
1070
   140
1040
2.0
1070
    41
1040
2.0
1002
}
  0
POINT
  5
2974
330
478
100
AcDbEntity
  8
SNAP_POINTS
100
AcDbPoint
 10
-934.4321662342375
 20
43.40922762372033
 30
-1.0
  0
LWPOLYLINE
  5
29C6
330
478
100
AcDbEntity
  8
SCALE
100
AcDbPolyline
 90
        4
 70
     1
 43
0.0
 38
-1.0
 10
-973.9325958393818
 20
53.98427857191648
 10
-945.0876238230158
 20
53.98427857191648
 10
-945.0876238230158
 20
32.6073955757549
 10
-973.9325958393818
 20
32.6073955757549
  0
VIEWPORT
  5
2852
102
{ACAD_XDICTIONARY
360
2A14
102
}
330
2851
100
AcDbEntity
 67
     1
  8
0
100
AcDbViewport
 10
5.289169397200103
 20
4.039398404618191
 30
0.0
 40
14.91427964544735
 41
8.149447233321367
 68
     1
 69
     1
1001
ACAD
1000
MVIEW
1002
{
1070
    16
1010
0.0
1020
0.0
1030
0.0
1010
0.0
1020
0.0
1030
1.0
1040
0.0
1040
8.149447233321367
1040
5.289169397200103
1040
4.039398404618191
1040
50.0
1040
0.0
1040
0.0
1070
     0
1070
  1000
1070
     1
1070
     1
1070
     0
1070
     0
1070
     0
1070
     0
1040
0.0
1040
0.0
1040
0.0
1040
0.5
1040
0.5
1040
0.5
1040
0.5
1070
     0
1002
{
1002
}
1002
}
  0
VIEWPORT
  5
2853
102
{ACAD_XDICTIONARY
360
2A16
102
}
330
2851
100
AcDbEntity
 67
     1
  8
0
100
AcDbViewport
 10
2.655279694450206
 20
5.99475209634221
 30
0.0
 40
5.265273537481815
 41
4.159771051501081
 68
     2
 69
     2
1001
ACAD
1000
MVIEW
1002
{
1070
    16
1010
0.0
1020
0.0
1030
0.0
1010
0.0
1020
0.0
1030
1.0
1040
0.0
1040
62.14359963235873
1040
-899.3956753555917
1040
42.88431647520392
1040
50.0
1040
0.0
1040
0.0
1070
     0
1070
  1000
1070
     1
1070
     2
1070
     0
1070
     0
1070
     0
1070
     0
1040
0.0
1040
0.0
1040
0.0
1040
0.5
1040
0.5
1040
0.5
1040
0.5
1070
     0
1002
{
1003
AREA2
1002
}
1002
}
  0
VIEWPORT
  5
2854
102
{ACAD_XDICTIONARY
360
2A18
102
}
330
2851
100
AcDbEntity
 67
     1
  8
0
100
AcDbViewport
 10
2.655279694450205
 20
1.959467345528551
 30
0.0
 40
5.265273537481814
 41
3.910798450126236
 68
     3
 69
     3
1001
ACAD
1000
MVIEW
1002
{
1070
    16
1010
0.0
1020
0.0
1030
0.0
1010
0.0
1020
-1.0
1030
0.0
1040
0.0
1040
58.46884688770659
1040
-899.3688717503287
1040
21.7383029646972
1040
50.0
1040
0.0
1040
0.0
1070
     0
1070
  1000
1070
     1
1070
     2
1070
     0
1070
     0
1070
     0
1070
     0
1040
0.0
1040
0.0
1040
0.0
1040
0.5
1040
0.5
1040
0.5
1040
0.5
1070
     0
1002
{
1003
AREA1
1002
}
1002
}
  0
VIEWPORT
  5
2855
102
{ACAD_XDICTIONARY
360
2A1A
102
}
330
2851
100
AcDbEntity
 67
     1
  8
0
100
AcDbViewport
 10
7.921824282077194
 20
3.60237502911014
 30
0.0
 40
5.26781563777216
 41
7.196613817289414
 68
     4
 69
     4
1001
ACAD
1000
MVIEW
1002
{
1070
    16
1010
0.0
1020
0.0
1030
0.0
1010
1.0
1020
-1.0
1030
1.0
1040
0.0
1040
129.2089668989283
1040
-613.6140023093958
1040
432.896718320019
1040
50.0
1040
0.0
1040
0.0
1070
     0
1070
  1000
1070
     1
1070
     2
1070
     0
1070
     0
1070
     0
1070
     0
1040
0.0
1040
0.0
1040
0.0
1040
0.5
1040
0.5
1040
0.5
1040
0.5
1070
     1
1002
{
1003
AREA1
1003
AREA2
1002
}
1002
}
  0
TEXT
  5
2856
330
2851
100
AcDbEntity
 67
     1
  8
0
100
AcDbText
 10
5.478669782259466
 20
7.727515017556658
 30
0.0
 40
0.203125
  1
1492-EBL4
100
AcDbText
  0
TEXT
  5
2857
330
2851
100
AcDbEntity
 67
     1
  8
0
100
AcDbText
 10
5.478669782259466
 20
7.394181684223325
 30
0.0
 40
0.203125
  1
End Barrier
100
AcDbText
  0
ENDSEC
  0
SECTION
  2
OBJECTS
  0
DICTIONARY
  5
46D
330
0
100
AcDbDictionary
  3
ACAD_COLOR
350
981
  3
ACAD_GROUP
350
46E
  3
ACAD_LAYOUT
350
49E
  3
ACAD_MATERIAL
350
980
  3
ACAD_MLINESTYLE
350
47B
  3
ACAD_PLOTSETTINGS
350
49F
  3
ACAD_PLOTSTYLENAME
350
49C
  3
ACAD_TABLESTYLE
350
2901
  3
ACDBHEADERROUNDTRIPXREC
350
2A59
  3
ACDBVARIABLEDICTIONARY
350
48D
  3
AUXHDRRNDTRIPDATA
350
2A02
  3
BNS_VARIABLES
350
29BA
  3
DWGPROPS
350
29E0
  0
DICTIONARY
  5
2908
330
463
100
AcDbDictionary
280
     1
  3
ACAD_LAYERSTATES
360
2909
  0
DICTIONARY
  5
4D7
330
478
100
AcDbDictionary
280
     1
  3
ACAD_LAYOUTSELFREF
360
2A7A
  3
ACAD_SORTENTS
360
29C5
  0
DICTIONARY
  5
2887
330
2851
100
AcDbDictionary
280
     1
  3
ACAD_LAYOUTSELFREF
360
2A7B
  0
DICTIONARY
  5
2A14
330
2852
100
AcDbDictionary
280
     1
  3
ACAD_XREC_ROUNDTRIP
360
2A15
  0
DICTIONARY
  5
2A16
330
2853
100
AcDbDictionary
280
     1
  3
ACAD_XREC_ROUNDTRIP
360
2A17
  0
DICTIONARY
  5
2A18
330
2854
100
AcDbDictionary
280
     1
  3
ACAD_XREC_ROUNDTRIP
360
2A19
  0
DICTIONARY
  5
2A1A
330
2855
100
AcDbDictionary
280
     1
  3
ACAD_XREC_ROUNDTRIP
360
2A1B
  0
DICTIONARY
  5
981
102
{ACAD_REACTORS
330
46D
102
}
330
46D
100
AcDbDictionary
  0
DICTIONARY
  5
46E
102
{ACAD_REACTORS
330
46D
102
}
330
46D
100
AcDbDictionary
  0
DICTIONARY
  5
49E
102
{ACAD_REACTORS
330
46D
102
}
330
46D
100
AcDbDictionary
  0
DICTIONARY
  5
980
102
{ACAD_REACTORS
330
46D
102
}
330
46D
100
AcDbDictionary
  0
DICTIONARY
  5
47B
102
{ACAD_REACTORS
330
46D
102
}
330
46D
100
AcDbDictionary
  3
STANDARD
350
47C
  0
DICTIONARY
  5
49F
102
{ACAD_REACTORS
330
46D
102
}
330
46D
100
AcDbDictionary
  0
ACDBDICTIONARYWDFLT
  5
49C
102
{ACAD_REACTORS
330
46D
102
}
330
46D
100
AcDbDictionary
281
     1
  3
Normal
350
49D
100
AcDbDictionaryWithDefault
340
49D
  0
DICTIONARY
  5
2901
102
{ACAD_REACTORS
330
46D
102
}
330
46D
100
AcDbDictionary
  3
STANDARD
350
2902
  0
DICTIONARY
  5
2A59
102
{ACAD_REACTORS
330
46D
102
}
330
46D
100
AcDbDictionary
  3
CEPSNTYPE
350
2A63
  3
DIMSTYLEDATA
350
2A67
  3
FINGERPRINTGUID
350
2A64
  3
HYPERLINKBASE
350
2A5C
  3
INSUNITS
350
2A62
  3
LAYOUTDICT
350
2A5E
  3
LWETCUNION
350
2A61
  3
PLOTSETDICT
350
2A5F
  3
PLOTSTYLNAMDICT
350
2A60
  3
PSVPSCALE
350
2A66
  3
PUCSBASE
350
2A6A
  3
PUCSORGBACK
350
2A70
  3
PUCSORGBOTTOM
350
2A6C
  3
PUCSORGFRONT
350
2A6F
  3
PUCSORGLEFT
350
2A6D
  3
PUCSORGRIGHT
350
2A6E
  3
PUCSORGTOP
350
2A6B
  3
PUCSORTHOREF
350
2A68
  3
PUCSORTHOVIEW
350
2A69
  3
STYLESHEET
350
2A5D
  3
TSTACKALIGN
350
2A5A
  3
TSTACKSIZE
350
2A5B
  3
UCSBASE
350
2A73
  3
UCSORGBACK
350
2A79
  3
UCSORGBOTTOM
350
2A75
  3
UCSORGFRONT
350
2A78
  3
UCSORGLEFT
350
2A76
  3
UCSORGRIGHT
350
2A77
  3
UCSORGTOP
350
2A74
  3
UCSORTHOREF
350
2A71
  3
UCSORTHOVIEW
350
2A72
  3
VERSIONGUID
350
2A65
  0
DICTIONARY
  5
48D
102
{ACAD_REACTORS
330
46D
102
}
330
46D
100
AcDbDictionary
  3
CTABLESTYLE
350
29D5
  3
DIMADEC
350
48E
  3
DIMASSOC
350
6EA
  3
PROJECTNAME
350
27EC
  0
XRECORD
  5
2A02
102
{ACAD_REACTORS
330
46D
102
}
330
46D
100
AcDbXrecord
310
64000000000000001C000000190027000A0011000000000015000900150009000500930805009308000000001A000000000002000000F27E000000001B00000000000000000000001C0000000000000000000000000000000000000000000000EDE75B40
  0
DICTIONARY
  5
29BA
102
{ACAD_REACTORS
330
46D
102
}
330
46D
100
AcDbDictionary
  3
ACET-OVERKILL-FUZZ
350
29BB
  3
ACET-OVERKILL-NO-ENDTOEND
350
29BE
  3
ACET-OVERKILL-NO-PARTIAL
350
29BD
  3
ACET-OVERKILL-NO-PLINES
350
29BC
  0
XRECORD
  5
29E0
102
{ACAD_REACTORS
330
46D
102
}
330
46D
100
AcDbXrecord
  1
DWGPROPS COOKIE
  2

  3

  4

  6

  7

  8
colin
  9

300
=
301
=
302
=
303
=
304
=
305
=
306
=
307
=
308
=
309
=
 40
0.4077087152777778
 41
2451670.449415046
 42
2453115.671669919
  1

 90
        0
  0
DICTIONARY
  5
2909
102
{ACAD_REACTORS
330
2908
102
}
330
2908
100
AcDbDictionary
  0
XRECORD
  5
2A7A
102
{ACAD_REACTORS
330
4D7
102
}
330
4D7
100
AcDbXrecord
340
478
  0
SORTENTSTABLE
  5
29C5
102
{ACAD_REACTORS
330
4D7
102
}
330
4D7
100
AcDbSortentsTable
330
478
331
2972
  5
29C3
331
2960
  5
2960
331
296C
  5
296C
331
2969
  5
2969
331
2966
  5
2966
331
2963
  5
2963
331
295D
  5
295D
331
295E
  5
295E
331
2967
  5
2967
331
296D
  5
296D
331
296A
  5
296A
331
2964
  5
2964
331
2961
  5
2961
331
29C6
  5
2971
331
2973
  5
29C4
331
2970
  5
29C1
331
295F
  5
295F
331
296E
  5
296E
331
296B
  5
296B
331
2968
  5
2968
331
2965
  5
2965
331
2962
  5
2962
331
2974
  5
29C6
331
2971
  5
29C2
  0
XRECORD
  5
2A7B
102
{ACAD_REACTORS
330
2887
102
}
330
2887
100
AcDbXrecord
340
2851
  0
XRECORD
  5
2A15
102
{ACAD_REACTORS
330
2A14
102
}
330
2A14
100
AcDbXrecord
102
SHADEPLOT
 70
     0
  0
XRECORD
  5
2A17
102
{ACAD_REACTORS
330
2A16
102
}
330
2A16
100
AcDbXrecord
102
SHADEPLOT
 70
     0
  0
XRECORD
  5
2A19
102
{ACAD_REACTORS
330
2A18
102
}
330
2A18
100
AcDbXrecord
102
SHADEPLOT
 70
     0
  0
XRECORD
  5
2A1B
102
{ACAD_REACTORS
330
2A1A
102
}
330
2A1A
100
AcDbXrecord
102
SHADEPLOT
 70
     2
  0
MLINESTYLE
  5
47C
102
{ACAD_REACTORS
330
47B
102
}
330
47B
100
AcDbMlineStyle
  2
STANDARD
 70
     0
  3

 62
   256
 51
90.0
 52
90.0
 71
     2
 49
0.5
 62
   256
  6
BYLAYER
 49
-0.5
 62
   256
  6
BYLAYER
  0
ACDBPLACEHOLDER
  5
49D
102
{ACAD_REACTORS
330
49C
102
}
330
49C
100
AcDbPlaceHolder
280
     0
  0
ACAD_PROXY_OBJECT
  5
2902
102
{ACAD_REACTORS
330
2901
102
}
330
2901
100
AcDbProxyObject
 90
      499
 91
      526
 93
     1849
310
4214DD185B99185C992420000000000000F83F0000000000003E0FC00000000000004901028000000C1008070000C3001FDFF8000000C1003FBFF000000182007F7FE00000030400FEFFC00000060801FDFF8000000C1003FBFF000000182000000000000000C2020B0000001820100E000186003FBFF000000182007F7FE0
310
0000030400FEFFC00000060801FDFF8000000C1003FBFF000000182007F7FE0000003040000000000000012404160000003040201C00030C007F7FE00000030400FEFFC00000060801FDFF8000000C1003FBFF000000182007F7FE00000030400FEFFC000000608075
340
470
340
470
340
470
 94
        0
1001
ACAD
1000
AcRTDxfName
1000
TABLESTYLE
1000
AcadProxyRoundTripData
1071
      524
1071
  2555929
1070
     0
  0
XRECORD
  5
2A63
102
{ACAD_REACTORS
330
2A59
102
}
330
2A59
100
AcDbXrecord
 90
        0
  0
XRECORD
  5
2A67
102
{ACAD_REACTORS
330
2A59
102
}
330
2A59
100
AcDbXrecord
1000
DSTYLE
1002
{
1070
   276
 70
     2
1070
   279
 70
     2
1002
}
  0
XRECORD
  5
2A64
102
{ACAD_REACTORS
330
2A59
102
}
330
2A59
100
AcDbXrecord
  1
{6E0CF4B5-225E-11D4-A150-00A0CC3303EC}
  0
XRECORD
  5
2A5C
102
{ACAD_REACTORS
330
2A59
102
}
330
2A59
100
AcDbXrecord
  1

  0
XRECORD
  5
2A62
102
{ACAD_REACTORS
330
2A59
102
}
330
2A59
100
AcDbXrecord
 90
        0
  0
XRECORD
  5
2A5E
102
{ACAD_REACTORS
330
2A59
102
}
330
2A59
100
AcDbXrecord
340
49E
  0
XRECORD
  5
2A61
102
{ACAD_REACTORS
330
2A59
102
}
330
2A59
100
AcDbXrecord
 90
    14877
  0
XRECORD
  5
2A5F
102
{ACAD_REACTORS
330
2A59
102
}
330
2A59
100
AcDbXrecord
340
49F
  0
XRECORD
  5
2A60
102
{ACAD_REACTORS
330
2A59
102
}
330
2A59
100
AcDbXrecord
340
49C
  0
XRECORD
  5
2A66
102
{ACAD_REACTORS
330
2A59
102
}
330
2A59
100
AcDbXrecord
 40
0.0
  0
XRECORD
  5
2A6A
102
{ACAD_REACTORS
330
2A59
102
}
330
2A59
100
AcDbXrecord
340
0
  0
XRECORD
  5
2A70
102
{ACAD_REACTORS
330
2A59
102
}
330
2A59
100
AcDbXrecord
 10
0.0
 20
0.0
 30
0.0
  0
XRECORD
  5
2A6C
102
{ACAD_REACTORS
330
2A59
102
}
330
2A59
100
AcDbXrecord
 10
0.0
 20
0.0
 30
0.0
  0
XRECORD
  5
2A6F
102
{ACAD_REACTORS
330
2A59
102
}
330
2A59
100
AcDbXrecord
 10
0.0
 20
0.0
 30
0.0
  0
XRECORD
  5
2A6D
102
{ACAD_REACTORS
330
2A59
102
}
330
2A59
100
AcDbXrecord
 10
0.0
 20
0.0
 30
0.0
  0
XRECORD
  5
2A6E
102
{ACAD_REACTORS
330
2A59
102
}
330
2A59
100
AcDbXrecord
 10
0.0
 20
0.0
 30
0.0
  0
XRECORD
  5
2A6B
102
{ACAD_REACTORS
330
2A59
102
}
330
2A59
100
AcDbXrecord
 10
0.0
 20
0.0
 30
0.0
  0
XRECORD
  5
2A68
102
{ACAD_REACTORS
330
2A59
102
}
330
2A59
100
AcDbXrecord
340
0
  0
XRECORD
  5
2A69
102
{ACAD_REACTORS
330
2A59
102
}
330
2A59
100
AcDbXrecord
 70
     0
  0
XRECORD
  5
2A5D
102
{ACAD_REACTORS
330
2A59
102
}
330
2A59
100
AcDbXrecord
  1

  0
XRECORD
  5
2A5A
102
{ACAD_REACTORS
330
2A59
102
}
330
2A59
100
AcDbXrecord
 90
        1
  0
XRECORD
  5
2A5B
102
{ACAD_REACTORS
330
2A59
102
}
330
2A59
100
AcDbXrecord
 90
       70
  0
XRECORD
  5
2A73
102
{ACAD_REACTORS
330
2A59
102
}
330
2A59
100
AcDbXrecord
340
0
  0
XRECORD
  5
2A79
102
{ACAD_REACTORS
330
2A59
102
}
330
2A59
100
AcDbXrecord
 10
0.0
 20
0.0
 30
0.0
  0
XRECORD
  5
2A75
102
{ACAD_REACTORS
330
2A59
102
}
330
2A59
100
AcDbXrecord
 10
0.0
 20
0.0
 30
0.0
  0
XRECORD
  5
2A78
102
{ACAD_REACTORS
330
2A59
102
}
330
2A59
100
AcDbXrecord
 10
0.0
 20
0.0
 30
0.0
  0
XRECORD
  5
2A76
102
{ACAD_REACTORS
330
2A59
102
}
330
2A59
100
AcDbXrecord
 10
0.0
 20
0.0
 30
0.0
  0
XRECORD
  5
2A77
102
{ACAD_REACTORS
330
2A59
102
}
330
2A59
100
AcDbXrecord
 10
0.0
 20
0.0
 30
0.0
  0
XRECORD
  5
2A74
102
{ACAD_REACTORS
330
2A59
102
}
330
2A59
100
AcDbXrecord
 10
-934.4321662342375
 20
43.40922762372033
 30
-1.0
  0
XRECORD
  5
2A71
102
{ACAD_REACTORS
330
2A59
102
}
330
2A59
100
AcDbXrecord
340
0
  0
XRECORD
  5
2A72
102
{ACAD_REACTORS
330
2A59
102
}
330
2A59
100
AcDbXrecord
 70
     3
  0
XRECORD
  5
2A65
102
{ACAD_REACTORS
330
2A59
102
}
330
2A59
100
AcDbXrecord
  1
{02D5F15B-FC82-41C6-AB47-4E6876DA71F7}
  0
DICTIONARYVAR
  5
29D5
102
{ACAD_REACTORS
330
48D
102
}
330
48D
100
DictionaryVariables
280
     0
  1
STANDARD
  0
DICTIONARYVAR
  5
48E
102
{ACAD_REACTORS
330
48D
102
}
330
48D
100
DictionaryVariables
280
     0
  1
0
  0
DICTIONARYVAR
  5
6EA
102
{ACAD_REACTORS
330
48D
102
}
330
48D
100
DictionaryVariables
280
     0
  1
1
  0
DICTIONARYVAR
  5
27EC
102
{ACAD_REACTORS
330
48D
102
}
330
48D
100
DictionaryVariables
280
     0
  1

  0
XRECORD
  5
29BB
102
{ACAD_REACTORS
330
29BA
102
}
330
29BA
100
AcDbXrecord
 40
0.000001
  0
XRECORD
  5
29BE
102
{ACAD_REACTORS
330
29BA
102
}
330
29BA
100
AcDbXrecord
 70
     0
  0
XRECORD
  5
29BD
102
{ACAD_REACTORS
330
29BA
102
}
330
29BA
100
AcDbXrecord
 70
     0
  0
XRECORD
  5
29BC
102
{ACAD_REACTORS
330
29BA
102
}
330
29BA
100
AcDbXrecord
 70
     0
  0
ENDSEC
  0
EOF
