  0
SECTION
  2
HEADER
  9
$ACADVER
  1
AC1014
  9
$ACADMAINTVER
 70
     8
  9
$DWGCODEPAGE
  3
ANSI_1252
  9
$INSBASE
 10
0.0
 20
0.0
 30
0.0
  9
$EXTMIN
 10
-0.714317
 20
-3.379646
 30
0.0
  9
$EXTMAX
 10
1.829055
 20
1.505083
 30
3.332
  9
$LIMMIN
 10
0.0
 20
0.0
  9
$LIMMAX
 10
12.0
 20
9.0
  9
$ORTHOMODE
 70
     0
  9
$REGENMODE
 70
     1
  9
$FILLMODE
 70
     1
  9
$QTEXTMODE
 70
     0
  9
$MIRRTEXT
 70
     1
  9
$DRAGMODE
 70
     2
  9
$LTSCALE
 40
1.0
  9
$OSMODE
 70
    37
  9
$ATTMODE
 70
     1
  9
$TEXTSIZE
 40
0.12
  9
$TRACEWID
 40
0.05
  9
$TEXTSTYLE
  7
STANDARD
  9
$CLAYER
  8
0
  9
$CELTYPE
  6
BYLAYER
  9
$CECOLOR
 62
   256
  9
$CELTSCALE
 40
1.0
  9
$DELOBJ
 70
     1
  9
$DISPSILH
 70
     0
  9
$DIMSCALE
 40
1.0
  9
$DIMASZ
 40
0.18
  9
$DIMEXO
 40
0.0625
  9
$DIMDLI
 40
0.375
  9
$DIMRND
 40
0.0
  9
$DIMDLE
 40
0.0
  9
$DIMEXE
 40
0.18
  9
$DIMTP
 40
0.0
  9
$DIMTM
 40
0.0
  9
$DIMTXT
 40
0.14
  9
$DIMCEN
 40
0.09
  9
$DIMTSZ
 40
0.0
  9
$DIMTOL
 70
     0
  9
$DIMLIM
 70
     0
  9
$DIMTIH
 70
     0
  9
$DIMTOH
 70
     1
  9
$DIMSE1
 70
     0
  9
$DIMSE2
 70
     0
  9
$DIMTAD
 70
     0
  9
$DIMZIN
 70
     4
  9
$DIMBLK
  1

  9
$DIMASO
 70
     1
  9
$DIMSHO
 70
     1
  9
$DIMPOST
  1

  9
$DIMAPOST
  1

  9
$DIMALT
 70
     1
  9
$DIMALTD
 70
     2
  9
$DIMALTF
 40
25.4
  9
$DIMLFAC
 40
1.0
  9
$DIMTOFL
 70
     0
  9
$DIMTVP
 40
0.0
  9
$DIMTIX
 70
     0
  9
$DIMSOXD
 70
     0
  9
$DIMSAH
 70
     0
  9
$DIMBLK1
  1

  9
$DIMBLK2
  1

  9
$DIMSTYLE
  2
ABECAD_3D
  9
$DIMCLRD
 70
     0
  9
$DIMCLRE
 70
     0
  9
$DIMCLRT
 70
     0
  9
$DIMTFAC
 40
1.5
  9
$DIMGAP
 40
0.09
  9
$DIMJUST
 70
     0
  9
$DIMSD1
 70
     0
  9
$DIMSD2
 70
     0
  9
$DIMTOLJ
 70
     1
  9
$DIMTZIN
 70
     4
  9
$DIMALTZ
 70
     4
  9
$DIMALTTZ
 70
     4
  9
$DIMFIT
 70
     5
  9
$DIMUPT
 70
     1
  9
$DIMUNIT
 70
     7
  9
$DIMDEC
 70
     6
  9
$DIMTDEC
 70
     6
  9
$DIMALTU
 70
     2
  9
$DIMALTTD
 70
     2
  9
$DIMTXSTY
  7
STANDARD
  9
$DIMAUNIT
 70
     0
  9
$LUNITS
 70
     2
  9
$LUPREC
 70
     4
  9
$SKETCHINC
 40
0.1
  9
$FILLETRAD
 40
0.0
  9
$AUNITS
 70
     0
  9
$AUPREC
 70
     0
  9
$MENU
  1
ACAD
  9
$ELEVATION
 40
0.0
  9
$PELEVATION
 40
0.0
  9
$THICKNESS
 40
0.0
  9
$LIMCHECK
 70
     0
  9
$BLIPMODE
 70
     0
  9
$CHAMFERA
 40
0.0
  9
$CHAMFERB
 40
0.0
  9
$CHAMFERC
 40
0.0
  9
$CHAMFERD
 40
0.0
  9
$SKPOLY
 70
     0
  9
$TDCREATE
 40
2451726.438389120
  9
$TDUPDATE
 40
2452010.489901041
  9
$TDINDWG
 40
0.7213163194
  9
$TDUSRTIMER
 40
0.7213163194
  9
$USRTIMER
 70
     1
  9
$ANGBASE
 50
0.0
  9
$ANGDIR
 70
     0
  9
$PDMODE
 70
     3
  9
$PDSIZE
 40
0.09
  9
$PLINEWID
 40
0.0
  9
$COORDS
 70
     1
  9
$SPLFRAME
 70
     1
  9
$SPLINETYPE
 70
     6
  9
$SPLINESEGS
 70
     8
  9
$ATTDIA
 70
     0
  9
$ATTREQ
 70
     1
  9
$HANDLING
 70
     1
  9
$HANDSEED
  5
64C86
  9
$SURFTAB1
 70
     6
  9
$SURFTAB2
 70
     6
  9
$SURFTYPE
 70
     6
  9
$SURFU
 70
     6
  9
$SURFV
 70
     6
  9
$UCSNAME
  2

  9
$UCSORG
 10
0.0
 20
0.0
 30
0.0
  9
$UCSXDIR
 10
1.0
 20
0.0
 30
0.0
  9
$UCSYDIR
 10
0.0
 20
1.0
 30
0.0
  9
$PUCSNAME
  2

  9
$PUCSORG
 10
0.0
 20
0.0
 30
0.0
  9
$PUCSXDIR
 10
1.0
 20
0.0
 30
0.0
  9
$PUCSYDIR
 10
0.0
 20
1.0
 30
0.0
  9
$USERI1
 70
     0
  9
$USERI2
 70
     0
  9
$USERI3
 70
     0
  9
$USERI4
 70
     0
  9
$USERI5
 70
     0
  9
$USERR1
 40
0.0
  9
$USERR2
 40
0.0
  9
$USERR3
 40
0.0
  9
$USERR4
 40
0.0
  9
$USERR5
 40
0.0
  9
$WORLDVIEW
 70
     1
  9
$SHADEDGE
 70
     3
  9
$SHADEDIF
 70
    70
  9
$TILEMODE
 70
     1
  9
$MAXACTVP
 70
    16
  9
$PINSBASE
 10
0.0
 20
0.0
 30
0.0
  9
$PLIMCHECK
 70
     0
  9
$PEXTMIN
 10
1.05
 20
0.8
 30
0.0
  9
$PEXTMAX
 10
9.45
 20
7.2
 30
0.0
  9
$PLIMMIN
 10
-0.25
 20
-0.25
  9
$PLIMMAX
 10
10.75
 20
8.25
  9
$UNITMODE
 70
     0
  9
$VISRETAIN
 70
     0
  9
$PLINEGEN
 70
     0
  9
$PSLTSCALE
 70
     1
  9
$TREEDEPTH
 70
  3020
  9
$PICKSTYLE
 70
     1
  9
$CMLSTYLE
  2
STANDARD
  9
$CMLJUST
 70
     0
  9
$CMLSCALE
 40
1.0
  9
$PROXYGRAPHICS
 70
     1
  9
$MEASUREMENT
 70
     0
  0
ENDSEC
  0
SECTION
  2
CLASSES
  0
CLASS
  1
DICTIONARYVAR
  2
AcDbDictionaryVar
  3
"AutoCAD"
 90
        0
280
     0
281
     0
  0
CLASS
  1
ACDBDICTIONARYWDFLT
  2
AcDbDictionaryWithDefault
  3
AutoCAD 2000
 90
        0
280
     0
281
     0
  0
CLASS
  1
ACDBPLACEHOLDER
  2
AcDbPlaceHolder
  3
AutoCAD 2000
 90
        0
280
     0
281
     0
  0
CLASS
  1
LAYOUT
  2
AcDbLayout
  3
AutoCAD 2000
 90
        0
280
     0
281
     0
  0
CLASS
  1
LONG_TRANSACTION
  2
AcDbLongTransaction
  3
AutoCAD 2000
 90
        0
280
     0
281
     0
  0
CLASS
  1
LWPOLYLINE
  2
AcDbPolyline
  3
"AutoCAD"
 90
        0
280
     0
281
     1
  0
CLASS
  1
HATCH
  2
AcDbHatch
  3
"ACAD_SEDONA"
 90
        0
280
     0
281
     1
  0
CLASS
  1
XRECORD
  2
AcDbXrecord
  3
"<Built In>"
 90
        0
280
     0
281
     0
  0
CLASS
  1
LONG_TRANSACTION
  2
AcDbLongTransaction
  3
AutoCAD 2000
 90
        0
280
     0
281
     0
  0
CLASS
  1
LWPOLYLINE
  2
AcDbPolyline
  3
"AutoCAD"
 90
        0
280
     0
281
     1
  0
CLASS
  1
HATCH
  2
AcDbHatch
  3
"ACAD_SEDONA"
 90
        0
280
     0
281
     1
  0
CLASS
  1
XRECORD
  2
AcDbXrecord
  3
"<Built In>"
 90
        0
280
     0
281
     0
  0
CLASS
  1
LONG_TRANSACTION
  2
AcDbLongTransaction
  3
AutoCAD 2000
 90
        0
280
     0
281
     0
  0
CLASS
  1
LWPOLYLINE
  2
AcDbPolyline
  3
"AutoCAD"
 90
        0
280
     0
281
     1
  0
CLASS
  1
HATCH
  2
AcDbHatch
  3
"ACAD_SEDONA"
 90
        0
280
     0
281
     1
  0
CLASS
  1
XRECORD
  2
AcDbXrecord
  3
"<Built In>"
 90
        0
280
     0
281
     0
  0
CLASS
  1
LONG_TRANSACTION
  2
AcDbLongTransaction
  3
AutoCAD 2000
 90
        0
280
     0
281
     0
  0
CLASS
  1
LWPOLYLINE
  2
AcDbPolyline
  3
"AutoCAD"
 90
        0
280
     0
281
     1
  0
CLASS
  1
HATCH
  2
AcDbHatch
  3
"ACAD_SEDONA"
 90
        0
280
     0
281
     1
  0
CLASS
  1
XRECORD
  2
AcDbXrecord
  3
"<Built In>"
 90
        0
280
     0
281
     0
  0
CLASS
  1
LONG_TRANSACTION
  2
AcDbLongTransaction
  3
AutoCAD 2000
 90
        0
280
     0
281
     0
  0
CLASS
  1
LWPOLYLINE
  2
AcDbPolyline
  3
"AutoCAD"
 90
        0
280
     0
281
     1
  0
CLASS
  1
HATCH
  2
AcDbHatch
  3
"ACAD_SEDONA"
 90
        0
280
     0
281
     1
  0
CLASS
  1
XRECORD
  2
AcDbXrecord
  3
"<Built In>"
 90
        0
280
     0
281
     0
  0
CLASS
  1
LONG_TRANSACTION
  2
AcDbLongTransaction
  3
AutoCAD 2000
 90
        0
280
     0
281
     0
  0
CLASS
  1
LWPOLYLINE
  2
AcDbPolyline
  3
"AutoCAD"
 90
        0
280
     0
281
     1
  0
CLASS
  1
HATCH
  2
AcDbHatch
  3
"ACAD_SEDONA"
 90
        0
280
     0
281
     1
  0
CLASS
  1
XRECORD
  2
AcDbXrecord
  3
"<Built In>"
 90
        0
280
     0
281
     0
  0
CLASS
  1
LONG_TRANSACTION
  2
AcDbLongTransaction
  3
AutoCAD 2000
 90
        0
280
     0
281
     0
  0
CLASS
  1
LWPOLYLINE
  2
AcDbPolyline
  3
"AutoCAD"
 90
        0
280
     0
281
     1
  0
CLASS
  1
HATCH
  2
AcDbHatch
  3
"ACAD_SEDONA"
 90
        0
280
     0
281
     1
  0
CLASS
  1
XRECORD
  2
AcDbXrecord
  3
"<Built In>"
 90
        0
280
     0
281
     0
  0
CLASS
  1
LONG_TRANSACTION
  2
AcDbLongTransaction
  3
AutoCAD 2000
 90
        0
280
     0
281
     0
  0
CLASS
  1
LWPOLYLINE
  2
AcDbPolyline
  3
"AutoCAD"
 90
        0
280
     0
281
     1
  0
CLASS
  1
HATCH
  2
AcDbHatch
  3
"ACAD_SEDONA"
 90
        0
280
     0
281
     1
  0
CLASS
  1
XRECORD
  2
AcDbXrecord
  3
"<Built In>"
 90
        0
280
     0
281
     0
  0
CLASS
  1
LONG_TRANSACTION
  2
AcDbLongTransaction
  3
AutoCAD 2000
 90
        0
280
     0
281
     0
  0
CLASS
  1
LWPOLYLINE
  2
AcDbPolyline
  3
"AutoCAD"
 90
        0
280
     0
281
     1
  0
CLASS
  1
HATCH
  2
AcDbHatch
  3
"ACAD_SEDONA"
 90
        0
280
     0
281
     1
  0
CLASS
  1
XRECORD
  2
AcDbXrecord
  3
"<Built In>"
 90
        0
280
     0
281
     0
  0
CLASS
  1
LONG_TRANSACTION
  2
AcDbLongTransaction
  3
AutoCAD 2000
 90
        0
280
     0
281
     0
  0
CLASS
  1
LWPOLYLINE
  2
AcDbPolyline
  3
"AutoCAD"
 90
        0
280
     0
281
     1
  0
CLASS
  1
HATCH
  2
AcDbHatch
  3
"ACAD_SEDONA"
 90
        0
280
     0
281
     1
  0
CLASS
  1
XRECORD
  2
AcDbXrecord
  3
"<Built In>"
 90
        0
280
     0
281
     0
  0
CLASS
  1
LONG_TRANSACTION
  2
AcDbLongTransaction
  3
AutoCAD 2000
 90
        0
280
     0
281
     0
  0
CLASS
  1
LWPOLYLINE
  2
AcDbPolyline
  3
"AutoCAD"
 90
        0
280
     0
281
     1
  0
CLASS
  1
HATCH
  2
AcDbHatch
  3
"ACAD_SEDONA"
 90
        0
280
     0
281
     1
  0
CLASS
  1
XRECORD
  2
AcDbXrecord
  3
"<Built In>"
 90
        0
280
     0
281
     0
  0
CLASS
  1
LONG_TRANSACTION
  2
AcDbLongTransaction
  3
AutoCAD 2000
 90
        0
280
     0
281
     0
  0
CLASS
  1
LWPOLYLINE
  2
AcDbPolyline
  3
"AutoCAD"
 90
        0
280
     0
281
     1
  0
CLASS
  1
HATCH
  2
AcDbHatch
  3
"ACAD_SEDONA"
 90
        0
280
     0
281
     1
  0
CLASS
  1
XRECORD
  2
AcDbXrecord
  3
"<Built In>"
 90
        0
280
     0
281
     0
  0
CLASS
  1
LONG_TRANSACTION
  2
AcDbLongTransaction
  3
AutoCAD 2000
 90
        0
280
     0
281
     0
  0
CLASS
  1
LWPOLYLINE
  2
AcDbPolyline
  3
"AutoCAD"
 90
        0
280
     0
281
     1
  0
CLASS
  1
HATCH
  2
AcDbHatch
  3
"ACAD_SEDONA"
 90
        0
280
     0
281
     1
  0
CLASS
  1
XRECORD
  2
AcDbXrecord
  3
"<Built In>"
 90
        0
280
     0
281
     0
  0
CLASS
  1
LONG_TRANSACTION
  2
AcDbLongTransaction
  3
AutoCAD 2000
 90
        0
280
     0
281
     0
  0
CLASS
  1
LWPOLYLINE
  2
AcDbPolyline
  3
"AutoCAD"
 90
        0
280
     0
281
     1
  0
CLASS
  1
HATCH
  2
AcDbHatch
  3
"ACAD_SEDONA"
 90
        0
280
     0
281
     1
  0
CLASS
  1
XRECORD
  2
AcDbXrecord
  3
"<Built In>"
 90
        0
280
     0
281
     0
  0
CLASS
  1
LONG_TRANSACTION
  2
AcDbLongTransaction
  3
AutoCAD 2000
 90
        0
280
     0
281
     0
  0
CLASS
  1
LWPOLYLINE
  2
AcDbPolyline
  3
"AutoCAD"
 90
        0
280
     0
281
     1
  0
CLASS
  1
HATCH
  2
AcDbHatch
  3
"ACAD_SEDONA"
 90
        0
280
     0
281
     1
  0
CLASS
  1
XRECORD
  2
AcDbXrecord
  3
"<Built In>"
 90
        0
280
     0
281
     0
  0
CLASS
  1
LONG_TRANSACTION
  2
AcDbLongTransaction
  3
AutoCAD 2000
 90
        0
280
     0
281
     0
  0
CLASS
  1
LWPOLYLINE
  2
AcDbPolyline
  3
"AutoCAD"
 90
        0
280
     0
281
     1
  0
CLASS
  1
HATCH
  2
AcDbHatch
  3
"ACAD_SEDONA"
 90
        0
280
     0
281
     1
  0
CLASS
  1
XRECORD
  2
AcDbXrecord
  3
"<Built In>"
 90
        0
280
     0
281
     0
  0
CLASS
  1
LONG_TRANSACTION
  2
AcDbLongTransaction
  3
AutoCAD 2000
 90
        0
280
     0
281
     0
  0
CLASS
  1
LWPOLYLINE
  2
AcDbPolyline
  3
"AutoCAD"
 90
        0
280
     0
281
     1
  0
CLASS
  1
HATCH
  2
AcDbHatch
  3
"ACAD_SEDONA"
 90
        0
280
     0
281
     1
  0
CLASS
  1
XRECORD
  2
AcDbXrecord
  3
"<Built In>"
 90
        0
280
     0
281
     0
  0
CLASS
  1
LONG_TRANSACTION
  2
AcDbLongTransaction
  3
AutoCAD 2000
 90
        0
280
     0
281
     0
  0
CLASS
  1
LWPOLYLINE
  2
AcDbPolyline
  3
"AutoCAD"
 90
        0
280
     0
281
     1
  0
CLASS
  1
HATCH
  2
AcDbHatch
  3
"ACAD_SEDONA"
 90
        0
280
     0
281
     1
  0
CLASS
  1
XRECORD
  2
AcDbXrecord
  3
"<Built In>"
 90
        0
280
     0
281
     0
  0
CLASS
  1
LONG_TRANSACTION
  2
AcDbLongTransaction
  3
AutoCAD 2000
 90
        0
280
     0
281
     0
  0
CLASS
  1
LWPOLYLINE
  2
AcDbPolyline
  3
"AutoCAD"
 90
        0
280
     0
281
     1
  0
CLASS
  1
HATCH
  2
AcDbHatch
  3
"ACAD_SEDONA"
 90
        0
280
     0
281
     1
  0
CLASS
  1
XRECORD
  2
AcDbXrecord
  3
"<Built In>"
 90
        0
280
     0
281
     0
  0
CLASS
  1
LONG_TRANSACTION
  2
AcDbLongTransaction
  3
AutoCAD 2000
 90
        0
280
     0
281
     0
  0
CLASS
  1
LWPOLYLINE
  2
AcDbPolyline
  3
"AutoCAD"
 90
        0
280
     0
281
     1
  0
CLASS
  1
HATCH
  2
AcDbHatch
  3
"ACAD_SEDONA"
 90
        0
280
     0
281
     1
  0
CLASS
  1
XRECORD
  2
AcDbXrecord
  3
"<Built In>"
 90
        0
280
     0
281
     0
  0
CLASS
  1
LONG_TRANSACTION
  2
AcDbLongTransaction
  3
AutoCAD 2000
 90
        0
280
     0
281
     0
  0
CLASS
  1
LWPOLYLINE
  2
AcDbPolyline
  3
"AutoCAD"
 90
        0
280
     0
281
     1
  0
CLASS
  1
HATCH
  2
AcDbHatch
  3
"ACAD_SEDONA"
 90
        0
280
     0
281
     1
  0
CLASS
  1
XRECORD
  2
AcDbXrecord
  3
"<Built In>"
 90
        0
280
     0
281
     0
  0
CLASS
  1
LONG_TRANSACTION
  2
AcDbLongTransaction
  3
AutoCAD 2000
 90
        0
280
     0
281
     0
  0
CLASS
  1
LWPOLYLINE
  2
AcDbPolyline
  3
"AutoCAD"
 90
        0
280
     0
281
     1
  0
CLASS
  1
HATCH
  2
AcDbHatch
  3
"ACAD_SEDONA"
 90
        0
280
     0
281
     1
  0
CLASS
  1
XRECORD
  2
AcDbXrecord
  3
"<Built In>"
 90
        0
280
     0
281
     0
  0
ENDSEC
  0
SECTION
  2
TABLES
  0
TABLE
  2
VPORT
  5
458C7
100
AcDbSymbolTable
 70
     1
  0
VPORT
  5
64C51
102
{ACAD_XDICTIONARY
360
64C54
102
}
100
AcDbSymbolTableRecord
100
AcDbViewportTableRecord
  2
*ACTIVE
 70
     0
 10
0.0
 20
0.0
 11
1.0
 21
1.0
 12
-0.005961
 22
-0.056958
 13
0.0
 23
0.0
 14
0.25
 24
0.25
 15
0.25
 25
0.25
 16
0.0
 26
0.0
 36
1.0
 17
0.563444
 27
-0.880137
 37
1.686493
 40
4.967972
 41
1.960674
 42
50.0
 43
0.0
 44
0.0
 50
0.0
 51
0.0
 71
     0
 72
 20000
 73
     1
 74
     1
 75
     0
 76
     0
 77
     0
 78
     0
  0
ENDTAB
  0
TABLE
  2
LTYPE
  5
458C4
100
AcDbSymbolTable
 70
     1
  0
LTYPE
  5
458D0
100
AcDbSymbolTableRecord
100
AcDbLinetypeTableRecord
  2
BYBLOCK
 70
     0
  3

 72
    65
 73
     0
 40
0.0
  0
LTYPE
  5
458D1
100
AcDbSymbolTableRecord
100
AcDbLinetypeTableRecord
  2
BYLAYER
 70
     0
  3

 72
    65
 73
     0
 40
0.0
  0
LTYPE
  5
458D2
100
AcDbSymbolTableRecord
100
AcDbLinetypeTableRecord
  2
CONTINUOUS
 70
     0
  3
Solid line
 72
    65
 73
     0
 40
0.0
  0
ENDTAB
  0
TABLE
  2
LAYER
  5
458C1
100
AcDbSymbolTable
 70
     7
  0
LAYER
  5
458CD
100
AcDbSymbolTableRecord
100
AcDbLayerTableRecord
  2
0
 70
     0
 62
     7
  6
CONTINUOUS
  0
LAYER
  5
458EA
100
AcDbSymbolTableRecord
100
AcDbLayerTableRecord
  2
DIMS-MTG-HOLES
 70
     0
 62
     1
  6
CONTINUOUS
  0
LAYER
  5
458EB
100
AcDbSymbolTableRecord
100
AcDbLayerTableRecord
  2
ATTRIBUTES
 70
     0
 62
     7
  6
CONTINUOUS
  0
LAYER
  5
4593B
102
{ACAD_XDICTIONARY
360
64C7D
102
}
100
AcDbSymbolTableRecord
100
AcDbLayerTableRecord
  2
AREA1
 70
     0
 62
    -7
  6
CONTINUOUS
  0
LAYER
  5
45940
102
{ACAD_XDICTIONARY
360
64C52
102
}
100
AcDbSymbolTableRecord
100
AcDbLayerTableRecord
  2
DEFPOINTS
 70
     0
 62
    -7
  6
CONTINUOUS
  0
LAYER
  5
45954
100
AcDbSymbolTableRecord
100
AcDbLayerTableRecord
  2
SCALE
 70
     0
 62
    -7
  6
CONTINUOUS
  0
LAYER
  5
4D59A
100
AcDbSymbolTableRecord
100
AcDbLayerTableRecord
  2
SNAP_POINTS
 70
     0
 62
    -1
  6
CONTINUOUS
  0
ENDTAB
  0
TABLE
  2
STYLE
  5
458C2
100
AcDbSymbolTable
 70
     1
  0
STYLE
  5
458CE
100
AcDbSymbolTableRecord
100
AcDbTextStyleTableRecord
  2
STANDARD
 70
     0
 40
0.0
 41
1.0
 50
0.0
 71
     0
 42
0.12
  3
txt
  4

  0
ENDTAB
  0
TABLE
  2
VIEW
  5
458C5
100
AcDbSymbolTable
 70
     0
  0
ENDTAB
  0
TABLE
  2
UCS
  5
458C6
100
AcDbSymbolTable
 70
     0
  0
ENDTAB
  0
TABLE
  2
APPID
  5
458C8
100
AcDbSymbolTable
 70
     2
  0
APPID
  5
458CF
100
AcDbSymbolTableRecord
100
AcDbRegAppTableRecord
  2
ACAD
 70
     0
  0
APPID
  5
5FD5B
100
AcDbSymbolTableRecord
100
AcDbRegAppTableRecord
  2
AVE_RENDER
 70
     0
  0
ENDTAB
  0
TABLE
  2
DIMSTYLE
  5
458C9
100
AcDbSymbolTable
 70
     1
  0
DIMSTYLE
105
458F6
102
{ACAD_XDICTIONARY
360
64C79
102
}
102
{ACAD_REACTORS
330
64BA9
330
64BB7
102
}
100
AcDbSymbolTableRecord
100
AcDbDimStyleTableRecord
  2
ABECAD_3D
 70
     0
  3

  4

  5

  6

  7

 40
1.0
 41
0.18
 42
0.0625
 43
0.375
 44
0.18
 45
0.0
 46
0.0
 47
0.0
 48
0.0
140
0.14
141
0.09
142
0.0
143
25.4
144
1.0
145
0.0
146
1.5
147
0.09
 71
     0
 72
     0
 73
     0
 74
     1
 75
     0
 76
     0
 77
     0
 78
     4
170
     1
171
     2
172
     0
173
     0
174
     0
175
     0
176
     0
177
     0
178
     0
270
     7
271
     6
272
     6
273
     2
274
     2
340
458CE
275
     0
280
     0
281
     0
282
     0
283
     1
284
     4
285
     4
286
     4
287
     5
288
     1
  0
ENDTAB
  0
TABLE
  2
BLOCK_RECORD
  5
458C0
100
AcDbSymbolTable
 70
     3
  0
BLOCK_RECORD
  5
458D6
102
{ACAD_XDICTIONARY
360
4592C
102
}
100
AcDbSymbolTableRecord
100
AcDbBlockTableRecord
  2
*MODEL_SPACE
  0
BLOCK_RECORD
  5
458D3
102
{ACAD_XDICTIONARY
360
4592A
102
}
100
AcDbSymbolTableRecord
100
AcDbBlockTableRecord
  2
*PAPER_SPACE
  0
BLOCK_RECORD
  5
63BAF
100
AcDbSymbolTableRecord
100
AcDbBlockTableRecord
  2
AVE_RENDER
  0
BLOCK_RECORD
  5
64BAA
100
AcDbSymbolTableRecord
100
AcDbBlockTableRecord
  2
*D1
  0
BLOCK_RECORD
  5
64BB8
100
AcDbSymbolTableRecord
100
AcDbBlockTableRecord
  2
*D2
  0
ENDTAB
  0
ENDSEC
  0
SECTION
  2
BLOCKS
  0
BLOCK
  5
458DF
100
AcDbEntity
  8
0
100
AcDbBlockBegin
  2
*MODEL_SPACE
 70
     0
 10
0.0
 20
0.0
 30
0.0
  3
*MODEL_SPACE
  1

  0
ENDBLK
  5
458E0
100
AcDbEntity
  8
0
100
AcDbBlockEnd
  0
BLOCK
  5
458DD
100
AcDbEntity
 67
     1
  8
0
100
AcDbBlockBegin
  2
*PAPER_SPACE
 70
     0
 10
0.0
 20
0.0
 30
0.0
  3
*PAPER_SPACE
  1

  0
ENDBLK
  5
458DE
100
AcDbEntity
 67
     1
  8
0
100
AcDbBlockEnd
  0
BLOCK
  5
63BB0
100
AcDbEntity
  8
0
100
AcDbBlockBegin
  2
AVE_RENDER
 70
     0
 10
0.0
 20
0.0
 30
0.0
  3
AVE_RENDER
  1
AVE_RENDER
  0
ENDBLK
  5
63BB1
100
AcDbEntity
  8
0
100
AcDbBlockEnd
  0
BLOCK
  5
64BB5
100
AcDbEntity
  8
0
100
AcDbBlockBegin
  2
*D1
 70
     1
 10
0.0
 20
0.0
 30
0.0
  3
*D1
  1

  0
LINE
  5
64BAB
100
AcDbEntity
  8
AREA1
 62
     0
100
AcDbLine
 10
0.6372
 20
0.7745
 30
0.0
 11
-0.714317
 21
0.7745
 31
0.0
1001
ACAD
1000
RTLwPs
1070
   158
  0
LINE
  5
64BAC
100
AcDbEntity
  8
AREA1
 62
     0
100
AcDbLine
 10
0.2702
 20
-2.4055
 30
0.0
 11
-0.714317
 21
-2.4055
 31
0.0
1001
ACAD
1000
RTLwPs
1070
   158
  0
LINE
  5
64BAD
100
AcDbEntity
  8
AREA1
 62
     0
100
AcDbLine
 10
-0.534317
 20
0.5945
 30
0.0
 11
-0.534317
 21
0.055896
 31
0.0
1001
ACAD
1000
RTLwPs
1070
   158
  0
LINE
  5
64BAE
100
AcDbEntity
  8
AREA1
 62
     0
100
AcDbLine
 10
-0.534317
 20
-2.2255
 30
0.0
 11
-0.534317
 21
-1.780771
 31
0.0
1001
ACAD
1000
RTLwPs
1070
   158
  0
MTEXT
  5
64BAF
100
AcDbEntity
  8
AREA1
 62
     0
100
AcDbMText
 10
-0.534317
 20
-0.862438
 30
0.0
 40
0.14
 41
0.0
 71
     5
 72
     1
  1
\A1;3 3/16 [80.77]
 11
0.0
 21
1.0
 31
0.0
1001
ACAD
1000
MTEXTBEGIN
1070
    73
1070
     1
1070
    44
1040
1.0
1070
    74
1070
     0
1000
MTEXTEND
1000
MTEXTBEGIN
1070
    73
1070
     1
1070
    44
1040
1.0
1070
    74
1070
     0
1000
MTEXTEND
1000
MTEXTBEGIN
1070
    73
1070
     1
1070
    44
1040
1.0
1070
    74
1070
     0
1000
MTEXTEND
  0
SOLID
  5
64BB0
100
AcDbEntity
  8
AREA1
 62
     0
100
AcDbTrace
 10
-0.564317
 20
0.5945
 30
0.0
 11
-0.504317
 21
0.5945
 31
0.0
 12
-0.534317
 22
0.7745
 32
0.0
 13
-0.534317
 23
0.7745
 33
0.0
  0
SOLID
  5
64BB1
100
AcDbEntity
  8
AREA1
 62
     0
100
AcDbTrace
 10
-0.564317
 20
-2.2255
 30
0.0
 11
-0.504317
 21
-2.2255
 31
0.0
 12
-0.534317
 22
-2.4055
 32
0.0
 13
-0.534317
 23
-2.4055
 33
0.0
  0
POINT
  5
64BB2
100
AcDbEntity
  8
DEFPOINTS
 62
     0
100
AcDbPoint
 10
0.6997
 20
0.7745
 30
1.386
  0
POINT
  5
64BB3
100
AcDbEntity
  8
DEFPOINTS
 62
     0
100
AcDbPoint
 10
0.3327
 20
-2.4055
 30
1.386
  0
POINT
  5
64BB4
100
AcDbEntity
  8
DEFPOINTS
 62
     0
100
AcDbPoint
 10
-0.534317
 20
-2.4055
 30
0.0
  0
ENDBLK
  5
64BB6
100
AcDbEntity
  8
0
100
AcDbBlockEnd
  0
BLOCK
  5
64BC2
100
AcDbEntity
  8
0
100
AcDbBlockBegin
  2
*D2
 70
     1
 10
0.0
 20
0.0
 30
0.0
  3
*D2
  1

  0
LINE
  5
64BC4
100
AcDbEntity
  8
AREA1
 62
     0
100
AcDbLine
 10
0.0002
 20
0.584
 30
0.0
 11
0.0002
 21
1.292624
 31
0.0
1001
ACAD
1000
RTLwPs
1070
   158
  0
LINE
  5
64BC5
100
AcDbEntity
  8
AREA1
 62
     0
100
AcDbLine
 10
1.7652
 20
0.637
 30
0.0
 11
1.7652
 21
1.292624
 31
0.0
1001
ACAD
1000
RTLwPs
1070
   158
  0
LINE
  5
64BC6
100
AcDbEntity
  8
AREA1
 62
     0
100
AcDbLine
 10
0.1802
 20
1.112624
 30
0.0
 11
1.5852
 21
1.112624
 31
0.0
1001
ACAD
1000
RTLwPs
1070
   158
  0
MTEXT
  5
64BC7
100
AcDbEntity
  8
AREA1
 62
     0
100
AcDbMText
 10
0.867572
 20
1.435083
 30
0.0
 40
0.14
 41
0.0
 71
     5
 72
     1
  1
\A1;1 49/64 [44.83]
1001
ACAD
1000
MTEXTBEGIN
1070
    73
1070
     1
1070
    44
1040
1.0
1070
    74
1070
     0
1000
MTEXTEND
1000
MTEXTBEGIN
1070
    73
1070
     1
1070
    44
1040
1.0
1070
    74
1070
     0
1000
MTEXTEND
1000
MTEXTBEGIN
1070
    73
1070
     1
1070
    44
1040
1.0
1070
    74
1070
     0
1000
MTEXTEND
  0
SOLID
  5
64BC8
100
AcDbEntity
  8
AREA1
 62
     0
100
AcDbTrace
 10
0.1802
 20
1.142624
 30
0.0
 11
0.1802
 21
1.082624
 31
0.0
 12
0.0002
 22
1.112624
 32
0.0
 13
0.0002
 23
1.112624
 33
0.0
  0
SOLID
  5
64BC9
100
AcDbEntity
  8
AREA1
 62
     0
100
AcDbTrace
 10
1.5852
 20
1.142624
 30
0.0
 11
1.5852
 21
1.082624
 31
0.0
 12
1.7652
 22
1.112624
 32
0.0
 13
1.7652
 23
1.112624
 33
0.0
  0
POINT
  5
64BCA
100
AcDbEntity
  8
DEFPOINTS
 62
     0
100
AcDbPoint
 10
0.0002
 20
0.5215
 30
1.318
  0
POINT
  5
64BCB
100
AcDbEntity
  8
DEFPOINTS
 62
     0
100
AcDbPoint
 10
1.7652
 20
0.5745
 30
0.0
  0
POINT
  5
64BCC
100
AcDbEntity
  8
DEFPOINTS
 62
     0
100
AcDbPoint
 10
1.7652
 20
1.112624
 30
0.0
  0
ENDBLK
  5
64BC3
100
AcDbEntity
  8
0
100
AcDbBlockEnd
  0
ENDSEC
  0
SECTION
  2
ENTITIES
  0
ATTDEF
  5
647D0
100
AcDbEntity
  8
ATTRIBUTES
100
AcDbText
 10
0.100094
 20
-0.134243
 30
0.0
 40
0.08052
  1
ALLEN-BRADLEY
100
AcDbAttributeDefinition
  3
MANUFACTURER NAME?
  2
AC_VND_LABEL
 70
     1
  0
ATTDEF
  5
647D1
100
AcDbEntity
  8
ATTRIBUTES
100
AcDbText
 10
0.100094
 20
-0.301994
 30
0.0
 40
0.08052
  1
100-C09U, C12U, C16U, C23U*01
100
AcDbAttributeDefinition
  3
CATALOG NUMBER?
  2
AC_PART_NO
 70
     1
  0
ATTDEF
  5
647D2
100
AcDbEntity
  8
ATTRIBUTES
100
AcDbText
 10
0.100094
 20
-0.469745
 30
0.0
 40
0.08052
  1
MCS IEC AC CONTACTOR; 9A-23A; 1 N.C.
100
AcDbAttributeDefinition
  3
PART DESCRIPTION?
  2
AC_DESCRIPTION
 70
     1
  0
ATTDEF
  5
647D3
100
AcDbEntity
  8
ATTRIBUTES
100
AcDbText
 10
0.100094
 20
-0.637495
 30
0.0
 40
0.08052
  1

100
AcDbAttributeDefinition
  3
DEVICE ID?
  2
DEVICE_ID
 70
     1
  0
ATTDEF
  5
647D4
100
AcDbEntity
  8
ATTRIBUTES
100
AcDbText
 10
0.100094
 20
-0.805246
 30
0.0
 40
0.08052
  1

100
AcDbAttributeDefinition
  3
CUSTOMER PART NUMBER?
  2
AC_CPART_NO
 70
     1
  0
ATTDEF
  5
647D5
100
AcDbEntity
  8
ATTRIBUTES
100
AcDbText
 10
0.100094
 20
-0.972997
 30
0.0
 40
0.08052
  1

100
AcDbAttributeDefinition
  3
CUSTOMER NOTE?
  2
AC_NOTE
 70
     1
  0
ATTDEF
  5
647D6
100
AcDbEntity
  8
ATTRIBUTES
100
AcDbText
 10
0.100094
 20
-1.140748
 30
0.0
 40
0.08052
  1

100
AcDbAttributeDefinition
  3
FASTENER DATA?
  2
FASTENER
 70
     1
  0
ATTDEF
  5
647D7
100
AcDbEntity
  8
ATTRIBUTES
100
AcDbText
 10
0.100094
 20
-1.308498
 30
0.0
 40
0.08052
  1
INCH
100
AcDbAttributeDefinition
  3
UNIT OF SCALE?
  2
AC_SCALE_UNIT
 70
     1
  0
ATTDEF
  5
647D8
100
AcDbEntity
  8
ATTRIBUTES
100
AcDbText
 10
0.100094
 20
-1.476249
 30
0.0
 40
0.08052
  1
0
100
AcDbAttributeDefinition
  3
VIEW CODE?
  2
AC_VIEW_CODE
 70
     1
  0
POLYLINE
  5
647D9
100
AcDbEntity
  8
0
100
AcDbPolygonMesh
 66
     1
 10
0.0
 20
0.0
 30
0.0
 70
    16
 71
     6
 72
     3
  0
VERTEX
  5
647DA
100
AcDbEntity
  8
0
100
AcDbVertex
100
AcDbPolygonMeshVertex
 10
1.7652
 20
0.2385
 30
0.316
 70
    64
  0
VERTEX
  5
647DB
100
AcDbEntity
  8
0
100
AcDbVertex
100
AcDbPolygonMeshVertex
 10
1.7652
 20
0.2385
 30
0.0
 70
    64
  0
VERTEX
  5
647DC
100
AcDbEntity
  8
0
100
AcDbVertex
100
AcDbPolygonMeshVertex
 10
1.7652
 20
0.2385
 30
0.0
 70
    64
  0
VERTEX
  5
647DD
100
AcDbEntity
  8
0
100
AcDbVertex
100
AcDbPolygonMeshVertex
 10
1.3742
 20
0.2385
 30
0.316
 70
    64
  0
VERTEX
  5
647DE
100
AcDbEntity
  8
0
100
AcDbVertex
100
AcDbPolygonMeshVertex
 10
1.3742
 20
0.2385
 30
0.0
 70
    64
  0
VERTEX
  5
647DF
100
AcDbEntity
  8
0
100
AcDbVertex
100
AcDbPolygonMeshVertex
 10
1.3742
 20
0.2385
 30
0.0
 70
    64
  0
VERTEX
  5
647E0
100
AcDbEntity
  8
0
100
AcDbVertex
100
AcDbPolygonMeshVertex
 10
1.3742
 20
0.5745
 30
0.316
 70
    64
  0
VERTEX
  5
647E1
100
AcDbEntity
  8
0
100
AcDbVertex
100
AcDbPolygonMeshVertex
 10
1.3742
 20
0.5745
 30
0.0
 70
    64
  0
VERTEX
  5
647E2
100
AcDbEntity
  8
0
100
AcDbVertex
100
AcDbPolygonMeshVertex
 10
1.3742
 20
0.2385
 30
0.0
 70
    64
  0
VERTEX
  5
647E3
100
AcDbEntity
  8
0
100
AcDbVertex
100
AcDbPolygonMeshVertex
 10
1.7652
 20
0.5745
 30
0.316
 70
    64
  0
VERTEX
  5
647E4
100
AcDbEntity
  8
0
100
AcDbVertex
100
AcDbPolygonMeshVertex
 10
1.7652
 20
0.5745
 30
0.0
 70
    64
  0
VERTEX
  5
647E5
100
AcDbEntity
  8
0
100
AcDbVertex
100
AcDbPolygonMeshVertex
 10
1.7652
 20
0.2385
 30
0.0
 70
    64
  0
VERTEX
  5
647E6
100
AcDbEntity
  8
0
100
AcDbVertex
100
AcDbPolygonMeshVertex
 10
1.7652
 20
0.5745
 30
0.316
 70
    64
  0
VERTEX
  5
647E7
100
AcDbEntity
  8
0
100
AcDbVertex
100
AcDbPolygonMeshVertex
 10
1.7652
 20
0.5745
 30
0.316
 70
    64
  0
VERTEX
  5
647E8
100
AcDbEntity
  8
0
100
AcDbVertex
100
AcDbPolygonMeshVertex
 10
1.7652
 20
0.2385
 30
0.316
 70
    64
  0
VERTEX
  5
647E9
100
AcDbEntity
  8
0
100
AcDbVertex
100
AcDbPolygonMeshVertex
 10
1.3742
 20
0.5745
 30
0.316
 70
    64
  0
VERTEX
  5
647EA
100
AcDbEntity
  8
0
100
AcDbVertex
100
AcDbPolygonMeshVertex
 10
1.3742
 20
0.5745
 30
0.316
 70
    64
  0
VERTEX
  5
647EB
100
AcDbEntity
  8
0
100
AcDbVertex
100
AcDbPolygonMeshVertex
 10
1.3742
 20
0.2385
 30
0.316
 70
    64
  0
SEQEND
  5
647EC
100
AcDbEntity
  8
0
  0
POLYLINE
  5
647ED
100
AcDbEntity
  8
0
100
AcDbPolygonMesh
 66
     1
 10
0.0
 20
0.0
 30
0.0
 70
    16
 71
     6
 72
     3
  0
VERTEX
  5
647EE
100
AcDbEntity
  8
0
100
AcDbVertex
100
AcDbPolygonMeshVertex
 10
0.3962
 20
-1.6855
 30
1.318
 70
    64
  0
VERTEX
  5
647EF
100
AcDbEntity
  8
0
100
AcDbVertex
100
AcDbPolygonMeshVertex
 10
0.3962
 20
-1.6855
 30
0.187
 70
    64
  0
VERTEX
  5
647F0
100
AcDbEntity
  8
0
100
AcDbVertex
100
AcDbPolygonMeshVertex
 10
0.3962
 20
-1.6855
 30
0.187
 70
    64
  0
VERTEX
  5
647F1
100
AcDbEntity
  8
0
100
AcDbVertex
100
AcDbPolygonMeshVertex
 10
0.0052
 20
-1.6855
 30
1.318
 70
    64
  0
VERTEX
  5
647F2
100
AcDbEntity
  8
0
100
AcDbVertex
100
AcDbPolygonMeshVertex
 10
0.0052
 20
-1.6855
 30
0.187
 70
    64
  0
VERTEX
  5
647F3
100
AcDbEntity
  8
0
100
AcDbVertex
100
AcDbPolygonMeshVertex
 10
0.0052
 20
-1.6855
 30
0.187
 70
    64
  0
VERTEX
  5
647F4
100
AcDbEntity
  8
0
100
AcDbVertex
100
AcDbPolygonMeshVertex
 10
0.0052
 20
0.5215
 30
1.318
 70
    64
  0
VERTEX
  5
647F5
100
AcDbEntity
  8
0
100
AcDbVertex
100
AcDbPolygonMeshVertex
 10
0.0052
 20
0.5215
 30
0.187
 70
    64
  0
VERTEX
  5
647F6
100
AcDbEntity
  8
0
100
AcDbVertex
100
AcDbPolygonMeshVertex
 10
0.0052
 20
-1.6855
 30
0.187
 70
    64
  0
VERTEX
  5
647F7
100
AcDbEntity
  8
0
100
AcDbVertex
100
AcDbPolygonMeshVertex
 10
0.3962
 20
0.5215
 30
1.318
 70
    64
  0
VERTEX
  5
647F8
100
AcDbEntity
  8
0
100
AcDbVertex
100
AcDbPolygonMeshVertex
 10
0.3962
 20
0.5215
 30
0.187
 70
    64
  0
VERTEX
  5
647F9
100
AcDbEntity
  8
0
100
AcDbVertex
100
AcDbPolygonMeshVertex
 10
0.3962
 20
-1.6855
 30
0.187
 70
    64
  0
VERTEX
  5
647FA
100
AcDbEntity
  8
0
100
AcDbVertex
100
AcDbPolygonMeshVertex
 10
0.3962
 20
0.5215
 30
1.318
 70
    64
  0
VERTEX
  5
647FB
100
AcDbEntity
  8
0
100
AcDbVertex
100
AcDbPolygonMeshVertex
 10
0.3962
 20
0.5215
 30
1.318
 70
    64
  0
VERTEX
  5
647FC
100
AcDbEntity
  8
0
100
AcDbVertex
100
AcDbPolygonMeshVertex
 10
0.3962
 20
-1.6855
 30
1.318
 70
    64
  0
VERTEX
  5
647FD
100
AcDbEntity
  8
0
100
AcDbVertex
100
AcDbPolygonMeshVertex
 10
0.0052
 20
0.5215
 30
1.318
 70
    64
  0
VERTEX
  5
647FE
100
AcDbEntity
  8
0
100
AcDbVertex
100
AcDbPolygonMeshVertex
 10
0.0052
 20
0.5215
 30
1.318
 70
    64
  0
VERTEX
  5
647FF
100
AcDbEntity
  8
0
100
AcDbVertex
100
AcDbPolygonMeshVertex
 10
0.0052
 20
-1.6855
 30
1.318
 70
    64
  0
SEQEND
  5
64800
100
AcDbEntity
  8
0
  0
POLYLINE
  5
64801
100
AcDbEntity
  8
0
100
AcDbPolygonMesh
 66
     1
 10
0.0
 20
0.0
 30
0.0
 70
    16
 71
     6
 72
     3
  0
VERTEX
  5
64802
100
AcDbEntity
  8
0
100
AcDbVertex
100
AcDbPolygonMeshVertex
 10
1.7652
 20
-1.9685
 30
1.318
 70
    64
  0
VERTEX
  5
64803
100
AcDbEntity
  8
0
100
AcDbVertex
100
AcDbPolygonMeshVertex
 10
1.7652
 20
-1.9685
 30
0.187
 70
    64
  0
VERTEX
  5
64804
100
AcDbEntity
  8
0
100
AcDbVertex
100
AcDbPolygonMeshVertex
 10
1.7652
 20
-1.9685
 30
0.187
 70
    64
  0
VERTEX
  5
64805
100
AcDbEntity
  8
0
100
AcDbVertex
100
AcDbPolygonMeshVertex
 10
1.3742
 20
-1.9685
 30
1.318
 70
    64
  0
VERTEX
  5
64806
100
AcDbEntity
  8
0
100
AcDbVertex
100
AcDbPolygonMeshVertex
 10
1.3742
 20
-1.9685
 30
0.187
 70
    64
  0
VERTEX
  5
64807
100
AcDbEntity
  8
0
100
AcDbVertex
100
AcDbPolygonMeshVertex
 10
1.3742
 20
-1.9685
 30
0.187
 70
    64
  0
VERTEX
  5
64808
100
AcDbEntity
  8
0
100
AcDbVertex
100
AcDbPolygonMeshVertex
 10
1.3742
 20
0.2385
 30
1.318
 70
    64
  0
VERTEX
  5
64809
100
AcDbEntity
  8
0
100
AcDbVertex
100
AcDbPolygonMeshVertex
 10
1.3742
 20
0.2385
 30
0.187
 70
    64
  0
VERTEX
  5
6480A
100
AcDbEntity
  8
0
100
AcDbVertex
100
AcDbPolygonMeshVertex
 10
1.3742
 20
-1.9685
 30
0.187
 70
    64
  0
VERTEX
  5
6480B
100
AcDbEntity
  8
0
100
AcDbVertex
100
AcDbPolygonMeshVertex
 10
1.7652
 20
0.2385
 30
1.318
 70
    64
  0
VERTEX
  5
6480C
100
AcDbEntity
  8
0
100
AcDbVertex
100
AcDbPolygonMeshVertex
 10
1.7652
 20
0.2385
 30
0.187
 70
    64
  0
VERTEX
  5
6480D
100
AcDbEntity
  8
0
100
AcDbVertex
100
AcDbPolygonMeshVertex
 10
1.7652
 20
-1.9685
 30
0.187
 70
    64
  0
VERTEX
  5
6480E
100
AcDbEntity
  8
0
100
AcDbVertex
100
AcDbPolygonMeshVertex
 10
1.7652
 20
0.2385
 30
1.318
 70
    64
  0
VERTEX
  5
6480F
100
AcDbEntity
  8
0
100
AcDbVertex
100
AcDbPolygonMeshVertex
 10
1.7652
 20
0.2385
 30
1.318
 70
    64
  0
VERTEX
  5
64810
100
AcDbEntity
  8
0
100
AcDbVertex
100
AcDbPolygonMeshVertex
 10
1.7652
 20
-1.9685
 30
1.318
 70
    64
  0
VERTEX
  5
64811
100
AcDbEntity
  8
0
100
AcDbVertex
100
AcDbPolygonMeshVertex
 10
1.3742
 20
0.2385
 30
1.318
 70
    64
  0
VERTEX
  5
64812
100
AcDbEntity
  8
0
100
AcDbVertex
100
AcDbPolygonMeshVertex
 10
1.3742
 20
0.2385
 30
1.318
 70
    64
  0
VERTEX
  5
64813
100
AcDbEntity
  8
0
100
AcDbVertex
100
AcDbPolygonMeshVertex
 10
1.3742
 20
-1.9685
 30
1.318
 70
    64
  0
SEQEND
  5
64814
100
AcDbEntity
  8
0
  0
POLYLINE
  5
64815
100
AcDbEntity
  8
0
100
AcDbPolygonMesh
 66
     1
 10
0.0
 20
0.0
 30
0.0
 70
    16
 71
     6
 72
     3
  0
VERTEX
  5
64816
100
AcDbEntity
  8
0
100
AcDbVertex
100
AcDbPolygonMeshVertex
 10
1.3742
 20
-1.9685
 30
1.318
 70
    64
  0
VERTEX
  5
64817
100
AcDbEntity
  8
0
100
AcDbVertex
100
AcDbPolygonMeshVertex
 10
1.3742
 20
-1.9685
 30
0.187
 70
    64
  0
VERTEX
  5
64818
100
AcDbEntity
  8
0
100
AcDbVertex
100
AcDbPolygonMeshVertex
 10
1.3742
 20
-1.9685
 30
0.187
 70
    64
  0
VERTEX
  5
64819
100
AcDbEntity
  8
0
100
AcDbVertex
100
AcDbPolygonMeshVertex
 10
0.3962
 20
-1.9685
 30
1.318
 70
    64
  0
VERTEX
  5
6481A
100
AcDbEntity
  8
0
100
AcDbVertex
100
AcDbPolygonMeshVertex
 10
0.3962
 20
-1.9685
 30
0.187
 70
    64
  0
VERTEX
  5
6481B
100
AcDbEntity
  8
0
100
AcDbVertex
100
AcDbPolygonMeshVertex
 10
0.3962
 20
-1.9685
 30
0.187
 70
    64
  0
VERTEX
  5
6481C
100
AcDbEntity
  8
0
100
AcDbVertex
100
AcDbPolygonMeshVertex
 10
0.3962
 20
0.5215
 30
1.318
 70
    64
  0
VERTEX
  5
6481D
100
AcDbEntity
  8
0
100
AcDbVertex
100
AcDbPolygonMeshVertex
 10
0.3962
 20
0.5215
 30
0.187
 70
    64
  0
VERTEX
  5
6481E
100
AcDbEntity
  8
0
100
AcDbVertex
100
AcDbPolygonMeshVertex
 10
0.3962
 20
-1.9685
 30
0.187
 70
    64
  0
VERTEX
  5
6481F
100
AcDbEntity
  8
0
100
AcDbVertex
100
AcDbPolygonMeshVertex
 10
1.3742
 20
0.5215
 30
1.318
 70
    64
  0
VERTEX
  5
64820
100
AcDbEntity
  8
0
100
AcDbVertex
100
AcDbPolygonMeshVertex
 10
1.3742
 20
0.5215
 30
0.187
 70
    64
  0
VERTEX
  5
64821
100
AcDbEntity
  8
0
100
AcDbVertex
100
AcDbPolygonMeshVertex
 10
1.3742
 20
-1.9685
 30
0.187
 70
    64
  0
VERTEX
  5
64822
100
AcDbEntity
  8
0
100
AcDbVertex
100
AcDbPolygonMeshVertex
 10
1.3742
 20
0.5215
 30
1.318
 70
    64
  0
VERTEX
  5
64823
100
AcDbEntity
  8
0
100
AcDbVertex
100
AcDbPolygonMeshVertex
 10
1.3742
 20
0.5215
 30
1.318
 70
    64
  0
VERTEX
  5
64824
100
AcDbEntity
  8
0
100
AcDbVertex
100
AcDbPolygonMeshVertex
 10
1.3742
 20
-1.9685
 30
1.318
 70
    64
  0
VERTEX
  5
64825
100
AcDbEntity
  8
0
100
AcDbVertex
100
AcDbPolygonMeshVertex
 10
0.3962
 20
0.5215
 30
1.318
 70
    64
  0
VERTEX
  5
64826
100
AcDbEntity
  8
0
100
AcDbVertex
100
AcDbPolygonMeshVertex
 10
0.3962
 20
0.5215
 30
1.318
 70
    64
  0
VERTEX
  5
64827
100
AcDbEntity
  8
0
100
AcDbVertex
100
AcDbPolygonMeshVertex
 10
0.3962
 20
-1.9685
 30
1.318
 70
    64
  0
SEQEND
  5
64828
100
AcDbEntity
  8
0
  0
POLYLINE
  5
64829
100
AcDbEntity
  8
0
100
AcDbPolygonMesh
 66
     1
 10
0.0
 20
0.0
 30
0.0
 70
    16
 71
     6
 72
     3
  0
VERTEX
  5
6482A
100
AcDbEntity
  8
0
100
AcDbVertex
100
AcDbPolygonMeshVertex
 10
1.0707
 20
0.7745
 30
2.06
 70
    64
  0
VERTEX
  5
6482B
100
AcDbEntity
  8
0
100
AcDbVertex
100
AcDbPolygonMeshVertex
 10
1.0707
 20
0.7745
 30
1.386
 70
    64
  0
VERTEX
  5
6482C
100
AcDbEntity
  8
0
100
AcDbVertex
100
AcDbPolygonMeshVertex
 10
1.0707
 20
0.7745
 30
1.386
 70
    64
  0
VERTEX
  5
6482D
100
AcDbEntity
  8
0
100
AcDbVertex
100
AcDbPolygonMeshVertex
 10
0.6997
 20
0.7745
 30
2.06
 70
    64
  0
VERTEX
  5
6482E
100
AcDbEntity
  8
0
100
AcDbVertex
100
AcDbPolygonMeshVertex
 10
0.6997
 20
0.7745
 30
1.386
 70
    64
  0
VERTEX
  5
6482F
100
AcDbEntity
  8
0
100
AcDbVertex
100
AcDbPolygonMeshVertex
 10
0.6997
 20
0.7745
 30
1.386
 70
    64
  0
VERTEX
  5
64830
100
AcDbEntity
  8
0
100
AcDbVertex
100
AcDbPolygonMeshVertex
 10
0.6997
 20
0.5215
 30
2.06
 70
    64
  0
VERTEX
  5
64831
100
AcDbEntity
  8
0
100
AcDbVertex
100
AcDbPolygonMeshVertex
 10
0.6997
 20
0.5215
 30
1.386
 70
    64
  0
VERTEX
  5
64832
100
AcDbEntity
  8
0
100
AcDbVertex
100
AcDbPolygonMeshVertex
 10
0.6997
 20
0.7745
 30
1.386
 70
    64
  0
VERTEX
  5
64833
100
AcDbEntity
  8
0
100
AcDbVertex
100
AcDbPolygonMeshVertex
 10
1.0707
 20
0.5215
 30
2.06
 70
    64
  0
VERTEX
  5
64834
100
AcDbEntity
  8
0
100
AcDbVertex
100
AcDbPolygonMeshVertex
 10
1.0707
 20
0.5215
 30
1.386
 70
    64
  0
VERTEX
  5
64835
100
AcDbEntity
  8
0
100
AcDbVertex
100
AcDbPolygonMeshVertex
 10
1.0707
 20
0.7745
 30
1.386
 70
    64
  0
VERTEX
  5
64836
100
AcDbEntity
  8
0
100
AcDbVertex
100
AcDbPolygonMeshVertex
 10
1.0707
 20
0.5215
 30
2.06
 70
    64
  0
VERTEX
  5
64837
100
AcDbEntity
  8
0
100
AcDbVertex
100
AcDbPolygonMeshVertex
 10
1.0707
 20
0.5215
 30
2.06
 70
    64
  0
VERTEX
  5
64838
100
AcDbEntity
  8
0
100
AcDbVertex
100
AcDbPolygonMeshVertex
 10
1.0707
 20
0.7745
 30
2.06
 70
    64
  0
VERTEX
  5
64839
100
AcDbEntity
  8
0
100
AcDbVertex
100
AcDbPolygonMeshVertex
 10
0.6997
 20
0.5215
 30
2.06
 70
    64
  0
VERTEX
  5
6483A
100
AcDbEntity
  8
0
100
AcDbVertex
100
AcDbPolygonMeshVertex
 10
0.6997
 20
0.5215
 30
2.06
 70
    64
  0
VERTEX
  5
6483B
100
AcDbEntity
  8
0
100
AcDbVertex
100
AcDbPolygonMeshVertex
 10
0.6997
 20
0.7745
 30
2.06
 70
    64
  0
SEQEND
  5
6483C
100
AcDbEntity
  8
0
  0
LWPOLYLINE
  5
6483D
100
AcDbEntity
  8
0
100
AcDbPolyline
 90
        4
 70
     1
 43
0.0
 38
2.062
 10
0.7517
 20
0.5735
 10
1.0187
 20
0.5735
 10
1.0187
 20
0.7225
 10
0.7517
 20
0.7225
  0
LWPOLYLINE
  5
6483E
100
AcDbEntity
  8
0
100
AcDbPolyline
 90
        4
 70
     1
 43
0.0
 38
1.388
 10
0.7517
 20
-2.0205
 10
1.0187
 20
-2.0205
 10
1.0187
 20
-2.1695
 10
0.7517
 20
-2.1695
  0
POLYLINE
  5
6483F
100
AcDbEntity
  8
0
100
AcDbPolygonMesh
 66
     1
 10
0.0
 20
0.0
 30
0.0
 70
    16
 71
     6
 72
     3
  0
VERTEX
  5
64840
100
AcDbEntity
  8
0
100
AcDbVertex
100
AcDbPolygonMeshVertex
 10
0.3327
 20
-2.4055
 30
2.06
 70
    64
  0
VERTEX
  5
64841
100
AcDbEntity
  8
0
100
AcDbVertex
100
AcDbPolygonMeshVertex
 10
0.3327
 20
-2.4055
 30
1.386
 70
    64
  0
VERTEX
  5
64842
100
AcDbEntity
  8
0
100
AcDbVertex
100
AcDbPolygonMeshVertex
 10
0.3327
 20
-2.4055
 30
1.386
 70
    64
  0
VERTEX
  5
64843
100
AcDbEntity
  8
0
100
AcDbVertex
100
AcDbPolygonMeshVertex
 10
1.4377
 20
-2.4055
 30
2.06
 70
    64
  0
VERTEX
  5
64844
100
AcDbEntity
  8
0
100
AcDbVertex
100
AcDbPolygonMeshVertex
 10
1.4377
 20
-2.4055
 30
1.386
 70
    64
  0
VERTEX
  5
64845
100
AcDbEntity
  8
0
100
AcDbVertex
100
AcDbPolygonMeshVertex
 10
1.4377
 20
-2.4055
 30
1.386
 70
    64
  0
VERTEX
  5
64846
100
AcDbEntity
  8
0
100
AcDbVertex
100
AcDbPolygonMeshVertex
 10
1.4377
 20
-1.9685
 30
2.06
 70
    64
  0
VERTEX
  5
64847
100
AcDbEntity
  8
0
100
AcDbVertex
100
AcDbPolygonMeshVertex
 10
1.4377
 20
-1.9685
 30
1.386
 70
    64
  0
VERTEX
  5
64848
100
AcDbEntity
  8
0
100
AcDbVertex
100
AcDbPolygonMeshVertex
 10
1.4377
 20
-2.4055
 30
1.386
 70
    64
  0
VERTEX
  5
64849
100
AcDbEntity
  8
0
100
AcDbVertex
100
AcDbPolygonMeshVertex
 10
0.3327
 20
-1.9685
 30
2.06
 70
    64
  0
VERTEX
  5
6484A
100
AcDbEntity
  8
0
100
AcDbVertex
100
AcDbPolygonMeshVertex
 10
0.3327
 20
-1.9685
 30
1.386
 70
    64
  0
VERTEX
  5
6484B
100
AcDbEntity
  8
0
100
AcDbVertex
100
AcDbPolygonMeshVertex
 10
0.3327
 20
-2.4055
 30
1.386
 70
    64
  0
VERTEX
  5
6484C
100
AcDbEntity
  8
0
100
AcDbVertex
100
AcDbPolygonMeshVertex
 10
0.3327
 20
-1.9685
 30
2.06
 70
    64
  0
VERTEX
  5
6484D
100
AcDbEntity
  8
0
100
AcDbVertex
100
AcDbPolygonMeshVertex
 10
0.3327
 20
-1.9685
 30
2.06
 70
    64
  0
VERTEX
  5
6484E
100
AcDbEntity
  8
0
100
AcDbVertex
100
AcDbPolygonMeshVertex
 10
0.3327
 20
-2.4055
 30
2.06
 70
    64
  0
VERTEX
  5
6484F
100
AcDbEntity
  8
0
100
AcDbVertex
100
AcDbPolygonMeshVertex
 10
1.4377
 20
-1.9685
 30
2.06
 70
    64
  0
VERTEX
  5
64850
100
AcDbEntity
  8
0
100
AcDbVertex
100
AcDbPolygonMeshVertex
 10
1.4377
 20
-1.9685
 30
2.06
 70
    64
  0
VERTEX
  5
64851
100
AcDbEntity
  8
0
100
AcDbVertex
100
AcDbPolygonMeshVertex
 10
1.4377
 20
-2.4055
 30
2.06
 70
    64
  0
SEQEND
  5
64852
100
AcDbEntity
  8
0
  0
LINE
  5
64853
100
AcDbEntity
  8
0
100
AcDbLine
 10
0.7452
 20
-1.9685
 30
2.06
 11
0.7452
 21
-2.2035
 31
2.06
  0
LINE
  5
64854
100
AcDbEntity
  8
0
100
AcDbLine
 10
1.0252
 20
-1.9685
 30
2.06
 11
1.0252
 21
-2.2035
 31
2.06
  0
LINE
  5
64855
100
AcDbEntity
  8
0
100
AcDbLine
 10
1.0252
 20
-2.2035
 30
2.06
 11
0.7452
 21
-2.2035
 31
2.06
  0
CIRCLE
  5
64856
100
AcDbEntity
  8
0
100
AcDbCircle
 10
0.5462
 20
-2.187
 30
2.06
 40
0.12
  0
CIRCLE
  5
64857
100
AcDbEntity
  8
0
100
AcDbCircle
 10
1.2242
 20
-2.187
 30
2.06
 40
0.12
  0
POLYLINE
  5
64858
100
AcDbEntity
  8
0
100
AcDb3dPolyline
 66
     1
 10
0.0
 20
0.0
 30
0.0
 70
     8
  0
VERTEX
  5
64859
100
AcDbEntity
  8
0
100
AcDbVertex
100
AcDb3dPolylineVertex
 10
1.7652
 20
-1.3525
 30
0.187
 70
    32
  0
VERTEX
  5
6485A
100
AcDbEntity
  8
0
100
AcDbVertex
100
AcDb3dPolylineVertex
 10
1.7652
 20
-1.3525
 30
1.057
 70
    32
  0
VERTEX
  5
6485B
100
AcDbEntity
  8
0
100
AcDbVertex
100
AcDb3dPolylineVertex
 10
1.7652
 20
-1.5075
 30
1.057
 70
    32
  0
VERTEX
  5
6485C
100
AcDbEntity
  8
0
100
AcDbVertex
100
AcDb3dPolylineVertex
 10
1.7652
 20
-1.5075
 30
0.187
 70
    32
  0
SEQEND
  5
6485D
100
AcDbEntity
  8
0
  0
POLYLINE
  5
6485E
100
AcDbEntity
  8
0
100
AcDb3dPolyline
 66
     1
 10
0.0
 20
0.0
 30
0.0
 70
     8
  0
VERTEX
  5
6485F
100
AcDbEntity
  8
0
100
AcDbVertex
100
AcDb3dPolylineVertex
 10
1.7652
 20
0.0265
 30
0.187
 70
    32
  0
VERTEX
  5
64860
100
AcDbEntity
  8
0
100
AcDbVertex
100
AcDb3dPolylineVertex
 10
1.7652
 20
0.0265
 30
1.057
 70
    32
  0
VERTEX
  5
64861
100
AcDbEntity
  8
0
100
AcDbVertex
100
AcDb3dPolylineVertex
 10
1.7652
 20
-0.1285
 30
1.057
 70
    32
  0
VERTEX
  5
64862
100
AcDbEntity
  8
0
100
AcDbVertex
100
AcDb3dPolylineVertex
 10
1.7652
 20
-0.1285
 30
0.187
 70
    32
  0
SEQEND
  5
64863
100
AcDbEntity
  8
0
  0
LINE
  5
64864
100
AcDbEntity
  8
0
100
AcDbLine
 10
1.7652
 20
-0.6295
 30
0.517
 11
1.7652
 21
-0.8515
 31
0.517
  0
LINE
  5
64865
100
AcDbEntity
  8
0
100
AcDbLine
 10
1.7652
 20
-0.8515
 30
0.517
 11
1.7652
 21
-0.8515
 31
0.187
  0
LINE
  5
64866
100
AcDbEntity
  8
0
100
AcDbLine
 10
1.7652
 20
-0.6295
 30
0.517
 11
1.7652
 21
-0.6295
 31
0.187
  0
POLYLINE
  5
64867
100
AcDbEntity
  8
0
100
AcDb3dPolyline
 66
     1
 10
0.0
 20
0.0
 30
0.0
 70
     8
  0
VERTEX
  5
64868
100
AcDbEntity
  8
0
100
AcDbVertex
100
AcDb3dPolylineVertex
 10
0.0052
 20
0.0265
 30
0.187
 70
    32
  0
VERTEX
  5
64869
100
AcDbEntity
  8
0
100
AcDbVertex
100
AcDb3dPolylineVertex
 10
0.0052
 20
0.0265
 30
1.057
 70
    32
  0
VERTEX
  5
6486A
100
AcDbEntity
  8
0
100
AcDbVertex
100
AcDb3dPolylineVertex
 10
0.0052
 20
-0.1285
 30
1.057
 70
    32
  0
VERTEX
  5
6486B
100
AcDbEntity
  8
0
100
AcDbVertex
100
AcDb3dPolylineVertex
 10
0.0052
 20
-0.1285
 30
0.187
 70
    32
  0
SEQEND
  5
6486C
100
AcDbEntity
  8
0
  0
POLYLINE
  5
6486D
100
AcDbEntity
  8
0
100
AcDb3dPolyline
 66
     1
 10
0.0
 20
0.0
 30
0.0
 70
     8
  0
VERTEX
  5
6486E
100
AcDbEntity
  8
0
100
AcDbVertex
100
AcDb3dPolylineVertex
 10
0.0052
 20
-1.3525
 30
0.187
 70
    32
  0
VERTEX
  5
6486F
100
AcDbEntity
  8
0
100
AcDbVertex
100
AcDb3dPolylineVertex
 10
0.0052
 20
-1.3525
 30
1.057
 70
    32
  0
VERTEX
  5
64870
100
AcDbEntity
  8
0
100
AcDbVertex
100
AcDb3dPolylineVertex
 10
0.0052
 20
-1.5075
 30
1.057
 70
    32
  0
VERTEX
  5
64871
100
AcDbEntity
  8
0
100
AcDbVertex
100
AcDb3dPolylineVertex
 10
0.0052
 20
-1.5075
 30
0.187
 70
    32
  0
SEQEND
  5
64872
100
AcDbEntity
  8
0
  0
LINE
  5
64873
100
AcDbEntity
  8
0
100
AcDbLine
 10
1.7652
 20
-1.5675
 30
0.187
 11
1.7652
 21
-1.5675
 31
0.0
  0
LINE
  5
64874
100
AcDbEntity
  8
0
100
AcDbLine
 10
1.7652
 20
-1.5675
 30
0.0
 11
0.8852
 21
-1.5675
 31
0.0
  0
POLYLINE
  5
64875
100
AcDbEntity
  8
0
100
AcDbPolygonMesh
 66
     1
 10
0.0
 20
0.0
 30
0.0
 70
    16
 71
     6
 72
     3
  0
VERTEX
  5
64876
100
AcDbEntity
  8
0
100
AcDbVertex
100
AcDbPolygonMeshVertex
 10
0.8852
 20
-1.5675
 30
0.187
 70
    64
  0
VERTEX
  5
64877
100
AcDbEntity
  8
0
100
AcDbVertex
100
AcDbPolygonMeshVertex
 10
0.8852
 20
-1.5675
 30
0.0
 70
    64
  0
VERTEX
  5
64878
100
AcDbEntity
  8
0
100
AcDbVertex
100
AcDbPolygonMeshVertex
 10
0.8852
 20
-1.5675
 30
0.0
 70
    64
  0
VERTEX
  5
64879
100
AcDbEntity
  8
0
100
AcDbVertex
100
AcDbPolygonMeshVertex
 10
1.7652
 20
-1.5675
 30
0.187
 70
    64
  0
VERTEX
  5
6487A
100
AcDbEntity
  8
0
100
AcDbVertex
100
AcDbPolygonMeshVertex
 10
1.7652
 20
-1.5675
 30
0.0
 70
    64
  0
VERTEX
  5
6487B
100
AcDbEntity
  8
0
100
AcDbVertex
100
AcDbPolygonMeshVertex
 10
1.7652
 20
-1.5675
 30
0.0
 70
    64
  0
VERTEX
  5
6487C
100
AcDbEntity
  8
0
100
AcDbVertex
100
AcDbPolygonMeshVertex
 10
1.7652
 20
-2.1655
 30
0.187
 70
    64
  0
VERTEX
  5
6487D
100
AcDbEntity
  8
0
100
AcDbVertex
100
AcDbPolygonMeshVertex
 10
1.7652
 20
-2.1655
 30
0.0
 70
    64
  0
VERTEX
  5
6487E
100
AcDbEntity
  8
0
100
AcDbVertex
100
AcDbPolygonMeshVertex
 10
1.7652
 20
-1.5675
 30
0.0
 70
    64
  0
VERTEX
  5
6487F
100
AcDbEntity
  8
0
100
AcDbVertex
100
AcDbPolygonMeshVertex
 10
0.8852
 20
-2.1655
 30
0.187
 70
    64
  0
VERTEX
  5
64880
100
AcDbEntity
  8
0
100
AcDbVertex
100
AcDbPolygonMeshVertex
 10
0.8852
 20
-2.1655
 30
0.0
 70
    64
  0
VERTEX
  5
64881
100
AcDbEntity
  8
0
100
AcDbVertex
100
AcDbPolygonMeshVertex
 10
0.8852
 20
-1.5675
 30
0.0
 70
    64
  0
VERTEX
  5
64882
100
AcDbEntity
  8
0
100
AcDbVertex
100
AcDbPolygonMeshVertex
 10
0.8852
 20
-2.1655
 30
0.187
 70
    64
  0
VERTEX
  5
64883
100
AcDbEntity
  8
0
100
AcDbVertex
100
AcDbPolygonMeshVertex
 10
0.8852
 20
-2.1655
 30
0.187
 70
    64
  0
VERTEX
  5
64884
100
AcDbEntity
  8
0
100
AcDbVertex
100
AcDbPolygonMeshVertex
 10
0.8852
 20
-1.5675
 30
0.187
 70
    64
  0
VERTEX
  5
64885
100
AcDbEntity
  8
0
100
AcDbVertex
100
AcDbPolygonMeshVertex
 10
1.7652
 20
-2.1655
 30
0.187
 70
    64
  0
VERTEX
  5
64886
100
AcDbEntity
  8
0
100
AcDbVertex
100
AcDbPolygonMeshVertex
 10
1.7652
 20
-2.1655
 30
0.187
 70
    64
  0
VERTEX
  5
64887
100
AcDbEntity
  8
0
100
AcDbVertex
100
AcDbPolygonMeshVertex
 10
1.7652
 20
-1.5675
 30
0.187
 70
    64
  0
SEQEND
  5
64888
100
AcDbEntity
  8
0
  0
POLYLINE
  5
64889
100
AcDbEntity
  8
0
100
AcDbPolygonMesh
 66
     1
 10
0.0
 20
0.0
 30
0.0
 70
    16
 71
     6
 72
     3
  0
VERTEX
  5
6488A
100
AcDbEntity
  8
0
100
AcDbVertex
100
AcDbPolygonMeshVertex
 10
0.0052
 20
0.7185
 30
0.187
 70
    64
  0
VERTEX
  5
6488B
100
AcDbEntity
  8
0
100
AcDbVertex
100
AcDbPolygonMeshVertex
 10
0.0052
 20
0.7185
 30
0.0
 70
    64
  0
VERTEX
  5
6488C
100
AcDbEntity
  8
0
100
AcDbVertex
100
AcDbPolygonMeshVertex
 10
0.0052
 20
0.7185
 30
0.0
 70
    64
  0
VERTEX
  5
6488D
100
AcDbEntity
  8
0
100
AcDbVertex
100
AcDbPolygonMeshVertex
 10
0.8852
 20
0.7185
 30
0.187
 70
    64
  0
VERTEX
  5
6488E
100
AcDbEntity
  8
0
100
AcDbVertex
100
AcDbPolygonMeshVertex
 10
0.8852
 20
0.7185
 30
0.0
 70
    64
  0
VERTEX
  5
6488F
100
AcDbEntity
  8
0
100
AcDbVertex
100
AcDbPolygonMeshVertex
 10
0.8852
 20
0.7185
 30
0.0
 70
    64
  0
VERTEX
  5
64890
100
AcDbEntity
  8
0
100
AcDbVertex
100
AcDbPolygonMeshVertex
 10
0.8852
 20
0.1205
 30
0.187
 70
    64
  0
VERTEX
  5
64891
100
AcDbEntity
  8
0
100
AcDbVertex
100
AcDbPolygonMeshVertex
 10
0.8852
 20
0.1205
 30
0.0
 70
    64
  0
VERTEX
  5
64892
100
AcDbEntity
  8
0
100
AcDbVertex
100
AcDbPolygonMeshVertex
 10
0.8852
 20
0.7185
 30
0.0
 70
    64
  0
VERTEX
  5
64893
100
AcDbEntity
  8
0
100
AcDbVertex
100
AcDbPolygonMeshVertex
 10
0.0052
 20
0.1205
 30
0.187
 70
    64
  0
VERTEX
  5
64894
100
AcDbEntity
  8
0
100
AcDbVertex
100
AcDbPolygonMeshVertex
 10
0.0052
 20
0.1205
 30
0.0
 70
    64
  0
VERTEX
  5
64895
100
AcDbEntity
  8
0
100
AcDbVertex
100
AcDbPolygonMeshVertex
 10
0.0052
 20
0.7185
 30
0.0
 70
    64
  0
VERTEX
  5
64896
100
AcDbEntity
  8
0
100
AcDbVertex
100
AcDbPolygonMeshVertex
 10
0.0052
 20
0.1205
 30
0.187
 70
    64
  0
VERTEX
  5
64897
100
AcDbEntity
  8
0
100
AcDbVertex
100
AcDbPolygonMeshVertex
 10
0.0052
 20
0.1205
 30
0.187
 70
    64
  0
VERTEX
  5
64898
100
AcDbEntity
  8
0
100
AcDbVertex
100
AcDbPolygonMeshVertex
 10
0.0052
 20
0.7185
 30
0.187
 70
    64
  0
VERTEX
  5
64899
100
AcDbEntity
  8
0
100
AcDbVertex
100
AcDbPolygonMeshVertex
 10
0.8852
 20
0.1205
 30
0.187
 70
    64
  0
VERTEX
  5
6489A
100
AcDbEntity
  8
0
100
AcDbVertex
100
AcDbPolygonMeshVertex
 10
0.8852
 20
0.1205
 30
0.187
 70
    64
  0
VERTEX
  5
6489B
100
AcDbEntity
  8
0
100
AcDbVertex
100
AcDbPolygonMeshVertex
 10
0.8852
 20
0.7185
 30
0.187
 70
    64
  0
SEQEND
  5
6489C
100
AcDbEntity
  8
0
  0
LINE
  5
6489D
100
AcDbEntity
  8
0
100
AcDbLine
 10
1.7652
 20
-0.8065
 30
1.8785
 11
1.7652
 21
-0.6405
 31
1.8785
  0
POLYLINE
  5
6489E
100
AcDbEntity
  8
0
100
AcDb3dPolyline
 66
     1
 10
0.0
 20
0.0
 30
0.0
 70
     8
  0
VERTEX
  5
6489F
100
AcDbEntity
  8
0
100
AcDbVertex
100
AcDb3dPolylineVertex
 10
-0.00001
 20
-0.6405
 30
1.592
 70
    32
  0
VERTEX
  5
648A0
100
AcDbEntity
  8
0
100
AcDbVertex
100
AcDb3dPolylineVertex
 10
-0.00001
 20
-0.6405
 30
2.165
 70
    32
  0
VERTEX
  5
648A1
100
AcDbEntity
  8
0
100
AcDbVertex
100
AcDb3dPolylineVertex
 10
-0.00001
 20
-0.8065
 30
2.165
 70
    32
  0
VERTEX
  5
648A2
100
AcDbEntity
  8
0
100
AcDbVertex
100
AcDb3dPolylineVertex
 10
-0.00001
 20
-0.8065
 30
1.592
 70
    32
  0
VERTEX
  5
648A3
100
AcDbEntity
  8
0
100
AcDbVertex
100
AcDb3dPolylineVertex
 10
-0.00001
 20
-0.6405
 30
1.592
 70
    32
  0
SEQEND
  5
648A4
100
AcDbEntity
  8
0
  0
LINE
  5
648A5
100
AcDbEntity
  8
0
100
AcDbLine
 10
-0.00001
 20
-0.8065
 30
1.8785
 11
-0.00001
 21
-0.6405
 31
1.8785
  0
LINE
  5
648A6
100
AcDbEntity
  8
0
100
AcDbLine
 10
-0.00001
 20
-0.8065
 30
2.0685
 11
-0.00001
 21
-0.6405
 31
2.0685
  0
CIRCLE
  5
648A7
100
AcDbEntity
  8
0
100
AcDbCircle
 10
1.5712
 20
0.4255
 30
0.316
 40
0.086
  0
POLYLINE
  5
648A8
100
AcDbEntity
  8
0
100
AcDb3dPolyline
 66
     1
 10
0.0
 20
0.0
 30
0.0
 70
     8
  0
VERTEX
  5
648A9
100
AcDbEntity
  8
0
100
AcDbVertex
100
AcDb3dPolylineVertex
 10
0.550533
 20
0.5215
 30
0.187
 70
    32
  0
VERTEX
  5
648AA
100
AcDbEntity
  8
0
100
AcDbVertex
100
AcDb3dPolylineVertex
 10
0.550533
 20
0.6565
 30
0.187
 70
    32
  0
VERTEX
  5
648AB
100
AcDbEntity
  8
0
100
AcDbVertex
100
AcDb3dPolylineVertex
 10
0.339867
 20
0.6565
 30
0.187
 70
    32
  0
VERTEX
  5
648AC
100
AcDbEntity
  8
0
100
AcDbVertex
100
AcDb3dPolylineVertex
 10
0.339867
 20
0.5215
 30
0.187
 70
    32
  0
SEQEND
  5
648AD
100
AcDbEntity
  8
0
  0
POLYLINE
  5
648AE
100
AcDbEntity
  8
0
100
AcDb3dPolyline
 66
     1
 10
0.0
 20
0.0
 30
0.0
 70
     8
  0
VERTEX
  5
648AF
100
AcDbEntity
  8
0
100
AcDbVertex
100
AcDb3dPolylineVertex
 10
0.277867
 20
0.5215
 30
0.187
 70
    32
  0
VERTEX
  5
648B0
100
AcDbEntity
  8
0
100
AcDbVertex
100
AcDb3dPolylineVertex
 10
0.277867
 20
0.6565
 30
0.187
 70
    32
  0
VERTEX
  5
648B1
100
AcDbEntity
  8
0
100
AcDbVertex
100
AcDb3dPolylineVertex
 10
0.0672
 20
0.6565
 30
0.187
 70
    32
  0
VERTEX
  5
648B2
100
AcDbEntity
  8
0
100
AcDbVertex
100
AcDb3dPolylineVertex
 10
0.0672
 20
0.5215
 30
0.187
 70
    32
  0
SEQEND
  5
648B3
100
AcDbEntity
  8
0
  0
POLYLINE
  5
648B4
100
AcDbEntity
  8
0
100
AcDb3dPolyline
 66
     1
 10
0.0
 20
0.0
 30
0.0
 70
     8
  0
VERTEX
  5
648B5
100
AcDbEntity
  8
0
100
AcDbVertex
100
AcDb3dPolylineVertex
 10
0.8232
 20
0.5215
 30
0.187
 70
    32
  0
VERTEX
  5
648B6
100
AcDbEntity
  8
0
100
AcDbVertex
100
AcDb3dPolylineVertex
 10
0.8232
 20
0.6565
 30
0.187
 70
    32
  0
VERTEX
  5
648B7
100
AcDbEntity
  8
0
100
AcDbVertex
100
AcDb3dPolylineVertex
 10
0.612533
 20
0.6565
 30
0.187
 70
    32
  0
VERTEX
  5
648B8
100
AcDbEntity
  8
0
100
AcDbVertex
100
AcDb3dPolylineVertex
 10
0.612533
 20
0.5215
 30
0.187
 70
    32
  0
SEQEND
  5
648B9
100
AcDbEntity
  8
0
  0
POLYLINE
  5
648BA
100
AcDbEntity
  8
0
100
AcDb3dPolyline
 66
     1
 10
0.0
 20
0.0
 30
0.0
 70
     8
  0
VERTEX
  5
648BB
100
AcDbEntity
  8
0
100
AcDbVertex
100
AcDb3dPolylineVertex
 10
1.492533
 20
-1.9685
 30
0.187
 70
    32
  0
VERTEX
  5
648BC
100
AcDbEntity
  8
0
100
AcDbVertex
100
AcDb3dPolylineVertex
 10
1.492533
 20
-2.1035
 30
0.187
 70
    32
  0
VERTEX
  5
648BD
100
AcDbEntity
  8
0
100
AcDbVertex
100
AcDb3dPolylineVertex
 10
1.7032
 20
-2.1035
 30
0.187
 70
    32
  0
VERTEX
  5
648BE
100
AcDbEntity
  8
0
100
AcDbVertex
100
AcDb3dPolylineVertex
 10
1.7032
 20
-1.9685
 30
0.187
 70
    32
  0
SEQEND
  5
648BF
100
AcDbEntity
  8
0
  0
POLYLINE
  5
648C0
100
AcDbEntity
  8
0
100
AcDb3dPolyline
 66
     1
 10
0.0
 20
0.0
 30
0.0
 70
     8
  0
VERTEX
  5
648C1
100
AcDbEntity
  8
0
100
AcDbVertex
100
AcDb3dPolylineVertex
 10
1.219867
 20
-1.9685
 30
0.187
 70
    32
  0
VERTEX
  5
648C2
100
AcDbEntity
  8
0
100
AcDbVertex
100
AcDb3dPolylineVertex
 10
1.219867
 20
-2.1035
 30
0.187
 70
    32
  0
VERTEX
  5
648C3
100
AcDbEntity
  8
0
100
AcDbVertex
100
AcDb3dPolylineVertex
 10
1.430533
 20
-2.1035
 30
0.187
 70
    32
  0
VERTEX
  5
648C4
100
AcDbEntity
  8
0
100
AcDbVertex
100
AcDb3dPolylineVertex
 10
1.430533
 20
-1.9685
 30
0.187
 70
    32
  0
SEQEND
  5
648C5
100
AcDbEntity
  8
0
  0
POLYLINE
  5
648C6
100
AcDbEntity
  8
0
100
AcDb3dPolyline
 66
     1
 10
0.0
 20
0.0
 30
0.0
 70
     8
  0
VERTEX
  5
648C7
100
AcDbEntity
  8
0
100
AcDbVertex
100
AcDb3dPolylineVertex
 10
0.9472
 20
-1.9685
 30
0.187
 70
    32
  0
VERTEX
  5
648C8
100
AcDbEntity
  8
0
100
AcDbVertex
100
AcDb3dPolylineVertex
 10
0.9472
 20
-2.1035
 30
0.187
 70
    32
  0
VERTEX
  5
648C9
100
AcDbEntity
  8
0
100
AcDbVertex
100
AcDb3dPolylineVertex
 10
1.157867
 20
-2.1035
 30
0.187
 70
    32
  0
VERTEX
  5
648CA
100
AcDbEntity
  8
0
100
AcDbVertex
100
AcDb3dPolylineVertex
 10
1.157867
 20
-1.9685
 30
0.187
 70
    32
  0
SEQEND
  5
648CB
100
AcDbEntity
  8
0
  0
CIRCLE
  5
648CC
100
AcDbEntity
  8
0
100
AcDbCircle
 10
0.1912
 20
-1.9345
 30
0.316
 40
0.086
  0
INSERT
  5
648CD
100
AcDbEntity
  8
0
 62
     1
100
AcDbBlockReference
  2
AVE_RENDER
 10
-6.62751
 20
-2.735105
 30
0.0
1001
AVE_RENDER
1002
{
1070
     2
1000
Pref
1070
    30
1070
    20
1070
     0
1070
     0
1000

1070
    10
1070
     0
1070
    30
1040
1.0
1070
     1
1040
0.3
1040
0.4
1040
0.76
1040
1.538462
1010
-1.0
1020
-1.0
1030
-1.0
1040
0.3
1070
    49
1002
}
  0
INSERT
  5
648CE
100
AcDbEntity
  8
0
 62
     3
100
AcDbBlockReference
  2
AVE_RENDER
 10
-6.62751
 20
-2.735105
 30
0.0
1001
AVE_RENDER
1002
{
1070
     0
1000
Full Opt
1070
     0
1070
     1
1070
     1
1070
     1
1070
     0
1070
     0
1070
     0
1070
     1
1070
     1
1040
0.0001
1040
0.0001
1002
}
  0
INSERT
  5
648CF
100
AcDbEntity
  8
0
 62
     4
100
AcDbBlockReference
  2
AVE_RENDER
 10
-6.62751
 20
-2.735105
 30
0.0
1001
AVE_RENDER
1002
{
1070
     0
1000
Quick Opt
1070
     0
1070
     1
1070
     1
1070
     1
1070
     0
1070
     0
1070
     1
1002
}
  0
CIRCLE
  5
648D0
100
AcDbEntity
  8
0
100
AcDbCircle
 10
0.1912
 20
-1.9345
 30
0.0
 40
0.086
  0
CIRCLE
  5
648D1
100
AcDbEntity
  8
0
100
AcDbCircle
 10
1.5712
 20
0.4255
 30
0.0
 40
0.086
  0
POLYLINE
  5
648D2
100
AcDbEntity
  8
0
100
AcDb3dPolyline
 66
     1
 10
0.0
 20
0.0
 30
0.0
 70
     8
  0
VERTEX
  5
648D3
100
AcDbEntity
  8
0
100
AcDbVertex
100
AcDb3dPolylineVertex
 10
0.9472
 20
-1.9685
 30
0.0
 70
    32
  0
VERTEX
  5
648D4
100
AcDbEntity
  8
0
100
AcDbVertex
100
AcDb3dPolylineVertex
 10
0.9472
 20
-2.1035
 30
0.0
 70
    32
  0
VERTEX
  5
648D5
100
AcDbEntity
  8
0
100
AcDbVertex
100
AcDb3dPolylineVertex
 10
1.157867
 20
-2.1035
 30
0.0
 70
    32
  0
VERTEX
  5
648D6
100
AcDbEntity
  8
0
100
AcDbVertex
100
AcDb3dPolylineVertex
 10
1.157867
 20
-1.9685
 30
0.0
 70
    32
  0
SEQEND
  5
648D7
100
AcDbEntity
  8
0
  0
POLYLINE
  5
648D8
100
AcDbEntity
  8
0
100
AcDb3dPolyline
 66
     1
 10
0.0
 20
0.0
 30
0.0
 70
     8
  0
VERTEX
  5
648D9
100
AcDbEntity
  8
0
100
AcDbVertex
100
AcDb3dPolylineVertex
 10
1.219867
 20
-1.9685
 30
0.0
 70
    32
  0
VERTEX
  5
648DA
100
AcDbEntity
  8
0
100
AcDbVertex
100
AcDb3dPolylineVertex
 10
1.219867
 20
-2.1035
 30
0.0
 70
    32
  0
VERTEX
  5
648DB
100
AcDbEntity
  8
0
100
AcDbVertex
100
AcDb3dPolylineVertex
 10
1.430533
 20
-2.1035
 30
0.0
 70
    32
  0
VERTEX
  5
648DC
100
AcDbEntity
  8
0
100
AcDbVertex
100
AcDb3dPolylineVertex
 10
1.430533
 20
-1.9685
 30
0.0
 70
    32
  0
SEQEND
  5
648DD
100
AcDbEntity
  8
0
  0
POLYLINE
  5
648DE
100
AcDbEntity
  8
0
100
AcDb3dPolyline
 66
     1
 10
0.0
 20
0.0
 30
0.0
 70
     8
  0
VERTEX
  5
648DF
100
AcDbEntity
  8
0
100
AcDbVertex
100
AcDb3dPolylineVertex
 10
1.492533
 20
-1.9685
 30
0.0
 70
    32
  0
VERTEX
  5
648E0
100
AcDbEntity
  8
0
100
AcDbVertex
100
AcDb3dPolylineVertex
 10
1.492533
 20
-2.1035
 30
0.0
 70
    32
  0
VERTEX
  5
648E1
100
AcDbEntity
  8
0
100
AcDbVertex
100
AcDb3dPolylineVertex
 10
1.7032
 20
-2.1035
 30
0.0
 70
    32
  0
VERTEX
  5
648E2
100
AcDbEntity
  8
0
100
AcDbVertex
100
AcDb3dPolylineVertex
 10
1.7032
 20
-1.9685
 30
0.0
 70
    32
  0
SEQEND
  5
648E3
100
AcDbEntity
  8
0
  0
POLYLINE
  5
648E4
100
AcDbEntity
  8
0
100
AcDb3dPolyline
 66
     1
 10
0.0
 20
0.0
 30
0.0
 70
     8
  0
VERTEX
  5
648E5
100
AcDbEntity
  8
0
100
AcDbVertex
100
AcDb3dPolylineVertex
 10
0.8232
 20
0.5215
 30
0.0
 70
    32
  0
VERTEX
  5
648E6
100
AcDbEntity
  8
0
100
AcDbVertex
100
AcDb3dPolylineVertex
 10
0.8232
 20
0.6565
 30
0.0
 70
    32
  0
VERTEX
  5
648E7
100
AcDbEntity
  8
0
100
AcDbVertex
100
AcDb3dPolylineVertex
 10
0.612533
 20
0.6565
 30
0.0
 70
    32
  0
VERTEX
  5
648E8
100
AcDbEntity
  8
0
100
AcDbVertex
100
AcDb3dPolylineVertex
 10
0.612533
 20
0.5215
 30
0.0
 70
    32
  0
SEQEND
  5
648E9
100
AcDbEntity
  8
0
  0
POLYLINE
  5
648EA
100
AcDbEntity
  8
0
100
AcDb3dPolyline
 66
     1
 10
0.0
 20
0.0
 30
0.0
 70
     8
  0
VERTEX
  5
648EB
100
AcDbEntity
  8
0
100
AcDbVertex
100
AcDb3dPolylineVertex
 10
0.550533
 20
0.5215
 30
0.0
 70
    32
  0
VERTEX
  5
648EC
100
AcDbEntity
  8
0
100
AcDbVertex
100
AcDb3dPolylineVertex
 10
0.550533
 20
0.6565
 30
0.0
 70
    32
  0
VERTEX
  5
648ED
100
AcDbEntity
  8
0
100
AcDbVertex
100
AcDb3dPolylineVertex
 10
0.339867
 20
0.6565
 30
0.0
 70
    32
  0
VERTEX
  5
648EE
100
AcDbEntity
  8
0
100
AcDbVertex
100
AcDb3dPolylineVertex
 10
0.339867
 20
0.5215
 30
0.0
 70
    32
  0
SEQEND
  5
648EF
100
AcDbEntity
  8
0
  0
POLYLINE
  5
648F0
100
AcDbEntity
  8
0
100
AcDb3dPolyline
 66
     1
 10
0.0
 20
0.0
 30
0.0
 70
     8
  0
VERTEX
  5
648F1
100
AcDbEntity
  8
0
100
AcDbVertex
100
AcDb3dPolylineVertex
 10
0.277867
 20
0.5215
 30
0.0
 70
    32
  0
VERTEX
  5
648F2
100
AcDbEntity
  8
0
100
AcDbVertex
100
AcDb3dPolylineVertex
 10
0.277867
 20
0.6565
 30
0.0
 70
    32
  0
VERTEX
  5
648F3
100
AcDbEntity
  8
0
100
AcDbVertex
100
AcDb3dPolylineVertex
 10
0.0672
 20
0.6565
 30
0.0
 70
    32
  0
VERTEX
  5
648F4
100
AcDbEntity
  8
0
100
AcDbVertex
100
AcDb3dPolylineVertex
 10
0.0672
 20
0.5215
 30
0.0
 70
    32
  0
SEQEND
  5
648F5
100
AcDbEntity
  8
0
  0
LINE
  5
648F6
100
AcDbEntity
  8
0
100
AcDbLine
 10
1.7032
 20
-1.9685
 30
0.0
 11
1.492533
 21
-1.9685
 31
0.0
  0
LINE
  5
648F7
100
AcDbEntity
  8
0
100
AcDbLine
 10
1.430533
 20
-1.9685
 30
0.0
 11
1.219867
 21
-1.9685
 31
0.0
  0
LINE
  5
648F8
100
AcDbEntity
  8
0
100
AcDbLine
 10
1.157867
 20
-1.9685
 30
0.0
 11
0.9472
 21
-1.9685
 31
0.0
  0
LINE
  5
648F9
100
AcDbEntity
  8
0
100
AcDbLine
 10
0.8232
 20
0.5215
 30
0.0
 11
0.612533
 21
0.5215
 31
0.0
  0
LINE
  5
648FA
100
AcDbEntity
  8
0
100
AcDbLine
 10
0.550533
 20
0.5215
 30
0.0
 11
0.339867
 21
0.5215
 31
0.0
  0
LINE
  5
648FB
100
AcDbEntity
  8
0
100
AcDbLine
 10
0.277867
 20
0.5215
 30
0.0
 11
0.0672
 21
0.5215
 31
0.0
  0
POLYLINE
  5
648FC
100
AcDbEntity
  8
0
100
AcDbPolygonMesh
 66
     1
 10
0.0
 20
0.0
 30
0.0
 70
    16
 71
     6
 72
     3
  0
VERTEX
  5
648FD
100
AcDbEntity
  8
0
100
AcDbVertex
100
AcDbPolygonMeshVertex
 10
0.9057
 20
-1.9855
 30
2.929
 70
    64
  0
VERTEX
  5
648FE
100
AcDbEntity
  8
0
100
AcDbVertex
100
AcDbPolygonMeshVertex
 10
0.9057
 20
-1.9855
 30
2.319
 70
    64
  0
VERTEX
  5
648FF
100
AcDbEntity
  8
0
100
AcDbVertex
100
AcDbPolygonMeshVertex
 10
0.9057
 20
-1.9855
 30
2.319
 70
    64
  0
VERTEX
  5
64900
100
AcDbEntity
  8
0
100
AcDbVertex
100
AcDbPolygonMeshVertex
 10
0.8597
 20
-1.9855
 30
2.929
 70
    64
  0
VERTEX
  5
64901
100
AcDbEntity
  8
0
100
AcDbVertex
100
AcDbPolygonMeshVertex
 10
0.8597
 20
-1.9855
 30
2.319
 70
    64
  0
VERTEX
  5
64902
100
AcDbEntity
  8
0
100
AcDbVertex
100
AcDbPolygonMeshVertex
 10
0.8597
 20
-1.9855
 30
2.319
 70
    64
  0
VERTEX
  5
64903
100
AcDbEntity
  8
0
100
AcDbVertex
100
AcDbPolygonMeshVertex
 10
0.8597
 20
-1.8455
 30
2.929
 70
    64
  0
VERTEX
  5
64904
100
AcDbEntity
  8
0
100
AcDbVertex
100
AcDbPolygonMeshVertex
 10
0.8597
 20
-1.8455
 30
2.319
 70
    64
  0
VERTEX
  5
64905
100
AcDbEntity
  8
0
100
AcDbVertex
100
AcDbPolygonMeshVertex
 10
0.8597
 20
-1.9855
 30
2.319
 70
    64
  0
VERTEX
  5
64906
100
AcDbEntity
  8
0
100
AcDbVertex
100
AcDbPolygonMeshVertex
 10
0.9057
 20
-1.8455
 30
2.929
 70
    64
  0
VERTEX
  5
64907
100
AcDbEntity
  8
0
100
AcDbVertex
100
AcDbPolygonMeshVertex
 10
0.9057
 20
-1.8455
 30
2.319
 70
    64
  0
VERTEX
  5
64908
100
AcDbEntity
  8
0
100
AcDbVertex
100
AcDbPolygonMeshVertex
 10
0.9057
 20
-1.9855
 30
2.319
 70
    64
  0
VERTEX
  5
64909
100
AcDbEntity
  8
0
100
AcDbVertex
100
AcDbPolygonMeshVertex
 10
0.9057
 20
-1.8455
 30
2.929
 70
    64
  0
VERTEX
  5
6490A
100
AcDbEntity
  8
0
100
AcDbVertex
100
AcDbPolygonMeshVertex
 10
0.9057
 20
-1.8455
 30
2.929
 70
    64
  0
VERTEX
  5
6490B
100
AcDbEntity
  8
0
100
AcDbVertex
100
AcDbPolygonMeshVertex
 10
0.9057
 20
-1.9855
 30
2.929
 70
    64
  0
VERTEX
  5
6490C
100
AcDbEntity
  8
0
100
AcDbVertex
100
AcDbPolygonMeshVertex
 10
0.8597
 20
-1.8455
 30
2.929
 70
    64
  0
VERTEX
  5
6490D
100
AcDbEntity
  8
0
100
AcDbVertex
100
AcDbPolygonMeshVertex
 10
0.8597
 20
-1.8455
 30
2.929
 70
    64
  0
VERTEX
  5
6490E
100
AcDbEntity
  8
0
100
AcDbVertex
100
AcDbPolygonMeshVertex
 10
0.8597
 20
-1.9855
 30
2.929
 70
    64
  0
SEQEND
  5
6490F
100
AcDbEntity
  8
0
  0
POLYLINE
  5
64910
100
AcDbEntity
  8
0
100
AcDbPolygonMesh
 66
     1
 10
0.0
 20
0.0
 30
0.0
 70
    16
 71
     6
 72
     3
  0
VERTEX
  5
64911
100
AcDbEntity
  8
0
100
AcDbVertex
100
AcDbPolygonMeshVertex
 10
1.33545
 20
-1.9855
 30
2.929
 70
    64
  0
VERTEX
  5
64912
100
AcDbEntity
  8
0
100
AcDbVertex
100
AcDbPolygonMeshVertex
 10
1.33545
 20
-1.9855
 30
2.319
 70
    64
  0
VERTEX
  5
64913
100
AcDbEntity
  8
0
100
AcDbVertex
100
AcDbPolygonMeshVertex
 10
1.33545
 20
-1.9855
 30
2.319
 70
    64
  0
VERTEX
  5
64914
100
AcDbEntity
  8
0
100
AcDbVertex
100
AcDbPolygonMeshVertex
 10
1.28945
 20
-1.9855
 30
2.929
 70
    64
  0
VERTEX
  5
64915
100
AcDbEntity
  8
0
100
AcDbVertex
100
AcDbPolygonMeshVertex
 10
1.28945
 20
-1.9855
 30
2.319
 70
    64
  0
VERTEX
  5
64916
100
AcDbEntity
  8
0
100
AcDbVertex
100
AcDbPolygonMeshVertex
 10
1.28945
 20
-1.9855
 30
2.319
 70
    64
  0
VERTEX
  5
64917
100
AcDbEntity
  8
0
100
AcDbVertex
100
AcDbPolygonMeshVertex
 10
1.28945
 20
-1.8455
 30
2.929
 70
    64
  0
VERTEX
  5
64918
100
AcDbEntity
  8
0
100
AcDbVertex
100
AcDbPolygonMeshVertex
 10
1.28945
 20
-1.8455
 30
2.319
 70
    64
  0
VERTEX
  5
64919
100
AcDbEntity
  8
0
100
AcDbVertex
100
AcDbPolygonMeshVertex
 10
1.28945
 20
-1.9855
 30
2.319
 70
    64
  0
VERTEX
  5
6491A
100
AcDbEntity
  8
0
100
AcDbVertex
100
AcDbPolygonMeshVertex
 10
1.33545
 20
-1.8455
 30
2.929
 70
    64
  0
VERTEX
  5
6491B
100
AcDbEntity
  8
0
100
AcDbVertex
100
AcDbPolygonMeshVertex
 10
1.33545
 20
-1.8455
 30
2.319
 70
    64
  0
VERTEX
  5
6491C
100
AcDbEntity
  8
0
100
AcDbVertex
100
AcDbPolygonMeshVertex
 10
1.33545
 20
-1.9855
 30
2.319
 70
    64
  0
VERTEX
  5
6491D
100
AcDbEntity
  8
0
100
AcDbVertex
100
AcDbPolygonMeshVertex
 10
1.33545
 20
-1.8455
 30
2.929
 70
    64
  0
VERTEX
  5
6491E
100
AcDbEntity
  8
0
100
AcDbVertex
100
AcDbPolygonMeshVertex
 10
1.33545
 20
-1.8455
 30
2.929
 70
    64
  0
VERTEX
  5
6491F
100
AcDbEntity
  8
0
100
AcDbVertex
100
AcDbPolygonMeshVertex
 10
1.33545
 20
-1.9855
 30
2.929
 70
    64
  0
VERTEX
  5
64920
100
AcDbEntity
  8
0
100
AcDbVertex
100
AcDbPolygonMeshVertex
 10
1.28945
 20
-1.8455
 30
2.929
 70
    64
  0
VERTEX
  5
64921
100
AcDbEntity
  8
0
100
AcDbVertex
100
AcDbPolygonMeshVertex
 10
1.28945
 20
-1.8455
 30
2.929
 70
    64
  0
VERTEX
  5
64922
100
AcDbEntity
  8
0
100
AcDbVertex
100
AcDbPolygonMeshVertex
 10
1.28945
 20
-1.9855
 30
2.929
 70
    64
  0
SEQEND
  5
64923
100
AcDbEntity
  8
0
  0
POLYLINE
  5
64924
100
AcDbEntity
  8
0
100
AcDbPolygonMesh
 66
     1
 10
0.0
 20
0.0
 30
0.0
 70
    16
 71
     6
 72
     3
  0
VERTEX
  5
64925
100
AcDbEntity
  8
0
100
AcDbVertex
100
AcDbPolygonMeshVertex
 10
1.7192
 20
-2.0575
 30
2.319
 70
    64
  0
VERTEX
  5
64926
100
AcDbEntity
  8
0
100
AcDbVertex
100
AcDbPolygonMeshVertex
 10
1.7192
 20
-2.0575
 30
2.06
 70
    64
  0
VERTEX
  5
64927
100
AcDbEntity
  8
0
100
AcDbVertex
100
AcDbPolygonMeshVertex
 10
1.7192
 20
-2.0575
 30
2.06
 70
    64
  0
VERTEX
  5
64928
100
AcDbEntity
  8
0
100
AcDbVertex
100
AcDbPolygonMeshVertex
 10
0.0462
 20
-2.0575
 30
2.319
 70
    64
  0
VERTEX
  5
64929
100
AcDbEntity
  8
0
100
AcDbVertex
100
AcDbPolygonMeshVertex
 10
0.0462
 20
-2.0575
 30
2.06
 70
    64
  0
VERTEX
  5
6492A
100
AcDbEntity
  8
0
100
AcDbVertex
100
AcDbPolygonMeshVertex
 10
0.0462
 20
-2.0575
 30
2.06
 70
    64
  0
VERTEX
  5
6492B
100
AcDbEntity
  8
0
100
AcDbVertex
100
AcDbPolygonMeshVertex
 10
0.0462
 20
-1.8455
 30
2.319
 70
    64
  0
VERTEX
  5
6492C
100
AcDbEntity
  8
0
100
AcDbVertex
100
AcDbPolygonMeshVertex
 10
0.0462
 20
-1.8455
 30
2.06
 70
    64
  0
VERTEX
  5
6492D
100
AcDbEntity
  8
0
100
AcDbVertex
100
AcDbPolygonMeshVertex
 10
0.0462
 20
-2.0575
 30
2.06
 70
    64
  0
VERTEX
  5
6492E
100
AcDbEntity
  8
0
100
AcDbVertex
100
AcDbPolygonMeshVertex
 10
1.7192
 20
-1.8455
 30
2.319
 70
    64
  0
VERTEX
  5
6492F
100
AcDbEntity
  8
0
100
AcDbVertex
100
AcDbPolygonMeshVertex
 10
1.7192
 20
-1.8455
 30
2.06
 70
    64
  0
VERTEX
  5
64930
100
AcDbEntity
  8
0
100
AcDbVertex
100
AcDbPolygonMeshVertex
 10
1.7192
 20
-2.0575
 30
2.06
 70
    64
  0
VERTEX
  5
64931
100
AcDbEntity
  8
0
100
AcDbVertex
100
AcDbPolygonMeshVertex
 10
1.7192
 20
-1.8455
 30
2.319
 70
    64
  0
VERTEX
  5
64932
100
AcDbEntity
  8
0
100
AcDbVertex
100
AcDbPolygonMeshVertex
 10
1.7192
 20
-1.8455
 30
2.319
 70
    64
  0
VERTEX
  5
64933
100
AcDbEntity
  8
0
100
AcDbVertex
100
AcDbPolygonMeshVertex
 10
1.7192
 20
-2.0575
 30
2.319
 70
    64
  0
VERTEX
  5
64934
100
AcDbEntity
  8
0
100
AcDbVertex
100
AcDbPolygonMeshVertex
 10
0.0462
 20
-1.8455
 30
2.319
 70
    64
  0
VERTEX
  5
64935
100
AcDbEntity
  8
0
100
AcDbVertex
100
AcDbPolygonMeshVertex
 10
0.0462
 20
-1.8455
 30
2.319
 70
    64
  0
VERTEX
  5
64936
100
AcDbEntity
  8
0
100
AcDbVertex
100
AcDbPolygonMeshVertex
 10
0.0462
 20
-2.0575
 30
2.319
 70
    64
  0
SEQEND
  5
64937
100
AcDbEntity
  8
0
  0
POLYLINE
  5
64938
100
AcDbEntity
  8
0
100
AcDbPolygonMesh
 66
     1
 10
0.0
 20
0.0
 30
0.0
 70
    16
 71
     6
 72
     3
  0
VERTEX
  5
64939
100
AcDbEntity
  8
0
100
AcDbVertex
100
AcDbPolygonMeshVertex
 10
1.7652
 20
-1.9685
 30
2.06
 70
    64
  0
VERTEX
  5
6493A
100
AcDbEntity
  8
0
100
AcDbVertex
100
AcDbPolygonMeshVertex
 10
1.7652
 20
-1.9685
 30
1.318
 70
    64
  0
VERTEX
  5
6493B
100
AcDbEntity
  8
0
100
AcDbVertex
100
AcDbPolygonMeshVertex
 10
1.7652
 20
-1.9685
 30
1.318
 70
    64
  0
VERTEX
  5
6493C
100
AcDbEntity
  8
0
100
AcDbVertex
100
AcDbPolygonMeshVertex
 10
0.0002
 20
-1.9685
 30
2.06
 70
    64
  0
VERTEX
  5
6493D
100
AcDbEntity
  8
0
100
AcDbVertex
100
AcDbPolygonMeshVertex
 10
0.0002
 20
-1.9685
 30
1.318
 70
    64
  0
VERTEX
  5
6493E
100
AcDbEntity
  8
0
100
AcDbVertex
100
AcDbPolygonMeshVertex
 10
0.0002
 20
-1.9685
 30
1.318
 70
    64
  0
VERTEX
  5
6493F
100
AcDbEntity
  8
0
100
AcDbVertex
100
AcDbPolygonMeshVertex
 10
0.0002
 20
0.5215
 30
2.06
 70
    64
  0
VERTEX
  5
64940
100
AcDbEntity
  8
0
100
AcDbVertex
100
AcDbPolygonMeshVertex
 10
0.0002
 20
0.5215
 30
1.318
 70
    64
  0
VERTEX
  5
64941
100
AcDbEntity
  8
0
100
AcDbVertex
100
AcDbPolygonMeshVertex
 10
0.0002
 20
-1.9685
 30
1.318
 70
    64
  0
VERTEX
  5
64942
100
AcDbEntity
  8
0
100
AcDbVertex
100
AcDbPolygonMeshVertex
 10
1.7652
 20
0.5215
 30
2.06
 70
    64
  0
VERTEX
  5
64943
100
AcDbEntity
  8
0
100
AcDbVertex
100
AcDbPolygonMeshVertex
 10
1.7652
 20
0.5215
 30
1.318
 70
    64
  0
VERTEX
  5
64944
100
AcDbEntity
  8
0
100
AcDbVertex
100
AcDbPolygonMeshVertex
 10
1.7652
 20
-1.9685
 30
1.318
 70
    64
  0
VERTEX
  5
64945
100
AcDbEntity
  8
0
100
AcDbVertex
100
AcDbPolygonMeshVertex
 10
1.7652
 20
0.5215
 30
2.06
 70
    64
  0
VERTEX
  5
64946
100
AcDbEntity
  8
0
100
AcDbVertex
100
AcDbPolygonMeshVertex
 10
1.7652
 20
0.5215
 30
2.06
 70
    64
  0
VERTEX
  5
64947
100
AcDbEntity
  8
0
100
AcDbVertex
100
AcDbPolygonMeshVertex
 10
1.7652
 20
-1.9685
 30
2.06
 70
    64
  0
VERTEX
  5
64948
100
AcDbEntity
  8
0
100
AcDbVertex
100
AcDbPolygonMeshVertex
 10
0.0002
 20
0.5215
 30
2.06
 70
    64
  0
VERTEX
  5
64949
100
AcDbEntity
  8
0
100
AcDbVertex
100
AcDbPolygonMeshVertex
 10
0.0002
 20
0.5215
 30
2.06
 70
    64
  0
VERTEX
  5
6494A
100
AcDbEntity
  8
0
100
AcDbVertex
100
AcDbPolygonMeshVertex
 10
0.0002
 20
-1.9685
 30
2.06
 70
    64
  0
SEQEND
  5
6494B
100
AcDbEntity
  8
0
  0
POLYLINE
  5
6494C
100
AcDbEntity
  8
0
100
AcDbPolygonMesh
 66
     1
 10
0.0
 20
0.0
 30
0.0
 70
    16
 71
     6
 72
     3
  0
VERTEX
  5
6494D
100
AcDbEntity
  8
0
100
AcDbVertex
100
AcDbPolygonMeshVertex
 10
0.42995
 20
-1.9855
 30
2.929
 70
    64
  0
VERTEX
  5
6494E
100
AcDbEntity
  8
0
100
AcDbVertex
100
AcDbPolygonMeshVertex
 10
0.42995
 20
-1.9855
 30
2.319
 70
    64
  0
VERTEX
  5
6494F
100
AcDbEntity
  8
0
100
AcDbVertex
100
AcDbPolygonMeshVertex
 10
0.42995
 20
-1.9855
 30
2.319
 70
    64
  0
VERTEX
  5
64950
100
AcDbEntity
  8
0
100
AcDbVertex
100
AcDbPolygonMeshVertex
 10
0.47595
 20
-1.9855
 30
2.929
 70
    64
  0
VERTEX
  5
64951
100
AcDbEntity
  8
0
100
AcDbVertex
100
AcDbPolygonMeshVertex
 10
0.47595
 20
-1.9855
 30
2.319
 70
    64
  0
VERTEX
  5
64952
100
AcDbEntity
  8
0
100
AcDbVertex
100
AcDbPolygonMeshVertex
 10
0.47595
 20
-1.9855
 30
2.319
 70
    64
  0
VERTEX
  5
64953
100
AcDbEntity
  8
0
100
AcDbVertex
100
AcDbPolygonMeshVertex
 10
0.47595
 20
-1.8455
 30
2.929
 70
    64
  0
VERTEX
  5
64954
100
AcDbEntity
  8
0
100
AcDbVertex
100
AcDbPolygonMeshVertex
 10
0.47595
 20
-1.8455
 30
2.319
 70
    64
  0
VERTEX
  5
64955
100
AcDbEntity
  8
0
100
AcDbVertex
100
AcDbPolygonMeshVertex
 10
0.47595
 20
-1.9855
 30
2.319
 70
    64
  0
VERTEX
  5
64956
100
AcDbEntity
  8
0
100
AcDbVertex
100
AcDbPolygonMeshVertex
 10
0.42995
 20
-1.8455
 30
2.929
 70
    64
  0
VERTEX
  5
64957
100
AcDbEntity
  8
0
100
AcDbVertex
100
AcDbPolygonMeshVertex
 10
0.42995
 20
-1.8455
 30
2.319
 70
    64
  0
VERTEX
  5
64958
100
AcDbEntity
  8
0
100
AcDbVertex
100
AcDbPolygonMeshVertex
 10
0.42995
 20
-1.9855
 30
2.319
 70
    64
  0
VERTEX
  5
64959
100
AcDbEntity
  8
0
100
AcDbVertex
100
AcDbPolygonMeshVertex
 10
0.42995
 20
-1.8455
 30
2.929
 70
    64
  0
VERTEX
  5
6495A
100
AcDbEntity
  8
0
100
AcDbVertex
100
AcDbPolygonMeshVertex
 10
0.42995
 20
-1.8455
 30
2.929
 70
    64
  0
VERTEX
  5
6495B
100
AcDbEntity
  8
0
100
AcDbVertex
100
AcDbPolygonMeshVertex
 10
0.42995
 20
-1.9855
 30
2.929
 70
    64
  0
VERTEX
  5
6495C
100
AcDbEntity
  8
0
100
AcDbVertex
100
AcDbPolygonMeshVertex
 10
0.47595
 20
-1.8455
 30
2.929
 70
    64
  0
VERTEX
  5
6495D
100
AcDbEntity
  8
0
100
AcDbVertex
100
AcDbPolygonMeshVertex
 10
0.47595
 20
-1.8455
 30
2.929
 70
    64
  0
VERTEX
  5
6495E
100
AcDbEntity
  8
0
100
AcDbVertex
100
AcDbPolygonMeshVertex
 10
0.47595
 20
-1.9855
 30
2.929
 70
    64
  0
SEQEND
  5
6495F
100
AcDbEntity
  8
0
  0
LINE
  5
64960
100
AcDbEntity
  8
0
100
AcDbLine
 10
0.9057
 20
-1.8455
 30
2.646
 11
1.28945
 21
-1.8455
 31
2.646
  0
LINE
  5
64961
100
AcDbEntity
  8
0
100
AcDbLine
 10
1.33545
 20
-1.8455
 30
2.646
 11
1.7192
 21
-1.8455
 31
2.646
  0
LINE
  5
64962
100
AcDbEntity
  8
0
100
AcDbLine
 10
0.47595
 20
-1.8455
 30
2.646
 11
0.8597
 21
-1.8455
 31
2.646
  0
LINE
  5
64963
100
AcDbEntity
  8
0
100
AcDbLine
 10
0.0462
 20
-1.8455
 30
2.646
 11
0.42995
 21
-1.8455
 31
2.646
  0
POLYLINE
  5
64964
100
AcDbEntity
  8
0
100
AcDbPolygonMesh
 66
     1
 10
0.0
 20
0.0
 30
0.0
 70
    16
 71
     6
 72
     3
  0
VERTEX
  5
64965
100
AcDbEntity
  8
0
100
AcDbVertex
100
AcDbPolygonMeshVertex
 10
0.0462
 20
-1.9855
 30
2.929
 70
    64
  0
VERTEX
  5
64966
100
AcDbEntity
  8
0
100
AcDbVertex
100
AcDbPolygonMeshVertex
 10
0.0462
 20
-1.9855
 30
2.06
 70
    64
  0
VERTEX
  5
64967
100
AcDbEntity
  8
0
100
AcDbVertex
100
AcDbPolygonMeshVertex
 10
0.0462
 20
-1.9855
 30
2.06
 70
    64
  0
VERTEX
  5
64968
100
AcDbEntity
  8
0
100
AcDbVertex
100
AcDbPolygonMeshVertex
 10
0.0002
 20
-1.9855
 30
2.929
 70
    64
  0
VERTEX
  5
64969
100
AcDbEntity
  8
0
100
AcDbVertex
100
AcDbPolygonMeshVertex
 10
0.0002
 20
-1.9855
 30
2.06
 70
    64
  0
VERTEX
  5
6496A
100
AcDbEntity
  8
0
100
AcDbVertex
100
AcDbPolygonMeshVertex
 10
0.0002
 20
-1.9855
 30
2.06
 70
    64
  0
VERTEX
  5
6496B
100
AcDbEntity
  8
0
100
AcDbVertex
100
AcDbPolygonMeshVertex
 10
0.0002
 20
-1.8455
 30
2.929
 70
    64
  0
VERTEX
  5
6496C
100
AcDbEntity
  8
0
100
AcDbVertex
100
AcDbPolygonMeshVertex
 10
0.0002
 20
-1.8455
 30
2.06
 70
    64
  0
VERTEX
  5
6496D
100
AcDbEntity
  8
0
100
AcDbVertex
100
AcDbPolygonMeshVertex
 10
0.0002
 20
-1.9855
 30
2.06
 70
    64
  0
VERTEX
  5
6496E
100
AcDbEntity
  8
0
100
AcDbVertex
100
AcDbPolygonMeshVertex
 10
0.0462
 20
-1.8455
 30
2.929
 70
    64
  0
VERTEX
  5
6496F
100
AcDbEntity
  8
0
100
AcDbVertex
100
AcDbPolygonMeshVertex
 10
0.0462
 20
-1.8455
 30
2.06
 70
    64
  0
VERTEX
  5
64970
100
AcDbEntity
  8
0
100
AcDbVertex
100
AcDbPolygonMeshVertex
 10
0.0462
 20
-1.9855
 30
2.06
 70
    64
  0
VERTEX
  5
64971
100
AcDbEntity
  8
0
100
AcDbVertex
100
AcDbPolygonMeshVertex
 10
0.0462
 20
-1.8455
 30
2.929
 70
    64
  0
VERTEX
  5
64972
100
AcDbEntity
  8
0
100
AcDbVertex
100
AcDbPolygonMeshVertex
 10
0.0462
 20
-1.8455
 30
2.929
 70
    64
  0
VERTEX
  5
64973
100
AcDbEntity
  8
0
100
AcDbVertex
100
AcDbPolygonMeshVertex
 10
0.0462
 20
-1.9855
 30
2.929
 70
    64
  0
VERTEX
  5
64974
100
AcDbEntity
  8
0
100
AcDbVertex
100
AcDbPolygonMeshVertex
 10
0.0002
 20
-1.8455
 30
2.929
 70
    64
  0
VERTEX
  5
64975
100
AcDbEntity
  8
0
100
AcDbVertex
100
AcDbPolygonMeshVertex
 10
0.0002
 20
-1.8455
 30
2.929
 70
    64
  0
VERTEX
  5
64976
100
AcDbEntity
  8
0
100
AcDbVertex
100
AcDbPolygonMeshVertex
 10
0.0002
 20
-1.9855
 30
2.929
 70
    64
  0
SEQEND
  5
64977
100
AcDbEntity
  8
0
  0
POLYLINE
  5
64978
100
AcDbEntity
  8
0
100
AcDbPolygonMesh
 66
     1
 10
0.0
 20
0.0
 30
0.0
 70
    16
 71
     6
 72
     3
  0
VERTEX
  5
64979
100
AcDbEntity
  8
0
100
AcDbVertex
100
AcDbPolygonMeshVertex
 10
1.7652
 20
-1.9855
 30
2.929
 70
    64
  0
VERTEX
  5
6497A
100
AcDbEntity
  8
0
100
AcDbVertex
100
AcDbPolygonMeshVertex
 10
1.7652
 20
-1.9855
 30
2.06
 70
    64
  0
VERTEX
  5
6497B
100
AcDbEntity
  8
0
100
AcDbVertex
100
AcDbPolygonMeshVertex
 10
1.7652
 20
-1.9855
 30
2.06
 70
    64
  0
VERTEX
  5
6497C
100
AcDbEntity
  8
0
100
AcDbVertex
100
AcDbPolygonMeshVertex
 10
1.7192
 20
-1.9855
 30
2.929
 70
    64
  0
VERTEX
  5
6497D
100
AcDbEntity
  8
0
100
AcDbVertex
100
AcDbPolygonMeshVertex
 10
1.7192
 20
-1.9855
 30
2.06
 70
    64
  0
VERTEX
  5
6497E
100
AcDbEntity
  8
0
100
AcDbVertex
100
AcDbPolygonMeshVertex
 10
1.7192
 20
-1.9855
 30
2.06
 70
    64
  0
VERTEX
  5
6497F
100
AcDbEntity
  8
0
100
AcDbVertex
100
AcDbPolygonMeshVertex
 10
1.7192
 20
-1.8455
 30
2.929
 70
    64
  0
VERTEX
  5
64980
100
AcDbEntity
  8
0
100
AcDbVertex
100
AcDbPolygonMeshVertex
 10
1.7192
 20
-1.8455
 30
2.06
 70
    64
  0
VERTEX
  5
64981
100
AcDbEntity
  8
0
100
AcDbVertex
100
AcDbPolygonMeshVertex
 10
1.7192
 20
-1.9855
 30
2.06
 70
    64
  0
VERTEX
  5
64982
100
AcDbEntity
  8
0
100
AcDbVertex
100
AcDbPolygonMeshVertex
 10
1.7652
 20
-1.8455
 30
2.929
 70
    64
  0
VERTEX
  5
64983
100
AcDbEntity
  8
0
100
AcDbVertex
100
AcDbPolygonMeshVertex
 10
1.7652
 20
-1.8455
 30
2.06
 70
    64
  0
VERTEX
  5
64984
100
AcDbEntity
  8
0
100
AcDbVertex
100
AcDbPolygonMeshVertex
 10
1.7652
 20
-1.9855
 30
2.06
 70
    64
  0
VERTEX
  5
64985
100
AcDbEntity
  8
0
100
AcDbVertex
100
AcDbPolygonMeshVertex
 10
1.7652
 20
-1.8455
 30
2.929
 70
    64
  0
VERTEX
  5
64986
100
AcDbEntity
  8
0
100
AcDbVertex
100
AcDbPolygonMeshVertex
 10
1.7652
 20
-1.8455
 30
2.929
 70
    64
  0
VERTEX
  5
64987
100
AcDbEntity
  8
0
100
AcDbVertex
100
AcDbPolygonMeshVertex
 10
1.7652
 20
-1.9855
 30
2.929
 70
    64
  0
VERTEX
  5
64988
100
AcDbEntity
  8
0
100
AcDbVertex
100
AcDbPolygonMeshVertex
 10
1.7192
 20
-1.8455
 30
2.929
 70
    64
  0
VERTEX
  5
64989
100
AcDbEntity
  8
0
100
AcDbVertex
100
AcDbPolygonMeshVertex
 10
1.7192
 20
-1.8455
 30
2.929
 70
    64
  0
VERTEX
  5
6498A
100
AcDbEntity
  8
0
100
AcDbVertex
100
AcDbPolygonMeshVertex
 10
1.7192
 20
-1.9855
 30
2.929
 70
    64
  0
SEQEND
  5
6498B
100
AcDbEntity
  8
0
  0
POLYLINE
  5
6498C
100
AcDbEntity
  8
0
100
AcDbPolygonMesh
 66
     1
 10
0.0
 20
0.0
 30
0.0
 70
    16
 71
     6
 72
     3
  0
VERTEX
  5
6498D
100
AcDbEntity
  8
0
100
AcDbVertex
100
AcDbPolygonMeshVertex
 10
1.7652
 20
0.5385
 30
2.929
 70
    64
  0
VERTEX
  5
6498E
100
AcDbEntity
  8
0
100
AcDbVertex
100
AcDbPolygonMeshVertex
 10
1.7652
 20
0.5385
 30
2.06
 70
    64
  0
VERTEX
  5
6498F
100
AcDbEntity
  8
0
100
AcDbVertex
100
AcDbPolygonMeshVertex
 10
1.7652
 20
0.5385
 30
2.06
 70
    64
  0
VERTEX
  5
64990
100
AcDbEntity
  8
0
100
AcDbVertex
100
AcDbPolygonMeshVertex
 10
1.7192
 20
0.5385
 30
2.929
 70
    64
  0
VERTEX
  5
64991
100
AcDbEntity
  8
0
100
AcDbVertex
100
AcDbPolygonMeshVertex
 10
1.7192
 20
0.5385
 30
2.06
 70
    64
  0
VERTEX
  5
64992
100
AcDbEntity
  8
0
100
AcDbVertex
100
AcDbPolygonMeshVertex
 10
1.7192
 20
0.5385
 30
2.06
 70
    64
  0
VERTEX
  5
64993
100
AcDbEntity
  8
0
100
AcDbVertex
100
AcDbPolygonMeshVertex
 10
1.7192
 20
0.3985
 30
2.929
 70
    64
  0
VERTEX
  5
64994
100
AcDbEntity
  8
0
100
AcDbVertex
100
AcDbPolygonMeshVertex
 10
1.7192
 20
0.3985
 30
2.06
 70
    64
  0
VERTEX
  5
64995
100
AcDbEntity
  8
0
100
AcDbVertex
100
AcDbPolygonMeshVertex
 10
1.7192
 20
0.5385
 30
2.06
 70
    64
  0
VERTEX
  5
64996
100
AcDbEntity
  8
0
100
AcDbVertex
100
AcDbPolygonMeshVertex
 10
1.7652
 20
0.3985
 30
2.929
 70
    64
  0
VERTEX
  5
64997
100
AcDbEntity
  8
0
100
AcDbVertex
100
AcDbPolygonMeshVertex
 10
1.7652
 20
0.3985
 30
2.06
 70
    64
  0
VERTEX
  5
64998
100
AcDbEntity
  8
0
100
AcDbVertex
100
AcDbPolygonMeshVertex
 10
1.7652
 20
0.5385
 30
2.06
 70
    64
  0
VERTEX
  5
64999
100
AcDbEntity
  8
0
100
AcDbVertex
100
AcDbPolygonMeshVertex
 10
1.7652
 20
0.3985
 30
2.929
 70
    64
  0
VERTEX
  5
6499A
100
AcDbEntity
  8
0
100
AcDbVertex
100
AcDbPolygonMeshVertex
 10
1.7652
 20
0.3985
 30
2.929
 70
    64
  0
VERTEX
  5
6499B
100
AcDbEntity
  8
0
100
AcDbVertex
100
AcDbPolygonMeshVertex
 10
1.7652
 20
0.5385
 30
2.929
 70
    64
  0
VERTEX
  5
6499C
100
AcDbEntity
  8
0
100
AcDbVertex
100
AcDbPolygonMeshVertex
 10
1.7192
 20
0.3985
 30
2.929
 70
    64
  0
VERTEX
  5
6499D
100
AcDbEntity
  8
0
100
AcDbVertex
100
AcDbPolygonMeshVertex
 10
1.7192
 20
0.3985
 30
2.929
 70
    64
  0
VERTEX
  5
6499E
100
AcDbEntity
  8
0
100
AcDbVertex
100
AcDbPolygonMeshVertex
 10
1.7192
 20
0.5385
 30
2.929
 70
    64
  0
SEQEND
  5
6499F
100
AcDbEntity
  8
0
  0
LINE
  5
649A0
100
AcDbEntity
  8
0
100
AcDbLine
 10
1.33545
 20
0.3985
 30
2.646
 11
1.7192
 21
0.3985
 31
2.646
  0
POLYLINE
  5
649A1
100
AcDbEntity
  8
0
100
AcDbPolygonMesh
 66
     1
 10
0.0
 20
0.0
 30
0.0
 70
    16
 71
     6
 72
     3
  0
VERTEX
  5
649A2
100
AcDbEntity
  8
0
100
AcDbVertex
100
AcDbPolygonMeshVertex
 10
1.33545
 20
0.5385
 30
2.929
 70
    64
  0
VERTEX
  5
649A3
100
AcDbEntity
  8
0
100
AcDbVertex
100
AcDbPolygonMeshVertex
 10
1.33545
 20
0.5385
 30
2.319
 70
    64
  0
VERTEX
  5
649A4
100
AcDbEntity
  8
0
100
AcDbVertex
100
AcDbPolygonMeshVertex
 10
1.33545
 20
0.5385
 30
2.319
 70
    64
  0
VERTEX
  5
649A5
100
AcDbEntity
  8
0
100
AcDbVertex
100
AcDbPolygonMeshVertex
 10
1.28945
 20
0.5385
 30
2.929
 70
    64
  0
VERTEX
  5
649A6
100
AcDbEntity
  8
0
100
AcDbVertex
100
AcDbPolygonMeshVertex
 10
1.28945
 20
0.5385
 30
2.319
 70
    64
  0
VERTEX
  5
649A7
100
AcDbEntity
  8
0
100
AcDbVertex
100
AcDbPolygonMeshVertex
 10
1.28945
 20
0.5385
 30
2.319
 70
    64
  0
VERTEX
  5
649A8
100
AcDbEntity
  8
0
100
AcDbVertex
100
AcDbPolygonMeshVertex
 10
1.28945
 20
0.3985
 30
2.929
 70
    64
  0
VERTEX
  5
649A9
100
AcDbEntity
  8
0
100
AcDbVertex
100
AcDbPolygonMeshVertex
 10
1.28945
 20
0.3985
 30
2.319
 70
    64
  0
VERTEX
  5
649AA
100
AcDbEntity
  8
0
100
AcDbVertex
100
AcDbPolygonMeshVertex
 10
1.28945
 20
0.5385
 30
2.319
 70
    64
  0
VERTEX
  5
649AB
100
AcDbEntity
  8
0
100
AcDbVertex
100
AcDbPolygonMeshVertex
 10
1.33545
 20
0.3985
 30
2.929
 70
    64
  0
VERTEX
  5
649AC
100
AcDbEntity
  8
0
100
AcDbVertex
100
AcDbPolygonMeshVertex
 10
1.33545
 20
0.3985
 30
2.319
 70
    64
  0
VERTEX
  5
649AD
100
AcDbEntity
  8
0
100
AcDbVertex
100
AcDbPolygonMeshVertex
 10
1.33545
 20
0.5385
 30
2.319
 70
    64
  0
VERTEX
  5
649AE
100
AcDbEntity
  8
0
100
AcDbVertex
100
AcDbPolygonMeshVertex
 10
1.33545
 20
0.3985
 30
2.929
 70
    64
  0
VERTEX
  5
649AF
100
AcDbEntity
  8
0
100
AcDbVertex
100
AcDbPolygonMeshVertex
 10
1.33545
 20
0.3985
 30
2.929
 70
    64
  0
VERTEX
  5
649B0
100
AcDbEntity
  8
0
100
AcDbVertex
100
AcDbPolygonMeshVertex
 10
1.33545
 20
0.5385
 30
2.929
 70
    64
  0
VERTEX
  5
649B1
100
AcDbEntity
  8
0
100
AcDbVertex
100
AcDbPolygonMeshVertex
 10
1.28945
 20
0.3985
 30
2.929
 70
    64
  0
VERTEX
  5
649B2
100
AcDbEntity
  8
0
100
AcDbVertex
100
AcDbPolygonMeshVertex
 10
1.28945
 20
0.3985
 30
2.929
 70
    64
  0
VERTEX
  5
649B3
100
AcDbEntity
  8
0
100
AcDbVertex
100
AcDbPolygonMeshVertex
 10
1.28945
 20
0.5385
 30
2.929
 70
    64
  0
SEQEND
  5
649B4
100
AcDbEntity
  8
0
  0
LINE
  5
649B5
100
AcDbEntity
  8
0
100
AcDbLine
 10
0.9057
 20
0.3985
 30
2.646
 11
1.28945
 21
0.3985
 31
2.646
  0
POLYLINE
  5
649B6
100
AcDbEntity
  8
0
100
AcDbPolygonMesh
 66
     1
 10
0.0
 20
0.0
 30
0.0
 70
    16
 71
     6
 72
     3
  0
VERTEX
  5
649B7
100
AcDbEntity
  8
0
100
AcDbVertex
100
AcDbPolygonMeshVertex
 10
0.9057
 20
0.5385
 30
2.929
 70
    64
  0
VERTEX
  5
649B8
100
AcDbEntity
  8
0
100
AcDbVertex
100
AcDbPolygonMeshVertex
 10
0.9057
 20
0.5385
 30
2.319
 70
    64
  0
VERTEX
  5
649B9
100
AcDbEntity
  8
0
100
AcDbVertex
100
AcDbPolygonMeshVertex
 10
0.9057
 20
0.5385
 30
2.319
 70
    64
  0
VERTEX
  5
649BA
100
AcDbEntity
  8
0
100
AcDbVertex
100
AcDbPolygonMeshVertex
 10
0.8597
 20
0.5385
 30
2.929
 70
    64
  0
VERTEX
  5
649BB
100
AcDbEntity
  8
0
100
AcDbVertex
100
AcDbPolygonMeshVertex
 10
0.8597
 20
0.5385
 30
2.319
 70
    64
  0
VERTEX
  5
649BC
100
AcDbEntity
  8
0
100
AcDbVertex
100
AcDbPolygonMeshVertex
 10
0.8597
 20
0.5385
 30
2.319
 70
    64
  0
VERTEX
  5
649BD
100
AcDbEntity
  8
0
100
AcDbVertex
100
AcDbPolygonMeshVertex
 10
0.8597
 20
0.3985
 30
2.929
 70
    64
  0
VERTEX
  5
649BE
100
AcDbEntity
  8
0
100
AcDbVertex
100
AcDbPolygonMeshVertex
 10
0.8597
 20
0.3985
 30
2.319
 70
    64
  0
VERTEX
  5
649BF
100
AcDbEntity
  8
0
100
AcDbVertex
100
AcDbPolygonMeshVertex
 10
0.8597
 20
0.5385
 30
2.319
 70
    64
  0
VERTEX
  5
649C0
100
AcDbEntity
  8
0
100
AcDbVertex
100
AcDbPolygonMeshVertex
 10
0.9057
 20
0.3985
 30
2.929
 70
    64
  0
VERTEX
  5
649C1
100
AcDbEntity
  8
0
100
AcDbVertex
100
AcDbPolygonMeshVertex
 10
0.9057
 20
0.3985
 30
2.319
 70
    64
  0
VERTEX
  5
649C2
100
AcDbEntity
  8
0
100
AcDbVertex
100
AcDbPolygonMeshVertex
 10
0.9057
 20
0.5385
 30
2.319
 70
    64
  0
VERTEX
  5
649C3
100
AcDbEntity
  8
0
100
AcDbVertex
100
AcDbPolygonMeshVertex
 10
0.9057
 20
0.3985
 30
2.929
 70
    64
  0
VERTEX
  5
649C4
100
AcDbEntity
  8
0
100
AcDbVertex
100
AcDbPolygonMeshVertex
 10
0.9057
 20
0.3985
 30
2.929
 70
    64
  0
VERTEX
  5
649C5
100
AcDbEntity
  8
0
100
AcDbVertex
100
AcDbPolygonMeshVertex
 10
0.9057
 20
0.5385
 30
2.929
 70
    64
  0
VERTEX
  5
649C6
100
AcDbEntity
  8
0
100
AcDbVertex
100
AcDbPolygonMeshVertex
 10
0.8597
 20
0.3985
 30
2.929
 70
    64
  0
VERTEX
  5
649C7
100
AcDbEntity
  8
0
100
AcDbVertex
100
AcDbPolygonMeshVertex
 10
0.8597
 20
0.3985
 30
2.929
 70
    64
  0
VERTEX
  5
649C8
100
AcDbEntity
  8
0
100
AcDbVertex
100
AcDbPolygonMeshVertex
 10
0.8597
 20
0.5385
 30
2.929
 70
    64
  0
SEQEND
  5
649C9
100
AcDbEntity
  8
0
  0
POLYLINE
  5
649CA
100
AcDbEntity
  8
0
100
AcDbPolygonMesh
 66
     1
 10
0.0
 20
0.0
 30
0.0
 70
    16
 71
     6
 72
     3
  0
VERTEX
  5
649CB
100
AcDbEntity
  8
0
100
AcDbVertex
100
AcDbPolygonMeshVertex
 10
0.42995
 20
0.5385
 30
2.929
 70
    64
  0
VERTEX
  5
649CC
100
AcDbEntity
  8
0
100
AcDbVertex
100
AcDbPolygonMeshVertex
 10
0.42995
 20
0.5385
 30
2.319
 70
    64
  0
VERTEX
  5
649CD
100
AcDbEntity
  8
0
100
AcDbVertex
100
AcDbPolygonMeshVertex
 10
0.42995
 20
0.5385
 30
2.319
 70
    64
  0
VERTEX
  5
649CE
100
AcDbEntity
  8
0
100
AcDbVertex
100
AcDbPolygonMeshVertex
 10
0.47595
 20
0.5385
 30
2.929
 70
    64
  0
VERTEX
  5
649CF
100
AcDbEntity
  8
0
100
AcDbVertex
100
AcDbPolygonMeshVertex
 10
0.47595
 20
0.5385
 30
2.319
 70
    64
  0
VERTEX
  5
649D0
100
AcDbEntity
  8
0
100
AcDbVertex
100
AcDbPolygonMeshVertex
 10
0.47595
 20
0.5385
 30
2.319
 70
    64
  0
VERTEX
  5
649D1
100
AcDbEntity
  8
0
100
AcDbVertex
100
AcDbPolygonMeshVertex
 10
0.47595
 20
0.3985
 30
2.929
 70
    64
  0
VERTEX
  5
649D2
100
AcDbEntity
  8
0
100
AcDbVertex
100
AcDbPolygonMeshVertex
 10
0.47595
 20
0.3985
 30
2.319
 70
    64
  0
VERTEX
  5
649D3
100
AcDbEntity
  8
0
100
AcDbVertex
100
AcDbPolygonMeshVertex
 10
0.47595
 20
0.5385
 30
2.319
 70
    64
  0
VERTEX
  5
649D4
100
AcDbEntity
  8
0
100
AcDbVertex
100
AcDbPolygonMeshVertex
 10
0.42995
 20
0.3985
 30
2.929
 70
    64
  0
VERTEX
  5
649D5
100
AcDbEntity
  8
0
100
AcDbVertex
100
AcDbPolygonMeshVertex
 10
0.42995
 20
0.3985
 30
2.319
 70
    64
  0
VERTEX
  5
649D6
100
AcDbEntity
  8
0
100
AcDbVertex
100
AcDbPolygonMeshVertex
 10
0.42995
 20
0.5385
 30
2.319
 70
    64
  0
VERTEX
  5
649D7
100
AcDbEntity
  8
0
100
AcDbVertex
100
AcDbPolygonMeshVertex
 10
0.42995
 20
0.3985
 30
2.929
 70
    64
  0
VERTEX
  5
649D8
100
AcDbEntity
  8
0
100
AcDbVertex
100
AcDbPolygonMeshVertex
 10
0.42995
 20
0.3985
 30
2.929
 70
    64
  0
VERTEX
  5
649D9
100
AcDbEntity
  8
0
100
AcDbVertex
100
AcDbPolygonMeshVertex
 10
0.42995
 20
0.5385
 30
2.929
 70
    64
  0
VERTEX
  5
649DA
100
AcDbEntity
  8
0
100
AcDbVertex
100
AcDbPolygonMeshVertex
 10
0.47595
 20
0.3985
 30
2.929
 70
    64
  0
VERTEX
  5
649DB
100
AcDbEntity
  8
0
100
AcDbVertex
100
AcDbPolygonMeshVertex
 10
0.47595
 20
0.3985
 30
2.929
 70
    64
  0
VERTEX
  5
649DC
100
AcDbEntity
  8
0
100
AcDbVertex
100
AcDbPolygonMeshVertex
 10
0.47595
 20
0.5385
 30
2.929
 70
    64
  0
SEQEND
  5
649DD
100
AcDbEntity
  8
0
  0
LINE
  5
649DE
100
AcDbEntity
  8
0
100
AcDbLine
 10
0.0462
 20
0.3985
 30
2.646
 11
0.42995
 21
0.3985
 31
2.646
  0
LINE
  5
649DF
100
AcDbEntity
  8
0
100
AcDbLine
 10
0.47595
 20
0.3985
 30
2.646
 11
0.8597
 21
0.3985
 31
2.646
  0
POLYLINE
  5
649E0
100
AcDbEntity
  8
0
100
AcDbPolygonMesh
 66
     1
 10
0.0
 20
0.0
 30
0.0
 70
    16
 71
     6
 72
     3
  0
VERTEX
  5
649E1
100
AcDbEntity
  8
0
100
AcDbVertex
100
AcDbPolygonMeshVertex
 10
0.0462
 20
0.5385
 30
2.929
 70
    64
  0
VERTEX
  5
649E2
100
AcDbEntity
  8
0
100
AcDbVertex
100
AcDbPolygonMeshVertex
 10
0.0462
 20
0.5385
 30
2.06
 70
    64
  0
VERTEX
  5
649E3
100
AcDbEntity
  8
0
100
AcDbVertex
100
AcDbPolygonMeshVertex
 10
0.0462
 20
0.5385
 30
2.06
 70
    64
  0
VERTEX
  5
649E4
100
AcDbEntity
  8
0
100
AcDbVertex
100
AcDbPolygonMeshVertex
 10
0.0002
 20
0.5385
 30
2.929
 70
    64
  0
VERTEX
  5
649E5
100
AcDbEntity
  8
0
100
AcDbVertex
100
AcDbPolygonMeshVertex
 10
0.0002
 20
0.5385
 30
2.06
 70
    64
  0
VERTEX
  5
649E6
100
AcDbEntity
  8
0
100
AcDbVertex
100
AcDbPolygonMeshVertex
 10
0.0002
 20
0.5385
 30
2.06
 70
    64
  0
VERTEX
  5
649E7
100
AcDbEntity
  8
0
100
AcDbVertex
100
AcDbPolygonMeshVertex
 10
0.0002
 20
0.3985
 30
2.929
 70
    64
  0
VERTEX
  5
649E8
100
AcDbEntity
  8
0
100
AcDbVertex
100
AcDbPolygonMeshVertex
 10
0.0002
 20
0.3985
 30
2.06
 70
    64
  0
VERTEX
  5
649E9
100
AcDbEntity
  8
0
100
AcDbVertex
100
AcDbPolygonMeshVertex
 10
0.0002
 20
0.5385
 30
2.06
 70
    64
  0
VERTEX
  5
649EA
100
AcDbEntity
  8
0
100
AcDbVertex
100
AcDbPolygonMeshVertex
 10
0.0462
 20
0.3985
 30
2.929
 70
    64
  0
VERTEX
  5
649EB
100
AcDbEntity
  8
0
100
AcDbVertex
100
AcDbPolygonMeshVertex
 10
0.0462
 20
0.3985
 30
2.06
 70
    64
  0
VERTEX
  5
649EC
100
AcDbEntity
  8
0
100
AcDbVertex
100
AcDbPolygonMeshVertex
 10
0.0462
 20
0.5385
 30
2.06
 70
    64
  0
VERTEX
  5
649ED
100
AcDbEntity
  8
0
100
AcDbVertex
100
AcDbPolygonMeshVertex
 10
0.0462
 20
0.3985
 30
2.929
 70
    64
  0
VERTEX
  5
649EE
100
AcDbEntity
  8
0
100
AcDbVertex
100
AcDbPolygonMeshVertex
 10
0.0462
 20
0.3985
 30
2.929
 70
    64
  0
VERTEX
  5
649EF
100
AcDbEntity
  8
0
100
AcDbVertex
100
AcDbPolygonMeshVertex
 10
0.0462
 20
0.5385
 30
2.929
 70
    64
  0
VERTEX
  5
649F0
100
AcDbEntity
  8
0
100
AcDbVertex
100
AcDbPolygonMeshVertex
 10
0.0002
 20
0.3985
 30
2.929
 70
    64
  0
VERTEX
  5
649F1
100
AcDbEntity
  8
0
100
AcDbVertex
100
AcDbPolygonMeshVertex
 10
0.0002
 20
0.3985
 30
2.929
 70
    64
  0
VERTEX
  5
649F2
100
AcDbEntity
  8
0
100
AcDbVertex
100
AcDbPolygonMeshVertex
 10
0.0002
 20
0.5385
 30
2.929
 70
    64
  0
SEQEND
  5
649F3
100
AcDbEntity
  8
0
  0
POLYLINE
  5
649F4
100
AcDbEntity
  8
0
100
AcDbPolygonMesh
 66
     1
 10
0.0
 20
0.0
 30
0.0
 70
    16
 71
     6
 72
     3
  0
VERTEX
  5
649F5
100
AcDbEntity
  8
0
100
AcDbVertex
100
AcDbPolygonMeshVertex
 10
1.7192
 20
0.6105
 30
2.319
 70
    64
  0
VERTEX
  5
649F6
100
AcDbEntity
  8
0
100
AcDbVertex
100
AcDbPolygonMeshVertex
 10
1.7192
 20
0.6105
 30
2.06
 70
    64
  0
VERTEX
  5
649F7
100
AcDbEntity
  8
0
100
AcDbVertex
100
AcDbPolygonMeshVertex
 10
1.7192
 20
0.6105
 30
2.06
 70
    64
  0
VERTEX
  5
649F8
100
AcDbEntity
  8
0
100
AcDbVertex
100
AcDbPolygonMeshVertex
 10
0.0462
 20
0.6105
 30
2.319
 70
    64
  0
VERTEX
  5
649F9
100
AcDbEntity
  8
0
100
AcDbVertex
100
AcDbPolygonMeshVertex
 10
0.0462
 20
0.6105
 30
2.06
 70
    64
  0
VERTEX
  5
649FA
100
AcDbEntity
  8
0
100
AcDbVertex
100
AcDbPolygonMeshVertex
 10
0.0462
 20
0.6105
 30
2.06
 70
    64
  0
VERTEX
  5
649FB
100
AcDbEntity
  8
0
100
AcDbVertex
100
AcDbPolygonMeshVertex
 10
0.0462
 20
0.3985
 30
2.319
 70
    64
  0
VERTEX
  5
649FC
100
AcDbEntity
  8
0
100
AcDbVertex
100
AcDbPolygonMeshVertex
 10
0.0462
 20
0.3985
 30
2.06
 70
    64
  0
VERTEX
  5
649FD
100
AcDbEntity
  8
0
100
AcDbVertex
100
AcDbPolygonMeshVertex
 10
0.0462
 20
0.6105
 30
2.06
 70
    64
  0
VERTEX
  5
649FE
100
AcDbEntity
  8
0
100
AcDbVertex
100
AcDbPolygonMeshVertex
 10
1.7192
 20
0.3985
 30
2.319
 70
    64
  0
VERTEX
  5
649FF
100
AcDbEntity
  8
0
100
AcDbVertex
100
AcDbPolygonMeshVertex
 10
1.7192
 20
0.3985
 30
2.06
 70
    64
  0
VERTEX
  5
64A00
100
AcDbEntity
  8
0
100
AcDbVertex
100
AcDbPolygonMeshVertex
 10
1.7192
 20
0.6105
 30
2.06
 70
    64
  0
VERTEX
  5
64A01
100
AcDbEntity
  8
0
100
AcDbVertex
100
AcDbPolygonMeshVertex
 10
1.7192
 20
0.3985
 30
2.319
 70
    64
  0
VERTEX
  5
64A02
100
AcDbEntity
  8
0
100
AcDbVertex
100
AcDbPolygonMeshVertex
 10
1.7192
 20
0.3985
 30
2.319
 70
    64
  0
VERTEX
  5
64A03
100
AcDbEntity
  8
0
100
AcDbVertex
100
AcDbPolygonMeshVertex
 10
1.7192
 20
0.6105
 30
2.319
 70
    64
  0
VERTEX
  5
64A04
100
AcDbEntity
  8
0
100
AcDbVertex
100
AcDbPolygonMeshVertex
 10
0.0462
 20
0.3985
 30
2.319
 70
    64
  0
VERTEX
  5
64A05
100
AcDbEntity
  8
0
100
AcDbVertex
100
AcDbPolygonMeshVertex
 10
0.0462
 20
0.3985
 30
2.319
 70
    64
  0
VERTEX
  5
64A06
100
AcDbEntity
  8
0
100
AcDbVertex
100
AcDbPolygonMeshVertex
 10
0.0462
 20
0.6105
 30
2.319
 70
    64
  0
SEQEND
  5
64A07
100
AcDbEntity
  8
0
  0
TEXT
  5
64A08
100
AcDbEntity
  8
0
100
AcDbText
 39
0.0
 10
0.364837
 20
-2.301582
 30
2.06
 40
0.083465
  1
A1
 50
180.0
 71
     2
100
AcDbText
  0
TEXT
  5
64A09
100
AcDbEntity
  8
0
100
AcDbText
 39
0.0
 10
1.285817
 20
-2.300741
 30
2.06
 40
0.083465
  1
A2
 50
180.0
 71
     2
100
AcDbText
  0
LINE
  5
64A0A
100
AcDbEntity
  8
0
100
AcDbLine
 10
0.652923
 20
-1.9685
 30
0.0
 11
0.86359
 21
-1.9685
 31
0.0
  0
POLYLINE
  5
64A0B
100
AcDbEntity
  8
0
100
AcDb3dPolyline
 66
     1
 10
0.0
 20
0.0
 30
0.0
 70
     8
  0
VERTEX
  5
64A0C
100
AcDbEntity
  8
0
100
AcDbVertex
100
AcDb3dPolylineVertex
 10
0.652923
 20
-1.9685
 30
0.0
 70
    32
  0
VERTEX
  5
64A0D
100
AcDbEntity
  8
0
100
AcDbVertex
100
AcDb3dPolylineVertex
 10
0.652923
 20
-2.1035
 30
0.0
 70
    32
  0
VERTEX
  5
64A0E
100
AcDbEntity
  8
0
100
AcDbVertex
100
AcDb3dPolylineVertex
 10
0.86359
 20
-2.1035
 30
0.0
 70
    32
  0
VERTEX
  5
64A0F
100
AcDbEntity
  8
0
100
AcDbVertex
100
AcDb3dPolylineVertex
 10
0.86359
 20
-1.9685
 30
0.0
 70
    32
  0
SEQEND
  5
64A10
100
AcDbEntity
  8
0
  0
POLYLINE
  5
64A11
100
AcDbEntity
  8
0
100
AcDb3dPolyline
 66
     1
 10
0.0
 20
0.0
 30
0.0
 70
     8
  0
VERTEX
  5
64A12
100
AcDbEntity
  8
0
100
AcDbVertex
100
AcDb3dPolylineVertex
 10
0.581133
 20
-1.9685
 30
0.187
 70
    32
  0
VERTEX
  5
64A13
100
AcDbEntity
  8
0
100
AcDbVertex
100
AcDb3dPolylineVertex
 10
0.581133
 20
-2.1035
 30
0.187
 70
    32
  0
VERTEX
  5
64A14
100
AcDbEntity
  8
0
100
AcDbVertex
100
AcDb3dPolylineVertex
 10
0.791799
 20
-2.1035
 30
0.187
 70
    32
  0
VERTEX
  5
64A15
100
AcDbEntity
  8
0
100
AcDbVertex
100
AcDb3dPolylineVertex
 10
0.791799
 20
-1.9685
 30
0.187
 70
    32
  0
SEQEND
  5
64A16
100
AcDbEntity
  8
0
  0
POLYLINE
  5
64A17
100
AcDbEntity
  8
0
100
AcDbPolygonMesh
 66
     1
 10
0.0
 20
0.0
 30
0.0
 70
    16
 71
     6
 72
     3
  0
VERTEX
  5
64A18
100
AcDbEntity
  8
0
100
AcDbVertex
100
AcDbPolygonMeshVertex
 10
0.853799
 20
-2.1655
 30
0.187
 70
    64
  0
VERTEX
  5
64A19
100
AcDbEntity
  8
0
100
AcDbVertex
100
AcDbPolygonMeshVertex
 10
0.853799
 20
-2.1655
 30
0.0
 70
    64
  0
VERTEX
  5
64A1A
100
AcDbEntity
  8
0
100
AcDbVertex
100
AcDbPolygonMeshVertex
 10
0.853799
 20
-2.1655
 30
0.0
 70
    64
  0
VERTEX
  5
64A1B
100
AcDbEntity
  8
0
100
AcDbVertex
100
AcDbPolygonMeshVertex
 10
0.246466
 20
-2.1655
 30
0.187
 70
    64
  0
VERTEX
  5
64A1C
100
AcDbEntity
  8
0
100
AcDbVertex
100
AcDbPolygonMeshVertex
 10
0.246466
 20
-2.1655
 30
0.0
 70
    64
  0
VERTEX
  5
64A1D
100
AcDbEntity
  8
0
100
AcDbVertex
100
AcDbPolygonMeshVertex
 10
0.246466
 20
-2.1655
 30
0.0
 70
    64
  0
VERTEX
  5
64A1E
100
AcDbEntity
  8
0
100
AcDbVertex
100
AcDbPolygonMeshVertex
 10
0.246466
 20
-2.1035
 30
0.187
 70
    64
  0
VERTEX
  5
64A1F
100
AcDbEntity
  8
0
100
AcDbVertex
100
AcDbPolygonMeshVertex
 10
0.246466
 20
-2.1035
 30
0.0
 70
    64
  0
VERTEX
  5
64A20
100
AcDbEntity
  8
0
100
AcDbVertex
100
AcDbPolygonMeshVertex
 10
0.246466
 20
-2.1655
 30
0.0
 70
    64
  0
VERTEX
  5
64A21
100
AcDbEntity
  8
0
100
AcDbVertex
100
AcDbPolygonMeshVertex
 10
0.853799
 20
-2.1035
 30
0.187
 70
    64
  0
VERTEX
  5
64A22
100
AcDbEntity
  8
0
100
AcDbVertex
100
AcDbPolygonMeshVertex
 10
0.853799
 20
-2.1035
 30
0.0
 70
    64
  0
VERTEX
  5
64A23
100
AcDbEntity
  8
0
100
AcDbVertex
100
AcDbPolygonMeshVertex
 10
0.853799
 20
-2.1655
 30
0.0
 70
    64
  0
VERTEX
  5
64A24
100
AcDbEntity
  8
0
100
AcDbVertex
100
AcDbPolygonMeshVertex
 10
0.853799
 20
-2.1035
 30
0.187
 70
    64
  0
VERTEX
  5
64A25
100
AcDbEntity
  8
0
100
AcDbVertex
100
AcDbPolygonMeshVertex
 10
0.853799
 20
-2.1035
 30
0.187
 70
    64
  0
VERTEX
  5
64A26
100
AcDbEntity
  8
0
100
AcDbVertex
100
AcDbPolygonMeshVertex
 10
0.853799
 20
-2.1655
 30
0.187
 70
    64
  0
VERTEX
  5
64A27
100
AcDbEntity
  8
0
100
AcDbVertex
100
AcDbPolygonMeshVertex
 10
0.246466
 20
-2.1035
 30
0.187
 70
    64
  0
VERTEX
  5
64A28
100
AcDbEntity
  8
0
100
AcDbVertex
100
AcDbPolygonMeshVertex
 10
0.246466
 20
-2.1035
 30
0.187
 70
    64
  0
VERTEX
  5
64A29
100
AcDbEntity
  8
0
100
AcDbVertex
100
AcDbPolygonMeshVertex
 10
0.246466
 20
-2.1655
 30
0.187
 70
    64
  0
SEQEND
  5
64A2A
100
AcDbEntity
  8
0
  0
POLYLINE
  5
64A2B
100
AcDbEntity
  8
0
100
AcDbPolygonMesh
 66
     1
 10
0.0
 20
0.0
 30
0.0
 70
    16
 71
     6
 72
     3
  0
VERTEX
  5
64A2C
100
AcDbEntity
  8
0
100
AcDbVertex
100
AcDbPolygonMeshVertex
 10
0.853799
 20
-2.1035
 30
0.187
 70
    64
  0
VERTEX
  5
64A2D
100
AcDbEntity
  8
0
100
AcDbVertex
100
AcDbPolygonMeshVertex
 10
0.853799
 20
-2.1035
 30
0.0
 70
    64
  0
VERTEX
  5
64A2E
100
AcDbEntity
  8
0
100
AcDbVertex
100
AcDbPolygonMeshVertex
 10
0.853799
 20
-2.1035
 30
0.0
 70
    64
  0
VERTEX
  5
64A2F
100
AcDbEntity
  8
0
100
AcDbVertex
100
AcDbPolygonMeshVertex
 10
0.519133
 20
-2.1035
 30
0.187
 70
    64
  0
VERTEX
  5
64A30
100
AcDbEntity
  8
0
100
AcDbVertex
100
AcDbPolygonMeshVertex
 10
0.519133
 20
-2.1035
 30
0.0
 70
    64
  0
VERTEX
  5
64A31
100
AcDbEntity
  8
0
100
AcDbVertex
100
AcDbPolygonMeshVertex
 10
0.519133
 20
-2.1035
 30
0.0
 70
    64
  0
VERTEX
  5
64A32
100
AcDbEntity
  8
0
100
AcDbVertex
100
AcDbPolygonMeshVertex
 10
0.519133
 20
-1.9065
 30
0.187
 70
    64
  0
VERTEX
  5
64A33
100
AcDbEntity
  8
0
100
AcDbVertex
100
AcDbPolygonMeshVertex
 10
0.519133
 20
-1.9065
 30
0.0
 70
    64
  0
VERTEX
  5
64A34
100
AcDbEntity
  8
0
100
AcDbVertex
100
AcDbPolygonMeshVertex
 10
0.519133
 20
-2.1035
 30
0.0
 70
    64
  0
VERTEX
  5
64A35
100
AcDbEntity
  8
0
100
AcDbVertex
100
AcDbPolygonMeshVertex
 10
0.853799
 20
-1.9065
 30
0.187
 70
    64
  0
VERTEX
  5
64A36
100
AcDbEntity
  8
0
100
AcDbVertex
100
AcDbPolygonMeshVertex
 10
0.853799
 20
-1.9065
 30
0.0
 70
    64
  0
VERTEX
  5
64A37
100
AcDbEntity
  8
0
100
AcDbVertex
100
AcDbPolygonMeshVertex
 10
0.853799
 20
-2.1035
 30
0.0
 70
    64
  0
VERTEX
  5
64A38
100
AcDbEntity
  8
0
100
AcDbVertex
100
AcDbPolygonMeshVertex
 10
0.853799
 20
-1.9065
 30
0.187
 70
    64
  0
VERTEX
  5
64A39
100
AcDbEntity
  8
0
100
AcDbVertex
100
AcDbPolygonMeshVertex
 10
0.853799
 20
-1.9065
 30
0.187
 70
    64
  0
VERTEX
  5
64A3A
100
AcDbEntity
  8
0
100
AcDbVertex
100
AcDbPolygonMeshVertex
 10
0.853799
 20
-2.1035
 30
0.187
 70
    64
  0
VERTEX
  5
64A3B
100
AcDbEntity
  8
0
100
AcDbVertex
100
AcDbPolygonMeshVertex
 10
0.519133
 20
-1.9065
 30
0.187
 70
    64
  0
VERTEX
  5
64A3C
100
AcDbEntity
  8
0
100
AcDbVertex
100
AcDbPolygonMeshVertex
 10
0.519133
 20
-1.9065
 30
0.187
 70
    64
  0
VERTEX
  5
64A3D
100
AcDbEntity
  8
0
100
AcDbVertex
100
AcDbPolygonMeshVertex
 10
0.519133
 20
-2.1035
 30
0.187
 70
    64
  0
SEQEND
  5
64A3E
100
AcDbEntity
  8
0
  0
LINE
  5
64A3F
100
AcDbEntity
  8
0
100
AcDbLine
 10
0.652923
 20
-1.9685
 30
0.187
 11
0.86359
 21
-1.9685
 31
0.187
  0
POLYLINE
  5
64A40
100
AcDbEntity
  8
0
100
AcDbPolygonMesh
 66
     1
 10
0.0
 20
0.0
 30
0.0
 70
    16
 71
     6
 72
     3
  0
VERTEX
  5
64A41
100
AcDbEntity
  8
0
100
AcDbVertex
100
AcDbPolygonMeshVertex
 10
1.7652
 20
-1.6855
 30
0.187
 70
    64
  0
VERTEX
  5
64A42
100
AcDbEntity
  8
0
100
AcDbVertex
100
AcDbPolygonMeshVertex
 10
1.7652
 20
-1.6855
 30
0.0
 70
    64
  0
VERTEX
  5
64A43
100
AcDbEntity
  8
0
100
AcDbVertex
100
AcDbPolygonMeshVertex
 10
1.7652
 20
-1.6855
 30
0.0
 70
    64
  0
VERTEX
  5
64A44
100
AcDbEntity
  8
0
100
AcDbVertex
100
AcDbPolygonMeshVertex
 10
0.0052
 20
-1.6855
 30
0.187
 70
    64
  0
VERTEX
  5
64A45
100
AcDbEntity
  8
0
100
AcDbVertex
100
AcDbPolygonMeshVertex
 10
0.0052
 20
-1.6855
 30
0.0
 70
    64
  0
VERTEX
  5
64A46
100
AcDbEntity
  8
0
100
AcDbVertex
100
AcDbPolygonMeshVertex
 10
0.0052
 20
-1.6855
 30
0.0
 70
    64
  0
VERTEX
  5
64A47
100
AcDbEntity
  8
0
100
AcDbVertex
100
AcDbPolygonMeshVertex
 10
0.0052
 20
-1.481
 30
0.187
 70
    64
  0
VERTEX
  5
64A48
100
AcDbEntity
  8
0
100
AcDbVertex
100
AcDbPolygonMeshVertex
 10
0.0052
 20
-1.481
 30
0.0
 70
    64
  0
VERTEX
  5
64A49
100
AcDbEntity
  8
0
100
AcDbVertex
100
AcDbPolygonMeshVertex
 10
0.0052
 20
-1.6855
 30
0.0
 70
    64
  0
VERTEX
  5
64A4A
100
AcDbEntity
  8
0
100
AcDbVertex
100
AcDbPolygonMeshVertex
 10
1.7652
 20
-1.481
 30
0.187
 70
    64
  0
VERTEX
  5
64A4B
100
AcDbEntity
  8
0
100
AcDbVertex
100
AcDbPolygonMeshVertex
 10
1.7652
 20
-1.481
 30
0.0
 70
    64
  0
VERTEX
  5
64A4C
100
AcDbEntity
  8
0
100
AcDbVertex
100
AcDbPolygonMeshVertex
 10
1.7652
 20
-1.6855
 30
0.0
 70
    64
  0
VERTEX
  5
64A4D
100
AcDbEntity
  8
0
100
AcDbVertex
100
AcDbPolygonMeshVertex
 10
1.7652
 20
-1.481
 30
0.187
 70
    64
  0
VERTEX
  5
64A4E
100
AcDbEntity
  8
0
100
AcDbVertex
100
AcDbPolygonMeshVertex
 10
1.7652
 20
-1.481
 30
0.187
 70
    64
  0
VERTEX
  5
64A4F
100
AcDbEntity
  8
0
100
AcDbVertex
100
AcDbPolygonMeshVertex
 10
1.7652
 20
-1.6855
 30
0.187
 70
    64
  0
VERTEX
  5
64A50
100
AcDbEntity
  8
0
100
AcDbVertex
100
AcDbPolygonMeshVertex
 10
0.0052
 20
-1.481
 30
0.187
 70
    64
  0
VERTEX
  5
64A51
100
AcDbEntity
  8
0
100
AcDbVertex
100
AcDbPolygonMeshVertex
 10
0.0052
 20
-1.481
 30
0.187
 70
    64
  0
VERTEX
  5
64A52
100
AcDbEntity
  8
0
100
AcDbVertex
100
AcDbPolygonMeshVertex
 10
0.0052
 20
-1.6855
 30
0.187
 70
    64
  0
SEQEND
  5
64A53
100
AcDbEntity
  8
0
  0
POLYLINE
  5
64A54
100
AcDbEntity
  8
0
100
AcDbPolygonMesh
 66
     1
 10
0.0
 20
0.0
 30
0.0
 70
    16
 71
     6
 72
     3
  0
VERTEX
  5
64A55
100
AcDbEntity
  8
0
100
AcDbVertex
100
AcDbPolygonMeshVertex
 10
1.7652
 20
0.2045
 30
0.187
 70
    64
  0
VERTEX
  5
64A56
100
AcDbEntity
  8
0
100
AcDbVertex
100
AcDbPolygonMeshVertex
 10
1.7652
 20
0.2045
 30
0.0
 70
    64
  0
VERTEX
  5
64A57
100
AcDbEntity
  8
0
100
AcDbVertex
100
AcDbPolygonMeshVertex
 10
1.7652
 20
0.2045
 30
0.0
 70
    64
  0
VERTEX
  5
64A58
100
AcDbEntity
  8
0
100
AcDbVertex
100
AcDbPolygonMeshVertex
 10
0.0052
 20
0.2045
 30
0.187
 70
    64
  0
VERTEX
  5
64A59
100
AcDbEntity
  8
0
100
AcDbVertex
100
AcDbPolygonMeshVertex
 10
0.0052
 20
0.2045
 30
0.0
 70
    64
  0
VERTEX
  5
64A5A
100
AcDbEntity
  8
0
100
AcDbVertex
100
AcDbPolygonMeshVertex
 10
0.0052
 20
0.2045
 30
0.0
 70
    64
  0
VERTEX
  5
64A5B
100
AcDbEntity
  8
0
100
AcDbVertex
100
AcDbPolygonMeshVertex
 10
0.0052
 20
0.0
 30
0.187
 70
    64
  0
VERTEX
  5
64A5C
100
AcDbEntity
  8
0
100
AcDbVertex
100
AcDbPolygonMeshVertex
 10
0.0052
 20
0.0
 30
0.0
 70
    64
  0
VERTEX
  5
64A5D
100
AcDbEntity
  8
0
100
AcDbVertex
100
AcDbPolygonMeshVertex
 10
0.0052
 20
0.2045
 30
0.0
 70
    64
  0
VERTEX
  5
64A5E
100
AcDbEntity
  8
0
100
AcDbVertex
100
AcDbPolygonMeshVertex
 10
1.7652
 20
0.0
 30
0.187
 70
    64
  0
VERTEX
  5
64A5F
100
AcDbEntity
  8
0
100
AcDbVertex
100
AcDbPolygonMeshVertex
 10
1.7652
 20
0.0
 30
0.0
 70
    64
  0
VERTEX
  5
64A60
100
AcDbEntity
  8
0
100
AcDbVertex
100
AcDbPolygonMeshVertex
 10
1.7652
 20
0.2045
 30
0.0
 70
    64
  0
VERTEX
  5
64A61
100
AcDbEntity
  8
0
100
AcDbVertex
100
AcDbPolygonMeshVertex
 10
1.7652
 20
0.0
 30
0.187
 70
    64
  0
VERTEX
  5
64A62
100
AcDbEntity
  8
0
100
AcDbVertex
100
AcDbPolygonMeshVertex
 10
1.7652
 20
0.0
 30
0.187
 70
    64
  0
VERTEX
  5
64A63
100
AcDbEntity
  8
0
100
AcDbVertex
100
AcDbPolygonMeshVertex
 10
1.7652
 20
0.2045
 30
0.187
 70
    64
  0
VERTEX
  5
64A64
100
AcDbEntity
  8
0
100
AcDbVertex
100
AcDbPolygonMeshVertex
 10
0.0052
 20
0.0
 30
0.187
 70
    64
  0
VERTEX
  5
64A65
100
AcDbEntity
  8
0
100
AcDbVertex
100
AcDbPolygonMeshVertex
 10
0.0052
 20
0.0
 30
0.187
 70
    64
  0
VERTEX
  5
64A66
100
AcDbEntity
  8
0
100
AcDbVertex
100
AcDbPolygonMeshVertex
 10
0.0052
 20
0.2045
 30
0.187
 70
    64
  0
SEQEND
  5
64A67
100
AcDbEntity
  8
0
  0
POLYLINE
  5
64A68
100
AcDbEntity
  8
0
100
AcDbPolygonMesh
 66
     1
 10
0.0
 20
0.0
 30
0.0
 70
    16
 71
     6
 72
     3
  0
VERTEX
  5
64A69
100
AcDbEntity
  8
0
100
AcDbVertex
100
AcDbPolygonMeshVertex
 10
0.3962
 20
-2.0815
 30
0.316
 70
    64
  0
VERTEX
  5
64A6A
100
AcDbEntity
  8
0
100
AcDbVertex
100
AcDbPolygonMeshVertex
 10
0.3962
 20
-2.0815
 30
0.0
 70
    64
  0
VERTEX
  5
64A6B
100
AcDbEntity
  8
0
100
AcDbVertex
100
AcDbPolygonMeshVertex
 10
0.3962
 20
-2.0815
 30
0.0
 70
    64
  0
VERTEX
  5
64A6C
100
AcDbEntity
  8
0
100
AcDbVertex
100
AcDbPolygonMeshVertex
 10
0.0052
 20
-2.0815
 30
0.316
 70
    64
  0
VERTEX
  5
64A6D
100
AcDbEntity
  8
0
100
AcDbVertex
100
AcDbPolygonMeshVertex
 10
0.0052
 20
-2.0815
 30
0.0
 70
    64
  0
VERTEX
  5
64A6E
100
AcDbEntity
  8
0
100
AcDbVertex
100
AcDbPolygonMeshVertex
 10
0.0052
 20
-2.0815
 30
0.0
 70
    64
  0
VERTEX
  5
64A6F
100
AcDbEntity
  8
0
100
AcDbVertex
100
AcDbPolygonMeshVertex
 10
0.0052
 20
-1.6855
 30
0.316
 70
    64
  0
VERTEX
  5
64A70
100
AcDbEntity
  8
0
100
AcDbVertex
100
AcDbPolygonMeshVertex
 10
0.0052
 20
-1.6855
 30
0.0
 70
    64
  0
VERTEX
  5
64A71
100
AcDbEntity
  8
0
100
AcDbVertex
100
AcDbPolygonMeshVertex
 10
0.0052
 20
-2.0815
 30
0.0
 70
    64
  0
VERTEX
  5
64A72
100
AcDbEntity
  8
0
100
AcDbVertex
100
AcDbPolygonMeshVertex
 10
0.3962
 20
-1.6855
 30
0.316
 70
    64
  0
VERTEX
  5
64A73
100
AcDbEntity
  8
0
100
AcDbVertex
100
AcDbPolygonMeshVertex
 10
0.3962
 20
-1.6855
 30
0.0
 70
    64
  0
VERTEX
  5
64A74
100
AcDbEntity
  8
0
100
AcDbVertex
100
AcDbPolygonMeshVertex
 10
0.3962
 20
-2.0815
 30
0.0
 70
    64
  0
VERTEX
  5
64A75
100
AcDbEntity
  8
0
100
AcDbVertex
100
AcDbPolygonMeshVertex
 10
0.3962
 20
-1.6855
 30
0.316
 70
    64
  0
VERTEX
  5
64A76
100
AcDbEntity
  8
0
100
AcDbVertex
100
AcDbPolygonMeshVertex
 10
0.3962
 20
-1.6855
 30
0.316
 70
    64
  0
VERTEX
  5
64A77
100
AcDbEntity
  8
0
100
AcDbVertex
100
AcDbPolygonMeshVertex
 10
0.3962
 20
-2.0815
 30
0.316
 70
    64
  0
VERTEX
  5
64A78
100
AcDbEntity
  8
0
100
AcDbVertex
100
AcDbPolygonMeshVertex
 10
0.0052
 20
-1.6855
 30
0.316
 70
    64
  0
VERTEX
  5
64A79
100
AcDbEntity
  8
0
100
AcDbVertex
100
AcDbPolygonMeshVertex
 10
0.0052
 20
-1.6855
 30
0.316
 70
    64
  0
VERTEX
  5
64A7A
100
AcDbEntity
  8
0
100
AcDbVertex
100
AcDbPolygonMeshVertex
 10
0.0052
 20
-2.0815
 30
0.316
 70
    64
  0
SEQEND
  5
64A7B
100
AcDbEntity
  8
0
  0
POINT
  5
64A7C
100
AcDbEntity
  8
SNAP_POINTS
100
AcDbPoint
 10
0.0
 20
0.0
 30
0.0
  0
3DFACE
  5
64A7D
100
AcDbEntity
  8
0
100
AcDbFace
 10
1.7652
 20
-1.8455
 30
2.06
 11
1.7652
 21
-1.8455
 31
2.06
 12
0.0002
 22
-1.8455
 32
2.06
 13
0.0002
 23
-1.8455
 33
2.06
  0
3DFACE
  5
64A7E
100
AcDbEntity
  8
0
100
AcDbFace
 10
0.0002
 20
-1.8455
 30
2.06
 11
0.0002
 21
-1.8455
 31
2.06
 12
0.0002
 22
-1.8455
 32
2.06
 13
0.0002
 23
0.3985
 33
2.06
  0
3DFACE
  5
64A7F
100
AcDbEntity
  8
0
100
AcDbFace
 10
0.0002
 20
0.3985
 30
2.06
 11
0.0002
 21
-1.8455
 31
2.06
 12
1.7652
 22
-1.8455
 32
2.06
 13
1.7652
 23
0.3985
 33
2.06
  0
POLYLINE
  5
64A80
100
AcDbEntity
  8
0
  6
CONTINUOUS
100
AcDb3dPolyline
 66
     1
 10
0.0
 20
0.0
 30
0.0
 70
     8
  0
VERTEX
  5
64A81
100
AcDbEntity
  8
0
  6
CONTINUOUS
100
AcDbVertex
100
AcDb3dPolylineVertex
 10
1.7652
 20
0.3985
 30
2.06
 70
    32
1001
ACAD
1000
R13OBJECT
1002
{
1005
64A80
1002
}
  0
VERTEX
  5
64A82
100
AcDbEntity
  8
0
  6
CONTINUOUS
100
AcDbVertex
100
AcDb3dPolylineVertex
 10
1.7652
 20
-1.8455
 30
2.06
 70
    32
1001
ACAD
1000
R13OBJECT
1002
{
1005
64A80
1002
}
  0
SEQEND
  5
64A83
100
AcDbEntity
  8
0
  6
CONTINUOUS
1001
ACAD
1000
R13OBJECT
1002
{
1005
64A80
1002
}
  0
POLYLINE
  5
64A84
100
AcDbEntity
  8
0
  6
CONTINUOUS
100
AcDb3dPolyline
 66
     1
 10
0.0
 20
0.0
 30
0.0
 70
     8
1001
ACAD
1000
R13OBJECT
1002
{
1005
64A80
1002
}
  0
VERTEX
  5
64A85
100
AcDbEntity
  8
0
  6
CONTINUOUS
100
AcDbVertex
100
AcDb3dPolylineVertex
 10
1.7652
 20
-1.8455
 30
2.06
 70
    32
1001
ACAD
1000
R13OBJECT
1002
{
1005
64A80
1002
}
  0
VERTEX
  5
64A86
100
AcDbEntity
  8
0
  6
CONTINUOUS
100
AcDbVertex
100
AcDb3dPolylineVertex
 10
0.0002
 20
-1.8455
 30
2.06
 70
    32
1001
ACAD
1000
R13OBJECT
1002
{
1005
64A80
1002
}
  0
SEQEND
  5
64A87
100
AcDbEntity
  8
0
  6
CONTINUOUS
1001
ACAD
1000
R13OBJECT
1002
{
1005
64A80
1002
}
  0
POLYLINE
  5
64A88
100
AcDbEntity
  8
0
  6
CONTINUOUS
100
AcDb3dPolyline
 66
     1
 10
0.0
 20
0.0
 30
0.0
 70
     8
1001
ACAD
1000
R13OBJECT
1002
{
1005
64A80
1002
}
  0
VERTEX
  5
64A89
100
AcDbEntity
  8
0
  6
CONTINUOUS
100
AcDbVertex
100
AcDb3dPolylineVertex
 10
0.0002
 20
-1.8455
 30
2.06
 70
    32
1001
ACAD
1000
R13OBJECT
1002
{
1005
64A80
1002
}
  0
VERTEX
  5
64A8A
100
AcDbEntity
  8
0
  6
CONTINUOUS
100
AcDbVertex
100
AcDb3dPolylineVertex
 10
0.0002
 20
0.3985
 30
2.06
 70
    32
1001
ACAD
1000
R13OBJECT
1002
{
1005
64A80
1002
}
  0
SEQEND
  5
64A8B
100
AcDbEntity
  8
0
  6
CONTINUOUS
1001
ACAD
1000
R13OBJECT
1002
{
1005
64A80
1002
}
  0
POLYLINE
  5
64A8C
100
AcDbEntity
  8
0
  6
CONTINUOUS
100
AcDb3dPolyline
 66
     1
 10
0.0
 20
0.0
 30
0.0
 70
     8
1001
ACAD
1000
R13OBJECT
1002
{
1005
64A80
1002
}
  0
VERTEX
  5
64A8D
100
AcDbEntity
  8
0
  6
CONTINUOUS
100
AcDbVertex
100
AcDb3dPolylineVertex
 10
0.0002
 20
0.3985
 30
2.06
 70
    32
1001
ACAD
1000
R13OBJECT
1002
{
1005
64A80
1002
}
  0
VERTEX
  5
64A8E
100
AcDbEntity
  8
0
  6
CONTINUOUS
100
AcDbVertex
100
AcDb3dPolylineVertex
 10
1.7652
 20
0.3985
 30
2.06
 70
    32
1001
ACAD
1000
R13OBJECT
1002
{
1005
64A80
1002
}
  0
SEQEND
  5
64A8F
100
AcDbEntity
  8
0
  6
CONTINUOUS
1001
ACAD
1000
R13OBJECT
1002
{
1005
64A80
1002
}
  0
POLYLINE
  5
64A90
100
AcDbEntity
  8
0
  6
CONTINUOUS
100
AcDb3dPolyline
 66
     1
 10
0.0
 20
0.0
 30
0.0
 70
     8
  0
VERTEX
  5
64A91
100
AcDbEntity
  8
0
  6
CONTINUOUS
100
AcDbVertex
100
AcDb3dPolylineVertex
 10
0.0002
 20
-1.8455
 30
3.082
 70
    32
1001
ACAD
1000
R13OBJECT
1002
{
1005
64A90
1002
}
  0
VERTEX
  5
64A92
100
AcDbEntity
  8
0
  6
CONTINUOUS
100
AcDbVertex
100
AcDb3dPolylineVertex
 10
0.0002
 20
-1.8455
 30
2.06
 70
    32
1001
ACAD
1000
R13OBJECT
1002
{
1005
64A90
1002
}
  0
SEQEND
  5
64A93
100
AcDbEntity
  8
0
  6
CONTINUOUS
1001
ACAD
1000
R13OBJECT
1002
{
1005
64A90
1002
}
  0
POLYLINE
  5
64A94
100
AcDbEntity
  8
0
  6
CONTINUOUS
100
AcDb3dPolyline
 66
     1
 10
0.0
 20
0.0
 30
0.0
 70
     8
1001
ACAD
1000
R13OBJECT
1002
{
1005
64A90
1002
}
  0
VERTEX
  5
64A95
100
AcDbEntity
  8
0
  6
CONTINUOUS
100
AcDbVertex
100
AcDb3dPolylineVertex
 10
1.7652
 20
-1.8455
 30
2.06
 70
    32
1001
ACAD
1000
R13OBJECT
1002
{
1005
64A90
1002
}
  0
VERTEX
  5
64A96
100
AcDbEntity
  8
0
  6
CONTINUOUS
100
AcDbVertex
100
AcDb3dPolylineVertex
 10
0.0002
 20
-1.8455
 30
2.06
 70
    32
1001
ACAD
1000
R13OBJECT
1002
{
1005
64A90
1002
}
  0
SEQEND
  5
64A97
100
AcDbEntity
  8
0
  6
CONTINUOUS
1001
ACAD
1000
R13OBJECT
1002
{
1005
64A90
1002
}
  0
POLYLINE
  5
64A98
100
AcDbEntity
  8
0
  6
CONTINUOUS
100
AcDb3dPolyline
 66
     1
 10
0.0
 20
0.0
 30
0.0
 70
     8
1001
ACAD
1000
R13OBJECT
1002
{
1005
64A90
1002
}
  0
VERTEX
  5
64A99
100
AcDbEntity
  8
0
  6
CONTINUOUS
100
AcDbVertex
100
AcDb3dPolylineVertex
 10
1.7652
 20
-1.8455
 30
3.082
 70
    32
1001
ACAD
1000
R13OBJECT
1002
{
1005
64A90
1002
}
  0
VERTEX
  5
64A9A
100
AcDbEntity
  8
0
  6
CONTINUOUS
100
AcDbVertex
100
AcDb3dPolylineVertex
 10
1.7652
 20
-1.8455
 30
2.06
 70
    32
1001
ACAD
1000
R13OBJECT
1002
{
1005
64A90
1002
}
  0
SEQEND
  5
64A9B
100
AcDbEntity
  8
0
  6
CONTINUOUS
1001
ACAD
1000
R13OBJECT
1002
{
1005
64A90
1002
}
  0
POLYLINE
  5
64A9C
100
AcDbEntity
  8
0
  6
CONTINUOUS
100
AcDb3dPolyline
 66
     1
 10
0.0
 20
0.0
 30
0.0
 70
     8
1001
ACAD
1000
R13OBJECT
1002
{
1005
64A90
1002
}
  0
VERTEX
  5
64A9D
100
AcDbEntity
  8
0
  6
CONTINUOUS
100
AcDbVertex
100
AcDb3dPolylineVertex
 10
0.0002
 20
-1.8455
 30
3.082
 70
    32
1001
ACAD
1000
R13OBJECT
1002
{
1005
64A90
1002
}
  0
VERTEX
  5
64A9E
100
AcDbEntity
  8
0
  6
CONTINUOUS
100
AcDbVertex
100
AcDb3dPolylineVertex
 10
1.7652
 20
-1.8455
 30
3.082
 70
    32
1001
ACAD
1000
R13OBJECT
1002
{
1005
64A90
1002
}
  0
SEQEND
  5
64A9F
100
AcDbEntity
  8
0
  6
CONTINUOUS
1001
ACAD
1000
R13OBJECT
1002
{
1005
64A90
1002
}
  0
POLYLINE
  5
64AA0
100
AcDbEntity
  8
0
  6
CONTINUOUS
100
AcDb3dPolyline
 66
     1
 10
0.0
 20
0.0
 30
0.0
 70
     8
  0
VERTEX
  5
64AA1
100
AcDbEntity
  8
0
  6
CONTINUOUS
100
AcDbVertex
100
AcDb3dPolylineVertex
 10
1.7652
 20
0.3985
 30
3.082
 70
    32
1001
ACAD
1000
R13OBJECT
1002
{
1005
64AA0
1002
}
  0
VERTEX
  5
64AA2
100
AcDbEntity
  8
0
  6
CONTINUOUS
100
AcDbVertex
100
AcDb3dPolylineVertex
 10
1.7652
 20
0.3985
 30
2.06
 70
    32
1001
ACAD
1000
R13OBJECT
1002
{
1005
64AA0
1002
}
  0
SEQEND
  5
64AA3
100
AcDbEntity
  8
0
  6
CONTINUOUS
1001
ACAD
1000
R13OBJECT
1002
{
1005
64AA0
1002
}
  0
POLYLINE
  5
64AA4
100
AcDbEntity
  8
0
  6
CONTINUOUS
100
AcDb3dPolyline
 66
     1
 10
0.0
 20
0.0
 30
0.0
 70
     8
1001
ACAD
1000
R13OBJECT
1002
{
1005
64AA0
1002
}
  0
VERTEX
  5
64AA5
100
AcDbEntity
  8
0
  6
CONTINUOUS
100
AcDbVertex
100
AcDb3dPolylineVertex
 10
0.0002
 20
0.3985
 30
2.06
 70
    32
1001
ACAD
1000
R13OBJECT
1002
{
1005
64AA0
1002
}
  0
VERTEX
  5
64AA6
100
AcDbEntity
  8
0
  6
CONTINUOUS
100
AcDbVertex
100
AcDb3dPolylineVertex
 10
1.7652
 20
0.3985
 30
2.06
 70
    32
1001
ACAD
1000
R13OBJECT
1002
{
1005
64AA0
1002
}
  0
SEQEND
  5
64AA7
100
AcDbEntity
  8
0
  6
CONTINUOUS
1001
ACAD
1000
R13OBJECT
1002
{
1005
64AA0
1002
}
  0
POLYLINE
  5
64AA8
100
AcDbEntity
  8
0
  6
CONTINUOUS
100
AcDb3dPolyline
 66
     1
 10
0.0
 20
0.0
 30
0.0
 70
     8
1001
ACAD
1000
R13OBJECT
1002
{
1005
64AA0
1002
}
  0
VERTEX
  5
64AA9
100
AcDbEntity
  8
0
  6
CONTINUOUS
100
AcDbVertex
100
AcDb3dPolylineVertex
 10
0.0002
 20
0.3985
 30
3.082
 70
    32
1001
ACAD
1000
R13OBJECT
1002
{
1005
64AA0
1002
}
  0
VERTEX
  5
64AAA
100
AcDbEntity
  8
0
  6
CONTINUOUS
100
AcDbVertex
100
AcDb3dPolylineVertex
 10
0.0002
 20
0.3985
 30
2.06
 70
    32
1001
ACAD
1000
R13OBJECT
1002
{
1005
64AA0
1002
}
  0
SEQEND
  5
64AAB
100
AcDbEntity
  8
0
  6
CONTINUOUS
1001
ACAD
1000
R13OBJECT
1002
{
1005
64AA0
1002
}
  0
POLYLINE
  5
64AAC
100
AcDbEntity
  8
0
  6
CONTINUOUS
100
AcDb3dPolyline
 66
     1
 10
0.0
 20
0.0
 30
0.0
 70
     8
1001
ACAD
1000
R13OBJECT
1002
{
1005
64AA0
1002
}
  0
VERTEX
  5
64AAD
100
AcDbEntity
  8
0
  6
CONTINUOUS
100
AcDbVertex
100
AcDb3dPolylineVertex
 10
1.7652
 20
0.3985
 30
3.082
 70
    32
1001
ACAD
1000
R13OBJECT
1002
{
1005
64AA0
1002
}
  0
VERTEX
  5
64AAE
100
AcDbEntity
  8
0
  6
CONTINUOUS
100
AcDbVertex
100
AcDb3dPolylineVertex
 10
0.0002
 20
0.3985
 30
3.082
 70
    32
1001
ACAD
1000
R13OBJECT
1002
{
1005
64AA0
1002
}
  0
SEQEND
  5
64AAF
100
AcDbEntity
  8
0
  6
CONTINUOUS
1001
ACAD
1000
R13OBJECT
1002
{
1005
64AA0
1002
}
  0
POLYLINE
  5
64AB0
100
AcDbEntity
  8
0
  6
CONTINUOUS
100
AcDb3dPolyline
 66
     1
 10
0.0
 20
0.0
 30
0.0
 70
     8
  0
VERTEX
  5
64AB1
100
AcDbEntity
  8
0
  6
CONTINUOUS
100
AcDbVertex
100
AcDb3dPolylineVertex
 10
1.7652
 20
-1.8455
 30
3.082
 70
    32
1001
ACAD
1000
R13OBJECT
1002
{
1005
64AB0
1002
}
  0
VERTEX
  5
64AB2
100
AcDbEntity
  8
0
  6
CONTINUOUS
100
AcDbVertex
100
AcDb3dPolylineVertex
 10
1.7652
 20
-1.8455
 30
2.06
 70
    32
1001
ACAD
1000
R13OBJECT
1002
{
1005
64AB0
1002
}
  0
SEQEND
  5
64AB3
100
AcDbEntity
  8
0
  6
CONTINUOUS
1001
ACAD
1000
R13OBJECT
1002
{
1005
64AB0
1002
}
  0
POLYLINE
  5
64AB4
100
AcDbEntity
  8
0
  6
CONTINUOUS
100
AcDb3dPolyline
 66
     1
 10
0.0
 20
0.0
 30
0.0
 70
     8
1001
ACAD
1000
R13OBJECT
1002
{
1005
64AB0
1002
}
  0
VERTEX
  5
64AB5
100
AcDbEntity
  8
0
  6
CONTINUOUS
100
AcDbVertex
100
AcDb3dPolylineVertex
 10
1.7652
 20
0.3985
 30
2.06
 70
    32
1001
ACAD
1000
R13OBJECT
1002
{
1005
64AB0
1002
}
  0
VERTEX
  5
64AB6
100
AcDbEntity
  8
0
  6
CONTINUOUS
100
AcDbVertex
100
AcDb3dPolylineVertex
 10
1.7652
 20
-1.8455
 30
2.06
 70
    32
1001
ACAD
1000
R13OBJECT
1002
{
1005
64AB0
1002
}
  0
SEQEND
  5
64AB7
100
AcDbEntity
  8
0
  6
CONTINUOUS
1001
ACAD
1000
R13OBJECT
1002
{
1005
64AB0
1002
}
  0
POLYLINE
  5
64AB8
100
AcDbEntity
  8
0
  6
CONTINUOUS
100
AcDb3dPolyline
 66
     1
 10
0.0
 20
0.0
 30
0.0
 70
     8
1001
ACAD
1000
R13OBJECT
1002
{
1005
64AB0
1002
}
  0
VERTEX
  5
64AB9
100
AcDbEntity
  8
0
  6
CONTINUOUS
100
AcDbVertex
100
AcDb3dPolylineVertex
 10
1.7652
 20
0.3985
 30
3.082
 70
    32
1001
ACAD
1000
R13OBJECT
1002
{
1005
64AB0
1002
}
  0
VERTEX
  5
64ABA
100
AcDbEntity
  8
0
  6
CONTINUOUS
100
AcDbVertex
100
AcDb3dPolylineVertex
 10
1.7652
 20
0.3985
 30
2.06
 70
    32
1001
ACAD
1000
R13OBJECT
1002
{
1005
64AB0
1002
}
  0
SEQEND
  5
64ABB
100
AcDbEntity
  8
0
  6
CONTINUOUS
1001
ACAD
1000
R13OBJECT
1002
{
1005
64AB0
1002
}
  0
POLYLINE
  5
64ABC
100
AcDbEntity
  8
0
  6
CONTINUOUS
100
AcDb3dPolyline
 66
     1
 10
0.0
 20
0.0
 30
0.0
 70
     8
1001
ACAD
1000
R13OBJECT
1002
{
1005
64AB0
1002
}
  0
VERTEX
  5
64ABD
100
AcDbEntity
  8
0
  6
CONTINUOUS
100
AcDbVertex
100
AcDb3dPolylineVertex
 10
1.7652
 20
-1.8455
 30
3.082
 70
    32
1001
ACAD
1000
R13OBJECT
1002
{
1005
64AB0
1002
}
  0
VERTEX
  5
64ABE
100
AcDbEntity
  8
0
  6
CONTINUOUS
100
AcDbVertex
100
AcDb3dPolylineVertex
 10
1.7652
 20
0.3985
 30
3.082
 70
    32
1001
ACAD
1000
R13OBJECT
1002
{
1005
64AB0
1002
}
  0
SEQEND
  5
64ABF
100
AcDbEntity
  8
0
  6
CONTINUOUS
1001
ACAD
1000
R13OBJECT
1002
{
1005
64AB0
1002
}
  0
LINE
  5
64AC0
100
AcDbEntity
  8
0
100
AcDbLine
 10
0.0002
 20
0.3985
 30
3.082
 11
0.0002
 21
0.3985
 31
2.06
210
-1.0
220
0.0
230
0.0
  0
LINE
  5
64AC1
100
AcDbEntity
  8
0
100
AcDbLine
 10
0.0002
 20
0.3985
 30
3.082
 11
0.0002
 21
-1.8455
 31
3.082
210
-1.0
220
0.0
230
0.0
  0
LINE
  5
64AC2
100
AcDbEntity
  8
0
100
AcDbLine
 10
0.0002
 20
-1.8455
 30
3.082
 11
0.0002
 21
-1.8455
 31
2.06
210
-1.0
220
0.0
230
0.0
  0
3DFACE
  5
64AC3
100
AcDbEntity
  8
0
100
AcDbFace
 10
1.7652
 20
0.3985
 30
3.082
 11
1.7652
 21
-1.8455
 31
3.082
 12
0.0002
 22
-1.8455
 32
3.082
 13
0.0002
 23
0.3985
 33
3.082
  0
POLYLINE
  5
64AC4
100
AcDbEntity
  8
0
100
AcDbPolygonMesh
 66
     1
 10
0.0
 20
0.0
 30
0.0
 70
    16
 71
     6
 72
     3
  0
VERTEX
  5
64AC5
100
AcDbEntity
  8
0
100
AcDbVertex
100
AcDbPolygonMeshVertex
 10
1.2507
 20
-0.439486
 30
3.293
 70
    64
  0
VERTEX
  5
64AC6
100
AcDbEntity
  8
0
100
AcDbVertex
100
AcDbPolygonMeshVertex
 10
1.2507
 20
-0.439486
 30
3.116
 70
    64
  0
VERTEX
  5
64AC7
100
AcDbEntity
  8
0
100
AcDbVertex
100
AcDbPolygonMeshVertex
 10
1.2507
 20
-0.439486
 30
3.116
 70
    64
  0
VERTEX
  5
64AC8
100
AcDbEntity
  8
0
100
AcDbVertex
100
AcDbPolygonMeshVertex
 10
1.0812
 20
-0.439486
 30
3.293
 70
    64
  0
VERTEX
  5
64AC9
100
AcDbEntity
  8
0
100
AcDbVertex
100
AcDbPolygonMeshVertex
 10
1.0812
 20
-0.439486
 30
3.116
 70
    64
  0
VERTEX
  5
64ACA
100
AcDbEntity
  8
0
100
AcDbVertex
100
AcDbPolygonMeshVertex
 10
1.0812
 20
-0.439486
 30
3.116
 70
    64
  0
VERTEX
  5
64ACB
100
AcDbEntity
  8
0
100
AcDbVertex
100
AcDbPolygonMeshVertex
 10
1.0812
 20
-0.086486
 30
3.293
 70
    64
  0
VERTEX
  5
64ACC
100
AcDbEntity
  8
0
100
AcDbVertex
100
AcDbPolygonMeshVertex
 10
1.0812
 20
-0.086486
 30
3.116
 70
    64
  0
VERTEX
  5
64ACD
100
AcDbEntity
  8
0
100
AcDbVertex
100
AcDbPolygonMeshVertex
 10
1.0812
 20
-0.439486
 30
3.116
 70
    64
  0
VERTEX
  5
64ACE
100
AcDbEntity
  8
0
100
AcDbVertex
100
AcDbPolygonMeshVertex
 10
1.2507
 20
-0.086486
 30
3.293
 70
    64
  0
VERTEX
  5
64ACF
100
AcDbEntity
  8
0
100
AcDbVertex
100
AcDbPolygonMeshVertex
 10
1.2507
 20
-0.086486
 30
3.116
 70
    64
  0
VERTEX
  5
64AD0
100
AcDbEntity
  8
0
100
AcDbVertex
100
AcDbPolygonMeshVertex
 10
1.2507
 20
-0.439486
 30
3.116
 70
    64
  0
VERTEX
  5
64AD1
100
AcDbEntity
  8
0
100
AcDbVertex
100
AcDbPolygonMeshVertex
 10
1.2507
 20
-0.086486
 30
3.293
 70
    64
  0
VERTEX
  5
64AD2
100
AcDbEntity
  8
0
100
AcDbVertex
100
AcDbPolygonMeshVertex
 10
1.2507
 20
-0.086486
 30
3.293
 70
    64
  0
VERTEX
  5
64AD3
100
AcDbEntity
  8
0
100
AcDbVertex
100
AcDbPolygonMeshVertex
 10
1.2507
 20
-0.439486
 30
3.293
 70
    64
  0
VERTEX
  5
64AD4
100
AcDbEntity
  8
0
100
AcDbVertex
100
AcDbPolygonMeshVertex
 10
1.0812
 20
-0.086486
 30
3.293
 70
    64
  0
VERTEX
  5
64AD5
100
AcDbEntity
  8
0
100
AcDbVertex
100
AcDbPolygonMeshVertex
 10
1.0812
 20
-0.086486
 30
3.293
 70
    64
  0
VERTEX
  5
64AD6
100
AcDbEntity
  8
0
100
AcDbVertex
100
AcDbPolygonMeshVertex
 10
1.0812
 20
-0.439486
 30
3.293
 70
    64
  0
SEQEND
  5
64AD7
100
AcDbEntity
  8
0
  0
POLYLINE
  5
64AD8
100
AcDbEntity
  8
0
100
AcDbPolygonMesh
 66
     1
 10
0.0
 20
0.0
 30
0.0
 70
    16
 71
     6
 72
     3
  0
VERTEX
  5
64AD9
100
AcDbEntity
  8
0
100
AcDbVertex
100
AcDbPolygonMeshVertex
 10
1.1227
 20
-0.894486
 30
3.332
 70
    64
  0
VERTEX
  5
64ADA
100
AcDbEntity
  8
0
100
AcDbVertex
100
AcDbPolygonMeshVertex
 10
1.1227
 20
-0.894486
 30
3.116
 70
    64
  0
VERTEX
  5
64ADB
100
AcDbEntity
  8
0
100
AcDbVertex
100
AcDbPolygonMeshVertex
 10
1.1227
 20
-0.894486
 30
3.116
 70
    64
  0
VERTEX
  5
64ADC
100
AcDbEntity
  8
0
100
AcDbVertex
100
AcDbPolygonMeshVertex
 10
0.9877
 20
-0.894486
 30
3.332
 70
    64
  0
VERTEX
  5
64ADD
100
AcDbEntity
  8
0
100
AcDbVertex
100
AcDbPolygonMeshVertex
 10
0.9877
 20
-0.894486
 30
3.116
 70
    64
  0
VERTEX
  5
64ADE
100
AcDbEntity
  8
0
100
AcDbVertex
100
AcDbPolygonMeshVertex
 10
0.9877
 20
-0.894486
 30
3.116
 70
    64
  0
VERTEX
  5
64ADF
100
AcDbEntity
  8
0
100
AcDbVertex
100
AcDbPolygonMeshVertex
 10
0.9877
 20
-0.549486
 30
3.332
 70
    64
  0
VERTEX
  5
64AE0
100
AcDbEntity
  8
0
100
AcDbVertex
100
AcDbPolygonMeshVertex
 10
0.9877
 20
-0.549486
 30
3.116
 70
    64
  0
VERTEX
  5
64AE1
100
AcDbEntity
  8
0
100
AcDbVertex
100
AcDbPolygonMeshVertex
 10
0.9877
 20
-0.894486
 30
3.116
 70
    64
  0
VERTEX
  5
64AE2
100
AcDbEntity
  8
0
100
AcDbVertex
100
AcDbPolygonMeshVertex
 10
1.1227
 20
-0.549486
 30
3.332
 70
    64
  0
VERTEX
  5
64AE3
100
AcDbEntity
  8
0
100
AcDbVertex
100
AcDbPolygonMeshVertex
 10
1.1227
 20
-0.549486
 30
3.116
 70
    64
  0
VERTEX
  5
64AE4
100
AcDbEntity
  8
0
100
AcDbVertex
100
AcDbPolygonMeshVertex
 10
1.1227
 20
-0.894486
 30
3.116
 70
    64
  0
VERTEX
  5
64AE5
100
AcDbEntity
  8
0
100
AcDbVertex
100
AcDbPolygonMeshVertex
 10
1.1227
 20
-0.549486
 30
3.332
 70
    64
  0
VERTEX
  5
64AE6
100
AcDbEntity
  8
0
100
AcDbVertex
100
AcDbPolygonMeshVertex
 10
1.1227
 20
-0.549486
 30
3.332
 70
    64
  0
VERTEX
  5
64AE7
100
AcDbEntity
  8
0
100
AcDbVertex
100
AcDbPolygonMeshVertex
 10
1.1227
 20
-0.894486
 30
3.332
 70
    64
  0
VERTEX
  5
64AE8
100
AcDbEntity
  8
0
100
AcDbVertex
100
AcDbPolygonMeshVertex
 10
0.9877
 20
-0.549486
 30
3.332
 70
    64
  0
VERTEX
  5
64AE9
100
AcDbEntity
  8
0
100
AcDbVertex
100
AcDbPolygonMeshVertex
 10
0.9877
 20
-0.549486
 30
3.332
 70
    64
  0
VERTEX
  5
64AEA
100
AcDbEntity
  8
0
100
AcDbVertex
100
AcDbPolygonMeshVertex
 10
0.9877
 20
-0.894486
 30
3.332
 70
    64
  0
SEQEND
  5
64AEB
100
AcDbEntity
  8
0
  0
3DFACE
  5
64AEC
100
AcDbEntity
  8
0
100
AcDbFace
 10
1.7652
 20
0.3985
 30
3.082
 11
1.7652
 21
0.3985
 31
3.082
 12
0.0002
 22
0.3985
 32
3.082
 13
0.0002
 23
0.3985
 33
3.082
  0
CIRCLE
  5
64AED
100
AcDbEntity
  8
0
100
AcDbCircle
 10
0.238075
 20
0.154908
 30
3.082
 40
0.138
  0
TEXT
  5
64AEE
100
AcDbEntity
  8
0
100
AcDbText
 10
0.072617
 20
0.301596
 30
3.082
 40
0.083465
  1
1
100
AcDbText
  0
TEXT
  5
64AEF
100
AcDbEntity
  8
0
100
AcDbText
 10
1.169566
 20
0.304736
 30
3.082
 40
0.083465
  1
L3
100
AcDbText
  0
CIRCLE
  5
64AF0
100
AcDbEntity
  8
0
100
AcDbCircle
 10
0.667825
 20
0.154908
 30
3.082
 40
0.138
  0
TEXT
  5
64AF1
100
AcDbEntity
  8
0
100
AcDbText
 10
0.763019
 20
0.301324
 30
3.082
 40
0.083465
  1
L2
100
AcDbText
  0
TEXT
  5
64AF2
100
AcDbEntity
  8
0
100
AcDbText
 10
0.336395
 20
0.300754
 30
3.082
 40
0.083465
  1
L1
100
AcDbText
  0
TEXT
  5
64AF3
100
AcDbEntity
  8
0
100
AcDbText
 10
0.523368
 20
0.299912
 30
3.082
 40
0.083465
  1
3
100
AcDbText
  0
TEXT
  5
64AF4
100
AcDbEntity
  8
0
100
AcDbText
 10
0.964902
 20
0.302735
 30
3.082
 40
0.083465
  1
5
100
AcDbText
  0
CIRCLE
  5
64AF5
100
AcDbEntity
  8
0
100
AcDbCircle
 10
1.097575
 20
0.154908
 30
3.082
 40
0.138
  0
TEXT
  5
64AF6
100
AcDbEntity
  8
0
100
AcDbText
 10
1.599316
 20
0.304736
 30
3.082
 40
0.083465
  1
NC
100
AcDbText
  0
TEXT
  5
64AF7
100
AcDbEntity
  8
0
100
AcDbText
 10
1.370108
 20
0.302735
 30
3.082
 40
0.083465
  1
21
100
AcDbText
  0
CIRCLE
  5
64AF8
100
AcDbEntity
  8
0
100
AcDbCircle
 10
1.527325
 20
0.154908
 30
3.082
 40
0.138
  0
POLYLINE
  5
64AF9
100
AcDbEntity
  8
0
100
AcDbPolygonMesh
 66
     1
 10
0.0
 20
0.0
 30
0.0
 70
    16
 71
     6
 72
     3
  0
VERTEX
  5
64AFA
100
AcDbEntity
  8
0
100
AcDbVertex
100
AcDbPolygonMeshVertex
 10
1.2707
 20
-1.376486
 30
3.282
 70
    64
  0
VERTEX
  5
64AFB
100
AcDbEntity
  8
0
100
AcDbVertex
100
AcDbPolygonMeshVertex
 10
1.2707
 20
-1.376486
 30
3.082
 70
    64
  0
VERTEX
  5
64AFC
100
AcDbEntity
  8
0
100
AcDbVertex
100
AcDbPolygonMeshVertex
 10
1.2707
 20
-1.376486
 30
3.082
 70
    64
  0
VERTEX
  5
64AFD
100
AcDbEntity
  8
0
100
AcDbVertex
100
AcDbPolygonMeshVertex
 10
0.4997
 20
-1.376486
 30
3.282
 70
    64
  0
VERTEX
  5
64AFE
100
AcDbEntity
  8
0
100
AcDbVertex
100
AcDbPolygonMeshVertex
 10
0.4997
 20
-1.376486
 30
3.082
 70
    64
  0
VERTEX
  5
64AFF
100
AcDbEntity
  8
0
100
AcDbVertex
100
AcDbPolygonMeshVertex
 10
0.4997
 20
-1.376486
 30
3.082
 70
    64
  0
VERTEX
  5
64B00
100
AcDbEntity
  8
0
100
AcDbVertex
100
AcDbPolygonMeshVertex
 10
0.4997
 20
-1.094486
 30
3.282
 70
    64
  0
VERTEX
  5
64B01
100
AcDbEntity
  8
0
100
AcDbVertex
100
AcDbPolygonMeshVertex
 10
0.4997
 20
-1.094486
 30
3.082
 70
    64
  0
VERTEX
  5
64B02
100
AcDbEntity
  8
0
100
AcDbVertex
100
AcDbPolygonMeshVertex
 10
0.4997
 20
-1.376486
 30
3.082
 70
    64
  0
VERTEX
  5
64B03
100
AcDbEntity
  8
0
100
AcDbVertex
100
AcDbPolygonMeshVertex
 10
1.2707
 20
-1.094486
 30
3.282
 70
    64
  0
VERTEX
  5
64B04
100
AcDbEntity
  8
0
100
AcDbVertex
100
AcDbPolygonMeshVertex
 10
1.2707
 20
-1.094486
 30
3.082
 70
    64
  0
VERTEX
  5
64B05
100
AcDbEntity
  8
0
100
AcDbVertex
100
AcDbPolygonMeshVertex
 10
1.2707
 20
-1.376486
 30
3.082
 70
    64
  0
VERTEX
  5
64B06
100
AcDbEntity
  8
0
100
AcDbVertex
100
AcDbPolygonMeshVertex
 10
1.2707
 20
-1.094486
 30
3.282
 70
    64
  0
VERTEX
  5
64B07
100
AcDbEntity
  8
0
100
AcDbVertex
100
AcDbPolygonMeshVertex
 10
1.2707
 20
-1.094486
 30
3.282
 70
    64
  0
VERTEX
  5
64B08
100
AcDbEntity
  8
0
100
AcDbVertex
100
AcDbPolygonMeshVertex
 10
1.2707
 20
-1.376486
 30
3.282
 70
    64
  0
VERTEX
  5
64B09
100
AcDbEntity
  8
0
100
AcDbVertex
100
AcDbPolygonMeshVertex
 10
0.4997
 20
-1.094486
 30
3.282
 70
    64
  0
VERTEX
  5
64B0A
100
AcDbEntity
  8
0
100
AcDbVertex
100
AcDbPolygonMeshVertex
 10
0.4997
 20
-1.094486
 30
3.282
 70
    64
  0
VERTEX
  5
64B0B
100
AcDbEntity
  8
0
100
AcDbVertex
100
AcDbPolygonMeshVertex
 10
0.4997
 20
-1.376486
 30
3.282
 70
    64
  0
SEQEND
  5
64B0C
100
AcDbEntity
  8
0
  0
POLYLINE
  5
64B0D
100
AcDbEntity
  8
0
100
AcDbPolygonMesh
 66
     1
 10
0.0
 20
0.0
 30
0.0
 70
    16
 71
     6
 72
     3
  0
VERTEX
  5
64B0E
100
AcDbEntity
  8
0
100
AcDbVertex
100
AcDbPolygonMeshVertex
 10
1.2507
 20
-0.439486
 30
3.116
 70
    64
  0
VERTEX
  5
64B0F
100
AcDbEntity
  8
0
100
AcDbVertex
100
AcDbPolygonMeshVertex
 10
1.2507
 20
-0.439486
 30
3.082
 70
    64
  0
VERTEX
  5
64B10
100
AcDbEntity
  8
0
100
AcDbVertex
100
AcDbPolygonMeshVertex
 10
1.2507
 20
-0.439486
 30
3.082
 70
    64
  0
VERTEX
  5
64B11
100
AcDbEntity
  8
0
100
AcDbVertex
100
AcDbPolygonMeshVertex
 10
0.5197
 20
-0.439486
 30
3.116
 70
    64
  0
VERTEX
  5
64B12
100
AcDbEntity
  8
0
100
AcDbVertex
100
AcDbPolygonMeshVertex
 10
0.5197
 20
-0.439486
 30
3.082
 70
    64
  0
VERTEX
  5
64B13
100
AcDbEntity
  8
0
100
AcDbVertex
100
AcDbPolygonMeshVertex
 10
0.5197
 20
-0.439486
 30
3.082
 70
    64
  0
VERTEX
  5
64B14
100
AcDbEntity
  8
0
100
AcDbVertex
100
AcDbPolygonMeshVertex
 10
0.5197
 20
-0.086486
 30
3.116
 70
    64
  0
VERTEX
  5
64B15
100
AcDbEntity
  8
0
100
AcDbVertex
100
AcDbPolygonMeshVertex
 10
0.5197
 20
-0.086486
 30
3.082
 70
    64
  0
VERTEX
  5
64B16
100
AcDbEntity
  8
0
100
AcDbVertex
100
AcDbPolygonMeshVertex
 10
0.5197
 20
-0.439486
 30
3.082
 70
    64
  0
VERTEX
  5
64B17
100
AcDbEntity
  8
0
100
AcDbVertex
100
AcDbPolygonMeshVertex
 10
1.2507
 20
-0.086486
 30
3.116
 70
    64
  0
VERTEX
  5
64B18
100
AcDbEntity
  8
0
100
AcDbVertex
100
AcDbPolygonMeshVertex
 10
1.2507
 20
-0.086486
 30
3.082
 70
    64
  0
VERTEX
  5
64B19
100
AcDbEntity
  8
0
100
AcDbVertex
100
AcDbPolygonMeshVertex
 10
1.2507
 20
-0.439486
 30
3.082
 70
    64
  0
VERTEX
  5
64B1A
100
AcDbEntity
  8
0
100
AcDbVertex
100
AcDbPolygonMeshVertex
 10
1.2507
 20
-0.086486
 30
3.116
 70
    64
  0
VERTEX
  5
64B1B
100
AcDbEntity
  8
0
100
AcDbVertex
100
AcDbPolygonMeshVertex
 10
1.2507
 20
-0.086486
 30
3.116
 70
    64
  0
VERTEX
  5
64B1C
100
AcDbEntity
  8
0
100
AcDbVertex
100
AcDbPolygonMeshVertex
 10
1.2507
 20
-0.439486
 30
3.116
 70
    64
  0
VERTEX
  5
64B1D
100
AcDbEntity
  8
0
100
AcDbVertex
100
AcDbPolygonMeshVertex
 10
0.5197
 20
-0.086486
 30
3.116
 70
    64
  0
VERTEX
  5
64B1E
100
AcDbEntity
  8
0
100
AcDbVertex
100
AcDbPolygonMeshVertex
 10
0.5197
 20
-0.086486
 30
3.116
 70
    64
  0
VERTEX
  5
64B1F
100
AcDbEntity
  8
0
100
AcDbVertex
100
AcDbPolygonMeshVertex
 10
0.5197
 20
-0.439486
 30
3.116
 70
    64
  0
SEQEND
  5
64B20
100
AcDbEntity
  8
0
  0
POLYLINE
  5
64B21
100
AcDbEntity
  8
0
100
AcDbPolygonMesh
 66
     1
 10
0.0
 20
0.0
 30
0.0
 70
    16
 71
     6
 72
     3
  0
VERTEX
  5
64B22
100
AcDbEntity
  8
0
100
AcDbVertex
100
AcDbPolygonMeshVertex
 10
0.6892
 20
-0.439486
 30
3.293
 70
    64
  0
VERTEX
  5
64B23
100
AcDbEntity
  8
0
100
AcDbVertex
100
AcDbPolygonMeshVertex
 10
0.6892
 20
-0.439486
 30
3.116
 70
    64
  0
VERTEX
  5
64B24
100
AcDbEntity
  8
0
100
AcDbVertex
100
AcDbPolygonMeshVertex
 10
0.6892
 20
-0.439486
 30
3.116
 70
    64
  0
VERTEX
  5
64B25
100
AcDbEntity
  8
0
100
AcDbVertex
100
AcDbPolygonMeshVertex
 10
0.5197
 20
-0.439486
 30
3.293
 70
    64
  0
VERTEX
  5
64B26
100
AcDbEntity
  8
0
100
AcDbVertex
100
AcDbPolygonMeshVertex
 10
0.5197
 20
-0.439486
 30
3.116
 70
    64
  0
VERTEX
  5
64B27
100
AcDbEntity
  8
0
100
AcDbVertex
100
AcDbPolygonMeshVertex
 10
0.5197
 20
-0.439486
 30
3.116
 70
    64
  0
VERTEX
  5
64B28
100
AcDbEntity
  8
0
100
AcDbVertex
100
AcDbPolygonMeshVertex
 10
0.5197
 20
-0.086486
 30
3.293
 70
    64
  0
VERTEX
  5
64B29
100
AcDbEntity
  8
0
100
AcDbVertex
100
AcDbPolygonMeshVertex
 10
0.5197
 20
-0.086486
 30
3.116
 70
    64
  0
VERTEX
  5
64B2A
100
AcDbEntity
  8
0
100
AcDbVertex
100
AcDbPolygonMeshVertex
 10
0.5197
 20
-0.439486
 30
3.116
 70
    64
  0
VERTEX
  5
64B2B
100
AcDbEntity
  8
0
100
AcDbVertex
100
AcDbPolygonMeshVertex
 10
0.6892
 20
-0.086486
 30
3.293
 70
    64
  0
VERTEX
  5
64B2C
100
AcDbEntity
  8
0
100
AcDbVertex
100
AcDbPolygonMeshVertex
 10
0.6892
 20
-0.086486
 30
3.116
 70
    64
  0
VERTEX
  5
64B2D
100
AcDbEntity
  8
0
100
AcDbVertex
100
AcDbPolygonMeshVertex
 10
0.6892
 20
-0.439486
 30
3.116
 70
    64
  0
VERTEX
  5
64B2E
100
AcDbEntity
  8
0
100
AcDbVertex
100
AcDbPolygonMeshVertex
 10
0.6892
 20
-0.086486
 30
3.293
 70
    64
  0
VERTEX
  5
64B2F
100
AcDbEntity
  8
0
100
AcDbVertex
100
AcDbPolygonMeshVertex
 10
0.6892
 20
-0.086486
 30
3.293
 70
    64
  0
VERTEX
  5
64B30
100
AcDbEntity
  8
0
100
AcDbVertex
100
AcDbPolygonMeshVertex
 10
0.6892
 20
-0.439486
 30
3.293
 70
    64
  0
VERTEX
  5
64B31
100
AcDbEntity
  8
0
100
AcDbVertex
100
AcDbPolygonMeshVertex
 10
0.5197
 20
-0.086486
 30
3.293
 70
    64
  0
VERTEX
  5
64B32
100
AcDbEntity
  8
0
100
AcDbVertex
100
AcDbPolygonMeshVertex
 10
0.5197
 20
-0.086486
 30
3.293
 70
    64
  0
VERTEX
  5
64B33
100
AcDbEntity
  8
0
100
AcDbVertex
100
AcDbPolygonMeshVertex
 10
0.5197
 20
-0.439486
 30
3.293
 70
    64
  0
SEQEND
  5
64B34
100
AcDbEntity
  8
0
  0
POLYLINE
  5
64B35
100
AcDbEntity
  8
0
100
AcDbPolygonMesh
 66
     1
 10
0.0
 20
0.0
 30
0.0
 70
    16
 71
     6
 72
     3
  0
VERTEX
  5
64B36
100
AcDbEntity
  8
0
100
AcDbVertex
100
AcDbPolygonMeshVertex
 10
0.7827
 20
-0.894486
 30
3.332
 70
    64
  0
VERTEX
  5
64B37
100
AcDbEntity
  8
0
100
AcDbVertex
100
AcDbPolygonMeshVertex
 10
0.7827
 20
-0.894486
 30
3.116
 70
    64
  0
VERTEX
  5
64B38
100
AcDbEntity
  8
0
100
AcDbVertex
100
AcDbPolygonMeshVertex
 10
0.7827
 20
-0.894486
 30
3.116
 70
    64
  0
VERTEX
  5
64B39
100
AcDbEntity
  8
0
100
AcDbVertex
100
AcDbPolygonMeshVertex
 10
0.6477
 20
-0.894486
 30
3.332
 70
    64
  0
VERTEX
  5
64B3A
100
AcDbEntity
  8
0
100
AcDbVertex
100
AcDbPolygonMeshVertex
 10
0.6477
 20
-0.894486
 30
3.116
 70
    64
  0
VERTEX
  5
64B3B
100
AcDbEntity
  8
0
100
AcDbVertex
100
AcDbPolygonMeshVertex
 10
0.6477
 20
-0.894486
 30
3.116
 70
    64
  0
VERTEX
  5
64B3C
100
AcDbEntity
  8
0
100
AcDbVertex
100
AcDbPolygonMeshVertex
 10
0.6477
 20
-0.549486
 30
3.332
 70
    64
  0
VERTEX
  5
64B3D
100
AcDbEntity
  8
0
100
AcDbVertex
100
AcDbPolygonMeshVertex
 10
0.6477
 20
-0.549486
 30
3.116
 70
    64
  0
VERTEX
  5
64B3E
100
AcDbEntity
  8
0
100
AcDbVertex
100
AcDbPolygonMeshVertex
 10
0.6477
 20
-0.894486
 30
3.116
 70
    64
  0
VERTEX
  5
64B3F
100
AcDbEntity
  8
0
100
AcDbVertex
100
AcDbPolygonMeshVertex
 10
0.7827
 20
-0.549486
 30
3.332
 70
    64
  0
VERTEX
  5
64B40
100
AcDbEntity
  8
0
100
AcDbVertex
100
AcDbPolygonMeshVertex
 10
0.7827
 20
-0.549486
 30
3.116
 70
    64
  0
VERTEX
  5
64B41
100
AcDbEntity
  8
0
100
AcDbVertex
100
AcDbPolygonMeshVertex
 10
0.7827
 20
-0.894486
 30
3.116
 70
    64
  0
VERTEX
  5
64B42
100
AcDbEntity
  8
0
100
AcDbVertex
100
AcDbPolygonMeshVertex
 10
0.7827
 20
-0.549486
 30
3.332
 70
    64
  0
VERTEX
  5
64B43
100
AcDbEntity
  8
0
100
AcDbVertex
100
AcDbPolygonMeshVertex
 10
0.7827
 20
-0.549486
 30
3.332
 70
    64
  0
VERTEX
  5
64B44
100
AcDbEntity
  8
0
100
AcDbVertex
100
AcDbPolygonMeshVertex
 10
0.7827
 20
-0.894486
 30
3.332
 70
    64
  0
VERTEX
  5
64B45
100
AcDbEntity
  8
0
100
AcDbVertex
100
AcDbPolygonMeshVertex
 10
0.6477
 20
-0.549486
 30
3.332
 70
    64
  0
VERTEX
  5
64B46
100
AcDbEntity
  8
0
100
AcDbVertex
100
AcDbPolygonMeshVertex
 10
0.6477
 20
-0.549486
 30
3.332
 70
    64
  0
VERTEX
  5
64B47
100
AcDbEntity
  8
0
100
AcDbVertex
100
AcDbPolygonMeshVertex
 10
0.6477
 20
-0.894486
 30
3.332
 70
    64
  0
SEQEND
  5
64B48
100
AcDbEntity
  8
0
  0
TEXT
  5
64B49
100
AcDbEntity
  8
0
100
AcDbText
 10
0.749721
 20
-1.819571
 30
3.082
 40
0.083465
  1
T2
100
AcDbText
  0
TEXT
  5
64B4A
100
AcDbEntity
  8
0
100
AcDbText
 10
0.968772
 20
-1.820413
 30
3.082
 40
0.083465
  1
6
100
AcDbText
  0
POLYLINE
  5
64B4B
100
AcDbEntity
  8
0
100
AcDbPolygonMesh
 66
     1
 10
0.0
 20
0.0
 30
0.0
 70
    16
 71
     6
 72
     3
  0
VERTEX
  5
64B4C
100
AcDbEntity
  8
0
100
AcDbVertex
100
AcDbPolygonMeshVertex
 10
1.1227
 20
-0.894486
 30
3.116
 70
    64
  0
VERTEX
  5
64B4D
100
AcDbEntity
  8
0
100
AcDbVertex
100
AcDbPolygonMeshVertex
 10
1.1227
 20
-0.894486
 30
3.082
 70
    64
  0
VERTEX
  5
64B4E
100
AcDbEntity
  8
0
100
AcDbVertex
100
AcDbPolygonMeshVertex
 10
1.1227
 20
-0.894486
 30
3.082
 70
    64
  0
VERTEX
  5
64B4F
100
AcDbEntity
  8
0
100
AcDbVertex
100
AcDbPolygonMeshVertex
 10
0.6477
 20
-0.894486
 30
3.116
 70
    64
  0
VERTEX
  5
64B50
100
AcDbEntity
  8
0
100
AcDbVertex
100
AcDbPolygonMeshVertex
 10
0.6477
 20
-0.894486
 30
3.082
 70
    64
  0
VERTEX
  5
64B51
100
AcDbEntity
  8
0
100
AcDbVertex
100
AcDbPolygonMeshVertex
 10
0.6477
 20
-0.894486
 30
3.082
 70
    64
  0
VERTEX
  5
64B52
100
AcDbEntity
  8
0
100
AcDbVertex
100
AcDbPolygonMeshVertex
 10
0.6477
 20
-0.549486
 30
3.116
 70
    64
  0
VERTEX
  5
64B53
100
AcDbEntity
  8
0
100
AcDbVertex
100
AcDbPolygonMeshVertex
 10
0.6477
 20
-0.549486
 30
3.082
 70
    64
  0
VERTEX
  5
64B54
100
AcDbEntity
  8
0
100
AcDbVertex
100
AcDbPolygonMeshVertex
 10
0.6477
 20
-0.894486
 30
3.082
 70
    64
  0
VERTEX
  5
64B55
100
AcDbEntity
  8
0
100
AcDbVertex
100
AcDbPolygonMeshVertex
 10
1.1227
 20
-0.549486
 30
3.116
 70
    64
  0
VERTEX
  5
64B56
100
AcDbEntity
  8
0
100
AcDbVertex
100
AcDbPolygonMeshVertex
 10
1.1227
 20
-0.549486
 30
3.082
 70
    64
  0
VERTEX
  5
64B57
100
AcDbEntity
  8
0
100
AcDbVertex
100
AcDbPolygonMeshVertex
 10
1.1227
 20
-0.894486
 30
3.082
 70
    64
  0
VERTEX
  5
64B58
100
AcDbEntity
  8
0
100
AcDbVertex
100
AcDbPolygonMeshVertex
 10
1.1227
 20
-0.549486
 30
3.116
 70
    64
  0
VERTEX
  5
64B59
100
AcDbEntity
  8
0
100
AcDbVertex
100
AcDbPolygonMeshVertex
 10
1.1227
 20
-0.549486
 30
3.116
 70
    64
  0
VERTEX
  5
64B5A
100
AcDbEntity
  8
0
100
AcDbVertex
100
AcDbPolygonMeshVertex
 10
1.1227
 20
-0.894486
 30
3.116
 70
    64
  0
VERTEX
  5
64B5B
100
AcDbEntity
  8
0
100
AcDbVertex
100
AcDbPolygonMeshVertex
 10
0.6477
 20
-0.549486
 30
3.116
 70
    64
  0
VERTEX
  5
64B5C
100
AcDbEntity
  8
0
100
AcDbVertex
100
AcDbPolygonMeshVertex
 10
0.6477
 20
-0.549486
 30
3.116
 70
    64
  0
VERTEX
  5
64B5D
100
AcDbEntity
  8
0
100
AcDbVertex
100
AcDbPolygonMeshVertex
 10
0.6477
 20
-0.894486
 30
3.116
 70
    64
  0
SEQEND
  5
64B5E
100
AcDbEntity
  8
0
  0
TEXT
  5
64B5F
100
AcDbEntity
  8
0
100
AcDbText
 10
1.168744
 20
-1.819002
 30
3.082
 40
0.083465
  1
T3
100
AcDbText
  0
TEXT
  5
64B60
100
AcDbEntity
  8
0
100
AcDbText
 10
0.325012
 20
-1.817525
 30
3.082
 40
0.083465
  1
T1
100
AcDbText
  0
CIRCLE
  5
64B61
100
AcDbEntity
  8
0
100
AcDbCircle
 10
0.238075
 20
-1.58788
 30
3.082
 40
0.138
  0
TEXT
  5
64B62
100
AcDbEntity
  8
0
100
AcDbText
 10
0.080559
 20
-1.821552
 30
3.082
 40
0.083465
  1
2
100
AcDbText
  0
TEXT
  5
64B63
100
AcDbEntity
  8
0
100
AcDbText
 10
1.598494
 20
-1.819002
 30
3.082
 40
0.083465
  1
NC
100
AcDbText
  0
TEXT
  5
64B64
100
AcDbEntity
  8
0
100
AcDbText
 10
1.398522
 20
-1.820413
 30
3.082
 40
0.083465
  1
22
100
AcDbText
  0
LWPOLYLINE
  5
64B65
100
AcDbEntity
  8
0
100
AcDbPolyline
 90
        2
 70
     0
 43
0.0
 38
2.06
 10
0.0002
 20
-1.8455
 10
0.0002
 20
0.3985
  0
POLYLINE
  5
64B66
100
AcDbEntity
  8
0
100
AcDbPolygonMesh
 66
     1
 10
0.0
 20
0.0
 30
0.0
 70
    16
 71
     6
 72
     3
  0
VERTEX
  5
64B67
100
AcDbEntity
  8
0
100
AcDbVertex
100
AcDbPolygonMeshVertex
 10
1.7652
 20
-1.8455
 30
3.082
 70
    64
  0
VERTEX
  5
64B68
100
AcDbEntity
  8
0
100
AcDbVertex
100
AcDbPolygonMeshVertex
 10
1.7652
 20
-1.8455
 30
2.06
 70
    64
  0
VERTEX
  5
64B69
100
AcDbEntity
  8
0
100
AcDbVertex
100
AcDbPolygonMeshVertex
 10
1.7652
 20
-1.8455
 30
2.06
 70
    64
  0
VERTEX
  5
64B6A
100
AcDbEntity
  8
0
100
AcDbVertex
100
AcDbPolygonMeshVertex
 10
0.0002
 20
-1.8455
 30
3.082
 70
    64
  0
VERTEX
  5
64B6B
100
AcDbEntity
  8
0
100
AcDbVertex
100
AcDbPolygonMeshVertex
 10
0.0002
 20
-1.8455
 30
2.06
 70
    64
  0
VERTEX
  5
64B6C
100
AcDbEntity
  8
0
100
AcDbVertex
100
AcDbPolygonMeshVertex
 10
0.0002
 20
-1.8455
 30
2.06
 70
    64
  0
VERTEX
  5
64B6D
100
AcDbEntity
  8
0
100
AcDbVertex
100
AcDbPolygonMeshVertex
 10
0.0002
 20
0.398971
 30
3.082
 70
    64
  0
VERTEX
  5
64B6E
100
AcDbEntity
  8
0
100
AcDbVertex
100
AcDbPolygonMeshVertex
 10
0.0002
 20
0.398971
 30
2.06
 70
    64
  0
VERTEX
  5
64B6F
100
AcDbEntity
  8
0
100
AcDbVertex
100
AcDbPolygonMeshVertex
 10
0.0002
 20
-1.8455
 30
2.06
 70
    64
  0
VERTEX
  5
64B70
100
AcDbEntity
  8
0
100
AcDbVertex
100
AcDbPolygonMeshVertex
 10
1.7652
 20
0.398971
 30
3.082
 70
    64
  0
VERTEX
  5
64B71
100
AcDbEntity
  8
0
100
AcDbVertex
100
AcDbPolygonMeshVertex
 10
1.7652
 20
0.398971
 30
2.06
 70
    64
  0
VERTEX
  5
64B72
100
AcDbEntity
  8
0
100
AcDbVertex
100
AcDbPolygonMeshVertex
 10
1.7652
 20
-1.8455
 30
2.06
 70
    64
  0
VERTEX
  5
64B73
100
AcDbEntity
  8
0
100
AcDbVertex
100
AcDbPolygonMeshVertex
 10
1.7652
 20
0.398971
 30
3.082
 70
    64
  0
VERTEX
  5
64B74
100
AcDbEntity
  8
0
100
AcDbVertex
100
AcDbPolygonMeshVertex
 10
1.7652
 20
0.398971
 30
3.082
 70
    64
  0
VERTEX
  5
64B75
100
AcDbEntity
  8
0
100
AcDbVertex
100
AcDbPolygonMeshVertex
 10
1.7652
 20
-1.8455
 30
3.082
 70
    64
  0
VERTEX
  5
64B76
100
AcDbEntity
  8
0
100
AcDbVertex
100
AcDbPolygonMeshVertex
 10
0.0002
 20
0.398971
 30
3.082
 70
    64
  0
VERTEX
  5
64B77
100
AcDbEntity
  8
0
100
AcDbVertex
100
AcDbPolygonMeshVertex
 10
0.0002
 20
0.398971
 30
3.082
 70
    64
  0
VERTEX
  5
64B78
100
AcDbEntity
  8
0
100
AcDbVertex
100
AcDbPolygonMeshVertex
 10
0.0002
 20
-1.8455
 30
3.082
 70
    64
  0
SEQEND
  5
64B79
100
AcDbEntity
  8
0
  0
POINT
  5
64B7A
100
AcDbEntity
  8
SNAP_POINTS
100
AcDbPoint
 10
-0.00001
 20
-0.7735
 30
2.0685
  0
POLYLINE
  5
64B7B
100
AcDbEntity
  8
0
100
AcDb3dPolyline
 66
     1
 10
0.0
 20
0.0
 30
0.0
 70
     8
  0
VERTEX
  5
64B7C
100
AcDbEntity
  8
0
100
AcDbVertex
100
AcDb3dPolylineVertex
 10
1.76541
 20
-0.6405
 30
1.592
 70
    32
  0
VERTEX
  5
64B7D
100
AcDbEntity
  8
0
100
AcDbVertex
100
AcDb3dPolylineVertex
 10
1.76541
 20
-0.6405
 30
2.165
 70
    32
  0
VERTEX
  5
64B7E
100
AcDbEntity
  8
0
100
AcDbVertex
100
AcDb3dPolylineVertex
 10
1.76541
 20
-0.8065
 30
2.165
 70
    32
  0
VERTEX
  5
64B7F
100
AcDbEntity
  8
0
100
AcDbVertex
100
AcDb3dPolylineVertex
 10
1.76541
 20
-0.8065
 30
1.592
 70
    32
  0
VERTEX
  5
64B80
100
AcDbEntity
  8
0
100
AcDbVertex
100
AcDb3dPolylineVertex
 10
1.76541
 20
-0.6405
 30
1.592
 70
    32
  0
SEQEND
  5
64B81
100
AcDbEntity
  8
0
  0
LINE
  5
64B82
100
AcDbEntity
  8
0
100
AcDbLine
 10
1.76541
 20
-0.8065
 30
1.8785
 11
1.76541
 21
-0.6405
 31
1.8785
  0
POINT
  5
64B83
100
AcDbEntity
  8
SNAP_POINTS
100
AcDbPoint
 10
1.76541
 20
-0.6735
 30
2.0685
  0
LINE
  5
64B84
100
AcDbEntity
  8
0
100
AcDbLine
 10
1.76541
 20
-0.8065
 30
2.0685
 11
1.76541
 21
-0.6405
 31
2.0685
  0
POINT
  5
64B85
100
AcDbEntity
  8
SNAP_POINTS
100
AcDbPoint
 10
0.8852
 20
-0.721986
 30
3.116
  0
LINE
  5
64B86
100
AcDbEntity
  8
0
100
AcDbLine
 10
1.0657
 20
-2.4055
 30
1.839
 11
1.3827
 21
-2.4055
 31
1.839
  0
LINE
  5
64B87
100
AcDbEntity
  8
0
100
AcDbLine
 10
1.3827
 20
-2.4055
 30
1.839
 11
1.3827
 21
-2.4055
 31
1.639
  0
LINE
  5
64B88
100
AcDbEntity
  8
0
100
AcDbLine
 10
1.0657
 20
-2.4055
 30
1.639
 11
1.3827
 21
-2.4055
 31
1.639
  0
LINE
  5
64B89
100
AcDbEntity
  8
0
100
AcDbLine
 10
1.0657
 20
-2.4055
 30
1.839
 11
1.0657
 21
-2.4055
 31
1.639
  0
POINT
  5
64B8A
100
AcDbEntity
  8
SNAP_POINTS
100
AcDbPoint
 10
1.0657
 20
-2.4055
 30
1.639
  0
LINE
  5
64B8B
100
AcDbEntity
  8
0
100
AcDbLine
 10
0.7047
 20
-2.4055
 30
1.839
 11
0.7047
 21
-2.4055
 31
1.639
  0
LINE
  5
64B8C
100
AcDbEntity
  8
0
100
AcDbLine
 10
0.7047
 20
-2.4055
 30
1.639
 11
0.3877
 21
-2.4055
 31
1.639
  0
LINE
  5
64B8D
100
AcDbEntity
  8
0
100
AcDbLine
 10
0.7047
 20
-2.4055
 30
1.839
 11
0.3877
 21
-2.4055
 31
1.839
  0
LINE
  5
64B8E
100
AcDbEntity
  8
0
100
AcDbLine
 10
0.3877
 20
-2.4055
 30
1.839
 11
0.3877
 21
-2.4055
 31
1.639
  0
POINT
  5
64B8F
100
AcDbEntity
  8
DIMS-MTG-HOLES
100
AcDbPoint
 10
0.1912
 20
-1.9345
 30
0.0
  0
POINT
  5
64B90
100
AcDbEntity
  8
DIMS-MTG-HOLES
100
AcDbPoint
 10
1.5712
 20
0.4255
 30
0.0
  0
LWPOLYLINE
  5
64B91
100
AcDbEntity
  8
0
100
AcDbPolyline
 90
        6
 70
     0
 43
0.0
 38
3.082
 10
1.507325
 20
0.291451
 10
1.507325
 20
0.174908
 10
1.447325
 20
0.174908
 10
1.447325
 20
0.134908
 10
1.507325
 20
0.134908
 10
1.507325
 20
0.018365
  0
LWPOLYLINE
  5
64B92
100
AcDbEntity
  8
0
100
AcDbPolyline
 90
        6
 70
     0
 43
0.0
 38
3.082
 10
1.547325
 20
0.291451
 10
1.547325
 20
0.174908
 10
1.607325
 20
0.174908
 10
1.607325
 20
0.134908
 10
1.547325
 20
0.134908
 10
1.547325
 20
0.018365
  0
LWPOLYLINE
  5
64B93
100
AcDbEntity
  8
0
100
AcDbPolyline
 90
        6
 70
     0
 43
0.0
 38
3.082
 10
1.077575
 20
0.291451
 10
1.077575
 20
0.174908
 10
1.017575
 20
0.174908
 10
1.017575
 20
0.134908
 10
1.077575
 20
0.134908
 10
1.077575
 20
0.018365
  0
LWPOLYLINE
  5
64B94
100
AcDbEntity
  8
0
100
AcDbPolyline
 90
        6
 70
     0
 43
0.0
 38
3.082
 10
1.117575
 20
0.291451
 10
1.117575
 20
0.174908
 10
1.177575
 20
0.174908
 10
1.177575
 20
0.134908
 10
1.117575
 20
0.134908
 10
1.117575
 20
0.018365
  0
LWPOLYLINE
  5
64B95
100
AcDbEntity
  8
0
100
AcDbPolyline
 90
        6
 70
     0
 43
0.0
 38
3.082
 10
0.687825
 20
0.291451
 10
0.687825
 20
0.174908
 10
0.747825
 20
0.174908
 10
0.747825
 20
0.134908
 10
0.687825
 20
0.134908
 10
0.687825
 20
0.018365
  0
LWPOLYLINE
  5
64B96
100
AcDbEntity
  8
0
100
AcDbPolyline
 90
        6
 70
     0
 43
0.0
 38
3.082
 10
0.647825
 20
0.291451
 10
0.647825
 20
0.174908
 10
0.587825
 20
0.174908
 10
0.587825
 20
0.134908
 10
0.647825
 20
0.134908
 10
0.647825
 20
0.018365
  0
LWPOLYLINE
  5
64B97
100
AcDbEntity
  8
0
100
AcDbPolyline
 90
        6
 70
     0
 43
0.0
 38
3.082
 10
0.258075
 20
0.291451
 10
0.258075
 20
0.174908
 10
0.318075
 20
0.174908
 10
0.318075
 20
0.134908
 10
0.258075
 20
0.134908
 10
0.258075
 20
0.018365
  0
LWPOLYLINE
  5
64B98
100
AcDbEntity
  8
0
100
AcDbPolyline
 90
        6
 70
     0
 43
0.0
 38
3.082
 10
0.218075
 20
0.291451
 10
0.218075
 20
0.174908
 10
0.158075
 20
0.174908
 10
0.158075
 20
0.134908
 10
0.218075
 20
0.134908
 10
0.218075
 20
0.018365
  0
CIRCLE
  5
64B99
100
AcDbEntity
  8
0
100
AcDbCircle
 10
0.667825
 20
-1.58788
 30
3.082
 40
0.138
  0
LWPOLYLINE
  5
64B9A
100
AcDbEntity
  8
0
100
AcDbPolyline
 90
        6
 70
     0
 43
0.0
 38
3.082
 10
0.647825
 20
-1.451337
 10
0.647825
 20
-1.56788
 10
0.587825
 20
-1.56788
 10
0.587825
 20
-1.60788
 10
0.647825
 20
-1.60788
 10
0.647825
 20
-1.724423
  0
LWPOLYLINE
  5
64B9B
100
AcDbEntity
  8
0
100
AcDbPolyline
 90
        6
 70
     0
 43
0.0
 38
3.082
 10
0.687825
 20
-1.451337
 10
0.687825
 20
-1.56788
 10
0.747825
 20
-1.56788
 10
0.747825
 20
-1.60788
 10
0.687825
 20
-1.60788
 10
0.687825
 20
-1.724423
  0
LWPOLYLINE
  5
64B9C
100
AcDbEntity
  8
0
100
AcDbPolyline
 90
        6
 70
     0
 43
0.0
 38
3.082
 10
1.117575
 20
-1.451337
 10
1.117575
 20
-1.56788
 10
1.177575
 20
-1.56788
 10
1.177575
 20
-1.60788
 10
1.117575
 20
-1.60788
 10
1.117575
 20
-1.724423
  0
LWPOLYLINE
  5
64B9D
100
AcDbEntity
  8
0
100
AcDbPolyline
 90
        6
 70
     0
 43
0.0
 38
3.082
 10
1.077575
 20
-1.451337
 10
1.077575
 20
-1.56788
 10
1.017575
 20
-1.56788
 10
1.017575
 20
-1.60788
 10
1.077575
 20
-1.60788
 10
1.077575
 20
-1.724423
  0
CIRCLE
  5
64B9E
100
AcDbEntity
  8
0
100
AcDbCircle
 10
1.097575
 20
-1.58788
 30
3.082
 40
0.138
  0
LWPOLYLINE
  5
64B9F
100
AcDbEntity
  8
0
100
AcDbPolyline
 90
        6
 70
     0
 43
0.0
 38
3.082
 10
1.547325
 20
-1.451337
 10
1.547325
 20
-1.56788
 10
1.607325
 20
-1.56788
 10
1.607325
 20
-1.60788
 10
1.547325
 20
-1.60788
 10
1.547325
 20
-1.724423
  0
LWPOLYLINE
  5
64BA0
100
AcDbEntity
  8
0
100
AcDbPolyline
 90
        6
 70
     0
 43
0.0
 38
3.082
 10
1.507325
 20
-1.451337
 10
1.507325
 20
-1.56788
 10
1.447325
 20
-1.56788
 10
1.447325
 20
-1.60788
 10
1.507325
 20
-1.60788
 10
1.507325
 20
-1.724423
  0
CIRCLE
  5
64BA1
100
AcDbEntity
  8
0
100
AcDbCircle
 10
1.527325
 20
-1.58788
 30
3.082
 40
0.138
  0
LWPOLYLINE
  5
64BA2
100
AcDbEntity
  8
0
100
AcDbPolyline
 90
        6
 70
     0
 43
0.0
 38
3.082
 10
0.258075
 20
-1.451337
 10
0.258075
 20
-1.56788
 10
0.318075
 20
-1.56788
 10
0.318075
 20
-1.60788
 10
0.258075
 20
-1.60788
 10
0.258075
 20
-1.724423
  0
LWPOLYLINE
  5
64BA3
100
AcDbEntity
  8
0
100
AcDbPolyline
 90
        6
 70
     0
 43
0.0
 38
3.082
 10
0.218075
 20
-1.451337
 10
0.218075
 20
-1.56788
 10
0.158075
 20
-1.56788
 10
0.158075
 20
-1.60788
 10
0.218075
 20
-1.60788
 10
0.218075
 20
-1.724423
  0
LWPOLYLINE
  5
64BA4
100
AcDbEntity
  8
0
100
AcDbPolyline
 90
        6
 70
     0
 43
0.0
 38
2.06
 10
0.5262
 20
-2.068678
 10
0.5262
 20
-2.167
 10
0.4662
 20
-2.167
 10
0.4662
 20
-2.207
 10
0.5262
 20
-2.207
 10
0.5262
 20
-2.305322
  0
LWPOLYLINE
  5
64BA5
100
AcDbEntity
  8
0
100
AcDbPolyline
 90
        6
 70
     0
 43
0.0
 38
2.06
 10
0.5662
 20
-2.068678
 10
0.5662
 20
-2.167
 10
0.6262
 20
-2.167
 10
0.6262
 20
-2.207
 10
0.5662
 20
-2.207
 10
0.5662
 20
-2.305322
  0
LWPOLYLINE
  5
64BA6
100
AcDbEntity
  8
0
100
AcDbPolyline
 90
        6
 70
     0
 43
0.0
 38
2.06
 10
1.2442
 20
-2.068678
 10
1.2442
 20
-2.167
 10
1.3042
 20
-2.167
 10
1.3042
 20
-2.207
 10
1.2442
 20
-2.207
 10
1.2442
 20
-2.305322
  0
LWPOLYLINE
  5
64BA7
100
AcDbEntity
  8
0
100
AcDbPolyline
 90
        6
 70
     0
 43
0.0
 38
2.06
 10
1.2042
 20
-2.068678
 10
1.2042
 20
-2.167
 10
1.1442
 20
-2.167
 10
1.1442
 20
-2.207
 10
1.2042
 20
-2.207
 10
1.2042
 20
-2.305322
  0
TEXT
  5
64BA8
100
AcDbEntity
  8
0
100
AcDbText
 10
0.511274
 20
-1.821552
 30
3.082
 40
0.083465
  1
4
100
AcDbText
  0
DIMENSION
  5
64BA9
100
AcDbEntity
  8
AREA1
100
AcDbDimension
  2
*D1
 10
-0.534317
 20
-2.4055
 30
0.0
 11
-0.534317
 21
-0.862438
 31
0.0
 70
   160
  3
ABECAD_3D
100
AcDbAlignedDimension
 13
0.6997
 23
0.7745
 33
1.386
 14
0.3327
 24
-2.4055
 34
1.386
 50
90.0
100
AcDbRotatedDimension
  0
DIMENSION
  5
64BB7
100
AcDbEntity
  8
AREA1
100
AcDbDimension
  2
*D2
 10
1.7652
 20
1.112624
 30
0.0
 11
0.867572
 21
1.435083
 31
0.0
 70
   160
  3
ABECAD_3D
100
AcDbAlignedDimension
 13
0.0002
 23
0.5215
 33
1.318
 14
1.7652
 24
0.5745
 34
0.0
100
AcDbRotatedDimension
  0
LWPOLYLINE
  5
64BDC
100
AcDbEntity
  8
SCALE
100
AcDbPolyline
 90
        4
 70
     1
 43
0.0
 10
0.325468
 20
-2.538036
 10
1.461096
 20
-2.538036
 10
1.461096
 20
-3.379646
 10
0.325468
 20
-3.379646
  0
LINE
  5
64BDD
100
AcDbEntity
  8
SCALE
100
AcDbLine
 10
0.383466
 20
-2.918114
 30
0.0
 11
1.383466
 21
-2.918114
 31
0.0
  0
LINE
  5
64BDE
100
AcDbEntity
  8
SCALE
100
AcDbLine
 10
0.383466
 20
-3.218114
 30
0.0
 11
0.777166
 21
-3.218114
 31
0.0
  0
LINE
  5
64BDF
100
AcDbEntity
  8
SCALE
100
AcDbLine
 10
0.383466
 20
-3.018114
 30
0.0
 11
0.383466
 21
-2.818114
 31
0.0
  0
TEXT
  5
64BE0
100
AcDbEntity
  8
SCALE
100
AcDbText
 10
0.439442
 20
-3.170429
 30
0.0
 40
0.0625
  1
[10mm]
100
AcDbText
  0
LINE
  5
64BE1
100
AcDbEntity
  8
SCALE
100
AcDbLine
 10
0.383466
 20
-3.318114
 30
0.0
 11
0.383466
 21
-3.118114
 31
0.0
  0
TEXT
  5
64BE2
100
AcDbEntity
  8
SCALE
100
AcDbText
 10
0.384996
 20
-2.643237
 30
0.0
 40
0.0625
  1
SCALE:
100
AcDbText
  0
LINE
  5
64BE3
100
AcDbEntity
  8
SCALE
100
AcDbLine
 10
0.777166
 20
-3.318114
 30
0.0
 11
0.777166
 21
-3.118114
 31
0.0
  0
TEXT
  5
64BE4
100
AcDbEntity
  8
SCALE
100
AcDbText
 10
0.746749
 20
-2.849066
 30
0.0
 40
0.0625
  1
1 Inch
100
AcDbText
  0
LINE
  5
64BE5
100
AcDbEntity
  8
SCALE
100
AcDbLine
 10
1.383466
 20
-2.918114
 30
0.0
 11
1.383466
 21
-3.018114
 31
0.0
  0
LINE
  5
64BE6
100
AcDbEntity
  8
SCALE
100
AcDbLine
 10
1.383466
 20
-3.018114
 30
0.0
 11
1.383466
 21
-2.818114
 31
0.0
  0
VIEWPORT
  5
5677D
102
{ACAD_XDICTIONARY
360
64C7F
102
}
100
AcDbEntity
 67
     1
  8
0
100
AcDbViewport
 10
5.25
 20
4.0
 30
0.0
 40
16.386862
 41
8.993
 68
    -1
 69
     1
1001
ACAD
1000
MVIEW
1002
{
1070
    16
1010
0.0
1020
0.0
1030
0.0
1010
0.0
1020
0.0
1030
1.0
1040
0.0
1040
8.993
1040
5.25
1040
4.0
1040
50.0
1040
0.0
1040
0.0
1070
     0
1070
 20000
1070
     1
1070
     1
1070
     0
1070
     0
1070
     0
1070
     0
1040
0.0
1040
0.0
1040
0.0
1040
0.5
1040
0.5
1040
0.5
1040
0.5
1070
     0
1002
{
1002
}
1002
}
  0
VIEWPORT
  5
5677F
102
{ACAD_XDICTIONARY
360
64C81
102
}
100
AcDbEntity
 67
     1
  8
AREA1
100
AcDbViewport
 10
5.25
 20
4.0
 30
0.0
 40
8.4
 41
6.4
 68
     1
 69
     2
1001
ACAD
1000
MVIEW
1002
{
1070
    16
1010
0.563444
1020
-0.880137
1030
1.686493
1010
0.0
1020
0.0
1030
1.0
1040
0.0
1040
4.582914
1040
-1.017175
1040
0.747813
1040
50.0
1040
0.0
1040
0.0
1070
     0
1070
 20000
1070
     1
1070
     1
1070
     0
1070
     0
1070
     0
1070
     0
1040
0.0
1040
0.0
1040
0.0
1040
0.25
1040
0.25
1040
0.25
1040
0.25
1070
     0
1002
{
1002
}
1002
}
  0
ENDSEC
  0
SECTION
  2
OBJECTS
  0
DICTIONARY
  5
458CB
100
AcDbDictionary
  3
ACAD_GROUP
350
458CC
  3
ACAD_LAYOUT
350
458FB
  3
ACAD_MLINESTYLE
350
458D9
  3
ACAD_PLOTSETTINGS
350
458FC
  3
ACAD_PLOTSTYLENAME
350
458F9
  3
ACDBHEADERROUNDTRIPXREC
350
64C56
  3
ACDBVARIABLEDICTIONARY
350
458E1
  3
DWGPROPS
350
45901
  0
DICTIONARY
  5
64C54
100
AcDbDictionary
280
     1
  3
ACAD_XREC_ROUNDTRIP
360
64C55
  0
DICTIONARY
  5
64C7D
100
AcDbDictionary
280
     1
  3
ACAD_XREC_ROUNDTRIP
360
64C7E
  0
DICTIONARY
  5
64C52
100
AcDbDictionary
280
     1
  3
ACAD_XREC_ROUNDTRIP
360
64C53
  0
DICTIONARY
  5
64C79
100
AcDbDictionary
280
     1
  3
ACAD_XREC_ROUNDTRIP
360
64C7A
  0
DICTIONARY
  5
4592C
100
AcDbDictionary
280
     1
  3
ACAD_LAYOUTSELFREF
360
64C78
  0
DICTIONARY
  5
4592A
100
AcDbDictionary
280
     1
  3
ACAD_LAYOUTSELFREF
360
64C77
  0
DICTIONARY
  5
64C7F
100
AcDbDictionary
280
     1
  3
ACAD_XREC_ROUNDTRIP
360
64C80
  0
DICTIONARY
  5
64C81
100
AcDbDictionary
280
     1
  3
ACAD_XREC_ROUNDTRIP
360
64C82
  0
DICTIONARY
  5
458CC
102
{ACAD_REACTORS
330
458CB
102
}
100
AcDbDictionary
  0
DICTIONARY
  5
458FB
102
{ACAD_XDICTIONARY
360
64C7B
102
}
102
{ACAD_REACTORS
330
458CB
102
}
100
AcDbDictionary
  3
LAYOUT1
350
458FE
  3
MODEL
350
458FD
  0
DICTIONARY
  5
458D9
102
{ACAD_REACTORS
330
458CB
102
}
100
AcDbDictionary
  3
STANDARD
350
458DA
  0
DICTIONARY
  5
458FC
102
{ACAD_REACTORS
330
458CB
102
}
100
AcDbDictionary
  0
ACAD_PROXY_OBJECT
  5
458F9
102
{ACAD_REACTORS
330
458CB
102
}
100
AcDbProxyObject
 90
      499
 91
      501
 93
       86
310
405010041939BDC9B585B1
350
458FA
340
458FA
 94
        0
  0
DICTIONARY
  5
64C56
102
{ACAD_REACTORS
330
458CB
102
}
100
AcDbDictionary
  3
CEPSNTYPE
350
64C60
  3
DIMSTYLEDATA
350
64C64
  3
FINGERPRINTGUID
350
64C61
  3
HYPERLINKBASE
350
64C59
  3
INSUNITS
350
64C5F
  3
LAYOUTDICT
350
64C5B
  3
LWETCUNION
350
64C5E
  3
PLOTSETDICT
350
64C5C
  3
PLOTSTYLNAMDICT
350
64C5D
  3
PSVPSCALE
350
64C63
  3
PUCSBASE
350
64C67
  3
PUCSORGBACK
350
64C6D
  3
PUCSORGBOTTOM
350
64C69
  3
PUCSORGFRONT
350
64C6C
  3
PUCSORGLEFT
350
64C6A
  3
PUCSORGRIGHT
350
64C6B
  3
PUCSORGTOP
350
64C68
  3
PUCSORTHOREF
350
64C65
  3
PUCSORTHOVIEW
350
64C66
  3
STYLESHEET
350
64C5A
  3
TSTACKALIGN
350
64C57
  3
TSTACKSIZE
350
64C58
  3
UCSBASE
350
64C70
  3
UCSORGBACK
350
64C76
  3
UCSORGBOTTOM
350
64C72
  3
UCSORGFRONT
350
64C75
  3
UCSORGLEFT
350
64C73
  3
UCSORGRIGHT
350
64C74
  3
UCSORGTOP
350
64C71
  3
UCSORTHOREF
350
64C6E
  3
UCSORTHOVIEW
350
64C6F
  3
VERSIONGUID
350
64C62
  0
DICTIONARY
  5
458E1
102
{ACAD_REACTORS
330
458CB
102
}
100
AcDbDictionary
  3
DIMADEC
350
458E2
  0
XRECORD
  5
45901
102
{ACAD_REACTORS
330
458CB
102
}
100
AcDbXrecord
  1
DWGPROPS COOKIE
  2

  3

  4

  6

  7

  8
colin
  9

300
=
301
=
302
=
303
=
304
=
305
=
306
=
307
=
308
=
309
=
 40
0.000599
 41
2451670.444777
 42
2451670.445376
  1

 90
        0
  0
XRECORD
  5
64C55
102
{ACAD_REACTORS
330
64C54
102
}
100
AcDbXrecord
102
EXTNAMES
  1
*ACTIVE
  2
*Active
102
UCS
 74
     0
 71
     1
 10
0.0
 20
0.0
 30
0.0
 10
1.0
 20
0.0
 30
0.0
 10
0.0
 20
1.0
 30
0.0
146
0.0
 79
     1
102
VIEW
281
     1
  0
XRECORD
  5
64C7E
102
{ACAD_REACTORS
330
64C7D
102
}
100
AcDbXrecord
102
PLOTBIT
280
     0
  0
XRECORD
  5
64C53
102
{ACAD_REACTORS
330
64C52
102
}
100
AcDbXrecord
102
EXTNAMES
  1
DEFPOINTS
  2
Defpoints
102
PLOTBIT
280
     0
  0
XRECORD
  5
64C7A
102
{ACAD_REACTORS
330
64C79
102
}
100
AcDbXrecord
102
ACADR14ROUNDTRIP
1000
DSTYLE
1002
{
1070
   276
 70
     2
1070
   277
 70
     5
1070
   279
 70
     2
1070
   289
 70
     2
1002
}
  0
XRECORD
  5
64C78
102
{ACAD_REACTORS
330
4592C
102
}
100
AcDbXrecord
340
458D6
  0
XRECORD
  5
64C77
102
{ACAD_REACTORS
330
4592A
102
}
100
AcDbXrecord
340
458D3
  0
XRECORD
  5
64C80
102
{ACAD_REACTORS
330
64C7F
102
}
100
AcDbXrecord
102
UCS
 74
     0
 71
     1
 10
0.0
 20
0.0
 30
0.0
 10
1.0
 20
0.0
 30
0.0
 10
0.0
 20
1.0
 30
0.0
146
0.0
 79
     0
102
VIEW
281
     0
102
NEWVIEWCONTROL
280
     4
  0
XRECORD
  5
64C82
102
{ACAD_REACTORS
330
64C81
102
}
100
AcDbXrecord
102
UCS
 74
     0
 71
     1
 10
0.0
 20
0.0
 30
0.0
 10
1.0
 20
0.0
 30
0.0
 10
0.0
 20
1.0
 30
0.0
146
0.0
 79
     1
102
VIEW
281
     1
102
NEWVIEWCONTROL
280
     4
  0
DICTIONARY
  5
64C7B
100
AcDbDictionary
280
     1
  3
ACAD_XREC_ROUNDTRIP
360
64C7C
  0
ACAD_PROXY_OBJECT
  5
458FE
102
{ACAD_REACTORS
330
458FB
102
}
100
AcDbProxyObject
 90
      499
 91
      503
 93
     1700
310
90B6E6F6E655F6465766963652C0080000006066661940000000181999865000000000068661940000000001A1986500000000C0CCFC6A4000000018199D9C5011C4C65747465725F28382E35305F785F31312E30305F496E6368657329A901416AA547D11959985D5B1D08148C4D081C195B88185CDCDA59DB9B595B9D1CC
310
B98DD1891069074C61796F75743140501A840201008040342FEFF7FBFDFFFFF3EFDFAFF7FBFFDFC9501008043E3FDFC8102A6A6A0000003033333C0FC000000809999E93F8FFFFFF5766E622403FFFFFEBF333071020
330
458D3
330
5677D
340
0
340
0
 94
        0
  0
ACAD_PROXY_OBJECT
  5
458FD
102
{ACAD_REACTORS
330
458FB
102
}
100
AcDbProxyObject
 90
      499
 91
      503
 93
      924
310
91D4850204C617365724A65742035303030205365726965732050434C20362C01AAAAAAAAA547D11959985D5B1D08148C4D081C195B88185CDCDA59DB9B595B9D1CCB98DD18A69054D6F64656C901A800000000000000000000000000000000000000000000A1000000000000008902A6A6AAAAF
330
458D6
330
0
340
0
340
0
 94
        0
  0
MLINESTYLE
  5
458DA
102
{ACAD_REACTORS
330
458D9
102
}
100
AcDbMlineStyle
  2
STANDARD
 70
     0
  3

 62
   256
 51
90.0
 52
90.0
 71
     2
 49
0.5
 62
   256
  6
BYLAYER
 49
-0.5
 62
   256
  6
BYLAYER
  0
ACAD_PROXY_OBJECT
  5
458FA
102
{ACAD_REACTORS
330
458F9
102
}
100
AcDbProxyObject
 90
      499
 91
      502
 93
        0
 94
        0
  0
XRECORD
  5
64C60
102
{ACAD_REACTORS
330
64C56
102
}
100
AcDbXrecord
 90
        0
  0
XRECORD
  5
64C64
102
{ACAD_REACTORS
330
64C56
102
}
100
AcDbXrecord
1000
DSTYLE
1002
{
1070
   276
 70
     2
1070
   277
 70
     5
1070
   279
 70
     2
1070
   289
 70
     2
1002
}
  0
XRECORD
  5
64C61
102
{ACAD_REACTORS
330
64C56
102
}
100
AcDbXrecord
  1
{6E0CF4B8-225E-11D4-A150-00A0CC3303EC}
  0
XRECORD
  5
64C59
102
{ACAD_REACTORS
330
64C56
102
}
100
AcDbXrecord
  1

  0
XRECORD
  5
64C5F
102
{ACAD_REACTORS
330
64C56
102
}
100
AcDbXrecord
 90
        0
  0
XRECORD
  5
64C5B
102
{ACAD_REACTORS
330
64C56
102
}
100
AcDbXrecord
340
458FB
  0
XRECORD
  5
64C5E
102
{ACAD_REACTORS
330
64C56
102
}
100
AcDbXrecord
 90
    14877
  0
XRECORD
  5
64C5C
102
{ACAD_REACTORS
330
64C56
102
}
100
AcDbXrecord
340
458FC
  0
XRECORD
  5
64C5D
102
{ACAD_REACTORS
330
64C56
102
}
100
AcDbXrecord
340
458F9
  0
XRECORD
  5
64C63
102
{ACAD_REACTORS
330
64C56
102
}
100
AcDbXrecord
 40
0.0
  0
XRECORD
  5
64C67
102
{ACAD_REACTORS
330
64C56
102
}
100
AcDbXrecord
340
0
  0
XRECORD
  5
64C6D
102
{ACAD_REACTORS
330
64C56
102
}
100
AcDbXrecord
 10
0.0
 20
0.0
 30
0.0
  0
XRECORD
  5
64C69
102
{ACAD_REACTORS
330
64C56
102
}
100
AcDbXrecord
 10
0.0
 20
0.0
 30
0.0
  0
XRECORD
  5
64C6C
102
{ACAD_REACTORS
330
64C56
102
}
100
AcDbXrecord
 10
0.0
 20
0.0
 30
0.0
  0
XRECORD
  5
64C6A
102
{ACAD_REACTORS
330
64C56
102
}
100
AcDbXrecord
 10
0.0
 20
0.0
 30
0.0
  0
XRECORD
  5
64C6B
102
{ACAD_REACTORS
330
64C56
102
}
100
AcDbXrecord
 10
0.0
 20
0.0
 30
0.0
  0
XRECORD
  5
64C68
102
{ACAD_REACTORS
330
64C56
102
}
100
AcDbXrecord
 10
0.0
 20
0.0
 30
0.0
  0
XRECORD
  5
64C65
102
{ACAD_REACTORS
330
64C56
102
}
100
AcDbXrecord
340
0
  0
XRECORD
  5
64C66
102
{ACAD_REACTORS
330
64C56
102
}
100
AcDbXrecord
 70
     0
  0
XRECORD
  5
64C5A
102
{ACAD_REACTORS
330
64C56
102
}
100
AcDbXrecord
  1

  0
XRECORD
  5
64C57
102
{ACAD_REACTORS
330
64C56
102
}
100
AcDbXrecord
 90
        1
  0
XRECORD
  5
64C58
102
{ACAD_REACTORS
330
64C56
102
}
100
AcDbXrecord
 90
       70
  0
XRECORD
  5
64C70
102
{ACAD_REACTORS
330
64C56
102
}
100
AcDbXrecord
340
0
  0
XRECORD
  5
64C76
102
{ACAD_REACTORS
330
64C56
102
}
100
AcDbXrecord
 10
0.0
 20
0.0
 30
0.0
  0
XRECORD
  5
64C72
102
{ACAD_REACTORS
330
64C56
102
}
100
AcDbXrecord
 10
0.0
 20
0.0
 30
0.0
  0
XRECORD
  5
64C75
102
{ACAD_REACTORS
330
64C56
102
}
100
AcDbXrecord
 10
0.0
 20
0.0
 30
0.0
  0
XRECORD
  5
64C73
102
{ACAD_REACTORS
330
64C56
102
}
100
AcDbXrecord
 10
0.0
 20
0.0
 30
0.0
  0
XRECORD
  5
64C74
102
{ACAD_REACTORS
330
64C56
102
}
100
AcDbXrecord
 10
0.0
 20
0.0
 30
0.0
  0
XRECORD
  5
64C71
102
{ACAD_REACTORS
330
64C56
102
}
100
AcDbXrecord
 10
0.0
 20
0.0
 30
0.0
  0
XRECORD
  5
64C6E
102
{ACAD_REACTORS
330
64C56
102
}
100
AcDbXrecord
340
0
  0
XRECORD
  5
64C6F
102
{ACAD_REACTORS
330
64C56
102
}
100
AcDbXrecord
 70
     1
  0
XRECORD
  5
64C62
102
{ACAD_REACTORS
330
64C56
102
}
100
AcDbXrecord
  1
{93B1FCEA-CFC6-47D2-846B-9B55855BC532}
  0
DICTIONARYVAR
  5
458E2
102
{ACAD_REACTORS
330
458E1
102
}
100
DictionaryVariables
280
     0
  1
0
  0
XRECORD
  5
64C7C
102
{ACAD_REACTORS
330
64C7B
102
}
100
AcDbXrecord
102
EXTNAMES
  1
LAYOUT1
  2
Layout1
  1
MODEL
  2
Model
  0
ENDSEC
  0
EOF
