  0
SECTION
  2
HEADER
  9
$ACADVER
  1
AC1014
  9
$ACADMAINTVER
 70
     8
  9
$DWGCODEPAGE
  3
ANSI_1252
  9
$INSBASE
 10
0.0
 20
0.0
 30
0.0
  9
$EXTMIN
 10
-0.903447
 20
-3.521606
 30
0.0
  9
$EXTMAX
 10
2.48
 20
1.166603
 30
4.11
  9
$LIMMIN
 10
0.0
 20
0.0
  9
$LIMMAX
 10
12.0
 20
9.0
  9
$ORTHOMODE
 70
     0
  9
$REGENMODE
 70
     1
  9
$FILLMODE
 70
     1
  9
$QTEXTMODE
 70
     0
  9
$MIRRTEXT
 70
     1
  9
$DRAGMODE
 70
     2
  9
$LTSCALE
 40
1.0
  9
$OSMODE
 70
    37
  9
$ATTMODE
 70
     0
  9
$TEXTSIZE
 40
0.2
  9
$TRACEWID
 40
0.05
  9
$TEXTSTYLE
  7
STANDARD
  9
$CLAYER
  8
0
  9
$CELTYPE
  6
BYLAYER
  9
$CECOLOR
 62
   256
  9
$CELTSCALE
 40
1.0
  9
$DELOBJ
 70
     1
  9
$DISPSILH
 70
     0
  9
$DIMSCALE
 40
0.0
  9
$DIMASZ
 40
0.18
  9
$DIMEXO
 40
0.0625
  9
$DIMDLI
 40
0.375
  9
$DIMRND
 40
0.0
  9
$DIMDLE
 40
0.0
  9
$DIMEXE
 40
0.18
  9
$DIMTP
 40
0.0
  9
$DIMTM
 40
0.0
  9
$DIMTXT
 40
0.15
  9
$DIMCEN
 40
0.09
  9
$DIMTSZ
 40
0.0
  9
$DIMTOL
 70
     0
  9
$DIMLIM
 70
     0
  9
$DIMTIH
 70
     0
  9
$DIMTOH
 70
     1
  9
$DIMSE1
 70
     0
  9
$DIMSE2
 70
     0
  9
$DIMTAD
 70
     0
  9
$DIMZIN
 70
     4
  9
$DIMBLK
  1

  9
$DIMASO
 70
     1
  9
$DIMSHO
 70
     1
  9
$DIMPOST
  1

  9
$DIMAPOST
  1

  9
$DIMALT
 70
     1
  9
$DIMALTD
 70
     2
  9
$DIMALTF
 40
25.4
  9
$DIMLFAC
 40
1.0
  9
$DIMTOFL
 70
     0
  9
$DIMTVP
 40
0.0
  9
$DIMTIX
 70
     0
  9
$DIMSOXD
 70
     0
  9
$DIMSAH
 70
     0
  9
$DIMBLK1
  1

  9
$DIMBLK2
  1

  9
$DIMSTYLE
  2
ABECAD_3V
  9
$DIMCLRD
 70
     0
  9
$DIMCLRE
 70
     0
  9
$DIMCLRT
 70
     0
  9
$DIMTFAC
 40
1.5
  9
$DIMGAP
 40
0.09
  9
$DIMJUST
 70
     0
  9
$DIMSD1
 70
     0
  9
$DIMSD2
 70
     0
  9
$DIMTOLJ
 70
     1
  9
$DIMTZIN
 70
     4
  9
$DIMALTZ
 70
     4
  9
$DIMALTTZ
 70
     4
  9
$DIMFIT
 70
     5
  9
$DIMUPT
 70
     1
  9
$DIMUNIT
 70
     7
  9
$DIMDEC
 70
     6
  9
$DIMTDEC
 70
     6
  9
$DIMALTU
 70
     2
  9
$DIMALTTD
 70
     2
  9
$DIMTXSTY
  7
STANDARD
  9
$DIMAUNIT
 70
     0
  9
$LUNITS
 70
     2
  9
$LUPREC
 70
     6
  9
$SKETCHINC
 40
0.1
  9
$FILLETRAD
 40
0.0
  9
$AUNITS
 70
     0
  9
$AUPREC
 70
     0
  9
$MENU
  1
acad
  9
$ELEVATION
 40
0.0
  9
$PELEVATION
 40
0.0
  9
$THICKNESS
 40
0.0
  9
$LIMCHECK
 70
     0
  9
$BLIPMODE
 70
     0
  9
$CHAMFERA
 40
0.0
  9
$CHAMFERB
 40
0.0
  9
$CHAMFERC
 40
0.0
  9
$CHAMFERD
 40
0.0
  9
$SKPOLY
 70
     0
  9
$TDCREATE
 40
2451726.438362384
  9
$TDUPDATE
 40
2452010.725864467
  9
$TDINDWG
 40
0.7156928241
  9
$TDUSRTIMER
 40
0.7156928241
  9
$USRTIMER
 70
     1
  9
$ANGBASE
 50
0.0
  9
$ANGDIR
 70
     0
  9
$PDMODE
 70
     3
  9
$PDSIZE
 40
0.18
  9
$PLINEWID
 40
0.0
  9
$COORDS
 70
     1
  9
$SPLFRAME
 70
     0
  9
$SPLINETYPE
 70
     6
  9
$SPLINESEGS
 70
     8
  9
$ATTDIA
 70
     0
  9
$ATTREQ
 70
     1
  9
$HANDLING
 70
     1
  9
$HANDSEED
  5
22310
  9
$SURFTAB1
 70
     6
  9
$SURFTAB2
 70
     6
  9
$SURFTYPE
 70
     6
  9
$SURFU
 70
     6
  9
$SURFV
 70
     6
  9
$UCSNAME
  2

  9
$UCSORG
 10
0.0
 20
0.0
 30
0.0
  9
$UCSXDIR
 10
1.0
 20
0.0
 30
0.0
  9
$UCSYDIR
 10
0.0
 20
1.0
 30
0.0
  9
$PUCSNAME
  2

  9
$PUCSORG
 10
0.0
 20
0.0
 30
0.0
  9
$PUCSXDIR
 10
1.0
 20
0.0
 30
0.0
  9
$PUCSYDIR
 10
0.0
 20
1.0
 30
0.0
  9
$USERI1
 70
     0
  9
$USERI2
 70
     0
  9
$USERI3
 70
     0
  9
$USERI4
 70
     0
  9
$USERI5
 70
     0
  9
$USERR1
 40
0.0
  9
$USERR2
 40
0.0
  9
$USERR3
 40
0.0
  9
$USERR4
 40
0.0
  9
$USERR5
 40
0.0
  9
$WORLDVIEW
 70
     1
  9
$SHADEDGE
 70
     3
  9
$SHADEDIF
 70
    70
  9
$TILEMODE
 70
     0
  9
$MAXACTVP
 70
    16
  9
$PINSBASE
 10
0.0
 20
0.0
 30
0.0
  9
$PLIMCHECK
 70
     0
  9
$PEXTMIN
 10
0.0
 20
0.0
 30
0.0
  9
$PEXTMAX
 10
10.0
 20
7.5
 30
0.0
  9
$PLIMMIN
 10
-0.187029
 20
-0.186938
  9
$PLIMMAX
 10
10.187518
 20
7.829757
  9
$UNITMODE
 70
     0
  9
$VISRETAIN
 70
     0
  9
$PLINEGEN
 70
     0
  9
$PSLTSCALE
 70
     1
  9
$TREEDEPTH
 70
  3020
  9
$PICKSTYLE
 70
     1
  9
$CMLSTYLE
  2
STANDARD
  9
$CMLJUST
 70
     0
  9
$CMLSCALE
 40
1.0
  9
$PROXYGRAPHICS
 70
     1
  9
$MEASUREMENT
 70
     0
  0
ENDSEC
  0
SECTION
  2
CLASSES
  0
CLASS
  1
DICTIONARYVAR
  2
AcDbDictionaryVar
  3
"AutoCAD"
 90
        0
280
     0
281
     0
  0
CLASS
  1
ACDBDICTIONARYWDFLT
  2
AcDbDictionaryWithDefault
  3
AutoCAD 2000
 90
        0
280
     0
281
     0
  0
CLASS
  1
ACDBPLACEHOLDER
  2
AcDbPlaceHolder
  3
AutoCAD 2000
 90
        0
280
     0
281
     0
  0
CLASS
  1
LAYOUT
  2
AcDbLayout
  3
AutoCAD 2000
 90
        0
280
     0
281
     0
  0
CLASS
  1
LONG_TRANSACTION
  2
AcDbLongTransaction
  3
AutoCAD 2000
 90
        0
280
     0
281
     0
  0
CLASS
  1
LWPOLYLINE
  2
AcDbPolyline
  3
"AutoCAD"
 90
        0
280
     0
281
     1
  0
CLASS
  1
HATCH
  2
AcDbHatch
  3
"ACAD_SEDONA"
 90
        0
280
     0
281
     1
  0
CLASS
  1
XRECORD
  2
AcDbXrecord
  3
"<Built In>"
 90
        0
280
     0
281
     0
  0
CLASS
  1
LONG_TRANSACTION
  2
AcDbLongTransaction
  3
AutoCAD 2000
 90
        0
280
     0
281
     0
  0
CLASS
  1
LWPOLYLINE
  2
AcDbPolyline
  3
"AutoCAD"
 90
        0
280
     0
281
     1
  0
CLASS
  1
HATCH
  2
AcDbHatch
  3
"ACAD_SEDONA"
 90
        0
280
     0
281
     1
  0
CLASS
  1
XRECORD
  2
AcDbXrecord
  3
"<Built In>"
 90
        0
280
     0
281
     0
  0
CLASS
  1
LONG_TRANSACTION
  2
AcDbLongTransaction
  3
AutoCAD 2000
 90
        0
280
     0
281
     0
  0
CLASS
  1
LWPOLYLINE
  2
AcDbPolyline
  3
"AutoCAD"
 90
        0
280
     0
281
     1
  0
CLASS
  1
HATCH
  2
AcDbHatch
  3
"ACAD_SEDONA"
 90
        0
280
     0
281
     1
  0
CLASS
  1
XRECORD
  2
AcDbXrecord
  3
"<Built In>"
 90
        0
280
     0
281
     0
  0
CLASS
  1
LONG_TRANSACTION
  2
AcDbLongTransaction
  3
AutoCAD 2000
 90
        0
280
     0
281
     0
  0
CLASS
  1
LWPOLYLINE
  2
AcDbPolyline
  3
"AutoCAD"
 90
        0
280
     0
281
     1
  0
CLASS
  1
HATCH
  2
AcDbHatch
  3
"ACAD_SEDONA"
 90
        0
280
     0
281
     1
  0
CLASS
  1
XRECORD
  2
AcDbXrecord
  3
"<Built In>"
 90
        0
280
     0
281
     0
  0
CLASS
  1
LONG_TRANSACTION
  2
AcDbLongTransaction
  3
AutoCAD 2000
 90
        0
280
     0
281
     0
  0
CLASS
  1
LWPOLYLINE
  2
AcDbPolyline
  3
"AutoCAD"
 90
        0
280
     0
281
     1
  0
CLASS
  1
HATCH
  2
AcDbHatch
  3
"ACAD_SEDONA"
 90
        0
280
     0
281
     1
  0
CLASS
  1
XRECORD
  2
AcDbXrecord
  3
"<Built In>"
 90
        0
280
     0
281
     0
  0
CLASS
  1
LONG_TRANSACTION
  2
AcDbLongTransaction
  3
AutoCAD 2000
 90
        0
280
     0
281
     0
  0
CLASS
  1
LWPOLYLINE
  2
AcDbPolyline
  3
"AutoCAD"
 90
        0
280
     0
281
     1
  0
CLASS
  1
HATCH
  2
AcDbHatch
  3
"ACAD_SEDONA"
 90
        0
280
     0
281
     1
  0
CLASS
  1
XRECORD
  2
AcDbXrecord
  3
"<Built In>"
 90
        0
280
     0
281
     0
  0
CLASS
  1
LONG_TRANSACTION
  2
AcDbLongTransaction
  3
AutoCAD 2000
 90
        0
280
     0
281
     0
  0
CLASS
  1
LWPOLYLINE
  2
AcDbPolyline
  3
"AutoCAD"
 90
        0
280
     0
281
     1
  0
CLASS
  1
HATCH
  2
AcDbHatch
  3
"ACAD_SEDONA"
 90
        0
280
     0
281
     1
  0
CLASS
  1
XRECORD
  2
AcDbXrecord
  3
"<Built In>"
 90
        0
280
     0
281
     0
  0
CLASS
  1
LONG_TRANSACTION
  2
AcDbLongTransaction
  3
AutoCAD 2000
 90
        0
280
     0
281
     0
  0
CLASS
  1
LWPOLYLINE
  2
AcDbPolyline
  3
"AutoCAD"
 90
        0
280
     0
281
     1
  0
CLASS
  1
HATCH
  2
AcDbHatch
  3
"ACAD_SEDONA"
 90
        0
280
     0
281
     1
  0
CLASS
  1
XRECORD
  2
AcDbXrecord
  3
"<Built In>"
 90
        0
280
     0
281
     0
  0
CLASS
  1
LONG_TRANSACTION
  2
AcDbLongTransaction
  3
AutoCAD 2000
 90
        0
280
     0
281
     0
  0
CLASS
  1
LWPOLYLINE
  2
AcDbPolyline
  3
"AutoCAD"
 90
        0
280
     0
281
     1
  0
CLASS
  1
HATCH
  2
AcDbHatch
  3
"ACAD_SEDONA"
 90
        0
280
     0
281
     1
  0
CLASS
  1
XRECORD
  2
AcDbXrecord
  3
"<Built In>"
 90
        0
280
     0
281
     0
  0
CLASS
  1
LONG_TRANSACTION
  2
AcDbLongTransaction
  3
AutoCAD 2000
 90
        0
280
     0
281
     0
  0
CLASS
  1
LWPOLYLINE
  2
AcDbPolyline
  3
"AutoCAD"
 90
        0
280
     0
281
     1
  0
CLASS
  1
HATCH
  2
AcDbHatch
  3
"ACAD_SEDONA"
 90
        0
280
     0
281
     1
  0
CLASS
  1
XRECORD
  2
AcDbXrecord
  3
"<Built In>"
 90
        0
280
     0
281
     0
  0
CLASS
  1
LONG_TRANSACTION
  2
AcDbLongTransaction
  3
AutoCAD 2000
 90
        0
280
     0
281
     0
  0
CLASS
  1
LWPOLYLINE
  2
AcDbPolyline
  3
"AutoCAD"
 90
        0
280
     0
281
     1
  0
CLASS
  1
HATCH
  2
AcDbHatch
  3
"ACAD_SEDONA"
 90
        0
280
     0
281
     1
  0
CLASS
  1
XRECORD
  2
AcDbXrecord
  3
"<Built In>"
 90
        0
280
     0
281
     0
  0
CLASS
  1
LONG_TRANSACTION
  2
AcDbLongTransaction
  3
AutoCAD 2000
 90
        0
280
     0
281
     0
  0
CLASS
  1
LWPOLYLINE
  2
AcDbPolyline
  3
"AutoCAD"
 90
        0
280
     0
281
     1
  0
CLASS
  1
HATCH
  2
AcDbHatch
  3
"ACAD_SEDONA"
 90
        0
280
     0
281
     1
  0
CLASS
  1
XRECORD
  2
AcDbXrecord
  3
"<Built In>"
 90
        0
280
     0
281
     0
  0
CLASS
  1
LONG_TRANSACTION
  2
AcDbLongTransaction
  3
AutoCAD 2000
 90
        0
280
     0
281
     0
  0
CLASS
  1
LWPOLYLINE
  2
AcDbPolyline
  3
"AutoCAD"
 90
        0
280
     0
281
     1
  0
CLASS
  1
HATCH
  2
AcDbHatch
  3
"ACAD_SEDONA"
 90
        0
280
     0
281
     1
  0
CLASS
  1
XRECORD
  2
AcDbXrecord
  3
"<Built In>"
 90
        0
280
     0
281
     0
  0
CLASS
  1
LONG_TRANSACTION
  2
AcDbLongTransaction
  3
AutoCAD 2000
 90
        0
280
     0
281
     0
  0
CLASS
  1
LWPOLYLINE
  2
AcDbPolyline
  3
"AutoCAD"
 90
        0
280
     0
281
     1
  0
CLASS
  1
HATCH
  2
AcDbHatch
  3
"ACAD_SEDONA"
 90
        0
280
     0
281
     1
  0
CLASS
  1
XRECORD
  2
AcDbXrecord
  3
"<Built In>"
 90
        0
280
     0
281
     0
  0
CLASS
  1
LONG_TRANSACTION
  2
AcDbLongTransaction
  3
AutoCAD 2000
 90
        0
280
     0
281
     0
  0
CLASS
  1
LWPOLYLINE
  2
AcDbPolyline
  3
"AutoCAD"
 90
        0
280
     0
281
     1
  0
CLASS
  1
HATCH
  2
AcDbHatch
  3
"ACAD_SEDONA"
 90
        0
280
     0
281
     1
  0
CLASS
  1
XRECORD
  2
AcDbXrecord
  3
"<Built In>"
 90
        0
280
     0
281
     0
  0
CLASS
  1
LONG_TRANSACTION
  2
AcDbLongTransaction
  3
AutoCAD 2000
 90
        0
280
     0
281
     0
  0
CLASS
  1
LWPOLYLINE
  2
AcDbPolyline
  3
"AutoCAD"
 90
        0
280
     0
281
     1
  0
CLASS
  1
HATCH
  2
AcDbHatch
  3
"ACAD_SEDONA"
 90
        0
280
     0
281
     1
  0
CLASS
  1
XRECORD
  2
AcDbXrecord
  3
"<Built In>"
 90
        0
280
     0
281
     0
  0
CLASS
  1
LONG_TRANSACTION
  2
AcDbLongTransaction
  3
AutoCAD 2000
 90
        0
280
     0
281
     0
  0
CLASS
  1
LWPOLYLINE
  2
AcDbPolyline
  3
"AutoCAD"
 90
        0
280
     0
281
     1
  0
CLASS
  1
HATCH
  2
AcDbHatch
  3
"ACAD_SEDONA"
 90
        0
280
     0
281
     1
  0
CLASS
  1
XRECORD
  2
AcDbXrecord
  3
"<Built In>"
 90
        0
280
     0
281
     0
  0
CLASS
  1
LONG_TRANSACTION
  2
AcDbLongTransaction
  3
AutoCAD 2000
 90
        0
280
     0
281
     0
  0
CLASS
  1
LWPOLYLINE
  2
AcDbPolyline
  3
"AutoCAD"
 90
        0
280
     0
281
     1
  0
CLASS
  1
HATCH
  2
AcDbHatch
  3
"ACAD_SEDONA"
 90
        0
280
     0
281
     1
  0
CLASS
  1
XRECORD
  2
AcDbXrecord
  3
"<Built In>"
 90
        0
280
     0
281
     0
  0
CLASS
  1
LONG_TRANSACTION
  2
AcDbLongTransaction
  3
AutoCAD 2000
 90
        0
280
     0
281
     0
  0
CLASS
  1
LWPOLYLINE
  2
AcDbPolyline
  3
"AutoCAD"
 90
        0
280
     0
281
     1
  0
CLASS
  1
HATCH
  2
AcDbHatch
  3
"ACAD_SEDONA"
 90
        0
280
     0
281
     1
  0
CLASS
  1
XRECORD
  2
AcDbXrecord
  3
"<Built In>"
 90
        0
280
     0
281
     0
  0
CLASS
  1
LONG_TRANSACTION
  2
AcDbLongTransaction
  3
AutoCAD 2000
 90
        0
280
     0
281
     0
  0
CLASS
  1
LWPOLYLINE
  2
AcDbPolyline
  3
"AutoCAD"
 90
        0
280
     0
281
     1
  0
CLASS
  1
HATCH
  2
AcDbHatch
  3
"ACAD_SEDONA"
 90
        0
280
     0
281
     1
  0
CLASS
  1
XRECORD
  2
AcDbXrecord
  3
"<Built In>"
 90
        0
280
     0
281
     0
  0
CLASS
  1
LONG_TRANSACTION
  2
AcDbLongTransaction
  3
AutoCAD 2000
 90
        0
280
     0
281
     0
  0
CLASS
  1
LWPOLYLINE
  2
AcDbPolyline
  3
"AutoCAD"
 90
        0
280
     0
281
     1
  0
CLASS
  1
HATCH
  2
AcDbHatch
  3
"ACAD_SEDONA"
 90
        0
280
     0
281
     1
  0
CLASS
  1
XRECORD
  2
AcDbXrecord
  3
"<Built In>"
 90
        0
280
     0
281
     0
  0
CLASS
  1
LONG_TRANSACTION
  2
AcDbLongTransaction
  3
AutoCAD 2000
 90
        0
280
     0
281
     0
  0
CLASS
  1
LWPOLYLINE
  2
AcDbPolyline
  3
"AutoCAD"
 90
        0
280
     0
281
     1
  0
CLASS
  1
HATCH
  2
AcDbHatch
  3
"ACAD_SEDONA"
 90
        0
280
     0
281
     1
  0
CLASS
  1
XRECORD
  2
AcDbXrecord
  3
"<Built In>"
 90
        0
280
     0
281
     0
  0
CLASS
  1
LONG_TRANSACTION
  2
AcDbLongTransaction
  3
AutoCAD 2000
 90
        0
280
     0
281
     0
  0
CLASS
  1
LWPOLYLINE
  2
AcDbPolyline
  3
"AutoCAD"
 90
        0
280
     0
281
     1
  0
CLASS
  1
HATCH
  2
AcDbHatch
  3
"ACAD_SEDONA"
 90
        0
280
     0
281
     1
  0
CLASS
  1
XRECORD
  2
AcDbXrecord
  3
"<Built In>"
 90
        0
280
     0
281
     0
  0
CLASS
  1
LONG_TRANSACTION
  2
AcDbLongTransaction
  3
AutoCAD 2000
 90
        0
280
     0
281
     0
  0
CLASS
  1
LWPOLYLINE
  2
AcDbPolyline
  3
"AutoCAD"
 90
        0
280
     0
281
     1
  0
CLASS
  1
HATCH
  2
AcDbHatch
  3
"ACAD_SEDONA"
 90
        0
280
     0
281
     1
  0
CLASS
  1
XRECORD
  2
AcDbXrecord
  3
"<Built In>"
 90
        0
280
     0
281
     0
  0
CLASS
  1
LONG_TRANSACTION
  2
AcDbLongTransaction
  3
AutoCAD 2000
 90
        0
280
     0
281
     0
  0
CLASS
  1
LWPOLYLINE
  2
AcDbPolyline
  3
"AutoCAD"
 90
        0
280
     0
281
     1
  0
CLASS
  1
HATCH
  2
AcDbHatch
  3
"ACAD_SEDONA"
 90
        0
280
     0
281
     1
  0
CLASS
  1
XRECORD
  2
AcDbXrecord
  3
"<Built In>"
 90
        0
280
     0
281
     0
  0
CLASS
  1
LONG_TRANSACTION
  2
AcDbLongTransaction
  3
AutoCAD 2000
 90
        0
280
     0
281
     0
  0
CLASS
  1
LWPOLYLINE
  2
AcDbPolyline
  3
"AutoCAD"
 90
        0
280
     0
281
     1
  0
CLASS
  1
HATCH
  2
AcDbHatch
  3
"ACAD_SEDONA"
 90
        0
280
     0
281
     1
  0
CLASS
  1
XRECORD
  2
AcDbXrecord
  3
"<Built In>"
 90
        0
280
     0
281
     0
  0
CLASS
  1
LONG_TRANSACTION
  2
AcDbLongTransaction
  3
AutoCAD 2000
 90
        0
280
     0
281
     0
  0
CLASS
  1
LWPOLYLINE
  2
AcDbPolyline
  3
"AutoCAD"
 90
        0
280
     0
281
     1
  0
CLASS
  1
HATCH
  2
AcDbHatch
  3
"ACAD_SEDONA"
 90
        0
280
     0
281
     1
  0
CLASS
  1
XRECORD
  2
AcDbXrecord
  3
"<Built In>"
 90
        0
280
     0
281
     0
  0
CLASS
  1
LONG_TRANSACTION
  2
AcDbLongTransaction
  3
AutoCAD 2000
 90
        0
280
     0
281
     0
  0
CLASS
  1
LWPOLYLINE
  2
AcDbPolyline
  3
"AutoCAD"
 90
        0
280
     0
281
     1
  0
CLASS
  1
HATCH
  2
AcDbHatch
  3
"ACAD_SEDONA"
 90
        0
280
     0
281
     1
  0
CLASS
  1
XRECORD
  2
AcDbXrecord
  3
"<Built In>"
 90
        0
280
     0
281
     0
  0
CLASS
  1
LONG_TRANSACTION
  2
AcDbLongTransaction
  3
AutoCAD 2000
 90
        0
280
     0
281
     0
  0
CLASS
  1
LWPOLYLINE
  2
AcDbPolyline
  3
"AutoCAD"
 90
        0
280
     0
281
     1
  0
CLASS
  1
HATCH
  2
AcDbHatch
  3
"ACAD_SEDONA"
 90
        0
280
     0
281
     1
  0
CLASS
  1
XRECORD
  2
AcDbXrecord
  3
"<Built In>"
 90
        0
280
     0
281
     0
  0
ENDSEC
  0
SECTION
  2
TABLES
  0
TABLE
  2
VPORT
  5
469
100
AcDbSymbolTable
 70
     1
  0
VPORT
  5
221ED
102
{ACAD_XDICTIONARY
360
222D8
102
}
100
AcDbSymbolTableRecord
100
AcDbViewportTableRecord
  2
*ACTIVE
 70
     0
 10
0.0
 20
0.0
 11
1.0
 21
1.0
 12
0.890816
 22
-2.020857
 13
0.0
 23
0.0
 14
1.0
 24
1.0
 15
0.0
 25
0.0
 16
0.0
 26
0.0
 36
1.0
 17
-0.084399
 27
0.843356
 37
0.0
 40
4.741891
 41
1.82218
 42
50.0
 43
0.0
 44
0.0
 50
0.0
 51
0.0
 71
     0
 72
   100
 73
     1
 74
     1
 75
     0
 76
     0
 77
     0
 78
     0
  0
ENDTAB
  0
TABLE
  2
LTYPE
  5
466
100
AcDbSymbolTable
 70
     1
  0
LTYPE
  5
472
100
AcDbSymbolTableRecord
100
AcDbLinetypeTableRecord
  2
BYBLOCK
 70
     0
  3

 72
    65
 73
     0
 40
0.0
  0
LTYPE
  5
473
100
AcDbSymbolTableRecord
100
AcDbLinetypeTableRecord
  2
BYLAYER
 70
     0
  3

 72
    65
 73
     0
 40
0.0
  0
LTYPE
  5
474
100
AcDbSymbolTableRecord
100
AcDbLinetypeTableRecord
  2
CONTINUOUS
 70
     0
  3
Solid line
 72
    65
 73
     0
 40
0.0
  0
ENDTAB
  0
TABLE
  2
LAYER
  5
463
100
AcDbSymbolTable
 70
     8
  0
LAYER
  5
46F
100
AcDbSymbolTableRecord
100
AcDbLayerTableRecord
  2
0
 70
     0
 62
     7
  6
CONTINUOUS
  0
LAYER
  5
485
100
AcDbSymbolTableRecord
100
AcDbLayerTableRecord
  2
AREA1
 70
     0
 62
     7
  6
CONTINUOUS
  0
LAYER
  5
486
100
AcDbSymbolTableRecord
100
AcDbLayerTableRecord
  2
AREA2
 70
     0
 62
     7
  6
CONTINUOUS
  0
LAYER
  5
494
102
{ACAD_XDICTIONARY
360
22305
102
}
100
AcDbSymbolTableRecord
100
AcDbLayerTableRecord
  2
DEFPOINTS
 70
     0
 62
    -7
  6
CONTINUOUS
  0
LAYER
  5
495
100
AcDbSymbolTableRecord
100
AcDbLayerTableRecord
  2
DIMS-MTG-HOLES
 70
     0
 62
    -1
  6
CONTINUOUS
  0
LAYER
  5
4E6
100
AcDbSymbolTableRecord
100
AcDbLayerTableRecord
  2
SCALE
 70
     0
 62
    -7
  6
CONTINUOUS
  0
LAYER
  5
4ED
100
AcDbSymbolTableRecord
100
AcDbLayerTableRecord
  2
SNAP_POINTS
 70
     0
 62
    -1
  6
CONTINUOUS
  0
LAYER
  5
4F1
100
AcDbSymbolTableRecord
100
AcDbLayerTableRecord
  2
ATTRIBUTES
 70
     0
 62
    -7
  6
CONTINUOUS
  0
ENDTAB
  0
TABLE
  2
STYLE
  5
464
100
AcDbSymbolTable
 70
     1
  0
STYLE
  5
470
100
AcDbSymbolTableRecord
100
AcDbTextStyleTableRecord
  2
STANDARD
 70
     0
 40
0.0
 41
1.0
 50
0.0
 71
     0
 42
0.2
  3
txt
  4

  0
ENDTAB
  0
TABLE
  2
VIEW
  5
467
100
AcDbSymbolTable
 70
     0
  0
ENDTAB
  0
TABLE
  2
UCS
  5
468
100
AcDbSymbolTable
 70
     0
  0
ENDTAB
  0
TABLE
  2
APPID
  5
46A
100
AcDbSymbolTable
 70
     2
  0
APPID
  5
471
100
AcDbSymbolTableRecord
100
AcDbRegAppTableRecord
  2
ACAD
 70
     0
  0
APPID
  5
47E
100
AcDbSymbolTableRecord
100
AcDbRegAppTableRecord
  2
AVE_RENDER
 70
     0
  0
ENDTAB
  0
TABLE
  2
DIMSTYLE
  5
46B
100
AcDbSymbolTable
 70
     2
  0
DIMSTYLE
105
49A
102
{ACAD_XDICTIONARY
360
22307
102
}
102
{ACAD_REACTORS
330
221DE
102
}
100
AcDbSymbolTableRecord
100
AcDbDimStyleTableRecord
  2
ABECAD_3V
 70
     0
  3

  4

  5

  6

  7

 40
0.0
 41
0.18
 42
0.0625
 43
0.375
 44
0.18
 45
0.0
 46
0.0
 47
0.0
 48
0.0
140
0.15
141
0.09
142
0.0
143
25.4
144
1.0
145
0.0
146
1.5
147
0.09
 71
     0
 72
     0
 73
     0
 74
     1
 75
     0
 76
     0
 77
     0
 78
     4
170
     1
171
     2
172
     0
173
     0
174
     0
175
     0
176
     0
177
     0
178
     0
270
     7
271
     6
272
     6
273
     2
274
     2
340
470
275
     0
280
     0
281
     0
282
     0
283
     1
284
     4
285
     4
286
     4
287
     5
288
     1
  0
DIMSTYLE
105
512
102
{ACAD_XDICTIONARY
360
2230B
102
}
102
{ACAD_REACTORS
330
221A3
330
221A4
102
}
100
AcDbSymbolTableRecord
100
AcDbDimStyleTableRecord
  2
ABECAD_3D
 70
     0
  3

  4

  5

  6

  7

 40
1.0
 41
0.18
 42
0.0625
 43
0.375
 44
0.18
 45
0.0
 46
0.0
 47
0.0
 48
0.0
140
0.18
141
0.09
142
0.0
143
25.4
144
1.0
145
0.0
146
1.5
147
0.09
 71
     0
 72
     0
 73
     0
 74
     1
 75
     0
 76
     0
 77
     0
 78
     4
170
     1
171
     2
172
     0
173
     0
174
     0
175
     0
176
     0
177
     0
178
     0
270
     7
271
     6
272
     6
273
     2
274
     2
340
470
275
     0
280
     0
281
     0
282
     0
283
     1
284
     4
285
     4
286
     4
287
     5
288
     1
  0
ENDTAB
  0
TABLE
  2
BLOCK_RECORD
  5
462
100
AcDbSymbolTable
 70
     3
  0
BLOCK_RECORD
  5
478
102
{ACAD_XDICTIONARY
360
4D2
102
}
100
AcDbSymbolTableRecord
100
AcDbBlockTableRecord
  2
*MODEL_SPACE
  0
BLOCK_RECORD
  5
475
102
{ACAD_XDICTIONARY
360
4D0
102
}
100
AcDbSymbolTableRecord
100
AcDbBlockTableRecord
  2
*PAPER_SPACE
  0
BLOCK_RECORD
  5
221B0
100
AcDbSymbolTableRecord
100
AcDbBlockTableRecord
  2
*D0
  0
BLOCK_RECORD
  5
221BD
100
AcDbSymbolTableRecord
100
AcDbBlockTableRecord
  2
*D1
  0
BLOCK_RECORD
  5
221DF
100
AcDbSymbolTableRecord
100
AcDbBlockTableRecord
  2
*D2
  0
ENDTAB
  0
ENDSEC
  0
SECTION
  2
BLOCKS
  0
BLOCK
  5
48B
100
AcDbEntity
  8
0
100
AcDbBlockBegin
  2
*MODEL_SPACE
 70
     0
 10
0.0
 20
0.0
 30
0.0
  3
*MODEL_SPACE
  1

  0
ENDBLK
  5
48C
100
AcDbEntity
  8
0
100
AcDbBlockEnd
  0
BLOCK
  5
489
100
AcDbEntity
 67
     1
  8
0
100
AcDbBlockBegin
  2
*PAPER_SPACE
 70
     0
 10
0.0
 20
0.0
 30
0.0
  3
*PAPER_SPACE
  1

  0
ENDBLK
  5
48A
100
AcDbEntity
 67
     1
  8
0
100
AcDbBlockEnd
  0
BLOCK
  5
221BB
100
AcDbEntity
  8
0
100
AcDbBlockBegin
  2
*D0
 70
     1
 10
0.0
 20
0.0
 30
0.0
  3
*D0
  1

  0
LINE
  5
221CA
100
AcDbEntity
  8
AREA1
 62
     0
100
AcDbLine
 10
0.812
 20
0.654
 30
0.0
 11
-0.622686
 21
0.654
 31
0.0
1001
ACAD
1000
RTLwPs
1070
   158
  0
LINE
  5
221CB
100
AcDbEntity
  8
AREA1
 62
     0
100
AcDbLine
 10
0.445
 20
-2.526
 30
0.0
 11
-0.622686
 21
-2.526
 31
0.0
1001
ACAD
1000
RTLwPs
1070
   158
  0
LINE
  5
221CC
100
AcDbEntity
  8
AREA1
 62
     0
100
AcDbLine
 10
-0.442686
 20
0.474
 30
0.0
 11
-0.442686
 21
0.185072
 31
0.0
1001
ACAD
1000
RTLwPs
1070
   158
  0
LINE
  5
221CD
100
AcDbEntity
  8
AREA1
 62
     0
100
AcDbLine
 10
-0.442686
 20
-2.346
 30
0.0
 11
-0.442686
 21
-2.124928
 31
0.0
1001
ACAD
1000
RTLwPs
1070
   158
  0
MTEXT
  5
221CE
100
AcDbEntity
  8
AREA1
 62
     0
100
AcDbMText
 10
-0.442686
 20
-0.969928
 30
0.0
 40
0.18
 41
0.0
 71
     5
 72
     1
  1
\A1;3 3/16 [80.77]
 11
0.0
 21
1.0
 31
0.0
1001
ACAD
1000
MTEXTBEGIN
1070
    73
1070
     1
1070
    44
1040
1.0
1070
    74
1070
     0
1000
MTEXTEND
1000
MTEXTBEGIN
1070
    73
1070
     1
1070
    44
1040
1.0
1070
    74
1070
     0
1000
MTEXTEND
1000
MTEXTBEGIN
1070
    73
1070
     1
1070
    44
1040
1.0
1070
    74
1070
     0
1000
MTEXTEND
1000
MTEXTBEGIN
1070
    73
1070
     1
1070
    44
1040
1.0
1070
    74
1070
     0
1000
MTEXTEND
1000
MTEXTBEGIN
1070
    73
1070
     1
1070
    44
1040
1.0
1070
    74
1070
     0
1000
MTEXTEND
  0
SOLID
  5
221CF
100
AcDbEntity
  8
AREA1
 62
     0
100
AcDbTrace
 10
-0.472686
 20
0.474
 30
0.0
 11
-0.412686
 21
0.474
 31
0.0
 12
-0.442686
 22
0.654
 32
0.0
 13
-0.442686
 23
0.654
 33
0.0
  0
SOLID
  5
221D0
100
AcDbEntity
  8
AREA1
 62
     0
100
AcDbTrace
 10
-0.472686
 20
-2.346
 30
0.0
 11
-0.412686
 21
-2.346
 31
0.0
 12
-0.442686
 22
-2.526
 32
0.0
 13
-0.442686
 23
-2.526
 33
0.0
  0
POINT
  5
221D1
100
AcDbEntity
  8
DEFPOINTS
 62
     0
100
AcDbPoint
 10
0.8745
 20
0.654
 30
1.388
  0
POINT
  5
221D2
100
AcDbEntity
  8
DEFPOINTS
 62
     0
100
AcDbPoint
 10
0.5075
 20
-2.526
 30
1.388
  0
POINT
  5
221D3
100
AcDbEntity
  8
DEFPOINTS
 62
     0
100
AcDbPoint
 10
-0.442686
 20
-2.526
 30
0.0
  0
ENDBLK
  5
221BC
100
AcDbEntity
  8
0
100
AcDbBlockEnd
  0
BLOCK
  5
221C8
100
AcDbEntity
  8
0
100
AcDbBlockBegin
  2
*D1
 70
     1
 10
0.0
 20
0.0
 30
0.0
  3
*D1
  1

  0
LINE
  5
221D4
100
AcDbEntity
  8
AREA1
 62
     0
100
AcDbLine
 10
0.0
 20
0.5775
 30
0.0
 11
0.0
 21
1.166603
 31
0.0
1001
ACAD
1000
RTLwPs
1070
   158
  0
LINE
  5
221D5
100
AcDbEntity
  8
AREA1
 62
     0
100
AcDbLine
 10
2.12
 20
0.5775
 30
0.0
 11
2.12
 21
1.166603
 31
0.0
1001
ACAD
1000
RTLwPs
1070
   158
  0
LINE
  5
221D6
100
AcDbEntity
  8
AREA1
 62
     0
100
AcDbLine
 10
-0.18
 20
0.986603
 30
0.0
 11
-0.36
 21
0.986603
 31
0.0
1001
ACAD
1000
RTLwPs
1070
   158
  0
LINE
  5
221D7
100
AcDbEntity
  8
AREA1
 62
     0
100
AcDbLine
 10
2.3
 20
0.986603
 30
0.0
 11
2.48
 21
0.986603
 31
0.0
1001
ACAD
1000
RTLwPs
1070
   158
  0
MTEXT
  5
221D8
100
AcDbEntity
  8
AREA1
 62
     0
100
AcDbMText
 10
1.104783
 20
0.986603
 30
0.0
 40
0.18
 41
0.0
 71
     5
 72
     1
  1
\A1;2 1/8 [53.85]
1001
ACAD
1000
MTEXTBEGIN
1070
    73
1070
     1
1070
    44
1040
1.0
1070
    74
1070
     0
1000
MTEXTEND
1000
MTEXTBEGIN
1070
    73
1070
     1
1070
    44
1040
1.0
1070
    74
1070
     0
1000
MTEXTEND
1000
MTEXTBEGIN
1070
    73
1070
     1
1070
    44
1040
1.0
1070
    74
1070
     0
1000
MTEXTEND
1000
MTEXTBEGIN
1070
    73
1070
     1
1070
    44
1040
1.0
1070
    74
1070
     0
1000
MTEXTEND
1000
MTEXTBEGIN
1070
    73
1070
     1
1070
    44
1040
1.0
1070
    74
1070
     0
1000
MTEXTEND
  0
SOLID
  5
221D9
100
AcDbEntity
  8
AREA1
 62
     0
100
AcDbTrace
 10
-0.18
 20
1.016603
 30
0.0
 11
-0.18
 21
0.956603
 31
0.0
 12
0.0
 22
0.986603
 32
0.0
 13
0.0
 23
0.986603
 33
0.0
  0
SOLID
  5
221DA
100
AcDbEntity
  8
AREA1
 62
     0
100
AcDbTrace
 10
2.3
 20
1.016603
 30
0.0
 11
2.3
 21
0.956603
 31
0.0
 12
2.12
 22
0.986603
 32
0.0
 13
2.12
 23
0.986603
 33
0.0
  0
POINT
  5
221DB
100
AcDbEntity
  8
DEFPOINTS
 62
     0
100
AcDbPoint
 10
0.0
 20
0.515
 30
1.641
  0
POINT
  5
221DC
100
AcDbEntity
  8
DEFPOINTS
 62
     0
100
AcDbPoint
 10
2.12
 20
0.515
 30
1.641
  0
POINT
  5
221DD
100
AcDbEntity
  8
DEFPOINTS
 62
     0
100
AcDbPoint
 10
2.12
 20
0.986603
 30
0.0
  0
ENDBLK
  5
221C9
100
AcDbEntity
  8
0
100
AcDbBlockEnd
  0
BLOCK
  5
221EA
100
AcDbEntity
  8
0
100
AcDbBlockBegin
  2
*D2
 70
     1
 10
0.0
 20
0.0
 30
0.0
  3
*D2
  1

  0
LINE
  5
221EE
100
AcDbEntity
  8
AREA2
 62
     0
100
AcDbLine
 10
0.747402
 20
4.11
 30
0.0
 11
-0.903447
 21
4.11
 31
0.0
1001
ACAD
1000
RTLwPs
1070
   158
  0
LINE
  5
221EF
100
AcDbEntity
  8
AREA2
 62
     0
100
AcDbLine
 10
-0.075098
 20
0.0
 30
0.0
 11
-0.903447
 21
0.0
 31
0.0
1001
ACAD
1000
RTLwPs
1070
   158
  0
LINE
  5
221F0
100
AcDbEntity
  8
AREA2
 62
     0
100
AcDbLine
 10
-0.687166
 20
3.893719
 30
0.0
 11
-0.687166
 21
3.236344
 31
0.0
1001
ACAD
1000
RTLwPs
1070
   158
  0
LINE
  5
221F1
100
AcDbEntity
  8
AREA2
 62
     0
100
AcDbLine
 10
-0.687166
 20
0.216281
 30
0.0
 11
-0.687166
 21
0.707056
 31
0.0
1001
ACAD
1000
RTLwPs
1070
   158
  0
MTEXT
  5
221F2
100
AcDbEntity
  8
AREA2
 62
     0
100
AcDbMText
 10
-0.687166
 20
1.9717
 30
0.0
 40
0.180234
 41
0.0
 71
     5
 72
     1
  1
\A1;4 7/64 [104.39]
 11
0.0
 21
1.0
 31
0.0
1001
ACAD
1000
MTEXTBEGIN
1070
    73
1070
     1
1070
    44
1040
1.0
1070
    74
1070
     0
1000
MTEXTEND
1000
MTEXTBEGIN
1070
    73
1070
     1
1070
    44
1040
1.0
1070
    74
1070
     0
1000
MTEXTEND
1000
MTEXTBEGIN
1070
    73
1070
     1
1070
    44
1040
1.0
1070
    74
1070
     0
1000
MTEXTEND
1000
MTEXTBEGIN
1070
    73
1070
     1
1070
    44
1040
1.0
1070
    74
1070
     0
1000
MTEXTEND
1000
MTEXTBEGIN
1070
    73
1070
     1
1070
    44
1040
1.0
1070
    74
1070
     0
1000
MTEXTEND
  0
SOLID
  5
221F3
100
AcDbEntity
  8
AREA2
 62
     0
100
AcDbTrace
 10
-0.723212
 20
3.893719
 30
0.0
 11
-0.651119
 21
3.893719
 31
0.0
 12
-0.687166
 22
4.11
 32
0.0
 13
-0.687166
 23
4.11
 33
0.0
  0
SOLID
  5
221F4
100
AcDbEntity
  8
AREA2
 62
     0
100
AcDbTrace
 10
-0.723212
 20
0.216281
 30
0.0
 11
-0.651119
 21
0.216281
 31
0.0
 12
-0.687166
 22
0.0
 32
0.0
 13
-0.687166
 23
0.0
 33
0.0
  0
POINT
  5
221F5
100
AcDbEntity
  8
DEFPOINTS
 62
     0
100
AcDbPoint
 10
0.8225
 20
4.11
 30
0.6775
  0
POINT
  5
221F6
100
AcDbEntity
  8
DEFPOINTS
 62
     0
100
AcDbPoint
 10
0.0
 20
0.0
 30
1.806
  0
POINT
  5
221F7
100
AcDbEntity
  8
DEFPOINTS
 62
     0
100
AcDbPoint
 10
-0.687166
 20
0.0
 30
0.0
  0
ENDBLK
  5
221EB
100
AcDbEntity
  8
0
100
AcDbBlockEnd
  0
ENDSEC
  0
SECTION
  2
ENTITIES
  0
ATTDEF
  5
21E58
100
AcDbEntity
  8
ATTRIBUTES
100
AcDbText
 10
0.078485
 20
-0.246172
 30
0.0
 40
0.08052
  1
ALLEN-BRADLEY
100
AcDbAttributeDefinition
  3
MANUFACTURER NAME?
  2
AC_VND_LABEL
 70
     1
  0
ATTDEF
  5
21E59
100
AcDbEntity
  8
ATTRIBUTES
100
AcDbText
 10
0.078485
 20
-0.413922
 30
0.0
 40
0.08052
  1
100-C43U*00
100
AcDbAttributeDefinition
  3
CATALOG NUMBER?
  2
AC_PART_NO
 70
     1
  0
ATTDEF
  5
21E5A
100
AcDbEntity
  8
ATTRIBUTES
100
AcDbText
 10
0.078485
 20
-0.581673
 30
0.0
 40
0.08052
  1
MCS IEC AC CONTACTOR; 43A
100
AcDbAttributeDefinition
  3
PART DESCRIPTION?
  2
AC_DESCRIPTION
 70
     1
  0
ATTDEF
  5
21E5B
100
AcDbEntity
  8
ATTRIBUTES
100
AcDbText
 10
0.078485
 20
-0.749424
 30
0.0
 40
0.08052
  1

100
AcDbAttributeDefinition
  3
DEVICE ID?
  2
DEVICE_ID
 70
     1
  0
ATTDEF
  5
21E5C
100
AcDbEntity
  8
ATTRIBUTES
100
AcDbText
 10
0.078485
 20
-0.917175
 30
0.0
 40
0.08052
  1

100
AcDbAttributeDefinition
  3
CUSTOMER PART NUMBER?
  2
AC_CPART_NO
 70
     1
  0
ATTDEF
  5
21E5D
100
AcDbEntity
  8
ATTRIBUTES
100
AcDbText
 10
0.078485
 20
-1.084925
 30
0.0
 40
0.08052
  1

100
AcDbAttributeDefinition
  3
CUSTOMER NOTE?
  2
AC_NOTE
 70
     1
  0
ATTDEF
  5
21E5E
100
AcDbEntity
  8
ATTRIBUTES
100
AcDbText
 10
0.078485
 20
-1.252676
 30
0.0
 40
0.08052
  1

100
AcDbAttributeDefinition
  3
FASTENER DATA?
  2
FASTENER
 70
     1
  0
ATTDEF
  5
21E5F
100
AcDbEntity
  8
ATTRIBUTES
100
AcDbText
 10
0.078485
 20
-1.420427
 30
0.0
 40
0.08052
  1
INCH
100
AcDbAttributeDefinition
  3
UNIT OF SCALE?
  2
AC_SCALE_UNIT
 70
     1
  0
ATTDEF
  5
21E60
100
AcDbEntity
  8
ATTRIBUTES
100
AcDbText
 10
0.078485
 20
-1.588178
 30
0.0
 40
0.08052
  1
0
100
AcDbAttributeDefinition
  3
VIEW CODE?
  2
AC_VIEW_CODE
 70
     1
  0
CIRCLE
  5
21E61
100
AcDbEntity
  8
0
100
AcDbCircle
 10
0.37135
 20
0.180798
 30
3.86
 40
0.138
  0
POLYLINE
  5
21E62
100
AcDbEntity
  8
0
100
AcDbPolygonMesh
 66
     1
 10
0.0
 20
0.0
 30
0.0
 70
    16
 71
     6
 72
     3
  0
VERTEX
  5
21E63
100
AcDbEntity
  8
0
100
AcDbVertex
100
AcDbPolygonMeshVertex
 10
1.4455
 20
-1.5045
 30
4.06
 70
    64
  0
VERTEX
  5
21E64
100
AcDbEntity
  8
0
100
AcDbVertex
100
AcDbPolygonMeshVertex
 10
1.4455
 20
-1.5045
 30
3.86
 70
    64
  0
VERTEX
  5
21E65
100
AcDbEntity
  8
0
100
AcDbVertex
100
AcDbPolygonMeshVertex
 10
1.4455
 20
-1.5045
 30
3.86
 70
    64
  0
VERTEX
  5
21E66
100
AcDbEntity
  8
0
100
AcDbVertex
100
AcDbPolygonMeshVertex
 10
0.6745
 20
-1.5045
 30
4.06
 70
    64
  0
VERTEX
  5
21E67
100
AcDbEntity
  8
0
100
AcDbVertex
100
AcDbPolygonMeshVertex
 10
0.6745
 20
-1.5045
 30
3.86
 70
    64
  0
VERTEX
  5
21E68
100
AcDbEntity
  8
0
100
AcDbVertex
100
AcDbPolygonMeshVertex
 10
0.6745
 20
-1.5045
 30
3.86
 70
    64
  0
VERTEX
  5
21E69
100
AcDbEntity
  8
0
100
AcDbVertex
100
AcDbPolygonMeshVertex
 10
0.6745
 20
-1.2225
 30
4.06
 70
    64
  0
VERTEX
  5
21E6A
100
AcDbEntity
  8
0
100
AcDbVertex
100
AcDbPolygonMeshVertex
 10
0.6745
 20
-1.2225
 30
3.86
 70
    64
  0
VERTEX
  5
21E6B
100
AcDbEntity
  8
0
100
AcDbVertex
100
AcDbPolygonMeshVertex
 10
0.6745
 20
-1.5045
 30
3.86
 70
    64
  0
VERTEX
  5
21E6C
100
AcDbEntity
  8
0
100
AcDbVertex
100
AcDbPolygonMeshVertex
 10
1.4455
 20
-1.2225
 30
4.06
 70
    64
  0
VERTEX
  5
21E6D
100
AcDbEntity
  8
0
100
AcDbVertex
100
AcDbPolygonMeshVertex
 10
1.4455
 20
-1.2225
 30
3.86
 70
    64
  0
VERTEX
  5
21E6E
100
AcDbEntity
  8
0
100
AcDbVertex
100
AcDbPolygonMeshVertex
 10
1.4455
 20
-1.5045
 30
3.86
 70
    64
  0
VERTEX
  5
21E6F
100
AcDbEntity
  8
0
100
AcDbVertex
100
AcDbPolygonMeshVertex
 10
1.4455
 20
-1.2225
 30
4.06
 70
    64
  0
VERTEX
  5
21E70
100
AcDbEntity
  8
0
100
AcDbVertex
100
AcDbPolygonMeshVertex
 10
1.4455
 20
-1.2225
 30
4.06
 70
    64
  0
VERTEX
  5
21E71
100
AcDbEntity
  8
0
100
AcDbVertex
100
AcDbPolygonMeshVertex
 10
1.4455
 20
-1.5045
 30
4.06
 70
    64
  0
VERTEX
  5
21E72
100
AcDbEntity
  8
0
100
AcDbVertex
100
AcDbPolygonMeshVertex
 10
0.6745
 20
-1.2225
 30
4.06
 70
    64
  0
VERTEX
  5
21E73
100
AcDbEntity
  8
0
100
AcDbVertex
100
AcDbPolygonMeshVertex
 10
0.6745
 20
-1.2225
 30
4.06
 70
    64
  0
VERTEX
  5
21E74
100
AcDbEntity
  8
0
100
AcDbVertex
100
AcDbPolygonMeshVertex
 10
0.6745
 20
-1.5045
 30
4.06
 70
    64
  0
SEQEND
  5
21E75
100
AcDbEntity
  8
0
  0
POLYLINE
  5
21E76
100
AcDbEntity
  8
0
100
AcDbPolygonMesh
 66
     1
 10
0.0
 20
0.0
 30
0.0
 70
    16
 71
     6
 72
     3
  0
VERTEX
  5
21E77
100
AcDbEntity
  8
0
100
AcDbVertex
100
AcDbPolygonMeshVertex
 10
1.2455
 20
0.654
 30
2.062
 70
    64
  0
VERTEX
  5
21E78
100
AcDbEntity
  8
0
100
AcDbVertex
100
AcDbPolygonMeshVertex
 10
1.2455
 20
0.654
 30
1.388
 70
    64
  0
VERTEX
  5
21E79
100
AcDbEntity
  8
0
100
AcDbVertex
100
AcDbPolygonMeshVertex
 10
1.2455
 20
0.654
 30
1.388
 70
    64
  0
VERTEX
  5
21E7A
100
AcDbEntity
  8
0
100
AcDbVertex
100
AcDbPolygonMeshVertex
 10
0.8745
 20
0.654
 30
2.062
 70
    64
  0
VERTEX
  5
21E7B
100
AcDbEntity
  8
0
100
AcDbVertex
100
AcDbPolygonMeshVertex
 10
0.8745
 20
0.654
 30
1.388
 70
    64
  0
VERTEX
  5
21E7C
100
AcDbEntity
  8
0
100
AcDbVertex
100
AcDbPolygonMeshVertex
 10
0.8745
 20
0.654
 30
1.388
 70
    64
  0
VERTEX
  5
21E7D
100
AcDbEntity
  8
0
100
AcDbVertex
100
AcDbPolygonMeshVertex
 10
0.8745
 20
0.401
 30
2.062
 70
    64
  0
VERTEX
  5
21E7E
100
AcDbEntity
  8
0
100
AcDbVertex
100
AcDbPolygonMeshVertex
 10
0.8745
 20
0.401
 30
1.388
 70
    64
  0
VERTEX
  5
21E7F
100
AcDbEntity
  8
0
100
AcDbVertex
100
AcDbPolygonMeshVertex
 10
0.8745
 20
0.654
 30
1.388
 70
    64
  0
VERTEX
  5
21E80
100
AcDbEntity
  8
0
100
AcDbVertex
100
AcDbPolygonMeshVertex
 10
1.2455
 20
0.401
 30
2.062
 70
    64
  0
VERTEX
  5
21E81
100
AcDbEntity
  8
0
100
AcDbVertex
100
AcDbPolygonMeshVertex
 10
1.2455
 20
0.401
 30
1.388
 70
    64
  0
VERTEX
  5
21E82
100
AcDbEntity
  8
0
100
AcDbVertex
100
AcDbPolygonMeshVertex
 10
1.2455
 20
0.654
 30
1.388
 70
    64
  0
VERTEX
  5
21E83
100
AcDbEntity
  8
0
100
AcDbVertex
100
AcDbPolygonMeshVertex
 10
1.2455
 20
0.401
 30
2.062
 70
    64
  0
VERTEX
  5
21E84
100
AcDbEntity
  8
0
100
AcDbVertex
100
AcDbPolygonMeshVertex
 10
1.2455
 20
0.401
 30
2.062
 70
    64
  0
VERTEX
  5
21E85
100
AcDbEntity
  8
0
100
AcDbVertex
100
AcDbPolygonMeshVertex
 10
1.2455
 20
0.654
 30
2.062
 70
    64
  0
VERTEX
  5
21E86
100
AcDbEntity
  8
0
100
AcDbVertex
100
AcDbPolygonMeshVertex
 10
0.8745
 20
0.401
 30
2.062
 70
    64
  0
VERTEX
  5
21E87
100
AcDbEntity
  8
0
100
AcDbVertex
100
AcDbPolygonMeshVertex
 10
0.8745
 20
0.401
 30
2.062
 70
    64
  0
VERTEX
  5
21E88
100
AcDbEntity
  8
0
100
AcDbVertex
100
AcDbPolygonMeshVertex
 10
0.8745
 20
0.654
 30
2.062
 70
    64
  0
SEQEND
  5
21E89
100
AcDbEntity
  8
0
  0
LWPOLYLINE
  5
21E8A
100
AcDbEntity
  8
0
100
AcDbPolyline
 90
        4
 70
     1
 43
0.0
 38
2.062
 10
0.9265
 20
0.453
 10
1.1935
 20
0.453
 10
1.1935
 20
0.602
 10
0.9265
 20
0.602
  0
POLYLINE
  5
21E8B
100
AcDbEntity
  8
0
100
AcDbPolygonMesh
 66
     1
 10
0.0
 20
0.0
 30
0.0
 70
    16
 71
     6
 72
     3
  0
VERTEX
  5
21E8C
100
AcDbEntity
  8
0
100
AcDbVertex
100
AcDbPolygonMeshVertex
 10
0.5075
 20
-2.526
 30
2.062
 70
    64
  0
VERTEX
  5
21E8D
100
AcDbEntity
  8
0
100
AcDbVertex
100
AcDbPolygonMeshVertex
 10
0.5075
 20
-2.526
 30
1.388
 70
    64
  0
VERTEX
  5
21E8E
100
AcDbEntity
  8
0
100
AcDbVertex
100
AcDbPolygonMeshVertex
 10
0.5075
 20
-2.526
 30
1.388
 70
    64
  0
VERTEX
  5
21E8F
100
AcDbEntity
  8
0
100
AcDbVertex
100
AcDbPolygonMeshVertex
 10
1.6125
 20
-2.526
 30
2.062
 70
    64
  0
VERTEX
  5
21E90
100
AcDbEntity
  8
0
100
AcDbVertex
100
AcDbPolygonMeshVertex
 10
1.6125
 20
-2.526
 30
1.388
 70
    64
  0
VERTEX
  5
21E91
100
AcDbEntity
  8
0
100
AcDbVertex
100
AcDbPolygonMeshVertex
 10
1.6125
 20
-2.526
 30
1.388
 70
    64
  0
VERTEX
  5
21E92
100
AcDbEntity
  8
0
100
AcDbVertex
100
AcDbPolygonMeshVertex
 10
1.6125
 20
-2.089
 30
2.062
 70
    64
  0
VERTEX
  5
21E93
100
AcDbEntity
  8
0
100
AcDbVertex
100
AcDbPolygonMeshVertex
 10
1.6125
 20
-2.089
 30
1.388
 70
    64
  0
VERTEX
  5
21E94
100
AcDbEntity
  8
0
100
AcDbVertex
100
AcDbPolygonMeshVertex
 10
1.6125
 20
-2.526
 30
1.388
 70
    64
  0
VERTEX
  5
21E95
100
AcDbEntity
  8
0
100
AcDbVertex
100
AcDbPolygonMeshVertex
 10
0.5075
 20
-2.089
 30
2.062
 70
    64
  0
VERTEX
  5
21E96
100
AcDbEntity
  8
0
100
AcDbVertex
100
AcDbPolygonMeshVertex
 10
0.5075
 20
-2.089
 30
1.388
 70
    64
  0
VERTEX
  5
21E97
100
AcDbEntity
  8
0
100
AcDbVertex
100
AcDbPolygonMeshVertex
 10
0.5075
 20
-2.526
 30
1.388
 70
    64
  0
VERTEX
  5
21E98
100
AcDbEntity
  8
0
100
AcDbVertex
100
AcDbPolygonMeshVertex
 10
0.5075
 20
-2.089
 30
2.062
 70
    64
  0
VERTEX
  5
21E99
100
AcDbEntity
  8
0
100
AcDbVertex
100
AcDbPolygonMeshVertex
 10
0.5075
 20
-2.089
 30
2.062
 70
    64
  0
VERTEX
  5
21E9A
100
AcDbEntity
  8
0
100
AcDbVertex
100
AcDbPolygonMeshVertex
 10
0.5075
 20
-2.526
 30
2.062
 70
    64
  0
VERTEX
  5
21E9B
100
AcDbEntity
  8
0
100
AcDbVertex
100
AcDbPolygonMeshVertex
 10
1.6125
 20
-2.089
 30
2.062
 70
    64
  0
VERTEX
  5
21E9C
100
AcDbEntity
  8
0
100
AcDbVertex
100
AcDbPolygonMeshVertex
 10
1.6125
 20
-2.089
 30
2.062
 70
    64
  0
VERTEX
  5
21E9D
100
AcDbEntity
  8
0
100
AcDbVertex
100
AcDbPolygonMeshVertex
 10
1.6125
 20
-2.526
 30
2.062
 70
    64
  0
SEQEND
  5
21E9E
100
AcDbEntity
  8
0
  0
LINE
  5
21E9F
100
AcDbEntity
  8
0
100
AcDbLine
 10
0.92
 20
-2.089
 30
2.062
 11
0.92
 21
-2.324
 31
2.062
  0
LINE
  5
21EA0
100
AcDbEntity
  8
0
100
AcDbLine
 10
1.2
 20
-2.324
 30
2.062
 11
0.92
 21
-2.324
 31
2.062
  0
LINE
  5
21EA1
100
AcDbEntity
  8
0
100
AcDbLine
 10
0.8795
 20
-2.526
 30
1.841
 11
0.5625
 21
-2.526
 31
1.841
  0
LINE
  5
21EA2
100
AcDbEntity
  8
0
100
AcDbLine
 10
0.8795
 20
-2.526
 30
1.641
 11
0.5625
 21
-2.526
 31
1.641
  0
LINE
  5
21EA3
100
AcDbEntity
  8
0
100
AcDbLine
 10
0.8795
 20
-2.526
 30
1.841
 11
0.8795
 21
-2.526
 31
1.641
  0
CIRCLE
  5
21EA4
100
AcDbEntity
  8
0
100
AcDbCircle
 10
0.721
 20
-2.3075
 30
2.062
 40
0.12
  0
CIRCLE
  5
21EA5
100
AcDbEntity
  8
0
100
AcDbCircle
 10
1.399
 20
-2.3075
 30
2.062
 40
0.12
  0
LINE
  5
21EA6
100
AcDbEntity
  8
0
100
AcDbLine
 10
1.2405
 20
-2.526
 30
1.641
 11
1.5575
 21
-2.526
 31
1.641
  0
LINE
  5
21EA7
100
AcDbEntity
  8
0
100
AcDbLine
 10
1.2405
 20
-2.526
 30
1.841
 11
1.5575
 21
-2.526
 31
1.841
  0
LINE
  5
21EA8
100
AcDbEntity
  8
0
100
AcDbLine
 10
1.5575
 20
-2.526
 30
1.841
 11
1.5575
 21
-2.526
 31
1.641
  0
LINE
  5
21EA9
100
AcDbEntity
  8
0
100
AcDbLine
 10
1.2405
 20
-2.526
 30
1.841
 11
1.2405
 21
-2.526
 31
1.641
  0
POLYLINE
  5
21EAA
100
AcDbEntity
  8
0
100
AcDb3dPolyline
 66
     1
 10
0.0
 20
0.0
 30
0.0
 70
     8
  0
VERTEX
  5
21EAB
100
AcDbEntity
  8
0
100
AcDbVertex
100
AcDb3dPolylineVertex
 10
2.12
 20
-1.473
 30
0.187
 70
    32
  0
VERTEX
  5
21EAC
100
AcDbEntity
  8
0
100
AcDbVertex
100
AcDb3dPolylineVertex
 10
2.12
 20
-1.473
 30
1.057
 70
    32
  0
VERTEX
  5
21EAD
100
AcDbEntity
  8
0
100
AcDbVertex
100
AcDb3dPolylineVertex
 10
2.12
 20
-1.628
 30
1.057
 70
    32
  0
VERTEX
  5
21EAE
100
AcDbEntity
  8
0
100
AcDbVertex
100
AcDb3dPolylineVertex
 10
2.12
 20
-1.628
 30
0.187
 70
    32
  0
SEQEND
  5
21EAF
100
AcDbEntity
  8
0
  0
POLYLINE
  5
21EB0
100
AcDbEntity
  8
0
100
AcDb3dPolyline
 66
     1
 10
0.0
 20
0.0
 30
0.0
 70
     8
  0
VERTEX
  5
21EB1
100
AcDbEntity
  8
0
100
AcDbVertex
100
AcDb3dPolylineVertex
 10
2.12
 20
-0.094
 30
0.187
 70
    32
  0
VERTEX
  5
21EB2
100
AcDbEntity
  8
0
100
AcDbVertex
100
AcDb3dPolylineVertex
 10
2.12
 20
-0.094
 30
1.057
 70
    32
  0
VERTEX
  5
21EB3
100
AcDbEntity
  8
0
100
AcDbVertex
100
AcDb3dPolylineVertex
 10
2.12
 20
-0.249
 30
1.057
 70
    32
  0
VERTEX
  5
21EB4
100
AcDbEntity
  8
0
100
AcDbVertex
100
AcDb3dPolylineVertex
 10
2.12
 20
-0.249
 30
0.187
 70
    32
  0
SEQEND
  5
21EB5
100
AcDbEntity
  8
0
  0
POLYLINE
  5
21EB6
100
AcDbEntity
  8
0
100
AcDb3dPolyline
 66
     1
 10
0.0
 20
0.0
 30
0.0
 70
     8
  0
VERTEX
  5
21EB7
100
AcDbEntity
  8
0
100
AcDbVertex
100
AcDb3dPolylineVertex
 10
0.0
 20
-0.094
 30
0.187
 70
    32
  0
VERTEX
  5
21EB8
100
AcDbEntity
  8
0
100
AcDbVertex
100
AcDb3dPolylineVertex
 10
0.0
 20
-0.094
 30
1.057
 70
    32
  0
VERTEX
  5
21EB9
100
AcDbEntity
  8
0
100
AcDbVertex
100
AcDb3dPolylineVertex
 10
0.0
 20
-0.249
 30
1.057
 70
    32
  0
VERTEX
  5
21EBA
100
AcDbEntity
  8
0
100
AcDbVertex
100
AcDb3dPolylineVertex
 10
0.0
 20
-0.249
 30
0.187
 70
    32
  0
SEQEND
  5
21EBB
100
AcDbEntity
  8
0
  0
POLYLINE
  5
21EBC
100
AcDbEntity
  8
0
100
AcDb3dPolyline
 66
     1
 10
0.0
 20
0.0
 30
0.0
 70
     8
  0
VERTEX
  5
21EBD
100
AcDbEntity
  8
0
100
AcDbVertex
100
AcDb3dPolylineVertex
 10
0.0
 20
-1.473
 30
0.187
 70
    32
  0
VERTEX
  5
21EBE
100
AcDbEntity
  8
0
100
AcDbVertex
100
AcDb3dPolylineVertex
 10
0.0
 20
-1.473
 30
1.057
 70
    32
  0
VERTEX
  5
21EBF
100
AcDbEntity
  8
0
100
AcDbVertex
100
AcDb3dPolylineVertex
 10
0.0
 20
-1.628
 30
1.057
 70
    32
  0
VERTEX
  5
21EC0
100
AcDbEntity
  8
0
100
AcDbVertex
100
AcDb3dPolylineVertex
 10
0.0
 20
-1.628
 30
0.187
 70
    32
  0
SEQEND
  5
21EC1
100
AcDbEntity
  8
0
  0
POLYLINE
  5
21EC2
100
AcDbEntity
  8
0
100
AcDbPolygonMesh
 66
     1
 10
0.0
 20
0.0
 30
0.0
 70
    16
 71
     6
 72
     3
  0
VERTEX
  5
21EC3
100
AcDbEntity
  8
0
100
AcDbVertex
100
AcDbPolygonMeshVertex
 10
0.161
 20
0.598
 30
0.187
 70
    64
  0
VERTEX
  5
21EC4
100
AcDbEntity
  8
0
100
AcDbVertex
100
AcDbPolygonMeshVertex
 10
0.161
 20
0.598
 30
0.0
 70
    64
  0
VERTEX
  5
21EC5
100
AcDbEntity
  8
0
100
AcDbVertex
100
AcDbPolygonMeshVertex
 10
0.161
 20
0.598
 30
0.0
 70
    64
  0
VERTEX
  5
21EC6
100
AcDbEntity
  8
0
100
AcDbVertex
100
AcDbPolygonMeshVertex
 10
1.041
 20
0.598
 30
0.187
 70
    64
  0
VERTEX
  5
21EC7
100
AcDbEntity
  8
0
100
AcDbVertex
100
AcDbPolygonMeshVertex
 10
1.041
 20
0.598
 30
0.0
 70
    64
  0
VERTEX
  5
21EC8
100
AcDbEntity
  8
0
100
AcDbVertex
100
AcDbPolygonMeshVertex
 10
1.041
 20
0.598
 30
0.0
 70
    64
  0
VERTEX
  5
21EC9
100
AcDbEntity
  8
0
100
AcDbVertex
100
AcDbPolygonMeshVertex
 10
1.041
 20
0.0
 30
0.187
 70
    64
  0
VERTEX
  5
21ECA
100
AcDbEntity
  8
0
100
AcDbVertex
100
AcDbPolygonMeshVertex
 10
1.041
 20
0.0
 30
0.0
 70
    64
  0
VERTEX
  5
21ECB
100
AcDbEntity
  8
0
100
AcDbVertex
100
AcDbPolygonMeshVertex
 10
1.041
 20
0.598
 30
0.0
 70
    64
  0
VERTEX
  5
21ECC
100
AcDbEntity
  8
0
100
AcDbVertex
100
AcDbPolygonMeshVertex
 10
0.161
 20
0.0
 30
0.187
 70
    64
  0
VERTEX
  5
21ECD
100
AcDbEntity
  8
0
100
AcDbVertex
100
AcDbPolygonMeshVertex
 10
0.161
 20
0.0
 30
0.0
 70
    64
  0
VERTEX
  5
21ECE
100
AcDbEntity
  8
0
100
AcDbVertex
100
AcDbPolygonMeshVertex
 10
0.161
 20
0.598
 30
0.0
 70
    64
  0
VERTEX
  5
21ECF
100
AcDbEntity
  8
0
100
AcDbVertex
100
AcDbPolygonMeshVertex
 10
0.161
 20
0.0
 30
0.187
 70
    64
  0
VERTEX
  5
21ED0
100
AcDbEntity
  8
0
100
AcDbVertex
100
AcDbPolygonMeshVertex
 10
0.161
 20
0.0
 30
0.187
 70
    64
  0
VERTEX
  5
21ED1
100
AcDbEntity
  8
0
100
AcDbVertex
100
AcDbPolygonMeshVertex
 10
0.161
 20
0.598
 30
0.187
 70
    64
  0
VERTEX
  5
21ED2
100
AcDbEntity
  8
0
100
AcDbVertex
100
AcDbPolygonMeshVertex
 10
1.041
 20
0.0
 30
0.187
 70
    64
  0
VERTEX
  5
21ED3
100
AcDbEntity
  8
0
100
AcDbVertex
100
AcDbPolygonMeshVertex
 10
1.041
 20
0.0
 30
0.187
 70
    64
  0
VERTEX
  5
21ED4
100
AcDbEntity
  8
0
100
AcDbVertex
100
AcDbPolygonMeshVertex
 10
1.041
 20
0.598
 30
0.187
 70
    64
  0
SEQEND
  5
21ED5
100
AcDbEntity
  8
0
  0
CIRCLE
  5
21ED6
100
AcDbEntity
  8
0
100
AcDbCircle
 10
1.945
 20
0.337
 30
0.316
 40
0.086
  0
POLYLINE
  5
21ED7
100
AcDbEntity
  8
0
100
AcDb3dPolyline
 66
     1
 10
0.0
 20
0.0
 30
0.0
 70
     8
  0
VERTEX
  5
21ED8
100
AcDbEntity
  8
0
100
AcDbVertex
100
AcDb3dPolylineVertex
 10
0.706333
 20
0.401
 30
0.187
 70
    32
  0
VERTEX
  5
21ED9
100
AcDbEntity
  8
0
100
AcDbVertex
100
AcDb3dPolylineVertex
 10
0.706333
 20
0.536
 30
0.187
 70
    32
  0
VERTEX
  5
21EDA
100
AcDbEntity
  8
0
100
AcDbVertex
100
AcDb3dPolylineVertex
 10
0.495667
 20
0.536
 30
0.187
 70
    32
  0
VERTEX
  5
21EDB
100
AcDbEntity
  8
0
100
AcDbVertex
100
AcDb3dPolylineVertex
 10
0.495667
 20
0.401
 30
0.187
 70
    32
  0
SEQEND
  5
21EDC
100
AcDbEntity
  8
0
  0
POLYLINE
  5
21EDD
100
AcDbEntity
  8
0
100
AcDb3dPolyline
 66
     1
 10
0.0
 20
0.0
 30
0.0
 70
     8
  0
VERTEX
  5
21EDE
100
AcDbEntity
  8
0
100
AcDbVertex
100
AcDb3dPolylineVertex
 10
0.433667
 20
0.401
 30
0.187
 70
    32
  0
VERTEX
  5
21EDF
100
AcDbEntity
  8
0
100
AcDbVertex
100
AcDb3dPolylineVertex
 10
0.433667
 20
0.536
 30
0.187
 70
    32
  0
VERTEX
  5
21EE0
100
AcDbEntity
  8
0
100
AcDbVertex
100
AcDb3dPolylineVertex
 10
0.223
 20
0.536
 30
0.187
 70
    32
  0
VERTEX
  5
21EE1
100
AcDbEntity
  8
0
100
AcDbVertex
100
AcDb3dPolylineVertex
 10
0.223
 20
0.401
 30
0.187
 70
    32
  0
SEQEND
  5
21EE2
100
AcDbEntity
  8
0
  0
POLYLINE
  5
21EE3
100
AcDbEntity
  8
0
100
AcDb3dPolyline
 66
     1
 10
0.0
 20
0.0
 30
0.0
 70
     8
  0
VERTEX
  5
21EE4
100
AcDbEntity
  8
0
100
AcDbVertex
100
AcDb3dPolylineVertex
 10
0.979
 20
0.401
 30
0.187
 70
    32
  0
VERTEX
  5
21EE5
100
AcDbEntity
  8
0
100
AcDbVertex
100
AcDb3dPolylineVertex
 10
0.979
 20
0.536
 30
0.187
 70
    32
  0
VERTEX
  5
21EE6
100
AcDbEntity
  8
0
100
AcDbVertex
100
AcDb3dPolylineVertex
 10
0.768333
 20
0.536
 30
0.187
 70
    32
  0
VERTEX
  5
21EE7
100
AcDbEntity
  8
0
100
AcDbVertex
100
AcDb3dPolylineVertex
 10
0.768333
 20
0.401
 30
0.187
 70
    32
  0
SEQEND
  5
21EE8
100
AcDbEntity
  8
0
  0
POLYLINE
  5
21EE9
100
AcDbEntity
  8
0
100
AcDbPolygonMesh
 66
     1
 10
0.0
 20
0.0
 30
0.0
 70
    16
 71
     6
 72
     3
  0
VERTEX
  5
21EEA
100
AcDbEntity
  8
0
100
AcDbVertex
100
AcDbPolygonMeshVertex
 10
0.864
 20
-0.5675
 30
4.071
 70
    64
  0
VERTEX
  5
21EEB
100
AcDbEntity
  8
0
100
AcDbVertex
100
AcDbPolygonMeshVertex
 10
0.864
 20
-0.5675
 30
3.894
 70
    64
  0
VERTEX
  5
21EEC
100
AcDbEntity
  8
0
100
AcDbVertex
100
AcDbPolygonMeshVertex
 10
0.864
 20
-0.5675
 30
3.894
 70
    64
  0
VERTEX
  5
21EED
100
AcDbEntity
  8
0
100
AcDbVertex
100
AcDbPolygonMeshVertex
 10
0.6945
 20
-0.5675
 30
4.071
 70
    64
  0
VERTEX
  5
21EEE
100
AcDbEntity
  8
0
100
AcDbVertex
100
AcDbPolygonMeshVertex
 10
0.6945
 20
-0.5675
 30
3.894
 70
    64
  0
VERTEX
  5
21EEF
100
AcDbEntity
  8
0
100
AcDbVertex
100
AcDbPolygonMeshVertex
 10
0.6945
 20
-0.5675
 30
3.894
 70
    64
  0
VERTEX
  5
21EF0
100
AcDbEntity
  8
0
100
AcDbVertex
100
AcDbPolygonMeshVertex
 10
0.6945
 20
-0.2145
 30
4.071
 70
    64
  0
VERTEX
  5
21EF1
100
AcDbEntity
  8
0
100
AcDbVertex
100
AcDbPolygonMeshVertex
 10
0.6945
 20
-0.2145
 30
3.894
 70
    64
  0
VERTEX
  5
21EF2
100
AcDbEntity
  8
0
100
AcDbVertex
100
AcDbPolygonMeshVertex
 10
0.6945
 20
-0.5675
 30
3.894
 70
    64
  0
VERTEX
  5
21EF3
100
AcDbEntity
  8
0
100
AcDbVertex
100
AcDbPolygonMeshVertex
 10
0.864
 20
-0.2145
 30
4.071
 70
    64
  0
VERTEX
  5
21EF4
100
AcDbEntity
  8
0
100
AcDbVertex
100
AcDbPolygonMeshVertex
 10
0.864
 20
-0.2145
 30
3.894
 70
    64
  0
VERTEX
  5
21EF5
100
AcDbEntity
  8
0
100
AcDbVertex
100
AcDbPolygonMeshVertex
 10
0.864
 20
-0.5675
 30
3.894
 70
    64
  0
VERTEX
  5
21EF6
100
AcDbEntity
  8
0
100
AcDbVertex
100
AcDbPolygonMeshVertex
 10
0.864
 20
-0.2145
 30
4.071
 70
    64
  0
VERTEX
  5
21EF7
100
AcDbEntity
  8
0
100
AcDbVertex
100
AcDbPolygonMeshVertex
 10
0.864
 20
-0.2145
 30
4.071
 70
    64
  0
VERTEX
  5
21EF8
100
AcDbEntity
  8
0
100
AcDbVertex
100
AcDbPolygonMeshVertex
 10
0.864
 20
-0.5675
 30
4.071
 70
    64
  0
VERTEX
  5
21EF9
100
AcDbEntity
  8
0
100
AcDbVertex
100
AcDbPolygonMeshVertex
 10
0.6945
 20
-0.2145
 30
4.071
 70
    64
  0
VERTEX
  5
21EFA
100
AcDbEntity
  8
0
100
AcDbVertex
100
AcDbPolygonMeshVertex
 10
0.6945
 20
-0.2145
 30
4.071
 70
    64
  0
VERTEX
  5
21EFB
100
AcDbEntity
  8
0
100
AcDbVertex
100
AcDbPolygonMeshVertex
 10
0.6945
 20
-0.5675
 30
4.071
 70
    64
  0
SEQEND
  5
21EFC
100
AcDbEntity
  8
0
  0
POLYLINE
  5
21EFD
100
AcDbEntity
  8
0
100
AcDbPolygonMesh
 66
     1
 10
0.0
 20
0.0
 30
0.0
 70
    16
 71
     6
 72
     3
  0
VERTEX
  5
21EFE
100
AcDbEntity
  8
0
100
AcDbVertex
100
AcDbPolygonMeshVertex
 10
1.4255
 20
-0.5675
 30
3.894
 70
    64
  0
VERTEX
  5
21EFF
100
AcDbEntity
  8
0
100
AcDbVertex
100
AcDbPolygonMeshVertex
 10
1.4255
 20
-0.5675
 30
3.86
 70
    64
  0
VERTEX
  5
21F00
100
AcDbEntity
  8
0
100
AcDbVertex
100
AcDbPolygonMeshVertex
 10
1.4255
 20
-0.5675
 30
3.86
 70
    64
  0
VERTEX
  5
21F01
100
AcDbEntity
  8
0
100
AcDbVertex
100
AcDbPolygonMeshVertex
 10
0.6945
 20
-0.5675
 30
3.894
 70
    64
  0
VERTEX
  5
21F02
100
AcDbEntity
  8
0
100
AcDbVertex
100
AcDbPolygonMeshVertex
 10
0.6945
 20
-0.5675
 30
3.86
 70
    64
  0
VERTEX
  5
21F03
100
AcDbEntity
  8
0
100
AcDbVertex
100
AcDbPolygonMeshVertex
 10
0.6945
 20
-0.5675
 30
3.86
 70
    64
  0
VERTEX
  5
21F04
100
AcDbEntity
  8
0
100
AcDbVertex
100
AcDbPolygonMeshVertex
 10
0.6945
 20
-0.2145
 30
3.894
 70
    64
  0
VERTEX
  5
21F05
100
AcDbEntity
  8
0
100
AcDbVertex
100
AcDbPolygonMeshVertex
 10
0.6945
 20
-0.2145
 30
3.86
 70
    64
  0
VERTEX
  5
21F06
100
AcDbEntity
  8
0
100
AcDbVertex
100
AcDbPolygonMeshVertex
 10
0.6945
 20
-0.5675
 30
3.86
 70
    64
  0
VERTEX
  5
21F07
100
AcDbEntity
  8
0
100
AcDbVertex
100
AcDbPolygonMeshVertex
 10
1.4255
 20
-0.2145
 30
3.894
 70
    64
  0
VERTEX
  5
21F08
100
AcDbEntity
  8
0
100
AcDbVertex
100
AcDbPolygonMeshVertex
 10
1.4255
 20
-0.2145
 30
3.86
 70
    64
  0
VERTEX
  5
21F09
100
AcDbEntity
  8
0
100
AcDbVertex
100
AcDbPolygonMeshVertex
 10
1.4255
 20
-0.5675
 30
3.86
 70
    64
  0
VERTEX
  5
21F0A
100
AcDbEntity
  8
0
100
AcDbVertex
100
AcDbPolygonMeshVertex
 10
1.4255
 20
-0.2145
 30
3.894
 70
    64
  0
VERTEX
  5
21F0B
100
AcDbEntity
  8
0
100
AcDbVertex
100
AcDbPolygonMeshVertex
 10
1.4255
 20
-0.2145
 30
3.894
 70
    64
  0
VERTEX
  5
21F0C
100
AcDbEntity
  8
0
100
AcDbVertex
100
AcDbPolygonMeshVertex
 10
1.4255
 20
-0.5675
 30
3.894
 70
    64
  0
VERTEX
  5
21F0D
100
AcDbEntity
  8
0
100
AcDbVertex
100
AcDbPolygonMeshVertex
 10
0.6945
 20
-0.2145
 30
3.894
 70
    64
  0
VERTEX
  5
21F0E
100
AcDbEntity
  8
0
100
AcDbVertex
100
AcDbPolygonMeshVertex
 10
0.6945
 20
-0.2145
 30
3.894
 70
    64
  0
VERTEX
  5
21F0F
100
AcDbEntity
  8
0
100
AcDbVertex
100
AcDbPolygonMeshVertex
 10
0.6945
 20
-0.5675
 30
3.894
 70
    64
  0
SEQEND
  5
21F10
100
AcDbEntity
  8
0
  0
POLYLINE
  5
21F11
100
AcDbEntity
  8
0
100
AcDbPolygonMesh
 66
     1
 10
0.0
 20
0.0
 30
0.0
 70
    16
 71
     6
 72
     3
  0
VERTEX
  5
21F12
100
AcDbEntity
  8
0
100
AcDbVertex
100
AcDbPolygonMeshVertex
 10
1.4255
 20
-0.5675
 30
4.071
 70
    64
  0
VERTEX
  5
21F13
100
AcDbEntity
  8
0
100
AcDbVertex
100
AcDbPolygonMeshVertex
 10
1.4255
 20
-0.5675
 30
3.894
 70
    64
  0
VERTEX
  5
21F14
100
AcDbEntity
  8
0
100
AcDbVertex
100
AcDbPolygonMeshVertex
 10
1.4255
 20
-0.5675
 30
3.894
 70
    64
  0
VERTEX
  5
21F15
100
AcDbEntity
  8
0
100
AcDbVertex
100
AcDbPolygonMeshVertex
 10
1.256
 20
-0.5675
 30
4.071
 70
    64
  0
VERTEX
  5
21F16
100
AcDbEntity
  8
0
100
AcDbVertex
100
AcDbPolygonMeshVertex
 10
1.256
 20
-0.5675
 30
3.894
 70
    64
  0
VERTEX
  5
21F17
100
AcDbEntity
  8
0
100
AcDbVertex
100
AcDbPolygonMeshVertex
 10
1.256
 20
-0.5675
 30
3.894
 70
    64
  0
VERTEX
  5
21F18
100
AcDbEntity
  8
0
100
AcDbVertex
100
AcDbPolygonMeshVertex
 10
1.256
 20
-0.2145
 30
4.071
 70
    64
  0
VERTEX
  5
21F19
100
AcDbEntity
  8
0
100
AcDbVertex
100
AcDbPolygonMeshVertex
 10
1.256
 20
-0.2145
 30
3.894
 70
    64
  0
VERTEX
  5
21F1A
100
AcDbEntity
  8
0
100
AcDbVertex
100
AcDbPolygonMeshVertex
 10
1.256
 20
-0.5675
 30
3.894
 70
    64
  0
VERTEX
  5
21F1B
100
AcDbEntity
  8
0
100
AcDbVertex
100
AcDbPolygonMeshVertex
 10
1.4255
 20
-0.2145
 30
4.071
 70
    64
  0
VERTEX
  5
21F1C
100
AcDbEntity
  8
0
100
AcDbVertex
100
AcDbPolygonMeshVertex
 10
1.4255
 20
-0.2145
 30
3.894
 70
    64
  0
VERTEX
  5
21F1D
100
AcDbEntity
  8
0
100
AcDbVertex
100
AcDbPolygonMeshVertex
 10
1.4255
 20
-0.5675
 30
3.894
 70
    64
  0
VERTEX
  5
21F1E
100
AcDbEntity
  8
0
100
AcDbVertex
100
AcDbPolygonMeshVertex
 10
1.4255
 20
-0.2145
 30
4.071
 70
    64
  0
VERTEX
  5
21F1F
100
AcDbEntity
  8
0
100
AcDbVertex
100
AcDbPolygonMeshVertex
 10
1.4255
 20
-0.2145
 30
4.071
 70
    64
  0
VERTEX
  5
21F20
100
AcDbEntity
  8
0
100
AcDbVertex
100
AcDbPolygonMeshVertex
 10
1.4255
 20
-0.5675
 30
4.071
 70
    64
  0
VERTEX
  5
21F21
100
AcDbEntity
  8
0
100
AcDbVertex
100
AcDbPolygonMeshVertex
 10
1.256
 20
-0.2145
 30
4.071
 70
    64
  0
VERTEX
  5
21F22
100
AcDbEntity
  8
0
100
AcDbVertex
100
AcDbPolygonMeshVertex
 10
1.256
 20
-0.2145
 30
4.071
 70
    64
  0
VERTEX
  5
21F23
100
AcDbEntity
  8
0
100
AcDbVertex
100
AcDbPolygonMeshVertex
 10
1.256
 20
-0.5675
 30
4.071
 70
    64
  0
SEQEND
  5
21F24
100
AcDbEntity
  8
0
  0
POLYLINE
  5
21F25
100
AcDbEntity
  8
0
100
AcDbPolygonMesh
 66
     1
 10
0.0
 20
0.0
 30
0.0
 70
    16
 71
     6
 72
     3
  0
VERTEX
  5
21F26
100
AcDbEntity
  8
0
100
AcDbVertex
100
AcDbPolygonMeshVertex
 10
0.9575
 20
-1.0225
 30
4.11
 70
    64
  0
VERTEX
  5
21F27
100
AcDbEntity
  8
0
100
AcDbVertex
100
AcDbPolygonMeshVertex
 10
0.9575
 20
-1.0225
 30
3.894
 70
    64
  0
VERTEX
  5
21F28
100
AcDbEntity
  8
0
100
AcDbVertex
100
AcDbPolygonMeshVertex
 10
0.9575
 20
-1.0225
 30
3.894
 70
    64
  0
VERTEX
  5
21F29
100
AcDbEntity
  8
0
100
AcDbVertex
100
AcDbPolygonMeshVertex
 10
0.8225
 20
-1.0225
 30
4.11
 70
    64
  0
VERTEX
  5
21F2A
100
AcDbEntity
  8
0
100
AcDbVertex
100
AcDbPolygonMeshVertex
 10
0.8225
 20
-1.0225
 30
3.894
 70
    64
  0
VERTEX
  5
21F2B
100
AcDbEntity
  8
0
100
AcDbVertex
100
AcDbPolygonMeshVertex
 10
0.8225
 20
-1.0225
 30
3.894
 70
    64
  0
VERTEX
  5
21F2C
100
AcDbEntity
  8
0
100
AcDbVertex
100
AcDbPolygonMeshVertex
 10
0.8225
 20
-0.6775
 30
4.11
 70
    64
  0
VERTEX
  5
21F2D
100
AcDbEntity
  8
0
100
AcDbVertex
100
AcDbPolygonMeshVertex
 10
0.8225
 20
-0.6775
 30
3.894
 70
    64
  0
VERTEX
  5
21F2E
100
AcDbEntity
  8
0
100
AcDbVertex
100
AcDbPolygonMeshVertex
 10
0.8225
 20
-1.0225
 30
3.894
 70
    64
  0
VERTEX
  5
21F2F
100
AcDbEntity
  8
0
100
AcDbVertex
100
AcDbPolygonMeshVertex
 10
0.9575
 20
-0.6775
 30
4.11
 70
    64
  0
VERTEX
  5
21F30
100
AcDbEntity
  8
0
100
AcDbVertex
100
AcDbPolygonMeshVertex
 10
0.9575
 20
-0.6775
 30
3.894
 70
    64
  0
VERTEX
  5
21F31
100
AcDbEntity
  8
0
100
AcDbVertex
100
AcDbPolygonMeshVertex
 10
0.9575
 20
-1.0225
 30
3.894
 70
    64
  0
VERTEX
  5
21F32
100
AcDbEntity
  8
0
100
AcDbVertex
100
AcDbPolygonMeshVertex
 10
0.9575
 20
-0.6775
 30
4.11
 70
    64
  0
VERTEX
  5
21F33
100
AcDbEntity
  8
0
100
AcDbVertex
100
AcDbPolygonMeshVertex
 10
0.9575
 20
-0.6775
 30
4.11
 70
    64
  0
VERTEX
  5
21F34
100
AcDbEntity
  8
0
100
AcDbVertex
100
AcDbPolygonMeshVertex
 10
0.9575
 20
-1.0225
 30
4.11
 70
    64
  0
VERTEX
  5
21F35
100
AcDbEntity
  8
0
100
AcDbVertex
100
AcDbPolygonMeshVertex
 10
0.8225
 20
-0.6775
 30
4.11
 70
    64
  0
VERTEX
  5
21F36
100
AcDbEntity
  8
0
100
AcDbVertex
100
AcDbPolygonMeshVertex
 10
0.8225
 20
-0.6775
 30
4.11
 70
    64
  0
VERTEX
  5
21F37
100
AcDbEntity
  8
0
100
AcDbVertex
100
AcDbPolygonMeshVertex
 10
0.8225
 20
-1.0225
 30
4.11
 70
    64
  0
SEQEND
  5
21F38
100
AcDbEntity
  8
0
  0
POLYLINE
  5
21F39
100
AcDbEntity
  8
0
100
AcDbPolygonMesh
 66
     1
 10
0.0
 20
0.0
 30
0.0
 70
    16
 71
     6
 72
     3
  0
VERTEX
  5
21F3A
100
AcDbEntity
  8
0
100
AcDbVertex
100
AcDbPolygonMeshVertex
 10
1.2975
 20
-1.0225
 30
3.894
 70
    64
  0
VERTEX
  5
21F3B
100
AcDbEntity
  8
0
100
AcDbVertex
100
AcDbPolygonMeshVertex
 10
1.2975
 20
-1.0225
 30
3.86
 70
    64
  0
VERTEX
  5
21F3C
100
AcDbEntity
  8
0
100
AcDbVertex
100
AcDbPolygonMeshVertex
 10
1.2975
 20
-1.0225
 30
3.86
 70
    64
  0
VERTEX
  5
21F3D
100
AcDbEntity
  8
0
100
AcDbVertex
100
AcDbPolygonMeshVertex
 10
0.8225
 20
-1.0225
 30
3.894
 70
    64
  0
VERTEX
  5
21F3E
100
AcDbEntity
  8
0
100
AcDbVertex
100
AcDbPolygonMeshVertex
 10
0.8225
 20
-1.0225
 30
3.86
 70
    64
  0
VERTEX
  5
21F3F
100
AcDbEntity
  8
0
100
AcDbVertex
100
AcDbPolygonMeshVertex
 10
0.8225
 20
-1.0225
 30
3.86
 70
    64
  0
VERTEX
  5
21F40
100
AcDbEntity
  8
0
100
AcDbVertex
100
AcDbPolygonMeshVertex
 10
0.8225
 20
-0.6775
 30
3.894
 70
    64
  0
VERTEX
  5
21F41
100
AcDbEntity
  8
0
100
AcDbVertex
100
AcDbPolygonMeshVertex
 10
0.8225
 20
-0.6775
 30
3.86
 70
    64
  0
VERTEX
  5
21F42
100
AcDbEntity
  8
0
100
AcDbVertex
100
AcDbPolygonMeshVertex
 10
0.8225
 20
-1.0225
 30
3.86
 70
    64
  0
VERTEX
  5
21F43
100
AcDbEntity
  8
0
100
AcDbVertex
100
AcDbPolygonMeshVertex
 10
1.2975
 20
-0.6775
 30
3.894
 70
    64
  0
VERTEX
  5
21F44
100
AcDbEntity
  8
0
100
AcDbVertex
100
AcDbPolygonMeshVertex
 10
1.2975
 20
-0.6775
 30
3.86
 70
    64
  0
VERTEX
  5
21F45
100
AcDbEntity
  8
0
100
AcDbVertex
100
AcDbPolygonMeshVertex
 10
1.2975
 20
-1.0225
 30
3.86
 70
    64
  0
VERTEX
  5
21F46
100
AcDbEntity
  8
0
100
AcDbVertex
100
AcDbPolygonMeshVertex
 10
1.2975
 20
-0.6775
 30
3.894
 70
    64
  0
VERTEX
  5
21F47
100
AcDbEntity
  8
0
100
AcDbVertex
100
AcDbPolygonMeshVertex
 10
1.2975
 20
-0.6775
 30
3.894
 70
    64
  0
VERTEX
  5
21F48
100
AcDbEntity
  8
0
100
AcDbVertex
100
AcDbPolygonMeshVertex
 10
1.2975
 20
-1.0225
 30
3.894
 70
    64
  0
VERTEX
  5
21F49
100
AcDbEntity
  8
0
100
AcDbVertex
100
AcDbPolygonMeshVertex
 10
0.8225
 20
-0.6775
 30
3.894
 70
    64
  0
VERTEX
  5
21F4A
100
AcDbEntity
  8
0
100
AcDbVertex
100
AcDbPolygonMeshVertex
 10
0.8225
 20
-0.6775
 30
3.894
 70
    64
  0
VERTEX
  5
21F4B
100
AcDbEntity
  8
0
100
AcDbVertex
100
AcDbPolygonMeshVertex
 10
0.8225
 20
-1.0225
 30
3.894
 70
    64
  0
SEQEND
  5
21F4C
100
AcDbEntity
  8
0
  0
POLYLINE
  5
21F4D
100
AcDbEntity
  8
0
100
AcDbPolygonMesh
 66
     1
 10
0.0
 20
0.0
 30
0.0
 70
    16
 71
     6
 72
     3
  0
VERTEX
  5
21F4E
100
AcDbEntity
  8
0
100
AcDbVertex
100
AcDbPolygonMeshVertex
 10
1.2975
 20
-1.0225
 30
4.11
 70
    64
  0
VERTEX
  5
21F4F
100
AcDbEntity
  8
0
100
AcDbVertex
100
AcDbPolygonMeshVertex
 10
1.2975
 20
-1.0225
 30
3.894
 70
    64
  0
VERTEX
  5
21F50
100
AcDbEntity
  8
0
100
AcDbVertex
100
AcDbPolygonMeshVertex
 10
1.2975
 20
-1.0225
 30
3.894
 70
    64
  0
VERTEX
  5
21F51
100
AcDbEntity
  8
0
100
AcDbVertex
100
AcDbPolygonMeshVertex
 10
1.1625
 20
-1.0225
 30
4.11
 70
    64
  0
VERTEX
  5
21F52
100
AcDbEntity
  8
0
100
AcDbVertex
100
AcDbPolygonMeshVertex
 10
1.1625
 20
-1.0225
 30
3.894
 70
    64
  0
VERTEX
  5
21F53
100
AcDbEntity
  8
0
100
AcDbVertex
100
AcDbPolygonMeshVertex
 10
1.1625
 20
-1.0225
 30
3.894
 70
    64
  0
VERTEX
  5
21F54
100
AcDbEntity
  8
0
100
AcDbVertex
100
AcDbPolygonMeshVertex
 10
1.1625
 20
-0.6775
 30
4.11
 70
    64
  0
VERTEX
  5
21F55
100
AcDbEntity
  8
0
100
AcDbVertex
100
AcDbPolygonMeshVertex
 10
1.1625
 20
-0.6775
 30
3.894
 70
    64
  0
VERTEX
  5
21F56
100
AcDbEntity
  8
0
100
AcDbVertex
100
AcDbPolygonMeshVertex
 10
1.1625
 20
-1.0225
 30
3.894
 70
    64
  0
VERTEX
  5
21F57
100
AcDbEntity
  8
0
100
AcDbVertex
100
AcDbPolygonMeshVertex
 10
1.2975
 20
-0.6775
 30
4.11
 70
    64
  0
VERTEX
  5
21F58
100
AcDbEntity
  8
0
100
AcDbVertex
100
AcDbPolygonMeshVertex
 10
1.2975
 20
-0.6775
 30
3.894
 70
    64
  0
VERTEX
  5
21F59
100
AcDbEntity
  8
0
100
AcDbVertex
100
AcDbPolygonMeshVertex
 10
1.2975
 20
-1.0225
 30
3.894
 70
    64
  0
VERTEX
  5
21F5A
100
AcDbEntity
  8
0
100
AcDbVertex
100
AcDbPolygonMeshVertex
 10
1.2975
 20
-0.6775
 30
4.11
 70
    64
  0
VERTEX
  5
21F5B
100
AcDbEntity
  8
0
100
AcDbVertex
100
AcDbPolygonMeshVertex
 10
1.2975
 20
-0.6775
 30
4.11
 70
    64
  0
VERTEX
  5
21F5C
100
AcDbEntity
  8
0
100
AcDbVertex
100
AcDbPolygonMeshVertex
 10
1.2975
 20
-1.0225
 30
4.11
 70
    64
  0
VERTEX
  5
21F5D
100
AcDbEntity
  8
0
100
AcDbVertex
100
AcDbPolygonMeshVertex
 10
1.1625
 20
-0.6775
 30
4.11
 70
    64
  0
VERTEX
  5
21F5E
100
AcDbEntity
  8
0
100
AcDbVertex
100
AcDbPolygonMeshVertex
 10
1.1625
 20
-0.6775
 30
4.11
 70
    64
  0
VERTEX
  5
21F5F
100
AcDbEntity
  8
0
100
AcDbVertex
100
AcDbPolygonMeshVertex
 10
1.1625
 20
-1.0225
 30
4.11
 70
    64
  0
SEQEND
  5
21F60
100
AcDbEntity
  8
0
  0
TEXT
  5
21F61
100
AcDbEntity
  8
0
100
AcDbText
 10
0.11323
 20
0.281116
 30
3.86
 40
0.083465
  1
1
100
AcDbText
  0
TEXT
  5
21F62
100
AcDbEntity
  8
0
100
AcDbText
 10
0.569131
 20
0.280274
 30
3.86
 40
0.083465
  1
L1
100
AcDbText
  0
TEXT
  5
21F63
100
AcDbEntity
  8
0
100
AcDbText
 10
0.842703
 20
0.279432
 30
3.86
 40
0.083465
  1
3
100
AcDbText
  0
TEXT
  5
21F64
100
AcDbEntity
  8
0
100
AcDbText
 10
1.226609
 20
0.280843
 30
3.86
 40
0.083465
  1
L2
100
AcDbText
  0
TEXT
  5
21F65
100
AcDbEntity
  8
0
100
AcDbText
 10
1.534202
 20
0.282255
 30
3.86
 40
0.083465
  1
5
100
AcDbText
  0
TEXT
  5
21F66
100
AcDbEntity
  8
0
100
AcDbText
 10
1.917519
 20
0.284255
 30
3.86
 40
0.083465
  1
L3
100
AcDbText
  0
TEXT
  5
21F67
100
AcDbEntity
  8
0
100
AcDbText
 10
0.10621
 20
-2.064187
 30
3.86
 40
0.083465
  1
2
100
AcDbText
  0
TEXT
  5
21F68
100
AcDbEntity
  8
0
100
AcDbText
 10
0.56732
 20
-2.062776
 30
3.86
 40
0.083465
  1
T1
100
AcDbText
  0
TEXT
  5
21F69
100
AcDbEntity
  8
0
100
AcDbText
 10
0.843257
 20
-2.060776
 30
3.86
 40
0.083465
  1
4
100
AcDbText
  0
TEXT
  5
21F6A
100
AcDbEntity
  8
0
100
AcDbText
 10
1.227642
 20
-2.062206
 30
3.86
 40
0.083465
  1
T2
100
AcDbText
  0
TEXT
  5
21F6B
100
AcDbEntity
  8
0
100
AcDbText
 10
1.539078
 20
-2.063048
 30
3.86
 40
0.083465
  1
6
100
AcDbText
  0
TEXT
  5
21F6C
100
AcDbEntity
  8
0
100
AcDbText
 10
1.917186
 20
-2.061637
 30
3.86
 40
0.083465
  1
T3
100
AcDbText
  0
CIRCLE
  5
21F6D
100
AcDbEntity
  8
0
100
AcDbCircle
 10
1.945
 20
0.337
 30
0.0
 40
0.086
  0
POLYLINE
  5
21F6E
100
AcDbEntity
  8
0
100
AcDb3dPolyline
 66
     1
 10
0.0
 20
0.0
 30
0.0
 70
     8
  0
VERTEX
  5
21F6F
100
AcDbEntity
  8
0
100
AcDbVertex
100
AcDb3dPolylineVertex
 10
0.979
 20
0.401
 30
0.0
 70
    32
  0
VERTEX
  5
21F70
100
AcDbEntity
  8
0
100
AcDbVertex
100
AcDb3dPolylineVertex
 10
0.979
 20
0.536
 30
0.0
 70
    32
  0
VERTEX
  5
21F71
100
AcDbEntity
  8
0
100
AcDbVertex
100
AcDb3dPolylineVertex
 10
0.768333
 20
0.536
 30
0.0
 70
    32
  0
VERTEX
  5
21F72
100
AcDbEntity
  8
0
100
AcDbVertex
100
AcDb3dPolylineVertex
 10
0.768333
 20
0.401
 30
0.0
 70
    32
  0
SEQEND
  5
21F73
100
AcDbEntity
  8
0
  0
POLYLINE
  5
21F74
100
AcDbEntity
  8
0
100
AcDb3dPolyline
 66
     1
 10
0.0
 20
0.0
 30
0.0
 70
     8
  0
VERTEX
  5
21F75
100
AcDbEntity
  8
0
100
AcDbVertex
100
AcDb3dPolylineVertex
 10
0.706333
 20
0.401
 30
0.0
 70
    32
  0
VERTEX
  5
21F76
100
AcDbEntity
  8
0
100
AcDbVertex
100
AcDb3dPolylineVertex
 10
0.706333
 20
0.536
 30
0.0
 70
    32
  0
VERTEX
  5
21F77
100
AcDbEntity
  8
0
100
AcDbVertex
100
AcDb3dPolylineVertex
 10
0.495667
 20
0.536
 30
0.0
 70
    32
  0
VERTEX
  5
21F78
100
AcDbEntity
  8
0
100
AcDbVertex
100
AcDb3dPolylineVertex
 10
0.495667
 20
0.401
 30
0.0
 70
    32
  0
SEQEND
  5
21F79
100
AcDbEntity
  8
0
  0
POLYLINE
  5
21F7A
100
AcDbEntity
  8
0
100
AcDb3dPolyline
 66
     1
 10
0.0
 20
0.0
 30
0.0
 70
     8
  0
VERTEX
  5
21F7B
100
AcDbEntity
  8
0
100
AcDbVertex
100
AcDb3dPolylineVertex
 10
0.433667
 20
0.401
 30
0.0
 70
    32
  0
VERTEX
  5
21F7C
100
AcDbEntity
  8
0
100
AcDbVertex
100
AcDb3dPolylineVertex
 10
0.433667
 20
0.536
 30
0.0
 70
    32
  0
VERTEX
  5
21F7D
100
AcDbEntity
  8
0
100
AcDbVertex
100
AcDb3dPolylineVertex
 10
0.223
 20
0.536
 30
0.0
 70
    32
  0
VERTEX
  5
21F7E
100
AcDbEntity
  8
0
100
AcDbVertex
100
AcDb3dPolylineVertex
 10
0.223
 20
0.401
 30
0.0
 70
    32
  0
SEQEND
  5
21F7F
100
AcDbEntity
  8
0
  0
LINE
  5
21F80
100
AcDbEntity
  8
0
100
AcDbLine
 10
0.979
 20
0.401
 30
0.0
 11
0.768333
 21
0.401
 31
0.0
  0
LINE
  5
21F81
100
AcDbEntity
  8
0
100
AcDbLine
 10
0.706333
 20
0.401
 30
0.0
 11
0.495667
 21
0.401
 31
0.0
  0
LINE
  5
21F82
100
AcDbEntity
  8
0
100
AcDbLine
 10
0.433667
 20
0.401
 30
0.0
 11
0.223
 21
0.401
 31
0.0
  0
POLYLINE
  5
21F83
100
AcDbEntity
  8
0
100
AcDbPolygonMesh
 66
     1
 10
0.0
 20
0.0
 30
0.0
 70
    16
 71
     6
 72
     3
  0
VERTEX
  5
21F84
100
AcDbEntity
  8
0
100
AcDbVertex
100
AcDbPolygonMeshVertex
 10
0.391
 20
-1.806
 30
1.318
 70
    64
  0
VERTEX
  5
21F85
100
AcDbEntity
  8
0
100
AcDbVertex
100
AcDbPolygonMeshVertex
 10
0.391
 20
-1.806
 30
0.187
 70
    64
  0
VERTEX
  5
21F86
100
AcDbEntity
  8
0
100
AcDbVertex
100
AcDbPolygonMeshVertex
 10
0.391
 20
-1.806
 30
0.187
 70
    64
  0
VERTEX
  5
21F87
100
AcDbEntity
  8
0
100
AcDbVertex
100
AcDbPolygonMeshVertex
 10
0.0
 20
-1.806
 30
1.318
 70
    64
  0
VERTEX
  5
21F88
100
AcDbEntity
  8
0
100
AcDbVertex
100
AcDbPolygonMeshVertex
 10
0.0
 20
-1.806
 30
0.187
 70
    64
  0
VERTEX
  5
21F89
100
AcDbEntity
  8
0
100
AcDbVertex
100
AcDbPolygonMeshVertex
 10
0.0
 20
-1.806
 30
0.187
 70
    64
  0
VERTEX
  5
21F8A
100
AcDbEntity
  8
0
100
AcDbVertex
100
AcDbPolygonMeshVertex
 10
0.0
 20
0.401
 30
1.318
 70
    64
  0
VERTEX
  5
21F8B
100
AcDbEntity
  8
0
100
AcDbVertex
100
AcDbPolygonMeshVertex
 10
0.0
 20
0.401
 30
0.187
 70
    64
  0
VERTEX
  5
21F8C
100
AcDbEntity
  8
0
100
AcDbVertex
100
AcDbPolygonMeshVertex
 10
0.0
 20
-1.806
 30
0.187
 70
    64
  0
VERTEX
  5
21F8D
100
AcDbEntity
  8
0
100
AcDbVertex
100
AcDbPolygonMeshVertex
 10
0.391
 20
0.401
 30
1.318
 70
    64
  0
VERTEX
  5
21F8E
100
AcDbEntity
  8
0
100
AcDbVertex
100
AcDbPolygonMeshVertex
 10
0.391
 20
0.401
 30
0.187
 70
    64
  0
VERTEX
  5
21F8F
100
AcDbEntity
  8
0
100
AcDbVertex
100
AcDbPolygonMeshVertex
 10
0.391
 20
-1.806
 30
0.187
 70
    64
  0
VERTEX
  5
21F90
100
AcDbEntity
  8
0
100
AcDbVertex
100
AcDbPolygonMeshVertex
 10
0.391
 20
0.401
 30
1.318
 70
    64
  0
VERTEX
  5
21F91
100
AcDbEntity
  8
0
100
AcDbVertex
100
AcDbPolygonMeshVertex
 10
0.391
 20
0.401
 30
1.318
 70
    64
  0
VERTEX
  5
21F92
100
AcDbEntity
  8
0
100
AcDbVertex
100
AcDbPolygonMeshVertex
 10
0.391
 20
-1.806
 30
1.318
 70
    64
  0
VERTEX
  5
21F93
100
AcDbEntity
  8
0
100
AcDbVertex
100
AcDbPolygonMeshVertex
 10
0.0
 20
0.401
 30
1.318
 70
    64
  0
VERTEX
  5
21F94
100
AcDbEntity
  8
0
100
AcDbVertex
100
AcDbPolygonMeshVertex
 10
0.0
 20
0.401
 30
1.318
 70
    64
  0
VERTEX
  5
21F95
100
AcDbEntity
  8
0
100
AcDbVertex
100
AcDbPolygonMeshVertex
 10
0.0
 20
-1.806
 30
1.318
 70
    64
  0
SEQEND
  5
21F96
100
AcDbEntity
  8
0
  0
POLYLINE
  5
21F97
100
AcDbEntity
  8
0
100
AcDbPolygonMesh
 66
     1
 10
0.0
 20
0.0
 30
0.0
 70
    16
 71
     6
 72
     3
  0
VERTEX
  5
21F98
100
AcDbEntity
  8
0
100
AcDbVertex
100
AcDbPolygonMeshVertex
 10
2.12
 20
-2.089
 30
1.318
 70
    64
  0
VERTEX
  5
21F99
100
AcDbEntity
  8
0
100
AcDbVertex
100
AcDbPolygonMeshVertex
 10
2.12
 20
-2.089
 30
0.187
 70
    64
  0
VERTEX
  5
21F9A
100
AcDbEntity
  8
0
100
AcDbVertex
100
AcDbPolygonMeshVertex
 10
2.12
 20
-2.089
 30
0.187
 70
    64
  0
VERTEX
  5
21F9B
100
AcDbEntity
  8
0
100
AcDbVertex
100
AcDbPolygonMeshVertex
 10
1.729
 20
-2.089
 30
1.318
 70
    64
  0
VERTEX
  5
21F9C
100
AcDbEntity
  8
0
100
AcDbVertex
100
AcDbPolygonMeshVertex
 10
1.729
 20
-2.089
 30
0.187
 70
    64
  0
VERTEX
  5
21F9D
100
AcDbEntity
  8
0
100
AcDbVertex
100
AcDbPolygonMeshVertex
 10
1.729
 20
-2.089
 30
0.187
 70
    64
  0
VERTEX
  5
21F9E
100
AcDbEntity
  8
0
100
AcDbVertex
100
AcDbPolygonMeshVertex
 10
1.729
 20
0.118
 30
1.318
 70
    64
  0
VERTEX
  5
21F9F
100
AcDbEntity
  8
0
100
AcDbVertex
100
AcDbPolygonMeshVertex
 10
1.729
 20
0.118
 30
0.187
 70
    64
  0
VERTEX
  5
21FA0
100
AcDbEntity
  8
0
100
AcDbVertex
100
AcDbPolygonMeshVertex
 10
1.729
 20
-2.089
 30
0.187
 70
    64
  0
VERTEX
  5
21FA1
100
AcDbEntity
  8
0
100
AcDbVertex
100
AcDbPolygonMeshVertex
 10
2.12
 20
0.118
 30
1.318
 70
    64
  0
VERTEX
  5
21FA2
100
AcDbEntity
  8
0
100
AcDbVertex
100
AcDbPolygonMeshVertex
 10
2.12
 20
0.118
 30
0.187
 70
    64
  0
VERTEX
  5
21FA3
100
AcDbEntity
  8
0
100
AcDbVertex
100
AcDbPolygonMeshVertex
 10
2.12
 20
-2.089
 30
0.187
 70
    64
  0
VERTEX
  5
21FA4
100
AcDbEntity
  8
0
100
AcDbVertex
100
AcDbPolygonMeshVertex
 10
2.12
 20
0.118
 30
1.318
 70
    64
  0
VERTEX
  5
21FA5
100
AcDbEntity
  8
0
100
AcDbVertex
100
AcDbPolygonMeshVertex
 10
2.12
 20
0.118
 30
1.318
 70
    64
  0
VERTEX
  5
21FA6
100
AcDbEntity
  8
0
100
AcDbVertex
100
AcDbPolygonMeshVertex
 10
2.12
 20
-2.089
 30
1.318
 70
    64
  0
VERTEX
  5
21FA7
100
AcDbEntity
  8
0
100
AcDbVertex
100
AcDbPolygonMeshVertex
 10
1.729
 20
0.118
 30
1.318
 70
    64
  0
VERTEX
  5
21FA8
100
AcDbEntity
  8
0
100
AcDbVertex
100
AcDbPolygonMeshVertex
 10
1.729
 20
0.118
 30
1.318
 70
    64
  0
VERTEX
  5
21FA9
100
AcDbEntity
  8
0
100
AcDbVertex
100
AcDbPolygonMeshVertex
 10
1.729
 20
-2.089
 30
1.318
 70
    64
  0
SEQEND
  5
21FAA
100
AcDbEntity
  8
0
  0
POLYLINE
  5
21FAB
100
AcDbEntity
  8
0
100
AcDbPolygonMesh
 66
     1
 10
0.0
 20
0.0
 30
0.0
 70
    16
 71
     6
 72
     3
  0
VERTEX
  5
21FAC
100
AcDbEntity
  8
0
100
AcDbVertex
100
AcDbPolygonMeshVertex
 10
1.729
 20
-2.089
 30
1.318
 70
    64
  0
VERTEX
  5
21FAD
100
AcDbEntity
  8
0
100
AcDbVertex
100
AcDbPolygonMeshVertex
 10
1.729
 20
-2.089
 30
0.187
 70
    64
  0
VERTEX
  5
21FAE
100
AcDbEntity
  8
0
100
AcDbVertex
100
AcDbPolygonMeshVertex
 10
1.729
 20
-2.089
 30
0.187
 70
    64
  0
VERTEX
  5
21FAF
100
AcDbEntity
  8
0
100
AcDbVertex
100
AcDbPolygonMeshVertex
 10
0.391
 20
-2.089
 30
1.318
 70
    64
  0
VERTEX
  5
21FB0
100
AcDbEntity
  8
0
100
AcDbVertex
100
AcDbPolygonMeshVertex
 10
0.391
 20
-2.089
 30
0.187
 70
    64
  0
VERTEX
  5
21FB1
100
AcDbEntity
  8
0
100
AcDbVertex
100
AcDbPolygonMeshVertex
 10
0.391
 20
-2.089
 30
0.187
 70
    64
  0
VERTEX
  5
21FB2
100
AcDbEntity
  8
0
100
AcDbVertex
100
AcDbPolygonMeshVertex
 10
0.391
 20
0.401
 30
1.318
 70
    64
  0
VERTEX
  5
21FB3
100
AcDbEntity
  8
0
100
AcDbVertex
100
AcDbPolygonMeshVertex
 10
0.391
 20
0.401
 30
0.187
 70
    64
  0
VERTEX
  5
21FB4
100
AcDbEntity
  8
0
100
AcDbVertex
100
AcDbPolygonMeshVertex
 10
0.391
 20
-2.089
 30
0.187
 70
    64
  0
VERTEX
  5
21FB5
100
AcDbEntity
  8
0
100
AcDbVertex
100
AcDbPolygonMeshVertex
 10
1.729
 20
0.401
 30
1.318
 70
    64
  0
VERTEX
  5
21FB6
100
AcDbEntity
  8
0
100
AcDbVertex
100
AcDbPolygonMeshVertex
 10
1.729
 20
0.401
 30
0.187
 70
    64
  0
VERTEX
  5
21FB7
100
AcDbEntity
  8
0
100
AcDbVertex
100
AcDbPolygonMeshVertex
 10
1.729
 20
-2.089
 30
0.187
 70
    64
  0
VERTEX
  5
21FB8
100
AcDbEntity
  8
0
100
AcDbVertex
100
AcDbPolygonMeshVertex
 10
1.729
 20
0.401
 30
1.318
 70
    64
  0
VERTEX
  5
21FB9
100
AcDbEntity
  8
0
100
AcDbVertex
100
AcDbPolygonMeshVertex
 10
1.729
 20
0.401
 30
1.318
 70
    64
  0
VERTEX
  5
21FBA
100
AcDbEntity
  8
0
100
AcDbVertex
100
AcDbPolygonMeshVertex
 10
1.729
 20
-2.089
 30
1.318
 70
    64
  0
VERTEX
  5
21FBB
100
AcDbEntity
  8
0
100
AcDbVertex
100
AcDbPolygonMeshVertex
 10
0.391
 20
0.401
 30
1.318
 70
    64
  0
VERTEX
  5
21FBC
100
AcDbEntity
  8
0
100
AcDbVertex
100
AcDbPolygonMeshVertex
 10
0.391
 20
0.401
 30
1.318
 70
    64
  0
VERTEX
  5
21FBD
100
AcDbEntity
  8
0
100
AcDbVertex
100
AcDbPolygonMeshVertex
 10
0.391
 20
-2.089
 30
1.318
 70
    64
  0
SEQEND
  5
21FBE
100
AcDbEntity
  8
0
  0
LWPOLYLINE
  5
21FBF
100
AcDbEntity
  8
0
100
AcDbPolyline
 90
        4
 70
     1
 43
0.0
 38
1.388
 10
0.9265
 20
0.453
 10
1.1935
 20
0.453
 10
1.1935
 20
0.602
 10
0.9265
 20
0.602
  0
LINE
  5
21FC0
100
AcDbEntity
  8
0
100
AcDbLine
 10
1.2
 20
-2.089
 30
2.062
 11
1.2
 21
-2.324
 31
2.062
  0
LINE
  5
21FC1
100
AcDbEntity
  8
0
100
AcDbLine
 10
0.5625
 20
-2.526
 30
1.841
 11
0.5625
 21
-2.526
 31
1.641
  0
LINE
  5
21FC2
100
AcDbEntity
  8
0
100
AcDbLine
 10
0.36
 20
0.598
 30
0.187
 11
0.161
 21
0.598
 31
0.187
  0
POLYLINE
  5
21FC3
100
AcDbEntity
  8
0
100
AcDbPolygonMesh
 66
     1
 10
0.0
 20
0.0
 30
0.0
 70
    16
 71
     6
 72
     3
  0
VERTEX
  5
21FC4
100
AcDbEntity
  8
0
100
AcDbVertex
100
AcDbPolygonMeshVertex
 10
1.959
 20
-2.286
 30
0.187
 70
    64
  0
VERTEX
  5
21FC5
100
AcDbEntity
  8
0
100
AcDbVertex
100
AcDbPolygonMeshVertex
 10
1.959
 20
-2.286
 30
0.0
 70
    64
  0
VERTEX
  5
21FC6
100
AcDbEntity
  8
0
100
AcDbVertex
100
AcDbPolygonMeshVertex
 10
1.959
 20
-2.286
 30
0.0
 70
    64
  0
VERTEX
  5
21FC7
100
AcDbEntity
  8
0
100
AcDbVertex
100
AcDbPolygonMeshVertex
 10
1.079
 20
-2.286
 30
0.187
 70
    64
  0
VERTEX
  5
21FC8
100
AcDbEntity
  8
0
100
AcDbVertex
100
AcDbPolygonMeshVertex
 10
1.079
 20
-2.286
 30
0.0
 70
    64
  0
VERTEX
  5
21FC9
100
AcDbEntity
  8
0
100
AcDbVertex
100
AcDbPolygonMeshVertex
 10
1.079
 20
-2.286
 30
0.0
 70
    64
  0
VERTEX
  5
21FCA
100
AcDbEntity
  8
0
100
AcDbVertex
100
AcDbPolygonMeshVertex
 10
1.079
 20
-1.688
 30
0.187
 70
    64
  0
VERTEX
  5
21FCB
100
AcDbEntity
  8
0
100
AcDbVertex
100
AcDbPolygonMeshVertex
 10
1.079
 20
-1.688
 30
0.0
 70
    64
  0
VERTEX
  5
21FCC
100
AcDbEntity
  8
0
100
AcDbVertex
100
AcDbPolygonMeshVertex
 10
1.079
 20
-2.286
 30
0.0
 70
    64
  0
VERTEX
  5
21FCD
100
AcDbEntity
  8
0
100
AcDbVertex
100
AcDbPolygonMeshVertex
 10
1.959
 20
-1.688
 30
0.187
 70
    64
  0
VERTEX
  5
21FCE
100
AcDbEntity
  8
0
100
AcDbVertex
100
AcDbPolygonMeshVertex
 10
1.959
 20
-1.688
 30
0.0
 70
    64
  0
VERTEX
  5
21FCF
100
AcDbEntity
  8
0
100
AcDbVertex
100
AcDbPolygonMeshVertex
 10
1.959
 20
-2.286
 30
0.0
 70
    64
  0
VERTEX
  5
21FD0
100
AcDbEntity
  8
0
100
AcDbVertex
100
AcDbPolygonMeshVertex
 10
1.959
 20
-1.688
 30
0.187
 70
    64
  0
VERTEX
  5
21FD1
100
AcDbEntity
  8
0
100
AcDbVertex
100
AcDbPolygonMeshVertex
 10
1.959
 20
-1.688
 30
0.187
 70
    64
  0
VERTEX
  5
21FD2
100
AcDbEntity
  8
0
100
AcDbVertex
100
AcDbPolygonMeshVertex
 10
1.959
 20
-2.286
 30
0.187
 70
    64
  0
VERTEX
  5
21FD3
100
AcDbEntity
  8
0
100
AcDbVertex
100
AcDbPolygonMeshVertex
 10
1.079
 20
-1.688
 30
0.187
 70
    64
  0
VERTEX
  5
21FD4
100
AcDbEntity
  8
0
100
AcDbVertex
100
AcDbPolygonMeshVertex
 10
1.079
 20
-1.688
 30
0.187
 70
    64
  0
VERTEX
  5
21FD5
100
AcDbEntity
  8
0
100
AcDbVertex
100
AcDbPolygonMeshVertex
 10
1.079
 20
-2.286
 30
0.187
 70
    64
  0
SEQEND
  5
21FD6
100
AcDbEntity
  8
0
  0
POLYLINE
  5
21FD7
100
AcDbEntity
  8
0
100
AcDb3dPolyline
 66
     1
 10
0.0
 20
0.0
 30
0.0
 70
     8
  0
VERTEX
  5
21FD8
100
AcDbEntity
  8
0
100
AcDbVertex
100
AcDb3dPolylineVertex
 10
1.686333
 20
-2.089
 30
0.0
 70
    32
  0
VERTEX
  5
21FD9
100
AcDbEntity
  8
0
100
AcDbVertex
100
AcDb3dPolylineVertex
 10
1.686333
 20
-2.224
 30
0.0
 70
    32
  0
VERTEX
  5
21FDA
100
AcDbEntity
  8
0
100
AcDbVertex
100
AcDb3dPolylineVertex
 10
1.897
 20
-2.224
 30
0.0
 70
    32
  0
VERTEX
  5
21FDB
100
AcDbEntity
  8
0
100
AcDbVertex
100
AcDb3dPolylineVertex
 10
1.897
 20
-2.089
 30
0.0
 70
    32
  0
SEQEND
  5
21FDC
100
AcDbEntity
  8
0
  0
POLYLINE
  5
21FDD
100
AcDbEntity
  8
0
100
AcDb3dPolyline
 66
     1
 10
0.0
 20
0.0
 30
0.0
 70
     8
  0
VERTEX
  5
21FDE
100
AcDbEntity
  8
0
100
AcDbVertex
100
AcDb3dPolylineVertex
 10
1.686333
 20
-2.089
 30
0.187
 70
    32
  0
VERTEX
  5
21FDF
100
AcDbEntity
  8
0
100
AcDbVertex
100
AcDb3dPolylineVertex
 10
1.686333
 20
-2.224
 30
0.187
 70
    32
  0
VERTEX
  5
21FE0
100
AcDbEntity
  8
0
100
AcDbVertex
100
AcDb3dPolylineVertex
 10
1.897
 20
-2.224
 30
0.187
 70
    32
  0
VERTEX
  5
21FE1
100
AcDbEntity
  8
0
100
AcDbVertex
100
AcDb3dPolylineVertex
 10
1.897
 20
-2.089
 30
0.187
 70
    32
  0
SEQEND
  5
21FE2
100
AcDbEntity
  8
0
  0
LINE
  5
21FE3
100
AcDbEntity
  8
0
100
AcDbLine
 10
1.76
 20
-2.286
 30
0.187
 11
1.959
 21
-2.286
 31
0.187
  0
POLYLINE
  5
21FE4
100
AcDbEntity
  8
0
100
AcDb3dPolyline
 66
     1
 10
0.0
 20
0.0
 30
0.0
 70
     8
  0
VERTEX
  5
21FE5
100
AcDbEntity
  8
0
100
AcDbVertex
100
AcDb3dPolylineVertex
 10
1.413667
 20
-2.089
 30
0.0
 70
    32
  0
VERTEX
  5
21FE6
100
AcDbEntity
  8
0
100
AcDbVertex
100
AcDb3dPolylineVertex
 10
1.413667
 20
-2.224
 30
0.0
 70
    32
  0
VERTEX
  5
21FE7
100
AcDbEntity
  8
0
100
AcDbVertex
100
AcDb3dPolylineVertex
 10
1.624333
 20
-2.224
 30
0.0
 70
    32
  0
VERTEX
  5
21FE8
100
AcDbEntity
  8
0
100
AcDbVertex
100
AcDb3dPolylineVertex
 10
1.624333
 20
-2.089
 30
0.0
 70
    32
  0
SEQEND
  5
21FE9
100
AcDbEntity
  8
0
  0
POLYLINE
  5
21FEA
100
AcDbEntity
  8
0
100
AcDb3dPolyline
 66
     1
 10
0.0
 20
0.0
 30
0.0
 70
     8
  0
VERTEX
  5
21FEB
100
AcDbEntity
  8
0
100
AcDbVertex
100
AcDb3dPolylineVertex
 10
1.413667
 20
-2.089
 30
0.187
 70
    32
  0
VERTEX
  5
21FEC
100
AcDbEntity
  8
0
100
AcDbVertex
100
AcDb3dPolylineVertex
 10
1.413667
 20
-2.224
 30
0.187
 70
    32
  0
VERTEX
  5
21FED
100
AcDbEntity
  8
0
100
AcDbVertex
100
AcDb3dPolylineVertex
 10
1.624333
 20
-2.224
 30
0.187
 70
    32
  0
VERTEX
  5
21FEE
100
AcDbEntity
  8
0
100
AcDbVertex
100
AcDb3dPolylineVertex
 10
1.624333
 20
-2.089
 30
0.187
 70
    32
  0
SEQEND
  5
21FEF
100
AcDbEntity
  8
0
  0
LINE
  5
21FF0
100
AcDbEntity
  8
0
100
AcDbLine
 10
1.686333
 20
-2.089
 30
0.0
 11
1.897
 21
-2.089
 31
0.0
  0
LINE
  5
21FF1
100
AcDbEntity
  8
0
100
AcDbLine
 10
1.413667
 20
-2.089
 30
0.0
 11
1.624333
 21
-2.089
 31
0.0
  0
POLYLINE
  5
21FF2
100
AcDbEntity
  8
0
100
AcDb3dPolyline
 66
     1
 10
0.0
 20
0.0
 30
0.0
 70
     8
  0
VERTEX
  5
21FF3
100
AcDbEntity
  8
0
100
AcDbVertex
100
AcDb3dPolylineVertex
 10
1.141
 20
-2.089
 30
0.0
 70
    32
  0
VERTEX
  5
21FF4
100
AcDbEntity
  8
0
100
AcDbVertex
100
AcDb3dPolylineVertex
 10
1.141
 20
-2.224
 30
0.0
 70
    32
  0
VERTEX
  5
21FF5
100
AcDbEntity
  8
0
100
AcDbVertex
100
AcDb3dPolylineVertex
 10
1.351667
 20
-2.224
 30
0.0
 70
    32
  0
VERTEX
  5
21FF6
100
AcDbEntity
  8
0
100
AcDbVertex
100
AcDb3dPolylineVertex
 10
1.351667
 20
-2.089
 30
0.0
 70
    32
  0
SEQEND
  5
21FF7
100
AcDbEntity
  8
0
  0
POLYLINE
  5
21FF8
100
AcDbEntity
  8
0
100
AcDb3dPolyline
 66
     1
 10
0.0
 20
0.0
 30
0.0
 70
     8
  0
VERTEX
  5
21FF9
100
AcDbEntity
  8
0
100
AcDbVertex
100
AcDb3dPolylineVertex
 10
1.141
 20
-2.089
 30
0.187
 70
    32
  0
VERTEX
  5
21FFA
100
AcDbEntity
  8
0
100
AcDbVertex
100
AcDb3dPolylineVertex
 10
1.141
 20
-2.224
 30
0.187
 70
    32
  0
VERTEX
  5
21FFB
100
AcDbEntity
  8
0
100
AcDbVertex
100
AcDb3dPolylineVertex
 10
1.351667
 20
-2.224
 30
0.187
 70
    32
  0
VERTEX
  5
21FFC
100
AcDbEntity
  8
0
100
AcDbVertex
100
AcDb3dPolylineVertex
 10
1.351667
 20
-2.089
 30
0.187
 70
    32
  0
SEQEND
  5
21FFD
100
AcDbEntity
  8
0
  0
LINE
  5
21FFE
100
AcDbEntity
  8
0
100
AcDbLine
 10
1.141
 20
-2.089
 30
0.0
 11
1.351667
 21
-2.089
 31
0.0
  0
CIRCLE
  5
21FFF
100
AcDbEntity
  8
0
100
AcDbCircle
 10
0.173
 20
-2.025
 30
0.0
 40
0.086
  0
CIRCLE
  5
22000
100
AcDbEntity
  8
0
100
AcDbCircle
 10
0.173
 20
-2.025
 30
0.316
 40
0.086
  0
POLYLINE
  5
22001
100
AcDbEntity
  8
0
100
AcDbPolygonMesh
 66
     1
 10
0.0
 20
0.0
 30
0.0
 70
    16
 71
     6
 72
     3
  0
VERTEX
  5
22002
100
AcDbEntity
  8
0
100
AcDbVertex
100
AcDbPolygonMeshVertex
 10
0.6887
 20
0.515
 30
3.059
 70
    64
  0
VERTEX
  5
22003
100
AcDbEntity
  8
0
100
AcDbVertex
100
AcDbPolygonMeshVertex
 10
0.6887
 20
0.515
 30
2.447
 70
    64
  0
VERTEX
  5
22004
100
AcDbEntity
  8
0
100
AcDbVertex
100
AcDbPolygonMeshVertex
 10
0.6887
 20
0.515
 30
2.447
 70
    64
  0
VERTEX
  5
22005
100
AcDbEntity
  8
0
100
AcDbVertex
100
AcDbPolygonMeshVertex
 10
0.7427
 20
0.515
 30
3.059
 70
    64
  0
VERTEX
  5
22006
100
AcDbEntity
  8
0
100
AcDbVertex
100
AcDbPolygonMeshVertex
 10
0.7427
 20
0.515
 30
2.447
 70
    64
  0
VERTEX
  5
22007
100
AcDbEntity
  8
0
100
AcDbVertex
100
AcDbPolygonMeshVertex
 10
0.7427
 20
0.515
 30
2.447
 70
    64
  0
VERTEX
  5
22008
100
AcDbEntity
  8
0
100
AcDbVertex
100
AcDbPolygonMeshVertex
 10
0.7427
 20
0.401
 30
3.059
 70
    64
  0
VERTEX
  5
22009
100
AcDbEntity
  8
0
100
AcDbVertex
100
AcDbPolygonMeshVertex
 10
0.7427
 20
0.401
 30
2.447
 70
    64
  0
VERTEX
  5
2200A
100
AcDbEntity
  8
0
100
AcDbVertex
100
AcDbPolygonMeshVertex
 10
0.7427
 20
0.515
 30
2.447
 70
    64
  0
VERTEX
  5
2200B
100
AcDbEntity
  8
0
100
AcDbVertex
100
AcDbPolygonMeshVertex
 10
0.6887
 20
0.401
 30
3.059
 70
    64
  0
VERTEX
  5
2200C
100
AcDbEntity
  8
0
100
AcDbVertex
100
AcDbPolygonMeshVertex
 10
0.6887
 20
0.401
 30
2.447
 70
    64
  0
VERTEX
  5
2200D
100
AcDbEntity
  8
0
100
AcDbVertex
100
AcDbPolygonMeshVertex
 10
0.6887
 20
0.515
 30
2.447
 70
    64
  0
VERTEX
  5
2200E
100
AcDbEntity
  8
0
100
AcDbVertex
100
AcDbPolygonMeshVertex
 10
0.6887
 20
0.401
 30
3.059
 70
    64
  0
VERTEX
  5
2200F
100
AcDbEntity
  8
0
100
AcDbVertex
100
AcDbPolygonMeshVertex
 10
0.6887
 20
0.401
 30
3.059
 70
    64
  0
VERTEX
  5
22010
100
AcDbEntity
  8
0
100
AcDbVertex
100
AcDbPolygonMeshVertex
 10
0.6887
 20
0.515
 30
3.059
 70
    64
  0
VERTEX
  5
22011
100
AcDbEntity
  8
0
100
AcDbVertex
100
AcDbPolygonMeshVertex
 10
0.7427
 20
0.401
 30
3.059
 70
    64
  0
VERTEX
  5
22012
100
AcDbEntity
  8
0
100
AcDbVertex
100
AcDbPolygonMeshVertex
 10
0.7427
 20
0.401
 30
3.059
 70
    64
  0
VERTEX
  5
22013
100
AcDbEntity
  8
0
100
AcDbVertex
100
AcDbPolygonMeshVertex
 10
0.7427
 20
0.515
 30
3.059
 70
    64
  0
SEQEND
  5
22014
100
AcDbEntity
  8
0
  0
POLYLINE
  5
22015
100
AcDbEntity
  8
0
100
AcDbPolygonMesh
 66
     1
 10
0.0
 20
0.0
 30
0.0
 70
    16
 71
     6
 72
     3
  0
VERTEX
  5
22016
100
AcDbEntity
  8
0
100
AcDbVertex
100
AcDbPolygonMeshVertex
 10
1.4313
 20
0.515
 30
3.059
 70
    64
  0
VERTEX
  5
22017
100
AcDbEntity
  8
0
100
AcDbVertex
100
AcDbPolygonMeshVertex
 10
1.4313
 20
0.515
 30
2.447
 70
    64
  0
VERTEX
  5
22018
100
AcDbEntity
  8
0
100
AcDbVertex
100
AcDbPolygonMeshVertex
 10
1.4313
 20
0.515
 30
2.447
 70
    64
  0
VERTEX
  5
22019
100
AcDbEntity
  8
0
100
AcDbVertex
100
AcDbPolygonMeshVertex
 10
1.3773
 20
0.515
 30
3.059
 70
    64
  0
VERTEX
  5
2201A
100
AcDbEntity
  8
0
100
AcDbVertex
100
AcDbPolygonMeshVertex
 10
1.3773
 20
0.515
 30
2.447
 70
    64
  0
VERTEX
  5
2201B
100
AcDbEntity
  8
0
100
AcDbVertex
100
AcDbPolygonMeshVertex
 10
1.3773
 20
0.515
 30
2.447
 70
    64
  0
VERTEX
  5
2201C
100
AcDbEntity
  8
0
100
AcDbVertex
100
AcDbPolygonMeshVertex
 10
1.3773
 20
0.401
 30
3.059
 70
    64
  0
VERTEX
  5
2201D
100
AcDbEntity
  8
0
100
AcDbVertex
100
AcDbPolygonMeshVertex
 10
1.3773
 20
0.401
 30
2.447
 70
    64
  0
VERTEX
  5
2201E
100
AcDbEntity
  8
0
100
AcDbVertex
100
AcDbPolygonMeshVertex
 10
1.3773
 20
0.515
 30
2.447
 70
    64
  0
VERTEX
  5
2201F
100
AcDbEntity
  8
0
100
AcDbVertex
100
AcDbPolygonMeshVertex
 10
1.4313
 20
0.401
 30
3.059
 70
    64
  0
VERTEX
  5
22020
100
AcDbEntity
  8
0
100
AcDbVertex
100
AcDbPolygonMeshVertex
 10
1.4313
 20
0.401
 30
2.447
 70
    64
  0
VERTEX
  5
22021
100
AcDbEntity
  8
0
100
AcDbVertex
100
AcDbPolygonMeshVertex
 10
1.4313
 20
0.515
 30
2.447
 70
    64
  0
VERTEX
  5
22022
100
AcDbEntity
  8
0
100
AcDbVertex
100
AcDbPolygonMeshVertex
 10
1.4313
 20
0.401
 30
3.059
 70
    64
  0
VERTEX
  5
22023
100
AcDbEntity
  8
0
100
AcDbVertex
100
AcDbPolygonMeshVertex
 10
1.4313
 20
0.401
 30
3.059
 70
    64
  0
VERTEX
  5
22024
100
AcDbEntity
  8
0
100
AcDbVertex
100
AcDbPolygonMeshVertex
 10
1.4313
 20
0.515
 30
3.059
 70
    64
  0
VERTEX
  5
22025
100
AcDbEntity
  8
0
100
AcDbVertex
100
AcDbPolygonMeshVertex
 10
1.3773
 20
0.401
 30
3.059
 70
    64
  0
VERTEX
  5
22026
100
AcDbEntity
  8
0
100
AcDbVertex
100
AcDbPolygonMeshVertex
 10
1.3773
 20
0.401
 30
3.059
 70
    64
  0
VERTEX
  5
22027
100
AcDbEntity
  8
0
100
AcDbVertex
100
AcDbPolygonMeshVertex
 10
1.3773
 20
0.515
 30
3.059
 70
    64
  0
SEQEND
  5
22028
100
AcDbEntity
  8
0
  0
LINE
  5
22029
100
AcDbEntity
  8
0
100
AcDbLine
 10
0.23635
 20
0.401
 30
2.998
 11
0.50635
 21
0.401
 31
2.998
  0
LINE
  5
2202A
100
AcDbEntity
  8
0
100
AcDbLine
 10
0.23635
 20
0.401
 30
2.328
 11
0.50635
 21
0.401
 31
2.328
  0
LINE
  5
2202B
100
AcDbEntity
  8
0
100
AcDbLine
 10
0.23635
 20
0.401
 30
2.726
 11
0.50635
 21
0.401
 31
2.726
  0
LINE
  5
2202C
100
AcDbEntity
  8
0
100
AcDbLine
 10
0.23635
 20
0.401
 30
2.622
 11
0.50635
 21
0.401
 31
2.622
  0
LINE
  5
2202D
100
AcDbEntity
  8
0
100
AcDbLine
 10
0.56835
 20
0.401
 30
2.368461
 11
0.56835
 21
0.401
 31
3.059
  0
LINE
  5
2202E
100
AcDbEntity
  8
0
100
AcDbLine
 10
0.17435
 20
0.401
 30
2.3875
 11
0.17435
 21
0.401
 31
3.059
  0
LINE
  5
2202F
100
AcDbEntity
  8
0
100
AcDbLine
 10
0.23635
 20
0.401
 30
2.998
 11
0.23635
 21
0.401
 31
2.726
  0
LINE
  5
22030
100
AcDbEntity
  8
0
100
AcDbLine
 10
0.50635
 20
0.401
 30
2.998
 11
0.50635
 21
0.401
 31
2.726
  0
LINE
  5
22031
100
AcDbEntity
  8
0
100
AcDbLine
 10
0.23635
 20
0.401
 30
2.622
 11
0.23635
 21
0.401
 31
2.447
  0
LINE
  5
22032
100
AcDbEntity
  8
0
100
AcDbLine
 10
0.17435
 20
0.401
 30
2.447
 11
0.23635
 21
0.401
 31
2.447
  0
LINE
  5
22033
100
AcDbEntity
  8
0
100
AcDbLine
 10
0.50635
 20
0.401
 30
2.328
 11
0.56835
 21
0.401
 31
2.368461
  0
LINE
  5
22034
100
AcDbEntity
  8
0
100
AcDbLine
 10
0.56835
 20
0.401
 30
2.447
 11
0.50635
 21
0.401
 31
2.447
  0
LINE
  5
22035
100
AcDbEntity
  8
0
100
AcDbLine
 10
0.50635
 20
0.401
 30
2.622
 11
0.50635
 21
0.401
 31
2.447
  0
LINE
  5
22036
100
AcDbEntity
  8
0
100
AcDbLine
 10
0.23635
 20
0.401
 30
2.328
 11
0.17435
 21
0.401
 31
2.3875
  0
LINE
  5
22037
100
AcDbEntity
  8
0
100
AcDbLine
 10
0.17435
 20
0.401
 30
3.059
 11
0.56835
 21
0.401
 31
3.059
210
0.0
220
-1.0
230
0.0
  0
LINE
  5
22038
100
AcDbEntity
  8
0
100
AcDbLine
 10
0.86305
 20
0.401
 30
2.3875
 11
0.86305
 21
0.401
 31
3.059
  0
LINE
  5
22039
100
AcDbEntity
  8
0
100
AcDbLine
 10
1.25705
 20
0.401
 30
2.368461
 11
1.25705
 21
0.401
 31
3.059
  0
LINE
  5
2203A
100
AcDbEntity
  8
0
100
AcDbLine
 10
0.92505
 20
0.401
 30
2.328
 11
1.19505
 21
0.401
 31
2.328
  0
LINE
  5
2203B
100
AcDbEntity
  8
0
100
AcDbLine
 10
0.92505
 20
0.401
 30
2.622
 11
1.19505
 21
0.401
 31
2.622
  0
LINE
  5
2203C
100
AcDbEntity
  8
0
100
AcDbLine
 10
0.92505
 20
0.401
 30
2.328
 11
0.86305
 21
0.401
 31
2.3875
  0
LINE
  5
2203D
100
AcDbEntity
  8
0
100
AcDbLine
 10
0.92505
 20
0.401
 30
2.622
 11
0.92505
 21
0.401
 31
2.447
  0
LINE
  5
2203E
100
AcDbEntity
  8
0
100
AcDbLine
 10
0.86305
 20
0.401
 30
2.447
 11
0.92505
 21
0.401
 31
2.447
  0
LINE
  5
2203F
100
AcDbEntity
  8
0
100
AcDbLine
 10
1.19505
 20
0.401
 30
2.328
 11
1.25705
 21
0.401
 31
2.368461
  0
LINE
  5
22040
100
AcDbEntity
  8
0
100
AcDbLine
 10
1.19505
 20
0.401
 30
2.622
 11
1.19505
 21
0.401
 31
2.447
  0
LINE
  5
22041
100
AcDbEntity
  8
0
100
AcDbLine
 10
1.25705
 20
0.401
 30
2.447
 11
1.19505
 21
0.401
 31
2.447
  0
LINE
  5
22042
100
AcDbEntity
  8
0
100
AcDbLine
 10
0.86305
 20
0.401
 30
3.059
 11
1.25705
 21
0.401
 31
3.059
210
0.0
220
-1.0
230
0.0
  0
LINE
  5
22043
100
AcDbEntity
  8
0
100
AcDbLine
 10
0.92505
 20
0.401
 30
2.998
 11
1.19505
 21
0.401
 31
2.998
  0
LINE
  5
22044
100
AcDbEntity
  8
0
100
AcDbLine
 10
0.92505
 20
0.401
 30
2.726
 11
1.19505
 21
0.401
 31
2.726
  0
LINE
  5
22045
100
AcDbEntity
  8
0
100
AcDbLine
 10
0.92505
 20
0.401
 30
2.998
 11
0.92505
 21
0.401
 31
2.726
  0
LINE
  5
22046
100
AcDbEntity
  8
0
100
AcDbLine
 10
1.19505
 20
0.401
 30
2.998
 11
1.19505
 21
0.401
 31
2.726
  0
LINE
  5
22047
100
AcDbEntity
  8
0
100
AcDbLine
 10
1.94565
 20
0.401
 30
2.368461
 11
1.94565
 21
0.401
 31
3.059
  0
LINE
  5
22048
100
AcDbEntity
  8
0
100
AcDbLine
 10
1.55165
 20
0.401
 30
2.3875
 11
1.55165
 21
0.401
 31
3.059
  0
LINE
  5
22049
100
AcDbEntity
  8
0
100
AcDbLine
 10
1.61365
 20
0.401
 30
2.622
 11
1.88365
 21
0.401
 31
2.622
  0
LINE
  5
2204A
100
AcDbEntity
  8
0
100
AcDbLine
 10
1.61365
 20
0.401
 30
2.328
 11
1.88365
 21
0.401
 31
2.328
  0
LINE
  5
2204B
100
AcDbEntity
  8
0
100
AcDbLine
 10
1.61365
 20
0.401
 30
2.328
 11
1.55165
 21
0.401
 31
2.3875
  0
LINE
  5
2204C
100
AcDbEntity
  8
0
100
AcDbLine
 10
1.61365
 20
0.401
 30
2.622
 11
1.61365
 21
0.401
 31
2.447
  0
LINE
  5
2204D
100
AcDbEntity
  8
0
100
AcDbLine
 10
1.55165
 20
0.401
 30
2.447
 11
1.61365
 21
0.401
 31
2.447
  0
LINE
  5
2204E
100
AcDbEntity
  8
0
100
AcDbLine
 10
1.88365
 20
0.401
 30
2.328
 11
1.94565
 21
0.401
 31
2.368461
  0
LINE
  5
2204F
100
AcDbEntity
  8
0
100
AcDbLine
 10
1.88365
 20
0.401
 30
2.622
 11
1.88365
 21
0.401
 31
2.447
  0
LINE
  5
22050
100
AcDbEntity
  8
0
100
AcDbLine
 10
1.94565
 20
0.401
 30
2.447
 11
1.88365
 21
0.401
 31
2.447
  0
LINE
  5
22051
100
AcDbEntity
  8
0
100
AcDbLine
 10
1.61365
 20
0.401
 30
2.726
 11
1.88365
 21
0.401
 31
2.726
  0
LINE
  5
22052
100
AcDbEntity
  8
0
100
AcDbLine
 10
1.61365
 20
0.401
 30
2.998
 11
1.88365
 21
0.401
 31
2.998
  0
LINE
  5
22053
100
AcDbEntity
  8
0
100
AcDbLine
 10
1.61365
 20
0.401
 30
2.998
 11
1.61365
 21
0.401
 31
2.726
  0
LINE
  5
22054
100
AcDbEntity
  8
0
100
AcDbLine
 10
1.88365
 20
0.401
 30
2.998
 11
1.88365
 21
0.401
 31
2.726
  0
LINE
  5
22055
100
AcDbEntity
  8
0
100
AcDbLine
 10
1.55165
 20
0.401
 30
3.059
 11
1.94565
 21
0.401
 31
3.059
210
0.0
220
-1.0
230
0.0
  0
POLYLINE
  5
22056
100
AcDbEntity
  8
0
100
AcDbPolygonMesh
 66
     1
 10
0.0
 20
0.0
 30
0.0
 70
    16
 71
     6
 72
     3
  0
VERTEX
  5
22057
100
AcDbEntity
  8
0
100
AcDbVertex
100
AcDbPolygonMeshVertex
 10
2.066
 20
0.515
 30
3.059
 70
    64
  0
VERTEX
  5
22058
100
AcDbEntity
  8
0
100
AcDbVertex
100
AcDbPolygonMeshVertex
 10
2.066
 20
0.515
 30
1.641
 70
    64
  0
VERTEX
  5
22059
100
AcDbEntity
  8
0
100
AcDbVertex
100
AcDbPolygonMeshVertex
 10
2.066
 20
0.515
 30
1.641
 70
    64
  0
VERTEX
  5
2205A
100
AcDbEntity
  8
0
100
AcDbVertex
100
AcDbPolygonMeshVertex
 10
2.12
 20
0.515
 30
3.059
 70
    64
  0
VERTEX
  5
2205B
100
AcDbEntity
  8
0
100
AcDbVertex
100
AcDbPolygonMeshVertex
 10
2.12
 20
0.515
 30
1.641
 70
    64
  0
VERTEX
  5
2205C
100
AcDbEntity
  8
0
100
AcDbVertex
100
AcDbPolygonMeshVertex
 10
2.12
 20
0.515
 30
1.641
 70
    64
  0
VERTEX
  5
2205D
100
AcDbEntity
  8
0
100
AcDbVertex
100
AcDbPolygonMeshVertex
 10
2.12
 20
0.401
 30
3.059
 70
    64
  0
VERTEX
  5
2205E
100
AcDbEntity
  8
0
100
AcDbVertex
100
AcDbPolygonMeshVertex
 10
2.12
 20
0.401
 30
1.641
 70
    64
  0
VERTEX
  5
2205F
100
AcDbEntity
  8
0
100
AcDbVertex
100
AcDbPolygonMeshVertex
 10
2.12
 20
0.515
 30
1.641
 70
    64
  0
VERTEX
  5
22060
100
AcDbEntity
  8
0
100
AcDbVertex
100
AcDbPolygonMeshVertex
 10
2.066
 20
0.401
 30
3.059
 70
    64
  0
VERTEX
  5
22061
100
AcDbEntity
  8
0
100
AcDbVertex
100
AcDbPolygonMeshVertex
 10
2.066
 20
0.401
 30
1.641
 70
    64
  0
VERTEX
  5
22062
100
AcDbEntity
  8
0
100
AcDbVertex
100
AcDbPolygonMeshVertex
 10
2.066
 20
0.515
 30
1.641
 70
    64
  0
VERTEX
  5
22063
100
AcDbEntity
  8
0
100
AcDbVertex
100
AcDbPolygonMeshVertex
 10
2.066
 20
0.401
 30
3.059
 70
    64
  0
VERTEX
  5
22064
100
AcDbEntity
  8
0
100
AcDbVertex
100
AcDbPolygonMeshVertex
 10
2.066
 20
0.401
 30
3.059
 70
    64
  0
VERTEX
  5
22065
100
AcDbEntity
  8
0
100
AcDbVertex
100
AcDbPolygonMeshVertex
 10
2.066
 20
0.515
 30
3.059
 70
    64
  0
VERTEX
  5
22066
100
AcDbEntity
  8
0
100
AcDbVertex
100
AcDbPolygonMeshVertex
 10
2.12
 20
0.401
 30
3.059
 70
    64
  0
VERTEX
  5
22067
100
AcDbEntity
  8
0
100
AcDbVertex
100
AcDbPolygonMeshVertex
 10
2.12
 20
0.401
 30
3.059
 70
    64
  0
VERTEX
  5
22068
100
AcDbEntity
  8
0
100
AcDbVertex
100
AcDbPolygonMeshVertex
 10
2.12
 20
0.515
 30
3.059
 70
    64
  0
SEQEND
  5
22069
100
AcDbEntity
  8
0
  0
POLYLINE
  5
2206A
100
AcDbEntity
  8
0
100
AcDbPolygonMesh
 66
     1
 10
0.0
 20
0.0
 30
0.0
 70
    16
 71
     6
 72
     3
  0
VERTEX
  5
2206B
100
AcDbEntity
  8
0
100
AcDbVertex
100
AcDbPolygonMeshVertex
 10
0.0
 20
0.515
 30
3.059
 70
    64
  0
VERTEX
  5
2206C
100
AcDbEntity
  8
0
100
AcDbVertex
100
AcDbPolygonMeshVertex
 10
0.0
 20
0.515
 30
1.641
 70
    64
  0
VERTEX
  5
2206D
100
AcDbEntity
  8
0
100
AcDbVertex
100
AcDbPolygonMeshVertex
 10
0.0
 20
0.515
 30
1.641
 70
    64
  0
VERTEX
  5
2206E
100
AcDbEntity
  8
0
100
AcDbVertex
100
AcDbPolygonMeshVertex
 10
0.054
 20
0.515
 30
3.059
 70
    64
  0
VERTEX
  5
2206F
100
AcDbEntity
  8
0
100
AcDbVertex
100
AcDbPolygonMeshVertex
 10
0.054
 20
0.515
 30
1.641
 70
    64
  0
VERTEX
  5
22070
100
AcDbEntity
  8
0
100
AcDbVertex
100
AcDbPolygonMeshVertex
 10
0.054
 20
0.515
 30
1.641
 70
    64
  0
VERTEX
  5
22071
100
AcDbEntity
  8
0
100
AcDbVertex
100
AcDbPolygonMeshVertex
 10
0.054
 20
0.401
 30
3.059
 70
    64
  0
VERTEX
  5
22072
100
AcDbEntity
  8
0
100
AcDbVertex
100
AcDbPolygonMeshVertex
 10
0.054
 20
0.401
 30
1.641
 70
    64
  0
VERTEX
  5
22073
100
AcDbEntity
  8
0
100
AcDbVertex
100
AcDbPolygonMeshVertex
 10
0.054
 20
0.515
 30
1.641
 70
    64
  0
VERTEX
  5
22074
100
AcDbEntity
  8
0
100
AcDbVertex
100
AcDbPolygonMeshVertex
 10
0.0
 20
0.401
 30
3.059
 70
    64
  0
VERTEX
  5
22075
100
AcDbEntity
  8
0
100
AcDbVertex
100
AcDbPolygonMeshVertex
 10
0.0
 20
0.401
 30
1.641
 70
    64
  0
VERTEX
  5
22076
100
AcDbEntity
  8
0
100
AcDbVertex
100
AcDbPolygonMeshVertex
 10
0.0
 20
0.515
 30
1.641
 70
    64
  0
VERTEX
  5
22077
100
AcDbEntity
  8
0
100
AcDbVertex
100
AcDbPolygonMeshVertex
 10
0.0
 20
0.401
 30
3.059
 70
    64
  0
VERTEX
  5
22078
100
AcDbEntity
  8
0
100
AcDbVertex
100
AcDbPolygonMeshVertex
 10
0.0
 20
0.401
 30
3.059
 70
    64
  0
VERTEX
  5
22079
100
AcDbEntity
  8
0
100
AcDbVertex
100
AcDbPolygonMeshVertex
 10
0.0
 20
0.515
 30
3.059
 70
    64
  0
VERTEX
  5
2207A
100
AcDbEntity
  8
0
100
AcDbVertex
100
AcDbPolygonMeshVertex
 10
0.054
 20
0.401
 30
3.059
 70
    64
  0
VERTEX
  5
2207B
100
AcDbEntity
  8
0
100
AcDbVertex
100
AcDbPolygonMeshVertex
 10
0.054
 20
0.401
 30
3.059
 70
    64
  0
VERTEX
  5
2207C
100
AcDbEntity
  8
0
100
AcDbVertex
100
AcDbPolygonMeshVertex
 10
0.054
 20
0.515
 30
3.059
 70
    64
  0
SEQEND
  5
2207D
100
AcDbEntity
  8
0
  0
LINE
  5
2207E
100
AcDbEntity
  8
0
100
AcDbLine
 10
1.55165
 20
-2.089
 30
3.059
 11
1.94565
 21
-2.089
 31
3.059
210
0.0
220
1.0
230
0.0
  0
LINE
  5
2207F
100
AcDbEntity
  8
0
100
AcDbLine
 10
1.55165
 20
-2.089
 30
2.447
 11
1.61365
 21
-2.089
 31
2.447
  0
LINE
  5
22080
100
AcDbEntity
  8
0
100
AcDbLine
 10
1.55165
 20
-2.089
 30
2.3875
 11
1.55165
 21
-2.089
 31
3.059
  0
LINE
  5
22081
100
AcDbEntity
  8
0
100
AcDbLine
 10
1.25705
 20
-2.089
 30
2.368461
 11
1.25705
 21
-2.089
 31
3.059
  0
LINE
  5
22082
100
AcDbEntity
  8
0
100
AcDbLine
 10
0.86305
 20
-2.089
 30
2.3875
 11
0.86305
 21
-2.089
 31
3.059
  0
LINE
  5
22083
100
AcDbEntity
  8
0
100
AcDbLine
 10
0.17435
 20
-2.089
 30
2.3875
 11
0.17435
 21
-2.089
 31
3.059
  0
LINE
  5
22084
100
AcDbEntity
  8
0
100
AcDbLine
 10
0.56835
 20
-2.089
 30
2.368461
 11
0.56835
 21
-2.089
 31
3.059
  0
POLYLINE
  5
22085
100
AcDbEntity
  8
0
100
AcDbPolygonMesh
 66
     1
 10
0.0
 20
0.0
 30
0.0
 70
    16
 71
     6
 72
     3
  0
VERTEX
  5
22086
100
AcDbEntity
  8
0
100
AcDbVertex
100
AcDbPolygonMeshVertex
 10
1.4313
 20
-2.203
 30
3.059
 70
    64
  0
VERTEX
  5
22087
100
AcDbEntity
  8
0
100
AcDbVertex
100
AcDbPolygonMeshVertex
 10
1.4313
 20
-2.203
 30
2.447
 70
    64
  0
VERTEX
  5
22088
100
AcDbEntity
  8
0
100
AcDbVertex
100
AcDbPolygonMeshVertex
 10
1.4313
 20
-2.203
 30
2.447
 70
    64
  0
VERTEX
  5
22089
100
AcDbEntity
  8
0
100
AcDbVertex
100
AcDbPolygonMeshVertex
 10
1.3773
 20
-2.203
 30
3.059
 70
    64
  0
VERTEX
  5
2208A
100
AcDbEntity
  8
0
100
AcDbVertex
100
AcDbPolygonMeshVertex
 10
1.3773
 20
-2.203
 30
2.447
 70
    64
  0
VERTEX
  5
2208B
100
AcDbEntity
  8
0
100
AcDbVertex
100
AcDbPolygonMeshVertex
 10
1.3773
 20
-2.203
 30
2.447
 70
    64
  0
VERTEX
  5
2208C
100
AcDbEntity
  8
0
100
AcDbVertex
100
AcDbPolygonMeshVertex
 10
1.3773
 20
-2.089
 30
3.059
 70
    64
  0
VERTEX
  5
2208D
100
AcDbEntity
  8
0
100
AcDbVertex
100
AcDbPolygonMeshVertex
 10
1.3773
 20
-2.089
 30
2.447
 70
    64
  0
VERTEX
  5
2208E
100
AcDbEntity
  8
0
100
AcDbVertex
100
AcDbPolygonMeshVertex
 10
1.3773
 20
-2.203
 30
2.447
 70
    64
  0
VERTEX
  5
2208F
100
AcDbEntity
  8
0
100
AcDbVertex
100
AcDbPolygonMeshVertex
 10
1.4313
 20
-2.089
 30
3.059
 70
    64
  0
VERTEX
  5
22090
100
AcDbEntity
  8
0
100
AcDbVertex
100
AcDbPolygonMeshVertex
 10
1.4313
 20
-2.089
 30
2.447
 70
    64
  0
VERTEX
  5
22091
100
AcDbEntity
  8
0
100
AcDbVertex
100
AcDbPolygonMeshVertex
 10
1.4313
 20
-2.203
 30
2.447
 70
    64
  0
VERTEX
  5
22092
100
AcDbEntity
  8
0
100
AcDbVertex
100
AcDbPolygonMeshVertex
 10
1.4313
 20
-2.089
 30
3.059
 70
    64
  0
VERTEX
  5
22093
100
AcDbEntity
  8
0
100
AcDbVertex
100
AcDbPolygonMeshVertex
 10
1.4313
 20
-2.089
 30
3.059
 70
    64
  0
VERTEX
  5
22094
100
AcDbEntity
  8
0
100
AcDbVertex
100
AcDbPolygonMeshVertex
 10
1.4313
 20
-2.203
 30
3.059
 70
    64
  0
VERTEX
  5
22095
100
AcDbEntity
  8
0
100
AcDbVertex
100
AcDbPolygonMeshVertex
 10
1.3773
 20
-2.089
 30
3.059
 70
    64
  0
VERTEX
  5
22096
100
AcDbEntity
  8
0
100
AcDbVertex
100
AcDbPolygonMeshVertex
 10
1.3773
 20
-2.089
 30
3.059
 70
    64
  0
VERTEX
  5
22097
100
AcDbEntity
  8
0
100
AcDbVertex
100
AcDbPolygonMeshVertex
 10
1.3773
 20
-2.203
 30
3.059
 70
    64
  0
SEQEND
  5
22098
100
AcDbEntity
  8
0
  0
POLYLINE
  5
22099
100
AcDbEntity
  8
0
100
AcDbPolygonMesh
 66
     1
 10
0.0
 20
0.0
 30
0.0
 70
    16
 71
     6
 72
     3
  0
VERTEX
  5
2209A
100
AcDbEntity
  8
0
100
AcDbVertex
100
AcDbPolygonMeshVertex
 10
0.6887
 20
-2.203
 30
3.059
 70
    64
  0
VERTEX
  5
2209B
100
AcDbEntity
  8
0
100
AcDbVertex
100
AcDbPolygonMeshVertex
 10
0.6887
 20
-2.203
 30
2.447
 70
    64
  0
VERTEX
  5
2209C
100
AcDbEntity
  8
0
100
AcDbVertex
100
AcDbPolygonMeshVertex
 10
0.6887
 20
-2.203
 30
2.447
 70
    64
  0
VERTEX
  5
2209D
100
AcDbEntity
  8
0
100
AcDbVertex
100
AcDbPolygonMeshVertex
 10
0.7427
 20
-2.203
 30
3.059
 70
    64
  0
VERTEX
  5
2209E
100
AcDbEntity
  8
0
100
AcDbVertex
100
AcDbPolygonMeshVertex
 10
0.7427
 20
-2.203
 30
2.447
 70
    64
  0
VERTEX
  5
2209F
100
AcDbEntity
  8
0
100
AcDbVertex
100
AcDbPolygonMeshVertex
 10
0.7427
 20
-2.203
 30
2.447
 70
    64
  0
VERTEX
  5
220A0
100
AcDbEntity
  8
0
100
AcDbVertex
100
AcDbPolygonMeshVertex
 10
0.7427
 20
-2.089
 30
3.059
 70
    64
  0
VERTEX
  5
220A1
100
AcDbEntity
  8
0
100
AcDbVertex
100
AcDbPolygonMeshVertex
 10
0.7427
 20
-2.089
 30
2.447
 70
    64
  0
VERTEX
  5
220A2
100
AcDbEntity
  8
0
100
AcDbVertex
100
AcDbPolygonMeshVertex
 10
0.7427
 20
-2.203
 30
2.447
 70
    64
  0
VERTEX
  5
220A3
100
AcDbEntity
  8
0
100
AcDbVertex
100
AcDbPolygonMeshVertex
 10
0.6887
 20
-2.089
 30
3.059
 70
    64
  0
VERTEX
  5
220A4
100
AcDbEntity
  8
0
100
AcDbVertex
100
AcDbPolygonMeshVertex
 10
0.6887
 20
-2.089
 30
2.447
 70
    64
  0
VERTEX
  5
220A5
100
AcDbEntity
  8
0
100
AcDbVertex
100
AcDbPolygonMeshVertex
 10
0.6887
 20
-2.203
 30
2.447
 70
    64
  0
VERTEX
  5
220A6
100
AcDbEntity
  8
0
100
AcDbVertex
100
AcDbPolygonMeshVertex
 10
0.6887
 20
-2.089
 30
3.059
 70
    64
  0
VERTEX
  5
220A7
100
AcDbEntity
  8
0
100
AcDbVertex
100
AcDbPolygonMeshVertex
 10
0.6887
 20
-2.089
 30
3.059
 70
    64
  0
VERTEX
  5
220A8
100
AcDbEntity
  8
0
100
AcDbVertex
100
AcDbPolygonMeshVertex
 10
0.6887
 20
-2.203
 30
3.059
 70
    64
  0
VERTEX
  5
220A9
100
AcDbEntity
  8
0
100
AcDbVertex
100
AcDbPolygonMeshVertex
 10
0.7427
 20
-2.089
 30
3.059
 70
    64
  0
VERTEX
  5
220AA
100
AcDbEntity
  8
0
100
AcDbVertex
100
AcDbPolygonMeshVertex
 10
0.7427
 20
-2.089
 30
3.059
 70
    64
  0
VERTEX
  5
220AB
100
AcDbEntity
  8
0
100
AcDbVertex
100
AcDbPolygonMeshVertex
 10
0.7427
 20
-2.203
 30
3.059
 70
    64
  0
SEQEND
  5
220AC
100
AcDbEntity
  8
0
  0
LINE
  5
220AD
100
AcDbEntity
  8
0
100
AcDbLine
 10
0.23635
 20
-2.089
 30
2.328
 11
0.50635
 21
-2.089
 31
2.328
  0
LINE
  5
220AE
100
AcDbEntity
  8
0
100
AcDbLine
 10
0.23635
 20
-2.089
 30
2.622
 11
0.50635
 21
-2.089
 31
2.622
  0
LINE
  5
220AF
100
AcDbEntity
  8
0
100
AcDbLine
 10
0.23635
 20
-2.089
 30
2.328
 11
0.17435
 21
-2.089
 31
2.3875
  0
LINE
  5
220B0
100
AcDbEntity
  8
0
100
AcDbLine
 10
0.23635
 20
-2.089
 30
2.622
 11
0.23635
 21
-2.089
 31
2.447
  0
LINE
  5
220B1
100
AcDbEntity
  8
0
100
AcDbLine
 10
0.17435
 20
-2.089
 30
2.447
 11
0.23635
 21
-2.089
 31
2.447
  0
LINE
  5
220B2
100
AcDbEntity
  8
0
100
AcDbLine
 10
0.92505
 20
-2.089
 30
2.622
 11
1.19505
 21
-2.089
 31
2.622
  0
LINE
  5
220B3
100
AcDbEntity
  8
0
100
AcDbLine
 10
0.92505
 20
-2.089
 30
2.328
 11
1.19505
 21
-2.089
 31
2.328
  0
LINE
  5
220B4
100
AcDbEntity
  8
0
100
AcDbLine
 10
0.50635
 20
-2.089
 30
2.328
 11
0.56835
 21
-2.089
 31
2.368461
  0
LINE
  5
220B5
100
AcDbEntity
  8
0
100
AcDbLine
 10
0.92505
 20
-2.089
 30
2.328
 11
0.86305
 21
-2.089
 31
2.3875
  0
LINE
  5
220B6
100
AcDbEntity
  8
0
100
AcDbLine
 10
0.50635
 20
-2.089
 30
2.622
 11
0.50635
 21
-2.089
 31
2.447
  0
LINE
  5
220B7
100
AcDbEntity
  8
0
100
AcDbLine
 10
0.56835
 20
-2.089
 30
2.447
 11
0.50635
 21
-2.089
 31
2.447
  0
LINE
  5
220B8
100
AcDbEntity
  8
0
100
AcDbLine
 10
0.92505
 20
-2.089
 30
2.622
 11
0.92505
 21
-2.089
 31
2.447
  0
LINE
  5
220B9
100
AcDbEntity
  8
0
100
AcDbLine
 10
0.86305
 20
-2.089
 30
2.447
 11
0.92505
 21
-2.089
 31
2.447
  0
LINE
  5
220BA
100
AcDbEntity
  8
0
100
AcDbLine
 10
1.19505
 20
-2.089
 30
2.328
 11
1.25705
 21
-2.089
 31
2.368461
  0
LINE
  5
220BB
100
AcDbEntity
  8
0
100
AcDbLine
 10
1.19505
 20
-2.089
 30
2.622
 11
1.19505
 21
-2.089
 31
2.447
  0
LINE
  5
220BC
100
AcDbEntity
  8
0
100
AcDbLine
 10
1.25705
 20
-2.089
 30
2.447
 11
1.19505
 21
-2.089
 31
2.447
  0
LINE
  5
220BD
100
AcDbEntity
  8
0
100
AcDbLine
 10
0.17435
 20
-2.089
 30
3.059
 11
0.56835
 21
-2.089
 31
3.059
210
0.0
220
1.0
230
0.0
  0
LINE
  5
220BE
100
AcDbEntity
  8
0
100
AcDbLine
 10
0.23635
 20
-2.089
 30
2.998
 11
0.50635
 21
-2.089
 31
2.998
  0
LINE
  5
220BF
100
AcDbEntity
  8
0
100
AcDbLine
 10
0.23635
 20
-2.089
 30
2.726
 11
0.50635
 21
-2.089
 31
2.726
  0
LINE
  5
220C0
100
AcDbEntity
  8
0
100
AcDbLine
 10
0.23635
 20
-2.089
 30
2.998
 11
0.23635
 21
-2.089
 31
2.726
  0
LINE
  5
220C1
100
AcDbEntity
  8
0
100
AcDbLine
 10
0.92505
 20
-2.089
 30
2.726
 11
1.19505
 21
-2.089
 31
2.726
  0
LINE
  5
220C2
100
AcDbEntity
  8
0
100
AcDbLine
 10
0.92505
 20
-2.089
 30
2.998
 11
1.19505
 21
-2.089
 31
2.998
  0
LINE
  5
220C3
100
AcDbEntity
  8
0
100
AcDbLine
 10
0.92505
 20
-2.089
 30
2.998
 11
0.92505
 21
-2.089
 31
2.726
  0
LINE
  5
220C4
100
AcDbEntity
  8
0
100
AcDbLine
 10
0.50635
 20
-2.089
 30
2.998
 11
0.50635
 21
-2.089
 31
2.726
  0
LINE
  5
220C5
100
AcDbEntity
  8
0
100
AcDbLine
 10
1.19505
 20
-2.089
 30
2.998
 11
1.19505
 21
-2.089
 31
2.726
  0
LINE
  5
220C6
100
AcDbEntity
  8
0
100
AcDbLine
 10
0.86305
 20
-2.089
 30
3.059
 11
1.25705
 21
-2.089
 31
3.059
210
0.0
220
1.0
230
0.0
  0
LINE
  5
220C7
100
AcDbEntity
  8
0
100
AcDbLine
 10
1.61365
 20
-2.089
 30
2.622
 11
1.88365
 21
-2.089
 31
2.622
  0
LINE
  5
220C8
100
AcDbEntity
  8
0
100
AcDbLine
 10
1.61365
 20
-2.089
 30
2.622
 11
1.61365
 21
-2.089
 31
2.447
  0
LINE
  5
220C9
100
AcDbEntity
  8
0
100
AcDbLine
 10
1.88365
 20
-2.089
 30
2.998
 11
1.88365
 21
-2.089
 31
2.726
  0
LINE
  5
220CA
100
AcDbEntity
  8
0
100
AcDbLine
 10
1.61365
 20
-2.089
 30
2.998
 11
1.61365
 21
-2.089
 31
2.726
  0
LINE
  5
220CB
100
AcDbEntity
  8
0
100
AcDbLine
 10
1.61365
 20
-2.089
 30
2.726
 11
1.88365
 21
-2.089
 31
2.726
  0
LINE
  5
220CC
100
AcDbEntity
  8
0
100
AcDbLine
 10
1.61365
 20
-2.089
 30
2.998
 11
1.88365
 21
-2.089
 31
2.998
  0
POLYLINE
  5
220CD
100
AcDbEntity
  8
0
100
AcDbPolygonMesh
 66
     1
 10
0.0
 20
0.0
 30
0.0
 70
    16
 71
     6
 72
     3
  0
VERTEX
  5
220CE
100
AcDbEntity
  8
0
100
AcDbVertex
100
AcDbPolygonMeshVertex
 10
0.0
 20
-2.203
 30
3.059
 70
    64
  0
VERTEX
  5
220CF
100
AcDbEntity
  8
0
100
AcDbVertex
100
AcDbPolygonMeshVertex
 10
0.0
 20
-2.203
 30
1.641
 70
    64
  0
VERTEX
  5
220D0
100
AcDbEntity
  8
0
100
AcDbVertex
100
AcDbPolygonMeshVertex
 10
0.0
 20
-2.203
 30
1.641
 70
    64
  0
VERTEX
  5
220D1
100
AcDbEntity
  8
0
100
AcDbVertex
100
AcDbPolygonMeshVertex
 10
0.054
 20
-2.203
 30
3.059
 70
    64
  0
VERTEX
  5
220D2
100
AcDbEntity
  8
0
100
AcDbVertex
100
AcDbPolygonMeshVertex
 10
0.054
 20
-2.203
 30
1.641
 70
    64
  0
VERTEX
  5
220D3
100
AcDbEntity
  8
0
100
AcDbVertex
100
AcDbPolygonMeshVertex
 10
0.054
 20
-2.203
 30
1.641
 70
    64
  0
VERTEX
  5
220D4
100
AcDbEntity
  8
0
100
AcDbVertex
100
AcDbPolygonMeshVertex
 10
0.054
 20
-2.089
 30
3.059
 70
    64
  0
VERTEX
  5
220D5
100
AcDbEntity
  8
0
100
AcDbVertex
100
AcDbPolygonMeshVertex
 10
0.054
 20
-2.089
 30
1.641
 70
    64
  0
VERTEX
  5
220D6
100
AcDbEntity
  8
0
100
AcDbVertex
100
AcDbPolygonMeshVertex
 10
0.054
 20
-2.203
 30
1.641
 70
    64
  0
VERTEX
  5
220D7
100
AcDbEntity
  8
0
100
AcDbVertex
100
AcDbPolygonMeshVertex
 10
0.0
 20
-2.089
 30
3.059
 70
    64
  0
VERTEX
  5
220D8
100
AcDbEntity
  8
0
100
AcDbVertex
100
AcDbPolygonMeshVertex
 10
0.0
 20
-2.089
 30
1.641
 70
    64
  0
VERTEX
  5
220D9
100
AcDbEntity
  8
0
100
AcDbVertex
100
AcDbPolygonMeshVertex
 10
0.0
 20
-2.203
 30
1.641
 70
    64
  0
VERTEX
  5
220DA
100
AcDbEntity
  8
0
100
AcDbVertex
100
AcDbPolygonMeshVertex
 10
0.0
 20
-2.089
 30
3.059
 70
    64
  0
VERTEX
  5
220DB
100
AcDbEntity
  8
0
100
AcDbVertex
100
AcDbPolygonMeshVertex
 10
0.0
 20
-2.089
 30
3.059
 70
    64
  0
VERTEX
  5
220DC
100
AcDbEntity
  8
0
100
AcDbVertex
100
AcDbPolygonMeshVertex
 10
0.0
 20
-2.203
 30
3.059
 70
    64
  0
VERTEX
  5
220DD
100
AcDbEntity
  8
0
100
AcDbVertex
100
AcDbPolygonMeshVertex
 10
0.054
 20
-2.089
 30
3.059
 70
    64
  0
VERTEX
  5
220DE
100
AcDbEntity
  8
0
100
AcDbVertex
100
AcDbPolygonMeshVertex
 10
0.054
 20
-2.089
 30
3.059
 70
    64
  0
VERTEX
  5
220DF
100
AcDbEntity
  8
0
100
AcDbVertex
100
AcDbPolygonMeshVertex
 10
0.054
 20
-2.203
 30
3.059
 70
    64
  0
SEQEND
  5
220E0
100
AcDbEntity
  8
0
  0
LINE
  5
220E1
100
AcDbEntity
  8
0
100
AcDbLine
 10
1.61365
 20
-2.089
 30
2.328
 11
1.55165
 21
-2.089
 31
2.3875
  0
POLYLINE
  5
220E2
100
AcDbEntity
  8
0
100
AcDbPolygonMesh
 66
     1
 10
0.0
 20
0.0
 30
0.0
 70
    16
 71
     6
 72
     3
  0
VERTEX
  5
220E3
100
AcDbEntity
  8
0
100
AcDbVertex
100
AcDbPolygonMeshVertex
 10
2.066
 20
-2.203
 30
3.059
 70
    64
  0
VERTEX
  5
220E4
100
AcDbEntity
  8
0
100
AcDbVertex
100
AcDbPolygonMeshVertex
 10
2.066
 20
-2.203
 30
1.641
 70
    64
  0
VERTEX
  5
220E5
100
AcDbEntity
  8
0
100
AcDbVertex
100
AcDbPolygonMeshVertex
 10
2.066
 20
-2.203
 30
1.641
 70
    64
  0
VERTEX
  5
220E6
100
AcDbEntity
  8
0
100
AcDbVertex
100
AcDbPolygonMeshVertex
 10
2.12
 20
-2.203
 30
3.059
 70
    64
  0
VERTEX
  5
220E7
100
AcDbEntity
  8
0
100
AcDbVertex
100
AcDbPolygonMeshVertex
 10
2.12
 20
-2.203
 30
1.641
 70
    64
  0
VERTEX
  5
220E8
100
AcDbEntity
  8
0
100
AcDbVertex
100
AcDbPolygonMeshVertex
 10
2.12
 20
-2.203
 30
1.641
 70
    64
  0
VERTEX
  5
220E9
100
AcDbEntity
  8
0
100
AcDbVertex
100
AcDbPolygonMeshVertex
 10
2.12
 20
-2.089
 30
3.059
 70
    64
  0
VERTEX
  5
220EA
100
AcDbEntity
  8
0
100
AcDbVertex
100
AcDbPolygonMeshVertex
 10
2.12
 20
-2.089
 30
1.641
 70
    64
  0
VERTEX
  5
220EB
100
AcDbEntity
  8
0
100
AcDbVertex
100
AcDbPolygonMeshVertex
 10
2.12
 20
-2.203
 30
1.641
 70
    64
  0
VERTEX
  5
220EC
100
AcDbEntity
  8
0
100
AcDbVertex
100
AcDbPolygonMeshVertex
 10
2.066
 20
-2.089
 30
3.059
 70
    64
  0
VERTEX
  5
220ED
100
AcDbEntity
  8
0
100
AcDbVertex
100
AcDbPolygonMeshVertex
 10
2.066
 20
-2.089
 30
1.641
 70
    64
  0
VERTEX
  5
220EE
100
AcDbEntity
  8
0
100
AcDbVertex
100
AcDbPolygonMeshVertex
 10
2.066
 20
-2.203
 30
1.641
 70
    64
  0
VERTEX
  5
220EF
100
AcDbEntity
  8
0
100
AcDbVertex
100
AcDbPolygonMeshVertex
 10
2.066
 20
-2.089
 30
3.059
 70
    64
  0
VERTEX
  5
220F0
100
AcDbEntity
  8
0
100
AcDbVertex
100
AcDbPolygonMeshVertex
 10
2.066
 20
-2.089
 30
3.059
 70
    64
  0
VERTEX
  5
220F1
100
AcDbEntity
  8
0
100
AcDbVertex
100
AcDbPolygonMeshVertex
 10
2.066
 20
-2.203
 30
3.059
 70
    64
  0
VERTEX
  5
220F2
100
AcDbEntity
  8
0
100
AcDbVertex
100
AcDbPolygonMeshVertex
 10
2.12
 20
-2.089
 30
3.059
 70
    64
  0
VERTEX
  5
220F3
100
AcDbEntity
  8
0
100
AcDbVertex
100
AcDbPolygonMeshVertex
 10
2.12
 20
-2.089
 30
3.059
 70
    64
  0
VERTEX
  5
220F4
100
AcDbEntity
  8
0
100
AcDbVertex
100
AcDbPolygonMeshVertex
 10
2.12
 20
-2.203
 30
3.059
 70
    64
  0
SEQEND
  5
220F5
100
AcDbEntity
  8
0
  0
LINE
  5
220F6
100
AcDbEntity
  8
0
100
AcDbLine
 10
1.94565
 20
-2.089
 30
2.368461
 11
1.94565
 21
-2.089
 31
3.059
  0
LINE
  5
220F7
100
AcDbEntity
  8
0
100
AcDbLine
 10
1.61365
 20
-2.089
 30
2.328
 11
1.88365
 21
-2.089
 31
2.328
  0
LINE
  5
220F8
100
AcDbEntity
  8
0
100
AcDbLine
 10
1.88365
 20
-2.089
 30
2.328
 11
1.94565
 21
-2.089
 31
2.368461
  0
LINE
  5
220F9
100
AcDbEntity
  8
0
100
AcDbLine
 10
1.88365
 20
-2.089
 30
2.622
 11
1.88365
 21
-2.089
 31
2.447
  0
LINE
  5
220FA
100
AcDbEntity
  8
0
100
AcDbLine
 10
1.94565
 20
-2.089
 30
2.447
 11
1.88365
 21
-2.089
 31
2.447
  0
LINE
  5
220FB
100
AcDbEntity
  8
0
100
AcDbLine
 10
0.647723
 20
-2.089
 30
0.0
 11
0.85839
 21
-2.089
 31
0.0
  0
POLYLINE
  5
220FC
100
AcDbEntity
  8
0
100
AcDb3dPolyline
 66
     1
 10
0.0
 20
0.0
 30
0.0
 70
     8
  0
VERTEX
  5
220FD
100
AcDbEntity
  8
0
100
AcDbVertex
100
AcDb3dPolylineVertex
 10
0.647723
 20
-2.089
 30
0.0
 70
    32
  0
VERTEX
  5
220FE
100
AcDbEntity
  8
0
100
AcDbVertex
100
AcDb3dPolylineVertex
 10
0.647723
 20
-2.224
 30
0.0
 70
    32
  0
VERTEX
  5
220FF
100
AcDbEntity
  8
0
100
AcDbVertex
100
AcDb3dPolylineVertex
 10
0.85839
 20
-2.224
 30
0.0
 70
    32
  0
VERTEX
  5
22100
100
AcDbEntity
  8
0
100
AcDbVertex
100
AcDb3dPolylineVertex
 10
0.85839
 20
-2.089
 30
0.0
 70
    32
  0
SEQEND
  5
22101
100
AcDbEntity
  8
0
  0
POLYLINE
  5
22102
100
AcDbEntity
  8
0
100
AcDb3dPolyline
 66
     1
 10
0.0
 20
0.0
 30
0.0
 70
     8
  0
VERTEX
  5
22103
100
AcDbEntity
  8
0
100
AcDbVertex
100
AcDb3dPolylineVertex
 10
0.647723
 20
-2.089
 30
0.187
 70
    32
  0
VERTEX
  5
22104
100
AcDbEntity
  8
0
100
AcDbVertex
100
AcDb3dPolylineVertex
 10
0.647723
 20
-2.224
 30
0.187
 70
    32
  0
VERTEX
  5
22105
100
AcDbEntity
  8
0
100
AcDbVertex
100
AcDb3dPolylineVertex
 10
0.85839
 20
-2.224
 30
0.187
 70
    32
  0
VERTEX
  5
22106
100
AcDbEntity
  8
0
100
AcDbVertex
100
AcDb3dPolylineVertex
 10
0.85839
 20
-2.089
 30
0.187
 70
    32
  0
SEQEND
  5
22107
100
AcDbEntity
  8
0
  0
POLYLINE
  5
22108
100
AcDbEntity
  8
0
100
AcDbPolygonMesh
 66
     1
 10
0.0
 20
0.0
 30
0.0
 70
    16
 71
     6
 72
     3
  0
VERTEX
  5
22109
100
AcDbEntity
  8
0
100
AcDbVertex
100
AcDbPolygonMeshVertex
 10
0.92039
 20
-2.286
 30
0.187
 70
    64
  0
VERTEX
  5
2210A
100
AcDbEntity
  8
0
100
AcDbVertex
100
AcDbPolygonMeshVertex
 10
0.92039
 20
-2.286
 30
0.0
 70
    64
  0
VERTEX
  5
2210B
100
AcDbEntity
  8
0
100
AcDbVertex
100
AcDbPolygonMeshVertex
 10
0.92039
 20
-2.286
 30
0.0
 70
    64
  0
VERTEX
  5
2210C
100
AcDbEntity
  8
0
100
AcDbVertex
100
AcDbPolygonMeshVertex
 10
0.313057
 20
-2.286
 30
0.187
 70
    64
  0
VERTEX
  5
2210D
100
AcDbEntity
  8
0
100
AcDbVertex
100
AcDbPolygonMeshVertex
 10
0.313057
 20
-2.286
 30
0.0
 70
    64
  0
VERTEX
  5
2210E
100
AcDbEntity
  8
0
100
AcDbVertex
100
AcDbPolygonMeshVertex
 10
0.313057
 20
-2.286
 30
0.0
 70
    64
  0
VERTEX
  5
2210F
100
AcDbEntity
  8
0
100
AcDbVertex
100
AcDbPolygonMeshVertex
 10
0.313057
 20
-2.224
 30
0.187
 70
    64
  0
VERTEX
  5
22110
100
AcDbEntity
  8
0
100
AcDbVertex
100
AcDbPolygonMeshVertex
 10
0.313057
 20
-2.224
 30
0.0
 70
    64
  0
VERTEX
  5
22111
100
AcDbEntity
  8
0
100
AcDbVertex
100
AcDbPolygonMeshVertex
 10
0.313057
 20
-2.286
 30
0.0
 70
    64
  0
VERTEX
  5
22112
100
AcDbEntity
  8
0
100
AcDbVertex
100
AcDbPolygonMeshVertex
 10
0.92039
 20
-2.224
 30
0.187
 70
    64
  0
VERTEX
  5
22113
100
AcDbEntity
  8
0
100
AcDbVertex
100
AcDbPolygonMeshVertex
 10
0.92039
 20
-2.224
 30
0.0
 70
    64
  0
VERTEX
  5
22114
100
AcDbEntity
  8
0
100
AcDbVertex
100
AcDbPolygonMeshVertex
 10
0.92039
 20
-2.286
 30
0.0
 70
    64
  0
VERTEX
  5
22115
100
AcDbEntity
  8
0
100
AcDbVertex
100
AcDbPolygonMeshVertex
 10
0.92039
 20
-2.224
 30
0.187
 70
    64
  0
VERTEX
  5
22116
100
AcDbEntity
  8
0
100
AcDbVertex
100
AcDbPolygonMeshVertex
 10
0.92039
 20
-2.224
 30
0.187
 70
    64
  0
VERTEX
  5
22117
100
AcDbEntity
  8
0
100
AcDbVertex
100
AcDbPolygonMeshVertex
 10
0.92039
 20
-2.286
 30
0.187
 70
    64
  0
VERTEX
  5
22118
100
AcDbEntity
  8
0
100
AcDbVertex
100
AcDbPolygonMeshVertex
 10
0.313057
 20
-2.224
 30
0.187
 70
    64
  0
VERTEX
  5
22119
100
AcDbEntity
  8
0
100
AcDbVertex
100
AcDbPolygonMeshVertex
 10
0.313057
 20
-2.224
 30
0.187
 70
    64
  0
VERTEX
  5
2211A
100
AcDbEntity
  8
0
100
AcDbVertex
100
AcDbPolygonMeshVertex
 10
0.313057
 20
-2.286
 30
0.187
 70
    64
  0
SEQEND
  5
2211B
100
AcDbEntity
  8
0
  0
LINE
  5
2211C
100
AcDbEntity
  8
0
100
AcDbLine
 10
0.196277
 20
-1.954
 30
0.187
 11
0.196277
 21
-1.954
 31
0.187
  0
POLYLINE
  5
2211D
100
AcDbEntity
  8
0
100
AcDbPolygonMesh
 66
     1
 10
0.0
 20
0.0
 30
0.0
 70
    16
 71
     6
 72
     3
  0
VERTEX
  5
2211E
100
AcDbEntity
  8
0
100
AcDbVertex
100
AcDbPolygonMeshVertex
 10
0.92039
 20
-2.224
 30
0.187
 70
    64
  0
VERTEX
  5
2211F
100
AcDbEntity
  8
0
100
AcDbVertex
100
AcDbPolygonMeshVertex
 10
0.92039
 20
-2.224
 30
0.0
 70
    64
  0
VERTEX
  5
22120
100
AcDbEntity
  8
0
100
AcDbVertex
100
AcDbPolygonMeshVertex
 10
0.92039
 20
-2.224
 30
0.0
 70
    64
  0
VERTEX
  5
22121
100
AcDbEntity
  8
0
100
AcDbVertex
100
AcDbPolygonMeshVertex
 10
0.585723
 20
-2.224
 30
0.187
 70
    64
  0
VERTEX
  5
22122
100
AcDbEntity
  8
0
100
AcDbVertex
100
AcDbPolygonMeshVertex
 10
0.585723
 20
-2.224
 30
0.0
 70
    64
  0
VERTEX
  5
22123
100
AcDbEntity
  8
0
100
AcDbVertex
100
AcDbPolygonMeshVertex
 10
0.585723
 20
-2.224
 30
0.0
 70
    64
  0
VERTEX
  5
22124
100
AcDbEntity
  8
0
100
AcDbVertex
100
AcDbPolygonMeshVertex
 10
0.585723
 20
-2.027
 30
0.187
 70
    64
  0
VERTEX
  5
22125
100
AcDbEntity
  8
0
100
AcDbVertex
100
AcDbPolygonMeshVertex
 10
0.585723
 20
-2.027
 30
0.0
 70
    64
  0
VERTEX
  5
22126
100
AcDbEntity
  8
0
100
AcDbVertex
100
AcDbPolygonMeshVertex
 10
0.585723
 20
-2.224
 30
0.0
 70
    64
  0
VERTEX
  5
22127
100
AcDbEntity
  8
0
100
AcDbVertex
100
AcDbPolygonMeshVertex
 10
0.92039
 20
-2.027
 30
0.187
 70
    64
  0
VERTEX
  5
22128
100
AcDbEntity
  8
0
100
AcDbVertex
100
AcDbPolygonMeshVertex
 10
0.92039
 20
-2.027
 30
0.0
 70
    64
  0
VERTEX
  5
22129
100
AcDbEntity
  8
0
100
AcDbVertex
100
AcDbPolygonMeshVertex
 10
0.92039
 20
-2.224
 30
0.0
 70
    64
  0
VERTEX
  5
2212A
100
AcDbEntity
  8
0
100
AcDbVertex
100
AcDbPolygonMeshVertex
 10
0.92039
 20
-2.027
 30
0.187
 70
    64
  0
VERTEX
  5
2212B
100
AcDbEntity
  8
0
100
AcDbVertex
100
AcDbPolygonMeshVertex
 10
0.92039
 20
-2.027
 30
0.187
 70
    64
  0
VERTEX
  5
2212C
100
AcDbEntity
  8
0
100
AcDbVertex
100
AcDbPolygonMeshVertex
 10
0.92039
 20
-2.224
 30
0.187
 70
    64
  0
VERTEX
  5
2212D
100
AcDbEntity
  8
0
100
AcDbVertex
100
AcDbPolygonMeshVertex
 10
0.585723
 20
-2.027
 30
0.187
 70
    64
  0
VERTEX
  5
2212E
100
AcDbEntity
  8
0
100
AcDbVertex
100
AcDbPolygonMeshVertex
 10
0.585723
 20
-2.027
 30
0.187
 70
    64
  0
VERTEX
  5
2212F
100
AcDbEntity
  8
0
100
AcDbVertex
100
AcDbPolygonMeshVertex
 10
0.585723
 20
-2.224
 30
0.187
 70
    64
  0
SEQEND
  5
22130
100
AcDbEntity
  8
0
  0
LINE
  5
22131
100
AcDbEntity
  8
0
100
AcDbLine
 10
0.647723
 20
-2.089
 30
0.187
 11
0.85839
 21
-2.089
 31
0.187
  0
CIRCLE
  5
22132
100
AcDbEntity
  8
0
100
AcDbCircle
 10
1.06005
 20
0.180798
 30
3.86
 40
0.138
  0
CIRCLE
  5
22133
100
AcDbEntity
  8
0
100
AcDbCircle
 10
1.74865
 20
0.180798
 30
3.86
 40
0.138
  0
CIRCLE
  5
22134
100
AcDbEntity
  8
0
100
AcDbCircle
 10
0.37135
 20
-1.868798
 30
3.86
 40
0.138
  0
TEXT
  5
22135
100
AcDbEntity
  8
0
100
AcDbText
 39
0.0
 10
0.533641
 20
-2.430654
 30
2.062
 40
0.083465
  1
A1
 50
180.0
 71
     2
100
AcDbText
  0
TEXT
  5
22136
100
AcDbEntity
  8
0
100
AcDbText
 39
0.0
 10
1.454764
 20
-2.429812
 30
2.062
 40
0.083465
  1
A2
 50
180.0
 71
     2
100
AcDbText
  0
POLYLINE
  5
22137
100
AcDbEntity
  8
0
100
AcDb3dPolyline
 66
     1
 10
0.0
 20
0.0
 30
0.0
 70
     8
  0
VERTEX
  5
22138
100
AcDbEntity
  8
0
100
AcDbVertex
100
AcDb3dPolylineVertex
 10
0.0
 20
-0.761
 30
1.592
 70
    32
  0
VERTEX
  5
22139
100
AcDbEntity
  8
0
100
AcDbVertex
100
AcDb3dPolylineVertex
 10
0.0
 20
-0.761
 30
2.165
 70
    32
  0
VERTEX
  5
2213A
100
AcDbEntity
  8
0
100
AcDbVertex
100
AcDb3dPolylineVertex
 10
0.0
 20
-0.927
 30
2.165
 70
    32
  0
VERTEX
  5
2213B
100
AcDbEntity
  8
0
100
AcDbVertex
100
AcDb3dPolylineVertex
 10
0.0
 20
-0.927
 30
1.592
 70
    32
  0
VERTEX
  5
2213C
100
AcDbEntity
  8
0
100
AcDbVertex
100
AcDb3dPolylineVertex
 10
0.0
 20
-0.761
 30
1.592
 70
    32
  0
SEQEND
  5
2213D
100
AcDbEntity
  8
0
  0
LINE
  5
2213E
100
AcDbEntity
  8
0
100
AcDbLine
 10
0.0
 20
-0.927
 30
1.8785
 11
0.0
 21
-0.761
 31
1.8785
  0
LINE
  5
2213F
100
AcDbEntity
  8
0
100
AcDbLine
 10
0.0
 20
-0.927
 30
2.0685
 11
0.0
 21
-0.761
 31
2.0685
  0
POLYLINE
  5
22140
100
AcDbEntity
  8
0
100
AcDb3dPolyline
 66
     1
 10
0.0
 20
0.0
 30
0.0
 70
     8
  0
VERTEX
  5
22141
100
AcDbEntity
  8
0
100
AcDbVertex
100
AcDb3dPolylineVertex
 10
2.12
 20
-0.761
 30
1.592
 70
    32
  0
VERTEX
  5
22142
100
AcDbEntity
  8
0
100
AcDbVertex
100
AcDb3dPolylineVertex
 10
2.12
 20
-0.761
 30
2.165
 70
    32
  0
VERTEX
  5
22143
100
AcDbEntity
  8
0
100
AcDbVertex
100
AcDb3dPolylineVertex
 10
2.12
 20
-0.927
 30
2.165
 70
    32
  0
VERTEX
  5
22144
100
AcDbEntity
  8
0
100
AcDbVertex
100
AcDb3dPolylineVertex
 10
2.12
 20
-0.927
 30
1.592
 70
    32
  0
VERTEX
  5
22145
100
AcDbEntity
  8
0
100
AcDbVertex
100
AcDb3dPolylineVertex
 10
2.12
 20
-0.761
 30
1.592
 70
    32
  0
SEQEND
  5
22146
100
AcDbEntity
  8
0
  0
LINE
  5
22147
100
AcDbEntity
  8
0
100
AcDbLine
 10
2.12
 20
-0.927
 30
1.8785
 11
2.12
 21
-0.761
 31
1.8785
  0
LINE
  5
22148
100
AcDbEntity
  8
0
100
AcDbLine
 10
2.12
 20
-0.927
 30
2.0685
 11
2.12
 21
-0.761
 31
2.0685
  0
POLYLINE
  5
22149
100
AcDbEntity
  8
0
100
AcDbPolygonMesh
 66
     1
 10
0.0
 20
0.0
 30
0.0
 70
    16
 71
     6
 72
     3
  0
VERTEX
  5
2214A
100
AcDbEntity
  8
0
100
AcDbVertex
100
AcDbPolygonMeshVertex
 10
0.391
 20
-2.172
 30
0.316
 70
    64
  0
VERTEX
  5
2214B
100
AcDbEntity
  8
0
100
AcDbVertex
100
AcDbPolygonMeshVertex
 10
0.391
 20
-2.172
 30
0.0
 70
    64
  0
VERTEX
  5
2214C
100
AcDbEntity
  8
0
100
AcDbVertex
100
AcDbPolygonMeshVertex
 10
0.391
 20
-2.172
 30
0.0
 70
    64
  0
VERTEX
  5
2214D
100
AcDbEntity
  8
0
100
AcDbVertex
100
AcDbPolygonMeshVertex
 10
0.0
 20
-2.172
 30
0.316
 70
    64
  0
VERTEX
  5
2214E
100
AcDbEntity
  8
0
100
AcDbVertex
100
AcDbPolygonMeshVertex
 10
0.0
 20
-2.172
 30
0.0
 70
    64
  0
VERTEX
  5
2214F
100
AcDbEntity
  8
0
100
AcDbVertex
100
AcDbPolygonMeshVertex
 10
0.0
 20
-2.172
 30
0.0
 70
    64
  0
VERTEX
  5
22150
100
AcDbEntity
  8
0
100
AcDbVertex
100
AcDbPolygonMeshVertex
 10
0.0
 20
-1.806
 30
0.316
 70
    64
  0
VERTEX
  5
22151
100
AcDbEntity
  8
0
100
AcDbVertex
100
AcDbPolygonMeshVertex
 10
0.0
 20
-1.806
 30
0.0
 70
    64
  0
VERTEX
  5
22152
100
AcDbEntity
  8
0
100
AcDbVertex
100
AcDbPolygonMeshVertex
 10
0.0
 20
-2.172
 30
0.0
 70
    64
  0
VERTEX
  5
22153
100
AcDbEntity
  8
0
100
AcDbVertex
100
AcDbPolygonMeshVertex
 10
0.391
 20
-1.806
 30
0.316
 70
    64
  0
VERTEX
  5
22154
100
AcDbEntity
  8
0
100
AcDbVertex
100
AcDbPolygonMeshVertex
 10
0.391
 20
-1.806
 30
0.0
 70
    64
  0
VERTEX
  5
22155
100
AcDbEntity
  8
0
100
AcDbVertex
100
AcDbPolygonMeshVertex
 10
0.391
 20
-2.172
 30
0.0
 70
    64
  0
VERTEX
  5
22156
100
AcDbEntity
  8
0
100
AcDbVertex
100
AcDbPolygonMeshVertex
 10
0.391
 20
-1.806
 30
0.316
 70
    64
  0
VERTEX
  5
22157
100
AcDbEntity
  8
0
100
AcDbVertex
100
AcDbPolygonMeshVertex
 10
0.391
 20
-1.806
 30
0.316
 70
    64
  0
VERTEX
  5
22158
100
AcDbEntity
  8
0
100
AcDbVertex
100
AcDbPolygonMeshVertex
 10
0.391
 20
-2.172
 30
0.316
 70
    64
  0
VERTEX
  5
22159
100
AcDbEntity
  8
0
100
AcDbVertex
100
AcDbPolygonMeshVertex
 10
0.0
 20
-1.806
 30
0.316
 70
    64
  0
VERTEX
  5
2215A
100
AcDbEntity
  8
0
100
AcDbVertex
100
AcDbPolygonMeshVertex
 10
0.0
 20
-1.806
 30
0.316
 70
    64
  0
VERTEX
  5
2215B
100
AcDbEntity
  8
0
100
AcDbVertex
100
AcDbPolygonMeshVertex
 10
0.0
 20
-2.172
 30
0.316
 70
    64
  0
SEQEND
  5
2215C
100
AcDbEntity
  8
0
  0
POLYLINE
  5
2215D
100
AcDbEntity
  8
0
100
AcDbPolygonMesh
 66
     1
 10
0.0
 20
0.0
 30
0.0
 70
    16
 71
     6
 72
     3
  0
VERTEX
  5
2215E
100
AcDbEntity
  8
0
100
AcDbVertex
100
AcDbPolygonMeshVertex
 10
2.12
 20
0.118
 30
0.316
 70
    64
  0
VERTEX
  5
2215F
100
AcDbEntity
  8
0
100
AcDbVertex
100
AcDbPolygonMeshVertex
 10
2.12
 20
0.118
 30
0.0
 70
    64
  0
VERTEX
  5
22160
100
AcDbEntity
  8
0
100
AcDbVertex
100
AcDbPolygonMeshVertex
 10
2.12
 20
0.118
 30
0.0
 70
    64
  0
VERTEX
  5
22161
100
AcDbEntity
  8
0
100
AcDbVertex
100
AcDbPolygonMeshVertex
 10
1.729
 20
0.118
 30
0.316
 70
    64
  0
VERTEX
  5
22162
100
AcDbEntity
  8
0
100
AcDbVertex
100
AcDbPolygonMeshVertex
 10
1.729
 20
0.118
 30
0.0
 70
    64
  0
VERTEX
  5
22163
100
AcDbEntity
  8
0
100
AcDbVertex
100
AcDbPolygonMeshVertex
 10
1.729
 20
0.118
 30
0.0
 70
    64
  0
VERTEX
  5
22164
100
AcDbEntity
  8
0
100
AcDbVertex
100
AcDbPolygonMeshVertex
 10
1.729
 20
0.484
 30
0.316
 70
    64
  0
VERTEX
  5
22165
100
AcDbEntity
  8
0
100
AcDbVertex
100
AcDbPolygonMeshVertex
 10
1.729
 20
0.484
 30
0.0
 70
    64
  0
VERTEX
  5
22166
100
AcDbEntity
  8
0
100
AcDbVertex
100
AcDbPolygonMeshVertex
 10
1.729
 20
0.118
 30
0.0
 70
    64
  0
VERTEX
  5
22167
100
AcDbEntity
  8
0
100
AcDbVertex
100
AcDbPolygonMeshVertex
 10
2.12
 20
0.484
 30
0.316
 70
    64
  0
VERTEX
  5
22168
100
AcDbEntity
  8
0
100
AcDbVertex
100
AcDbPolygonMeshVertex
 10
2.12
 20
0.484
 30
0.0
 70
    64
  0
VERTEX
  5
22169
100
AcDbEntity
  8
0
100
AcDbVertex
100
AcDbPolygonMeshVertex
 10
2.12
 20
0.118
 30
0.0
 70
    64
  0
VERTEX
  5
2216A
100
AcDbEntity
  8
0
100
AcDbVertex
100
AcDbPolygonMeshVertex
 10
2.12
 20
0.484
 30
0.316
 70
    64
  0
VERTEX
  5
2216B
100
AcDbEntity
  8
0
100
AcDbVertex
100
AcDbPolygonMeshVertex
 10
2.12
 20
0.484
 30
0.316
 70
    64
  0
VERTEX
  5
2216C
100
AcDbEntity
  8
0
100
AcDbVertex
100
AcDbPolygonMeshVertex
 10
2.12
 20
0.118
 30
0.316
 70
    64
  0
VERTEX
  5
2216D
100
AcDbEntity
  8
0
100
AcDbVertex
100
AcDbPolygonMeshVertex
 10
1.729
 20
0.484
 30
0.316
 70
    64
  0
VERTEX
  5
2216E
100
AcDbEntity
  8
0
100
AcDbVertex
100
AcDbPolygonMeshVertex
 10
1.729
 20
0.484
 30
0.316
 70
    64
  0
VERTEX
  5
2216F
100
AcDbEntity
  8
0
100
AcDbVertex
100
AcDbPolygonMeshVertex
 10
1.729
 20
0.118
 30
0.316
 70
    64
  0
SEQEND
  5
22170
100
AcDbEntity
  8
0
  0
POLYLINE
  5
22171
100
AcDbEntity
  8
0
100
AcDbPolygonMesh
 66
     1
 10
0.0
 20
0.0
 30
0.0
 70
    16
 71
     6
 72
     3
  0
VERTEX
  5
22172
100
AcDbEntity
  8
0
100
AcDbVertex
100
AcDbPolygonMeshVertex
 10
2.12
 20
-2.089
 30
3.86
 70
    64
  0
VERTEX
  5
22173
100
AcDbEntity
  8
0
100
AcDbVertex
100
AcDbPolygonMeshVertex
 10
2.12
 20
-2.089
 30
1.318
 70
    64
  0
VERTEX
  5
22174
100
AcDbEntity
  8
0
100
AcDbVertex
100
AcDbPolygonMeshVertex
 10
2.12
 20
-2.089
 30
1.318
 70
    64
  0
VERTEX
  5
22175
100
AcDbEntity
  8
0
100
AcDbVertex
100
AcDbPolygonMeshVertex
 10
0.0
 20
-2.089
 30
3.86
 70
    64
  0
VERTEX
  5
22176
100
AcDbEntity
  8
0
100
AcDbVertex
100
AcDbPolygonMeshVertex
 10
0.0
 20
-2.089
 30
1.318
 70
    64
  0
VERTEX
  5
22177
100
AcDbEntity
  8
0
100
AcDbVertex
100
AcDbPolygonMeshVertex
 10
0.0
 20
-2.089
 30
1.318
 70
    64
  0
VERTEX
  5
22178
100
AcDbEntity
  8
0
100
AcDbVertex
100
AcDbPolygonMeshVertex
 10
0.0
 20
0.401
 30
3.86
 70
    64
  0
VERTEX
  5
22179
100
AcDbEntity
  8
0
100
AcDbVertex
100
AcDbPolygonMeshVertex
 10
0.0
 20
0.401
 30
1.318
 70
    64
  0
VERTEX
  5
2217A
100
AcDbEntity
  8
0
100
AcDbVertex
100
AcDbPolygonMeshVertex
 10
0.0
 20
-2.089
 30
1.318
 70
    64
  0
VERTEX
  5
2217B
100
AcDbEntity
  8
0
100
AcDbVertex
100
AcDbPolygonMeshVertex
 10
2.12
 20
0.401
 30
3.86
 70
    64
  0
VERTEX
  5
2217C
100
AcDbEntity
  8
0
100
AcDbVertex
100
AcDbPolygonMeshVertex
 10
2.12
 20
0.401
 30
1.318
 70
    64
  0
VERTEX
  5
2217D
100
AcDbEntity
  8
0
100
AcDbVertex
100
AcDbPolygonMeshVertex
 10
2.12
 20
-2.089
 30
1.318
 70
    64
  0
VERTEX
  5
2217E
100
AcDbEntity
  8
0
100
AcDbVertex
100
AcDbPolygonMeshVertex
 10
2.12
 20
0.401
 30
3.86
 70
    64
  0
VERTEX
  5
2217F
100
AcDbEntity
  8
0
100
AcDbVertex
100
AcDbPolygonMeshVertex
 10
2.12
 20
0.401
 30
3.86
 70
    64
  0
VERTEX
  5
22180
100
AcDbEntity
  8
0
100
AcDbVertex
100
AcDbPolygonMeshVertex
 10
2.12
 20
-2.089
 30
3.86
 70
    64
  0
VERTEX
  5
22181
100
AcDbEntity
  8
0
100
AcDbVertex
100
AcDbPolygonMeshVertex
 10
0.0
 20
0.401
 30
3.86
 70
    64
  0
VERTEX
  5
22182
100
AcDbEntity
  8
0
100
AcDbVertex
100
AcDbPolygonMeshVertex
 10
0.0
 20
0.401
 30
3.86
 70
    64
  0
VERTEX
  5
22183
100
AcDbEntity
  8
0
100
AcDbVertex
100
AcDbPolygonMeshVertex
 10
0.0
 20
-2.089
 30
3.86
 70
    64
  0
SEQEND
  5
22184
100
AcDbEntity
  8
0
  0
3DFACE
  5
22185
100
AcDbEntity
  8
0
100
AcDbFace
 10
2.12
 20
-2.089
 30
1.318
 11
2.12
 21
-2.089
 31
1.318
 12
0.0
 22
-2.089
 32
1.318
 13
0.0
 23
-2.089
 33
1.318
  0
3DFACE
  5
22186
100
AcDbEntity
  8
0
100
AcDbFace
 10
0.0
 20
-2.089
 30
1.318
 11
0.0
 21
-2.089
 31
1.318
 12
0.0
 22
-2.089
 32
1.318
 13
0.0
 23
0.401
 33
1.318
  0
3DFACE
  5
22187
100
AcDbEntity
  8
0
100
AcDbFace
 10
0.0
 20
0.401
 30
1.318
 11
0.0
 21
-2.089
 31
1.318
 12
2.12
 22
-2.089
 32
1.318
 13
2.12
 23
0.401
 33
1.318
  0
3DFACE
  5
22188
100
AcDbEntity
  8
0
100
AcDbFace
 10
2.12
 20
0.401
 30
3.86
 11
2.12
 21
0.401
 31
3.86
 12
0.0
 22
0.401
 32
3.86
 13
0.0
 23
0.401
 33
3.86
  0
3DFACE
  5
22189
100
AcDbEntity
  8
0
100
AcDbFace
 10
2.12
 20
0.401
 30
3.86
 11
2.12
 21
-2.089
 31
3.86
 12
0.0
 22
-2.089
 32
3.86
 13
0.0
 23
0.401
 33
3.86
  0
POINT
  5
2218A
100
AcDbEntity
  8
SNAP_POINTS
100
AcDbPoint
 10
0.0
 20
0.0
 30
0.0
  0
POINT
  5
2218B
100
AcDbEntity
  8
SNAP_POINTS
100
AcDbPoint
 10
0.0
 20
-0.894
 30
2.0685
  0
POINT
  5
2218C
100
AcDbEntity
  8
SNAP_POINTS
100
AcDbPoint
 10
2.12
 20
-0.794
 30
2.0685
  0
POINT
  5
2218D
100
AcDbEntity
  8
SNAP_POINTS
100
AcDbPoint
 10
1.06
 20
-0.85
 30
3.894
  0
POINT
  5
2218E
100
AcDbEntity
  8
SNAP_POINTS
100
AcDbPoint
 10
1.2405
 20
-2.526
 30
1.641
  0
POINT
  5
2218F
100
AcDbEntity
  8
DIMS-MTG-HOLES
100
AcDbPoint
 10
0.173
 20
-2.025
 30
0.0
  0
POINT
  5
22190
100
AcDbEntity
  8
DIMS-MTG-HOLES
100
AcDbPoint
 10
1.945
 20
0.337
 30
0.0
  0
LWPOLYLINE
  5
22191
100
AcDbEntity
  8
0
100
AcDbPolyline
 90
        6
 70
     0
 43
0.0
 38
3.86
 10
1.72865
 20
0.317341
 10
1.72865
 20
0.200798
 10
1.66865
 20
0.200798
 10
1.66865
 20
0.160798
 10
1.72865
 20
0.160798
 10
1.72865
 20
0.044255
  0
LWPOLYLINE
  5
22192
100
AcDbEntity
  8
0
100
AcDbPolyline
 90
        6
 70
     0
 43
0.0
 38
3.86
 10
1.76865
 20
0.317341
 10
1.76865
 20
0.200798
 10
1.82865
 20
0.200798
 10
1.82865
 20
0.160798
 10
1.76865
 20
0.160798
 10
1.76865
 20
0.044255
  0
LWPOLYLINE
  5
22193
100
AcDbEntity
  8
0
100
AcDbPolyline
 90
        6
 70
     0
 43
0.0
 38
3.86
 10
1.08005
 20
0.317341
 10
1.08005
 20
0.200798
 10
1.14005
 20
0.200798
 10
1.14005
 20
0.160798
 10
1.08005
 20
0.160798
 10
1.08005
 20
0.044255
  0
LWPOLYLINE
  5
22194
100
AcDbEntity
  8
0
100
AcDbPolyline
 90
        6
 70
     0
 43
0.0
 38
3.86
 10
1.04005
 20
0.317341
 10
1.04005
 20
0.200798
 10
0.98005
 20
0.200798
 10
0.98005
 20
0.160798
 10
1.04005
 20
0.160798
 10
1.04005
 20
0.044255
  0
LWPOLYLINE
  5
22195
100
AcDbEntity
  8
0
100
AcDbPolyline
 90
        6
 70
     0
 43
0.0
 38
3.86
 10
0.39135
 20
0.317341
 10
0.39135
 20
0.200798
 10
0.45135
 20
0.200798
 10
0.45135
 20
0.160798
 10
0.39135
 20
0.160798
 10
0.39135
 20
0.044255
  0
LWPOLYLINE
  5
22196
100
AcDbEntity
  8
0
100
AcDbPolyline
 90
        6
 70
     0
 43
0.0
 38
3.86
 10
0.35135
 20
0.317341
 10
0.35135
 20
0.200798
 10
0.29135
 20
0.200798
 10
0.29135
 20
0.160798
 10
0.35135
 20
0.160798
 10
0.35135
 20
0.044255
  0
LWPOLYLINE
  5
22197
100
AcDbEntity
  8
0
100
AcDbPolyline
 90
        6
 70
     0
 43
0.0
 38
3.86
 10
1.04005
 20
-1.732255
 10
1.04005
 20
-1.848798
 10
0.98005
 20
-1.848798
 10
0.98005
 20
-1.888798
 10
1.04005
 20
-1.888798
 10
1.04005
 20
-2.005341
  0
CIRCLE
  5
22198
100
AcDbEntity
  8
0
100
AcDbCircle
 10
1.06005
 20
-1.868798
 30
3.86
 40
0.138
  0
LWPOLYLINE
  5
22199
100
AcDbEntity
  8
0
100
AcDbPolyline
 90
        6
 70
     0
 43
0.0
 38
3.86
 10
1.08005
 20
-1.732255
 10
1.08005
 20
-1.848798
 10
1.14005
 20
-1.848798
 10
1.14005
 20
-1.888798
 10
1.08005
 20
-1.888798
 10
1.08005
 20
-2.005341
  0
LWPOLYLINE
  5
2219A
100
AcDbEntity
  8
0
100
AcDbPolyline
 90
        6
 70
     0
 43
0.0
 38
3.86
 10
1.72865
 20
-1.732255
 10
1.72865
 20
-1.848798
 10
1.66865
 20
-1.848798
 10
1.66865
 20
-1.888798
 10
1.72865
 20
-1.888798
 10
1.72865
 20
-2.005341
  0
CIRCLE
  5
2219B
100
AcDbEntity
  8
0
100
AcDbCircle
 10
1.74865
 20
-1.868798
 30
3.86
 40
0.138
  0
LWPOLYLINE
  5
2219C
100
AcDbEntity
  8
0
100
AcDbPolyline
 90
        6
 70
     0
 43
0.0
 38
3.86
 10
1.76865
 20
-1.732255
 10
1.76865
 20
-1.848798
 10
1.82865
 20
-1.848798
 10
1.82865
 20
-1.888798
 10
1.76865
 20
-1.888798
 10
1.76865
 20
-2.005341
  0
LWPOLYLINE
  5
2219D
100
AcDbEntity
  8
0
100
AcDbPolyline
 90
        6
 70
     0
 43
0.0
 38
3.86
 10
0.39135
 20
-1.732255
 10
0.39135
 20
-1.848798
 10
0.45135
 20
-1.848798
 10
0.45135
 20
-1.888798
 10
0.39135
 20
-1.888798
 10
0.39135
 20
-2.005341
  0
LWPOLYLINE
  5
2219E
100
AcDbEntity
  8
0
100
AcDbPolyline
 90
        6
 70
     0
 43
0.0
 38
3.86
 10
0.35135
 20
-1.732255
 10
0.35135
 20
-1.848798
 10
0.29135
 20
-1.848798
 10
0.29135
 20
-1.888798
 10
0.35135
 20
-1.888798
 10
0.35135
 20
-2.005341
  0
LWPOLYLINE
  5
2219F
100
AcDbEntity
  8
0
100
AcDbPolyline
 90
        6
 70
     0
 43
0.0
 38
2.062
 10
0.741
 20
-2.189178
 10
0.741
 20
-2.2875
 10
0.801
 20
-2.2875
 10
0.801
 20
-2.3275
 10
0.741
 20
-2.3275
 10
0.741
 20
-2.425822
  0
LWPOLYLINE
  5
221A0
100
AcDbEntity
  8
0
100
AcDbPolyline
 90
        6
 70
     0
 43
0.0
 38
2.062
 10
0.701
 20
-2.189178
 10
0.701
 20
-2.2875
 10
0.641
 20
-2.2875
 10
0.641
 20
-2.3275
 10
0.701
 20
-2.3275
 10
0.701
 20
-2.425822
  0
LWPOLYLINE
  5
221A1
100
AcDbEntity
  8
0
100
AcDbPolyline
 90
        6
 70
     0
 43
0.0
 38
2.062
 10
1.419
 20
-2.189178
 10
1.419
 20
-2.2875
 10
1.479
 20
-2.2875
 10
1.479
 20
-2.3275
 10
1.419
 20
-2.3275
 10
1.419
 20
-2.425822
  0
LWPOLYLINE
  5
221A2
100
AcDbEntity
  8
0
100
AcDbPolyline
 90
        6
 70
     0
 43
0.0
 38
2.062
 10
1.379
 20
-2.189178
 10
1.379
 20
-2.2875
 10
1.319
 20
-2.2875
 10
1.319
 20
-2.3275
 10
1.379
 20
-2.3275
 10
1.379
 20
-2.425822
  0
DIMENSION
  5
221A3
100
AcDbEntity
  8
AREA1
100
AcDbDimension
  2
*D0
 10
-0.442686
 20
-2.526
 30
0.0
 11
-0.442686
 21
-0.969928
 31
0.0
 70
   160
  3
ABECAD_3D
100
AcDbAlignedDimension
 13
0.8745
 23
0.654
 33
1.388
 14
0.5075
 24
-2.526
 34
1.388
 50
90.0
100
AcDbRotatedDimension
  0
DIMENSION
  5
221A4
100
AcDbEntity
  8
AREA1
100
AcDbDimension
  2
*D1
 10
2.12
 20
0.986603
 30
0.0
 11
1.104783
 21
0.986603
 31
0.0
 70
   160
  3
ABECAD_3D
100
AcDbAlignedDimension
 13
0.0
 23
0.515
 33
1.641
 14
2.12
 24
0.515
 34
1.641
100
AcDbRotatedDimension
  0
LWPOLYLINE
  5
221A5
100
AcDbEntity
  8
SCALE
100
AcDbPolyline
 90
        4
 70
     1
 43
0.0
 10
0.4832
 20
-2.679997
 10
1.618828
 20
-2.679997
 10
1.618828
 20
-3.521606
 10
0.4832
 20
-3.521606
  0
LINE
  5
221A6
100
AcDbEntity
  8
SCALE
100
AcDbLine
 10
0.541198
 20
-3.060075
 30
0.0
 11
1.541198
 21
-3.060075
 31
0.0
  0
LINE
  5
221A7
100
AcDbEntity
  8
SCALE
100
AcDbLine
 10
0.541198
 20
-3.360075
 30
0.0
 11
0.934898
 21
-3.360075
 31
0.0
  0
LINE
  5
221A8
100
AcDbEntity
  8
SCALE
100
AcDbLine
 10
0.541198
 20
-3.160075
 30
0.0
 11
0.541198
 21
-2.960075
 31
0.0
  0
TEXT
  5
221A9
100
AcDbEntity
  8
SCALE
100
AcDbText
 10
0.597174
 20
-3.31239
 30
0.0
 40
0.0625
  1
[10mm]
100
AcDbText
  0
LINE
  5
221AA
100
AcDbEntity
  8
SCALE
100
AcDbLine
 10
0.541198
 20
-3.460075
 30
0.0
 11
0.541198
 21
-3.260075
 31
0.0
  0
TEXT
  5
221AB
100
AcDbEntity
  8
SCALE
100
AcDbText
 10
0.542729
 20
-2.785198
 30
0.0
 40
0.0625
  1
SCALE:
100
AcDbText
  0
LINE
  5
221AC
100
AcDbEntity
  8
SCALE
100
AcDbLine
 10
0.934898
 20
-3.460075
 30
0.0
 11
0.934898
 21
-3.260075
 31
0.0
  0
TEXT
  5
221AD
100
AcDbEntity
  8
SCALE
100
AcDbText
 10
0.904481
 20
-2.991026
 30
0.0
 40
0.0625
  1
1 Inch
100
AcDbText
  0
LINE
  5
221AE
100
AcDbEntity
  8
SCALE
100
AcDbLine
 10
1.541198
 20
-3.060075
 30
0.0
 11
1.541198
 21
-3.160075
 31
0.0
  0
LINE
  5
221AF
100
AcDbEntity
  8
SCALE
100
AcDbLine
 10
1.541198
 20
-3.160075
 30
0.0
 11
1.541198
 21
-2.960075
 31
0.0
  0
DIMENSION
  5
221DE
100
AcDbEntity
  8
AREA2
100
AcDbDimension
  2
*D2
 10
-0.687166
 20
0.0
 30
0.0
 11
-0.687166
 21
1.9717
 31
0.0
 70
   160
210
0.0
220
-1.0
230
0.0
  3
ABECAD_3V
100
AcDbAlignedDimension
 13
0.8225
 23
-0.6775
 33
4.11
 14
0.0
 24
-1.806
 34
0.0
 50
90.0
100
AcDbRotatedDimension
1001
ACAD
1000
DSTYLE
1002
{
1070
    40
1040
1.201562
1002
}
  0
VIEWPORT
  5
2C
102
{ACAD_XDICTIONARY
360
222FB
102
}
100
AcDbEntity
 67
     1
  8
0
100
AcDbViewport
 10
4.999849
 20
3.750155
 30
0.0
 40
13.643068
 41
7.591459
 68
     1
 69
     1
1001
ACAD
1000
MVIEW
1002
{
1070
    16
1010
0.0
1020
0.0
1030
0.0
1010
0.0
1020
0.0
1030
1.0
1040
0.0
1040
7.591459
1040
4.999849
1040
3.750155
1040
50.0
1040
0.0
1040
0.0
1070
     0
1070
   100
1070
     1
1070
     1
1070
     0
1070
     0
1070
     0
1070
     0
1040
0.0
1040
0.0
1040
0.0
1040
1.0
1040
1.0
1040
0.0
1040
0.0
1070
     0
1002
{
1002
}
1002
}
  0
VIEWPORT
  5
2D
102
{ACAD_XDICTIONARY
360
222FD
102
}
100
AcDbEntity
 67
     1
  8
0
100
AcDbViewport
 10
2.5
 20
5.625
 30
0.0
 40
5.0
 41
3.75
 68
     2
 69
     2
1001
ACAD
1000
MVIEW
1002
{
1070
    16
1010
0.0
1020
0.0
1030
0.0
1010
0.0
1020
0.0
1030
1.0
1040
0.0
1040
4.564091
1040
0.631659
1040
-0.770385
1040
50.0
1040
0.0
1040
0.0
1070
     0
1070
   100
1070
     1
1070
     0
1070
     0
1070
     0
1070
     0
1070
     0
1040
0.0
1040
0.0
1040
0.0
1040
1.0
1040
1.0
1040
0.0
1040
0.0
1070
     0
1002
{
1003
AREA2
1002
}
1002
}
  0
VIEWPORT
  5
2E
102
{ACAD_XDICTIONARY
360
222FF
102
}
100
AcDbEntity
 67
     1
  8
0
100
AcDbViewport
 10
2.5
 20
1.875
 30
0.0
 40
5.0
 41
3.75
 68
     3
 69
     3
1001
ACAD
1000
MVIEW
1002
{
1070
    16
1010
0.0
1020
0.0
1030
0.0
1010
0.0
1020
-1.0
1030
0.0
1040
0.0
1040
4.505858
1040
0.642602
1040
2.063994
1040
50.0
1040
0.0
1040
0.0
1070
     0
1070
   100
1070
     1
1070
     0
1070
     0
1070
     0
1070
     0
1070
     0
1040
0.0
1040
0.0
1040
0.0
1040
1.0
1040
1.0
1040
0.0
1040
0.0
1070
     0
1002
{
1003
AREA1
1002
}
1002
}
  0
VIEWPORT
  5
2F
102
{ACAD_XDICTIONARY
360
22301
102
}
100
AcDbEntity
 67
     1
  8
0
100
AcDbViewport
 10
7.5
 20
3.75
 30
0.0
 40
5.0
 41
7.5
 68
     4
 69
     4
1001
ACAD
1000
MVIEW
1002
{
1070
    16
1010
0.0
1020
0.0
1030
0.0
1010
-1.0
1020
-1.0
1030
1.0
1040
0.0
1040
5.993547
1040
1.317863
1040
1.922449
1040
50.0
1040
0.0
1040
0.0
1070
     0
1070
   100
1070
     1
1070
     0
1070
     0
1070
     0
1070
     0
1070
     0
1040
0.0
1040
0.0
1040
0.0
1040
1.0
1040
1.0
1040
0.0
1040
0.0
1070
     0
1002
{
1003
AREA1
1003
AREA2
1002
}
1002
}
  0
TEXT
  5
42D
100
AcDbEntity
 67
     1
  8
0
100
AcDbText
 10
5.253785
 20
7.092701
 30
0.0
 40
0.2
  1

100
AcDbText
  0
TEXT
  5
431
100
AcDbEntity
 67
     1
  8
0
100
AcDbText
 10
5.253785
 20
6.759368
 30
0.0
 40
0.2
  1

100
AcDbText
1001
ACAD
1000
R13OBJECT
1002
{
1005
42D
1002
}
  0
TEXT
  5
11D16
100
AcDbEntity
 67
     1
  8
AREA2
100
AcDbText
 10
5.101109
 20
7.152637
 30
0.0
 40
0.2
  1
100-C43U*00
100
AcDbText
  0
TEXT
  5
11D17
100
AcDbEntity
 67
     1
  8
AREA2
100
AcDbText
 10
5.101109
 20
6.860021
 30
0.0
 40
0.2
  1
MCS IEC AC CONTACTOR; 43A
100
AcDbText
  0
ENDSEC
  0
SECTION
  2
OBJECTS
  0
DICTIONARY
  5
46D
100
AcDbDictionary
  3
ACAD_GROUP
350
46E
  3
ACAD_LAYOUT
350
49E
  3
ACAD_MLINESTYLE
350
47B
  3
ACAD_PLOTSETTINGS
350
49F
  3
ACAD_PLOTSTYLENAME
350
49C
  3
ACDBHEADERROUNDTRIPXREC
350
222DA
  3
ACDBVARIABLEDICTIONARY
350
48D
  0
DICTIONARY
  5
222D8
100
AcDbDictionary
280
     1
  3
ACAD_XREC_ROUNDTRIP
360
222D9
  0
DICTIONARY
  5
22305
100
AcDbDictionary
280
     1
  3
ACAD_XREC_ROUNDTRIP
360
22306
  0
DICTIONARY
  5
22307
100
AcDbDictionary
280
     1
  3
ACAD_XREC_ROUNDTRIP
360
22308
  0
DICTIONARY
  5
2230B
100
AcDbDictionary
280
     1
  3
ACAD_XREC_ROUNDTRIP
360
2230C
  0
DICTIONARY
  5
4D2
100
AcDbDictionary
280
     1
  3
ACAD_LAYOUTSELFREF
360
22304
  0
DICTIONARY
  5
4D0
100
AcDbDictionary
280
     1
  3
ACAD_LAYOUTSELFREF
360
22303
  0
DICTIONARY
  5
222FB
100
AcDbDictionary
280
     1
  3
ACAD_XREC_ROUNDTRIP
360
222FC
  0
DICTIONARY
  5
222FD
100
AcDbDictionary
280
     1
  3
ACAD_XREC_ROUNDTRIP
360
222FE
  0
DICTIONARY
  5
222FF
100
AcDbDictionary
280
     1
  3
ACAD_XREC_ROUNDTRIP
360
22300
  0
DICTIONARY
  5
22301
100
AcDbDictionary
280
     1
  3
ACAD_XREC_ROUNDTRIP
360
22302
  0
DICTIONARY
  5
46E
102
{ACAD_REACTORS
330
46D
102
}
100
AcDbDictionary
  0
DICTIONARY
  5
49E
102
{ACAD_XDICTIONARY
360
22309
102
}
102
{ACAD_REACTORS
330
46D
102
}
100
AcDbDictionary
  3
LAYOUT1
350
4A1
  3
MODEL
350
4A0
  0
DICTIONARY
  5
47B
102
{ACAD_REACTORS
330
46D
102
}
100
AcDbDictionary
  3
STANDARD
350
47C
  0
DICTIONARY
  5
49F
102
{ACAD_REACTORS
330
46D
102
}
100
AcDbDictionary
  0
ACAD_PROXY_OBJECT
  5
49C
102
{ACAD_REACTORS
330
46D
102
}
100
AcDbProxyObject
 90
      499
 91
      501
 93
       86
310
405010041939BDC9B585B0
350
49D
340
49D
 94
        0
  0
DICTIONARY
  5
222DA
102
{ACAD_REACTORS
330
46D
102
}
100
AcDbDictionary
  3
CEPSNTYPE
350
222E4
  3
DIMSTYLEDATA
350
222E8
  3
FINGERPRINTGUID
350
222E5
  3
HYPERLINKBASE
350
222DD
  3
INSUNITS
350
222E3
  3
LAYOUTDICT
350
222DF
  3
LWETCUNION
350
222E2
  3
PLOTSETDICT
350
222E0
  3
PLOTSTYLNAMDICT
350
222E1
  3
PSVPSCALE
350
222E7
  3
PUCSBASE
350
222EB
  3
PUCSORGBACK
350
222F1
  3
PUCSORGBOTTOM
350
222ED
  3
PUCSORGFRONT
350
222F0
  3
PUCSORGLEFT
350
222EE
  3
PUCSORGRIGHT
350
222EF
  3
PUCSORGTOP
350
222EC
  3
PUCSORTHOREF
350
222E9
  3
PUCSORTHOVIEW
350
222EA
  3
STYLESHEET
350
222DE
  3
TSTACKALIGN
350
222DB
  3
TSTACKSIZE
350
222DC
  3
UCSBASE
350
222F4
  3
UCSORGBACK
350
222FA
  3
UCSORGBOTTOM
350
222F6
  3
UCSORGFRONT
350
222F9
  3
UCSORGLEFT
350
222F7
  3
UCSORGRIGHT
350
222F8
  3
UCSORGTOP
350
222F5
  3
UCSORTHOREF
350
222F2
  3
UCSORTHOVIEW
350
222F3
  3
VERSIONGUID
350
222E6
  0
DICTIONARY
  5
48D
102
{ACAD_REACTORS
330
46D
102
}
100
AcDbDictionary
  3
DIMADEC
350
48E
  0
XRECORD
  5
222D9
102
{ACAD_REACTORS
330
222D8
102
}
100
AcDbXrecord
102
EXTNAMES
  1
*ACTIVE
  2
*Active
102
UCS
 74
     0
 71
     1
 10
0.0
 20
0.0
 30
0.0
 10
1.0
 20
0.0
 30
0.0
 10
0.0
 20
1.0
 30
0.0
146
0.0
 79
     1
102
VIEW
281
     1
  0
XRECORD
  5
22306
102
{ACAD_REACTORS
330
22305
102
}
100
AcDbXrecord
102
PLOTBIT
280
     0
  0
XRECORD
  5
22308
102
{ACAD_REACTORS
330
22307
102
}
100
AcDbXrecord
102
ACADR14ROUNDTRIP
1000
DSTYLE
1002
{
1070
   276
 70
     2
1070
   277
 70
     5
1070
   279
 70
     2
1002
}
  0
XRECORD
  5
2230C
102
{ACAD_REACTORS
330
2230B
102
}
100
AcDbXrecord
102
ACADR14ROUNDTRIP
1000
DSTYLE
1002
{
1070
   276
 70
     2
1070
   277
 70
     5
1070
   279
 70
     2
1070
   289
 70
     2
1002
}
  0
XRECORD
  5
22304
102
{ACAD_REACTORS
330
4D2
102
}
100
AcDbXrecord
340
478
  0
XRECORD
  5
22303
102
{ACAD_REACTORS
330
4D0
102
}
100
AcDbXrecord
340
475
  0
XRECORD
  5
222FC
102
{ACAD_REACTORS
330
222FB
102
}
100
AcDbXrecord
102
UCS
 74
     0
 71
     1
 10
0.0
 20
0.0
 30
0.0
 10
1.0
 20
0.0
 30
0.0
 10
0.0
 20
1.0
 30
0.0
146
0.0
 79
     0
102
VIEW
281
     0
102
NEWVIEWCONTROL
280
     4
  0
XRECORD
  5
222FE
102
{ACAD_REACTORS
330
222FD
102
}
100
AcDbXrecord
102
UCS
 74
     0
 71
     1
 10
0.0
 20
0.0
 30
0.0
 10
1.0
 20
0.0
 30
0.0
 10
0.0
 20
1.0
 30
0.0
146
0.0
 79
     1
102
VIEW
281
     0
102
NEWVIEWCONTROL
280
     4
  0
XRECORD
  5
22300
102
{ACAD_REACTORS
330
222FF
102
}
100
AcDbXrecord
102
UCS
 74
     0
 71
     1
 10
0.0
 20
0.0
 30
0.0
 10
1.0
 20
0.0
 30
0.0
 10
0.0
 20
0.0
 30
1.0
146
0.0
 79
     3
102
VIEW
281
     0
102
NEWVIEWCONTROL
280
     4
  0
XRECORD
  5
22302
102
{ACAD_REACTORS
330
22301
102
}
100
AcDbXrecord
102
UCS
 74
     0
 71
     1
 10
0.0
 20
0.0
 30
0.0
 10
1.0
 20
0.0
 30
0.0
 10
0.0
 20
1.0
 30
0.0
146
0.0
 79
     0
102
VIEW
281
     0
102
NEWVIEWCONTROL
280
     4
  0
DICTIONARY
  5
22309
100
AcDbDictionary
280
     1
  3
ACAD_XREC_ROUNDTRIP
360
2230A
  0
ACAD_PROXY_OBJECT
  5
4A1
102
{ACAD_REACTORS
330
49E
102
}
100
AcDbProxyObject
 90
      499
 91
      503
 93
     2044
310
91D4850204C617365724A65742035303030205365726965732050434C20362C008000000C0BB1B1440000000102F06C510000000000BC1B1440000000002E06C5100000000C0CCFC6A4000000018199D9C501064C6574746572A901406AA427D84144352EEE3F47D11959985D5B1D08148C4D081C195B88185CDCDA59DB9B5
310
95B9D1CCB98DD18A30EDE3B1BBFDBC0FC1D572C8D6D0C833F1A2B3054E9249F0FD074C61796F75743140501A97D7DB4AA43C31EFF91E46EBA53B71EFD1B32A15809809100B2537F8EAD447D02A6A6A00200C0093BD106FC0000F06EE366FABE0000032E846F6A2F44424FF2920002440160B7F435600079000000D00CEECC5
310
43D0
330
475
330
2C
340
0
340
0
 94
        0
  0
ACAD_PROXY_OBJECT
  5
4A0
102
{ACAD_REACTORS
330
49E
102
}
100
AcDbProxyObject
 90
      499
 91
      503
 93
      924
310
91D4850204C617365724A65742035303030205365726965732050434C20362C01AAAAAAAAA547D11959985D5B1D08148C4D081C195B88185CDCDA59DB9B595B9D1CCB98DD18A69054D6F64656C901A800000000000000000000000000000000000000000000A1000000000000008902A6A6AAAA0
330
478
330
0
340
0
340
0
 94
        0
  0
MLINESTYLE
  5
47C
102
{ACAD_REACTORS
330
47B
102
}
100
AcDbMlineStyle
  2
STANDARD
 70
     0
  3

 62
   256
 51
90.0
 52
90.0
 71
     2
 49
0.5
 62
   256
  6
BYLAYER
 49
-0.5
 62
   256
  6
BYLAYER
  0
ACAD_PROXY_OBJECT
  5
49D
102
{ACAD_REACTORS
330
49C
102
}
100
AcDbProxyObject
 90
      499
 91
      502
 93
        0
 94
        0
  0
XRECORD
  5
222E4
102
{ACAD_REACTORS
330
222DA
102
}
100
AcDbXrecord
 90
        0
  0
XRECORD
  5
222E8
102
{ACAD_REACTORS
330
222DA
102
}
100
AcDbXrecord
1000
DSTYLE
1002
{
1070
   276
 70
     2
1070
   277
 70
     5
1070
   279
 70
     2
1002
}
  0
XRECORD
  5
222E5
102
{ACAD_REACTORS
330
222DA
102
}
100
AcDbXrecord
  1
{6E0CF4B5-225E-11D4-A150-00A0CC3303EC}
  0
XRECORD
  5
222DD
102
{ACAD_REACTORS
330
222DA
102
}
100
AcDbXrecord
  1

  0
XRECORD
  5
222E3
102
{ACAD_REACTORS
330
222DA
102
}
100
AcDbXrecord
 90
        0
  0
XRECORD
  5
222DF
102
{ACAD_REACTORS
330
222DA
102
}
100
AcDbXrecord
340
49E
  0
XRECORD
  5
222E2
102
{ACAD_REACTORS
330
222DA
102
}
100
AcDbXrecord
 90
    14877
  0
XRECORD
  5
222E0
102
{ACAD_REACTORS
330
222DA
102
}
100
AcDbXrecord
340
49F
  0
XRECORD
  5
222E1
102
{ACAD_REACTORS
330
222DA
102
}
100
AcDbXrecord
340
49C
  0
XRECORD
  5
222E7
102
{ACAD_REACTORS
330
222DA
102
}
100
AcDbXrecord
 40
0.0
  0
XRECORD
  5
222EB
102
{ACAD_REACTORS
330
222DA
102
}
100
AcDbXrecord
340
0
  0
XRECORD
  5
222F1
102
{ACAD_REACTORS
330
222DA
102
}
100
AcDbXrecord
 10
0.0
 20
0.0
 30
0.0
  0
XRECORD
  5
222ED
102
{ACAD_REACTORS
330
222DA
102
}
100
AcDbXrecord
 10
0.0
 20
0.0
 30
0.0
  0
XRECORD
  5
222F0
102
{ACAD_REACTORS
330
222DA
102
}
100
AcDbXrecord
 10
0.0
 20
0.0
 30
0.0
  0
XRECORD
  5
222EE
102
{ACAD_REACTORS
330
222DA
102
}
100
AcDbXrecord
 10
0.0
 20
0.0
 30
0.0
  0
XRECORD
  5
222EF
102
{ACAD_REACTORS
330
222DA
102
}
100
AcDbXrecord
 10
0.0
 20
0.0
 30
0.0
  0
XRECORD
  5
222EC
102
{ACAD_REACTORS
330
222DA
102
}
100
AcDbXrecord
 10
0.0
 20
0.0
 30
0.0
  0
XRECORD
  5
222E9
102
{ACAD_REACTORS
330
222DA
102
}
100
AcDbXrecord
340
0
  0
XRECORD
  5
222EA
102
{ACAD_REACTORS
330
222DA
102
}
100
AcDbXrecord
 70
     0
  0
XRECORD
  5
222DE
102
{ACAD_REACTORS
330
222DA
102
}
100
AcDbXrecord
  1

  0
XRECORD
  5
222DB
102
{ACAD_REACTORS
330
222DA
102
}
100
AcDbXrecord
 90
        1
  0
XRECORD
  5
222DC
102
{ACAD_REACTORS
330
222DA
102
}
100
AcDbXrecord
 90
       70
  0
XRECORD
  5
222F4
102
{ACAD_REACTORS
330
222DA
102
}
100
AcDbXrecord
340
0
  0
XRECORD
  5
222FA
102
{ACAD_REACTORS
330
222DA
102
}
100
AcDbXrecord
 10
0.0
 20
0.0
 30
0.0
  0
XRECORD
  5
222F6
102
{ACAD_REACTORS
330
222DA
102
}
100
AcDbXrecord
 10
0.0
 20
0.0
 30
0.0
  0
XRECORD
  5
222F9
102
{ACAD_REACTORS
330
222DA
102
}
100
AcDbXrecord
 10
0.0
 20
0.0
 30
0.0
  0
XRECORD
  5
222F7
102
{ACAD_REACTORS
330
222DA
102
}
100
AcDbXrecord
 10
0.0
 20
0.0
 30
0.0
  0
XRECORD
  5
222F8
102
{ACAD_REACTORS
330
222DA
102
}
100
AcDbXrecord
 10
0.0
 20
0.0
 30
0.0
  0
XRECORD
  5
222F5
102
{ACAD_REACTORS
330
222DA
102
}
100
AcDbXrecord
 10
0.0
 20
0.0
 30
0.0
  0
XRECORD
  5
222F2
102
{ACAD_REACTORS
330
222DA
102
}
100
AcDbXrecord
340
0
  0
XRECORD
  5
222F3
102
{ACAD_REACTORS
330
222DA
102
}
100
AcDbXrecord
 70
     1
  0
XRECORD
  5
222E6
102
{ACAD_REACTORS
330
222DA
102
}
100
AcDbXrecord
  1
{9BD50510-7E20-43AF-A832-10E85E6AE04C}
  0
DICTIONARYVAR
  5
48E
102
{ACAD_REACTORS
330
48D
102
}
100
DictionaryVariables
280
     0
  1
0
  0
XRECORD
  5
2230A
102
{ACAD_REACTORS
330
22309
102
}
100
AcDbXrecord
102
EXTNAMES
  1
LAYOUT1
  2
Layout1
  1
MODEL
  2
Model
  0
ENDSEC
  0
EOF
