  0
SECTION
  2
HEADER
  9
$ACADVER
  1
AC1018
  9
$ACADMAINTVER
 70
    76
  9
$DWGCODEPAGE
  3
ANSI_1252
  9
$INSBASE
 10
0.0
 20
0.0
 30
0.0
  9
$EXTMIN
 10
-0.0003356677483914
 20
-0.0002593796237598
 30
-0.0015258207003583
  9
$EXTMAX
 10
11.00033571897113
 20
8.500259419204969
 30
0.0000000349246037
  9
$LIMMIN
 10
0.0
 20
0.0
  9
$LIMMAX
 10
11.0
 20
8.5
  9
$ORTHOMODE
 70
     0
  9
$REGENMODE
 70
     1
  9
$FILLMODE
 70
     1
  9
$QTEXTMODE
 70
     0
  9
$MIRRTEXT
 70
     0
  9
$LTSCALE
 40
0.605
  9
$ATTMODE
 70
     1
  9
$TEXTSIZE
 40
0.2
  9
$TRACEWID
 40
0.05
  9
$TEXTSTYLE
  7
STANDARD
  9
$CLAYER
  8
0
  9
$CELTYPE
  6
BYLAYER
  9
$CECOLOR
 62
   256
  9
$CELTSCALE
 40
1.0
  9
$DISPSILH
 70
     0
  9
$DIMSCALE
 40
1.0
  9
$DIMASZ
 40
0.1875
  9
$DIMEXO
 40
0.06875
  9
$DIMDLI
 40
0.418
  9
$DIMRND
 40
0.0
  9
$DIMDLE
 40
0.0
  9
$DIMEXE
 40
0.198
  9
$DIMTP
 40
0.0
  9
$DIMTM
 40
0.0
  9
$DIMTXT
 40
0.15625
  9
$DIMCEN
 40
0.099
  9
$DIMTSZ
 40
0.0
  9
$DIMTOL
 70
     0
  9
$DIMLIM
 70
     0
  9
$DIMTIH
 70
     1
  9
$DIMTOH
 70
     1
  9
$DIMSE1
 70
     0
  9
$DIMSE2
 70
     0
  9
$DIMTAD
 70
     0
  9
$DIMZIN
 70
     0
  9
$DIMBLK
  1

  9
$DIMASO
 70
     1
  9
$DIMSHO
 70
     1
  9
$DIMPOST
  1

  9
$DIMAPOST
  1

  9
$DIMALT
 70
     0
  9
$DIMALTD
 70
     2
  9
$DIMALTF
 40
25.4
  9
$DIMLFAC
 40
1.0
  9
$DIMTOFL
 70
     0
  9
$DIMTVP
 40
0.0
  9
$DIMTIX
 70
     0
  9
$DIMSOXD
 70
     0
  9
$DIMSAH
 70
     0
  9
$DIMBLK1
  1

  9
$DIMBLK2
  1

  9
$DIMSTYLE
  2
STANDARD
  9
$DIMCLRD
 70
     0
  9
$DIMCLRE
 70
     0
  9
$DIMCLRT
 70
     0
  9
$DIMTFAC
 40
1.0
  9
$DIMGAP
 40
0.09
  9
$DIMJUST
 70
     0
  9
$DIMSD1
 70
     0
  9
$DIMSD2
 70
     0
  9
$DIMTOLJ
 70
     1
  9
$DIMTZIN
 70
     0
  9
$DIMALTZ
 70
     0
  9
$DIMALTTZ
 70
     0
  9
$DIMUPT
 70
     0
  9
$DIMDEC
 70
     2
  9
$DIMTDEC
 70
     4
  9
$DIMALTU
 70
     2
  9
$DIMALTTD
 70
     2
  9
$DIMTXSTY
  7
STANDARD
  9
$DIMAUNIT
 70
     0
  9
$DIMADEC
 70
     0
  9
$DIMALTRND
 40
0.0
  9
$DIMAZIN
 70
     0
  9
$DIMDSEP
 70
    46
  9
$DIMATFIT
 70
     3
  9
$DIMFRAC
 70
     0
  9
$DIMLDRBLK
  1

  9
$DIMLUNIT
 70
     2
  9
$DIMLWD
 70
    -2
  9
$DIMLWE
 70
    -2
  9
$DIMTMOVE
 70
     0
  9
$LUNITS
 70
     2
  9
$LUPREC
 70
     4
  9
$SKETCHINC
 40
0.1
  9
$FILLETRAD
 40
0.0
  9
$AUNITS
 70
     0
  9
$AUPREC
 70
     0
  9
$MENU
  1
.
  9
$ELEVATION
 40
0.0
  9
$PELEVATION
 40
0.0
  9
$THICKNESS
 40
0.0
  9
$LIMCHECK
 70
     0
  9
$CHAMFERA
 40
0.0
  9
$CHAMFERB
 40
0.0
  9
$CHAMFERC
 40
0.0
  9
$CHAMFERD
 40
0.0
  9
$SKPOLY
 70
     0
  9
$TDCREATE
 40
2456050.580346042
  9
$TDUCREATE
 40
2456050.788679375
  9
$TDUPDATE
 40
2456050.649313275
  9
$TDUUPDATE
 40
2456050.857646609
  9
$TDINDWG
 40
0.0689692245
  9
$TDUSRTIMER
 40
0.0689692245
  9
$USRTIMER
 70
     1
  9
$ANGBASE
 50
0.0
  9
$ANGDIR
 70
     0
  9
$PDMODE
 70
     3
  9
$PDSIZE
 40
0.3125
  9
$PLINEWID
 40
0.0
  9
$SPLFRAME
 70
     0
  9
$SPLINETYPE
 70
     6
  9
$SPLINESEGS
 70
     8
  9
$HANDSEED
  5
4ED
  9
$SURFTAB1
 70
     6
  9
$SURFTAB2
 70
     6
  9
$SURFTYPE
 70
     6
  9
$SURFU
 70
     6
  9
$SURFV
 70
     6
  9
$UCSBASE
  2

  9
$UCSNAME
  2

  9
$UCSORG
 10
0.0
 20
0.0
 30
0.0
  9
$UCSXDIR
 10
1.0
 20
0.0
 30
0.0
  9
$UCSYDIR
 10
0.0
 20
1.0
 30
0.0
  9
$UCSORTHOREF
  2

  9
$UCSORTHOVIEW
 70
     0
  9
$UCSORGTOP
 10
0.0
 20
0.0
 30
0.0
  9
$UCSORGBOTTOM
 10
0.0
 20
0.0
 30
0.0
  9
$UCSORGLEFT
 10
0.0
 20
0.0
 30
0.0
  9
$UCSORGRIGHT
 10
0.0
 20
0.0
 30
0.0
  9
$UCSORGFRONT
 10
0.0
 20
0.0
 30
0.0
  9
$UCSORGBACK
 10
0.0
 20
0.0
 30
0.0
  9
$PUCSBASE
  2

  9
$PUCSNAME
  2

  9
$PUCSORG
 10
0.0
 20
0.0
 30
0.0
  9
$PUCSXDIR
 10
1.0
 20
0.0
 30
0.0
  9
$PUCSYDIR
 10
0.0
 20
1.0
 30
0.0
  9
$PUCSORTHOREF
  2

  9
$PUCSORTHOVIEW
 70
     0
  9
$PUCSORGTOP
 10
0.0
 20
0.0
 30
0.0
  9
$PUCSORGBOTTOM
 10
0.0
 20
0.0
 30
0.0
  9
$PUCSORGLEFT
 10
0.0
 20
0.0
 30
0.0
  9
$PUCSORGRIGHT
 10
0.0
 20
0.0
 30
0.0
  9
$PUCSORGFRONT
 10
0.0
 20
0.0
 30
0.0
  9
$PUCSORGBACK
 10
0.0
 20
0.0
 30
0.0
  9
$USERI1
 70
     0
  9
$USERI2
 70
     0
  9
$USERI3
 70
     0
  9
$USERI4
 70
     0
  9
$USERI5
 70
     0
  9
$USERR1
 40
0.0
  9
$USERR2
 40
0.0
  9
$USERR3
 40
0.0
  9
$USERR4
 40
0.0
  9
$USERR5
 40
0.0
  9
$WORLDVIEW
 70
     1
  9
$SHADEDGE
 70
     3
  9
$SHADEDIF
 70
    70
  9
$TILEMODE
 70
     1
  9
$MAXACTVP
 70
    64
  9
$PINSBASE
 10
0.0
 20
0.0
 30
0.0
  9
$PLIMCHECK
 70
     0
  9
$PEXTMIN
 10
1.000000000000000E+20
 20
1.000000000000000E+20
 30
1.000000000000000E+20
  9
$PEXTMAX
 10
-1.000000000000000E+20
 20
-1.000000000000000E+20
 30
-1.000000000000000E+20
  9
$PLIMMIN
 10
0.0
 20
0.0
  9
$PLIMMAX
 10
12.0
 20
9.0
  9
$UNITMODE
 70
     0
  9
$VISRETAIN
 70
     1
  9
$PLINEGEN
 70
     0
  9
$PSLTSCALE
 70
     1
  9
$TREEDEPTH
 70
  3020
  9
$CMLSTYLE
  2
Standard
  9
$CMLJUST
 70
     0
  9
$CMLSCALE
 40
1.0
  9
$PROXYGRAPHICS
 70
     1
  9
$MEASUREMENT
 70
     0
  9
$CELWEIGHT
370
    -1
  9
$ENDCAPS
280
     0
  9
$JOINSTYLE
280
     0
  9
$LWDISPLAY
290
     0
  9
$INSUNITS
 70
     1
  9
$HYPERLINKBASE
  1

  9
$STYLESHEET
  1

  9
$XEDIT
290
     1
  9
$CEPSNTYPE
380
     0
  9
$PSTYLEMODE
290
     1
  9
$FINGERPRINTGUID
  2
{345848DF-0D3E-4146-9E9C-3C7B6FC66DD7}
  9
$VERSIONGUID
  2
{F6B196EE-24E3-4F8B-92D8-FD405AB8B916}
  9
$EXTNAMES
290
     1
  9
$PSVPSCALE
 40
0.0
  9
$OLESTARTUP
290
     0
  9
$SORTENTS
280
   127
  9
$INDEXCTL
280
     0
  9
$HIDETEXT
280
     1
  9
$XCLIPFRAME
290
     0
  9
$HALOGAP
280
     0
  9
$OBSCOLOR
 70
   257
  9
$OBSLTYPE
280
     0
  9
$INTERSECTIONDISPLAY
280
     0
  9
$INTERSECTIONCOLOR
 70
   257
  9
$DIMASSOC
280
     2
  9
$PROJECTNAME
  1

  0
ENDSEC
  0
SECTION
  2
CLASSES
  0
CLASS
  1
ACDBDICTIONARYWDFLT
  2
AcDbDictionaryWithDefault
  3
ObjectDBX Classes
 90
        0
 91
        1
280
     0
281
     0
  0
CLASS
  1
TABLESTYLE
  2
AcDbTableStyle
  3
ObjectDBX Classes
 90
     2047
 91
        1
280
     0
281
     0
  0
CLASS
  1
AMGSETTINGSOBJ
  2
AmgSettingsObj
  3
"AcadM|Product Description: AutoCAD Mechanical 2000|Company: Autodesk"
 90
        0
 91
        2
280
     0
281
     0
  0
CLASS
  1
ACME_DOCUMENT
  2
AcMeDbDoc
  3
AcMeServices
 90
        0
 91
        1
280
     0
281
     0
  0
CLASS
  1
ACMESCOPE
  2
AcMeScope
  3
AcMeServices
 90
        0
 91
        1
280
     0
281
     0
  0
CLASS
  1
ACMECOMMANDHISTORY
  2
AcMeCommandHistory
  3
AcMeServices
 90
        0
 91
        1
280
     0
281
     0
  0
CLASS
  1
ACIMSYSVARMAN
  2
AcImSysVarManager
  3
AcMeServices
 90
        0
 91
        5
280
     0
281
     0
  0
CLASS
  1
ACIMINTSYSVAR
  2
AcImIntSysVar
  3
AcMeServices
 90
        0
 91
       26
280
     0
281
     0
  0
CLASS
  1
ACMEDRAWINGMAN
  2
AcMeDrawingMan
  3
AcMeServices
 90
        0
 91
        1
280
     0
281
     0
  0
CLASS
  1
ACMEVIEW
  2
AcMeView
  3
AcMeServices
 90
        0
 91
        1
280
     0
281
     0
  0
CLASS
  1
ACDBENTITYCACHE
  2
AcMeEntityCache
  3
AcMeServices
 90
        0
 91
        1
280
     0
281
     0
  0
CLASS
  1
GSMANAGER
  2
AcMeGSManager
  3
AcMeServices
 90
        0
 91
        1
280
     0
281
     0
  0
CLASS
  1
AMDTINTERNALREACTOR
  2
AmdtInternalReactor
  3
AcMeServices
 90
        0
 91
        2
280
     0
281
     0
  0
CLASS
  1
ACMESTATEMGR
  2
AcMeStateMgr
  3
AcMeServices
 90
        0
 91
        1
280
     0
281
     0
  0
CLASS
  1
ACGREFMASTER
  2
AcGrefMaster
  3
AcAttribServices
 90
        0
 91
        1
280
     0
281
     0
  0
CLASS
  1
AM_DRAWING_MGR
  2
AcDmDwgMgr
  3
AcMechDwgViewMgmt
 90
        0
 91
        1
280
     0
281
     0
  0
CLASS
  1
AM_DWG_DOCUMENT
  2
AcDmDwgDocument
  3
AcMechDwgViewMgmt
 90
        0
 91
        1
280
     0
281
     0
  0
CLASS
  1
AM_DWG_SHEET
  2
AcDmSheet
  3
AcMechDwgViewMgmt
 90
        0
 91
        1
280
     0
281
     0
  0
CLASS
  1
AM_VIEWDIMPARMAP
  2
AcDmViewDimParMap
  3
AcMechDwgViewMgmt
 90
        0
 91
        1
280
     0
281
     0
  0
CLASS
  1
ACIMREALSYSVAR
  2
AcImRealSysVar
  3
AcMeServices
 90
        0
 91
        1
280
     0
281
     0
  0
CLASS
  1
AM_DWGMGR_NAME
  2
AcDmDwgMgrName
  3
AcMechDwgViewMgmt
 90
        0
 91
        1
280
     0
281
     0
  0
CLASS
  1
ACME_DATABASE
  2
AcMeDbDatabase
  3
AcMeServices
 90
        0
 91
        1
280
     0
281
     0
  0
CLASS
  1
ACRFINSADJUSTERMGR
  2
AcRfInsAdjusterMgr
  3
AcMeServices
 90
        0
 91
        1
280
     0
281
     0
  0
CLASS
  1
ACGREFACADMASTER
  2
AcGrefacadMaster
  3
AcGrefServices
 90
        0
 91
        1
280
     0
281
     0
  0
CLASS
  1
AMDTMENUSTATEMGR
  2
AmdtMenuStateMgr
  3
McadcomServices
 90
        0
 91
        1
280
     0
281
     0
  0
CLASS
  1
AMDTMCOMMENUSTATE
  2
AmdtMcomMenuState
  3
McadcomServices
 90
        0
 91
        1
280
     0
281
     0
  0
CLASS
  1
AMIMASTER
  2
AmiMaster
  3
AmiServices
 90
        0
 91
        1
280
     0
281
     0
  0
CLASS
  1
MAPIAMMOUDLE
  2
MApiAmModule
  3
MApiAmServices
 90
        0
 91
        1
280
     0
281
     0
  0
CLASS
  1
ACIMSTRSYSVAR
  2
AcImStrSysVar
  3
AcMeServices
 90
        0
 91
        5
280
     0
281
     0
  0
CLASS
  1
AMDTADMENUSTATE
  2
AmdtAdMenuState
  3
DesignerServices
 90
        0
 91
        1
280
     0
281
     0
  0
CLASS
  1
ADAPPL
  2
AcAdAppl
  3
DesignerServices
 90
        0
 91
        1
280
     0
281
     0
  0
CLASS
  1
DEPMGR
  2
AcAdDepMgr
  3
DesignerServices
 90
        0
 91
        1
280
     0
281
     0
  0
CLASS
  1
PARAMMGR
  2
AcAdParamMgr
  3
DesignerServices
 90
        0
 91
        1
280
     0
281
     0
  0
CLASS
  1
PARAMSCOPE
  2
AcAdParamScope
  3
DesignerServices
 90
        0
 91
        1
280
     0
281
     0
  0
CLASS
  1
NAMEDAPPL
  2
AcAdNamedAppl
  3
DesignerServices
 90
        0
 91
        1
280
     0
281
     0
  0
CLASS
  1
AMDTDMMENUSTATE
  2
AmdtDmMenuState
  3
AcMechDwgViewMgmt
 90
        0
 91
        1
280
     0
281
     0
  0
CLASS
  1
AMDTAMMENUSTATE
  2
AmdtAmMenuState
  3
DesignerAssemblies
 90
        0
 91
        1
280
     0
281
     0
  0
CLASS
  1
ACAMPROJECT
  2
AcAmProject
  3
DesignerAssemblies
 90
        0
 91
        1
280
     0
281
     0
  0
CLASS
  1
ACAMGRCOMPDEF
  2
AcAmGrCompDef
  3
DesignerAssemblies
 90
        0
 91
        1
280
     0
281
     0
  0
CLASS
  1
ACCMCONTEXT
  2
AcCmContext
  3
DesignerAssemblies
 90
        0
 91
        1
280
     0
281
     0
  0
CLASS
  1
ACAMCOMPDEF
  2
AcAmCompDef
  3
DesignerAssemblies
 90
        0
 91
        1
280
     0
281
     0
  0
CLASS
  1
ACAMCOMPDEFMGR
  2
AcAmCompDefMgr
  3
DesignerAssemblies
 90
        0
 91
        1
280
     0
281
     0
  0
CLASS
  1
AMCONTEXTMGR
  2
AcAmContextMgr
  3
DesignerAssemblies
 90
        0
 91
        1
280
     0
281
     0
  0
CLASS
  1
ACAMCONTEXTMODELER
  2
AcAmContextModeler
  3
DesignerAssemblies
 90
        0
 91
        1
280
     0
281
     0
  0
CLASS
  1
ACMDATADICTIONARY
  2
AcmDataDictionary
  3
"AcmSymBB|Product Description: AutoCAD Mechanical 2004 DX|Company: Autodesk"
 90
        0
 91
        1
280
     0
281
     0
  0
CLASS
  1
CATALOGSTATE
  2
AcAmCatalogState
  3
DesignerAssemblies
 90
        0
 91
        1
280
     0
281
     0
  0
CLASS
  1
ACAMGRCOMPDEFSET
  2
AcAmGrCompDefSet
  3
DesignerAssemblies
 90
        0
 91
        1
280
     0
281
     0
  0
CLASS
  1
AMDTBROWSERDBTAB
  2
AmdtBrowserDbTab
  3
McadcomServices
 90
        0
 91
        1
280
     0
281
     0
  0
CLASS
  1
CBROWSERAPPOBJECT
  2
CBrowserAppObject
  3
McadcomServices
 90
        0
 91
        3
280
     0
281
     0
  0
CLASS
  1
DM_PLACEHOLDER
  2
AcDmSelsetPlaceholder
  3
AcMechDwgViewMgmt
 90
        0
 91
        1
280
     0
281
     0
  0
CLASS
  1
ACMSTANDARDANSI
  2
AcmStandardANSI
  3
"Amdt_StdImp|Product Description: AutoCAD Mechanical 2004 DX|Company: Autodesk"
 90
        0
 91
        1
280
     0
281
     0
  0
CLASS
  1
AMGOBJPROPCFG
  2
AmgObjPropCfg
  3
"AmgLay|Product Description: AutoCAD Mechanical 2000|Company: Autodesk"
 90
        1
 91
        1
280
     0
281
     0
  0
CLASS
  1
ACMSURFSTANDARDANSI
  2
AcmSurfTextStdANSI
  3
"Amdt_StdImp|Product Description: AutoCAD Mechanical 2004 DX|Company: Autodesk"
 90
        0
 91
        1
280
     0
281
     0
  0
CLASS
  1
ACMFCFSTANDARDANSI
  2
AcmFCFStdANSI
  3
"Amdt_StdImp|Product Description: AutoCAD Mechanical 2004 DX|Company: Autodesk"
 90
        0
 91
        1
280
     0
281
     0
  0
CLASS
  1
ACMWELDSTANDARDANSI
  2
AcmWeldingStdANSI
  3
"Amdt_StdImp|Product Description: AutoCAD Mechanical 2004 DX|Company: Autodesk"
 90
        0
 91
        1
280
     0
281
     0
  0
CLASS
  1
ACMIDSTANDARDANSI
  2
AcmIdStdANSI
  3
"Amdt_StdImp|Product Description: AutoCAD Mechanical 2004 DX|Company: Autodesk"
 90
        0
 91
        1
280
     0
281
     0
  0
CLASS
  1
ACMDATUMSTANDARDANSI
  2
AcmDatumStdANSI
  3
"Amdt_StdImp|Product Description: AutoCAD Mechanical 2004 DX|Company: Autodesk"
 90
        0
 91
        1
280
     0
281
     0
  0
CLASS
  1
ACMBOMSTANDARDANSI
  2
AcmBOMStdANSI
  3
"Amdt_StdImp|Product Description: AutoCAD Mechanical 2004 DX|Company: Autodesk"
 90
        0
 91
        1
280
     0
281
     0
  0
CLASS
  1
ACMDETAILSTANDARDANSI
  2
AmdtDetailSymStdANSI
  3
"Amdt_StdImp|Product Description: AutoCAD Mechanical 2004 DX|Company: Autodesk"
 90
        0
 91
        1
280
     0
281
     0
  0
CLASS
  1
ACMSECTIONSTANDARDANSI
  2
AmdtSectionSymStdANSI
  3
"Amdt_StdImp|Product Description: AutoCAD Mechanical 2004 DX|Company: Autodesk"
 90
        0
 91
        1
280
     0
281
     0
  0
CLASS
  1
ACMCENTERLINESTANDARDANSI
  2
AmdtCenterLineStdANSI
  3
"Amdt_StdImp|Product Description: AutoCAD Mechanical 2004 DX|Company: Autodesk"
 90
        0
 91
        1
280
     0
281
     0
  0
CLASS
  1
ACMTHREADLINESTANDARDANSI
  2
AmdtThreadLineStdANSI
  3
"Amdt_StdImp|Product Description: AutoCAD Mechanical 2004 DX|Company: Autodesk"
 90
        0
 91
        1
280
     0
281
     0
  0
CLASS
  1
ACMNOTESTANDARDANSI
  2
AmdtNoteStdANSI
  3
"Amdt_StdImp|Product Description: AutoCAD Mechanical 2004 DX|Company: Autodesk"
 90
        0
 91
        1
280
     0
281
     0
  0
CLASS
  1
AMDTNOTETEMPLATEDB
  2
AmdtNoteTemplateDB
  3
AMDT_STDIMP_MODULE_NAME
 90
        0
 91
        6
280
     0
281
     0
  0
CLASS
  1
ACAMGLAYSTD
  2
AcAmgLayStd
  3
"AcAmgLayStd|Product Description: AutoCAD Mechanical 2000|Company: Autodesk"
 90
        0
 91
        1
280
     0
281
     0
  0
CLASS
  1
ACAMGDIMSTD
  2
AcAmgDimStd
  3
"AcAmgDimStd|Product Description: AutoCAD Mechanical 2000|Company: Autodesk"
 90
        0
 91
        1
280
     0
281
     0
  0
CLASS
  1
ACAMGHOLECHARTSTDANSI
  2
AcAmgHoleChartStdANSI
  3
ACMSYMBB_MODULE_NAME
 90
        0
 91
        1
280
     0
281
     0
  0
CLASS
  1
ACAMGTITLESTD
  2
AcAmgTitleStd
  3
"TITLEAPP"
 90
        0
 91
        1
280
     0
281
     0
  0
CLASS
  1
ACAMGFILTERDAT
  2
AcAmgFilterDat
  3
"AcadM|Product Description: AutoCAD Mechanical 2000|Company: Autodesk"
 90
        0
 91
        6
280
     0
281
     0
  0
CLASS
  1
DIMASSOC
  2
AcDbDimAssoc
  3
"AcDbDimAssoc|Product Desc:     AcDim ARX App For Dimension|Company:          Autodesk, Inc.|WEB Address:      www.autodesk.com"
 90
        0
 91
        3
280
     0
281
     0
  0
CLASS
  1
DICTIONARYVAR
  2
AcDbDictionaryVar
  3
ObjectDBX Classes
 90
        0
 91
        2
280
     0
281
     0
  0
CLASS
  1
ACRFATTGENMGR
  2
AcRfAttGeneralMgr
  3
AcAttribServices
 90
        0
 91
        1
280
     0
281
     0
  0
ENDSEC
  0
SECTION
  2
TABLES
  0
TABLE
  2
VPORT
  5
8
330
0
100
AcDbSymbolTable
 70
    54
  0
VPORT
  5
4EC
330
8
100
AcDbSymbolTableRecord
100
AcDbViewportTableRecord
  2
*Active
 70
     0
 10
0.0
 20
0.0
 11
1.0
 21
1.0
 12
5.500000025611373
 22
4.250000019790605
 13
0.0
 23
0.0
 14
1.0
 24
1.0
 15
0.0
 25
0.0
 16
0.0
 26
0.0
 36
1.0
 17
0.0
 27
0.0
 37
0.0
 40
8.575193927368953
 41
1.656891495601173
 42
50.0
 43
0.0
 44
0.0
 50
0.0
 51
0.0
 71
     0
 72
   100
 73
     1
 74
     1
 75
     0
 76
     0
 77
     0
 78
     0
281
     0
 65
     0
110
0.0
120
0.0
130
0.0
111
1.0
121
0.0
131
0.0
112
0.0
122
1.0
132
0.0
 79
     0
146
0.0
  0
ENDTAB
  0
TABLE
  2
LTYPE
  5
5
330
0
100
AcDbSymbolTable
 70
    19
  0
LTYPE
  5
14
330
5
100
AcDbSymbolTableRecord
100
AcDbLinetypeTableRecord
  2
BYBLOCK
 70
     0
  3

 72
    65
 73
     0
 40
0.0
  0
LTYPE
  5
15
330
5
100
AcDbSymbolTableRecord
100
AcDbLinetypeTableRecord
  2
BYLAYER
 70
     0
  3

 72
    65
 73
     0
 40
0.0
  0
LTYPE
  5
16
330
5
100
AcDbSymbolTableRecord
100
AcDbLinetypeTableRecord
  2
CONTINUOUS
 70
     0
  3
Solid line
 72
    65
 73
     0
 40
0.0
  0
LTYPE
  5
1F5
330
5
100
AcDbSymbolTableRecord
100
AcDbLinetypeTableRecord
  2
CENTER
 70
     0
  3
____ _ ____ _ ____ _ ____ _ ____ _ ____ _ ____
 72
    65
 73
     4
 40
0.6
 49
0.375
 74
     0
 49
-0.075
 74
     0
 49
0.075
 74
     0
 49
-0.075
 74
     0
  0
LTYPE
  5
1F6
330
5
100
AcDbSymbolTableRecord
100
AcDbLinetypeTableRecord
  2
HIDDEN
 70
     0
  3
- - - - - - - - - - - - - - - - - - - -
 72
    65
 73
     2
 40
0.2
 49
0.1
 74
     0
 49
-0.1
 74
     0
  0
LTYPE
  5
379
330
5
100
AcDbSymbolTableRecord
100
AcDbLinetypeTableRecord
  2
PHANTOM2
 70
     0
  3
Phantom (.5x) ___ _ _ ___ _ _ ___ _ _ ___ _ _
 72
    65
 73
     6
 40
1.25
 49
0.625
 74
     0
 49
-0.125
 74
     0
 49
0.125
 74
     0
 49
-0.125
 74
     0
 49
0.125
 74
     0
 49
-0.125
 74
     0
  0
LTYPE
  5
3B0
330
5
100
AcDbSymbolTableRecord
100
AcDbLinetypeTableRecord
  2
Amconstr
 70
     0
  3
_______________________
 72
    65
 73
     2
 40
9999.0
 49
9999.0
 74
     0
 49
0.0
 74
     0
  0
LTYPE
  5
3B6
330
5
100
AcDbSymbolTableRecord
100
AcDbLinetypeTableRecord
  2
CENTER2
 70
     0
  3
Center (.5x) ___ _ ___ _ ___ _ ___ _ ___ _ ___
 72
    65
 73
     4
 40
1.125
 49
0.75
 74
     0
 49
-0.125
 74
     0
 49
0.125
 74
     0
 49
-0.125
 74
     0
  0
LTYPE
  5
3B7
330
5
100
AcDbSymbolTableRecord
100
AcDbLinetypeTableRecord
  2
HIDDEN2
 70
     0
  3
Hidden (.5x) _ _ _ _ _ _ _ _ _ _ _ _ _ _ _ _ _
 72
    65
 73
     2
 40
0.1875
 49
0.125
 74
     0
 49
-0.0625
 74
     0
  0
LTYPE
  5
3B8
330
5
100
AcDbSymbolTableRecord
100
AcDbLinetypeTableRecord
  2
Amzigzag2
 70
     0
  3
/\/-/\/-/\/-/\/-/\/-/\/
 72
    65
 73
     2
 40
0.4401
 49
0.0001
 74
     4
 75
   136
340
3B4
 46
0.0016
 50
0.0
 44
0.0
 45
0.0
 49
-0.4400000000000001
 74
     0
  0
LTYPE
  5
3C6
330
5
100
AcDbSymbolTableRecord
100
AcDbLinetypeTableRecord
  2
ACANSTGB
 70
     0
  3
__ . . __ . .
 72
    65
 73
     6
 40
0.35433070866
 49
0.15748031496
 74
     0
 49
-0.03937007874
 74
     0
 49
0.03937007874
 74
     0
 49
-0.03937007874
 74
     0
 49
0.03937007874
 74
     0
 49
-0.03937007874
 74
     0
  0
LTYPE
  5
3C7
330
5
100
AcDbSymbolTableRecord
100
AcDbLinetypeTableRecord
  2
ACANSTGL
 70
     0
  3
_ _ _ _ _
 72
    65
 73
     2
 40
0.11811023622
 49
0.07874015748
 74
     0
 49
-0.03937007874
 74
     0
  0
ENDTAB
  0
TABLE
  2
LAYER
  5
2
330
0
100
AcDbSymbolTable
 70
    11
  0
LAYER
  5
10
330
2
100
AcDbSymbolTableRecord
100
AcDbLayerTableRecord
  2
0
 70
     0
 62
     7
  6
CONTINUOUS
370
    -3
390
F
  0
LAYER
  5
3F4
330
2
100
AcDbSymbolTableRecord
100
AcDbLayerTableRecord
  2
AM_5
 70
     0
 62
     3
  6
CONTINUOUS
370
    15
390
F
1001
AcAecLayerStandard
1000

1000

  0
LAYER
  5
40D
330
2
100
AcDbSymbolTableRecord
100
AcDbLayerTableRecord
  2
Defpoints
 70
     0
 62
     7
  6
CONTINUOUS
290
     0
370
    -3
390
F
  0
ENDTAB
  0
TABLE
  2
STYLE
  5
3
330
0
100
AcDbSymbolTable
 70
     5
  0
STYLE
  5
11
330
3
100
AcDbSymbolTableRecord
100
AcDbTextStyleTableRecord
  2
STANDARD
 70
     0
 40
0.0
 41
0.8
 50
0.0
 71
     0
 42
0.2
  3
txt
  4

  0
STYLE
  5
3B4
330
3
100
AcDbSymbolTableRecord
100
AcDbTextStyleTableRecord
  2

 70
     1
 40
0.0
 41
1.0
 50
0.0
 71
     0
 42
0.2
  3
genltshp.shx
  4

  0
STYLE
  5
3B9
330
3
100
AcDbSymbolTableRecord
100
AcDbTextStyleTableRecord
  2
ACANSTS
 70
     0
 40
1.0
 41
1.0
 50
0.0
 71
     0
 42
0.2
  3
romans.shx
  4

  0
STYLE
  5
3C5
330
3
100
AcDbSymbolTableRecord
100
AcDbTextStyleTableRecord
  2
ACANSGDT
 70
     0
 40
0.0
 41
1.0
 50
0.0
 71
     0
 42
0.2
  3
AMGDT
  4

  0
ENDTAB
  0
TABLE
  2
VIEW
  5
6
330
0
100
AcDbSymbolTable
 70
     2
  0
ENDTAB
  0
TABLE
  2
UCS
  5
7
330
0
100
AcDbSymbolTable
 70
     0
  0
ENDTAB
  0
TABLE
  2
APPID
  5
9
330
0
100
AcDbSymbolTable
 70
    12
  0
APPID
  5
203
330
9
100
AcDbSymbolTableRecord
100
AcDbRegAppTableRecord
  2
ACAD
 70
     0
  0
APPID
  5
34C
330
9
100
AcDbSymbolTableRecord
100
AcDbRegAppTableRecord
  2
MCAD_NO_VIS
 70
     0
  0
APPID
  5
34D
330
9
100
AcDbSymbolTableRecord
100
AcDbRegAppTableRecord
  2
ACAD_TEMP_GRAPHIC
 70
     0
  0
APPID
  5
37B
330
9
100
AcDbSymbolTableRecord
100
AcDbRegAppTableRecord
  2
AD_DRAW
 70
     0
  0
APPID
  5
37E
330
9
100
AcDbSymbolTableRecord
100
AcDbRegAppTableRecord
  2
ACATTRIBSERVICES
 70
     0
  0
APPID
  5
39E
330
9
100
AcDbSymbolTableRecord
100
AcDbRegAppTableRecord
  2
DESIGNERASSEMBLIES
 70
     0
  0
APPID
  5
3A4
330
9
100
AcDbSymbolTableRecord
100
AcDbRegAppTableRecord
  2
ACADM_DIM_EDIT
 70
     0
  0
APPID
  5
3A5
330
9
100
AcDbSymbolTableRecord
100
AcDbRegAppTableRecord
  2
AMDT_DM_ADJ
 70
     0
  0
APPID
  5
3D3
330
9
100
AcDbSymbolTableRecord
100
AcDbRegAppTableRecord
  2
ACAD_DSTYLE_DIMARC_LENGTH_SYMBOL
 70
     0
  0
APPID
  5
3D4
330
9
100
AcDbSymbolTableRecord
100
AcDbRegAppTableRecord
  2
ACAD_DSTYLE_DIMJOGGED_JOGANGLE_SYMBOL
 70
     0
  0
APPID
  5
3F5
330
9
100
AcDbSymbolTableRecord
100
AcDbRegAppTableRecord
  2
AcAecLayerStandard
 70
     0
  0
APPID
  5
47B
330
9
100
AcDbSymbolTableRecord
100
AcDbRegAppTableRecord
  2
GENIUS_GENDTOL_13
 70
     0
  0
ENDTAB
  0
TABLE
  2
DIMSTYLE
  5
A
330
0
100
AcDbSymbolTable
 70
     8
100
AcDbDimStyleTable
 71
     1
340
206
  0
DIMSTYLE
105
206
330
A
100
AcDbSymbolTableRecord
100
AcDbDimStyleTableRecord
  2
STANDARD
 70
     0
 41
0.1875
 47
0.05
 48
0.05
 78
     4
140
0.15625
271
     2
272
     2
284
     4
340
11
  0
DIMSTYLE
105
3D2
330
A
100
AcDbSymbolTableRecord
100
AcDbDimStyleTableRecord
  2
AM_ANSI
 70
     0
  4
mm
 41
0.1
 42
0.05
 43
0.5
 44
0.1
 47
0.1
 48
0.1
 78
     7
 79
     2
140
0.12
141
0.0
146
0.71
147
0.06
176
   256
177
   256
178
     2
274
     4
284
     7
340
11
371
    -1
372
    -1
1001
ACAD_DSTYLE_DIMARC_LENGTH_SYMBOL
1070
   379
1070
     1
1001
ACAD_DSTYLE_DIMJOGGED_JOGANGLE_SYMBOL
1070
   384
1040
0.7853981633974483
  0
DIMSTYLE
105
3DB
330
A
100
AcDbSymbolTableRecord
100
AcDbDimStyleTableRecord
  2
AM_ANSI$3
 70
     0
  4
mm
 41
0.1
 42
0.05
 43
0.5
 44
0.1
 47
0.1
 48
0.1
 78
     7
 79
     2
140
0.12
141
0.0
146
0.71
147
0.06
176
   256
177
   256
178
     2
274
     4
284
     7
288
     1
289
     0
340
11
371
    -1
372
    -1
1001
ACAD_DSTYLE_DIMARC_LENGTH_SYMBOL
1070
   379
1070
     1
1001
ACAD_DSTYLE_DIMJOGGED_JOGANGLE_SYMBOL
1070
   384
1040
0.7853981633974483
  0
DIMSTYLE
105
3DE
330
A
100
AcDbSymbolTableRecord
100
AcDbDimStyleTableRecord
  2
AM_ANSI$4
 70
     0
  4
mm
 41
0.1
 42
0.05
 43
0.5
 44
0.1
 47
0.1
 48
0.1
 78
     7
 79
     2
140
0.12
141
0.0
146
0.71
147
0.06
176
   256
177
   256
178
     2
274
     4
284
     7
288
     1
289
     0
340
11
371
    -1
372
    -1
1001
ACAD_DSTYLE_DIMARC_LENGTH_SYMBOL
1070
   379
1070
     1
1001
ACAD_DSTYLE_DIMJOGGED_JOGANGLE_SYMBOL
1070
   384
1040
0.7853981633974483
  0
DIMSTYLE
105
3E3
330
A
100
AcDbSymbolTableRecord
100
AcDbDimStyleTableRecord
  2
AM_ANSI$7
 70
     0
  4
mm
 41
0.1
 42
0.05
 43
0.5
 44
0.1
 47
0.1
 48
0.1
 78
     7
 79
     2
140
0.24
141
0.0
146
0.71
147
0.06
176
   256
177
   256
178
     2
274
     4
284
     7
340
11
371
    -1
372
    -1
1001
ACAD_DSTYLE_DIMARC_LENGTH_SYMBOL
1070
   379
1070
     1
1001
ACAD_DSTYLE_DIMJOGGED_JOGANGLE_SYMBOL
1070
   384
1040
0.7853981633974483
  0
DIMSTYLE
105
3E6
330
A
100
AcDbSymbolTableRecord
100
AcDbDimStyleTableRecord
  2
AM_ANSI$SF
 70
     0
  4
mm
 41
0.1
 42
0.05
 43
0.5
 44
0.1
 47
0.1
 48
0.1
 75
     1
 76
     1
 78
     7
 79
     2
140
0.12
141
0.0
146
0.71
147
0.06
176
   256
177
   256
178
     2
274
     4
284
     7
340
11
371
    -1
372
    -1
1001
ACAD_DSTYLE_DIMARC_LENGTH_SYMBOL
1070
   379
1070
     1
1001
ACAD_DSTYLE_DIMJOGGED_JOGANGLE_SYMBOL
1070
   384
1040
0.7853981633974483
  0
DIMSTYLE
105
3ED
330
A
100
AcDbSymbolTableRecord
100
AcDbDimStyleTableRecord
  2
AM_ANSI$SH
 70
     0
  4
mm
 41
0.1
 42
0.05
 43
0.5
 44
0.1
 47
0.1
 48
0.1
 75
     1
 76
     1
 78
     7
 79
     2
140
0.12
141
0.0
146
0.71
147
0.06
173
     1
176
   256
177
   256
178
     2
274
     4
284
     7
340
11
343
3E7
371
    -1
372
    -1
1001
ACAD_DSTYLE_DIMARC_LENGTH_SYMBOL
1070
   379
1070
     1
1001
ACAD_DSTYLE_DIMJOGGED_JOGANGLE_SYMBOL
1070
   384
1040
0.7853981633974483
  0
DIMSTYLE
105
408
102
{ACAD_REACTORS
330
40C
330
449
330
4AA
102
}
330
A
100
AcDbSymbolTableRecord
100
AcDbDimStyleTableRecord
  2
STANDARD$0
 70
     0
 41
0.1875
 47
0.05
 48
0.05
 78
     4
140
0.15625
271
     2
272
     2
284
     4
340
11
  0
ENDTAB
  0
TABLE
  2
BLOCK_RECORD
  5
1
330
0
100
AcDbSymbolTable
 70
     5
  0
BLOCK_RECORD
  5
204
330
1
100
AcDbSymbolTableRecord
100
AcDbBlockTableRecord
  2
*Model_Space
340
33C
  0
BLOCK_RECORD
  5
205
330
1
100
AcDbSymbolTableRecord
100
AcDbBlockTableRecord
  2
*Paper_Space
340
33D
  0
BLOCK_RECORD
  5
3E7
330
1
100
AcDbSymbolTableRecord
100
AcDbBlockTableRecord
  2
GENAXEH
340
0
  0
BLOCK_RECORD
  5
40E
330
1
100
AcDbSymbolTableRecord
100
AcDbBlockTableRecord
  2
*D2
340
0
  0
BLOCK_RECORD
  5
44A
330
1
100
AcDbSymbolTableRecord
100
AcDbBlockTableRecord
  2
*D3
340
0
  0
BLOCK_RECORD
  5
4AB
330
1
100
AcDbSymbolTableRecord
100
AcDbBlockTableRecord
  2
*D4
340
0
  0
ENDTAB
  0
ENDSEC
  0
SECTION
  2
BLOCKS
  0
BLOCK
  5
20
330
204
100
AcDbEntity
  8
0
100
AcDbBlockBegin
  2
*Model_Space
 70
     0
 10
0.0
 20
0.0
 30
0.0
  3
*Model_Space
  1

  0
ENDBLK
  5
21
330
204
100
AcDbEntity
  8
0
100
AcDbBlockEnd
  0
BLOCK
  5
1C
330
205
100
AcDbEntity
 67
     1
  8
0
100
AcDbBlockBegin
  2
*Paper_Space
 70
     0
 10
0.0
 20
0.0
 30
0.0
  3
*Paper_Space
  1

  0
ENDBLK
  5
1D
330
205
100
AcDbEntity
 67
     1
  8
0
100
AcDbBlockEnd
  0
BLOCK
  5
3E9
330
3E7
100
AcDbEntity
  8
0
100
AcDbBlockBegin
  2
GENAXEH
 70
     0
 10
0.0
 20
0.0
 30
0.0
  3
GENAXEH
  1

  0
LINE
  5
3E8
330
3E7
100
AcDbEntity
  8
0
100
AcDbLine
 10
-1.0
 20
0.0
 30
0.0
 11
1.0
 21
0.0
 31
0.0
  0
ENDBLK
  5
3EA
330
3E7
100
AcDbEntity
  8
0
100
AcDbBlockEnd
  0
BLOCK
  5
419
330
40E
100
AcDbEntity
  8
0
100
AcDbBlockBegin
  2
*D2
 70
     1
 10
0.0
 20
0.0
 30
0.0
  3
*D2
  1

  0
LINE
  5
431
330
40E
100
AcDbEntity
  8
AM_5
 62
     0
370
    -2
100
AcDbLine
 10
3.9424640325
 20
4.398617625799999
 30
0.0
 11
3.9424640325
 21
5.1420418541
 31
0.0
  0
LINE
  5
432
330
40E
100
AcDbEntity
  8
AM_5
 62
     0
370
    -2
100
AcDbLine
 10
5.2810467097
 20
4.398617625799999
 30
0.0
 11
5.2810467097
 21
5.1420418541
 31
0.0
  0
LINE
  5
433
330
40E
100
AcDbEntity
  8
AM_5
 62
     0
370
    -2
100
AcDbLine
 10
3.7549640325
 20
4.944041854099999
 30
0.0
 11
3.5674640325
 21
4.944041854099999
 31
0.0
  0
LINE
  5
434
330
40E
100
AcDbEntity
  8
AM_5
 62
     0
370
    -2
100
AcDbLine
 10
5.4685467097
 20
4.944041854099999
 30
0.0
 11
5.6560467097
 21
4.944041854099999
 31
0.0
  0
SOLID
  5
435
330
40E
100
AcDbEntity
  8
AM_5
 62
     0
100
AcDbTrace
 10
3.7549640325
 20
4.975291854099999
 30
0.0
 11
3.7549640325
 21
4.912791854099999
 31
0.0
 12
3.9424640325
 22
4.944041854099999
 32
0.0
 13
3.9424640325
 23
4.944041854099999
 33
0.0
  0
SOLID
  5
436
330
40E
100
AcDbEntity
  8
AM_5
 62
     0
100
AcDbTrace
 10
5.4685467097
 20
4.975291854099999
 30
0.0
 11
5.4685467097
 21
4.912791854099999
 31
0.0
 12
5.2810467097
 22
4.944041854099999
 32
0.0
 13
5.2810467097
 23
4.944041854099999
 33
0.0
  0
MTEXT
  5
437
330
40E
100
AcDbEntity
  8
AM_5
 62
     0
100
AcDbMText
 10
4.6117553711
 20
4.944041854099999
 30
0.0
 40
0.15625
 41
0.0
 71
     5
 72
     1
  1
\A1;1.34 [34.00]
 73
     1
 44
1.0
  0
POINT
  5
438
330
40E
100
AcDbEntity
  8
Defpoints
 62
     0
100
AcDbPoint
 10
3.9424640325
 20
4.329867625799999
 30
0.0
  0
POINT
  5
439
330
40E
100
AcDbEntity
  8
Defpoints
 62
     0
100
AcDbPoint
 10
5.2810467097
 20
4.329867625799999
 30
0.0
  0
POINT
  5
43A
330
40E
100
AcDbEntity
  8
Defpoints
 62
     0
100
AcDbPoint
 10
5.2810467097
 20
4.944041854099999
 30
0.0
  0
ENDBLK
  5
41A
330
40E
100
AcDbEntity
  8
0
100
AcDbBlockEnd
  0
BLOCK
  5
455
330
44A
100
AcDbEntity
  8
0
100
AcDbBlockBegin
  2
*D3
 70
     1
 10
0.0
 20
0.0
 30
0.0
  3
*D3
  1

  0
LINE
  5
490
330
44A
100
AcDbEntity
  8
AM_5
 62
     0
370
    -2
100
AcDbLine
 10
5.466832164210549
 20
4.444040854099999
 30
0.0
 11
6.096082164210549
 21
4.444040854099998
 31
0.0
  0
LINE
  5
491
330
44A
100
AcDbEntity
  8
AM_5
 62
     0
370
    -2
100
AcDbLine
 10
5.466832164210549
 20
3.113332192699999
 30
0.0
 11
6.096082164210549
 21
3.113332192699999
 31
0.0
  0
LINE
  5
492
330
44A
100
AcDbEntity
  8
AM_5
 62
     0
370
    -2
100
AcDbLine
 10
5.898082164210549
 20
4.256540854099999
 30
0.0
 11
5.898082164210549
 21
4.077019856733333
 31
0.0
  0
LINE
  5
493
330
44A
100
AcDbEntity
  8
AM_5
 62
     0
370
    -2
100
AcDbLine
 10
5.898082164210549
 20
3.300832192699999
 30
0.0
 11
5.898082164210549
 21
3.480353190066665
 31
0.0
  0
SOLID
  5
494
330
44A
100
AcDbEntity
  8
AM_5
 62
     0
100
AcDbTrace
 10
5.866832164210549
 20
4.256540854099999
 30
0.0
 11
5.929332164210549
 21
4.256540854099999
 31
0.0
 12
5.898082164210549
 22
4.444040854099999
 32
0.0
 13
5.898082164210549
 23
4.444040854099999
 33
0.0
  0
SOLID
  5
495
330
44A
100
AcDbEntity
  8
AM_5
 62
     0
100
AcDbTrace
 10
5.866832164210549
 20
3.300832192699999
 30
0.0
 11
5.929332164210549
 21
3.300832192699999
 31
0.0
 12
5.898082164210549
 22
3.113332192699999
 32
0.0
 13
5.898082164210549
 23
3.113332192699999
 33
0.0
  0
MTEXT
  5
496
330
44A
100
AcDbEntity
  8
AM_5
 62
     0
100
AcDbMText
 10
5.898082164210548
 20
3.7786865234
 30
0.0
 40
0.15625
 41
0.0
 71
     5
 72
     1
  1
\A1;1.33\P [33.80]
 73
     1
 44
1.0
  0
POINT
  5
497
330
44A
100
AcDbEntity
  8
Defpoints
 62
     0
100
AcDbPoint
 10
5.398082164210549
 20
4.444040854099999
 30
0.0
  0
POINT
  5
498
330
44A
100
AcDbEntity
  8
Defpoints
 62
     0
100
AcDbPoint
 10
5.398082164210549
 20
3.113332192699999
 30
0.0
  0
POINT
  5
499
330
44A
100
AcDbEntity
  8
Defpoints
 62
     0
100
AcDbPoint
 10
5.898082164210549
 20
3.113332192699999
 30
0.0
  0
ENDBLK
  5
456
330
44A
100
AcDbEntity
  8
0
100
AcDbBlockEnd
  0
BLOCK
  5
4B6
330
4AB
100
AcDbEntity
  8
0
100
AcDbBlockBegin
  2
*D4
 70
     1
 10
0.0
 20
0.0
 30
0.0
  3
*D4
  1

  0
LINE
  5
4D8
330
4AB
100
AcDbEntity
  8
AM_5
 62
     0
370
    -2
100
AcDbLine
 10
2.647849159499999
 20
2.103522725139542
 30
0.0
 11
3.277099159499999
 21
2.103522725139541
 31
0.0
  0
LINE
  5
4D9
330
4AB
100
AcDbEntity
  8
AM_5
 62
     0
370
    -2
100
AcDbLine
 10
2.647849159499999
 20
0.764940047939542
 30
0.0
 11
3.277099159499999
 21
0.7649400479395418
 31
0.0
  0
LINE
  5
4DA
330
4AB
100
AcDbEntity
  8
AM_5
 62
     0
370
    -2
100
AcDbLine
 10
3.079099159499999
 20
1.916022725139541
 30
0.0
 11
3.079099159499999
 21
1.732564719872875
 31
0.0
  0
LINE
  5
4DB
330
4AB
100
AcDbEntity
  8
AM_5
 62
     0
370
    -2
100
AcDbLine
 10
3.079099159499999
 20
0.9524400479395417
 30
0.0
 11
3.079099159499999
 21
1.135898053206208
 31
0.0
  0
SOLID
  5
4DC
330
4AB
100
AcDbEntity
  8
AM_5
 62
     0
100
AcDbTrace
 10
3.047849159499999
 20
1.916022725139541
 30
0.0
 11
3.110349159499999
 21
1.916022725139541
 31
0.0
 12
3.079099159499999
 22
2.103522725139541
 32
0.0
 13
3.079099159499999
 23
2.103522725139541
 33
0.0
  0
SOLID
  5
4DD
330
4AB
100
AcDbEntity
  8
AM_5
 62
     0
100
AcDbTrace
 10
3.047849159499999
 20
0.9524400479395417
 30
0.0
 11
3.110349159499999
 21
0.9524400479395417
 31
0.0
 12
3.079099159499999
 22
0.7649400479395419
 32
0.0
 13
3.079099159499999
 23
0.7649400479395419
 33
0.0
  0
MTEXT
  5
4DE
330
4AB
100
AcDbEntity
  8
AM_5
 62
     0
100
AcDbMText
 10
3.079099159499999
 20
1.434231386539542
 30
0.0
 40
0.15625
 41
0.0
 71
     5
 72
     1
  1
\A1;1.34\P [34.00]
 73
     1
 44
1.0
  0
POINT
  5
4DF
330
4AB
100
AcDbEntity
  8
Defpoints
 62
     0
100
AcDbPoint
 10
2.579099159499999
 20
2.103522725139542
 30
0.0
  0
POINT
  5
4E0
330
4AB
100
AcDbEntity
  8
Defpoints
 62
     0
100
AcDbPoint
 10
2.579099159499999
 20
0.764940047939542
 30
0.0
  0
POINT
  5
4E1
330
4AB
100
AcDbEntity
  8
Defpoints
 62
     0
100
AcDbPoint
 10
3.079099159499999
 20
0.7649400479395419
 30
0.0
  0
ENDBLK
  5
4B7
330
4AB
100
AcDbEntity
  8
0
100
AcDbBlockEnd
  0
ENDSEC
  0
SECTION
  2
ENTITIES
  0
LINE
  5
207
330
204
100
AcDbEntity
  8
0
  6
Continuous
 62
     7
100
AcDbLine
 10
0.0
 20
0.0
 30
0.0
 11
0.0
 21
8.5
 31
0.0
  0
LINE
  5
208
330
204
100
AcDbEntity
  8
0
  6
Continuous
 62
     7
100
AcDbLine
 10
0.0
 20
0.0
 30
0.0
 11
11.0
 21
0.0
 31
0.0
  0
LINE
  5
209
330
204
100
AcDbEntity
  8
0
  6
Continuous
 62
     7
100
AcDbLine
 10
0.0
 20
8.5
 30
0.0
 11
11.0
 21
8.5
 31
0.0
  0
LINE
  5
20A
330
204
100
AcDbEntity
  8
0
  6
Continuous
 62
     7
100
AcDbLine
 10
11.0
 20
0.0
 30
0.0
 11
11.0
 21
8.5
 31
0.0
  0
LINE
  5
20B
330
204
100
AcDbEntity
  8
0
  6
Continuous
 62
     7
100
AcDbLine
 10
7.140642484299999
 20
6.1280803586
 30
0.0
 11
7.140642484299999
 21
5.4465901522
 31
0.0
  0
LINE
  5
20C
330
204
100
AcDbEntity
  8
0
  6
Continuous
 62
     7
100
AcDbLine
 10
7.2380788638
 20
6.100757899299999
 30
0.0
 11
7.2380788638
 21
6.071826711299999
 31
0.0
  0
LINE
  5
20D
330
204
100
AcDbEntity
  8
0
  6
Continuous
 62
     7
100
AcDbLine
 10
7.2380788638
 20
5.3903365049
 30
0.0
 11
7.2380788638
 21
5.210320224
 31
0.0
  0
LINE
  5
20E
330
204
100
AcDbEntity
  8
0
  6
Continuous
 62
     7
100
AcDbLine
 10
7.140642484299999
 20
6.1280803586
 30
0.0
 11
7.172657028099999
 21
6.1465638538
 31
0.0
  0
LINE
  5
20F
330
204
100
AcDbEntity
  8
0
  6
Continuous
 62
     7
100
AcDbLine
 10
7.387015277999999
 20
6.2703229083
 30
0.0
 11
7.414854011799999
 21
6.286395512799999
 31
0.0
  0
LINE
  5
210
330
204
100
AcDbEntity
  8
0
  6
Continuous
 62
     7
100
AcDbLine
 10
7.629212261599999
 20
6.4101545673
 30
0.0
 11
7.657050995399999
 21
6.426227171799999
 31
0.0
  0
LINE
  5
211
330
204
100
AcDbEntity
  8
0
  6
Continuous
 62
     7
100
AcDbLine
 10
7.871409245199999
 20
6.549986226299999
 30
0.0
 11
7.899247979
 21
6.5660588308
 31
0.0
  0
LINE
  5
212
330
204
100
AcDbEntity
  8
0
  6
Continuous
 62
     7
100
AcDbLine
 10
8.1136062289
 20
6.6898178853
 30
0.0
 11
8.145620772699999
 21
6.7083013804
 31
0.0
  0
LINE
  5
213
330
204
100
AcDbEntity
  8
0
  6
Continuous
 62
     7
100
AcDbLine
 10
7.2380788638
 20
5.210320224
 30
0.0
 11
7.989730933799999
 21
4.7763635164
 31
0.0
  0
LINE
  5
214
330
204
100
AcDbEntity
  8
0
  6
Continuous
 62
     7
100
AcDbLine
 10
7.3586835844
 20
5.1406906313
 30
0.0
 11
7.3586835844
 21
5.031912638899999
 31
0.0
  0
LINE
  5
215
330
204
100
AcDbEntity
  8
0
  6
Continuous
 62
     7
100
AcDbLine
 10
7.387015277999999
 20
6.2703229083
 30
0.0
 11
7.387015277999999
 21
6.251037393799999
 31
0.0
  0
LINE
  5
216
330
204
100
AcDbEntity
  8
0
  6
Continuous
 62
     7
100
AcDbLine
 10
7.2937563313
 20
6.197194637199999
 30
0.0
 11
8.187379684599999
 21
6.7131252411
 31
0.0
  0
LINE
  5
217
330
204
100
AcDbEntity
  8
0
  6
Continuous
 62
     7
100
AcDbLine
 10
7.140642484299999
 20
5.4465901522
 30
0.0
 11
7.2380788638
 21
5.3903365049
 31
0.0
  0
LINE
  5
218
330
204
100
AcDbEntity
  8
0
  6
Continuous
 62
     7
100
AcDbLine
 10
7.989730933799999
 20
4.9563797973
 30
0.0
 11
8.0871673133
 21
4.9001261501
 31
0.0
  0
LINE
  5
219
330
204
100
AcDbEntity
  8
0
  6
Continuous
 62
     7
100
AcDbLine
 10
7.457108781199999
 20
5.031912638899999
 30
0.0
 11
7.457108781199999
 21
5.083866103
 31
0.0
  0
LINE
  5
21A
330
204
100
AcDbEntity
  8
0
  6
Continuous
 62
     7
100
AcDbLine
 10
7.629212261599999
 20
6.4101545673
 30
0.0
 11
7.629212261599999
 21
6.390869052799999
 31
0.0
  0
LINE
  5
21B
330
204
100
AcDbEntity
  8
0
  6
Continuous
 62
     7
100
AcDbLine
 10
8.236103727499999
 20
5.098622347
 30
0.0
 11
8.333540107000001
 21
5.042368699699999
 31
0.0
  0
LINE
  5
21C
330
204
100
AcDbEntity
  8
0
  6
Continuous
 62
     7
100
AcDbLine
 10
7.871409245199999
 20
6.549986226299999
 30
0.0
 11
7.871409245199999
 21
6.530700711799999
 31
0.0
  0
LINE
  5
21D
330
204
100
AcDbEntity
  8
0
  6
Continuous
 62
     7
100
AcDbLine
 10
8.1470197795
 20
5.5068744444
 30
0.0
 11
8.236103727499999
 21
5.52685735
 31
0.0
  0
LINE
  5
21E
330
204
100
AcDbEntity
  8
0
  6
Continuous
 62
     7
100
AcDbLine
 10
8.478300711099999
 20
5.238454006
 30
0.0
 11
8.575737090599998
 21
5.1822003587
 31
0.0
  0
LINE
  5
21F
330
204
100
AcDbEntity
  8
0
  6
Continuous
 62
     7
100
AcDbLine
 10
8.1191818571
 20
5.487583337799999
 30
0.0
 11
8.236103727499999
 21
5.420079991599999
 31
0.0
  0
LINE
  5
220
330
204
100
AcDbEntity
  8
0
  6
Continuous
 62
     7
100
AcDbLine
 10
7.989730933799999
 20
4.7763635164
 30
0.0
 11
7.989730933799999
 21
4.9563797973
 31
0.0
  0
LINE
  5
221
330
204
100
AcDbEntity
  8
0
  6
Continuous
 62
     7
100
AcDbLine
 10
7.989730933799999
 20
5.637870003799999
 30
0.0
 11
7.989730933799999
 21
5.666801191799999
 31
0.0
  0
LINE
  5
222
330
204
100
AcDbEntity
  8
0
  6
Continuous
 62
     7
100
AcDbLine
 10
8.0871673133
 20
5.581616356499999
 30
0.0
 11
7.989730933799999
 21
5.637870003799999
 31
0.0
  0
LINE
  5
223
330
204
100
AcDbEntity
  8
0
  6
Continuous
 62
     7
100
AcDbLine
 10
7.2380788638
 20
6.071826711299999
 30
0.0
 11
7.140642484299999
 21
6.1280803586
 31
0.0
  0
LINE
  5
224
330
204
100
AcDbEntity
  8
0
  6
Continuous
 62
     7
100
AcDbLine
 10
7.2380788638
 20
6.100757899299999
 30
0.0
 11
7.989730933799999
 21
5.666801191799999
 31
0.0
  0
LINE
  5
225
330
204
100
AcDbEntity
  8
0
  6
Continuous
 62
     7
100
AcDbLine
 10
7.172657028099999
 20
6.1465638538
 30
0.0
 11
7.238786701599999
 21
6.108384732699999
 31
0.0
  0
LINE
  5
226
330
204
100
AcDbEntity
  8
0
  6
Continuous
 62
     7
100
AcDbLine
 10
8.021745477599999
 20
5.656353498899999
 30
0.0
 11
8.1191818571
 21
5.600099851599999
 31
0.0
  0
LINE
  5
227
330
204
100
AcDbEntity
  8
0
  6
Continuous
 62
     7
100
AcDbLine
 10
8.0871673133
 20
4.9001261501
 30
0.0
 11
8.0871673133
 21
5.581616356499999
 31
0.0
  0
LINE
  5
228
330
204
100
AcDbEntity
  8
0
  6
Continuous
 62
     7
100
AcDbLine
 10
8.1136062289
 20
6.6898178853
 30
0.0
 11
8.1136062289
 21
6.6705323708
 31
0.0
  0
LINE
  5
229
330
204
100
AcDbEntity
  8
0
  6
Continuous
 62
     7
100
AcDbLine
 10
8.1191818571
 20
5.600099851599999
 30
0.0
 11
8.1191818571
 21
4.9186096452
 31
0.0
  0
LINE
  5
22A
330
204
100
AcDbEntity
  8
0
  6
Continuous
 62
     7
100
AcDbLine
 10
8.9390317547
 20
6.2791685336
 30
0.0
 11
8.045408401299999
 21
5.7632379297
 31
0.0
  0
LINE
  5
22B
330
204
100
AcDbEntity
  8
0
  6
Continuous
 62
     7
100
AcDbLine
 10
8.873610730299999
 20
5.926369421399999
 30
0.0
 11
8.9626946783
 21
5.946352327
 31
0.0
  0
LINE
  5
22C
330
204
100
AcDbEntity
  8
0
  6
Continuous
 62
     7
100
AcDbLine
 10
8.045408401299999
 20
5.7632379297
 30
0.0
 11
7.900389805399999
 21
5.846962561
 31
0.0
  0
LINE
  5
22D
330
204
100
AcDbEntity
  8
0
  6
Continuous
 62
     7
100
AcDbLine
 10
7.817384858799999
 20
5.8948844051
 30
0.0
 11
7.521779873799999
 21
6.065548161799999
 31
0.0
  0
LINE
  5
22E
330
204
100
AcDbEntity
  8
0
  6
Continuous
 62
     7
100
AcDbLine
 10
7.438774927199999
 20
6.1134700059
 30
0.0
 11
7.2937563313
 21
6.197194637199999
 31
0.0
  0
LINE
  5
22F
330
204
100
AcDbEntity
  8
0
  6
Continuous
 62
     7
100
AcDbLine
 10
8.7204976947
 20
5.378285664999999
 30
0.0
 11
8.8179340742
 21
5.322032017799999
 31
0.0
  0
LINE
  5
230
330
204
100
AcDbEntity
  8
0
  6
Continuous
 62
     7
100
AcDbLine
 10
8.9947092221
 20
6.218091025599999
 30
0.0
 11
8.9626946783
 21
6.199607530499999
 31
0.0
  0
LINE
  5
231
330
204
100
AcDbEntity
  8
0
  6
Continuous
 62
     7
100
AcDbLine
 10
8.7483364285
 20
6.075848475899999
 30
0.0
 11
8.7204976947
 21
6.059775871499999
 31
0.0
  0
LINE
  5
232
330
204
100
AcDbEntity
  8
0
  6
Continuous
 62
     7
100
AcDbLine
 10
8.5061394449
 20
5.9360168169
 30
0.0
 11
8.478300711099999
 21
5.919944212399999
 31
0.0
  0
LINE
  5
233
330
204
100
AcDbEntity
  8
0
  6
Continuous
 62
     7
100
AcDbLine
 10
8.263942461199999
 20
5.796185157899999
 30
0.0
 11
8.236103727499999
 21
5.7801125534
 31
0.0
  0
LINE
  5
234
330
204
100
AcDbEntity
  8
0
  6
Continuous
 62
     7
100
AcDbLine
 10
8.021745477599999
 20
5.656353498899999
 30
0.0
 11
7.989730933799999
 21
5.637870003799999
 31
0.0
  0
LINE
  5
235
330
204
100
AcDbEntity
  8
0
  6
Continuous
 62
     7
100
AcDbLine
 10
8.333540107000001
 20
5.7238589062
 30
0.0
 11
8.236103727499999
 21
5.7801125534
 31
0.0
  0
LINE
  5
236
330
204
100
AcDbEntity
  8
0
  6
Continuous
 62
     7
100
AcDbLine
 10
7.4037172622
 20
6.2606802313
 30
0.0
 11
7.387015277999999
 21
6.2703229083
 31
0.0
  0
LINE
  5
237
330
204
100
AcDbEntity
  8
0
  6
Continuous
 62
     7
100
AcDbLine
 10
8.236103727499999
 20
5.7801125534
 30
0.0
 11
8.236103727499999
 21
5.52685735
 31
0.0
  0
LINE
  5
238
330
204
100
AcDbEntity
  8
0
  6
Continuous
 62
     7
100
AcDbLine
 10
8.236103727499999
 20
5.420079991599999
 30
0.0
 11
8.236103727499999
 21
5.098622347
 31
0.0
  0
LINE
  5
239
330
204
100
AcDbEntity
  8
0
  6
Continuous
 62
     7
100
AcDbLine
 10
8.0871673133
 20
5.581616356499999
 30
0.0
 11
8.1191818571
 21
5.600099851599999
 31
0.0
  0
LINE
  5
23A
330
204
100
AcDbEntity
  8
0
  6
Continuous
 62
     7
100
AcDbLine
 10
8.333540107000001
 20
5.7238589062
 30
0.0
 11
8.3613788407
 21
5.7399315107
 31
0.0
  0
LINE
  5
23B
330
204
100
AcDbEntity
  8
0
  6
Continuous
 62
     7
100
AcDbLine
 10
8.575737090599998
 20
5.863690565199999
 30
0.0
 11
8.6035758243
 21
5.8797631697
 31
0.0
  0
LINE
  5
23C
330
204
100
AcDbEntity
  8
0
  6
Continuous
 62
     7
100
AcDbLine
 10
8.8179340742
 20
6.003522224199999
 30
0.0
 11
8.845772807899999
 21
6.019594828699999
 31
0.0
  0
LINE
  5
23D
330
204
100
AcDbEntity
  8
0
  6
Continuous
 62
     7
100
AcDbLine
 10
9.060131057799999
 20
6.1433538832
 30
0.0
 11
9.0921456016
 21
6.1618373783
 31
0.0
  0
LINE
  5
23E
330
204
100
AcDbEntity
  8
0
  6
Continuous
 62
     7
100
AcDbLine
 10
7.414854011799999
 20
6.286395512799999
 30
0.0
 11
7.431555996
 21
6.276752835799999
 31
0.0
  0
LINE
  5
23F
330
204
100
AcDbEntity
  8
0
  6
Continuous
 62
     7
100
AcDbLine
 10
8.263942461199999
 20
5.796185157899999
 30
0.0
 11
8.3613788407
 21
5.7399315107
 31
0.0
  0
LINE
  5
240
330
204
100
AcDbEntity
  8
0
  6
Continuous
 62
     7
100
AcDbLine
 10
8.333540107000001
 20
5.042368699699999
 30
0.0
 11
8.333540107000001
 21
5.7238589062
 31
0.0
  0
LINE
  5
241
330
204
100
AcDbEntity
  8
0
  6
Continuous
 62
     7
100
AcDbLine
 10
8.3613788407
 20
5.7399315107
 30
0.0
 11
8.3613788407
 21
5.0584413042
 31
0.0
  0
LINE
  5
242
330
204
100
AcDbEntity
  8
0
  6
Continuous
 62
     7
100
AcDbLine
 10
8.873610730299999
 20
5.926369421399999
 30
0.0
 11
8.845772807899999
 21
5.910297285299999
 31
0.0
  0
LINE
  5
243
330
204
100
AcDbEntity
  8
0
  6
Continuous
 62
     7
100
AcDbLine
 10
8.1470197795
 20
5.5068744444
 30
0.0
 11
8.1191818571
 21
5.4908023083
 31
0.0
  0
LINE
  5
244
330
204
100
AcDbEntity
  8
0
  6
Continuous
 62
     7
100
AcDbLine
 10
8.9626946783
 20
5.518117323999999
 30
0.0
 11
9.060131057799999
 21
5.461863676799999
 31
0.0
  0
LINE
  5
245
330
204
100
AcDbEntity
  8
0
  6
Continuous
 62
     7
100
AcDbLine
 10
8.478300711099999
 20
5.919944212399999
 30
0.0
 11
8.478300711099999
 21
5.238454006
 31
0.0
  0
LINE
  5
246
330
204
100
AcDbEntity
  8
0
  6
Continuous
 62
     7
100
AcDbLine
 10
8.1191818571
 20
5.3525755211
 30
0.0
 11
8.236103727499999
 21
5.420079991599999
 31
0.0
  0
LINE
  5
247
330
204
100
AcDbEntity
  8
0
  6
Continuous
 62
     7
100
AcDbLine
 10
8.845772807899999
 20
5.7720704982
 30
0.0
 11
8.9626946783
 21
5.8395749686
 31
0.0
  0
LINE
  5
248
330
204
100
AcDbEntity
  8
0
  6
Continuous
 62
     7
100
AcDbLine
 10
8.575737090599998
 20
5.863690565199999
 30
0.0
 11
8.478300711099999
 21
5.919944212399999
 31
0.0
  0
LINE
  5
249
330
204
100
AcDbEntity
  8
0
  6
Continuous
 62
     7
100
AcDbLine
 10
7.6459142459
 20
6.400511890299999
 30
0.0
 11
7.629212261599999
 21
6.4101545673
 31
0.0
  0
LINE
  5
24A
330
204
100
AcDbEntity
  8
0
  6
Continuous
 62
     7
100
AcDbLine
 10
7.657050995399999
 20
6.426227171799999
 30
0.0
 11
7.6737529796
 21
6.4165844948
 31
0.0
  0
LINE
  5
24B
330
204
100
AcDbEntity
  8
0
  6
Continuous
 62
     7
100
AcDbLine
 10
8.5061394449
 20
5.9360168169
 30
0.0
 11
8.6035758243
 21
5.8797631697
 31
0.0
  0
LINE
  5
24C
330
204
100
AcDbEntity
  8
0
  6
Continuous
 62
     7
100
AcDbLine
 10
8.575737090599998
 20
5.1822003587
 30
0.0
 11
8.575737090599998
 21
5.863690565199999
 31
0.0
  0
LINE
  5
24D
330
204
100
AcDbEntity
  8
0
  6
Continuous
 62
     7
100
AcDbLine
 10
8.6035758243
 20
5.8797631697
 30
0.0
 11
8.6035758243
 21
5.198272963199999
 31
0.0
  0
LINE
  5
24E
330
204
100
AcDbEntity
  8
0
  6
Continuous
 62
     7
100
AcDbLine
 10
8.845772807899999
 20
5.9070783148
 30
0.0
 11
8.9626946783
 21
5.8395749686
 31
0.0
  0
LINE
  5
24F
330
204
100
AcDbEntity
  8
0
  6
Continuous
 62
     7
100
AcDbLine
 10
8.7204976947
 20
6.059775871499999
 30
0.0
 11
8.7204976947
 21
5.378285664999999
 31
0.0
  0
LINE
  5
250
330
204
100
AcDbEntity
  8
0
  6
Continuous
 62
     7
100
AcDbLine
 10
8.8179340742
 20
6.003522224199999
 30
0.0
 11
8.7204976947
 21
6.059775871499999
 31
0.0
  0
LINE
  5
251
330
204
100
AcDbEntity
  8
0
  6
Continuous
 62
     7
100
AcDbLine
 10
7.8881112295
 20
6.540343549299999
 30
0.0
 11
7.871409245199999
 21
6.549986226299999
 31
0.0
  0
LINE
  5
252
330
204
100
AcDbEntity
  8
0
  6
Continuous
 62
     7
100
AcDbLine
 10
7.899247979
 20
6.5660588308
 30
0.0
 11
7.9159499632
 21
6.556416153799999
 31
0.0
  0
LINE
  5
253
330
204
100
AcDbEntity
  8
0
  6
Continuous
 62
     7
100
AcDbLine
 10
8.7483364285
 20
6.075848475899999
 30
0.0
 11
8.845772807899999
 21
6.019594828699999
 31
0.0
  0
LINE
  5
254
330
204
100
AcDbEntity
  8
0
  6
Continuous
 62
     7
100
AcDbLine
 10
8.8179340742
 20
5.322032017799999
 30
0.0
 11
8.8179340742
 21
6.003522224199999
 31
0.0
  0
LINE
  5
255
330
204
100
AcDbEntity
  8
0
  6
Continuous
 62
     7
100
AcDbLine
 10
8.845772807899999
 20
6.019594828699999
 30
0.0
 11
8.845772807899999
 21
5.3381046222
 31
0.0
  0
LINE
  5
256
330
204
100
AcDbEntity
  8
0
  6
Continuous
 62
     7
100
AcDbLine
 10
8.0871673133
 20
4.9001261501
 30
0.0
 11
8.1191818571
 21
4.9186096452
 31
0.0
  0
LINE
  5
257
330
204
100
AcDbEntity
  8
0
  6
Continuous
 62
     7
100
AcDbLine
 10
8.333540107000001
 20
5.042368699699999
 30
0.0
 11
8.3613788407
 21
5.0584413042
 31
0.0
  0
LINE
  5
258
330
204
100
AcDbEntity
  8
0
  6
Continuous
 62
     7
100
AcDbLine
 10
8.575737090599998
 20
5.1822003587
 30
0.0
 11
8.6035758243
 21
5.198272963199999
 31
0.0
  0
LINE
  5
259
330
204
100
AcDbEntity
  8
0
  6
Continuous
 62
     7
100
AcDbLine
 10
8.8179340742
 20
5.322032017799999
 30
0.0
 11
8.845772807899999
 21
5.3381046222
 31
0.0
  0
LINE
  5
25A
330
204
100
AcDbEntity
  8
0
  6
Continuous
 62
     7
100
AcDbLine
 10
9.060131057799999
 20
5.461863676799999
 30
0.0
 11
9.0921456016
 21
5.4803471719
 31
0.0
  0
LINE
  5
25B
330
204
100
AcDbEntity
  8
0
  6
Continuous
 62
     7
100
AcDbLine
 10
7.989730933799999
 20
4.7763635164
 30
0.0
 11
8.9947092221
 21
5.356584538199999
 31
0.0
  0
LINE
  5
25C
330
204
100
AcDbEntity
  8
0
  6
Continuous
 62
     7
100
AcDbLine
 10
9.060131057799999
 20
6.1433538832
 30
0.0
 11
8.9626946783
 21
6.199607530499999
 31
0.0
  0
LINE
  5
25D
330
204
100
AcDbEntity
  8
0
  6
Continuous
 62
     7
100
AcDbLine
 10
8.130308213099999
 20
6.6801752083
 30
0.0
 11
8.1136062289
 21
6.6898178853
 31
0.0
  0
LINE
  5
25E
330
204
100
AcDbEntity
  8
0
  6
Continuous
 62
     7
100
AcDbLine
 10
8.9626946783
 20
6.199607530499999
 30
0.0
 11
8.9626946783
 21
5.946352327
 31
0.0
  0
LINE
  5
25F
330
204
100
AcDbEntity
  8
0
  6
Continuous
 62
     7
100
AcDbLine
 10
8.9626946783
 20
5.8395749686
 30
0.0
 11
8.9626946783
 21
5.518117323999999
 31
0.0
  0
LINE
  5
260
330
204
100
AcDbEntity
  8
0
  6
Continuous
 62
     7
100
AcDbLine
 10
8.9947092221
 20
6.2470222136
 30
0.0
 11
8.9947092221
 21
6.218091025599999
 31
0.0
  0
LINE
  5
261
330
204
100
AcDbEntity
  8
0
  6
Continuous
 62
     7
100
AcDbLine
 10
8.9947092221
 20
5.499634136699999
 30
0.0
 11
8.9947092221
 21
5.356584538199999
 31
0.0
  0
LINE
  5
262
330
204
100
AcDbEntity
  8
0
  6
Continuous
 62
     7
100
AcDbLine
 10
8.145620772699999
 20
6.7083013804
 30
0.0
 11
8.1623227569
 21
6.6986587035
 31
0.0
  0
LINE
  5
263
330
204
100
AcDbEntity
  8
0
  6
Continuous
 62
     7
100
AcDbLine
 10
8.9947092221
 20
6.218091025599999
 30
0.0
 11
9.0921456016
 21
6.1618373783
 31
0.0
  0
LINE
  5
264
330
204
100
AcDbEntity
  8
0
  6
Continuous
 62
     7
100
AcDbLine
 10
8.187379684599999
 20
6.7131252411
 30
0.0
 11
8.332398280599999
 21
6.6294006098
 31
0.0
  0
LINE
  5
265
330
204
100
AcDbEntity
  8
0
  6
Continuous
 62
     7
100
AcDbLine
 10
8.4154032271
 20
6.5814787657
 30
0.0
 11
8.711008212199999
 21
6.410815008999999
 31
0.0
  0
LINE
  5
266
330
204
100
AcDbEntity
  8
0
  6
Continuous
 62
     7
100
AcDbLine
 10
8.7940131587
 20
6.3628931649
 30
0.0
 11
8.9390317547
 21
6.2791685336
 31
0.0
  0
LINE
  5
267
330
204
100
AcDbEntity
  8
0
  6
Continuous
 62
     7
100
AcDbLine
 10
8.978401165399999
 20
6.283068367
 30
0.0
 11
8.226749095399998
 21
6.7170250745
 31
0.0
  0
LINE
  5
268
330
204
100
AcDbEntity
  8
0
  6
Continuous
 62
     7
100
AcDbLine
 10
9.060131057799999
 20
5.461863676799999
 30
0.0
 11
9.060131057799999
 21
6.1433538832
 31
0.0
  0
LINE
  5
269
330
204
100
AcDbEntity
  8
0
  6
Continuous
 62
     7
100
AcDbLine
 10
9.0921456016
 20
6.1618373783
 30
0.0
 11
9.0921456016
 21
5.4803471719
 31
0.0
  0
LINE
  5
26A
330
204
100
AcDbEntity
  8
0
  6
Continuous
 62
     7
100
AcDbLine
 10
3.9424640325
 20
4.329867625799999
 30
0.0
 11
3.9424640325
 21
3.495221956499999
 31
0.0
  0
LINE
  5
26B
330
204
100
AcDbEntity
  8
0
  6
Continuous
 62
     7
100
AcDbLine
 10
4.9956136388
 20
3.113332192699999
 30
0.0
 11
4.897188442
 21
3.113332192699999
 31
0.0
  0
LINE
  5
26C
330
204
100
AcDbEntity
  8
0
  6
Continuous
 62
     7
100
AcDbLine
 10
4.3263223002
 20
3.113332192699999
 30
0.0
 11
4.208212063999999
 21
3.113332192699999
 31
0.0
  0
LINE
  5
26D
330
204
100
AcDbEntity
  8
0
  6
Continuous
 62
     7
100
AcDbLine
 10
4.080259308099999
 20
3.495221956499999
 30
0.0
 11
4.080259308099999
 21
3.274749515599999
 31
0.0
  0
LINE
  5
26E
330
204
100
AcDbEntity
  8
0
  6
Continuous
 62
     7
100
AcDbLine
 10
4.080259308099999
 20
4.329867625799999
 30
0.0
 11
4.080259308099999
 21
4.444040854099999
 31
0.0
  0
LINE
  5
26F
330
204
100
AcDbEntity
  8
0
  6
Continuous
 62
     7
100
AcDbLine
 10
4.080259308099999
 20
3.274749515599999
 30
0.0
 11
5.1432514341
 21
3.274749515599999
 31
0.0
  0
LINE
  5
270
330
204
100
AcDbEntity
  8
0
  6
Continuous
 62
     7
100
AcDbLine
 10
4.208212063999999
 20
3.274749515599999
 30
0.0
 11
4.208212063999999
 21
3.113332192699999
 31
0.0
  0
LINE
  5
271
330
204
100
AcDbEntity
  8
0
  6
Continuous
 62
     7
100
AcDbLine
 10
4.306637260899999
 20
3.274749515599999
 30
0.0
 11
4.306637260899999
 21
3.113332192699999
 31
0.0
  0
LINE
  5
272
330
204
100
AcDbEntity
  8
0
  6
Continuous
 62
     7
100
AcDbLine
 10
4.3263223002
 20
3.274749515599999
 30
0.0
 11
4.3263223002
 21
3.113332192699999
 31
0.0
  0
LINE
  5
273
330
204
100
AcDbEntity
  8
0
  6
Continuous
 62
     7
100
AcDbLine
 10
3.9424640325
 20
3.495221956499999
 30
0.0
 11
4.080259308099999
 21
3.495221956499999
 31
0.0
  0
LINE
  5
274
330
204
100
AcDbEntity
  8
0
  6
Continuous
 62
     7
100
AcDbLine
 10
5.1432514341
 20
3.495221956499999
 30
0.0
 11
5.2810467097
 21
3.495221956499999
 31
0.0
  0
LINE
  5
275
330
204
100
AcDbEntity
  8
0
  6
Continuous
 62
     7
100
AcDbLine
 10
4.897188442
 20
3.274749515599999
 30
0.0
 11
4.897188442
 21
3.113332192699999
 31
0.0
  0
LINE
  5
276
330
204
100
AcDbEntity
  8
0
  6
Continuous
 62
     7
100
AcDbLine
 10
4.9956136388
 20
3.274749515599999
 30
0.0
 11
4.9956136388
 21
3.113332192699999
 31
0.0
  0
LINE
  5
277
330
204
100
AcDbEntity
  8
0
  6
Continuous
 62
     7
100
AcDbLine
 10
5.1432514341
 20
3.274749515599999
 30
0.0
 11
5.1432514341
 21
3.495221956499999
 31
0.0
  0
LINE
  5
278
330
204
100
AcDbEntity
  8
0
  6
Continuous
 62
     7
100
AcDbLine
 10
5.1432514341
 20
4.329867625799999
 30
0.0
 11
5.1432514341
 21
4.444040854099999
 31
0.0
  0
LINE
  5
279
330
204
100
AcDbEntity
  8
0
  6
Continuous
 62
     7
100
AcDbLine
 10
5.2810467097
 20
4.329867625799999
 30
0.0
 11
5.1432514341
 21
4.329867625799999
 31
0.0
  0
LINE
  5
27A
102
{ACAD_REACTORS
330
41C
102
}
330
204
100
AcDbEntity
  8
0
  6
Continuous
 62
     7
100
AcDbLine
 10
4.080259308099999
 20
4.329867625799999
 30
0.0
 11
3.9424640325
 21
4.329867625799999
 31
0.0
  0
LINE
  5
27B
330
204
100
AcDbEntity
  8
0
  6
Continuous
 62
     7
100
AcDbLine
 10
4.080259308099999
 20
4.3653006967
 30
0.0
 11
5.1432514341
 21
4.3653006967
 31
0.0
  0
LINE
  5
27C
102
{ACAD_REACTORS
330
41C
102
}
330
204
100
AcDbEntity
  8
0
  6
Continuous
 62
     7
100
AcDbLine
 10
5.2810467097
 20
3.495221956499999
 30
0.0
 11
5.2810467097
 21
4.329867625799999
 31
0.0
  0
LINE
  5
27D
330
204
100
AcDbEntity
  8
0
  6
Continuous
 62
     7
100
AcDbLine
 10
4.080259308099999
 20
4.444040854099999
 30
0.0
 11
5.1432514341
 21
4.444040854099999
 31
0.0
  0
LINE
  5
27E
330
204
100
AcDbEntity
  8
0
  6
Continuous
 62
     7
100
AcDbLine
 10
1.157839317
 20
3.274749515599999
 30
0.0
 11
1.157839317
 21
4.3653006967
 31
0.0
  0
LINE
  5
27F
330
204
100
AcDbEntity
  8
0
  6
Continuous
 62
     7
100
AcDbLine
 10
1.2031149076
 20
4.329867625799999
 30
0.0
 11
1.2031149076
 21
3.495221956499999
 31
0.0
  0
LINE
  5
280
330
204
100
AcDbEntity
  8
0
  6
Continuous
 62
     7
100
AcDbLine
 10
2.56531935
 20
3.113332192699999
 30
0.0
 11
2.4668947172
 21
3.113332192699999
 31
0.0
  0
LINE
  5
281
330
204
100
AcDbEntity
  8
0
  6
Continuous
 62
     7
100
AcDbLine
 10
1.3409099011
 20
3.113332192699999
 30
0.0
 11
1.2424852683
 21
3.113332192699999
 31
0.0
  0
LINE
  5
282
330
204
100
AcDbEntity
  8
0
  6
Continuous
 62
     7
100
AcDbLine
 10
1.2424849863
 20
3.274749515599999
 30
0.0
 11
1.2424849863
 21
3.113332192699999
 31
0.0
  0
LINE
  5
283
330
204
100
AcDbEntity
  8
0
  6
Continuous
 62
     7
100
AcDbLine
 10
1.2916975847
 20
4.0467792735
 30
0.0
 11
1.2916975847
 21
3.888922743899999
 31
0.0
  0
LINE
  5
284
330
204
100
AcDbEntity
  8
0
  6
Continuous
 62
     7
100
AcDbLine
 10
1.340910183199999
 20
3.113332192699999
 30
0.0
 11
1.340910183199999
 21
3.274749515599999
 31
0.0
  0
LINE
  5
285
330
204
100
AcDbEntity
  8
0
  6
Continuous
 62
     7
100
AcDbLine
 10
1.417681836699999
 20
3.888922743899999
 30
0.0
 11
1.417681836699999
 21
4.0467792735
 31
0.0
  0
LINE
  5
286
330
204
100
AcDbEntity
  8
0
  6
Continuous
 62
     7
100
AcDbLine
 10
2.579099159499999
 20
3.274749515599999
 30
0.0
 11
1.157839317
 21
3.274749515599999
 31
0.0
  0
LINE
  5
287
330
204
100
AcDbEntity
  8
0
  6
Continuous
 62
     7
100
AcDbLine
 10
1.2031149076
 20
4.0196968313
 30
0.0
 11
1.3290991595
 21
4.0582140825
 31
0.0
  0
LINE
  5
288
330
204
100
AcDbEntity
  8
0
  6
Continuous
 62
     7
100
AcDbLine
 10
1.506264513899999
 20
3.495221956499999
 30
0.0
 11
1.506264513899999
 21
4.329867625799999
 31
0.0
  0
LINE
  5
289
330
204
100
AcDbEntity
  8
0
  6
Continuous
 62
     7
100
AcDbLine
 10
1.545634592599999
 20
4.329867625799999
 30
0.0
 11
1.545634592599999
 21
3.495221956499999
 31
0.0
  0
LINE
  5
28A
330
204
100
AcDbEntity
  8
0
  6
Continuous
 62
     7
100
AcDbLine
 10
2.579099159499999
 20
3.495221956499999
 30
0.0
 11
2.533823568999999
 21
3.495221956499999
 31
0.0
  0
LINE
  5
28B
330
204
100
AcDbEntity
  8
0
  6
Continuous
 62
     7
100
AcDbLine
 10
2.2306739627
 20
3.495221956499999
 30
0.0
 11
2.191303883999999
 21
3.495221956499999
 31
0.0
  0
LINE
  5
28C
330
204
100
AcDbEntity
  8
0
  6
Continuous
 62
     7
100
AcDbLine
 10
1.8881542777
 20
3.495221956499999
 30
0.0
 11
1.848784198899999
 21
3.495221956499999
 31
0.0
  0
LINE
  5
28D
330
204
100
AcDbEntity
  8
0
  6
Continuous
 62
     7
100
AcDbLine
 10
1.545634592599999
 20
3.495221956499999
 30
0.0
 11
1.506264513899999
 21
3.495221956499999
 31
0.0
  0
LINE
  5
28E
330
204
100
AcDbEntity
  8
0
  6
Continuous
 62
     7
100
AcDbLine
 10
1.2031149076
 20
3.495221956499999
 30
0.0
 11
1.157839317
 21
3.495221956499999
 31
0.0
  0
LINE
  5
28F
330
204
100
AcDbEntity
  8
0
  6
Continuous
 62
     7
100
AcDbLine
 10
2.2306739627
 20
4.0196968313
 30
0.0
 11
2.356658214699999
 21
4.0582140825
 31
0.0
  0
LINE
  5
290
330
204
100
AcDbEntity
  8
0
  6
Continuous
 62
     7
100
AcDbLine
 10
1.848784198899999
 20
3.495221956499999
 30
0.0
 11
1.848784198899999
 21
4.329867625799999
 31
0.0
  0
LINE
  5
291
330
204
100
AcDbEntity
  8
0
  6
Continuous
 62
     7
100
AcDbLine
 10
1.8881542777
 20
4.329867625799999
 30
0.0
 11
1.8881542777
 21
3.495221956499999
 31
0.0
  0
LINE
  5
292
330
204
100
AcDbEntity
  8
0
  6
Continuous
 62
     7
100
AcDbLine
 10
1.2031149076
 20
3.888922743899999
 30
0.0
 11
1.506264513899999
 21
3.888922743899999
 31
0.0
  0
LINE
  5
293
330
204
100
AcDbEntity
  8
0
  6
Continuous
 62
     7
100
AcDbLine
 10
2.2306739627
 20
3.888922743899999
 30
0.0
 11
2.533823568999999
 21
3.888922743899999
 31
0.0
  0
LINE
  5
294
330
204
100
AcDbEntity
  8
0
  6
Continuous
 62
     7
100
AcDbLine
 10
1.3802802619
 20
4.0582140825
 30
0.0
 11
1.506264513899999
 21
4.0196968313
 31
0.0
  0
LINE
  5
295
330
204
100
AcDbEntity
  8
0
  6
Continuous
 62
     7
100
AcDbLine
 10
2.191303883999999
 20
3.495221956499999
 30
0.0
 11
2.191303883999999
 21
4.329867625799999
 31
0.0
  0
LINE
  5
296
330
204
100
AcDbEntity
  8
0
  6
Continuous
 62
     7
100
AcDbLine
 10
2.407839317
 20
4.0582140825
 30
0.0
 11
2.356658214699999
 21
4.0582140825
 31
0.0
  0
LINE
  5
297
330
204
100
AcDbEntity
  8
0
  6
Continuous
 62
     7
100
AcDbLine
 10
1.3802802619
 20
4.0582140825
 30
0.0
 11
1.3290991595
 21
4.0582140825
 31
0.0
  0
LINE
  5
298
330
204
100
AcDbEntity
  8
0
  6
Continuous
 62
     7
100
AcDbLine
 10
2.2306739627
 20
4.329867625799999
 30
0.0
 11
2.2306739627
 21
3.495221956499999
 31
0.0
  0
LINE
  5
299
330
204
100
AcDbEntity
  8
0
  6
Continuous
 62
     7
100
AcDbLine
 10
2.3192566399
 20
4.0467792735
 30
0.0
 11
2.3192566399
 21
3.888922743899999
 31
0.0
  0
LINE
  5
29A
330
204
100
AcDbEntity
  8
0
  6
Continuous
 62
     7
100
AcDbLine
 10
2.407839317
 20
4.0582140825
 30
0.0
 11
2.533823568999999
 21
4.0196968313
 31
0.0
  0
LINE
  5
29B
330
204
100
AcDbEntity
  8
0
  6
Continuous
 62
     7
100
AcDbLine
 10
2.4452408918
 20
3.888922743899999
 30
0.0
 11
2.4452408918
 21
4.0467792735
 31
0.0
  0
LINE
  5
29C
330
204
100
AcDbEntity
  8
0
  6
Continuous
 62
     7
100
AcDbLine
 10
2.579099159499999
 20
4.329867625799999
 30
0.0
 11
2.533823568999999
 21
4.329867625799999
 31
0.0
  0
LINE
  5
29D
330
204
100
AcDbEntity
  8
0
  6
Continuous
 62
     7
100
AcDbLine
 10
2.2306739627
 20
4.329867625799999
 30
0.0
 11
2.191303883999999
 21
4.329867625799999
 31
0.0
  0
LINE
  5
29E
330
204
100
AcDbEntity
  8
0
  6
Continuous
 62
     7
100
AcDbLine
 10
1.8881542777
 20
4.329867625799999
 30
0.0
 11
1.848784198899999
 21
4.329867625799999
 31
0.0
  0
LINE
  5
29F
330
204
100
AcDbEntity
  8
0
  6
Continuous
 62
     7
100
AcDbLine
 10
1.545634592599999
 20
4.329867625799999
 30
0.0
 11
1.506264513899999
 21
4.329867625799999
 31
0.0
  0
LINE
  5
2A0
330
204
100
AcDbEntity
  8
0
  6
Continuous
 62
     7
100
AcDbLine
 10
1.2031149076
 20
4.329867625799999
 30
0.0
 11
1.157839317
 21
4.329867625799999
 31
0.0
  0
LINE
  5
2A1
330
204
100
AcDbEntity
  8
0
  6
Continuous
 62
     7
100
AcDbLine
 10
2.466894435099999
 20
3.274749515599999
 30
0.0
 11
2.466894435099999
 21
3.113332192699999
 31
0.0
  0
LINE
  5
2A2
330
204
100
AcDbEntity
  8
0
  6
Continuous
 62
     7
100
AcDbLine
 10
2.533823568999999
 20
3.495221956499999
 30
0.0
 11
2.533823568999999
 21
4.329867625799999
 31
0.0
  0
LINE
  5
2A3
330
204
100
AcDbEntity
  8
0
  6
Continuous
 62
     7
100
AcDbLine
 10
2.565319632
 20
3.113332192699999
 30
0.0
 11
2.565319632
 21
3.274749515599999
 31
0.0
  0
LINE
  5
2A4
330
204
100
AcDbEntity
  8
0
  6
Continuous
 62
     7
100
AcDbLine
 10
2.579099159499999
 20
4.3653006967
 30
0.0
 11
2.579099159499999
 21
3.274749515599999
 31
0.0
  0
LINE
  5
2A5
330
204
100
AcDbEntity
  8
0
  6
Continuous
 62
     7
100
AcDbLine
 10
2.5003590021
 20
4.444040854099999
 30
0.0
 11
1.2365794745
 21
4.444040854099999
 31
0.0
  0
LINE
  5
2A6
330
204
100
AcDbEntity
  8
0
  6
Continuous
 62
     7
100
AcDbLine
 10
1.157839317
 20
5.8647662786
 30
0.0
 11
1.157839317
 21
7.2033489558
 31
0.0
  0
LINE
  5
2A7
330
204
100
AcDbEntity
  8
0
  6
Continuous
 62
     7
100
AcDbLine
 10
1.2031149076
 20
7.2033489558
 30
0.0
 11
1.2031149076
 21
7.065553680199999
 31
0.0
  0
LINE
  5
2A8
330
204
100
AcDbEntity
  8
0
  6
Continuous
 62
     7
100
AcDbLine
 10
1.2031149076
 20
6.002561554199999
 30
0.0
 11
1.2031149076
 21
5.8647662786
 31
0.0
  0
LINE
  5
2A9
330
204
100
AcDbEntity
  8
0
  6
Continuous
 62
     7
100
AcDbLine
 10
2.579099159499999
 20
5.8647662786
 30
0.0
 11
2.533823568999999
 21
5.8647662786
 31
0.0
  0
LINE
  5
2AA
330
204
100
AcDbEntity
  8
0
  6
Continuous
 62
     7
100
AcDbLine
 10
2.2306739627
 20
5.8647662786
 30
0.0
 11
2.191303883999999
 21
5.8647662786
 31
0.0
  0
LINE
  5
2AB
330
204
100
AcDbEntity
  8
0
  6
Continuous
 62
     7
100
AcDbLine
 10
1.8881542777
 20
5.8647662786
 30
0.0
 11
1.848784198899999
 21
5.8647662786
 31
0.0
  0
LINE
  5
2AC
330
204
100
AcDbEntity
  8
0
  6
Continuous
 62
     7
100
AcDbLine
 10
1.545634592599999
 20
5.8647662786
 30
0.0
 11
1.506264513899999
 21
5.8647662786
 31
0.0
  0
LINE
  5
2AD
330
204
100
AcDbEntity
  8
0
  6
Continuous
 62
     7
100
AcDbLine
 10
1.2031149076
 20
5.8647662786
 30
0.0
 11
1.157839317
 21
5.8647662786
 31
0.0
  0
LINE
  5
2AE
330
204
100
AcDbEntity
  8
0
  6
Continuous
 62
     7
100
AcDbLine
 10
1.2365794745
 20
6.002561554199999
 30
0.0
 11
1.2365794745
 21
6.207647965599999
 31
0.0
  0
LINE
  5
2AF
330
204
100
AcDbEntity
  8
0
  6
Continuous
 62
     7
100
AcDbLine
 10
1.2365794745
 20
6.325034197999999
 30
0.0
 11
1.2365794745
 21
6.743081036399999
 31
0.0
  0
LINE
  5
2B0
330
204
100
AcDbEntity
  8
0
  6
Continuous
 62
     7
100
AcDbLine
 10
1.2365794745
 20
6.860467268799999
 30
0.0
 11
1.2365794745
 21
7.065553680199999
 31
0.0
  0
LINE
  5
2B1
330
204
100
AcDbEntity
  8
0
  6
Continuous
 62
     7
100
AcDbLine
 10
1.335004671399999
 20
6.9182324161
 30
0.0
 11
1.335004671399999
 21
6.821459192
 31
0.0
  0
LINE
  5
2B2
330
204
100
AcDbEntity
  8
0
  6
Continuous
 62
     7
100
AcDbLine
 10
1.335004671399999
 20
6.7820891133
 30
0.0
 11
1.335004671399999
 21
6.685315889199999
 31
0.0
  0
LINE
  5
2B3
330
204
100
AcDbEntity
  8
0
  6
Continuous
 62
     7
100
AcDbLine
 10
1.335004671399999
 20
6.382799345199999
 30
0.0
 11
1.335004671399999
 21
6.286026121099999
 31
0.0
  0
LINE
  5
2B4
330
204
100
AcDbEntity
  8
0
  6
Continuous
 62
     7
100
AcDbLine
 10
1.335004671399999
 20
6.246656042399999
 30
0.0
 11
1.335004671399999
 21
6.1498828183
 31
0.0
  0
LINE
  5
2B5
330
204
100
AcDbEntity
  8
0
  6
Continuous
 62
     7
100
AcDbLine
 10
2.579099159499999
 20
6.002561554199999
 30
0.0
 11
1.157839317
 21
6.002561554199999
 31
0.0
  0
LINE
  5
2B6
330
204
100
AcDbEntity
  8
0
  6
Continuous
 62
     7
100
AcDbLine
 10
1.374374750099999
 20
6.1498828183
 30
0.0
 11
1.374374750099999
 21
6.246656042399999
 31
0.0
  0
LINE
  5
2B7
330
204
100
AcDbEntity
  8
0
  6
Continuous
 62
     7
100
AcDbLine
 10
1.374374750099999
 20
6.286026121099999
 30
0.0
 11
1.374374750099999
 21
6.382799345199999
 31
0.0
  0
LINE
  5
2B8
330
204
100
AcDbEntity
  8
0
  6
Continuous
 62
     7
100
AcDbLine
 10
1.374374750099999
 20
6.685315889199999
 30
0.0
 11
1.374374750099999
 21
6.7820891133
 31
0.0
  0
LINE
  5
2B9
330
204
100
AcDbEntity
  8
0
  6
Continuous
 62
     7
100
AcDbLine
 10
1.374374750099999
 20
6.821459192
 30
0.0
 11
1.374374750099999
 21
6.9182324161
 31
0.0
  0
LINE
  5
2BA
330
204
100
AcDbEntity
  8
0
  6
Continuous
 62
     7
100
AcDbLine
 10
1.506264513899999
 20
5.8647662786
 30
0.0
 11
1.506264513899999
 21
6.002561554199999
 31
0.0
  0
LINE
  5
2BB
330
204
100
AcDbEntity
  8
0
  6
Continuous
 62
     7
100
AcDbLine
 10
1.506264513899999
 20
7.065553680199999
 30
0.0
 11
1.506264513899999
 21
7.2033489558
 31
0.0
  0
LINE
  5
2BC
330
204
100
AcDbEntity
  8
0
  6
Continuous
 62
     7
100
AcDbLine
 10
1.545634592599999
 20
7.2033489558
 30
0.0
 11
1.545634592599999
 21
7.065553680199999
 31
0.0
  0
LINE
  5
2BD
330
204
100
AcDbEntity
  8
0
  6
Continuous
 62
     7
100
AcDbLine
 10
1.545634592599999
 20
6.002561554199999
 30
0.0
 11
1.545634592599999
 21
5.8647662786
 31
0.0
  0
LINE
  5
2BE
330
204
100
AcDbEntity
  8
0
  6
Continuous
 62
     7
100
AcDbLine
 10
1.2382314473
 20
6.246656042399999
 30
0.0
 11
1.335004671399999
 21
6.246656042399999
 31
0.0
  0
LINE
  5
2BF
330
204
100
AcDbEntity
  8
0
  6
Continuous
 62
     7
100
AcDbLine
 10
1.374374750099999
 20
6.246656042399999
 30
0.0
 11
1.471147974199999
 21
6.246656042399999
 31
0.0
  0
LINE
  5
2C0
330
204
100
AcDbEntity
  8
0
  6
Continuous
 62
     7
100
AcDbLine
 10
2.2657905024
 20
6.246656042399999
 30
0.0
 11
2.362563726499999
 21
6.246656042399999
 31
0.0
  0
LINE
  5
2C1
330
204
100
AcDbEntity
  8
0
  6
Continuous
 62
     7
100
AcDbLine
 10
2.4019338052
 20
6.246656042399999
 30
0.0
 11
2.4987070293
 21
6.246656042399999
 31
0.0
  0
LINE
  5
2C2
330
204
100
AcDbEntity
  8
0
  6
Continuous
 62
     7
100
AcDbLine
 10
2.4987070293
 20
6.286026121099999
 30
0.0
 11
2.4019338052
 21
6.286026121099999
 31
0.0
  0
LINE
  5
2C3
330
204
100
AcDbEntity
  8
0
  6
Continuous
 62
     7
100
AcDbLine
 10
2.362563726499999
 20
6.286026121099999
 30
0.0
 11
2.2657905024
 21
6.286026121099999
 31
0.0
  0
LINE
  5
2C4
330
204
100
AcDbEntity
  8
0
  6
Continuous
 62
     7
100
AcDbLine
 10
1.471147974199999
 20
6.286026121099999
 30
0.0
 11
1.374374750099999
 21
6.286026121099999
 31
0.0
  0
LINE
  5
2C5
330
204
100
AcDbEntity
  8
0
  6
Continuous
 62
     7
100
AcDbLine
 10
1.335004671399999
 20
6.286026121099999
 30
0.0
 11
1.2382314473
 21
6.286026121099999
 31
0.0
  0
LINE
  5
2C6
330
204
100
AcDbEntity
  8
0
  6
Continuous
 62
     7
100
AcDbLine
 10
1.848784198899999
 20
5.8647662786
 30
0.0
 11
1.848784198899999
 21
6.002561554199999
 31
0.0
  0
LINE
  5
2C7
330
204
100
AcDbEntity
  8
0
  6
Continuous
 62
     7
100
AcDbLine
 10
1.848784198899999
 20
7.065553680199999
 30
0.0
 11
1.848784198899999
 21
7.2033489558
 31
0.0
  0
LINE
  5
2C8
330
204
100
AcDbEntity
  8
0
  6
Continuous
 62
     7
100
AcDbLine
 10
1.8881542777
 20
7.2033489558
 30
0.0
 11
1.8881542777
 21
7.065553680199999
 31
0.0
  0
LINE
  5
2C9
330
204
100
AcDbEntity
  8
0
  6
Continuous
 62
     7
100
AcDbLine
 10
1.8881542777
 20
6.002561554199999
 30
0.0
 11
1.8881542777
 21
5.8647662786
 31
0.0
  0
LINE
  5
2CA
330
204
100
AcDbEntity
  8
0
  6
Continuous
 62
     7
100
AcDbLine
 10
1.2382314473
 20
6.7820891133
 30
0.0
 11
1.335004671399999
 21
6.7820891133
 31
0.0
  0
LINE
  5
2CB
330
204
100
AcDbEntity
  8
0
  6
Continuous
 62
     7
100
AcDbLine
 10
1.374374750099999
 20
6.7820891133
 30
0.0
 11
1.471147974199999
 21
6.7820891133
 31
0.0
  0
LINE
  5
2CC
330
204
100
AcDbEntity
  8
0
  6
Continuous
 62
     7
100
AcDbLine
 10
2.2657905024
 20
6.7820891133
 30
0.0
 11
2.362563726499999
 21
6.7820891133
 31
0.0
  0
LINE
  5
2CD
330
204
100
AcDbEntity
  8
0
  6
Continuous
 62
     7
100
AcDbLine
 10
2.4019338052
 20
6.7820891133
 30
0.0
 11
2.4987070293
 21
6.7820891133
 31
0.0
  0
LINE
  5
2CE
330
204
100
AcDbEntity
  8
0
  6
Continuous
 62
     7
100
AcDbLine
 10
2.191303883999999
 20
5.8647662786
 30
0.0
 11
2.191303883999999
 21
6.002561554199999
 31
0.0
  0
LINE
  5
2CF
330
204
100
AcDbEntity
  8
0
  6
Continuous
 62
     7
100
AcDbLine
 10
2.191303883999999
 20
7.065553680199999
 30
0.0
 11
2.191303883999999
 21
7.2033489558
 31
0.0
  0
LINE
  5
2D0
330
204
100
AcDbEntity
  8
0
  6
Continuous
 62
     7
100
AcDbLine
 10
2.4987070293
 20
6.821459192
 30
0.0
 11
2.4019338052
 21
6.821459192
 31
0.0
  0
LINE
  5
2D1
330
204
100
AcDbEntity
  8
0
  6
Continuous
 62
     7
100
AcDbLine
 10
2.362563726499999
 20
6.821459192
 30
0.0
 11
2.2657905024
 21
6.821459192
 31
0.0
  0
LINE
  5
2D2
330
204
100
AcDbEntity
  8
0
  6
Continuous
 62
     7
100
AcDbLine
 10
1.471147974199999
 20
6.821459192
 30
0.0
 11
1.374374750099999
 21
6.821459192
 31
0.0
  0
LINE
  5
2D3
330
204
100
AcDbEntity
  8
0
  6
Continuous
 62
     7
100
AcDbLine
 10
1.335004671399999
 20
6.821459192
 30
0.0
 11
1.2382314473
 21
6.821459192
 31
0.0
  0
LINE
  5
2D4
330
204
100
AcDbEntity
  8
0
  6
Continuous
 62
     7
100
AcDbLine
 10
2.2306739627
 20
7.2033489558
 30
0.0
 11
2.2306739627
 21
7.065553680199999
 31
0.0
  0
LINE
  5
2D5
330
204
100
AcDbEntity
  8
0
  6
Continuous
 62
     7
100
AcDbLine
 10
2.2306739627
 20
6.002561554199999
 30
0.0
 11
2.2306739627
 21
5.8647662786
 31
0.0
  0
LINE
  5
2D6
330
204
100
AcDbEntity
  8
0
  6
Continuous
 62
     7
100
AcDbLine
 10
2.362563726499999
 20
6.9182324161
 30
0.0
 11
2.362563726499999
 21
6.821459192
 31
0.0
  0
LINE
  5
2D7
330
204
100
AcDbEntity
  8
0
  6
Continuous
 62
     7
100
AcDbLine
 10
2.362563726499999
 20
6.7820891133
 30
0.0
 11
2.362563726499999
 21
6.685315889199999
 31
0.0
  0
LINE
  5
2D8
330
204
100
AcDbEntity
  8
0
  6
Continuous
 62
     7
100
AcDbLine
 10
2.362563726499999
 20
6.382799345199999
 30
0.0
 11
2.362563726499999
 21
6.286026121099999
 31
0.0
  0
LINE
  5
2D9
330
204
100
AcDbEntity
  8
0
  6
Continuous
 62
     7
100
AcDbLine
 10
2.362563726499999
 20
6.246656042399999
 30
0.0
 11
2.362563726499999
 21
6.1498828183
 31
0.0
  0
LINE
  5
2DA
330
204
100
AcDbEntity
  8
0
  6
Continuous
 62
     7
100
AcDbLine
 10
2.4019338052
 20
6.1498828183
 30
0.0
 11
2.4019338052
 21
6.246656042399999
 31
0.0
  0
LINE
  5
2DB
330
204
100
AcDbEntity
  8
0
  6
Continuous
 62
     7
100
AcDbLine
 10
2.4019338052
 20
6.286026121099999
 30
0.0
 11
2.4019338052
 21
6.382799345199999
 31
0.0
  0
LINE
  5
2DC
330
204
100
AcDbEntity
  8
0
  6
Continuous
 62
     7
100
AcDbLine
 10
2.4019338052
 20
6.685315889199999
 30
0.0
 11
2.4019338052
 21
6.7820891133
 31
0.0
  0
LINE
  5
2DD
330
204
100
AcDbEntity
  8
0
  6
Continuous
 62
     7
100
AcDbLine
 10
2.4019338052
 20
6.821459192
 30
0.0
 11
2.4019338052
 21
6.9182324161
 31
0.0
  0
LINE
  5
2DE
330
204
100
AcDbEntity
  8
0
  6
Continuous
 62
     7
100
AcDbLine
 10
1.157839317
 20
7.065553680199999
 30
0.0
 11
2.579099159499999
 21
7.065553680199999
 31
0.0
  0
LINE
  5
2DF
330
204
100
AcDbEntity
  8
0
  6
Continuous
 62
     7
100
AcDbLine
 10
2.5003590021
 20
7.065553680199999
 30
0.0
 11
2.5003590021
 21
6.860467268799999
 31
0.0
  0
LINE
  5
2E0
330
204
100
AcDbEntity
  8
0
  6
Continuous
 62
     7
100
AcDbLine
 10
2.5003590021
 20
6.743081036399999
 30
0.0
 11
2.5003590021
 21
6.325034197999999
 31
0.0
  0
LINE
  5
2E1
330
204
100
AcDbEntity
  8
0
  6
Continuous
 62
     7
100
AcDbLine
 10
2.5003590021
 20
6.207647965599999
 30
0.0
 11
2.5003590021
 21
6.002561554199999
 31
0.0
  0
LINE
  5
2E2
330
204
100
AcDbEntity
  8
0
  6
Continuous
 62
     7
100
AcDbLine
 10
2.533823568999999
 20
5.8647662786
 30
0.0
 11
2.533823568999999
 21
6.002561554199999
 31
0.0
  0
LINE
  5
2E3
330
204
100
AcDbEntity
  8
0
  6
Continuous
 62
     7
100
AcDbLine
 10
2.533823568999999
 20
7.065553680199999
 30
0.0
 11
2.533823568999999
 21
7.2033489558
 31
0.0
  0
LINE
  5
2E4
330
204
100
AcDbEntity
  8
0
  6
Continuous
 62
     7
100
AcDbLine
 10
2.579099159499999
 20
5.8647662786
 30
0.0
 11
2.579099159499999
 21
7.2033489558
 31
0.0
  0
LINE
  5
2E5
330
204
100
AcDbEntity
  8
0
  6
Continuous
 62
     7
100
AcDbLine
 10
2.579099159499999
 20
7.2033489558
 30
0.0
 11
2.533823568999999
 21
7.2033489558
 31
0.0
  0
LINE
  5
2E6
330
204
100
AcDbEntity
  8
0
  6
Continuous
 62
     7
100
AcDbLine
 10
2.2306739627
 20
7.2033489558
 30
0.0
 11
2.191303883999999
 21
7.2033489558
 31
0.0
  0
LINE
  5
2E7
330
204
100
AcDbEntity
  8
0
  6
Continuous
 62
     7
100
AcDbLine
 10
1.8881542777
 20
7.2033489558
 30
0.0
 11
1.848784198899999
 21
7.2033489558
 31
0.0
  0
LINE
  5
2E8
330
204
100
AcDbEntity
  8
0
  6
Continuous
 62
     7
100
AcDbLine
 10
1.545634592599999
 20
7.2033489558
 30
0.0
 11
1.506264513899999
 21
7.2033489558
 31
0.0
  0
LINE
  5
2E9
330
204
100
AcDbEntity
  8
0
  6
Continuous
 62
     7
100
AcDbLine
 10
1.2031149076
 20
7.2033489558
 30
0.0
 11
1.157839317
 21
7.2033489558
 31
0.0
  0
LINE
  5
2EA
330
204
100
AcDbEntity
  8
0
  6
Continuous
 62
     7
100
AcDbLine
 10
1.157839317
 20
0.764940047939542
 30
0.0
 11
1.157839317
 21
2.103522725139542
 31
0.0
  0
LINE
  5
2EB
330
204
100
AcDbEntity
  8
0
  6
Continuous
 62
     7
100
AcDbLine
 10
1.2031149076
 20
2.103522725139542
 30
0.0
 11
1.2031149076
 21
1.965727449539541
 31
0.0
  0
LINE
  5
2EC
330
204
100
AcDbEntity
  8
0
  6
Continuous
 62
     7
100
AcDbLine
 10
1.2031149076
 20
0.902735323539542
 30
0.0
 11
1.2031149076
 21
0.764940047939542
 31
0.0
  0
LINE
  5
2ED
330
204
100
AcDbEntity
  8
0
  6
Continuous
 62
     7
100
AcDbLine
 10
2.579099159499999
 20
0.764940047939542
 30
0.0
 11
2.533823568999999
 21
0.764940047939542
 31
0.0
  0
LINE
  5
2EE
330
204
100
AcDbEntity
  8
0
  6
Continuous
 62
     7
100
AcDbLine
 10
2.2306739627
 20
0.764940047939542
 30
0.0
 11
2.191303883999999
 21
0.764940047939542
 31
0.0
  0
LINE
  5
2EF
330
204
100
AcDbEntity
  8
0
  6
Continuous
 62
     7
100
AcDbLine
 10
1.8881542777
 20
0.764940047939542
 30
0.0
 11
1.848784198899999
 21
0.764940047939542
 31
0.0
  0
LINE
  5
2F0
330
204
100
AcDbEntity
  8
0
  6
Continuous
 62
     7
100
AcDbLine
 10
1.545634592599999
 20
0.764940047939542
 30
0.0
 11
1.506264513899999
 21
0.764940047939542
 31
0.0
  0
LINE
  5
2F1
330
204
100
AcDbEntity
  8
0
  6
Continuous
 62
     7
100
AcDbLine
 10
1.2031149076
 20
0.764940047939542
 30
0.0
 11
1.157839317
 21
0.764940047939542
 31
0.0
  0
LINE
  5
2F2
330
204
100
AcDbEntity
  8
0
  6
Continuous
 62
     7
100
AcDbLine
 10
2.579099159499999
 20
0.902735323539542
 30
0.0
 11
1.157839317
 21
0.902735323539542
 31
0.0
  0
LINE
  5
2F3
330
204
100
AcDbEntity
  8
0
  6
Continuous
 62
     7
100
AcDbLine
 10
1.506264513899999
 20
0.764940047939542
 30
0.0
 11
1.506264513899999
 21
0.902735323539542
 31
0.0
  0
LINE
  5
2F4
330
204
100
AcDbEntity
  8
0
  6
Continuous
 62
     7
100
AcDbLine
 10
1.506264513899999
 20
1.965727449539541
 30
0.0
 11
1.506264513899999
 21
2.103522725139542
 31
0.0
  0
LINE
  5
2F5
330
204
100
AcDbEntity
  8
0
  6
Continuous
 62
     7
100
AcDbLine
 10
1.545634592599999
 20
2.103522725139542
 30
0.0
 11
1.545634592599999
 21
1.965727449539541
 31
0.0
  0
LINE
  5
2F6
330
204
100
AcDbEntity
  8
0
  6
Continuous
 62
     7
100
AcDbLine
 10
1.545634592599999
 20
0.902735323539542
 30
0.0
 11
1.545634592599999
 21
0.764940047939542
 31
0.0
  0
LINE
  5
2F7
330
204
100
AcDbEntity
  8
0
  6
Continuous
 62
     7
100
AcDbLine
 10
1.848784198899999
 20
0.764940047939542
 30
0.0
 11
1.848784198899999
 21
0.902735323539542
 31
0.0
  0
LINE
  5
2F8
330
204
100
AcDbEntity
  8
0
  6
Continuous
 62
     7
100
AcDbLine
 10
1.848784198899999
 20
1.965727449539541
 30
0.0
 11
1.848784198899999
 21
2.103522725139542
 31
0.0
  0
LINE
  5
2F9
330
204
100
AcDbEntity
  8
0
  6
Continuous
 62
     7
100
AcDbLine
 10
1.8881542777
 20
2.103522725139542
 30
0.0
 11
1.8881542777
 21
1.965727449539541
 31
0.0
  0
LINE
  5
2FA
330
204
100
AcDbEntity
  8
0
  6
Continuous
 62
     7
100
AcDbLine
 10
1.8881542777
 20
0.902735323539542
 30
0.0
 11
1.8881542777
 21
0.764940047939542
 31
0.0
  0
LINE
  5
2FB
330
204
100
AcDbEntity
  8
0
  6
Continuous
 62
     7
100
AcDbLine
 10
2.191303883999999
 20
0.764940047939542
 30
0.0
 11
2.191303883999999
 21
0.902735323539542
 31
0.0
  0
LINE
  5
2FC
330
204
100
AcDbEntity
  8
0
  6
Continuous
 62
     7
100
AcDbLine
 10
2.191303883999999
 20
1.965727449539541
 30
0.0
 11
2.191303883999999
 21
2.103522725139542
 31
0.0
  0
LINE
  5
2FD
330
204
100
AcDbEntity
  8
0
  6
Continuous
 62
     7
100
AcDbLine
 10
2.2306739627
 20
2.103522725139542
 30
0.0
 11
2.2306739627
 21
1.965727449539541
 31
0.0
  0
LINE
  5
2FE
330
204
100
AcDbEntity
  8
0
  6
Continuous
 62
     7
100
AcDbLine
 10
2.2306739627
 20
0.902735323539542
 30
0.0
 11
2.2306739627
 21
0.764940047939542
 31
0.0
  0
LINE
  5
2FF
330
204
100
AcDbEntity
  8
0
  6
Continuous
 62
     7
100
AcDbLine
 10
2.579099159499999
 20
1.965727449539541
 30
0.0
 11
1.157839317
 21
1.965727449539541
 31
0.0
  0
LINE
  5
300
330
204
100
AcDbEntity
  8
0
  6
Continuous
 62
     7
100
AcDbLine
 10
2.533823568999999
 20
0.764940047939542
 30
0.0
 11
2.533823568999999
 21
0.902735323539542
 31
0.0
  0
LINE
  5
301
330
204
100
AcDbEntity
  8
0
  6
Continuous
 62
     7
100
AcDbLine
 10
2.533823568999999
 20
1.965727449539541
 30
0.0
 11
2.533823568999999
 21
2.103522725139542
 31
0.0
  0
LINE
  5
302
102
{ACAD_REACTORS
330
4B9
102
}
330
204
100
AcDbEntity
  8
0
  6
Continuous
 62
     7
100
AcDbLine
 10
2.579099159499999
 20
2.103522725139542
 30
0.0
 11
2.579099159499999
 21
0.764940047939542
 31
0.0
  0
LINE
  5
303
102
{ACAD_REACTORS
330
4B9
102
}
330
204
100
AcDbEntity
  8
0
  6
Continuous
 62
     7
100
AcDbLine
 10
2.579099159499999
 20
2.103522725139542
 30
0.0
 11
2.533823568999999
 21
2.103522725139542
 31
0.0
  0
LINE
  5
304
330
204
100
AcDbEntity
  8
0
  6
Continuous
 62
     7
100
AcDbLine
 10
2.2306739627
 20
2.103522725139542
 30
0.0
 11
2.191303883999999
 21
2.103522725139542
 31
0.0
  0
LINE
  5
305
330
204
100
AcDbEntity
  8
0
  6
Continuous
 62
     7
100
AcDbLine
 10
1.8881542777
 20
2.103522725139542
 30
0.0
 11
1.848784198899999
 21
2.103522725139542
 31
0.0
  0
LINE
  5
306
330
204
100
AcDbEntity
  8
0
  6
Continuous
 62
     7
100
AcDbLine
 10
1.545634592599999
 20
2.103522725139542
 30
0.0
 11
1.506264513899999
 21
2.103522725139542
 31
0.0
  0
LINE
  5
307
330
204
100
AcDbEntity
  8
0
  6
Continuous
 62
     7
100
AcDbLine
 10
1.2031149076
 20
2.103522725139542
 30
0.0
 11
1.157839317
 21
2.103522725139542
 31
0.0
  0
ARC
  5
308
330
204
100
AcDbEntity
  8
0
  6
Continuous
 62
     7
100
AcDbCircle
 10
1.2365794745
 20
4.3653006967
 30
0.0
 40
0.0787401575
100
AcDbArc
 50
90.0
 51
180.0
  0
ARC
  5
309
330
204
100
AcDbEntity
  8
0
  6
Continuous
 62
     7
100
AcDbCircle
 10
2.5003590021
 20
4.3653006967
 30
0.0
 40
0.0787401575
100
AcDbArc
 50
0.0
 51
90.0
  0
CIRCLE
  5
30A
330
204
100
AcDbEntity
  8
0
  6
Continuous
 62
     7
100
AcDbCircle
 10
1.354676970899999
 20
6.266342186599999
 30
0.0
 40
0.1318773393
  0
ARC
  5
30B
330
204
100
AcDbEntity
  8
0
  6
Continuous
 62
     7
100
AcDbCircle
 10
1.354650322599999
 20
6.266727230899999
 30
0.0
 40
0.1184963919
100
AcDbArc
 50
260.418271619
 51
279.581728381
  0
ARC
  5
30C
330
204
100
AcDbEntity
  8
0
  6
Continuous
 62
     7
100
AcDbCircle
 10
1.354650946899999
 20
6.266343553899999
 30
0.0
 40
0.1180715963
100
AcDbArc
 50
279.5923194378
 51
260.4070668175999
  0
CIRCLE
  5
30D
330
204
100
AcDbEntity
  8
0
  6
Continuous
 62
     7
100
AcDbCircle
 10
1.354676970899999
 20
6.8017752575
 30
0.0
 40
0.1318773393
  0
ARC
  5
30E
330
204
100
AcDbEntity
  8
0
  6
Continuous
 62
     7
100
AcDbCircle
 10
1.354650322599999
 20
6.802160301699999
 30
0.0
 40
0.1184963919
100
AcDbArc
 50
260.4182716189
 51
279.5817283811
  0
ARC
  5
30F
330
204
100
AcDbEntity
  8
0
  6
Continuous
 62
     7
100
AcDbCircle
 10
1.354728474499999
 20
6.8017766248
 30
0.0
 40
0.1180715963
100
AcDbArc
 50
279.5923194379
 51
260.4070668164
  0
CIRCLE
  5
310
330
204
100
AcDbEntity
  8
0
  6
Continuous
 62
     7
100
AcDbCircle
 10
2.382261833
 20
6.2663421685
 30
0.0
 40
0.1318770336
  0
ARC
  5
311
330
204
100
AcDbEntity
  8
0
  6
Continuous
 62
     7
100
AcDbCircle
 10
2.3822093777
 20
6.266727230899999
 30
0.0
 40
0.1184963919
100
AcDbArc
 50
260.418271619
 51
279.5817283811
  0
ARC
  5
312
330
204
100
AcDbEntity
  8
0
  6
Continuous
 62
     7
100
AcDbCircle
 10
2.382210001999999
 20
6.266343553899999
 30
0.0
 40
0.1180715963
100
AcDbArc
 50
279.5923194379
 51
260.407066807
  0
CIRCLE
  5
313
330
204
100
AcDbEntity
  8
0
  6
Continuous
 62
     7
100
AcDbCircle
 10
2.382261833
 20
6.8017752394
 30
0.0
 40
0.1318770336
  0
ARC
  5
314
330
204
100
AcDbEntity
  8
0
  6
Continuous
 62
     7
100
AcDbCircle
 10
2.3822093777
 20
6.802160301699999
 30
0.0
 40
0.1184963919
100
AcDbArc
 50
260.4182716189
 51
279.5817283811
  0
ARC
  5
315
330
204
100
AcDbEntity
  8
0
  6
Continuous
 62
     7
100
AcDbCircle
 10
2.3822875296
 20
6.8017766248
 30
0.0
 40
0.1180715963
100
AcDbArc
 50
279.5923194380001
 51
260.4070668283
  0
CIRCLE
  5
316
330
204
100
AcDbEntity
  8
0
  6
Continuous
 62
     7
100
AcDbCircle
 10
2.516107033599999
 20
1.788562095139542
 30
0.0
 40
0.0492125984
  0
CIRCLE
  5
317
330
204
100
AcDbEntity
  8
0
  6
Continuous
 62
     7
100
AcDbCircle
 10
1.2916975847
 20
1.768877055839541
 30
0.0
 40
0.0492125984
  0
CIRCLE
  5
318
330
204
100
AcDbEntity
  8
0
  6
Continuous
 62
     7
100
AcDbCircle
 10
1.2916975847
 20
1.099585717239541
 30
0.0
 40
0.0492125984
  0
SPLINE
  5
319
330
204
100
AcDbEntity
  8
0
  6
Continuous
 62
     7
100
AcDbSpline
210
0.0
220
0.0
230
1.0
 70
     8
 71
     3
 72
    11
 73
     7
 74
     0
 42
0.0000000001
 43
0.0000000001
 40
0.0
 40
0.0
 40
0.0
 40
0.0
 40
0.2897757015
 40
0.5490693943000001
 40
0.7822254655
 40
1.0
 40
1.0
 40
1.0
 40
1.0
 10
8.187379684599999
 20
6.7131252411
 30
0.0
 10
8.190835554899999
 20
6.715120476799999
 30
0.0
 10
8.197707928599999
 20
6.7183915095
 30
0.0
 10
8.2082726122
 20
6.720940493099999
 30
0.0
 10
8.2181838856
 20
6.720690602599999
 30
0.0
 10
8.224151609999999
 20
6.718524031
 30
0.0
 10
8.226748803999999
 20
6.7170245744
 30
0.0
  0
SPLINE
  5
31A
330
204
100
AcDbEntity
  8
0
  6
Continuous
 62
     7
100
AcDbSpline
210
0.0
220
0.0
230
1.0
 70
     8
 71
     3
 72
    15
 73
    11
 74
     0
 42
0.0000000001
 43
0.0000000001
 40
0.0
 40
0.0
 40
0.0
 40
0.0
 40
0.1141475829
 40
0.2373370756
 40
0.3669780685
 40
0.5000016033
 40
0.6330249151000001
 40
0.7626652568000001
 40
0.8858537230999999
 40
1.0
 40
1.0
 40
1.0
 40
1.0
 10
7.2380788638
 20
6.100757899299999
 30
0.0
 10
7.2380788638
 20
6.1051588471
 30
0.0
 10
7.238885533999999
 20
6.1143178258
 30
0.0
 10
7.242098411599999
 20
6.1281349449
 30
0.0
 10
7.2472476922
 20
6.142130280099999
 30
0.0
 10
7.254137071199999
 20
6.155777937899999
 30
0.0
 10
7.262511523599999
 20
6.168568164199999
 30
0.0
 10
7.2720571051
 20
6.1800252233
 30
0.0
 10
7.2824165346
 20
6.1897161646
 30
0.0
 10
7.289945036699999
 20
6.1949941984
 30
0.0
 10
7.2937563313
 20
6.197194637199999
 30
0.0
  0
SPLINE
  5
31B
330
204
100
AcDbEntity
  8
0
  6
Continuous
 62
     7
100
AcDbSpline
210
0.0
220
0.0
230
1.0
 70
     8
 71
     3
 72
    19
 73
    15
 74
     0
 42
0.0000000001
 43
0.0000000001
 40
0.0
 40
0.0
 40
0.0
 40
0.0
 40
0.0682155479
 40
0.1401037807
 40
0.2867946084
 40
0.4250756765000001
 40
0.5477192262
 40
0.6724796966
 40
0.7347406598
 40
0.7949182385000001
 40
0.8517488076000001
 40
0.9045667204999999
 40
0.9536018698999999
 40
1.0
 40
1.0
 40
1.0
 40
1.0
 10
8.383645087199999
 20
6.503379097599999
 30
0.0
 10
8.3784672309
 20
6.500389678799999
 30
0.0
 10
8.367383636599999
 20
6.4950078297
 30
0.0
 10
8.343595478200001
 20
6.4867566119
 30
0.0
 10
8.3126222347
 20
6.4811203198
 30
0.0
 10
8.276758994099999
 20
6.4806185519
 30
0.0
 10
8.243159309400001
 20
6.4852332169
 30
0.0
 10
8.217037365199999
 20
6.493214964999999
 30
0.0
 10
8.197531899699999
 20
6.5027498525
 30
0.0
 10
8.184365773299999
 20
6.5114205673
 30
0.0
 10
8.1732991075
 20
6.521483456
 30
0.0
 10
8.1649135991
 20
6.5327105184
 30
0.0
 10
8.1596849672
 20
6.544749849099999
 30
0.0
 10
8.158496879299999
 20
6.5531552338
 30
0.0
 10
8.158495292399999
 20
6.5572218744
 30
0.0
  0
SPLINE
  5
31C
330
204
100
AcDbEntity
  8
0
  6
Continuous
 62
     7
100
AcDbSpline
210
0.0
220
0.0
230
1.0
 70
     8
 71
     3
 72
    19
 73
    15
 74
     0
 42
0.0000000001
 43
0.0000000001
 40
0.0
 40
0.0
 40
0.0
 40
0.0
 40
0.0682155479
 40
0.1401037807
 40
0.2867946084
 40
0.4250756765000001
 40
0.5477192262
 40
0.6724796966
 40
0.7347406598
 40
0.7949182385000001
 40
0.8517488076000001
 40
0.9045667204999999
 40
0.9536018698999999
 40
1.0
 40
1.0
 40
1.0
 40
1.0
 10
8.762255018799999
 20
6.284793496799999
 30
0.0
 10
8.757077162499999
 20
6.281804077899999
 30
0.0
 10
8.745993568099999
 20
6.276422228799999
 30
0.0
 10
8.7222054098
 20
6.268171011099999
 30
0.0
 10
8.6912321663
 20
6.262534718899999
 30
0.0
 10
8.655368925700001
 20
6.262032951
 30
0.0
 10
8.6217692409
 20
6.266647616
 30
0.0
 10
8.595647296699999
 20
6.274629364099999
 30
0.0
 10
8.576141831299999
 20
6.284164251699999
 30
0.0
 10
8.562975704799999
 20
6.2928349664
 30
0.0
 10
8.551909039099999
 20
6.3028978551
 30
0.0
 10
8.543523530599999
 20
6.3141249176
 30
0.0
 10
8.5382948988
 20
6.3261642482
 30
0.0
 10
8.537106810900001
 20
6.334569632999999
 30
0.0
 10
8.537105223999999
 20
6.3386362735
 30
0.0
  0
SPLINE
  5
31D
330
204
100
AcDbEntity
  8
0
  6
Continuous
 62
     7
100
AcDbSpline
210
0.0
220
0.0
230
1.0
 70
     8
 71
     3
 72
    11
 73
     7
 74
     0
 42
0.0000000001
 43
0.0000000001
 40
0.0
 40
0.0
 40
0.0
 40
0.0
 40
0.2538925175
 40
0.5208172008
 40
0.7748038245000001
 40
1.0
 40
1.0
 40
1.0
 40
1.0
 10
8.035664067999999
 20
5.8652985198
 30
0.0
 10
8.025475655800001
 20
5.859416272399999
 30
0.0
 10
8.0028761332
 20
5.8502380023
 30
0.0
 10
7.967465672
 20
5.843398763099999
 30
0.0
 10
7.9327735511
 20
5.842386917599999
 30
0.0
 10
7.9106337874
 20
5.844975248699999
 30
0.0
 10
7.9003899828
 20
5.8469628657
 30
0.0
  0
SPLINE
  5
31E
330
204
100
AcDbEntity
  8
0
  6
Continuous
 62
     7
100
AcDbSpline
210
0.0
220
0.0
230
1.0
 70
     8
 71
     3
 72
     9
 73
     5
 74
     0
 42
0.0000000001
 43
0.0000000001
 40
0.0
 40
0.0
 40
0.0
 40
0.0
 40
0.5140838890000001
 40
1.0
 40
1.0
 40
1.0
 40
1.0
 10
7.8173869585
 20
5.894884812199999
 30
0.0
 10
7.8151949998
 20
5.8986523349
 30
0.0
 10
7.811734216599999
 20
5.9065038758
 30
0.0
 10
7.8105158808
 20
5.915021349899999
 30
0.0
 10
7.810514273099999
 20
5.919141296699999
 30
0.0
  0
SPLINE
  5
31F
330
204
100
AcDbEntity
  8
0
  6
Continuous
 62
     7
100
AcDbSpline
210
0.0
220
0.0
230
1.0
 70
     8
 71
     3
 72
    11
 73
     7
 74
     0
 42
0.0000000001
 43
0.0000000001
 40
0.0
 40
0.0
 40
0.0
 40
0.0
 40
0.2538925175
 40
0.5208172008
 40
0.7748038245000001
 40
1.0
 40
1.0
 40
1.0
 40
1.0
 10
7.6570541364
 20
6.083884120599999
 30
0.0
 10
7.646865724199999
 20
6.0780018732
 30
0.0
 10
7.624266201599999
 20
6.0688236032
 30
0.0
 10
7.588855740399999
 20
6.061984363999999
 30
0.0
 10
7.5541636196
 20
6.060972518499999
 30
0.0
 10
7.5320238559
 20
6.0635608495
 30
0.0
 10
7.5217800512
 20
6.065548466599999
 30
0.0
  0
SPLINE
  5
320
330
204
100
AcDbEntity
  8
0
  6
Continuous
 62
     7
100
AcDbSpline
210
0.0
220
0.0
230
1.0
 70
     8
 71
     3
 72
     9
 73
     5
 74
     0
 42
0.0000000001
 43
0.0000000001
 40
0.0
 40
0.0
 40
0.0
 40
0.0
 40
0.5140838890000001
 40
1.0
 40
1.0
 40
1.0
 40
1.0
 10
7.4387770269
 20
6.113470413099999
 30
0.0
 10
7.4365850682
 20
6.1172379357
 30
0.0
 10
7.433124284999999
 20
6.125089476699999
 30
0.0
 10
7.431905949199999
 20
6.1336069507
 30
0.0
 10
7.4319043415
 20
6.1377268976
 30
0.0
  0
SPLINE
  5
321
330
204
100
AcDbEntity
  8
0
  6
Continuous
 62
     7
100
AcDbSpline
210
0.0
220
0.0
230
1.0
 70
     8
 71
     3
 72
    11
 73
     7
 74
     0
 42
0.0000000001
 43
0.0000000001
 40
0.0
 40
0.0
 40
0.0
 40
0.0
 40
0.2897771797
 40
0.5490714036
 40
0.7822268828
 40
1.0
 40
1.0
 40
1.0
 40
1.0
 10
8.9947092221
 20
6.2470222136
 30
0.0
 10
8.9947092221
 20
6.251012881799999
 30
0.0
 10
8.994105822899999
 20
6.2586003796
 30
0.0
 10
8.9910308391
 20
6.2690245915
 30
0.0
 10
8.9858585569
 20
6.277483362699999
 30
0.0
 10
8.980998154199999
 20
6.281568360499999
 30
0.0
 10
8.978400874
 20
6.2830678669
 30
0.0
  0
SPLINE
  5
322
330
204
100
AcDbEntity
  8
0
  6
Continuous
 62
     7
100
AcDbSpline
210
0.0
220
0.0
230
1.0
 70
     8
 71
     3
 72
    11
 73
     7
 74
     0
 42
0.0000000001
 43
0.0000000001
 40
0.0
 40
0.0
 40
0.0
 40
0.0
 40
0.2027226929
 40
0.4315135815
 40
0.6963035634999999
 40
1.0
 40
1.0
 40
1.0
 40
1.0
 10
7.6956829444
 20
6.1377268973
 30
0.0
 10
7.695682107399999
 20
6.1330504982
 30
0.0
 10
7.6940406473
 20
6.1230364894
 30
0.0
 10
7.686576429299999
 20
6.1085599389
 30
0.0
 10
7.6739758396
 20
6.094917220599999
 30
0.0
 10
7.663121222899999
 20
6.087386933799999
 30
0.0
 10
7.6570541364
 20
6.083884120599999
 30
0.0
  0
SPLINE
  5
323
330
204
100
AcDbEntity
  8
0
  6
Continuous
 62
     7
100
AcDbSpline
210
0.0
220
0.0
230
1.0
 70
     8
 71
     3
 72
    11
 73
     7
 74
     0
 42
0.0000000001
 43
0.0000000001
 40
0.0
 40
0.0
 40
0.0
 40
0.0
 40
0.2027226929
 40
0.4315135815
 40
0.6963035634999999
 40
1.0
 40
1.0
 40
1.0
 40
1.0
 10
8.074292875999999
 20
5.919141296499999
 30
0.0
 10
8.074292038999999
 20
5.9144648973
 30
0.0
 10
8.072650578899999
 20
5.9044508886
 30
0.0
 10
8.0651863608
 20
5.889974338099999
 30
0.0
 10
8.0525857711
 20
5.8763316198
 30
0.0
 10
8.0417311545
 20
5.868801332899999
 30
0.0
 10
8.035664067999999
 20
5.8652985198
 30
0.0
  0
SPLINE
  5
324
330
204
100
AcDbEntity
  8
0
  6
Continuous
 62
     7
100
AcDbSpline
210
0.0
220
0.0
230
1.0
 70
     8
 71
     3
 72
    11
 73
     7
 74
     0
 42
0.0000000001
 43
0.0000000001
 40
0.0
 40
0.0
 40
0.0
 40
0.0
 40
0.2027226931
 40
0.4315135821000001
 40
0.6963035641
 40
1.0
 40
1.0
 40
1.0
 40
1.0
 10
8.4222738952
 20
6.557221873699999
 30
0.0
 10
8.4222730582
 20
6.5525454746
 30
0.0
 10
8.420631597999999
 20
6.542531465999999
 30
0.0
 10
8.4131673799
 20
6.528054915599999
 30
0.0
 10
8.400566790199999
 20
6.514412197499999
 30
0.0
 10
8.389712173699999
 20
6.5068819107
 30
0.0
 10
8.383645087199999
 20
6.503379097599999
 30
0.0
  0
SPLINE
  5
325
330
204
100
AcDbEntity
  8
0
  6
Continuous
 62
     7
100
AcDbSpline
210
0.0
220
0.0
230
1.0
 70
     8
 71
     3
 72
    11
 73
     7
 74
     0
 42
0.0000000001
 43
0.0000000001
 40
0.0
 40
0.0
 40
0.0
 40
0.0
 40
0.2027226931
 40
0.4315135821000001
 40
0.6963035641
 40
1.0
 40
1.0
 40
1.0
 40
1.0
 10
8.800883826799999
 20
6.338636272899999
 30
0.0
 10
8.800882989799999
 20
6.3339598737
 30
0.0
 10
8.799241529599999
 20
6.323945865099999
 30
0.0
 10
8.7917773114
 20
6.3094693148
 30
0.0
 10
8.779176721799998
 20
6.295826596699999
 30
0.0
 10
8.768322105299999
 20
6.288296309899999
 30
0.0
 10
8.762255018799999
 20
6.284793496799999
 30
0.0
  0
SPLINE
  5
326
330
204
100
AcDbEntity
  8
0
  6
Continuous
 62
     7
100
AcDbSpline
210
0.0
220
0.0
230
1.0
 70
     8
 71
     3
 72
    11
 73
     7
 74
     0
 42
0.0000000001
 43
0.0000000001
 40
0.0
 40
0.0
 40
0.0
 40
0.0
 40
0.2387035974
 40
0.4844337576
 40
0.7395525461
 40
1.0
 40
1.0
 40
1.0
 40
1.0
 10
7.4571068234
 20
5.031912638
 30
0.0
 10
7.457114043999999
 20
5.029858762299999
 30
0.0
 10
7.4562708233
 20
5.025661561799999
 30
0.0
 10
7.4530079121
 20
5.0200998392
 30
0.0
 10
7.448327773499999
 20
5.015440610999999
 30
0.0
 10
7.4446356383
 20
5.012942535699999
 30
0.0
 10
7.4426948897
 20
5.0118220506
 30
0.0
  0
SPLINE
  5
327
330
204
100
AcDbEntity
  8
0
  6
Continuous
 62
     7
100
AcDbSpline
210
0.0
220
0.0
230
1.0
 70
     8
 71
     3
 72
    11
 73
     7
 74
     0
 42
0.0000000001
 43
0.0000000001
 40
0.0
 40
0.0
 40
0.0
 40
0.0
 40
0.2386326706
 40
0.4846875325
 40
0.7398248798
 40
1.0
 40
1.0
 40
1.0
 40
1.0
 10
8.810064307899999
 20
5.249908345099999
 30
0.0
 10
8.8099960897
 20
5.2479028954
 30
0.0
 10
8.809046439699999
 20
5.243834786399999
 30
0.0
 10
8.805771535699999
 20
5.238456316899999
 30
0.0
 10
8.801165236399999
 20
5.233939553199999
 30
0.0
 10
8.797556061099999
 20
5.231505686499999
 30
0.0
 10
8.795661406599998
 20
5.230411813699999
 30
0.0
  0
SPLINE
  5
328
330
204
100
AcDbEntity
  8
0
  6
Continuous
 62
     7
100
AcDbSpline
210
0.0
220
0.0
230
1.0
 70
     8
 71
     3
 72
    10
 73
     6
 74
     0
 42
0.0000000001
 43
0.0000000001
 40
0.0
 40
0.0
 40
0.0
 40
0.0
 40
0.4400185707000001
 40
0.7089636973000001
 40
1.0
 40
1.0
 40
1.0
 40
1.0
 10
8.795661406599998
 20
5.230411813699999
 30
0.0
 10
8.7912057627
 20
5.2278393618
 30
0.0
 10
8.7833420549
 20
5.224840548899999
 30
0.0
 10
8.771853517
 20
5.2226191519
 30
0.0
 10
8.7653011188
 20
5.222135185399999
 30
0.0
 10
8.7618983924
 20
5.222096323299999
 30
0.0
  0
SPLINE
  5
329
330
204
100
AcDbEntity
  8
0
  6
Continuous
 62
     7
100
AcDbSpline
210
0.0
220
0.0
230
1.0
 70
     8
 71
     3
 72
    19
 73
    15
 74
     0
 42
0.0000000001
 43
0.0000000001
 40
0.0
 40
0.0
 40
0.0
 40
0.0
 40
0.1149387396
 40
0.2566743925
 40
0.3351642409
 40
0.4163653418
 40
0.4979179794000001
 40
0.5770950618000001
 40
0.6516084467000001
 40
0.720086812
 40
0.8347113173
 40
0.9219252065
 40
0.9602743173999998
 40
1.0
 40
1.0
 40
1.0
 40
1.0
 10
7.4426948897
 20
5.0118220506
 30
0.0
 10
7.4394408085
 20
5.0099433172
 30
0.0
 10
7.4316681748
 20
5.006605864199999
 30
0.0
 10
7.4208983472
 20
5.004274860799999
 30
0.0
 10
7.4110694747
 20
5.003433707
 30
0.0
 10
7.403170632
 20
5.003516160299999
 30
0.0
 10
7.3952925427
 20
5.0043301046
 30
0.0
 10
7.387740109099999
 20
5.005849332699999
 30
0.0
 10
7.3808038396
 20
5.0080602348
 30
0.0
 10
7.3731071184
 20
5.011505613399999
 30
0.0
 10
7.3657042107
 20
5.0165441239
 30
0.0
 10
7.360819533699999
 20
5.022928666999999
 30
0.0
 10
7.358995982699999
 20
5.028052464599999
 30
0.0
 10
7.358683405899999
 20
5.0306139587
 30
0.0
 10
7.3586834082
 20
5.031912638399999
 30
0.0
  0
SPLINE
  5
32A
330
204
100
AcDbEntity
  8
0
  6
Continuous
 62
     7
100
AcDbSpline
210
0.0
220
0.0
230
1.0
 70
     8
 71
     3
 72
    11
 73
     7
 74
     0
 42
0.0000000001
 43
0.0000000001
 40
0.0
 40
0.0
 40
0.0
 40
0.0
 40
0.2867593703
 40
0.5497886751
 40
0.7885809494
 40
1.0
 40
1.0
 40
1.0
 40
1.0
 10
7.521779873799999
 20
6.065548161799999
 30
0.0
 10
7.512513627799999
 20
6.0673460062
 30
0.0
 10
7.4948421483
 20
6.0714671784
 30
0.0
 10
7.4707498333
 20
6.0816353847
 30
0.0
 10
7.451676875299999
 20
6.0957260947
 30
0.0
 10
7.4422758698
 20
6.1074556233
 30
0.0
 10
7.438774927199999
 20
6.1134700059
 30
0.0
  0
SPLINE
  5
32B
330
204
100
AcDbEntity
  8
0
  6
Continuous
 62
     7
100
AcDbSpline
210
0.0
220
0.0
230
1.0
 70
     8
 71
     3
 72
    11
 73
     7
 74
     0
 42
0.0000000001
 43
0.0000000001
 40
0.0
 40
0.0
 40
0.0
 40
0.0
 40
0.2867593703
 40
0.5497886751
 40
0.7885809494
 40
1.0
 40
1.0
 40
1.0
 40
1.0
 10
7.900389805399999
 20
5.846962561
 30
0.0
 10
7.891123559299999
 20
5.848760405399999
 30
0.0
 10
7.873452079899999
 20
5.852881577499999
 30
0.0
 10
7.849359764899999
 20
5.8630497839
 30
0.0
 10
7.8302868069
 20
5.877140493899999
 30
0.0
 10
7.8208858013
 20
5.888870022399999
 30
0.0
 10
7.817384858799999
 20
5.8948844051
 30
0.0
  0
SPLINE
  5
32C
330
204
100
AcDbEntity
  8
0
  6
Continuous
 62
     7
100
AcDbSpline
210
0.0
220
0.0
230
1.0
 70
     8
 71
     3
 72
    12
 73
     8
 74
     0
 42
0.0000000001
 43
0.0000000001
 40
0.0
 40
0.0
 40
0.0
 40
0.0
 40
0.1197235728
 40
0.2397374372
 40
0.4850166531000001
 40
0.7401092406
 40
1.0
 40
1.0
 40
1.0
 40
1.0
 10
7.810514273099999
 20
5.919141296699999
 30
0.0
 10
7.8105131946
 20
5.921905132899999
 30
0.0
 10
7.811045601699999
 20
5.927453170099999
 30
0.0
 10
7.814132172299999
 20
5.938269744099999
 30
0.0
 10
7.821519054299999
 20
5.950818927799999
 30
0.0
 10
7.834052504299999
 20
5.9632832733
 30
0.0
 10
7.843947170599999
 20
5.9699842783
 30
0.0
 10
7.849142998699999
 20
5.972984073099999
 30
0.0
  0
SPLINE
  5
32D
330
204
100
AcDbEntity
  8
0
  6
Continuous
 62
     7
100
AcDbSpline
210
0.0
220
0.0
230
1.0
 70
     8
 71
     3
 72
    12
 73
     8
 74
     0
 42
0.0000000001
 43
0.0000000001
 40
0.0
 40
0.0
 40
0.0
 40
0.0
 40
0.1197235728
 40
0.2397374373
 40
0.4850166531000001
 40
0.7401092406
 40
1.0
 40
1.0
 40
1.0
 40
1.0
 10
8.158495292399999
 20
6.5572218744
 30
0.0
 10
8.158494213899999
 20
6.559985710599999
 30
0.0
 10
8.1590266209
 20
6.565533747799999
 30
0.0
 10
8.162113191499999
 20
6.576350321799999
 30
0.0
 10
8.1695000735
 20
6.588899505499999
 30
0.0
 10
8.182033523599999
 20
6.6013638512
 30
0.0
 10
8.1919281898
 20
6.6080648561
 30
0.0
 10
8.197124018
 20
6.611064651
 30
0.0
  0
SPLINE
  5
32E
330
204
100
AcDbEntity
  8
0
  6
Continuous
 62
     7
100
AcDbSpline
210
0.0
220
0.0
230
1.0
 70
     8
 71
     3
 72
    14
 73
    10
 74
     0
 42
0.0000000001
 43
0.0000000001
 40
0.0
 40
0.0
 40
0.0
 40
0.0
 40
0.291465895
 40
0.4294308513000001
 40
0.5600426345000001
 40
0.6821488157
 40
0.7953172899
 40
0.9004911660999999
 40
1.0
 40
1.0
 40
1.0
 40
1.0
 10
8.711008212199999
 20
6.410815008999999
 30
0.0
 10
8.720368827199999
 20
6.408998855
 30
0.0
 10
8.7339245368
 20
6.404955521499999
 30
0.0
 10
8.750756300499999
 20
6.3977006248
 30
0.0
 10
8.7620960274
 20
6.3917734362
 30
0.0
 10
8.7722320814
 20
6.3853795519
 30
0.0
 10
8.781051402499999
 20
6.3785404187
 30
0.0
 10
8.788432419299999
 20
6.3711708308
 30
0.0
 10
8.792375463999999
 20
6.3657066136
 30
0.0
 10
8.7940131587
 20
6.3628931649
 30
0.0
  0
SPLINE
  5
32F
330
204
100
AcDbEntity
  8
0
  6
Continuous
 62
     7
100
AcDbSpline
210
0.0
220
0.0
230
1.0
 70
     8
 71
     3
 72
    12
 73
     8
 74
     0
 42
0.0000000001
 43
0.0000000001
 40
0.0
 40
0.0
 40
0.0
 40
0.0
 40
0.1197235728
 40
0.2397374373
 40
0.4850166531000001
 40
0.7401092406
 40
1.0
 40
1.0
 40
1.0
 40
1.0
 10
8.537105223999999
 20
6.3386362735
 30
0.0
 10
8.537104145399998
 20
6.3414001097
 30
0.0
 10
8.5376365525
 20
6.3469481469
 30
0.0
 10
8.540723123099999
 20
6.357764721
 30
0.0
 10
8.548110004999999
 20
6.3703139047
 30
0.0
 10
8.560643455099999
 20
6.382778250299999
 30
0.0
 10
8.5705381214
 20
6.389479255299999
 30
0.0
 10
8.5757339496
 20
6.392479050099999
 30
0.0
  0
SPLINE
  5
330
330
204
100
AcDbEntity
  8
0
  6
Continuous
 62
     7
100
AcDbSpline
210
0.0
220
0.0
230
1.0
 70
     8
 71
     3
 72
    11
 73
     7
 74
     0
 42
0.0000000001
 43
0.0000000001
 40
0.0
 40
0.0
 40
0.0
 40
0.0
 40
0.1988413032
 40
0.4413660055000001
 40
0.7163878186
 40
1.0
 40
1.0
 40
1.0
 40
1.0
 10
8.197124018
 20
6.611064651
 30
0.0
 10
8.2051038261
 20
6.615671767899999
 30
0.0
 10
8.2239550734
 20
6.623966159299999
 30
0.0
 10
8.2563715086
 20
6.631808301399999
 30
0.0
 10
8.293570374899999
 20
6.6344364995
 30
0.0
 10
8.3194953944
 20
6.631901436
 30
0.0
 10
8.332397575299999
 20
6.6293993976
 30
0.0
  0
SPLINE
  5
331
330
204
100
AcDbEntity
  8
0
  6
Continuous
 62
     7
100
AcDbSpline
210
0.0
220
0.0
230
1.0
 70
     8
 71
     3
 72
     9
 73
     5
 74
     0
 42
0.0000000001
 43
0.0000000001
 40
0.0
 40
0.0
 40
0.0
 40
0.0
 40
0.4950101072999999
 40
1.0
 40
1.0
 40
1.0
 40
1.0
 10
8.415402699299999
 20
6.5814786633
 30
0.0
 10
8.417514129
 20
6.577851563099999
 30
0.0
 10
8.421000860299999
 20
6.570024372599999
 30
0.0
 10
8.422274661599999
 20
6.561503388999999
 30
0.0
 10
8.4222738952
 20
6.557221873699999
 30
0.0
  0
SPLINE
  5
332
330
204
100
AcDbEntity
  8
0
  6
Continuous
 62
     7
100
AcDbSpline
210
0.0
220
0.0
230
1.0
 70
     8
 71
     3
 72
    11
 73
     7
 74
     0
 42
0.0000000001
 43
0.0000000001
 40
0.0
 40
0.0
 40
0.0
 40
0.0
 40
0.1988413032
 40
0.4413660055000001
 40
0.7163878186
 40
1.0
 40
1.0
 40
1.0
 40
1.0
 10
8.5757339496
 20
6.392479050099999
 30
0.0
 10
8.5837137577
 20
6.397086167
 30
0.0
 10
8.6025650049
 20
6.4053805584
 30
0.0
 10
8.6349814401
 20
6.413222700599999
 30
0.0
 10
8.672180306499999
 20
6.4158508986
 30
0.0
 10
8.6981053259
 20
6.413315835199999
 30
0.0
 10
8.711007506899999
 20
6.410813796699999
 30
0.0
  0
SPLINE
  5
333
330
204
100
AcDbEntity
  8
0
  6
Continuous
 62
     7
100
AcDbSpline
210
0.0
220
0.0
230
1.0
 70
     8
 71
     3
 72
    14
 73
    10
 74
     0
 42
0.0000000001
 43
0.0000000001
 40
0.0
 40
0.0
 40
0.0
 40
0.0
 40
0.291465895
 40
0.4294308513000001
 40
0.5600426345000001
 40
0.6821488157
 40
0.7953172899
 40
0.9004911660999999
 40
1.0
 40
1.0
 40
1.0
 40
1.0
 10
8.332398280599999
 20
6.6294006098
 30
0.0
 10
8.341758895599999
 20
6.6275844558
 30
0.0
 10
8.3553146052
 20
6.623541122299999
 30
0.0
 10
8.372146368999999
 20
6.616286225599999
 30
0.0
 10
8.3834860958
 20
6.610359037
 30
0.0
 10
8.3936221498
 20
6.603965152799999
 30
0.0
 10
8.402441470899999
 20
6.5971260195
 30
0.0
 10
8.409822487699999
 20
6.589756431599999
 30
0.0
 10
8.413765532499999
 20
6.5842922144
 30
0.0
 10
8.4154032271
 20
6.5814787657
 30
0.0
  0
SPLINE
  5
334
330
204
100
AcDbEntity
  8
0
  6
Continuous
 62
     7
100
AcDbSpline
210
0.0
220
0.0
230
1.0
 70
     8
 71
     3
 72
     9
 73
     5
 74
     0
 42
0.0000000001
 43
0.0000000001
 40
0.0
 40
0.0
 40
0.0
 40
0.0
 40
0.4950101072999999
 40
1.0
 40
1.0
 40
1.0
 40
1.0
 10
8.794012630800001
 20
6.3628930624
 30
0.0
 10
8.7961240605
 20
6.3592659622
 30
0.0
 10
8.799610791900001
 20
6.351438771699999
 30
0.0
 10
8.800884593200001
 20
6.3429177882
 30
0.0
 10
8.800883826799999
 20
6.338636272899999
 30
0.0
  0
SPLINE
  5
335
330
204
100
AcDbEntity
  8
0
  6
Continuous
 62
     7
100
AcDbSpline
210
0.0
220
0.0
230
1.0
 70
     8
 71
     3
 72
    19
 73
    15
 74
     0
 42
0.0000000001
 43
0.0000000001
 40
0.0
 40
0.0
 40
0.0
 40
0.0
 40
0.1148772349
 40
0.2564574988
 40
0.4161017682
 40
0.5765898395
 40
0.6512385853
 40
0.7196064775
 40
0.780730686
 40
0.8344299738
 40
0.8811687165999998
 40
0.9219100042
 40
0.9603390170999999
 40
1.0
 40
1.0
 40
1.0
 40
1.0
 10
7.849142998699999
 20
5.972984073099999
 30
0.0
 10
7.857861980499999
 20
5.9780179496
 30
0.0
 10
7.878688831299999
 20
5.9869409233
 30
0.0
 10
7.9145059799
 20
5.9947614474
 30
0.0
 10
7.955158941799999
 20
5.996217775299999
 30
0.0
 10
7.989632203099999
 20
5.991119801799999
 30
0.0
 10
8.0150395184
 20
5.9830857225
 30
0.0
 10
8.031404442999999
 20
5.975745532699999
 30
0.0
 10
8.0451384624
 20
5.9673369624
 30
0.0
 10
8.056073863099999
 20
5.9582563384
 30
0.0
 10
8.0642411226
 20
5.948883289099999
 30
0.0
 10
8.069937596599999
 20
5.939358959099999
 30
0.0
 10
8.073465374799999
 20
5.9294869948
 30
0.0
 10
8.074293498099999
 20
5.922617170099999
 30
0.0
 10
8.074292875999999
 20
5.919141296499999
 30
0.0
  0
SPLINE
  5
336
330
204
100
AcDbEntity
  8
0
  6
Continuous
 62
     7
100
AcDbSpline
210
0.0
220
0.0
230
1.0
 70
     8
 71
     3
 72
    19
 73
    15
 74
     0
 42
0.0000000001
 43
0.0000000001
 40
0.0
 40
0.0
 40
0.0
 40
0.0
 40
0.1148772349
 40
0.2564574988
 40
0.4161017682
 40
0.5765898395
 40
0.6512385853
 40
0.7196064775
 40
0.780730686
 40
0.8344299738
 40
0.8811687165999998
 40
0.9219100042
 40
0.9603390170999999
 40
1.0
 40
1.0
 40
1.0
 40
1.0
 10
7.4705330671
 20
6.191569674
 30
0.0
 10
7.4792520489
 20
6.196603550399999
 30
0.0
 10
7.5000788997
 20
6.205526524099999
 30
0.0
 10
7.5358960483
 20
6.2133470482
 30
0.0
 10
7.576549010199999
 20
6.214803376199999
 30
0.0
 10
7.611022271599999
 20
6.2097054026
 30
0.0
 10
7.6364295869
 20
6.2016713234
 30
0.0
 10
7.652794511399999
 20
6.1943311335
 30
0.0
 10
7.6665285308
 20
6.1859225632
 30
0.0
 10
7.6774639315
 20
6.176841939199999
 30
0.0
 10
7.685631191099999
 20
6.16746889
 30
0.0
 10
7.691327665
 20
6.157944559899999
 30
0.0
 10
7.6948554432
 20
6.1480725957
 30
0.0
 10
7.695683566499999
 20
6.141202771
 30
0.0
 10
7.6956829444
 20
6.1377268973
 30
0.0
  0
SPLINE
  5
337
330
204
100
AcDbEntity
  8
0
  6
Continuous
 62
     7
100
AcDbSpline
210
0.0
220
0.0
230
1.0
 70
     8
 71
     3
 72
    11
 73
     7
 74
     0
 42
0.0000000001
 43
0.0000000001
 40
0.0
 40
0.0
 40
0.0
 40
0.0
 40
0.2177745345
 40
0.4509306057
 40
0.7102242985
 40
1.0
 40
1.0
 40
1.0
 40
1.0
 10
8.978400874
 20
6.2830678669
 30
0.0
 10
8.9758036801
 20
6.2845673234
 30
0.0
 10
8.9698359557
 20
6.286733895
 30
0.0
 10
8.9599246823
 20
6.286983785499999
 30
0.0
 10
8.9493599986
 20
6.2844348019
 30
0.0
 10
8.9424876249
 20
6.281163769299999
 30
0.0
 10
8.9390317547
 20
6.2791685336
 30
0.0
  0
SPLINE
  5
338
330
204
100
AcDbEntity
  8
0
  6
Continuous
 62
     7
100
AcDbSpline
210
0.0
220
0.0
230
1.0
 70
     8
 71
     3
 72
    12
 73
     8
 74
     0
 42
0.0000000001
 43
0.0000000001
 40
0.0
 40
0.0
 40
0.0
 40
0.0
 40
0.1197235728
 40
0.2397374372
 40
0.4850166531000001
 40
0.7401092406
 40
1.0
 40
1.0
 40
1.0
 40
1.0
 10
7.4319043415
 20
6.1377268976
 30
0.0
 10
7.431903262999999
 20
6.1404907338
 30
0.0
 10
7.4324356701
 20
6.1460387709
 30
0.0
 10
7.4355222408
 20
6.1568553449
 30
0.0
 10
7.442909122699999
 20
6.1694045286
 30
0.0
 10
7.4554425728
 20
6.181868874199999
 30
0.0
 10
7.465337239
 20
6.188569879099999
 30
0.0
 10
7.4705330671
 20
6.191569674
 30
0.0
  0
SPLINE
  5
339
330
204
100
AcDbEntity
  8
0
  6
Continuous
 62
     7
100
AcDbSpline
210
0.0
220
0.0
230
1.0
 70
     8
 71
     3
 72
    15
 73
    11
 74
     0
 42
0.0000000001
 43
0.0000000001
 40
0.0
 40
0.0
 40
0.0
 40
0.0
 40
0.1141462769
 40
0.2373347432
 40
0.3669750849
 40
0.4999983967000001
 40
0.6330219315
 40
0.7626629244
 40
0.8858524170999999
 40
1.0
 40
1.0
 40
1.0
 40
1.0
 10
8.045408401299999
 20
5.7632379297
 30
0.0
 10
8.041597106699999
 20
5.7610374908
 30
0.0
 10
8.034068604599999
 20
5.7557594571
 30
0.0
 10
8.0237091751
 20
5.7460685158
 30
0.0
 10
8.014163593699999
 20
5.734611456699999
 30
0.0
 10
8.005789141299999
 20
5.721821230299999
 30
0.0
 10
7.9988997622
 20
5.708173572499999
 30
0.0
 10
7.993750481599999
 20
5.6941782373
 30
0.0
 10
7.990537604
 20
5.6803611182
 30
0.0
 10
7.989730933799999
 20
5.6712021395
 30
0.0
 10
7.989730933799999
 20
5.666801191799999
 30
0.0
  0
SPLINE
  5
33A
330
204
100
AcDbEntity
  8
0
  6
Continuous
 62
     7
100
AcDbSpline
210
0.0
220
0.0
230
1.0
 70
     8
 71
     3
 72
    15
 73
    11
 74
     0
 42
0.0000000001
 43
0.0000000001
 40
0.0
 40
0.0
 40
0.0
 40
0.0
 40
0.1190358554
 40
0.2432198986
 40
0.3707467529
 40
0.4999988441
 40
0.6292509422000001
 40
0.756778614
 40
0.8809637862999998
 40
1.0
 40
1.0
 40
1.0
 40
1.0
 10
4.402731951899999
 20
4.444040854099999
 30
0.0
 10
4.3980730753
 20
4.444040854099999
 30
0.0
 10
4.388554422699999
 20
4.4438404131
 30
0.0
 10
4.3740527658
 20
4.4433484709
 30
0.0
 10
4.359147850299999
 20
4.4429305116
 30
0.0
 10
4.344038971099999
 20
4.442776678299999
 30
0.0
 10
4.3289300607
 20
4.4429305442
 30
0.0
 10
4.3140250673
 20
4.4433484489
 30
0.0
 10
4.299523321299999
 20
4.4438404323
 30
0.0
 10
4.29000461
 20
4.444040854099999
 30
0.0
 10
4.285345719499999
 20
4.444040854099999
 30
0.0
  0
SPLINE
  5
33B
330
204
100
AcDbEntity
  8
0
  6
Continuous
 62
     7
100
AcDbSpline
210
0.0
220
0.0
230
1.0
 70
     8
 71
     3
 72
    15
 73
    11
 74
     0
 42
0.0000000001
 43
0.0000000001
 40
0.0
 40
0.0
 40
0.0
 40
0.0
 40
0.1190358554
 40
0.2432198986
 40
0.3707467529
 40
0.4999988441
 40
0.6292509422000001
 40
0.756778614
 40
0.8809637862999998
 40
1.0
 40
1.0
 40
1.0
 40
1.0
 10
4.938165022699999
 20
4.444040854099999
 30
0.0
 10
4.9335061462
 20
4.444040854099999
 30
0.0
 10
4.9239874936
 20
4.4438404131
 30
0.0
 10
4.9094858367
 20
4.4433484709
 30
0.0
 10
4.8945809212
 20
4.4429305116
 30
0.0
 10
4.879472041899999
 20
4.442776678299999
 30
0.0
 10
4.864363131499999
 20
4.4429305442
 30
0.0
 10
4.8494581381
 20
4.4433484489
 30
0.0
 10
4.834956392099999
 20
4.4438404323
 30
0.0
 10
4.825437680899999
 20
4.444040854099999
 30
0.0
 10
4.820778790299999
 20
4.444040854099999
 30
0.0
  0
DIMENSION
  5
40C
102
{ACAD_XDICTIONARY
360
41B
102
}
102
{ACAD_REACTORS
330
41C
102
}
330
204
100
AcDbEntity
  8
0
100
AcDbDimension
  2
*D2
 10
5.2810467097
 20
4.944041854099999
 30
0.0
 11
4.6117553711
 21
4.944041854099999
 31
0.0
 70
    32
  1
<>[]
 71
     5
 42
1.338582677199999
  3
STANDARD$0
100
AcDbAlignedDimension
 13
3.9424640325
 23
4.329867625799999
 33
0.0
 14
5.2810467097
 24
4.329867625799999
 34
0.0
 50
0.0000000000000114
100
AcDbRotatedDimension
1001
ACAD
1000
DSTYLE
1002
{
1070
    42
1040
0.06875
1070
    43
1040
0.418
1070
    44
1040
0.198
1070
    47
1040
0.0
1070
    48
1040
0.0
1070
    78
1070
     0
1070
   141
1040
0.099
1070
   170
1070
     1
1070
   272
1070
     4
1070
   284
1070
     0
1002
}
  0
DIMENSION
  5
449
330
204
100
AcDbEntity
  8
0
100
AcDbDimension
  2
*D3
 10
5.898082164210549
 20
3.113332192699999
 30
0.0
 11
5.898082164210548
 21
3.7786865234
 31
0.0
 70
    32
  1
<>\P[]
 71
     5
 42
1.3307086614
  3
STANDARD$0
100
AcDbAlignedDimension
 13
5.398082164210549
 23
4.444040854099999
 33
0.0
 14
5.398082164210549
 24
3.113332192699999
 34
0.0
 50
90.00000000000003
100
AcDbRotatedDimension
1001
ACAD
1000
DSTYLE
1002
{
1070
    42
1040
0.06875
1070
    43
1040
0.418
1070
    44
1040
0.198
1070
    47
1040
0.0
1070
    48
1040
0.0
1070
    78
1070
     0
1070
   141
1040
0.099
1070
   170
1070
     1
1070
   272
1070
     4
1002
}
  0
DIMENSION
  5
4AA
102
{ACAD_XDICTIONARY
360
4B8
102
}
102
{ACAD_REACTORS
330
4B9
102
}
330
204
100
AcDbEntity
  8
0
100
AcDbDimension
  2
*D4
 10
3.079099159499999
 20
0.7649400479395419
 30
0.0
 11
3.079099159499999
 21
1.434231386539542
 31
0.0
 70
    32
  1
<>\P[]
 71
     5
 42
1.3385826772
  3
STANDARD$0
100
AcDbAlignedDimension
 13
2.579099159499999
 23
2.103522725139542
 33
0.0
 14
2.579099159499999
 24
0.764940047939542
 34
0.0
 50
90.00000000000003
100
AcDbRotatedDimension
1001
ACAD
1000
DSTYLE
1002
{
1070
    42
1040
0.06875
1070
    43
1040
0.418
1070
    44
1040
0.198
1070
    47
1040
0.0
1070
    48
1040
0.0
1070
    78
1070
     0
1070
   141
1040
0.099
1070
   170
1070
     1
1070
   272
1070
     4
1070
   284
1070
     0
1002
}
  0
ENDSEC
  0
SECTION
  2
OBJECTS
  0
DICTIONARY
  5
C
330
0
100
AcDbDictionary
281
     1
  3
ACAD_COLOR
350
341
  3
ACAD_GROUP
350
D
  3
ACAD_LAYOUT
350
1A
  3
ACAD_MATERIAL
350
340
  3
ACAD_MLINESTYLE
350
17
  3
ACAD_PLOTSETTINGS
350
19
  3
ACAD_PLOTSTYLENAME
350
E
  3
ACAD_TABLESTYLE
350
342
  3
AcDbVariableDictionary
350
4EA
  3
AcmDictionary
350
39F
  3
AMG
350
347
  3
AMGSNAPSETTINGS
350
3F8
  0
DICTIONARY
  5
41B
330
40C
100
AcDbDictionary
280
     1
281
     1
  3
ACAD_DIMASSOC
360
41C
  0
DICTIONARY
  5
4B8
330
4AA
100
AcDbDictionary
280
     1
281
     1
  3
ACAD_DIMASSOC
360
4B9
  0
DICTIONARY
  5
341
102
{ACAD_REACTORS
330
C
102
}
330
C
100
AcDbDictionary
281
     1
  0
DICTIONARY
  5
D
102
{ACAD_REACTORS
330
C
102
}
330
C
100
AcDbDictionary
281
     1
  0
DICTIONARY
  5
1A
102
{ACAD_REACTORS
330
C
102
}
330
C
100
AcDbDictionary
281
     1
  3
Layout1
350
33D
  3
Model
350
33C
  0
DICTIONARY
  5
340
102
{ACAD_REACTORS
330
C
102
}
330
C
100
AcDbDictionary
281
     1
  0
DICTIONARY
  5
17
102
{ACAD_REACTORS
330
C
102
}
330
C
100
AcDbDictionary
281
     1
  3
Standard
350
18
  0
DICTIONARY
  5
19
102
{ACAD_REACTORS
330
C
102
}
330
C
100
AcDbDictionary
281
     1
  0
ACDBDICTIONARYWDFLT
  5
E
102
{ACAD_REACTORS
330
C
102
}
330
C
100
AcDbDictionary
281
     1
  3
Normal
350
F
100
AcDbDictionaryWithDefault
340
F
  0
DICTIONARY
  5
342
102
{ACAD_REACTORS
330
C
102
}
330
C
100
AcDbDictionary
281
     1
  3
Standard
350
343
  0
DICTIONARY
  5
4EA
102
{ACAD_REACTORS
330
C
102
}
330
C
100
AcDbDictionary
281
     1
  3
CTABLESTYLE
350
4EB
  0
DICTIONARY
  5
39F
102
{ACAD_REACTORS
330
C
102
}
330
C
100
AcDbDictionary
281
     1
  3
AcmStdDictionary
350
3AA
  3
AMDTSECTSYM_ARROWCOLOR
350
3C9
  0
DICTIONARY
  5
347
102
{ACAD_REACTORS
330
C
102
}
330
C
100
AcDbDictionary
281
     1
  0
DICTIONARY
  5
3F8
102
{ACAD_REACTORS
330
C
102
}
330
C
100
AcDbDictionary
281
     1
  0
DIMASSOC
  5
41C
102
{ACAD_REACTORS
330
41B
102
}
330
41B
100
AcDbDimAssoc
330
40C
 90
        3
 70
     0
 71
     0
  1
AcDbOsnapPointRef
 72
     1
331
27A
 73
     0
 91
        0
 40
0.0
 10
0.0
 20
0.0
 30
2.000000000000000E+50
 75
     0
  1
AcDbOsnapPointRef
 72
     1
331
27C
 73
     0
 91
        0
 40
0.0
 10
0.0
 20
0.0
 30
2.000000000000000E+50
 75
     0
  0
DIMASSOC
  5
4B9
102
{ACAD_REACTORS
330
4B8
102
}
330
4B8
100
AcDbDimAssoc
330
4AA
 90
        3
 70
     0
 71
     0
  1
AcDbOsnapPointRef
 72
    13
331
303
 73
     0
 91
        0
 40
0.0
 10
0.0
 20
0.0
 30
2.000000000000000E+50
 75
     0
  1
AcDbOsnapPointRef
 72
     1
331
302
 73
     0
 91
        0
 40
0.0
 10
0.0
 20
0.0
 30
2.000000000000000E+50
 75
     0
  0
LAYOUT
  5
33D
102
{ACAD_REACTORS
330
1A
102
}
330
1A
100
AcDbPlotSettings
  1

  2
none_device
  4
ANSI_A_(11.00_x_8.50_Inches)
  6

 40
0.0
 41
0.0
 42
0.0
 43
0.0
 44
279.4
 45
215.9
 46
0.0
 47
0.0
 48
0.0
 49
0.0
140
0.0
141
0.0
142
1.0
143
1.0
 70
     0
 72
     0
 73
     0
 74
     0
  7

 75
     0
147
1.0
 76
     0
 77
     2
 78
   300
148
0.0
149
0.0
100
AcDbLayout
  1
Layout1
 70
     1
 71
     1
 10
0.0
 20
0.0
 11
12.0
 21
9.0
 12
0.0
 22
0.0
 32
0.0
 14
1.000000000000000E+20
 24
1.000000000000000E+20
 34
1.000000000000000E+20
 15
-1.000000000000000E+20
 25
-1.000000000000000E+20
 35
-1.000000000000000E+20
146
0.0
 13
0.0
 23
0.0
 33
0.0
 16
1.0
 26
0.0
 36
0.0
 17
0.0
 27
1.0
 37
0.0
 76
     0
330
205
  0
LAYOUT
  5
33C
102
{ACAD_REACTORS
330
1A
102
}
330
1A
100
AcDbPlotSettings
  1

  2
none_device
  4
ANSI_A_(11.00_x_8.50_Inches)
  6

 40
0.0
 41
0.0
 42
0.0
 43
0.0
 44
279.4
 45
215.9
 46
0.0
 47
0.0
 48
0.0
 49
0.0
140
0.0
141
0.0
142
1.0
143
1.0
 70
  1024
 72
     0
 73
     0
 74
     0
  7

 75
     0
147
1.0
 76
     0
 77
     2
 78
   300
148
0.0
149
0.0
100
AcDbLayout
  1
Model
 70
     0
 71
     0
 10
0.0
 20
0.0
 11
11.0
 21
8.5
 12
0.0
 22
0.0
 32
0.0
 14
0.0
 24
0.0
 34
0.0
 15
0.0
 25
0.0
 35
0.0
146
0.0
 13
0.0
 23
0.0
 33
0.0
 16
1.0
 26
0.0
 36
0.0
 17
0.0
 27
1.0
 37
0.0
 76
     0
330
204
  0
MLINESTYLE
  5
18
102
{ACAD_REACTORS
330
17
102
}
330
17
100
AcDbMlineStyle
  2
STANDARD
 70
     0
  3

 62
   256
 51
90.0
 52
90.0
 71
     2
 49
0.5
 62
   256
  6
BYLAYER
 49
-0.5
 62
   256
  6
BYLAYER
  0
ACDBPLACEHOLDER
  5
F
102
{ACAD_REACTORS
330
E
102
}
330
E
  0
TABLESTYLE
  5
343
102
{ACAD_REACTORS
330
342
102
}
330
342
100
AcDbTableStyle
  3
Standard
 70
     0
 71
     0
 40
0.06
 41
0.06
280
     0
281
     0
  7
STANDARD
140
0.18
170
     2
 62
     0
 63
     7
283
     0
274
    -2
284
     1
 64
     0
275
    -2
285
     1
 65
     0
276
    -2
286
     1
 66
     0
277
    -2
287
     1
 67
     0
278
    -2
288
     1
 68
     0
279
    -2
289
     1
 69
     0
  7
STANDARD
140
0.25
170
     5
 62
     0
 63
     7
283
     0
274
    -2
284
     1
 64
     0
275
    -2
285
     1
 65
     0
276
    -2
286
     1
 66
     0
277
    -2
287
     1
 67
     0
278
    -2
288
     1
 68
     0
279
    -2
289
     1
 69
     0
  7
STANDARD
140
0.18
170
     5
 62
     0
 63
     7
283
     0
274
    -2
284
     1
 64
     0
275
    -2
285
     1
 65
     0
276
    -2
286
     1
 66
     0
277
    -2
287
     1
 67
     0
278
    -2
288
     1
 68
     0
279
    -2
289
     1
 69
     0
  0
DICTIONARYVAR
  5
4EB
102
{ACAD_REACTORS
330
4EA
102
}
330
4EA
100
DictionaryVariables
280
     0
  1
STANDARD
  0
DICTIONARY
  5
3AA
102
{ACAD_REACTORS
330
39F
102
}
330
39F
100
AcDbDictionary
281
     1
  0
XRECORD
  5
3C9
102
{ACAD_REACTORS
330
39F
102
}
330
39F
100
AcDbXrecord
280
     1
 90
-1023410169
  0
ENDSEC
  0
EOF
