  0
SECTION
  2
HEADER
  9
$ACADVER
  1
AC1014
  9
$ACADMAINTVER
 70
     9
  9
$DWGCODEPAGE
  3
ANSI_1252
  9
$INSBASE
 10
43.71006329362085
 20
-2.447277193127462
 30
1.0
  9
$EXTMIN
 10
0.3516808355164418
 20
-70.06326141024461
 30
0.9999999999999982
  9
$EXTMAX
 10
85.4201265872417
 20
7.573760663701123
 30
31.59999976940024
  9
$LIMMIN
 10
0.0
 20
0.0
  9
$LIMMAX
 10
12.0
 20
9.0
  9
$ORTHOMODE
 70
     1
  9
$REGENMODE
 70
     1
  9
$FILLMODE
 70
     1
  9
$QTEXTMODE
 70
     0
  9
$MIRRTEXT
 70
     1
  9
$DRAGMODE
 70
     2
  9
$LTSCALE
 40
1.0
  9
$OSMODE
 70
    37
  9
$ATTMODE
 70
     1
  9
$TEXTSIZE
 40
0.12
  9
$TRACEWID
 40
0.05
  9
$TEXTSTYLE
  7
STANDARD
  9
$CLAYER
  8
0
  9
$CELTYPE
  6
BYLAYER
  9
$CECOLOR
 62
   256
  9
$CELTSCALE
 40
1.0
  9
$DELOBJ
 70
     1
  9
$DISPSILH
 70
     0
  9
$DIMSCALE
 40
1.0
  9
$DIMASZ
 40
4.572
  9
$DIMEXO
 40
1.587499999999999
  9
$DIMDLI
 40
9.525
  9
$DIMRND
 40
0.0
  9
$DIMDLE
 40
0.0
  9
$DIMEXE
 40
4.572
  9
$DIMTP
 40
0.0
  9
$DIMTM
 40
0.0
  9
$DIMTXT
 40
4.572
  9
$DIMCEN
 40
2.286
  9
$DIMTSZ
 40
0.0
  9
$DIMTOL
 70
     0
  9
$DIMLIM
 70
     0
  9
$DIMTIH
 70
     0
  9
$DIMTOH
 70
     1
  9
$DIMSE1
 70
     0
  9
$DIMSE2
 70
     0
  9
$DIMTAD
 70
     0
  9
$DIMZIN
 70
     4
  9
$DIMBLK
  1

  9
$DIMASO
 70
     1
  9
$DIMSHO
 70
     1
  9
$DIMPOST
  1

  9
$DIMAPOST
  1

  9
$DIMALT
 70
     1
  9
$DIMALTD
 70
     6
  9
$DIMALTF
 40
0.03937
  9
$DIMLFAC
 40
1.0
  9
$DIMTOFL
 70
     0
  9
$DIMTVP
 40
0.0
  9
$DIMTIX
 70
     0
  9
$DIMSOXD
 70
     0
  9
$DIMSAH
 70
     0
  9
$DIMBLK1
  1

  9
$DIMBLK2
  1

  9
$DIMSTYLE
  2
ABECAD_3D
  9
$DIMCLRD
 70
     0
  9
$DIMCLRE
 70
     0
  9
$DIMCLRT
 70
     0
  9
$DIMTFAC
 40
1.5
  9
$DIMGAP
 40
2.286
  9
$DIMJUST
 70
     0
  9
$DIMSD1
 70
     0
  9
$DIMSD2
 70
     0
  9
$DIMTOLJ
 70
     1
  9
$DIMTZIN
 70
     4
  9
$DIMALTZ
 70
     4
  9
$DIMALTTZ
 70
     4
  9
$DIMFIT
 70
     5
  9
$DIMUPT
 70
     1
  9
$DIMUNIT
 70
     2
  9
$DIMDEC
 70
     2
  9
$DIMTDEC
 70
     2
  9
$DIMALTU
 70
     7
  9
$DIMALTTD
 70
     6
  9
$DIMTXSTY
  7
STANDARD
  9
$DIMAUNIT
 70
     0
  9
$LUNITS
 70
     2
  9
$LUPREC
 70
     4
  9
$SKETCHINC
 40
0.1
  9
$FILLETRAD
 40
0.0
  9
$AUNITS
 70
     0
  9
$AUPREC
 70
     0
  9
$MENU
  1
ACAD
  9
$ELEVATION
 40
0.0
  9
$PELEVATION
 40
0.0
  9
$THICKNESS
 40
0.0
  9
$LIMCHECK
 70
     0
  9
$BLIPMODE
 70
     0
  9
$CHAMFERA
 40
0.0
  9
$CHAMFERB
 40
0.0
  9
$CHAMFERC
 40
0.0
  9
$CHAMFERD
 40
0.0
  9
$SKPOLY
 70
     0
  9
$TDCREATE
 40
2451760.428845717
  9
$TDUPDATE
 40
2453137.551470544
  9
$TDINDWG
 40
0.3398594097
  9
$TDUSRTIMER
 40
0.3398594097
  9
$USRTIMER
 70
     1
  9
$ANGBASE
 50
0.0
  9
$ANGDIR
 70
     0
  9
$PDMODE
 70
     3
  9
$PDSIZE
 40
2.5
  9
$PLINEWID
 40
0.0
  9
$COORDS
 70
     1
  9
$SPLFRAME
 70
     1
  9
$SPLINETYPE
 70
     6
  9
$SPLINESEGS
 70
     8
  9
$ATTDIA
 70
     0
  9
$ATTREQ
 70
     1
  9
$HANDLING
 70
 22529
  9
$HANDSEED
  5
45D18
  9
$SURFTAB1
 70
     6
  9
$SURFTAB2
 70
     6
  9
$SURFTYPE
 70
     6
  9
$SURFU
 70
     6
  9
$SURFV
 70
     6
  9
$UCSNAME
  2

  9
$UCSORG
 10
43.71006329362085
 20
-2.447277193127462
 30
1.0
  9
$UCSXDIR
 10
1.0
 20
0.0
 30
0.0
  9
$UCSYDIR
 10
0.0
 20
1.0
 30
0.0
  9
$PUCSNAME
  2

  9
$PUCSORG
 10
0.0
 20
0.0
 30
0.0
  9
$PUCSXDIR
 10
1.0
 20
0.0
 30
0.0
  9
$PUCSYDIR
 10
0.0
 20
1.0
 30
0.0
  9
$USERI1
 70
     0
  9
$USERI2
 70
     0
  9
$USERI3
 70
     0
  9
$USERI4
 70
     0
  9
$USERI5
 70
     0
  9
$USERR1
 40
0.0
  9
$USERR2
 40
0.0
  9
$USERR3
 40
0.0
  9
$USERR4
 40
0.0
  9
$USERR5
 40
0.0
  9
$WORLDVIEW
 70
     1
  9
$SHADEDGE
 70
     3
  9
$SHADEDIF
 70
    70
  9
$TILEMODE
 70
     1
  9
$MAXACTVP
 70
    16
  9
$PINSBASE
 10
0.0
 20
0.0
 30
0.0
  9
$PLIMCHECK
 70
     0
  9
$PEXTMIN
 10
1.000000000000000E+20
 20
1.000000000000000E+20
 30
1.000000000000000E+20
  9
$PEXTMAX
 10
-1.000000000000000E+20
 20
-1.000000000000000E+20
 30
-1.000000000000000E+20
  9
$PLIMMIN
 10
0.0
 20
0.0
  9
$PLIMMAX
 10
12.0
 20
9.0
  9
$UNITMODE
 70
     0
  9
$VISRETAIN
 70
     0
  9
$PLINEGEN
 70
     0
  9
$PSLTSCALE
 70
     1
  9
$TREEDEPTH
 70
  3020
  9
$PICKSTYLE
 70
     1
  9
$CMLSTYLE
  2
STANDARD
  9
$CMLJUST
 70
     0
  9
$CMLSCALE
 40
1.0
  9
$PROXYGRAPHICS
 70
     1
  9
$MEASUREMENT
 70
     1
  0
ENDSEC
  0
SECTION
  2
CLASSES
  0
CLASS
  1
DICTIONARYVAR
  2
AcDbDictionaryVar
  3
AutoCAD 2000
 90
        0
280
     0
281
     0
  0
CLASS
  1
ACDBDICTIONARYWDFLT
  2
AcDbDictionaryWithDefault
  3
AutoCAD 2000
 90
        0
280
     0
281
     0
  0
CLASS
  1
ACDBPLACEHOLDER
  2
AcDbPlaceHolder
  3
AutoCAD 2000
 90
        0
280
     0
281
     0
  0
CLASS
  1
LAYOUT
  2
AcDbLayout
  3
AutoCAD 2000
 90
        0
280
     0
281
     0
  0
CLASS
  1
LONG_TRANSACTION
  2
AcDbLongTransaction
  3
AutoCAD 2000
 90
        0
280
     0
281
     0
  0
CLASS
  1
LWPOLYLINE
  2
AcDbPolyline
  3
AutoCAD 2000
 90
        0
280
     0
281
     1
  0
CLASS
  1
HATCH
  2
AcDbHatch
  3
AutoCAD 2000
 90
        0
280
     0
281
     1
  0
CLASS
  1
XRECORD
  2
AcDbXrecord
  3
AutoCAD 2000
 90
        0
280
     0
281
     0
  0
CLASS
  1
LONG_TRANSACTION
  2
AcDbLongTransaction
  3
AutoCAD 2000
 90
        0
280
     0
281
     0
  0
CLASS
  1
LWPOLYLINE
  2
AcDbPolyline
  3
AutoCAD 2000
 90
        0
280
     0
281
     1
  0
CLASS
  1
HATCH
  2
AcDbHatch
  3
AutoCAD 2000
 90
        0
280
     0
281
     1
  0
CLASS
  1
XRECORD
  2
AcDbXrecord
  3
AutoCAD 2000
 90
        0
280
     0
281
     0
  0
CLASS
  1
LONG_TRANSACTION
  2
AcDbLongTransaction
  3
AutoCAD 2000
 90
        0
280
     0
281
     0
  0
CLASS
  1
LWPOLYLINE
  2
AcDbPolyline
  3
AutoCAD 2000
 90
        0
280
     0
281
     1
  0
CLASS
  1
HATCH
  2
AcDbHatch
  3
AutoCAD 2000
 90
        0
280
     0
281
     1
  0
CLASS
  1
XRECORD
  2
AcDbXrecord
  3
AutoCAD 2000
 90
        0
280
     0
281
     0
  0
CLASS
  1
TABLESTYLE
  2
AcDbTableStyle
  3
ObjectDBX Classes
 90
     2047
280
     0
281
     0
  0
CLASS
  1
ACAD_PROXY_OBJECT_WRAPPER
  2
AcDbProxyObjectWrapper
  3
AutoCAD 2000
 90
        0
280
     0
281
     0
  0
CLASS
  1
LONG_TRANSACTION
  2
AcDbLongTransaction
  3
AutoCAD 2000
 90
        0
280
     0
281
     0
  0
CLASS
  1
LWPOLYLINE
  2
AcDbPolyline
  3
AutoCAD 2000
 90
        0
280
     0
281
     1
  0
CLASS
  1
HATCH
  2
AcDbHatch
  3
AutoCAD 2000
 90
        0
280
     0
281
     1
  0
CLASS
  1
XRECORD
  2
AcDbXrecord
  3
AutoCAD 2000
 90
        0
280
     0
281
     0
  0
CLASS
  1
LONG_TRANSACTION
  2
AcDbLongTransaction
  3
AutoCAD 2000
 90
        0
280
     0
281
     0
  0
CLASS
  1
LWPOLYLINE
  2
AcDbPolyline
  3
AutoCAD 2000
 90
        0
280
     0
281
     1
  0
CLASS
  1
HATCH
  2
AcDbHatch
  3
AutoCAD 2000
 90
        0
280
     0
281
     1
  0
CLASS
  1
XRECORD
  2
AcDbXrecord
  3
AutoCAD 2000
 90
        0
280
     0
281
     0
  0
CLASS
  1
LONG_TRANSACTION
  2
AcDbLongTransaction
  3
AutoCAD 2000
 90
        0
280
     0
281
     0
  0
CLASS
  1
LWPOLYLINE
  2
AcDbPolyline
  3
AutoCAD 2000
 90
        0
280
     0
281
     1
  0
CLASS
  1
HATCH
  2
AcDbHatch
  3
AutoCAD 2000
 90
        0
280
     0
281
     1
  0
CLASS
  1
XRECORD
  2
AcDbXrecord
  3
AutoCAD 2000
 90
        0
280
     0
281
     0
  0
ENDSEC
  0
SECTION
  2
TABLES
  0
TABLE
  2
VPORT
  5
458C7
330
0
100
AcDbSymbolTable
 70
     2
  0
VPORT
  5
45CF4
330
458C7
100
AcDbSymbolTableRecord
100
AcDbViewportTableRecord
  2
*ACTIVE
 70
     0
 10
0.0
 20
0.0
 11
1.0
 21
1.0
 12
-7.573135264632298
 22
-9.657235885140657
 13
0.0
 23
0.0
 14
0.25
 24
0.25
 15
0.25
 25
0.25
 16
0.0
 26
0.0
 36
1.0
 17
50.45915879593596
 27
-21.58617631751358
 37
17.2750754020369
 40
78.39713619298582
 41
1.83009708737864
 42
50.0
 43
0.0
 44
0.0
 50
0.0
 51
0.0
 71
     0
 72
 20000
 73
     1
 74
     1
 75
     0
 76
     0
 77
     0
 78
     0
  0
ENDTAB
  0
TABLE
  2
LTYPE
  5
458C4
330
0
100
AcDbSymbolTable
 70
     1
  0
LTYPE
  5
458D0
330
458C4
100
AcDbSymbolTableRecord
100
AcDbLinetypeTableRecord
  2
BYBLOCK
 70
     0
  3

 72
    65
 73
     0
 40
0.0
  0
LTYPE
  5
458D1
330
458C4
100
AcDbSymbolTableRecord
100
AcDbLinetypeTableRecord
  2
BYLAYER
 70
     0
  3

 72
    65
 73
     0
 40
0.0
  0
LTYPE
  5
458D2
330
458C4
100
AcDbSymbolTableRecord
100
AcDbLinetypeTableRecord
  2
CONTINUOUS
 70
     0
  3
Solid line
 72
    65
 73
     0
 40
0.0
  0
ENDTAB
  0
TABLE
  2
LAYER
  5
458C1
330
0
100
AcDbSymbolTable
 70
     8
  0
LAYER
  5
458CD
330
458C1
100
AcDbSymbolTableRecord
100
AcDbLayerTableRecord
  2
0
 70
     0
 62
     7
  6
CONTINUOUS
  0
LAYER
  5
458EA
330
458C1
100
AcDbSymbolTableRecord
100
AcDbLayerTableRecord
  2
DIMS-MTG-HOLES
 70
     0
 62
     1
  6
CONTINUOUS
  0
LAYER
  5
458EB
330
458C1
100
AcDbSymbolTableRecord
100
AcDbLayerTableRecord
  2
ATTRIBUTES
 70
     0
 62
     7
  6
CONTINUOUS
  0
LAYER
  5
4593F
330
458C1
100
AcDbSymbolTableRecord
100
AcDbLayerTableRecord
  2
AREA1
 70
     0
 62
    -7
  6
CONTINUOUS
  0
LAYER
  5
45946
330
458C1
100
AcDbSymbolTableRecord
100
AcDbLayerTableRecord
  2
DEFPOINTS
 70
     0
 62
    -7
  6
CONTINUOUS
  0
LAYER
  5
45972
330
458C1
100
AcDbSymbolTableRecord
100
AcDbLayerTableRecord
  2
SCALE
 70
     0
 62
    -7
  6
CONTINUOUS
  0
LAYER
  5
4597A
330
458C1
100
AcDbSymbolTableRecord
100
AcDbLayerTableRecord
  2
SNAP_POINTS
 70
     0
 62
    -1
  6
CONTINUOUS
  0
LAYER
  5
459D2
330
458C1
100
AcDbSymbolTableRecord
100
AcDbLayerTableRecord
  2
AREA2
 70
     0
 62
    -7
  6
CONTINUOUS
  0
ENDTAB
  0
TABLE
  2
STYLE
  5
458C2
330
0
100
AcDbSymbolTable
 70
     1
  0
STYLE
  5
458CE
330
458C2
100
AcDbSymbolTableRecord
100
AcDbTextStyleTableRecord
  2
STANDARD
 70
     0
 40
0.0
 41
1.0
 50
0.0
 71
     0
 42
0.12
  3
txt
  4

  0
ENDTAB
  0
TABLE
  2
VIEW
  5
458C5
330
0
100
AcDbSymbolTable
 70
     0
  0
ENDTAB
  0
TABLE
  2
UCS
  5
458C6
330
0
100
AcDbSymbolTable
 70
     0
  0
ENDTAB
  0
TABLE
  2
APPID
  5
458C8
330
0
100
AcDbSymbolTable
 70
     1
  0
APPID
  5
458CF
330
458C8
100
AcDbSymbolTableRecord
100
AcDbRegAppTableRecord
  2
ACAD
 70
     0
  0
ENDTAB
  0
TABLE
  2
DIMSTYLE
  5
458C9
330
0
100
AcDbSymbolTable
 70
     2
  0
DIMSTYLE
105
458F6
102
{ACAD_REACTORS
330
45A4C
330
45A82
330
45BCC
102
}
330
458C9
100
AcDbSymbolTableRecord
100
AcDbDimStyleTableRecord
  2
ABECAD_3D
 70
     0
  3

  4

  5

  6

  7

 40
1.0
 41
4.572
 42
1.587499999999999
 43
9.525
 44
4.572
 45
0.0
 46
0.0
 47
0.0
 48
0.0
140
4.572
141
2.286
142
0.0
143
0.03937
144
1.0
145
0.0
146
1.5
147
2.286
 71
     0
 72
     0
 73
     0
 74
     1
 75
     0
 76
     0
 77
     0
 78
     4
170
     1
171
     6
172
     0
173
     0
174
     0
175
     0
176
     0
177
     0
178
     0
270
     2
271
     2
272
     2
273
     7
274
     6
340
458CE
275
     0
280
     0
281
     0
282
     0
283
     1
284
     4
285
     4
286
     4
287
     5
288
     1
  0
DIMSTYLE
105
459E0
330
458C9
100
AcDbSymbolTableRecord
100
AcDbDimStyleTableRecord
  2
STANDARD
 70
     0
  3

  4

  5

  6

  7

 40
1.0
 41
0.18
 42
0.0625
 43
0.38
 44
0.18
 45
0.0
 46
0.0
 47
0.0
 48
0.0
140
0.18
141
0.09
142
0.0
143
25.4
144
1.0
145
0.0
146
1.0
147
0.09
 71
     0
 72
     0
 73
     1
 74
     1
 75
     0
 76
     0
 77
     0
 78
     0
170
     0
171
     2
172
     0
173
     0
174
     0
175
     0
176
     0
177
     0
178
     0
270
     2
271
     4
272
     4
273
     2
274
     2
340
458CE
275
     0
280
     0
281
     0
282
     0
283
     1
284
     0
285
     0
286
     0
287
     3
288
     0
  0
ENDTAB
  0
TABLE
  2
BLOCK_RECORD
  5
458C0
330
0
100
AcDbSymbolTable
 70
     3
  0
BLOCK_RECORD
  5
458D6
102
{ACAD_XDICTIONARY
360
45930
102
}
330
458C0
100
AcDbSymbolTableRecord
100
AcDbBlockTableRecord
  2
*MODEL_SPACE
  0
BLOCK_RECORD
  5
458D3
102
{ACAD_XDICTIONARY
360
4592E
102
}
330
458C0
100
AcDbSymbolTableRecord
100
AcDbBlockTableRecord
  2
*PAPER_SPACE
  0
BLOCK_RECORD
  5
45A4D
330
458C0
100
AcDbSymbolTableRecord
100
AcDbBlockTableRecord
  2
*D0
  0
BLOCK_RECORD
  5
45A83
330
458C0
100
AcDbSymbolTableRecord
100
AcDbBlockTableRecord
  2
*D1
  0
BLOCK_RECORD
  5
45BCD
330
458C0
100
AcDbSymbolTableRecord
100
AcDbBlockTableRecord
  2
*D2
  0
ENDTAB
  0
ENDSEC
  0
SECTION
  2
BLOCKS
  0
BLOCK
  5
458DF
330
458D6
100
AcDbEntity
  8
0
100
AcDbBlockBegin
  2
*MODEL_SPACE
 70
     0
 10
0.0
 20
0.0
 30
0.0
  3
*MODEL_SPACE
  1

  0
ENDBLK
  5
458E0
330
458D6
100
AcDbEntity
  8
0
100
AcDbBlockEnd
  0
BLOCK
  5
458DD
330
458D3
100
AcDbEntity
 67
     1
  8
0
100
AcDbBlockBegin
  2
*PAPER_SPACE
 70
     0
 10
0.0
 20
0.0
 30
0.0
  3
*PAPER_SPACE
  1

  0
ENDBLK
  5
458DE
330
458D3
100
AcDbEntity
 67
     1
  8
0
100
AcDbBlockEnd
  0
BLOCK
  5
45A58
330
45A4D
100
AcDbEntity
  8
0
100
AcDbBlockBegin
  2
*D0
 70
     1
 10
0.0
 20
0.0
 30
0.0
  3
*D0
  1

  0
LINE
  5
45C2E
330
45A4D
100
AcDbEntity
  8
AREA1
 62
     0
100
AcDbLine
 10
41.71006329362086
 20
-0.8597771931290111
 30
0.0
 11
41.71006329362086
 21
5.08546443974991
 31
0.0
  0
LINE
  5
45C2F
330
45A4D
100
AcDbEntity
  8
AREA1
 62
     0
100
AcDbLine
 10
43.71006329362085
 20
-0.8597771931290111
 30
0.0
 11
43.71006329362085
 21
5.08546443974991
 31
0.0
  0
LINE
  5
45C30
330
45A4D
100
AcDbEntity
  8
AREA1
 62
     0
100
AcDbLine
 10
39.71006329362086
 20
0.5134644397499102
 30
0.0
 11
37.71006329362086
 21
0.5134644397499102
 31
0.0
  0
LINE
  5
45C31
330
45A4D
100
AcDbEntity
  8
AREA1
 62
     0
100
AcDbLine
 10
45.71006329362085
 20
0.5134644397499102
 30
0.0
 11
47.71006329362085
 21
0.5134644397499102
 31
0.0
  0
MTEXT
  5
45C32
330
45A4D
100
AcDbEntity
  8
AREA1
 62
     0
100
AcDbMText
 10
43.82488736984545
 20
6.573760663701122
 30
0.0
 40
2.0
 41
0.0
 71
     5
 72
     1
  1
\A1;2.00 [5/64]
1001
ACAD
1000
MTEXTBEGIN
1070
    73
1070
     1
1070
    44
1040
1.0
1070
    74
1070
     0
1000
MTEXTEND
  0
SOLID
  5
45C33
330
45A4D
100
AcDbEntity
  8
AREA1
 62
     0
100
AcDbTrace
 10
39.71006329362086
 20
0.8467977730832433
 30
0.0
 11
39.71006329362086
 21
0.1801311064165769
 31
0.0
 12
41.71006329362086
 22
0.5134644397499102
 32
0.0
 13
41.71006329362086
 23
0.5134644397499102
 33
0.0
  0
SOLID
  5
45C34
330
45A4D
100
AcDbEntity
  8
AREA1
 62
     0
100
AcDbTrace
 10
45.71006329362085
 20
0.8467977730832433
 30
0.0
 11
45.71006329362085
 21
0.1801311064165769
 31
0.0
 12
43.71006329362085
 22
0.5134644397499102
 32
0.0
 13
43.71006329362085
 23
0.5134644397499102
 33
0.0
  0
POINT
  5
45C35
330
45A4D
100
AcDbEntity
  8
DEFPOINTS
 62
     0
100
AcDbPoint
 10
41.71006329362086
 20
-2.447277193129011
 30
23.05627144959936
  0
POINT
  5
45C36
330
45A4D
100
AcDbEntity
  8
DEFPOINTS
 62
     0
100
AcDbPoint
 10
43.71006329362085
 20
-2.447277193129011
 30
23.05627144959936
  0
POINT
  5
45C37
330
45A4D
100
AcDbEntity
  8
DEFPOINTS
 62
     0
100
AcDbPoint
 10
43.71006329362085
 20
0.5134644397499102
 30
0.0
  0
ENDBLK
  5
45A59
330
45A4D
100
AcDbEntity
  8
0
100
AcDbBlockEnd
  0
BLOCK
  5
45A8D
330
45A83
100
AcDbEntity
  8
0
100
AcDbBlockBegin
  2
*D1
 70
     1
 10
0.0
 20
0.0
 30
0.0
  3
*D1
  1

  0
LINE
  5
45C38
330
45A83
100
AcDbEntity
  8
AREA1
 62
     0
100
AcDbLine
 10
45.29756329362085
 20
-2.447277193127462
 30
0.0
 11
53.11272436284664
 21
-2.447277193127464
 31
0.0
  0
LINE
  5
45C39
330
45A83
100
AcDbEntity
  8
AREA1
 62
     0
100
AcDbLine
 10
45.29756329362084
 20
-61.74727551412747
 30
0.0
 11
53.11272436284662
 21
-61.74727551412747
 31
0.0
  0
LINE
  5
45C3A
330
45A83
100
AcDbEntity
  8
AREA1
 62
     0
100
AcDbLine
 10
48.54072436284663
 20
-4.447277193127463
 30
0.0
 11
48.54072436284663
 21
-16.97794302029414
 31
0.0
  0
LINE
  5
45C3B
330
45A83
100
AcDbEntity
  8
AREA1
 62
     0
100
AcDbLine
 10
48.54072436284663
 20
-59.74727551412748
 30
0.0
 11
48.54072436284663
 21
-47.21660968696082
 31
0.0
  0
MTEXT
  5
45C3C
330
45A83
100
AcDbEntity
  8
AREA1
 62
     0
100
AcDbMText
 10
48.54072436284663
 20
-32.09727635362747
 30
0.0
 40
2.0
 41
0.0
 71
     5
 72
     1
  1
\A1;59.30 [2 21/64]
 11
0.0000000000000001
 21
1.0
 31
0.0
1001
ACAD
1000
MTEXTBEGIN
1070
    73
1070
     1
1070
    44
1040
1.0
1070
    74
1070
     0
1000
MTEXTEND
  0
SOLID
  5
45C3D
330
45A83
100
AcDbEntity
  8
AREA1
 62
     0
100
AcDbTrace
 10
48.2073910295133
 20
-4.447277193127463
 30
0.0
 11
48.87405769617997
 21
-4.447277193127463
 31
0.0
 12
48.54072436284663
 22
-2.447277193127463
 32
0.0
 13
48.54072436284663
 23
-2.447277193127463
 33
0.0
  0
SOLID
  5
45C3E
330
45A83
100
AcDbEntity
  8
AREA1
 62
     0
100
AcDbTrace
 10
48.20739102951328
 20
-59.74727551412748
 30
0.0
 11
48.87405769617996
 21
-59.74727551412748
 31
0.0
 12
48.54072436284663
 22
-61.74727551412747
 32
0.0
 13
48.54072436284663
 23
-61.74727551412747
 33
0.0
  0
POINT
  5
45C3F
330
45A83
100
AcDbEntity
  8
DEFPOINTS
 62
     0
100
AcDbPoint
 10
43.71006329362085
 20
-2.447277193127462
 30
1.0
  0
POINT
  5
45C40
330
45A83
100
AcDbEntity
  8
DEFPOINTS
 62
     0
100
AcDbPoint
 10
43.71006329362084
 20
-61.74727551412747
 30
1.0
  0
POINT
  5
45C41
330
45A83
100
AcDbEntity
  8
DEFPOINTS
 62
     0
100
AcDbPoint
 10
48.54072436284663
 20
-61.74727551412747
 30
0.0
  0
ENDBLK
  5
45A8E
330
45A83
100
AcDbEntity
  8
0
100
AcDbBlockEnd
  0
BLOCK
  5
45BD7
330
45BCD
100
AcDbEntity
  8
0
100
AcDbBlockBegin
  2
*D2
 70
     1
 10
0.0
 20
0.0
 30
0.0
  3
*D2
  1

  0
LINE
  5
45C1B
330
45BCD
100
AcDbEntity
  8
AREA2
 62
     0
100
AcDbLine
 10
59.7958473708183
 20
31.5999997693962
 30
0.0
 11
70.02957523803267
 21
31.5999997693962
 31
0.0
  0
LINE
  5
45C1C
330
45BCD
100
AcDbEntity
  8
AREA2
 62
     0
100
AcDbLine
 10
63.33477551412746
 20
1.0
 30
0.0
 11
70.02957523803267
 21
0.9999999999999982
 31
0.0
  0
LINE
  5
45C1D
330
45BCD
100
AcDbEntity
  8
AREA2
 62
     0
100
AcDbLine
 10
65.45757523803267
 20
29.5999997693962
 30
0.0
 11
65.45757523803267
 21
2.999999999999999
 31
0.0
  0
MTEXT
  5
45C1E
330
45BCD
100
AcDbEntity
  8
AREA2
 62
     0
100
AcDbMText
 10
69.06326141024464
 20
16.77440225908313
 30
0.0
 40
2.0
 41
0.0
 71
     5
 72
     1
  1
\A1;30.60 [1 13/64]
 11
0.0000000000000001
 21
1.0
 31
0.0
1001
ACAD
1000
MTEXTBEGIN
1070
    73
1070
     1
1070
    44
1040
1.0
1070
    74
1070
     0
1000
MTEXTEND
  0
SOLID
  5
45C1F
330
45BCD
100
AcDbEntity
  8
AREA2
 62
     0
100
AcDbTrace
 10
65.12424190469935
 20
29.5999997693962
 30
0.0
 11
65.790908571366
 21
29.5999997693962
 31
0.0
 12
65.45757523803267
 22
31.5999997693962
 32
0.0
 13
65.45757523803267
 23
31.5999997693962
 33
0.0
  0
SOLID
  5
45C20
330
45BCD
100
AcDbEntity
  8
AREA2
 62
     0
100
AcDbTrace
 10
65.12424190469935
 20
2.999999999999999
 30
0.0
 11
65.790908571366
 21
2.999999999999999
 31
0.0
 12
65.45757523803267
 22
0.9999999999999994
 32
0.0
 13
65.45757523803267
 23
0.9999999999999994
 33
0.0
  0
POINT
  5
45C21
330
45BCD
100
AcDbEntity
  8
DEFPOINTS
 62
     0
100
AcDbPoint
 10
58.2083473708183
 20
31.5999997693962
 30
-41.71006329362085
  0
POINT
  5
45C22
330
45BCD
100
AcDbEntity
  8
DEFPOINTS
 62
     0
100
AcDbPoint
 10
61.74727551412747
 20
1.0
 30
-41.71006329362085
  0
POINT
  5
45C23
330
45BCD
100
AcDbEntity
  8
DEFPOINTS
 62
     0
100
AcDbPoint
 10
65.45757523803267
 20
0.9999999999999994
 30
0.0
  0
ENDBLK
  5
45BD8
330
45BCD
100
AcDbEntity
  8
0
100
AcDbBlockEnd
  0
ENDSEC
  0
SECTION
  2
ENTITIES
  0
ATTDEF
  5
1
330
458D6
100
AcDbEntity
  8
ATTRIBUTES
100
AcDbText
 10
41.88882810374243
 20
-28.24532135575087
 30
1.002928114437493
 40
0.11999952000048
  1
ALLEN-BRADLEY
100
AcDbAttributeDefinition
  3
MANUFACTURER NAME?
  2
AC_VND_LABEL
 70
     1
  0
ATTDEF
  5
2
330
458D6
100
AcDbEntity
  8
ATTRIBUTES
100
AcDbText
 10
41.88882810374243
 20
-28.49532035575187
 30
1.002928114437493
 40
0.11999952000048
  1
1492-EBL3
100
AcDbAttributeDefinition
  3
CATALOG NUMBER?
  2
AC_PART_NO
 70
     1
  0
ATTDEF
  5
3
330
458D6
100
AcDbEntity
  8
ATTRIBUTES
100
AcDbText
 10
41.88882810374243
 20
-28.74531935575287
 30
1.002928114437493
 40
0.11999952000048
  1
End Barrier
100
AcDbAttributeDefinition
  3
PART DESCRIPTION?
  2
AC_DESCRIPTION
 70
     1
  0
ATTDEF
  5
4
330
458D6
100
AcDbEntity
  8
ATTRIBUTES
100
AcDbText
 10
41.88882810374243
 20
-28.99531835575387
 30
1.002928114437493
 40
0.11999952000048
  1

100
AcDbAttributeDefinition
  3
DEVICE ID?
  2
DEVICE_ID
 70
     1
  0
ATTDEF
  5
5
330
458D6
100
AcDbEntity
  8
ATTRIBUTES
100
AcDbText
 10
41.88882810374243
 20
-29.24531735575487
 30
1.002928114437493
 40
0.11999952000048
  1

100
AcDbAttributeDefinition
  3
CUSTOMER PART NUMBER?
  2
AC_CPART_NO
 70
     1
  0
ATTDEF
  5
6
330
458D6
100
AcDbEntity
  8
ATTRIBUTES
100
AcDbText
 10
41.88882810374243
 20
-29.49531635575587
 30
1.002928114437493
 40
0.11999952000048
  1

100
AcDbAttributeDefinition
  3
CUSTOMER NOTE?
  2
AC_NOTE
 70
     1
  0
ATTDEF
  5
7
330
458D6
100
AcDbEntity
  8
ATTRIBUTES
100
AcDbText
 10
41.88882810374243
 20
-29.74531535575687
 30
1.002928114437493
 40
0.11999952000048
  1

100
AcDbAttributeDefinition
  3
FASTENER DATA?
  2
FASTENER
 70
     1
  0
ATTDEF
  5
8
330
458D6
100
AcDbEntity
  8
ATTRIBUTES
100
AcDbText
 10
41.88882810374243
 20
-29.99531435575787
 30
1.002928114437493
 40
0.11999952000048
  1
MM
100
AcDbAttributeDefinition
  3
UNIT OF SCALE?
  2
AC_SCALE_UNIT
 70
     1
  0
ATTDEF
  5
9
330
458D6
100
AcDbEntity
  8
ATTRIBUTES
100
AcDbText
 10
41.88882810374243
 20
-30.24531335575887
 30
1.002928114437493
 40
0.11999952000048
  1
0
100
AcDbAttributeDefinition
  3
VIEW CODE?
  2
AC_VIEW_CODE
 70
     1
  0
LINE
  5
45967
330
458D6
100
AcDbEntity
  8
SCALE
100
AcDbLine
 10
2.057631564008593
 20
-20.58353988219963
 30
1.0
 11
27.45763156400859
 21
-20.58353988219963
 31
1.0
  0
LINE
  5
45968
330
458D6
100
AcDbEntity
  8
SCALE
100
AcDbLine
 10
27.45763156400859
 20
-20.58353988219963
 30
1.0
 11
27.45763156400859
 21
-23.12353988219963
 31
1.0
  0
LINE
  5
45969
330
458D6
100
AcDbEntity
  8
SCALE
100
AcDbLine
 10
27.45763156400859
 20
-23.12353988219963
 30
1.0
 11
27.45763156400859
 21
-18.0435398821996
 31
1.0
  0
LINE
  5
4596A
330
458D6
100
AcDbEntity
  8
SCALE
100
AcDbLine
 10
2.057631564008593
 20
-23.12353988219963
 30
1.0
 11
2.057631564008593
 21
-18.0435398821996
 31
1.0
  0
LINE
  5
4596B
330
458D6
100
AcDbEntity
  8
SCALE
100
AcDbLine
 10
2.057631564008683
 20
-15.39711614490639
 30
1.0
 11
2.057631564008683
 21
-10.31711614490641
 31
1.0
  0
LINE
  5
4596C
330
458D6
100
AcDbEntity
  8
SCALE
100
AcDbLine
 10
12.05761156400868
 20
-15.39711614490639
 30
1.0
 11
12.05761156400868
 21
-10.31711614490641
 31
1.0
  0
LINE
  5
4596D
330
458D6
100
AcDbEntity
  8
SCALE
100
AcDbLine
 10
2.057631564008683
 20
-12.8571161449064
 30
1.0
 11
12.05761156400868
 21
-12.8571161449064
 31
1.0
  0
TEXT
  5
4596E
330
458D6
100
AcDbEntity
  8
SCALE
100
AcDbText
 10
3.566954304782544
 20
-11.6953291549439
 30
1.0
 40
1.587499999999999
  1
10 mm
100
AcDbText
  0
TEXT
  5
4596F
330
458D6
100
AcDbEntity
  8
SCALE
100
AcDbText
 10
9.655524297096594
 20
-18.82970301972032
 30
1.0
 40
1.587499999999999
  1
[1 Inch]
100
AcDbText
  0
TEXT
  5
45970
330
458D6
100
AcDbEntity
  8
SCALE
100
AcDbText
 10
1.863715644137954
 20
-7.323578530054529
 30
1.0
 40
1.587499999999999
  1
SCALE:
100
AcDbText
  0
LWPOLYLINE
  5
45971
330
458D6
100
AcDbEntity
  8
SCALE
100
AcDbPolyline
 90
        4
 70
     1
 43
0.0
 38
1.0
 10
0.3516808355164418
 20
-4.651468115317229
 10
29.19665285188253
 20
-4.651468115317229
 10
29.19665285188253
 20
-26.0283511114788
 10
0.3516808355164418
 20
-26.0283511114788
  0
3DSOLID
  5
45A4B
330
458D6
100
AcDbEntity
  8
0
100
AcDbModelerGeometry
 70
     1
  1
noi mnm n o         
  1
=0;& {n {m {rn {rn |
  1
-:9@)+r3(;r>++-6= {rn {rn {rn {o {l {k |
  1
3*2/ {j {rn {i {o |
  1
-:961:2:1+ {rn o o o o oqnhgjkjmfinfmnifnf lo o o m o |
  1
):-+:'@+:2/3>+: {rn l o n g |
  1
-:9@)+r3(;r>++-6= {rn {rn {rn {m {l {k |
  1
,7:33 {h {rn {rn {g {m |
  1
-:9@)+r3(;r>++-6= {rn {rn {rn {i {l {k |
  1
9><: {f {no {nn {i {rn {nm -:):-,:; ,6183: |
  1
92:,7r3(;r>++-6= {rn {nl {rn {g |
  1
9><: {nk {nj {ni {i {rn {nh 90-(>-; ,6183: |
  1
300/ {rn {rn {ng {g |
  1
/3>1:r,*-9><: {rn klqhnooilmflimogkn rikqhnmmhjklonhhkhn roqjmfffffggkhooljhn rn nqglifofjlohlljijf:roni mqmmokkiokfmjolnln:roni rnqglifofjlohlljijf:roni rn o o V V V V |
  1
-:9@)+r3(;r>++-6= {rn {rn {f {g {l {k |
  1
92:,7r3(;r>++-6= {rn {nf {rn {no |
  1
9><: {mo {mn {mm {i {rn {ml 90-(>-; ,6183: |
  1
300/ {rn {rn {mk {no |
  1
/3>1:r,*-9><: {rn knqhnooilmflimogkn rikqhnmmhjklonhhkhn roqjmfffffggkhooljmh rn nqglifofjlohlljijf:roni mqmmokkiokfmjolnln:roni rnqglifofjlohlljijf:roni rn o o V V V V |
  1
<0:;8: {rn {mj {mi {mh {mg o {nn {rn |
  1
-:9@)+r3(;r>++-6= {rn {rn {nk {no {l {k |
  1
92:,7r3(;r>++-6= {rn {mf {rn {nj |
  1
9><: {lo {ln {lm {i {rn {ll 90-(>-; ,6183: |
  1
300/ {rn {rn {lk {nj |
  1
/3>1:r,*-9><: {rn knqinooilmflimogjk rklqjlmmhlkjhkfkkif lnqjfffffhifk mqmmokkiokfmjolnln:roni rkqohghjgjnolkhjfmf:rolm n rn nqglifofjlohlljijf:roni mqmmokkiokfmjolnln:roni o V V V V |
  1
<0:;8: {rn {lj {li {lh {lg n {ni {rn |
  1
<0:;8: {rn {lf {ng {ko {kn o {nn {rn |
  1
<0:;8: {rn {ng {km {lk {kl o {nn {rn |
  1
<0:;8: {rn {kk {kj {ng {mg n {ki {rn |
  1
:;8: {kh {kg {kf {ng {jo o |
  1
-:9@)+r3(;r>++-6= {rn {rn {mo {nj {l {k |
  1
92:,7r3(;r>++-6= {rn {jn {rn {mn |
  1
9><: {jm {jl {jk {i {rn {jj 90-(>-; ,6183: |
  1
300/ {rn {rn {ji {mn |
  1
/3>1:r,*-9><: {rn knqinooilmflimogjk rlgqommgmfommfhokh lnqjfffffhifk mqmmokkiokfmjolnln:roni rkqohghjgjnolkhjfmf:rolm n rn nqglifofjlohlljijf:roni mqmmokkiokfmjolnln:roni o V V V V |
  1
<0:;8: {rn {jh {jg {mi {kl n {mm {rn |
  1
<0:;8: {rn {jf {mk {io {in n {ni {rn |
  1
<0:;8: {rn {mk {im {il {ik n {ni {rn |
  1
<0:;8: {rn {jg {jh {mk {lg o {mm {rn |
  1
:;8: {ij {ii {ih {mk {ig o |
  1
<0:;8: {rn {if {mj {ho {hn n {nn {rn |
  1
<0:;8: {rn {hm {hl {mj {kn n {hk {rn |
  1
:;8: {hj {kf {hi {mj {hh o |
  1
<0:;8: {rn {mi {hg {ji {hf o {nn {rn |
  1
:;8: {go {gn {kg {mi {gm o |
  1
<0:;8: {rn {il {mh {jg {gl o {ki {rn |
  1
<0:;8: {rn {mh {il {hm {gk n {ki {rn |
  1
300/ {rn {rn {mh {gj |
  1
/+36,+r3(;r>++-6= {rn {rn {rn {mg |
  1
):-+:' {rn {mg {gi |
  1
):-+:' {rn {mg {gh |
  1
,+->687+r<*-): {rn klqhnooilmflimogji rklqnfhmhljjjkmhkij lnqjfffffhifk rnqglifofjlohlljijf:roni rn o V V |
  1
-:9@)+r3(;r>++-6= {rn {rn {lo {mn {l {k |
  1
92:,7r3(;r>++-6= {rn {gg {rn {ln |
  1
9><: {gf {fo {fn {i {rn {fm 90-(>-; ,6183: |
  1
300/ {rn {rn {fl {ln |
  1
/3>1:r,*-9><: {rn knqinooilmflimogin riqnilnjnhkljfmnkjm lmqomhngingjlfonli mqjkignnolkomgloll:roni oqfmlghfjlmjnnmhijm oqlgmiglklmlijnnkjk rn nqglifofjlohlljijf:roni mqmmokkiokfmjolnln:roni o V V V V |
  1
<0:;8: {rn {fk {fj {km {hf n {lm {rn |
  1
<0:;8: {rn {lh {lk {fj {fi o {mm {rn |
  1
<0:;8: {rn {lk {lh {kk {gl n {mm {rn |
  1
<0:;8: {rn {fh {lj {fg {ff n {ni {rn |
  1
<0:;8: {rn {fj {fk {lj {in o {lm {rn |
  1
:;8: {noo {non {ii {lj {nom o |
  1
<0:;8: {rn {li {nol {nok {noj n {ni {rn |
  1
<0:;8: {rn {kj {kk {li {ik o {ki {rn |
  1
:;8: {noi {ih {noh {li {nog o |
  1
/+36,+r3(;r>++-6= {rn {rn {rn {lg |
  1
):-+:' {rn {lg {nof |
  1
):-+:' {rn {lg {nno |
  1
,+->687+r<*-): {rn knqhnooilmflimogji rliqkfhmhjjnkoghkil lnqjfffffhifk rnqglifofjlohlljijf:roni rn o V V |
  1
<0:;8: {rn {nnn {lf {nnm {nnl n {nn {rn |
  1
<0:;8: {rn {nnk {nnj {lf {hn o {nni {rn |
  1
:;8: {nnh {nng {hi {lf {nnf o |
  1
<0:;8: {rn {nok {ko {kj {gk o {hk {rn |
  1
<0:;8: {rn {ko {nok {nnk {nmo n {hk {rn |
  1
300/ {rn {rn {ko {nmn |
  1
/+36,+r3(;r>++-6= {rn {rn {rn {kn |
  1
):-+:' {rn {kn {nmm |
  1
,+->687+r<*-): {rn klqhnooilmflimogkg rjgqmoglkhlhohfffji lnqjfffffhiflggin rmqhjklhfjomnnlmoml:roni roqlgmiglklmlijnnlkf roqfmlghfjlmjnnmhifh V V |
  1
<0:;8: {rn {km {nnn {fl {nml o {nn {rn |
  1
:;8: {nmk {nmj {gn {km {nmi o |
  1
/+36,+r3(;r>++-6= {rn {rn {rn {kl |
  1
):-+:' {rn {hf {nmh |
  1
,+->687+r<*-): {rn klqhnooilmflimogji rliqkfhmhjjnkoghkil lnqjfffffhifk rnqglifofjlohlljijf:roni rn o V V |
  1
:;8: {nmg {kg {ih {jg {nmf o |
  1
:;8: {nlo {kf {noh {hm {nln o |
  1
9><: {nlm {rn {ki {i {rn {nll 90-(>-; ,6183: |
  1
/061+ {rn klqhnooilmflimogji rklqnfhmhljjjkmhkij lnqjfffffhifk |
  1
/061+ {rn klqhnooilmflimogkg rjgqmoglkhlhognglom lnqjfffffhiflfimom |
  1
-:9@)+r3(;r>++-6= {rn {rn {jm {ln {l {k |
  1
92:,7r3(;r>++-6= {rn {nlk {rn {jl |
  1
9><: {nlj {nli {nlh {i {rn {nlg -:):-,:; ,6183: |
  1
300/ {rn {rn {nlf {jl |
  1
/3>1:r,*-9><: {rn knqinooilmflimogjk rmqkkhmhhnflnmhkimm mkqnjfogjommohffff nqglifofjlohlljijf:roni n o rn nqglifofjlohlljijf:roni mqmmokkiokfmjolnln:roni o V V V V |
  1
<0:;8: {rn {nko {nkn {hg {nml n {jk {rn |
  1
<0:;8: {rn {io {ji {nkn {nkm o {lm {rn |
  1
<0:;8: {rn {ji {io {jh {fi n {lm {rn |
  1
:;8: {nkl {gn {ii {jh {nkk o |
  1
<0:;8: {rn {nkj {jf {nki {nkh n {ni {rn |
  1
<0:;8: {rn {nkn {nko {jf {ff o {jk {rn |
  1
:;8: {nkg {nkf {non {jf {njo o |
  1
/+36,+r3(;r>++-6= {rn {rn {rn {in |
  1
):-+:' {rn {in {njn |
  1
,+->687+r<*-): {rn knqhnooilmflimogil rjqfgimojllikmhkion lnqjfffffhifk rnqglifofjlohlljijf:roni rn o V V |
  1
<0:;8: {rn {im {nkj {njm {njl o {ni {rn |
  1
<0:;8: {rn {hl {hm {im {noj o {hk {rn |
  1
:;8: {njk {noh {njj {im {nji o |
  1
/+36,+r3(;r>++-6= {rn {rn {rn {ik |
  1
):-+:' {rn {noj {njh |
  1
,+->687+r<*-): {rn knqhnooilmflimogkg rklqnfhmhljjjkmhkij lnqjfffffhifk rnqglifofjlohlljijf:roni rn o V V |
  1
/061+ {rn knqhnooilmflimogji rliqkfhmhjjnkoghkil lnqjfffffhifk |
  1
/061+ {rn knqhnooilmflimogkg rklqnfhmhljjjkmhkij lnqjfffffhifk |
  1
<0:;8: {rn {hg {if {nlf {njg o {nn {rn |
  1
<0:;8: {rn {njf {nio {if {nnl o {nlh {rn |
  1
:;8: {nin {nim {nng {if {nil o |
  1
<0:;8: {rn {njm {ho {hl {nmo o {nni {rn |
  1
<0:;8: {rn {ho {njm {njf {nik n {nni {rn |
  1
300/ {rn {rn {nnk {nli |
  1
/+36,+r3(;r>++-6= {rn {rn {rn {hn |
  1
):-+:' {rn {hn {nij |
  1
,+->687+r<*-): {rn klqhnooilmflimogkn rinqhkhmhjjnknmhkii n mqmmokkiokfmjolnln:roni rkqohghjgjnolkhjfmf:rolm n V V |
  1
:;8: {nii {hi {njj {nnk {nih o |
  1
9><: {nig {gj {hk {i {rn {nif 90-(>-; ,6183: |
  1
/061+ {rn klqhnooilmflimogkg rinqhkhmhjjnknninig mlqojimhnkkfjfjlng |
  1
:;8: {nho {nhn {nmj {hg {nhm o |
  1
/+36,+r3(;r>++-6= {rn {rn {rn {hf |
  1
):-+:' {rn {nml {nhl |
  1
,+->687+r<*-): {rn klqhnooilmflimogil rjqfgimojllikmhkion lnqjfffffhifk rnqglifofjlohlljijf:roni rn o V V |
  1
/061+ {rn klqhnooilmflimogji rliqkfhmhjjnkoghkil lnqjfffffhifk |
  1
/+36,+r3(;r>++-6= {rn {nhk {rn {gl |
  1
,+->687+r<*-): {rn klqhnooilmflimogji rklqnfhmhljjjkmhkij lnqjfffffhifk rn nqglifofjlohlljijf:roni mqmmokkiokfmjolnln:roni V V |
  1
/+36,+r3(;r>++-6= {rn {rn {rn {gk |
  1
,+->687+r<*-): {rn klqhnooilmflimogkg rjgqmoglkhlhogmhkig lnqjfffffhifk rn nqglifofjlohlljijf:roni mqmmokkiokfmjolnln:roni V V |
  1
92:,7r3(;r>++-6= {rn {nhj {rn {gj |
  1
/3>1:r,*-9><: {rn knqinooilmflimogjk rjgqfjgfonoinjfhkii lnqjfffffhifk mqmmokkiokfmjolnln:roni rkqohghjgjnolkhjfmf:rolm n rn nqglifofjlohlljijf:roni mqmmokkiokfmjolnln:roni o V V V V |
  1
-:9@)+r3(;r>++-6= {rn {rn {gf {jl {l {k |
  1
92:,7r3(;r>++-6= {rn {nhi {rn {fo |
  1
9><: {nhh {nmn {nni {i {rn {nhg -:):-,:; ,6183: |
  1
300/ {rn {rn {njf {fo |
  1
/3>1:r,*-9><: {rn knqinooilmflimogk rikqhnmmhjklonhhkhn nqoooooooooooooook mqmmokkiokfmjolnln:roni rkqohghjgjnolkhjfmf:rolm n rn nqglifofjlohlljijf:roni mqmmokkiokfmjolnln:roni o V V V V |
  1
<0:;8: {rn {nhf {ngo {nnn {njg n {fn {rn |
  1
<0:;8: {rn {fg {fl {ngo {ngn o {jk {rn |
  1
<0:;8: {rn {fl {fg {fk {nkm n {jk {rn |
  1
:;8: {ngm {nmj {non {fk {ngl o |
  1
/+36,+r3(;r>++-6= {rn {ngk {rn {fi |
  1
,+->687+r<*-): {rn klqhnooilmflimogji rliqkfhmhjjnkoghkil lnqjfffffhifk rn nqglifofjlohlljijf:roni mqmmokkiokfmjolnln:roni V V |
  1
<0:;8: {rn {nol {fh {ngj {ngi o {ni {rn |
  1
<0:;8: {rn {ngo {nhf {fh {nkh o {fn {rn |
  1
:;8: {ngh {ngg {nkf {fh {ngf o |
  1
/+36,+r3(;r>++-6= {rn {rn {rn {ff |
  1
):-+:' {rn {ff {nfo |
  1
,+->687+r<*-): {rn knqhnooilmflimogil rmqkkhmhhnflnlmnofn mlqojimhnkkfjfgohj nqlkgkifgnlhgmjhmi:roni roqlgmiglklmlijnnilm oqfmlghfjlmjnnmhjgi V V |
  1
/061+ {rn knqhnooilmflimogil rjqfgimojllikmigfnh lnqjfffffhifkoomkm |
  1
<0:;8: {rn {nnj {nnk {nol {njl n {nni {rn |
  1
:;8: {nfn {nfm {njj {nol {nfl o |
  1
/+36,+r3(;r>++-6= {rn {rn {rn {noj |
  1
):-+:' {rn {njl {nfk |
  1
,+->687+r<*-): {rn knqhnooilmflimogkg rjgqmoglkhlhohfffji lnqjfffffhiflggin rmqhjklhfjomnnlmoml:roni roqlgmiglklmlijnnlkf roqfmlghfjlmjnnmhifh V V |
  1
/061+ {rn knqhnooilmflimogkg rjgqmoglkhlhognglom lnqjfffffhiflfimom |
  1
:;8: {nfj {nim {nhn {nnn {nfi o |
  1
<0:;8: {rn {ngj {nnm {nnj {nik o {nlh {rn |
  1
<0:;8: {rn {nnm {ngj {nhf {nfh n {nlh {rn |
  1
/+36,+r3(;r>++-6= {rn {rn {rn {nnl |
  1
):-+:' {rn {nnl {nfg |
  1
,+->687+r<*-): {rn klqhnooilmflimogji rmqkkhmhhnflnmhkimm n rnqglifofjlohlljijf:roni rn o V V |
  1
:;8: {nff {nng {nfm {njf {moo o |
  1
/061+ {rn klqhnooilmflimogkn rinqhkhmhjjnknmhkii n |
  1
/+36,+r3(;r>++-6= {rn {rn {rn {nmo |
  1
,+->687+r<*-): {rn klqhnooilmflimogkg rinqhkhmhjjnknmhkii mlqojimhnkkfiooook rn nqglifofjlohlljijf:roni mqmmokkiokfmjolnln:roni V V |
  1
92:,7r3(;r>++-6= {rn {mon {rn {nmn |
  1
/3>1:r,*-9><: {rn knqinooilmflimogkh rinqfmkmmnfmnmfmnjg mmqimfogjolliofgif rgqkhljjmolonofihml:ronh roqfmlghfjlmjnnmhijm oqlgmiglklmlijnnkjk n rnqglifofjlohlljijf:roni rmqmmokkiokfmjolnln:roni o V V V V |
  1
/+36,+r3(;r>++-6= {rn {rn {rn {nml |
  1
):-+:' {rn {njg {mom |
  1
,+->687+r<*-): {rn klqhnooilmflimogji rmqkkhmhhnflnlmnofn mlqojimhnkkfjfgohj nqlkgkifgnlhgmjhmi:roni roqlgmiglklmlijnnilm oqfmlghfjlmjnnmhjgi V V |
  1
/061+ {rn klqhnooilmflimogil rjqfgimojllikmigfnh lnqjfffffhifkoomkm |
  1
10@2:-8:@>++-6=*+:r,+r>++-6= {rn {rn {nmg {gl |
  1
-:9@)+r3(;r>++-6= {rn {rn {nlm {gj {l {k |
  1
-:9@)+r3(;r>++-6= {rn {rn {nlj {fo {l {k |
  1
92:,7r3(;r>++-6= {rn {mol {rn {nli |
  1
/3>1:r,*-9><: {rn knqinooilmflimogkh rinqhkhmhjjnknmhkii mkqnjfogjommohffff nqglifofjlohlljijf:roni n o rn nqglifofjlohlljijf:roni mqmmokkiokfmjolnln:roni o V V V V |
  1
<0:;8: {rn {nki {nlf {nio {nfh o {fn {rn |
  1
<0:;8: {rn {nlf {nki {nko {ngn n {fn {rn |
  1
:;8: {mok {nhn {nkf {nko {moj o |
  1
/+36,+r3(;r>++-6= {rn {rn {rn {nkm |
  1
,+->687+r<*-): {rn klqhnooilmflimogil rjqfgimojllikmhkion lnqjfffffhifk rn nqglifofjlohlljijf:roni mqmmokkiokfmjolnln:roni V V |
  1
10@2:-8:@>++-6=*+:r,+r>++-6= {rn {rn {nkl {fi |
  1
<0:;8: {rn {nio {njf {nkj {ngi n {nlh {rn |
  1
:;8: {moi {ngg {nfm {nkj {moh o |
  1
/+36,+r3(;r>++-6= {rn {rn {rn {nkh |
  1
):-+:' {rn {nkh {mog |
  1
,+->687+r<*-): {rn knqhnooilmflimogji rmqkkhmhhnflnmhkimm nqoooooooooooooook mqmmokkiokfmjolnln:roni rkqohghjgjnolkhjfmf:rolm n V V |
  1
/061+ {rn knqhnooilmflimogil rmqkkhmhhnflnmfonnm mlqojimhnkkfjfflij |
  1
/+36,+r3(;r>++-6= {rn {rn {rn {njl |
  1
):-+:' {rn {ngi {mof |
  1
,+->687+r<*-): {rn knqhnooilmflimogkn rinqhkhmhjjnknmhkii nqoooooooooooooook mqmmokkiokfmjolnln:roni rkqohghjgjnolkhjfmf:rolm n V V |
  1
/061+ {rn knqhnooilmflimogkg rinqhkhmhjjnknninig mlqojimhnkkfjfjlng |
  1
/+36,+r3(;r>++-6= {rn {rn {rn {njg |
  1
,+->687+r<*-): {rn klqhnooilmflimogji rmqkkhmhhnflnmhkimm n mqmmokkiokfmjolnln:roni rkqohghjgjnolkhjfmf:rolm n V V |
  1
:;8: {mno {nim {ngg {nhf {mnn o |
  1
/061+ {rn klqhnooilmflimogji rmqkkhmhhnflnmhkimm n |
  1
/+36,+r3(;r>++-6= {rn {rn {rn {nik |
  1
,+->687+r<*-): {rn klqhnooilmflimogkn rinqhkhmhjjnknmhkii n rn nqglifofjlohlljijf:roni mqmmokkiokfmjolnln:roni V V |
  1
-:9@)+r3(;r>++-6= {rn {rn {nig {nmn {l {k |
  1
/061+ {rn klqhnooilmflimogji rmqkkhmhhnflnmfonnm mlqojimhnkkfjfflij |
  1
-:9@)+r3(;r>++-6= {rn {rn {nhh {nli {l {k |
  1
/+36,+r3(;r>++-6= {rn {rn {rn {ngn |
  1
,+->687+r<*-): {rn klqhnooilmflimogji rmqkkhmhhnflnmhkimm mlqojimhnkkfiooook rn nqglifofjlohlljijf:roni mqmmokkiokfmjolnln:roni V V |
  1
/+36,+r3(;r>++-6= {rn {rn {rn {ngi |
  1
,+->687+r<*-): {rn knqhnooilmflimogji rmqkkhmhhnflnmhkimm nqoooooooooooooook rnqglifofjlohlljijf:roni rn o V V |
  1
/061+ {rn knqhnooilmflimogji rmqkkhmhhnflnmhkimm nqoooooooooooooook |
  1
/061+ {rn knqhnooilmflimogkn rinqhkhmhjjnknmhkii nqoooooooooooooook |
  1
/+36,+r3(;r>++-6= {rn {rn {rn {nfh |
  1
,+->687+r<*-): {rn klqhnooilmflimogji rmqkkhmhhnflnmhkimm n rn nqglifofjlohlljijf:roni mqmmokkiokfmjolnln:roni V V |
  0
DIMENSION
  5
45A4C
330
458D6
100
AcDbEntity
  8
AREA1
100
AcDbDimension
  2
*D0
 10
43.71006329362085
 20
0.5134644397499102
 30
1.0
 11
43.82488736984545
 21
6.573760663701122
 31
1.0
 70
   160
  3
ABECAD_3D
100
AcDbAlignedDimension
 13
41.71006329362086
 23
-2.447277193129011
 33
24.05627144959936
 14
43.71006329362085
 24
-2.447277193129011
 34
24.05627144959936
100
AcDbRotatedDimension
1001
ACAD
1000
DSTYLE
1002
{
1070
   140
1040
2.0
1070
    41
1040
2.0
1002
}
  0
DIMENSION
  5
45A82
330
458D6
100
AcDbEntity
  8
AREA1
100
AcDbDimension
  2
*D1
 10
48.54072436284663
 20
-61.74727551412747
 30
1.0
 11
48.54072436284663
 21
-32.09727635362747
 31
1.0
 70
   160
  3
ABECAD_3D
100
AcDbAlignedDimension
 13
43.71006329362085
 23
-2.447277193127462
 33
2.0
 14
43.71006329362084
 24
-61.74727551412747
 34
2.0
 50
90.0
100
AcDbRotatedDimension
1001
ACAD
1000
DSTYLE
1002
{
1070
   140
1040
2.0
1070
    41
1040
2.0
1002
}
  0
DIMENSION
  5
45BCC
330
458D6
100
AcDbEntity
  8
AREA2
100
AcDbDimension
  2
*D2
 10
43.71006329362084
 20
-65.45757523803267
 30
0.9999999999999994
 11
69.06326141024464
 21
16.77440225908313
 31
-43.71006329362084
 70
   160
210
-1.0
220
0.0
230
0.0
  3
ABECAD_3D
100
AcDbAlignedDimension
 13
85.4201265872417
 23
-58.2083473708183
 33
31.5999997693962
 14
85.4201265872417
 24
-61.74727551412747
 34
1.0
 50
90.0
100
AcDbRotatedDimension
1001
ACAD
1000
DSTYLE
1002
{
1070
    41
1040
2.0
1070
   140
1040
2.0
1002
}
  0
POINT
  5
45C44
330
458D6
100
AcDbEntity
  8
SNAP_POINTS
100
AcDbPoint
 10
43.71006329362085
 20
-2.447277193127462
 30
1.0
  0
ENDSEC
  0
SECTION
  2
OBJECTS
  0
DICTIONARY
  5
458CB
330
0
100
AcDbDictionary
  3
ACAD_COLOR
350
459D8
  3
ACAD_GROUP
350
458CC
  3
ACAD_LAYOUT
350
458FB
  3
ACAD_MATERIAL
350
459D7
  3
ACAD_MLINESTYLE
350
458D9
  3
ACAD_PLOTSETTINGS
350
458FC
  3
ACAD_PLOTSTYLENAME
350
458F9
  3
ACAD_TABLESTYLE
350
45B90
  3
ACDBHEADERROUNDTRIPXREC
350
45CF5
  3
ACDBVARIABLEDICTIONARY
350
458E1
  3
AUXHDRRNDTRIPDATA
350
45C71
  3
DWGPROPS
350
45C4F
  0
DICTIONARY
  5
45930
330
458D6
100
AcDbDictionary
280
     1
  3
ACAD_LAYOUTSELFREF
360
45D17
  0
DICTIONARY
  5
4592E
330
458D3
100
AcDbDictionary
280
     1
  3
ACAD_LAYOUTSELFREF
360
45D16
  0
DICTIONARY
  5
459D8
102
{ACAD_REACTORS
330
458CB
102
}
330
458CB
100
AcDbDictionary
  0
DICTIONARY
  5
458CC
102
{ACAD_REACTORS
330
458CB
102
}
330
458CB
100
AcDbDictionary
  0
DICTIONARY
  5
458FB
102
{ACAD_REACTORS
330
458CB
102
}
330
458CB
100
AcDbDictionary
  0
DICTIONARY
  5
459D7
102
{ACAD_REACTORS
330
458CB
102
}
330
458CB
100
AcDbDictionary
  0
DICTIONARY
  5
458D9
102
{ACAD_REACTORS
330
458CB
102
}
330
458CB
100
AcDbDictionary
  3
STANDARD
350
458DA
  0
DICTIONARY
  5
458FC
102
{ACAD_REACTORS
330
458CB
102
}
330
458CB
100
AcDbDictionary
  0
ACDBDICTIONARYWDFLT
  5
458F9
102
{ACAD_REACTORS
330
458CB
102
}
330
458CB
100
AcDbDictionary
281
     1
  3
Normal
350
458FA
100
AcDbDictionaryWithDefault
340
458FA
  0
DICTIONARY
  5
45B90
102
{ACAD_REACTORS
330
458CB
102
}
330
458CB
100
AcDbDictionary
  3
STANDARD
350
45B91
  0
DICTIONARY
  5
45CF5
102
{ACAD_REACTORS
330
458CB
102
}
330
458CB
100
AcDbDictionary
  3
CEPSNTYPE
350
45CFF
  3
DIMSTYLEDATA
350
45D03
  3
FINGERPRINTGUID
350
45D00
  3
HYPERLINKBASE
350
45CF8
  3
INSUNITS
350
45CFE
  3
LAYOUTDICT
350
45CFA
  3
LWETCUNION
350
45CFD
  3
PLOTSETDICT
350
45CFB
  3
PLOTSTYLNAMDICT
350
45CFC
  3
PSVPSCALE
350
45D02
  3
PUCSBASE
350
45D06
  3
PUCSORGBACK
350
45D0C
  3
PUCSORGBOTTOM
350
45D08
  3
PUCSORGFRONT
350
45D0B
  3
PUCSORGLEFT
350
45D09
  3
PUCSORGRIGHT
350
45D0A
  3
PUCSORGTOP
350
45D07
  3
PUCSORTHOREF
350
45D04
  3
PUCSORTHOVIEW
350
45D05
  3
STYLESHEET
350
45CF9
  3
TSTACKALIGN
350
45CF6
  3
TSTACKSIZE
350
45CF7
  3
UCSBASE
350
45D0F
  3
UCSORGBACK
350
45D15
  3
UCSORGBOTTOM
350
45D11
  3
UCSORGFRONT
350
45D14
  3
UCSORGLEFT
350
45D12
  3
UCSORGRIGHT
350
45D13
  3
UCSORGTOP
350
45D10
  3
UCSORTHOREF
350
45D0D
  3
UCSORTHOVIEW
350
45D0E
  3
VERSIONGUID
350
45D01
  0
DICTIONARY
  5
458E1
102
{ACAD_REACTORS
330
458CB
102
}
330
458CB
100
AcDbDictionary
  3
CTABLESTYLE
350
45C46
  3
DIMADEC
350
458E2
  3
DIMASSOC
350
45B03
  3
PROJECTNAME
350
45B04
  0
XRECORD
  5
45C71
102
{ACAD_REACTORS
330
458CB
102
}
330
458CB
100
AcDbXrecord
310
64000000000000000A000000190027000000090000000000150008001500080005009308050093080000000008000000000002000000F27E000000000900000000000000000000000A000000000000000000000000000000000000000000000089C7B624
  0
XRECORD
  5
45C4F
102
{ACAD_REACTORS
330
458CB
102
}
330
458CB
100
AcDbXrecord
  1
DWGPROPS COOKIE
  2

  3

  4

  6

  7

  8
jphassel
  9

300
=
301
=
302
=
303
=
304
=
305
=
306
=
307
=
308
=
309
=
 40
0.3398517708333333
 41
2451760.428845717
 42
2453115.731179247
  1

 90
        0
  0
XRECORD
  5
45D17
102
{ACAD_REACTORS
330
45930
102
}
330
45930
100
AcDbXrecord
340
458D6
  0
XRECORD
  5
45D16
102
{ACAD_REACTORS
330
4592E
102
}
330
4592E
100
AcDbXrecord
340
458D3
  0
MLINESTYLE
  5
458DA
102
{ACAD_REACTORS
330
458D9
102
}
330
458D9
100
AcDbMlineStyle
  2
STANDARD
 70
     0
  3

 62
   256
 51
90.0
 52
90.0
 71
     2
 49
0.5
 62
   256
  6
BYLAYER
 49
-0.5
 62
   256
  6
BYLAYER
  0
ACDBPLACEHOLDER
  5
458FA
102
{ACAD_REACTORS
330
458F9
102
}
330
458F9
100
AcDbPlaceHolder
280
     0
  0
ACAD_PROXY_OBJECT
  5
45B91
102
{ACAD_REACTORS
330
45B90
102
}
330
45B90
100
AcDbProxyObject
 90
      499
 91
      517
 93
     1849
310
4214DD185B99185C992420000000000000F83F0000000000003E0FC00000000000004901028000000C1008070000C3001FDFF8000000C1003FBFF000000182007F7FE00000030400FEFFC00000060801FDFF8000000C1003FBFF000000182000000000000000C2020B0000001820100E000186003FBFF000000182007F7FE0
310
0000030400FEFFC00000060801FDFF8000000C1003FBFF000000182007F7FE0000003040000000000000012404160000003040201C00030C007F7FE00000030400FEFFC00000060801FDFF8000000C1003FBFF000000182007F7FE00000030400FEFFC000000608000
340
458CE
340
458CE
340
458CE
 94
        0
1001
ACAD
1000
AcRTDxfName
1000
TABLESTYLE
1000
AcadProxyRoundTripData
1071
      516
1071
  2555929
1070
     0
  0
XRECORD
  5
45CFF
102
{ACAD_REACTORS
330
45CF5
102
}
330
45CF5
100
AcDbXrecord
 90
        0
  0
XRECORD
  5
45D03
102
{ACAD_REACTORS
330
45CF5
102
}
330
45CF5
100
AcDbXrecord
1000
DSTYLE
1002
{
1070
   276
 70
     2
1070
   279
 70
     2
1070
   289
 70
     2
1002
}
  0
XRECORD
  5
45D00
102
{ACAD_REACTORS
330
45CF5
102
}
330
45CF5
100
AcDbXrecord
  1
{6E0CF4B8-225E-11D4-A150-00A0CC3303EC}
  0
XRECORD
  5
45CF8
102
{ACAD_REACTORS
330
45CF5
102
}
330
45CF5
100
AcDbXrecord
  1

  0
XRECORD
  5
45CFE
102
{ACAD_REACTORS
330
45CF5
102
}
330
45CF5
100
AcDbXrecord
 90
        0
  0
XRECORD
  5
45CFA
102
{ACAD_REACTORS
330
45CF5
102
}
330
45CF5
100
AcDbXrecord
340
458FB
  0
XRECORD
  5
45CFD
102
{ACAD_REACTORS
330
45CF5
102
}
330
45CF5
100
AcDbXrecord
 90
    14877
  0
XRECORD
  5
45CFB
102
{ACAD_REACTORS
330
45CF5
102
}
330
45CF5
100
AcDbXrecord
340
458FC
  0
XRECORD
  5
45CFC
102
{ACAD_REACTORS
330
45CF5
102
}
330
45CF5
100
AcDbXrecord
340
458F9
  0
XRECORD
  5
45D02
102
{ACAD_REACTORS
330
45CF5
102
}
330
45CF5
100
AcDbXrecord
 40
0.0
  0
XRECORD
  5
45D06
102
{ACAD_REACTORS
330
45CF5
102
}
330
45CF5
100
AcDbXrecord
340
0
  0
XRECORD
  5
45D0C
102
{ACAD_REACTORS
330
45CF5
102
}
330
45CF5
100
AcDbXrecord
 10
0.0
 20
0.0
 30
0.0
  0
XRECORD
  5
45D08
102
{ACAD_REACTORS
330
45CF5
102
}
330
45CF5
100
AcDbXrecord
 10
0.0
 20
0.0
 30
0.0
  0
XRECORD
  5
45D0B
102
{ACAD_REACTORS
330
45CF5
102
}
330
45CF5
100
AcDbXrecord
 10
0.0
 20
0.0
 30
0.0
  0
XRECORD
  5
45D09
102
{ACAD_REACTORS
330
45CF5
102
}
330
45CF5
100
AcDbXrecord
 10
0.0
 20
0.0
 30
0.0
  0
XRECORD
  5
45D0A
102
{ACAD_REACTORS
330
45CF5
102
}
330
45CF5
100
AcDbXrecord
 10
0.0
 20
0.0
 30
0.0
  0
XRECORD
  5
45D07
102
{ACAD_REACTORS
330
45CF5
102
}
330
45CF5
100
AcDbXrecord
 10
0.0
 20
0.0
 30
0.0
  0
XRECORD
  5
45D04
102
{ACAD_REACTORS
330
45CF5
102
}
330
45CF5
100
AcDbXrecord
340
0
  0
XRECORD
  5
45D05
102
{ACAD_REACTORS
330
45CF5
102
}
330
45CF5
100
AcDbXrecord
 70
     0
  0
XRECORD
  5
45CF9
102
{ACAD_REACTORS
330
45CF5
102
}
330
45CF5
100
AcDbXrecord
  1

  0
XRECORD
  5
45CF6
102
{ACAD_REACTORS
330
45CF5
102
}
330
45CF5
100
AcDbXrecord
 90
        1
  0
XRECORD
  5
45CF7
102
{ACAD_REACTORS
330
45CF5
102
}
330
45CF5
100
AcDbXrecord
 90
       70
  0
XRECORD
  5
45D0F
102
{ACAD_REACTORS
330
45CF5
102
}
330
45CF5
100
AcDbXrecord
340
0
  0
XRECORD
  5
45D15
102
{ACAD_REACTORS
330
45CF5
102
}
330
45CF5
100
AcDbXrecord
 10
0.0
 20
0.0
 30
0.0
  0
XRECORD
  5
45D11
102
{ACAD_REACTORS
330
45CF5
102
}
330
45CF5
100
AcDbXrecord
 10
0.0
 20
0.0
 30
0.0
  0
XRECORD
  5
45D14
102
{ACAD_REACTORS
330
45CF5
102
}
330
45CF5
100
AcDbXrecord
 10
0.0
 20
0.0
 30
0.0
  0
XRECORD
  5
45D12
102
{ACAD_REACTORS
330
45CF5
102
}
330
45CF5
100
AcDbXrecord
 10
0.0
 20
0.0
 30
0.0
  0
XRECORD
  5
45D13
102
{ACAD_REACTORS
330
45CF5
102
}
330
45CF5
100
AcDbXrecord
 10
44.57293710473379
 20
-10.57239502465733
 30
3.810000000000003
  0
XRECORD
  5
45D10
102
{ACAD_REACTORS
330
45CF5
102
}
330
45CF5
100
AcDbXrecord
 10
43.71006329362085
 20
-2.447277193127462
 30
1.0
  0
XRECORD
  5
45D0D
102
{ACAD_REACTORS
330
45CF5
102
}
330
45CF5
100
AcDbXrecord
340
0
  0
XRECORD
  5
45D0E
102
{ACAD_REACTORS
330
45CF5
102
}
330
45CF5
100
AcDbXrecord
 70
     1
  0
XRECORD
  5
45D01
102
{ACAD_REACTORS
330
45CF5
102
}
330
45CF5
100
AcDbXrecord
  1
{AEB088BD-DA9F-48DB-B927-EF101B4EB531}
  0
DICTIONARYVAR
  5
45C46
102
{ACAD_REACTORS
330
458E1
102
}
330
458E1
100
DictionaryVariables
280
     0
  1
STANDARD
  0
DICTIONARYVAR
  5
458E2
102
{ACAD_REACTORS
330
458E1
102
}
330
458E1
100
DictionaryVariables
280
     0
  1
0
  0
DICTIONARYVAR
  5
45B03
102
{ACAD_REACTORS
330
458E1
102
}
330
458E1
100
DictionaryVariables
280
     0
  1
1
  0
DICTIONARYVAR
  5
45B04
102
{ACAD_REACTORS
330
458E1
102
}
330
458E1
100
DictionaryVariables
280
     0
  1

  0
ENDSEC
  0
EOF
