  0
SECTION
  2
HEADER
  9
$ACADVER
  1
AC1014
  9
$ACADMAINTVER
 70
     9
  9
$DWGCODEPAGE
  3
ANSI_1252
  9
$INSBASE
 10
-673.7938563471624
 20
194.6454404124763
 30
-1.0
  9
$EXTMIN
 10
-712.7955288499678
 20
181.8937467623602
 30
-1.000000000000002
  9
$EXTMAX
 10
-605.9048109037755
 20
204.048101481702
 30
29.59999976940024
  9
$LIMMIN
 10
0.0
 20
0.0
  9
$LIMMAX
 10
12.0
 20
9.0
  9
$ORTHOMODE
 70
     1
  9
$REGENMODE
 70
     1
  9
$FILLMODE
 70
     1
  9
$QTEXTMODE
 70
     0
  9
$MIRRTEXT
 70
     1
  9
$DRAGMODE
 70
     2
  9
$LTSCALE
 40
1.0
  9
$OSMODE
 70
    37
  9
$ATTMODE
 70
     0
  9
$TEXTSIZE
 40
0.2
  9
$TRACEWID
 40
0.05
  9
$TEXTSTYLE
  7
STANDARD
  9
$CLAYER
  8
0
  9
$CELTYPE
  6
BYLAYER
  9
$CECOLOR
 62
   256
  9
$CELTSCALE
 40
1.0
  9
$DELOBJ
 70
     1
  9
$DISPSILH
 70
     0
  9
$DIMSCALE
 40
0.0
  9
$DIMASZ
 40
0.1796875
  9
$DIMEXO
 40
0.0625
  9
$DIMDLI
 40
0.375
  9
$DIMRND
 40
0.0
  9
$DIMDLE
 40
0.0
  9
$DIMEXE
 40
0.1796875
  9
$DIMTP
 40
0.0
  9
$DIMTM
 40
0.0
  9
$DIMTXT
 40
0.125
  9
$DIMCEN
 40
0.08984375
  9
$DIMTSZ
 40
0.0
  9
$DIMTOL
 70
     0
  9
$DIMLIM
 70
     0
  9
$DIMTIH
 70
     0
  9
$DIMTOH
 70
     0
  9
$DIMSE1
 70
     0
  9
$DIMSE2
 70
     0
  9
$DIMTAD
 70
     0
  9
$DIMZIN
 70
     4
  9
$DIMBLK
  1

  9
$DIMASO
 70
     1
  9
$DIMSHO
 70
     1
  9
$DIMPOST
  1

  9
$DIMAPOST
  1

  9
$DIMALT
 70
     1
  9
$DIMALTD
 70
     6
  9
$DIMALTF
 40
0.03937
  9
$DIMLFAC
 40
1.0
  9
$DIMTOFL
 70
     0
  9
$DIMTVP
 40
0.0
  9
$DIMTIX
 70
     1
  9
$DIMSOXD
 70
     0
  9
$DIMSAH
 70
     0
  9
$DIMBLK1
  1

  9
$DIMBLK2
  1

  9
$DIMSTYLE
  2
ABECAD_3V
  9
$DIMCLRD
 70
     0
  9
$DIMCLRE
 70
     0
  9
$DIMCLRT
 70
     0
  9
$DIMTFAC
 40
1.5
  9
$DIMGAP
 40
0.09375
  9
$DIMJUST
 70
     0
  9
$DIMSD1
 70
     0
  9
$DIMSD2
 70
     0
  9
$DIMTOLJ
 70
     1
  9
$DIMTZIN
 70
     4
  9
$DIMALTZ
 70
     4
  9
$DIMALTTZ
 70
     4
  9
$DIMFIT
 70
     5
  9
$DIMUPT
 70
     0
  9
$DIMUNIT
 70
     2
  9
$DIMDEC
 70
     2
  9
$DIMTDEC
 70
     2
  9
$DIMALTU
 70
     7
  9
$DIMALTTD
 70
     6
  9
$DIMTXSTY
  7
STANDARD
  9
$DIMAUNIT
 70
     0
  9
$LUNITS
 70
     2
  9
$LUPREC
 70
     6
  9
$SKETCHINC
 40
0.1
  9
$FILLETRAD
 40
0.0
  9
$AUNITS
 70
     0
  9
$AUPREC
 70
     0
  9
$MENU
  1
acad
  9
$ELEVATION
 40
0.0
  9
$PELEVATION
 40
0.0
  9
$THICKNESS
 40
0.0
  9
$LIMCHECK
 70
     0
  9
$BLIPMODE
 70
     0
  9
$CHAMFERA
 40
0.0
  9
$CHAMFERB
 40
0.0
  9
$CHAMFERC
 40
0.0
  9
$CHAMFERD
 40
0.0
  9
$SKPOLY
 70
     0
  9
$TDCREATE
 40
2451670.449415046
  9
$TDUPDATE
 40
2453137.557247373
  9
$TDINDWG
 40
0.4697656597
  9
$TDUSRTIMER
 40
0.4697656597
  9
$USRTIMER
 70
     1
  9
$ANGBASE
 50
0.0
  9
$ANGDIR
 70
     0
  9
$PDMODE
 70
     3
  9
$PDSIZE
 40
2.286
  9
$PLINEWID
 40
0.0
  9
$COORDS
 70
     1
  9
$SPLFRAME
 70
     0
  9
$SPLINETYPE
 70
     6
  9
$SPLINESEGS
 70
     8
  9
$ATTDIA
 70
     0
  9
$ATTREQ
 70
     1
  9
$HANDLING
 70
 22529
  9
$HANDSEED
  5
286C
  9
$SURFTAB1
 70
     6
  9
$SURFTAB2
 70
     6
  9
$SURFTYPE
 70
     6
  9
$SURFU
 70
     6
  9
$SURFV
 70
     6
  9
$UCSNAME
  2

  9
$UCSORG
 10
0.0
 20
0.0
 30
0.0
  9
$UCSXDIR
 10
1.0
 20
0.0
 30
0.0
  9
$UCSYDIR
 10
0.0
 20
0.0
 30
1.0
  9
$PUCSNAME
  2

  9
$PUCSORG
 10
0.0
 20
0.0
 30
0.0
  9
$PUCSXDIR
 10
1.0
 20
0.0
 30
0.0
  9
$PUCSYDIR
 10
0.0
 20
1.0
 30
0.0
  9
$USERI1
 70
     0
  9
$USERI2
 70
     0
  9
$USERI3
 70
     0
  9
$USERI4
 70
     0
  9
$USERI5
 70
     0
  9
$USERR1
 40
0.0
  9
$USERR2
 40
0.0
  9
$USERR3
 40
0.0
  9
$USERR4
 40
0.0
  9
$USERR5
 40
0.0
  9
$WORLDVIEW
 70
     1
  9
$SHADEDGE
 70
     3
  9
$SHADEDIF
 70
    70
  9
$TILEMODE
 70
     0
  9
$MAXACTVP
 70
    16
  9
$PINSBASE
 10
0.0
 20
0.0
 30
0.0
  9
$PLIMCHECK
 70
     0
  9
$PEXTMIN
 10
0.0226429257092988
 20
0.0040681204654334
 30
0.0
  9
$PEXTMAX
 10
10.55573210096327
 20
8.074637622092751
 30
0.0
  9
$PLIMMIN
 10
-0.2112501249538632
 20
-0.2112499935420479
  9
$PLIMMAX
 10
10.78874963475024
 20
8.288749766162061
  9
$UNITMODE
 70
     0
  9
$VISRETAIN
 70
     0
  9
$PLINEGEN
 70
     0
  9
$PSLTSCALE
 70
     1
  9
$TREEDEPTH
 70
  3020
  9
$PICKSTYLE
 70
     1
  9
$CMLSTYLE
  2
STANDARD
  9
$CMLJUST
 70
     0
  9
$CMLSCALE
 40
1.0
  9
$PROXYGRAPHICS
 70
     1
  9
$MEASUREMENT
 70
     1
  0
ENDSEC
  0
SECTION
  2
CLASSES
  0
CLASS
  1
DICTIONARYVAR
  2
AcDbDictionaryVar
  3
AutoCAD 2000
 90
        0
280
     0
281
     0
  0
CLASS
  1
ACDBDICTIONARYWDFLT
  2
AcDbDictionaryWithDefault
  3
AutoCAD 2000
 90
        0
280
     0
281
     0
  0
CLASS
  1
ACDBPLACEHOLDER
  2
AcDbPlaceHolder
  3
AutoCAD 2000
 90
        0
280
     0
281
     0
  0
CLASS
  1
LAYOUT
  2
AcDbLayout
  3
AutoCAD 2000
 90
        0
280
     0
281
     0
  0
CLASS
  1
LONG_TRANSACTION
  2
AcDbLongTransaction
  3
AutoCAD 2000
 90
        0
280
     0
281
     0
  0
CLASS
  1
LWPOLYLINE
  2
AcDbPolyline
  3
AutoCAD 2000
 90
        0
280
     0
281
     1
  0
CLASS
  1
HATCH
  2
AcDbHatch
  3
AutoCAD 2000
 90
        0
280
     0
281
     1
  0
CLASS
  1
XRECORD
  2
AcDbXrecord
  3
AutoCAD 2000
 90
        0
280
     0
281
     0
  0
CLASS
  1
LONG_TRANSACTION
  2
AcDbLongTransaction
  3
AutoCAD 2000
 90
        0
280
     0
281
     0
  0
CLASS
  1
LWPOLYLINE
  2
AcDbPolyline
  3
AutoCAD 2000
 90
        0
280
     0
281
     1
  0
CLASS
  1
HATCH
  2
AcDbHatch
  3
AutoCAD 2000
 90
        0
280
     0
281
     1
  0
CLASS
  1
XRECORD
  2
AcDbXrecord
  3
AutoCAD 2000
 90
        0
280
     0
281
     0
  0
CLASS
  1
LONG_TRANSACTION
  2
AcDbLongTransaction
  3
AutoCAD 2000
 90
        0
280
     0
281
     0
  0
CLASS
  1
LWPOLYLINE
  2
AcDbPolyline
  3
AutoCAD 2000
 90
        0
280
     0
281
     1
  0
CLASS
  1
HATCH
  2
AcDbHatch
  3
AutoCAD 2000
 90
        0
280
     0
281
     1
  0
CLASS
  1
XRECORD
  2
AcDbXrecord
  3
AutoCAD 2000
 90
        0
280
     0
281
     0
  0
CLASS
  1
LONG_TRANSACTION
  2
AcDbLongTransaction
  3
AutoCAD 2000
 90
        0
280
     0
281
     0
  0
CLASS
  1
LWPOLYLINE
  2
AcDbPolyline
  3
AutoCAD 2000
 90
        0
280
     0
281
     1
  0
CLASS
  1
HATCH
  2
AcDbHatch
  3
AutoCAD 2000
 90
        0
280
     0
281
     1
  0
CLASS
  1
XRECORD
  2
AcDbXrecord
  3
AutoCAD 2000
 90
        0
280
     0
281
     0
  0
CLASS
  1
LONG_TRANSACTION
  2
AcDbLongTransaction
  3
AutoCAD 2000
 90
        0
280
     0
281
     0
  0
CLASS
  1
LWPOLYLINE
  2
AcDbPolyline
  3
AutoCAD 2000
 90
        0
280
     0
281
     1
  0
CLASS
  1
HATCH
  2
AcDbHatch
  3
AutoCAD 2000
 90
        0
280
     0
281
     1
  0
CLASS
  1
XRECORD
  2
AcDbXrecord
  3
AutoCAD 2000
 90
        0
280
     0
281
     0
  0
CLASS
  1
TABLESTYLE
  2
AcDbTableStyle
  3
ObjectDBX Classes
 90
     2047
280
     0
281
     0
  0
CLASS
  1
SORTENTSTABLE
  2
AcDbSortentsTable
  3
AutoCAD 2000
 90
        0
280
     0
281
     0
  0
CLASS
  1
ACAD_PROXY_OBJECT_WRAPPER
  2
AcDbProxyObjectWrapper
  3
AutoCAD 2000
 90
        0
280
     0
281
     0
  0
CLASS
  1
LONG_TRANSACTION
  2
AcDbLongTransaction
  3
AutoCAD 2000
 90
        0
280
     0
281
     0
  0
CLASS
  1
LWPOLYLINE
  2
AcDbPolyline
  3
AutoCAD 2000
 90
        0
280
     0
281
     1
  0
CLASS
  1
HATCH
  2
AcDbHatch
  3
AutoCAD 2000
 90
        0
280
     0
281
     1
  0
CLASS
  1
XRECORD
  2
AcDbXrecord
  3
AutoCAD 2000
 90
        0
280
     0
281
     0
  0
CLASS
  1
LONG_TRANSACTION
  2
AcDbLongTransaction
  3
AutoCAD 2000
 90
        0
280
     0
281
     0
  0
CLASS
  1
LWPOLYLINE
  2
AcDbPolyline
  3
AutoCAD 2000
 90
        0
280
     0
281
     1
  0
CLASS
  1
HATCH
  2
AcDbHatch
  3
AutoCAD 2000
 90
        0
280
     0
281
     1
  0
CLASS
  1
XRECORD
  2
AcDbXrecord
  3
AutoCAD 2000
 90
        0
280
     0
281
     0
  0
ENDSEC
  0
SECTION
  2
TABLES
  0
TABLE
  2
VPORT
  5
469
330
0
100
AcDbSymbolTable
 70
     1
  0
VPORT
  5
27BA
330
469
100
AcDbSymbolTableRecord
100
AcDbViewportTableRecord
  2
*ACTIVE
 70
     0
 10
0.0
 20
0.0
 11
1.0
 21
1.0
 12
-23.93013005936996
 22
-25.32082616746725
 13
0.0
 23
0.0
 14
1.0
 24
1.0
 15
0.0
 25
0.0
 16
0.0
 26
0.0
 36
1.0
 17
-633.3682682300779
 27
217.6304801400173
 37
7.470939997629291
 40
107.8765050366325
 41
1.775510204081632
 42
50.0
 43
0.0
 44
0.0
 50
0.0
 51
0.0
 71
     0
 72
   100
 73
     1
 74
     1
 75
     0
 76
     0
 77
     0
 78
     0
  0
ENDTAB
  0
TABLE
  2
LTYPE
  5
466
330
0
100
AcDbSymbolTable
 70
     1
  0
LTYPE
  5
472
330
466
100
AcDbSymbolTableRecord
100
AcDbLinetypeTableRecord
  2
BYBLOCK
 70
     0
  3

 72
    65
 73
     0
 40
0.0
  0
LTYPE
  5
473
330
466
100
AcDbSymbolTableRecord
100
AcDbLinetypeTableRecord
  2
BYLAYER
 70
     0
  3

 72
    65
 73
     0
 40
0.0
  0
LTYPE
  5
474
330
466
100
AcDbSymbolTableRecord
100
AcDbLinetypeTableRecord
  2
CONTINUOUS
 70
     0
  3
Solid line
 72
    65
 73
     0
 40
0.0
  0
ENDTAB
  0
TABLE
  2
LAYER
  5
463
102
{ACAD_XDICTIONARY
360
26E0
102
}
330
0
100
AcDbSymbolTable
 70
     8
  0
LAYER
  5
46F
330
463
100
AcDbSymbolTableRecord
100
AcDbLayerTableRecord
  2
0
 70
     0
 62
     7
  6
CONTINUOUS
  0
LAYER
  5
485
330
463
100
AcDbSymbolTableRecord
100
AcDbLayerTableRecord
  2
AREA1
 70
     0
 62
     7
  6
CONTINUOUS
  0
LAYER
  5
486
330
463
100
AcDbSymbolTableRecord
100
AcDbLayerTableRecord
  2
AREA2
 70
     0
 62
     7
  6
CONTINUOUS
  0
LAYER
  5
494
330
463
100
AcDbSymbolTableRecord
100
AcDbLayerTableRecord
  2
DEFPOINTS
 70
     0
 62
    -7
  6
CONTINUOUS
  0
LAYER
  5
495
330
463
100
AcDbSymbolTableRecord
100
AcDbLayerTableRecord
  2
DIMS-MTG-HOLES
 70
     0
 62
    -1
  6
CONTINUOUS
  0
LAYER
  5
4EB
330
463
100
AcDbSymbolTableRecord
100
AcDbLayerTableRecord
  2
SCALE
 70
     0
 62
    -7
  6
CONTINUOUS
  0
LAYER
  5
560
330
463
100
AcDbSymbolTableRecord
100
AcDbLayerTableRecord
  2
ATTRIBUTES
 70
     0
 62
    -7
  6
CONTINUOUS
  0
LAYER
  5
561
330
463
100
AcDbSymbolTableRecord
100
AcDbLayerTableRecord
  2
SNAP_POINTS
 70
     0
 62
    -1
  6
CONTINUOUS
  0
ENDTAB
  0
TABLE
  2
STYLE
  5
464
330
0
100
AcDbSymbolTable
 70
     1
  0
STYLE
  5
470
330
464
100
AcDbSymbolTableRecord
100
AcDbTextStyleTableRecord
  2
STANDARD
 70
     0
 40
0.0
 41
1.0
 50
0.0
 71
     0
 42
0.2
  3
txt
  4

  0
ENDTAB
  0
TABLE
  2
VIEW
  5
467
330
0
100
AcDbSymbolTable
 70
     0
  0
ENDTAB
  0
TABLE
  2
UCS
  5
468
330
0
100
AcDbSymbolTable
 70
     0
  0
ENDTAB
  0
TABLE
  2
APPID
  5
46A
330
0
100
AcDbSymbolTable
 70
     2
  0
APPID
  5
471
330
46A
100
AcDbSymbolTableRecord
100
AcDbRegAppTableRecord
  2
ACAD
 70
     0
  0
APPID
  5
47E
330
46A
100
AcDbSymbolTableRecord
100
AcDbRegAppTableRecord
  2
AVE_RENDER
 70
     0
  0
ENDTAB
  0
TABLE
  2
DIMSTYLE
  5
46B
330
0
100
AcDbSymbolTable
 70
     3
  0
DIMSTYLE
105
47F
330
46B
100
AcDbSymbolTableRecord
100
AcDbDimStyleTableRecord
  2
STANDARD
 70
     0
  3

  4

  5

  6

  7

 40
1.0
 41
0.18
 42
0.0625
 43
0.38
 44
0.18
 45
0.0
 46
0.0
 47
0.0
 48
0.0
140
0.18
141
0.09
142
0.0
143
25.4
144
1.0
145
0.0
146
1.0
147
0.09
 71
     0
 72
     0
 73
     1
 74
     1
 75
     0
 76
     0
 77
     0
 78
     0
170
     0
171
     2
172
     0
173
     0
174
     0
175
     0
176
     0
177
     0
178
     0
270
     5
271
     6
272
     6
273
     5
274
     1
340
470
275
     0
280
     0
281
     0
282
     0
283
     1
284
     4
285
     4
286
     4
287
     5
288
     0
  0
DIMSTYLE
105
49A
330
46B
100
AcDbSymbolTableRecord
100
AcDbDimStyleTableRecord
  2
ABECAD_3V
 70
     0
  3

  4

  5

  6

  7

 40
0.0
 41
0.1796875
 42
0.0625
 43
0.375
 44
0.1796875
 45
0.0
 46
0.0
 47
0.0
 48
0.0
140
0.125
141
0.08984375
142
0.0
143
0.03937
144
1.0
145
0.0
146
1.5
147
0.09375
 71
     0
 72
     0
 73
     0
 74
     0
 75
     0
 76
     0
 77
     0
 78
     4
170
     1
171
     6
172
     0
173
     0
174
     1
175
     0
176
     0
177
     0
178
     0
270
     2
271
     2
272
     2
273
     7
274
     6
340
470
275
     0
280
     0
281
     0
282
     0
283
     1
284
     4
285
     4
286
     4
287
     5
288
     0
  0
DIMSTYLE
105
565
102
{ACAD_REACTORS
330
2749
330
274A
330
274B
102
}
330
46B
100
AcDbSymbolTableRecord
100
AcDbDimStyleTableRecord
  2
ABECAD_3D
 70
     0
  3

  4

  5

  6

  7

 40
1.0
 41
4.572
 42
1.587499999999999
 43
9.525
 44
4.572
 45
0.0
 46
0.0
 47
0.0
 48
0.0
140
4.572
141
2.286
142
0.0
143
0.03937
144
1.0
145
0.0
146
1.5
147
2.286
 71
     0
 72
     0
 73
     0
 74
     1
 75
     0
 76
     0
 77
     0
 78
     4
170
     1
171
     6
172
     0
173
     0
174
     0
175
     0
176
     0
177
     0
178
     0
270
     2
271
     2
272
     2
273
     7
274
     6
340
470
275
     0
280
     0
281
     0
282
     0
283
     1
284
     4
285
     4
286
     4
287
     5
288
     1
  0
ENDTAB
  0
TABLE
  2
BLOCK_RECORD
  5
462
330
0
100
AcDbSymbolTable
 70
     3
  0
BLOCK_RECORD
  5
478
102
{ACAD_XDICTIONARY
360
4D7
102
}
330
462
100
AcDbSymbolTableRecord
100
AcDbBlockTableRecord
  2
*MODEL_SPACE
  0
BLOCK_RECORD
  5
258F
102
{ACAD_XDICTIONARY
360
265F
102
}
330
462
100
AcDbSymbolTableRecord
100
AcDbBlockTableRecord
  2
*PAPER_SPACE
  0
BLOCK_RECORD
  5
274D
330
462
100
AcDbSymbolTableRecord
100
AcDbBlockTableRecord
  2
*D0
  0
BLOCK_RECORD
  5
275A
330
462
100
AcDbSymbolTableRecord
100
AcDbBlockTableRecord
  2
*D1
  0
BLOCK_RECORD
  5
2767
330
462
100
AcDbSymbolTableRecord
100
AcDbBlockTableRecord
  2
*D2
  0
ENDTAB
  0
ENDSEC
  0
SECTION
  2
BLOCKS
  0
BLOCK
  5
48B
330
478
100
AcDbEntity
  8
0
100
AcDbBlockBegin
  2
*MODEL_SPACE
 70
     0
 10
0.0
 20
0.0
 30
0.0
  3
*MODEL_SPACE
  1

  0
ENDBLK
  5
48C
330
478
100
AcDbEntity
  8
0
100
AcDbBlockEnd
  0
BLOCK
  5
2596
330
258F
100
AcDbEntity
 67
     1
  8
0
100
AcDbBlockBegin
  2
*PAPER_SPACE
 70
     0
 10
0.0
 20
0.0
 30
0.0
  3
*PAPER_SPACE
  1

  0
ENDBLK
  5
2597
330
258F
100
AcDbEntity
 67
     1
  8
0
100
AcDbBlockEnd
  0
BLOCK
  5
2758
330
274D
100
AcDbEntity
  8
0
100
AcDbBlockBegin
  2
*D0
 70
     1
 10
0.0
 20
0.0
 30
0.0
  3
*D0
  1

  0
LINE
  5
2790
330
274D
100
AcDbEntity
  8
AREA1
 62
     0
100
AcDbLine
 10
-612.9063580261737
 20
192.6454404124762
 30
0.0
 11
-608.3686846254021
 21
192.6454404124762
 31
0.0
  0
LINE
  5
2791
330
274D
100
AcDbEntity
  8
AREA1
 62
     0
100
AcDbLine
 10
-612.9063580261624
 20
194.6454404124762
 30
0.0
 11
-608.3686846254021
 21
194.6454404124762
 31
0.0
  0
LINE
  5
2792
330
274D
100
AcDbEntity
  8
AREA1
 62
     0
100
AcDbLine
 10
-612.940684625402
 20
190.6454404124762
 30
0.0
 11
-612.940684625402
 21
188.6454404124762
 31
0.0
  0
LINE
  5
2793
330
274D
100
AcDbEntity
  8
AREA1
 62
     0
100
AcDbLine
 10
-612.940684625402
 20
196.6454404124762
 30
0.0
 11
-612.940684625402
 21
198.6454404124762
 31
0.0
  0
MTEXT
  5
2794
330
274D
100
AcDbEntity
  8
AREA1
 62
     0
100
AcDbMText
 10
-606.9048109037757
 20
193.389567606178
 30
0.0
 40
2.0
 41
0.0
 71
     5
 72
     1
  1
\A1;2.00 [5/64]
 11
0.0000000000000001
 21
1.0
 31
0.0
1001
ACAD
1000
MTEXTBEGIN
1070
    73
1070
     1
1070
    44
1040
1.0
1070
    74
1070
     0
1000
MTEXTEND
  0
SOLID
  5
2795
330
274D
100
AcDbEntity
  8
AREA1
 62
     0
100
AcDbTrace
 10
-613.2740179587354
 20
190.6454404124762
 30
0.0
 11
-612.6073512920688
 21
190.6454404124762
 31
0.0
 12
-612.940684625402
 22
192.6454404124762
 32
0.0
 13
-612.940684625402
 23
192.6454404124762
 33
0.0
  0
SOLID
  5
2796
330
274D
100
AcDbEntity
  8
AREA1
 62
     0
100
AcDbTrace
 10
-613.2740179587354
 20
196.6454404124762
 30
0.0
 11
-612.6073512920688
 21
196.6454404124762
 31
0.0
 12
-612.940684625402
 22
194.6454404124762
 32
0.0
 13
-612.940684625402
 23
194.6454404124762
 33
0.0
  0
POINT
  5
2797
330
274D
100
AcDbEntity
  8
DEFPOINTS
 62
     0
100
AcDbPoint
 10
-614.4938580261737
 20
192.6454404124762
 30
22.05627144959531
  0
POINT
  5
2798
330
274D
100
AcDbEntity
  8
DEFPOINTS
 62
     0
100
AcDbPoint
 10
-614.4938580261624
 20
194.6454404124762
 30
0.0
  0
POINT
  5
2799
330
274D
100
AcDbEntity
  8
DEFPOINTS
 62
     0
100
AcDbPoint
 10
-612.940684625402
 20
194.6454404124762
 30
0.0
  0
ENDBLK
  5
2759
330
274D
100
AcDbEntity
  8
0
100
AcDbBlockEnd
  0
BLOCK
  5
2765
330
275A
100
AcDbEntity
  8
0
100
AcDbBlockBegin
  2
*D1
 70
     1
 10
0.0
 20
0.0
 30
0.0
  3
*D1
  1

  0
LINE
  5
277D
330
275A
100
AcDbEntity
  8
AREA1
 62
     0
100
AcDbLine
 10
-673.7938563471624
 20
196.2329404124763
 30
0.0
 11
-673.7938563471624
 21
204.048101481702
 31
0.0
  0
LINE
  5
277E
330
275A
100
AcDbEntity
  8
AREA1
 62
     0
100
AcDbLine
 10
-614.4938580261624
 20
196.2329404124762
 30
0.0
 11
-614.4938580261624
 21
204.048101481702
 31
0.0
  0
LINE
  5
277F
330
275A
100
AcDbEntity
  8
AREA1
 62
     0
100
AcDbLine
 10
-671.7938563471624
 20
199.476101481702
 30
0.0
 11
-659.2631905199957
 21
199.476101481702
 31
0.0
  0
LINE
  5
2780
330
275A
100
AcDbEntity
  8
AREA1
 62
     0
100
AcDbLine
 10
-616.4938580261624
 20
199.476101481702
 30
0.0
 11
-629.0245238533291
 21
199.476101481702
 31
0.0
  0
MTEXT
  5
2781
330
275A
100
AcDbEntity
  8
AREA1
 62
     0
100
AcDbMText
 10
-644.1438571866624
 20
199.476101481702
 30
0.0
 40
2.0
 41
0.0
 71
     5
 72
     1
  1
\A1;59.30 [2 21/64]
1001
ACAD
1000
MTEXTBEGIN
1070
    73
1070
     1
1070
    44
1040
1.0
1070
    74
1070
     0
1000
MTEXTEND
  0
SOLID
  5
2782
330
275A
100
AcDbEntity
  8
AREA1
 62
     0
100
AcDbTrace
 10
-671.7938563471624
 20
199.8094348150354
 30
0.0
 11
-671.7938563471624
 21
199.1427681483687
 31
0.0
 12
-673.7938563471624
 22
199.476101481702
 32
0.0
 13
-673.7938563471624
 23
199.476101481702
 33
0.0
  0
SOLID
  5
2783
330
275A
100
AcDbEntity
  8
AREA1
 62
     0
100
AcDbTrace
 10
-616.4938580261624
 20
199.8094348150354
 30
0.0
 11
-616.4938580261624
 21
199.1427681483687
 31
0.0
 12
-614.4938580261624
 22
199.476101481702
 32
0.0
 13
-614.4938580261624
 23
199.476101481702
 33
0.0
  0
POINT
  5
2784
330
275A
100
AcDbEntity
  8
DEFPOINTS
 62
     0
100
AcDbPoint
 10
-673.7938563471624
 20
194.6454404124763
 30
1.0
  0
POINT
  5
2785
330
275A
100
AcDbEntity
  8
DEFPOINTS
 62
     0
100
AcDbPoint
 10
-614.4938580261624
 20
194.6454404124762
 30
1.0
  0
POINT
  5
2786
330
275A
100
AcDbEntity
  8
DEFPOINTS
 62
     0
100
AcDbPoint
 10
-614.4938580261624
 20
199.476101481702
 30
0.0
  0
ENDBLK
  5
2766
330
275A
100
AcDbEntity
  8
0
100
AcDbBlockEnd
  0
BLOCK
  5
2771
330
2767
100
AcDbEntity
  8
0
100
AcDbBlockBegin
  2
*D2
 70
     1
 10
0.0
 20
0.0
 30
0.0
  3
*D2
  1

  0
LINE
  5
27A4
330
2767
100
AcDbEntity
  8
AREA2
 62
     0
100
AcDbLine
 10
-616.4452861694716
 20
29.5999997693962
 30
0.0
 11
-606.2115583022572
 21
29.5999997693962
 31
0.0
  0
LINE
  5
27A5
330
2767
100
AcDbEntity
  8
AREA2
 62
     0
100
AcDbLine
 10
-612.9063580261624
 20
-1.0
 30
0.0
 11
-606.2115583022572
 21
-1.000000000000002
 31
0.0
  0
LINE
  5
27A6
330
2767
100
AcDbEntity
  8
AREA2
 62
     0
100
AcDbLine
 10
-610.7835583022572
 20
27.59999976939619
 30
0.0
 11
-610.7835583022572
 21
0.9999999999999991
 31
0.0
  0
MTEXT
  5
27A7
330
2767
100
AcDbEntity
  8
AREA2
 62
     0
100
AcDbMText
 10
-607.1778721300452
 20
14.77440225908313
 30
0.0
 40
2.0
 41
0.0
 71
     5
 72
     1
  1
\A1;30.60 [1 13/64]
 11
0.0000000000000001
 21
1.0
 31
0.0
1001
ACAD
1000
MTEXTBEGIN
1070
    73
1070
     1
1070
    44
1040
1.0
1070
    74
1070
     0
1000
MTEXTEND
  0
SOLID
  5
27A8
330
2767
100
AcDbEntity
  8
AREA2
 62
     0
100
AcDbTrace
 10
-611.1168916355905
 20
27.59999976939619
 30
0.0
 11
-610.4502249689239
 21
27.59999976939619
 31
0.0
 12
-610.7835583022572
 22
29.5999997693962
 32
0.0
 13
-610.7835583022572
 23
29.5999997693962
 33
0.0
  0
SOLID
  5
27A9
330
2767
100
AcDbEntity
  8
AREA2
 62
     0
100
AcDbTrace
 10
-611.1168916355905
 20
0.9999999999999991
 30
0.0
 11
-610.4502249689239
 21
0.9999999999999989
 31
0.0
 12
-610.7835583022572
 22
-1.0
 32
0.0
 13
-610.7835583022572
 23
-1.0
 33
0.0
  0
POINT
  5
27AA
330
2767
100
AcDbEntity
  8
DEFPOINTS
 62
     0
100
AcDbPoint
 10
-618.0327861694715
 20
29.5999997693962
 30
0.0
  0
POINT
  5
27AB
330
2767
100
AcDbEntity
  8
DEFPOINTS
 62
     0
100
AcDbPoint
 10
-614.4938580261624
 20
-0.9999999999999998
 30
0.0
  0
POINT
  5
27AC
330
2767
100
AcDbEntity
  8
DEFPOINTS
 62
     0
100
AcDbPoint
 10
-610.7835583022572
 20
-1.0
 30
0.0
  0
ENDBLK
  5
2772
330
2767
100
AcDbEntity
  8
0
100
AcDbBlockEnd
  0
ENDSEC
  0
SECTION
  2
ENTITIES
  0
ATTDEF
  5
2734
330
478
100
AcDbEntity
  8
ATTRIBUTES
100
AcDbText
 10
-647.9958121845389
 20
192.8242052225978
 30
-0.9970718855625051
 40
0.11999952000048
  1
ALLEN-BRADLEY
 50
90.0
100
AcDbAttributeDefinition
  3
MANUFACTURER NAME?
  2
AC_VND_LABEL
 70
     1
  0
ATTDEF
  5
2735
330
478
100
AcDbEntity
  8
ATTRIBUTES
100
AcDbText
 10
-647.7458131845379
 20
192.8242052225978
 30
-0.9970718855625051
 40
0.11999952000048
  1
1492-EBL3
 50
90.0
100
AcDbAttributeDefinition
  3
CATALOG NUMBER?
  2
AC_PART_NO
 70
     1
  0
ATTDEF
  5
2736
330
478
100
AcDbEntity
  8
ATTRIBUTES
100
AcDbText
 10
-647.495814184537
 20
192.8242052225978
 30
-0.9970718855625051
 40
0.11999952000048
  1
End Barrier
 50
90.0
100
AcDbAttributeDefinition
  3
PART DESCRIPTION?
  2
AC_DESCRIPTION
 70
     1
  0
ATTDEF
  5
2737
330
478
100
AcDbEntity
  8
ATTRIBUTES
100
AcDbText
 10
-647.2458151845359
 20
192.8242052225978
 30
-0.9970718855625051
 40
0.11999952000048
  1

 50
90.0
100
AcDbAttributeDefinition
  3
DEVICE ID?
  2
DEVICE_ID
 70
     1
  0
ATTDEF
  5
2738
330
478
100
AcDbEntity
  8
ATTRIBUTES
100
AcDbText
 10
-646.9958161845349
 20
192.8242052225978
 30
-0.9970718855625051
 40
0.11999952000048
  1

 50
90.0
100
AcDbAttributeDefinition
  3
CUSTOMER PART NUMBER?
  2
AC_CPART_NO
 70
     1
  0
ATTDEF
  5
2739
330
478
100
AcDbEntity
  8
ATTRIBUTES
100
AcDbText
 10
-646.7458171845339
 20
192.8242052225978
 30
-0.9970718855625051
 40
0.11999952000048
  1

 50
90.0
100
AcDbAttributeDefinition
  3
CUSTOMER NOTE?
  2
AC_NOTE
 70
     1
  0
ATTDEF
  5
273A
330
478
100
AcDbEntity
  8
ATTRIBUTES
100
AcDbText
 10
-646.495818184533
 20
192.8242052225978
 30
-0.9970718855625051
 40
0.11999952000048
  1

 50
90.0
100
AcDbAttributeDefinition
  3
FASTENER DATA?
  2
FASTENER
 70
     1
  0
ATTDEF
  5
273B
330
478
100
AcDbEntity
  8
ATTRIBUTES
100
AcDbText
 10
-646.245819184532
 20
192.8242052225978
 30
-0.9970718855625051
 40
0.11999952000048
  1
MM
 50
90.0
100
AcDbAttributeDefinition
  3
UNIT OF SCALE?
  2
AC_SCALE_UNIT
 70
     1
  0
ATTDEF
  5
273C
330
478
100
AcDbEntity
  8
ATTRIBUTES
100
AcDbText
 10
-645.995820184531
 20
192.8242052225978
 30
-0.9970718855625051
 40
0.11999952000048
  1
0
 50
90.0
100
AcDbAttributeDefinition
  3
VIEW CODE?
  2
AC_VIEW_CODE
 70
     1
  0
LINE
  5
273D
330
478
100
AcDbEntity
  8
SCALE
100
AcDbLine
 10
-711.0895781214756
 20
187.3385579916393
 30
-1.0
 11
-685.6895781214756
 21
187.3385579916393
 31
-1.0
  0
LINE
  5
273E
330
478
100
AcDbEntity
  8
SCALE
100
AcDbLine
 10
-685.6895781214756
 20
184.7985579916393
 30
-1.0
 11
-685.6895781214756
 21
189.8785579916394
 31
-1.0
  0
LINE
  5
2740
330
478
100
AcDbEntity
  8
SCALE
100
AcDbLine
 10
-711.0895781214756
 20
184.7985579916393
 30
-1.0
 11
-711.0895781214756
 21
189.8785579916394
 31
-1.0
  0
LINE
  5
2741
330
478
100
AcDbEntity
  8
SCALE
100
AcDbLine
 10
-711.0895781214755
 20
192.5249817289326
 30
-1.0
 11
-711.0895781214755
 21
197.6049817289326
 31
-1.0
  0
LINE
  5
2742
330
478
100
AcDbEntity
  8
SCALE
100
AcDbLine
 10
-701.0895981214755
 20
192.5249817289326
 30
-1.0
 11
-701.0895981214755
 21
197.6049817289326
 31
-1.0
  0
LINE
  5
2743
330
478
100
AcDbEntity
  8
SCALE
100
AcDbLine
 10
-711.0895781214755
 20
195.0649817289326
 30
-1.0
 11
-701.0895981214755
 21
195.0649817289326
 31
-1.0
  0
TEXT
  5
2744
330
478
100
AcDbEntity
  8
SCALE
100
AcDbText
 10
-709.5802553807017
 20
196.2267687188951
 30
-1.0
 40
1.587499999999999
  1
10 mm
100
AcDbText
  0
TEXT
  5
2745
330
478
100
AcDbEntity
  8
SCALE
100
AcDbText
 10
-703.4916853883876
 20
189.0923948541187
 30
-1.0
 40
1.587499999999999
  1
[1 Inch]
100
AcDbText
  0
TEXT
  5
2746
330
478
100
AcDbEntity
  8
SCALE
100
AcDbText
 10
-711.2834940413462
 20
200.5985193437844
 30
-1.0
 40
1.587499999999999
  1
SCALE:
100
AcDbText
  0
3DSOLID
  5
2748
330
478
100
AcDbEntity
  8
0
100
AcDbModelerGeometry
 70
     1
  1
noi mnm n o         
  1
=0;& {n {m {rn {rn |
  1
-:9@)+r3(;r>++-6= {rn {rn {rn {o {l {k |
  1
3*2/ {j {rn {i {o |
  1
-:961:2:1+ {rn o o o o oqlmhjmhnljinojgokk lo o o m o |
  1
):-+:'@+:2/3>+: {rn l o n g |
  1
-:9@)+r3(;r>++-6= {rn {rn {rn {m {l {k |
  1
,7:33 {h {rn {rn {g {m |
  1
-:9@)+r3(;r>++-6= {rn {rn {rn {i {l {k |
  1
9><: {f {no {nn {i {rn {nm -:):-,:; ,6183: |
  1
92:,7r3(;r>++-6= {rn {nl {rn {g |
  1
9><: {nk {nj {ni {i {rn {nh 90-(>-; ,6183: |
  1
300/ {rn {rn {ng {g |
  1
/3>1:r,*-9><: {rn rinnqjmggjgnnonnmkm nfkqikjkkoknmkhimf rmqjmfffffggkhooljh rmqkkfmnmhohikkhjkj:roni rn mqmmokkiokfmjolnln:roni n rmqkkfmnmhohikkhjkj:roni o o V V V V |
  1
-:9@)+r3(;r>++-6= {rn {rn {f {g {l {k |
  1
92:,7r3(;r>++-6= {rn {nf {rn {no |
  1
9><: {mo {mn {mm {i {rn {ml 90-(>-; ,6183: |
  1
300/ {rn {rn {mk {no |
  1
/3>1:r,*-9><: {rn rinnqjmggjgnnonnmkm nfmqikjkkoknmkhimf rmqjmfffffggkhooljl rmqkkfmnmhohikkhjkj:roni rn mqmmokkiokfmjolnln:roni n rmqkkfmnmhohikkhjkj:roni o o V V V V |
  1
<0:;8: {rn {mj {mi {mh {mg o {nn {rn |
  1
-:9@)+r3(;r>++-6= {rn {rn {nk {no {l {k |
  1
92:,7r3(;r>++-6= {rn {mf {rn {nj |
  1
9><: {lo {ln {lm {i {rn {ll 90-(>-; ,6183: |
  1
300/ {rn {rn {lk {nj |
  1
/3>1:r,*-9><: {rn rilmqhoggioogmhfjlj nfmqjkjkkoknmkhil mfqjfffffhifk jqklglkkigokilkjhm:rolm mqmmokkiokfmjolnln:roni n rmqkkfmnmhohikkhjkj:roni rn mqmmokkiokfmjolnln:roni o V V V V |
  1
<0:;8: {rn {lj {li {lh {lg n {ni {rn |
  1
<0:;8: {rn {lf {ng {ko {kn o {nn {rn |
  1
<0:;8: {rn {ng {km {lk {kl o {nn {rn |
  1
<0:;8: {rn {kk {kj {ng {mg n {ki {rn |
  1
:;8: {kh {kg {kf {ng {jo o |
  1
-:9@)+r3(;r>++-6= {rn {rn {mo {nj {l {k |
  1
92:,7r3(;r>++-6= {rn {jn {rn {mn |
  1
9><: {jm {jl {jk {i {rn {jj 90-(>-; ,6183: |
  1
300/ {rn {rn {ji {mn |
  1
/3>1:r,*-9><: {rn rilgqmnglokjnhlnfkk nfmqjkjkkoknmkhil mfqjfffffhifk jqklglkkigokilkjhm:rolm mqmmokkiokfmjolnln:roni n rmqkkfmnmhohikkhjkj:roni rn mqmmokkiokfmjolnln:roni o V V V V |
  1
<0:;8: {rn {jh {jg {mi {kl n {mm {rn |
  1
<0:;8: {rn {jf {mk {io {in n {ni {rn |
  1
<0:;8: {rn {mk {im {il {ik n {ni {rn |
  1
<0:;8: {rn {jg {jh {mk {lg o {mm {rn |
  1
:;8: {ij {ii {ih {mk {ig o |
  1
<0:;8: {rn {if {mj {ho {hn n {nn {rn |
  1
<0:;8: {rn {hm {hl {mj {kn n {hk {rn |
  1
:;8: {hj {kf {hi {mj {hh o |
  1
<0:;8: {rn {mi {hg {ji {hf o {nn {rn |
  1
:;8: {go {gn {kg {mi {gm o |
  1
<0:;8: {rn {il {mh {jg {gl o {ki {rn |
  1
<0:;8: {rn {mh {il {hm {gk n {ki {rn |
  1
300/ {rn {rn {mh {gj |
  1
/+36,+r3(;r>++-6= {rn {rn {rn {mg |
  1
):-+:' {rn {mg {gi |
  1
):-+:' {rn {mg {gh |
  1
,+->687+r<*-): {rn rillqoklgjffgkgimlh nfkqikjkkoknmkhilm mfqjfffffhifk n rmqkkfmnmhohikkhjkj:roni o V V |
  1
-:9@)+r3(;r>++-6= {rn {rn {lo {mn {l {k |
  1
92:,7r3(;r>++-6= {rn {gg {rn {ln |
  1
9><: {gf {fo {fn {i {rn {fm 90-(>-; ,6183: |
  1
300/ {rn {rn {fl {ln |
  1
/3>1:r,*-9><: {rn rihoqohhfgnhfiifhhn nfmqjkjkkoknmkhilm loqomhngingjlfonli roqfmlghfjlmjnnmhijm lqnnmjojkoigigngng:roni oqlgmiglklmlijnnkjk rmqkkfmnmhohikkhjkj:roni rn mqmmokkiokfmjolnln:roni o V V V V |
  1
<0:;8: {rn {fk {fj {km {hf n {lm {rn |
  1
<0:;8: {rn {lh {lk {fj {fi o {mm {rn |
  1
<0:;8: {rn {lk {lh {kk {gl n {mm {rn |
  1
<0:;8: {rn {fh {lj {fg {ff n {ni {rn |
  1
<0:;8: {rn {fj {fk {lj {in o {lm {rn |
  1
:;8: {noo {non {ii {lj {nom o |
  1
<0:;8: {rn {li {nol {nok {noj n {ni {rn |
  1
<0:;8: {rn {kj {kk {li {ik o {ki {rn |
  1
:;8: {noi {ih {noh {li {nog o |
  1
/+36,+r3(;r>++-6= {rn {rn {rn {lg |
  1
):-+:' {rn {lg {nof |
  1
):-+:' {rn {lg {nno |
  1
,+->687+r<*-): {rn rilfqhklgjgomimomli nfmqikjkkoknmkhilm mfqjfffffhifk n rmqkkfmnmhohikkhjkj:roni o V V |
  1
<0:;8: {rn {nnn {lf {nnm {nnl n {nn {rn |
  1
<0:;8: {rn {nnk {nnj {lf {hn o {nni {rn |
  1
:;8: {nnh {nng {hi {lf {nnf o |
  1
<0:;8: {rn {nok {ko {kj {gk o {hk {rn |
  1
<0:;8: {rn {ko {nok {nnk {nmo n {hk {rn |
  1
300/ {rn {rn {ko {nmn |
  1
/+36,+r3(;r>++-6= {rn {rn {rn {kn |
  1
):-+:' {rn {kn {nmm |
  1
,+->687+r<*-): {rn ringqolmhginifkgff nfkqikjkkoknmkhimf mfqjfffffhiflggin oqlgmiglklmlijnnlkf rmqfggifhhgljonilfl:roni roqfmlghfjlmjnnmhifh V V |
  1
<0:;8: {rn {km {nnn {fl {nml o {nn {rn |
  1
:;8: {nmk {nmj {gn {km {nmi o |
  1
/+36,+r3(;r>++-6= {rn {rn {rn {kl |
  1
):-+:' {rn {hf {nmh |
  1
,+->687+r<*-): {rn rilfqhklgjgomimomli nfkqikjkkoknmkhilm mfqjfffffhifk n rmqkkfmnmhohikkhjkj:roni o V V |
  1
:;8: {nmg {kg {ih {jg {nmf o |
  1
:;8: {nlo {kf {noh {hm {nln o |
  1
9><: {nlm {rn {ki {i {rn {nll 90-(>-; ,6183: |
  1
/061+ {rn rillqoklgjffgkgimlh nfkqikjkkoknmkhilm mfqjfffffhifk |
  1
/061+ {rn ringqolmhginifkhnjf nfkqikjkkoknmkhimf mfqjfffffhiflfimom |
  1
-:9@)+r3(;r>++-6= {rn {rn {jm {ln {l {k |
  1
92:,7r3(;r>++-6= {rn {nlk {rn {jl |
  1
9><: {nlj {nli {nlh {i {rn {nlg -:):-,:; ,6183: |
  1
300/ {rn {rn {nlf {jl |
  1
/3>1:r,*-9><: {rn rihlqhflgjilkhnimkl nfmqjkjkkoknmkhil mmqnjfogjommohffff rn mqkkfmnmhohikkhjkj:roni o rmqkkfmnmhohikkhjkj:roni rn mqmmokkiokfmjolnln:roni o V V V V |
  1
<0:;8: {rn {nko {nkn {hg {nml n {jk {rn |
  1
<0:;8: {rn {io {ji {nkn {nkm o {lm {rn |
  1
<0:;8: {rn {ji {io {jh {fi n {lm {rn |
  1
:;8: {nkl {gn {ii {jh {nkk o |
  1
<0:;8: {rn {nkj {jf {nki {nkh n {ni {rn |
  1
<0:;8: {rn {nkn {nko {jf {ff o {jk {rn |
  1
:;8: {nkg {nkf {non {jf {njo o |
  1
/+36,+r3(;r>++-6= {rn {rn {rn {in |
  1
):-+:' {rn {in {njn |
  1
,+->687+r<*-): {rn rihoqmjkfmgmolgimlf nfmqikjkkoknmkhilm mfqjfffffhifk n rmqkkfmnmhohikkhjkj:roni o V V |
  1
<0:;8: {rn {im {nkj {njm {njl o {ni {rn |
  1
<0:;8: {rn {hl {hm {im {noj o {hk {rn |
  1
:;8: {njk {noh {njj {im {nji o |
  1
/+36,+r3(;r>++-6= {rn {rn {rn {ik |
  1
):-+:' {rn {noj {njh |
  1
,+->687+r<*-): {rn rillqoklgjffgkgimlh nfmqikjkkoknmkhilm mfqjfffffhifk n rmqkkfmnmhohikkhjkj:roni o V V |
  1
/061+ {rn rilfqhklgjgomimomli nfmqikjkkoknmkhilm mfqjfffffhifk |
  1
/061+ {rn rillqoklgjffgkgimlh nfmqikjkkoknmkhilm mfqjfffffhifk |
  1
<0:;8: {rn {hg {if {nlf {njg o {nn {rn |
  1
<0:;8: {rn {njf {nio {if {nnl o {nlh {rn |
  1
:;8: {nin {nim {nng {if {nil o |
  1
<0:;8: {rn {njm {ho {hl {nmo o {nni {rn |
  1
<0:;8: {rn {ho {njm {njf {nik n {nni {rn |
  1
300/ {rn {rn {nnk {nli |
  1
/+36,+r3(;r>++-6= {rn {rn {rn {hn |
  1
):-+:' {rn {hn {nij |
  1
,+->687+r<*-): {rn rinkqkflgjgominimki nfkqikjkkoknmkhimf rn jqklglkkigokilkjhm:rolm mqmmokkiokfmjolnln:roni n V V |
  1
:;8: {nii {hi {njj {nnk {nih o |
  1
9><: {nig {gj {hk {i {rn {nif 90-(>-; ,6183: |
  1
/061+ {rn rinkqkflgjgominhlhn nfkqikjkkoknmkhimf mnqojimhnkkfjfjlng |
  1
:;8: {nho {nhn {nmj {hg {nhm o |
  1
/+36,+r3(;r>++-6= {rn {rn {rn {hf |
  1
):-+:' {rn {nml {nhl |
  1
,+->687+r<*-): {rn rihoqmjkfmgmolgimlf nfkqikjkkoknmkhilm mfqjfffffhifk n rmqkkfmnmhohikkhjkj:roni o V V |
  1
/061+ {rn rilfqhklgjgomimomli nfkqikjkkoknmkhilm mfqjfffffhifk |
  1
/+36,+r3(;r>++-6= {rn {nhk {rn {gl |
  1
,+->687+r<*-): {rn rillqoklgjffgkgimlh nfkqikjkkoknmkhilm mfqjfffffhifk rmqkkfmnmhohikkhjkj:roni rn mqmmokkiokfmjolnln:roni V V |
  1
/+36,+r3(;r>++-6= {rn {rn {rn {gk |
  1
,+->687+r<*-): {rn ringqolmhginifkimlg nfkqikjkkoknmkhimf mfqjfffffhifk rmqkkfmnmhohikkhjkj:roni rn mqmmokkiokfmjolnln:roni V V |
  1
92:,7r3(;r>++-6= {rn {nhj {rn {gj |
  1
/3>1:r,*-9><: {rn rinhqmgmmlmkhgifmkk nfmqjkjkkoknmkhil mfqjfffffhifk jqklglkkigokilkjhm:rolm mqmmokkiokfmjolnln:roni n rmqkkfmnmhohikkhjkj:roni rn mqmmokkiokfmjolnln:roni o V V V V |
  1
-:9@)+r3(;r>++-6= {rn {rn {gf {jl {l {k |
  1
92:,7r3(;r>++-6= {rn {nhi {rn {fo |
  1
9><: {nhh {nmn {nni {i {rn {nhg -:):-,:; ,6183: |
  1
300/ {rn {rn {njf {fo |
  1
/3>1:r,*-9><: {rn rinnqjmggjgnnonnmkm nfmqjkjkkoknmkhil roqfffffffffffffffji jqklglkkigokilkjhm:rolm mqmmokkiokfmjolnln:roni n rmqkkfmnmhohikkhjkj:roni rn mqmmokkiokfmjolnln:roni o V V V V |
  1
<0:;8: {rn {nhf {ngo {nnn {njg n {fn {rn |
  1
<0:;8: {rn {fg {fl {ngo {ngn o {jk {rn |
  1
<0:;8: {rn {fl {fg {fk {nkm n {jk {rn |
  1
:;8: {ngm {nmj {non {fk {ngl o |
  1
/+36,+r3(;r>++-6= {rn {ngk {rn {fi |
  1
,+->687+r<*-): {rn rilfqhklgjgomimomli nfkqikjkkoknmkhilm mfqjfffffhifk rmqkkfmnmhohikkhjkj:roni rn mqmmokkiokfmjolnln:roni V V |
  1
<0:;8: {rn {nol {fh {ngj {ngi o {ni {rn |
  1
<0:;8: {rn {ngo {nhf {fh {nkh o {fn {rn |
  1
:;8: {ngh {ngg {nkf {fh {ngf o |
  1
/+36,+r3(;r>++-6= {rn {rn {rn {ff |
  1
):-+:' {rn {ff {nfo |
  1
,+->687+r<*-): {rn rihlqhflgjilkhnjhhh nfmqikjkkoknmkhilm mnqojimhnkkfjfgohj oqlgmiglklmlijnnilm nqnnknjnjlmlfknllg:roni oqfmlghfjlmjnnmhjgi V V |
  1
/061+ {rn rihoqmjkfmgmolgimfi nfmqikjkkoknmkhilm mfqjfffffhifkoomkm |
  1
<0:;8: {rn {nnj {nnk {nol {njl n {nni {rn |
  1
:;8: {nfn {nfm {njj {nol {nfl o |
  1
/+36,+r3(;r>++-6= {rn {rn {rn {noj |
  1
):-+:' {rn {njl {nfk |
  1
,+->687+r<*-): {rn ringqolmhginifkgff nfmqikjkkoknmkhimf mfqjfffffhiflggin oqlgmiglklmlijnnlkf rmqfggifhhgljonilfl:roni roqfmlghfjlmjnnmhifh V V |
  1
/061+ {rn ringqolmhginifkhnjf nfmqikjkkoknmkhimf mfqjfffffhiflfimom |
  1
:;8: {nfj {nim {nhn {nnn {nfi o |
  1
<0:;8: {rn {ngj {nnm {nnj {nik o {nlh {rn |
  1
<0:;8: {rn {nnm {ngj {nhf {nfh n {nlh {rn |
  1
/+36,+r3(;r>++-6= {rn {rn {rn {nnl |
  1
):-+:' {rn {nnl {nfg |
  1
,+->687+r<*-): {rn rihlqhflgjilkhnimkl nfkqikjkkoknmkhilm rn n rmqkkfmnmhohikkhjkj:roni o V V |
  1
:;8: {nff {nng {nfm {njf {moo o |
  1
/061+ {rn rinkqkflgjgominimki nfkqikjkkoknmkhimf rn |
  1
/+36,+r3(;r>++-6= {rn {rn {rn {nmo |
  1
,+->687+r<*-): {rn rinkqkflgjgominimki nfkqikjkkoknmkhimf mnqojimhnkkfiooook rmqkkfmnmhohikkhjkj:roni rn mqmmokkiokfmjolnln:roni V V |
  1
92:,7r3(;r>++-6= {rn {mon {rn {nmn |
  1
/3>1:r,*-9><: {rn rinkqlnifnningffhii nfmqjkjkkoknmkhil moqimfogjolliofgif oqfmlghfjlmjnnmhijm rnqknlokfjhjgjogkji:roni oqlgmiglklmlijnnkjk mqkkfmnmhohikkhjkj:roni n rmqmmokkiokfmjolnln:roni o V V V V |
  1
/+36,+r3(;r>++-6= {rn {rn {rn {nml |
  1
):-+:' {rn {njg {mom |
  1
,+->687+r<*-): {rn rihlqhflgjilkhnjhhh nfkqikjkkoknmkhilm mnqojimhnkkfjfgohj oqlgmiglklmlijnnilm nqnnknjnjlmlfknllg:roni oqfmlghfjlmjnnmhjgi V V |
  1
/061+ {rn rihoqmjkfmgmolgimfi nfkqikjkkoknmkhilm mfqjfffffhifkoomkm |
  1
10@2:-8:@>++-6=*+:r,+r>++-6= {rn {rn {nmg {gl |
  1
-:9@)+r3(;r>++-6= {rn {rn {nlm {gj {l {k |
  1
-:9@)+r3(;r>++-6= {rn {rn {nlj {fo {l {k |
  1
92:,7r3(;r>++-6= {rn {mol {rn {nli |
  1
/3>1:r,*-9><: {rn rinkqkflgjgominimki nfmqjkjkkoknmkhil mmqnjfogjommohffff rn mqkkfmnmhohikkhjkj:roni o rmqkkfmnmhohikkhjkj:roni rn mqmmokkiokfmjolnln:roni o V V V V |
  1
<0:;8: {rn {nki {nlf {nio {nfh o {fn {rn |
  1
<0:;8: {rn {nlf {nki {nko {ngn n {fn {rn |
  1
:;8: {mok {nhn {nkf {nko {moj o |
  1
/+36,+r3(;r>++-6= {rn {rn {rn {nkm |
  1
,+->687+r<*-): {rn rihoqmjkfmgmolgimlf nfkqikjkkoknmkhilm mfqjfffffhifk rmqkkfmnmhohikkhjkj:roni rn mqmmokkiokfmjolnln:roni V V |
  1
10@2:-8:@>++-6=*+:r,+r>++-6= {rn {rn {nkl {fi |
  1
<0:;8: {rn {nio {njf {nkj {ngi n {nlh {rn |
  1
:;8: {moi {ngg {nfm {nkj {moh o |
  1
/+36,+r3(;r>++-6= {rn {rn {rn {nkh |
  1
):-+:' {rn {nkh {mog |
  1
,+->687+r<*-): {rn rihlqhflgjilkhnimkl nfmqikjkkoknmkhilm roqfffffffffffffffji jqklglkkigokilkjhm:rolm mqmmokkiokfmjolnln:roni n V V |
  1
/061+ {rn rihlqhflgjilkhniogk nfmqikjkkoknmkhilm mnqojimhnkkfjfflij |
  1
/+36,+r3(;r>++-6= {rn {rn {rn {njl |
  1
):-+:' {rn {ngi {mof |
  1
,+->687+r<*-): {rn rinkqkflgjgominimki nfmqikjkkoknmkhimf roqfffffffffffffffji jqklglkkigokilkjhm:rolm mqmmokkiokfmjolnln:roni n V V |
  1
/061+ {rn rinkqkflgjgominhlhn nfmqikjkkoknmkhimf mnqojimhnkkfjfjlng |
  1
/+36,+r3(;r>++-6= {rn {rn {rn {njg |
  1
,+->687+r<*-): {rn rihlqhflgjilkhnimkl nfkqikjkkoknmkhilm rn jqklglkkigokilkjhm:rolm mqmmokkiokfmjolnln:roni n V V |
  1
:;8: {mno {nim {ngg {nhf {mnn o |
  1
/061+ {rn rihlqhflgjilkhnimkl nfkqikjkkoknmkhilm rn |
  1
/+36,+r3(;r>++-6= {rn {rn {rn {nik |
  1
,+->687+r<*-): {rn rinkqkflgjgominimki nfkqikjkkoknmkhimf rn rmqkkfmnmhohikkhjkj:roni rn mqmmokkiokfmjolnln:roni V V |
  1
-:9@)+r3(;r>++-6= {rn {rn {nig {nmn {l {k |
  1
/061+ {rn rihlqhflgjilkhniogk nfkqikjkkoknmkhilm mnqojimhnkkfjfflij |
  1
-:9@)+r3(;r>++-6= {rn {rn {nhh {nli {l {k |
  1
/+36,+r3(;r>++-6= {rn {rn {rn {ngn |
  1
,+->687+r<*-): {rn rihlqhflgjilkhnimkl nfkqikjkkoknmkhilm mnqojimhnkkfiooook rmqkkfmnmhohikkhjkj:roni rn mqmmokkiokfmjolnln:roni V V |
  1
/+36,+r3(;r>++-6= {rn {rn {rn {ngi |
  1
,+->687+r<*-): {rn rihlqhflgjilkhnimkl nfmqikjkkoknmkhilm roqfffffffffffffffji n rmqkkfmnmhohikkhjkj:roni o V V |
  1
/061+ {rn rihlqhflgjilkhnimkl nfmqikjkkoknmkhilm roqfffffffffffffffji |
  1
/061+ {rn rinkqkflgjgominimki nfmqikjkkoknmkhimf roqfffffffffffffffji |
  1
/+36,+r3(;r>++-6= {rn {rn {rn {nfh |
  1
,+->687+r<*-): {rn rihlqhflgjilkhnimkl nfkqikjkkoknmkhilm rn rmqkkfmnmhohikkhjkj:roni rn mqmmokkiokfmjolnln:roni V V |
  0
DIMENSION
  5
2749
330
478
100
AcDbEntity
  8
AREA1
100
AcDbDimension
  2
*D0
 10
-612.940684625402
 20
194.6454404124762
 30
-1.0
 11
-606.9048109037757
 21
193.389567606178
 31
-1.0
 70
   160
  3
ABECAD_3D
100
AcDbAlignedDimension
 13
-614.4938580261737
 23
192.6454404124762
 33
21.05627144959532
 14
-614.4938580261624
 24
194.6454404124762
 34
-1.0
 50
90.0
100
AcDbRotatedDimension
1001
ACAD
1000
DSTYLE
1002
{
1070
   140
1040
2.0
1070
    41
1040
2.0
1002
}
  0
DIMENSION
  5
274A
330
478
100
AcDbEntity
  8
AREA1
100
AcDbDimension
  2
*D1
 10
-614.4938580261624
 20
199.476101481702
 30
-1.0
 11
-644.1438571866624
 21
199.476101481702
 31
-1.0
 70
   160
  3
ABECAD_3D
100
AcDbAlignedDimension
 13
-673.7938563471624
 23
194.6454404124763
 33
0.0
 14
-614.4938580261624
 24
194.6454404124762
 34
0.0
 50
180.0
100
AcDbRotatedDimension
1001
ACAD
1000
DSTYLE
1002
{
1070
   140
1040
2.0
1070
    41
1040
2.0
1002
}
  0
DIMENSION
  5
274B
330
478
100
AcDbEntity
  8
AREA2
100
AcDbDimension
  2
*D2
 10
-610.7835583022572
 20
194.6454404124762
 30
-1.0
 11
-607.1778721300452
 21
14.77440225908313
 31
-194.6454404124762
 70
   160
210
-0.0000000000000001
220
-1.0
230
0.0
  3
ABECAD_3D
100
AcDbAlignedDimension
 13
-618.0327861694715
 23
194.6454404124762
 33
29.5999997693962
 14
-614.4938580261624
 24
194.6454404124762
 34
-1.0
 50
90.0
100
AcDbRotatedDimension
1001
ACAD
1000
DSTYLE
1002
{
1070
    41
1040
2.0
1070
   140
1040
2.0
1002
}
  0
POINT
  5
274C
330
478
100
AcDbEntity
  8
SNAP_POINTS
100
AcDbPoint
 10
-673.7938563471624
 20
194.6454404124763
 30
-1.0
  0
LWPOLYLINE
  5
27B9
330
478
100
AcDbEntity
  8
SCALE
100
AcDbPolyline
 90
        4
 70
     1
 43
0.0
 38
-1.0
 10
-712.7955288499678
 20
203.2706297585217
 10
-683.9505568336017
 20
203.2706297585217
 10
-683.9505568336017
 20
181.8937467623602
 10
-712.7955288499678
 20
181.8937467623602
  0
VIEWPORT
  5
2590
102
{ACAD_XDICTIONARY
360
2804
102
}
330
258F
100
AcDbEntity
 67
     1
  8
0
100
AcDbViewport
 10
5.289169397200103
 20
4.039398404618191
 30
0.0
 40
14.91427964544735
 41
8.149447233321367
 68
     1
 69
     1
1001
ACAD
1000
MVIEW
1002
{
1070
    16
1010
0.0
1020
0.0
1030
0.0
1010
0.0
1020
0.0
1030
1.0
1040
0.0
1040
8.149447233321367
1040
5.289169397200103
1040
4.039398404618191
1040
50.0
1040
0.0
1040
0.0
1070
     0
1070
  1000
1070
     1
1070
     1
1070
     0
1070
     0
1070
     0
1070
     0
1040
0.0
1040
0.0
1040
0.0
1040
0.5
1040
0.5
1040
0.5
1040
0.5
1070
     0
1002
{
1002
}
1002
}
  0
VIEWPORT
  5
2591
102
{ACAD_XDICTIONARY
360
2806
102
}
330
258F
100
AcDbEntity
 67
     1
  8
0
100
AcDbViewport
 10
2.655279694450206
 20
5.99475209634221
 30
0.0
 40
5.265273537481815
 41
4.159771051501081
 68
     2
 69
     2
1001
ACAD
1000
MVIEW
1002
{
1070
    16
1010
0.0
1020
0.0
1030
0.0
1010
0.0
1020
0.0
1030
1.0
1040
0.0
1040
67.60128123537971
1040
-639.8633359426299
1040
195.843304753322
1040
50.0
1040
0.0
1040
0.0
1070
     0
1070
  1000
1070
     1
1070
     2
1070
     0
1070
     0
1070
     0
1070
     0
1040
0.0
1040
0.0
1040
0.0
1040
0.5
1040
0.5
1040
0.5
1040
0.5
1070
     0
1002
{
1003
AREA2
1002
}
1002
}
  0
VIEWPORT
  5
2592
102
{ACAD_XDICTIONARY
360
2808
102
}
330
258F
100
AcDbEntity
 67
     1
  8
0
100
AcDbViewport
 10
2.655279694450205
 20
1.959467345528551
 30
0.0
 40
5.265273537481814
 41
3.910798450126236
 68
     3
 69
     3
1001
ACAD
1000
MVIEW
1002
{
1070
    16
1010
0.0
1020
0.0
1030
0.0
1010
0.0
1020
-1.0
1030
0.0
1040
0.0
1040
63.84830978915455
1040
-639.7068397282114
1040
13.9972000708156
1040
50.0
1040
0.0
1040
0.0
1070
     0
1070
  1000
1070
     1
1070
     2
1070
     0
1070
     0
1070
     0
1070
     0
1040
0.0
1040
0.0
1040
0.0
1040
0.5
1040
0.5
1040
0.5
1040
0.5
1070
     0
1002
{
1003
AREA1
1002
}
1002
}
  0
VIEWPORT
  5
2593
102
{ACAD_XDICTIONARY
360
280A
102
}
330
258F
100
AcDbEntity
 67
     1
  8
0
100
AcDbViewport
 10
7.921824282077194
 20
3.60237502911014
 30
0.0
 40
5.26781563777216
 41
7.196613817289414
 68
     4
 69
     4
1001
ACAD
1000
MVIEW
1002
{
1070
    16
1010
0.0
1020
0.0
1030
0.0
1010
1.0
1020
-1.0
1030
1.0
1040
0.0
1040
126.5445575685254
1040
-322.5822804699121
1040
382.5585505435136
1040
50.0
1040
0.0
1040
0.0
1070
     0
1070
  1000
1070
     1
1070
     2
1070
     0
1070
     0
1070
     0
1070
     0
1040
0.0
1040
0.0
1040
0.0
1040
0.5
1040
0.5
1040
0.5
1040
0.5
1070
     1
1002
{
1003
AREA1
1003
AREA2
1002
}
1002
}
  0
TEXT
  5
2594
330
258F
100
AcDbEntity
 67
     1
  8
0
100
AcDbText
 10
5.478669782259466
 20
7.727515017556658
 30
0.0
 40
0.203125
  1
1492-EBL3
100
AcDbText
  0
TEXT
  5
2595
330
258F
100
AcDbEntity
 67
     1
  8
0
100
AcDbText
 10
5.478669782259466
 20
7.394181684223325
 30
0.0
 40
0.203125
  1
End Barrier
100
AcDbText
  0
ENDSEC
  0
SECTION
  2
OBJECTS
  0
DICTIONARY
  5
46D
330
0
100
AcDbDictionary
  3
ACAD_COLOR
350
981
  3
ACAD_GROUP
350
46E
  3
ACAD_LAYOUT
350
49E
  3
ACAD_MATERIAL
350
980
  3
ACAD_MLINESTYLE
350
47B
  3
ACAD_PLOTSETTINGS
350
49F
  3
ACAD_PLOTSTYLENAME
350
49C
  3
ACAD_TABLESTYLE
350
26D9
  3
ACDBHEADERROUNDTRIPXREC
350
2849
  3
ACDBVARIABLEDICTIONARY
350
48D
  3
AUXHDRRNDTRIPDATA
350
27F2
  3
BNS_VARIABLES
350
27AD
  3
DWGPROPS
350
27D0
  0
DICTIONARY
  5
26E0
330
463
100
AcDbDictionary
280
     1
  3
ACAD_LAYERSTATES
360
26E1
  0
DICTIONARY
  5
4D7
330
478
100
AcDbDictionary
280
     1
  3
ACAD_LAYOUTSELFREF
360
286A
  3
ACAD_SORTENTS
360
27B8
  0
DICTIONARY
  5
265F
330
258F
100
AcDbDictionary
280
     1
  3
ACAD_LAYOUTSELFREF
360
286B
  0
DICTIONARY
  5
2804
330
2590
100
AcDbDictionary
280
     1
  3
ACAD_XREC_ROUNDTRIP
360
2805
  0
DICTIONARY
  5
2806
330
2591
100
AcDbDictionary
280
     1
  3
ACAD_XREC_ROUNDTRIP
360
2807
  0
DICTIONARY
  5
2808
330
2592
100
AcDbDictionary
280
     1
  3
ACAD_XREC_ROUNDTRIP
360
2809
  0
DICTIONARY
  5
280A
330
2593
100
AcDbDictionary
280
     1
  3
ACAD_XREC_ROUNDTRIP
360
280B
  0
DICTIONARY
  5
981
102
{ACAD_REACTORS
330
46D
102
}
330
46D
100
AcDbDictionary
  0
DICTIONARY
  5
46E
102
{ACAD_REACTORS
330
46D
102
}
330
46D
100
AcDbDictionary
  0
DICTIONARY
  5
49E
102
{ACAD_REACTORS
330
46D
102
}
330
46D
100
AcDbDictionary
  0
DICTIONARY
  5
980
102
{ACAD_REACTORS
330
46D
102
}
330
46D
100
AcDbDictionary
  0
DICTIONARY
  5
47B
102
{ACAD_REACTORS
330
46D
102
}
330
46D
100
AcDbDictionary
  3
STANDARD
350
47C
  0
DICTIONARY
  5
49F
102
{ACAD_REACTORS
330
46D
102
}
330
46D
100
AcDbDictionary
  0
ACDBDICTIONARYWDFLT
  5
49C
102
{ACAD_REACTORS
330
46D
102
}
330
46D
100
AcDbDictionary
281
     1
  3
Normal
350
49D
100
AcDbDictionaryWithDefault
340
49D
  0
DICTIONARY
  5
26D9
102
{ACAD_REACTORS
330
46D
102
}
330
46D
100
AcDbDictionary
  3
STANDARD
350
26DA
  0
DICTIONARY
  5
2849
102
{ACAD_REACTORS
330
46D
102
}
330
46D
100
AcDbDictionary
  3
CEPSNTYPE
350
2853
  3
DIMSTYLEDATA
350
2857
  3
FINGERPRINTGUID
350
2854
  3
HYPERLINKBASE
350
284C
  3
INSUNITS
350
2852
  3
LAYOUTDICT
350
284E
  3
LWETCUNION
350
2851
  3
PLOTSETDICT
350
284F
  3
PLOTSTYLNAMDICT
350
2850
  3
PSVPSCALE
350
2856
  3
PUCSBASE
350
285A
  3
PUCSORGBACK
350
2860
  3
PUCSORGBOTTOM
350
285C
  3
PUCSORGFRONT
350
285F
  3
PUCSORGLEFT
350
285D
  3
PUCSORGRIGHT
350
285E
  3
PUCSORGTOP
350
285B
  3
PUCSORTHOREF
350
2858
  3
PUCSORTHOVIEW
350
2859
  3
STYLESHEET
350
284D
  3
TSTACKALIGN
350
284A
  3
TSTACKSIZE
350
284B
  3
UCSBASE
350
2863
  3
UCSORGBACK
350
2869
  3
UCSORGBOTTOM
350
2865
  3
UCSORGFRONT
350
2868
  3
UCSORGLEFT
350
2866
  3
UCSORGRIGHT
350
2867
  3
UCSORGTOP
350
2864
  3
UCSORTHOREF
350
2861
  3
UCSORTHOVIEW
350
2862
  3
VERSIONGUID
350
2855
  0
DICTIONARY
  5
48D
102
{ACAD_REACTORS
330
46D
102
}
330
46D
100
AcDbDictionary
  3
CTABLESTYLE
350
27C5
  3
DIMADEC
350
48E
  3
DIMASSOC
350
6EA
  3
PROJECTNAME
350
2581
  0
XRECORD
  5
27F2
102
{ACAD_REACTORS
330
46D
102
}
330
46D
100
AcDbXrecord
310
64000000000000001B000000190027000900100000000000150009001500090005009308050093080000000018000000000002000000F27E000000001A00000000000000000000001B0000000000000000000000000000000000000000000000EDC75C50
  0
DICTIONARY
  5
27AD
102
{ACAD_REACTORS
330
46D
102
}
330
46D
100
AcDbDictionary
  3
ACET-OVERKILL-FUZZ
350
27AE
  3
ACET-OVERKILL-NO-ENDTOEND
350
27B1
  3
ACET-OVERKILL-NO-PARTIAL
350
27B0
  3
ACET-OVERKILL-NO-PLINES
350
27AF
  0
XRECORD
  5
27D0
102
{ACAD_REACTORS
330
46D
102
}
330
46D
100
AcDbXrecord
  1
DWGPROPS COOKIE
  2

  3

  4

  6

  7

  8
colin
  9

300
=
301
=
302
=
303
=
304
=
305
=
306
=
307
=
308
=
309
=
 40
0.4697604513888889
 41
2451670.449415046
 42
2453115.74289574
  1

 90
        0
  0
DICTIONARY
  5
26E1
102
{ACAD_REACTORS
330
26E0
102
}
330
26E0
100
AcDbDictionary
  0
XRECORD
  5
286A
102
{ACAD_REACTORS
330
4D7
102
}
330
4D7
100
AcDbXrecord
340
478
  0
SORTENTSTABLE
  5
27B8
102
{ACAD_REACTORS
330
4D7
102
}
330
4D7
100
AcDbSortentsTable
330
478
331
2735
  5
2735
331
273E
  5
273E
331
2744
  5
2744
331
2741
  5
2741
331
273B
  5
273B
331
2738
  5
2738
331
274A
  5
27B6
331
2736
  5
2736
331
2745
  5
2745
331
2742
  5
2742
331
273C
  5
273C
331
2739
  5
2739
331
274B
  5
27B7
331
2748
  5
27B4
331
2749
  5
27B5
331
274C
  5
27B9
331
2737
  5
2737
331
2746
  5
2746
331
2743
  5
2743
331
2740
  5
2740
331
273D
  5
273D
331
273A
  5
273A
331
2734
  5
2734
331
27B9
  5
2749
  0
XRECORD
  5
286B
102
{ACAD_REACTORS
330
265F
102
}
330
265F
100
AcDbXrecord
340
258F
  0
XRECORD
  5
2805
102
{ACAD_REACTORS
330
2804
102
}
330
2804
100
AcDbXrecord
102
SHADEPLOT
 70
     0
  0
XRECORD
  5
2807
102
{ACAD_REACTORS
330
2806
102
}
330
2806
100
AcDbXrecord
102
SHADEPLOT
 70
     0
  0
XRECORD
  5
2809
102
{ACAD_REACTORS
330
2808
102
}
330
2808
100
AcDbXrecord
102
SHADEPLOT
 70
     0
  0
XRECORD
  5
280B
102
{ACAD_REACTORS
330
280A
102
}
330
280A
100
AcDbXrecord
102
SHADEPLOT
 70
     2
  0
MLINESTYLE
  5
47C
102
{ACAD_REACTORS
330
47B
102
}
330
47B
100
AcDbMlineStyle
  2
STANDARD
 70
     0
  3

 62
   256
 51
90.0
 52
90.0
 71
     2
 49
0.5
 62
   256
  6
BYLAYER
 49
-0.5
 62
   256
  6
BYLAYER
  0
ACDBPLACEHOLDER
  5
49D
102
{ACAD_REACTORS
330
49C
102
}
330
49C
100
AcDbPlaceHolder
280
     0
  0
ACAD_PROXY_OBJECT
  5
26DA
102
{ACAD_REACTORS
330
26D9
102
}
330
26D9
100
AcDbProxyObject
 90
      499
 91
      526
 93
     1849
310
4214DD185B99185C992420000000000000F83F0000000000003E0FC00000000000004901028000000C1008070000C3001FDFF8000000C1003FBFF000000182007F7FE00000030400FEFFC00000060801FDFF8000000C1003FBFF000000182000000000000000C2020B0000001820100E000186003FBFF000000182007F7FE0
310
0000030400FEFFC00000060801FDFF8000000C1003FBFF000000182007F7FE0000003040000000000000012404160000003040201C00030C007F7FE00000030400FEFFC00000060801FDFF8000000C1003FBFF000000182007F7FE00000030400FEFFC000000608075
340
470
340
470
340
470
 94
        0
1001
ACAD
1000
AcRTDxfName
1000
TABLESTYLE
1000
AcadProxyRoundTripData
1071
      524
1071
  2555929
1070
     0
  0
XRECORD
  5
2853
102
{ACAD_REACTORS
330
2849
102
}
330
2849
100
AcDbXrecord
 90
        0
  0
XRECORD
  5
2857
102
{ACAD_REACTORS
330
2849
102
}
330
2849
100
AcDbXrecord
1000
DSTYLE
1002
{
1070
   276
 70
     2
1070
   279
 70
     2
1002
}
  0
XRECORD
  5
2854
102
{ACAD_REACTORS
330
2849
102
}
330
2849
100
AcDbXrecord
  1
{6E0CF4B5-225E-11D4-A150-00A0CC3303EC}
  0
XRECORD
  5
284C
102
{ACAD_REACTORS
330
2849
102
}
330
2849
100
AcDbXrecord
  1

  0
XRECORD
  5
2852
102
{ACAD_REACTORS
330
2849
102
}
330
2849
100
AcDbXrecord
 90
        0
  0
XRECORD
  5
284E
102
{ACAD_REACTORS
330
2849
102
}
330
2849
100
AcDbXrecord
340
49E
  0
XRECORD
  5
2851
102
{ACAD_REACTORS
330
2849
102
}
330
2849
100
AcDbXrecord
 90
    14877
  0
XRECORD
  5
284F
102
{ACAD_REACTORS
330
2849
102
}
330
2849
100
AcDbXrecord
340
49F
  0
XRECORD
  5
2850
102
{ACAD_REACTORS
330
2849
102
}
330
2849
100
AcDbXrecord
340
49C
  0
XRECORD
  5
2856
102
{ACAD_REACTORS
330
2849
102
}
330
2849
100
AcDbXrecord
 40
0.0
  0
XRECORD
  5
285A
102
{ACAD_REACTORS
330
2849
102
}
330
2849
100
AcDbXrecord
340
0
  0
XRECORD
  5
2860
102
{ACAD_REACTORS
330
2849
102
}
330
2849
100
AcDbXrecord
 10
0.0
 20
0.0
 30
0.0
  0
XRECORD
  5
285C
102
{ACAD_REACTORS
330
2849
102
}
330
2849
100
AcDbXrecord
 10
0.0
 20
0.0
 30
0.0
  0
XRECORD
  5
285F
102
{ACAD_REACTORS
330
2849
102
}
330
2849
100
AcDbXrecord
 10
0.0
 20
0.0
 30
0.0
  0
XRECORD
  5
285D
102
{ACAD_REACTORS
330
2849
102
}
330
2849
100
AcDbXrecord
 10
0.0
 20
0.0
 30
0.0
  0
XRECORD
  5
285E
102
{ACAD_REACTORS
330
2849
102
}
330
2849
100
AcDbXrecord
 10
0.0
 20
0.0
 30
0.0
  0
XRECORD
  5
285B
102
{ACAD_REACTORS
330
2849
102
}
330
2849
100
AcDbXrecord
 10
0.0
 20
0.0
 30
0.0
  0
XRECORD
  5
2858
102
{ACAD_REACTORS
330
2849
102
}
330
2849
100
AcDbXrecord
340
0
  0
XRECORD
  5
2859
102
{ACAD_REACTORS
330
2849
102
}
330
2849
100
AcDbXrecord
 70
     0
  0
XRECORD
  5
284D
102
{ACAD_REACTORS
330
2849
102
}
330
2849
100
AcDbXrecord
  1

  0
XRECORD
  5
284A
102
{ACAD_REACTORS
330
2849
102
}
330
2849
100
AcDbXrecord
 90
        1
  0
XRECORD
  5
284B
102
{ACAD_REACTORS
330
2849
102
}
330
2849
100
AcDbXrecord
 90
       70
  0
XRECORD
  5
2863
102
{ACAD_REACTORS
330
2849
102
}
330
2849
100
AcDbXrecord
340
0
  0
XRECORD
  5
2869
102
{ACAD_REACTORS
330
2849
102
}
330
2849
100
AcDbXrecord
 10
0.0
 20
0.0
 30
0.0
  0
XRECORD
  5
2865
102
{ACAD_REACTORS
330
2849
102
}
330
2849
100
AcDbXrecord
 10
0.0
 20
0.0
 30
0.0
  0
XRECORD
  5
2868
102
{ACAD_REACTORS
330
2849
102
}
330
2849
100
AcDbXrecord
 10
0.0
 20
0.0
 30
0.0
  0
XRECORD
  5
2866
102
{ACAD_REACTORS
330
2849
102
}
330
2849
100
AcDbXrecord
 10
0.0
 20
0.0
 30
0.0
  0
XRECORD
  5
2867
102
{ACAD_REACTORS
330
2849
102
}
330
2849
100
AcDbXrecord
 10
0.0
 20
0.0
 30
0.0
  0
XRECORD
  5
2864
102
{ACAD_REACTORS
330
2849
102
}
330
2849
100
AcDbXrecord
 10
-673.7938563471624
 20
194.6454404124763
 30
-1.0
  0
XRECORD
  5
2861
102
{ACAD_REACTORS
330
2849
102
}
330
2849
100
AcDbXrecord
340
0
  0
XRECORD
  5
2862
102
{ACAD_REACTORS
330
2849
102
}
330
2849
100
AcDbXrecord
 70
     3
  0
XRECORD
  5
2855
102
{ACAD_REACTORS
330
2849
102
}
330
2849
100
AcDbXrecord
  1
{FF850DCA-042E-4FC9-B92B-162F06B7D5DC}
  0
DICTIONARYVAR
  5
27C5
102
{ACAD_REACTORS
330
48D
102
}
330
48D
100
DictionaryVariables
280
     0
  1
STANDARD
  0
DICTIONARYVAR
  5
48E
102
{ACAD_REACTORS
330
48D
102
}
330
48D
100
DictionaryVariables
280
     0
  1
0
  0
DICTIONARYVAR
  5
6EA
102
{ACAD_REACTORS
330
48D
102
}
330
48D
100
DictionaryVariables
280
     0
  1
1
  0
DICTIONARYVAR
  5
2581
102
{ACAD_REACTORS
330
48D
102
}
330
48D
100
DictionaryVariables
280
     0
  1

  0
XRECORD
  5
27AE
102
{ACAD_REACTORS
330
27AD
102
}
330
27AD
100
AcDbXrecord
 40
0.000001
  0
XRECORD
  5
27B1
102
{ACAD_REACTORS
330
27AD
102
}
330
27AD
100
AcDbXrecord
 70
     0
  0
XRECORD
  5
27B0
102
{ACAD_REACTORS
330
27AD
102
}
330
27AD
100
AcDbXrecord
 70
     0
  0
XRECORD
  5
27AF
102
{ACAD_REACTORS
330
27AD
102
}
330
27AD
100
AcDbXrecord
 70
     0
  0
ENDSEC
  0
EOF
