  0
SECTION
  2
HEADER
  9
$ACADVER
  1
AC1014
  9
$ACADMAINTVER
 70
     8
  9
$DWGCODEPAGE
  3
ANSI_1252
  9
$INSBASE
 10
0.0
 20
0.0
 30
0.0
  9
$EXTMIN
 10
-1.054418
 20
-1.662058
 30
0.0
  9
$EXTMAX
 10
2.64
 20
10.921904
 30
5.880973
  9
$LIMMIN
 10
0.0
 20
0.0
  9
$LIMMAX
 10
12.0
 20
9.0
  9
$ORTHOMODE
 70
     0
  9
$REGENMODE
 70
     1
  9
$FILLMODE
 70
     1
  9
$QTEXTMODE
 70
     0
  9
$MIRRTEXT
 70
     1
  9
$DRAGMODE
 70
     2
  9
$LTSCALE
 40
1.0
  9
$OSMODE
 70
    37
  9
$ATTMODE
 70
     1
  9
$TEXTSIZE
 40
0.12
  9
$TRACEWID
 40
0.05
  9
$TEXTSTYLE
  7
STANDARD
  9
$CLAYER
  8
0
  9
$CELTYPE
  6
BYLAYER
  9
$CECOLOR
 62
   256
  9
$CELTSCALE
 40
1.0
  9
$DELOBJ
 70
     1
  9
$DISPSILH
 70
     0
  9
$DIMSCALE
 40
1.0
  9
$DIMASZ
 40
0.18
  9
$DIMEXO
 40
0.0625
  9
$DIMDLI
 40
0.375
  9
$DIMRND
 40
0.0
  9
$DIMDLE
 40
0.0
  9
$DIMEXE
 40
0.18
  9
$DIMTP
 40
0.0
  9
$DIMTM
 40
0.0
  9
$DIMTXT
 40
0.18
  9
$DIMCEN
 40
0.09
  9
$DIMTSZ
 40
0.0
  9
$DIMTOL
 70
     0
  9
$DIMLIM
 70
     0
  9
$DIMTIH
 70
     0
  9
$DIMTOH
 70
     1
  9
$DIMSE1
 70
     0
  9
$DIMSE2
 70
     0
  9
$DIMTAD
 70
     0
  9
$DIMZIN
 70
     4
  9
$DIMBLK
  1

  9
$DIMASO
 70
     1
  9
$DIMSHO
 70
     1
  9
$DIMPOST
  1

  9
$DIMAPOST
  1

  9
$DIMALT
 70
     1
  9
$DIMALTD
 70
     1
  9
$DIMALTF
 40
25.4
  9
$DIMLFAC
 40
1.0
  9
$DIMTOFL
 70
     0
  9
$DIMTVP
 40
0.0
  9
$DIMTIX
 70
     0
  9
$DIMSOXD
 70
     0
  9
$DIMSAH
 70
     0
  9
$DIMBLK1
  1

  9
$DIMBLK2
  1

  9
$DIMSTYLE
  2
ABECAD_3D
  9
$DIMCLRD
 70
     0
  9
$DIMCLRE
 70
     0
  9
$DIMCLRT
 70
     0
  9
$DIMTFAC
 40
1.5
  9
$DIMGAP
 40
0.09
  9
$DIMJUST
 70
     0
  9
$DIMSD1
 70
     0
  9
$DIMSD2
 70
     0
  9
$DIMTOLJ
 70
     1
  9
$DIMTZIN
 70
     4
  9
$DIMALTZ
 70
     4
  9
$DIMALTTZ
 70
     4
  9
$DIMFIT
 70
     3
  9
$DIMUPT
 70
     0
  9
$DIMUNIT
 70
     7
  9
$DIMDEC
 70
     6
  9
$DIMTDEC
 70
     6
  9
$DIMALTU
 70
     2
  9
$DIMALTTD
 70
     1
  9
$DIMTXSTY
  7
STANDARD
  9
$DIMAUNIT
 70
     0
  9
$LUNITS
 70
     2
  9
$LUPREC
 70
     4
  9
$SKETCHINC
 40
0.1
  9
$FILLETRAD
 40
0.0
  9
$AUNITS
 70
     0
  9
$AUPREC
 70
     0
  9
$MENU
  1
ACAD
  9
$ELEVATION
 40
0.0
  9
$PELEVATION
 40
0.0
  9
$THICKNESS
 40
0.0
  9
$LIMCHECK
 70
     0
  9
$BLIPMODE
 70
     0
  9
$CHAMFERA
 40
0.0
  9
$CHAMFERB
 40
0.0
  9
$CHAMFERC
 40
0.0
  9
$CHAMFERD
 40
0.0
  9
$SKPOLY
 70
     0
  9
$TDCREATE
 40
2451670.444776967
  9
$TDUPDATE
 40
2452010.488636574
  9
$TDINDWG
 40
0.0063856481
  9
$TDUSRTIMER
 40
0.0063856481
  9
$USRTIMER
 70
     1
  9
$ANGBASE
 50
0.0
  9
$ANGDIR
 70
     0
  9
$PDMODE
 70
     3
  9
$PDSIZE
 40
0.09
  9
$PLINEWID
 40
0.0
  9
$COORDS
 70
     1
  9
$SPLFRAME
 70
     1
  9
$SPLINETYPE
 70
     6
  9
$SPLINESEGS
 70
     8
  9
$ATTDIA
 70
     0
  9
$ATTREQ
 70
     1
  9
$HANDLING
 70
     1
  9
$HANDSEED
  5
45F7E
  9
$SURFTAB1
 70
     6
  9
$SURFTAB2
 70
     6
  9
$SURFTYPE
 70
     6
  9
$SURFU
 70
     6
  9
$SURFV
 70
     6
  9
$UCSNAME
  2

  9
$UCSORG
 10
0.0
 20
0.0
 30
0.0
  9
$UCSXDIR
 10
1.0
 20
0.0
 30
0.0
  9
$UCSYDIR
 10
0.0
 20
1.0
 30
0.0
  9
$PUCSNAME
  2

  9
$PUCSORG
 10
0.0
 20
0.0
 30
0.0
  9
$PUCSXDIR
 10
1.0
 20
0.0
 30
0.0
  9
$PUCSYDIR
 10
0.0
 20
1.0
 30
0.0
  9
$USERI1
 70
     0
  9
$USERI2
 70
     0
  9
$USERI3
 70
     0
  9
$USERI4
 70
     0
  9
$USERI5
 70
     0
  9
$USERR1
 40
0.0
  9
$USERR2
 40
0.0
  9
$USERR3
 40
0.0
  9
$USERR4
 40
0.0
  9
$USERR5
 40
0.0
  9
$WORLDVIEW
 70
     1
  9
$SHADEDGE
 70
     3
  9
$SHADEDIF
 70
    70
  9
$TILEMODE
 70
     1
  9
$MAXACTVP
 70
    16
  9
$PINSBASE
 10
0.0
 20
0.0
 30
0.0
  9
$PLIMCHECK
 70
     0
  9
$PEXTMIN
 10
1.000000E+20
 20
1.000000E+20
 30
1.000000E+20
  9
$PEXTMAX
 10
-1.000000E+20
 20
-1.000000E+20
 30
-1.000000E+20
  9
$PLIMMIN
 10
0.0
 20
0.0
  9
$PLIMMAX
 10
12.0
 20
9.0
  9
$UNITMODE
 70
     0
  9
$VISRETAIN
 70
     0
  9
$PLINEGEN
 70
     0
  9
$PSLTSCALE
 70
     1
  9
$TREEDEPTH
 70
  3020
  9
$PICKSTYLE
 70
     1
  9
$CMLSTYLE
  2
STANDARD
  9
$CMLJUST
 70
     0
  9
$CMLSCALE
 40
1.0
  9
$PROXYGRAPHICS
 70
     1
  9
$MEASUREMENT
 70
     0
  0
ENDSEC
  0
SECTION
  2
CLASSES
  0
CLASS
  1
DICTIONARYVAR
  2
AcDbDictionaryVar
  3
"AutoCAD"
 90
        0
280
     0
281
     0
  0
CLASS
  1
ACDBDICTIONARYWDFLT
  2
AcDbDictionaryWithDefault
  3
AutoCAD 2000
 90
        0
280
     0
281
     0
  0
CLASS
  1
ACDBPLACEHOLDER
  2
AcDbPlaceHolder
  3
AutoCAD 2000
 90
        0
280
     0
281
     0
  0
CLASS
  1
LAYOUT
  2
AcDbLayout
  3
AutoCAD 2000
 90
        0
280
     0
281
     0
  0
CLASS
  1
LONG_TRANSACTION
  2
AcDbLongTransaction
  3
AutoCAD 2000
 90
        0
280
     0
281
     0
  0
CLASS
  1
LWPOLYLINE
  2
AcDbPolyline
  3
"AutoCAD"
 90
        0
280
     0
281
     1
  0
CLASS
  1
HATCH
  2
AcDbHatch
  3
"ACAD_SEDONA"
 90
        0
280
     0
281
     1
  0
CLASS
  1
XRECORD
  2
AcDbXrecord
  3
"<Built In>"
 90
        0
280
     0
281
     0
  0
CLASS
  1
LONG_TRANSACTION
  2
AcDbLongTransaction
  3
AutoCAD 2000
 90
        0
280
     0
281
     0
  0
CLASS
  1
LWPOLYLINE
  2
AcDbPolyline
  3
"AutoCAD"
 90
        0
280
     0
281
     1
  0
CLASS
  1
HATCH
  2
AcDbHatch
  3
"ACAD_SEDONA"
 90
        0
280
     0
281
     1
  0
CLASS
  1
XRECORD
  2
AcDbXrecord
  3
"<Built In>"
 90
        0
280
     0
281
     0
  0
CLASS
  1
LONG_TRANSACTION
  2
AcDbLongTransaction
  3
AutoCAD 2000
 90
        0
280
     0
281
     0
  0
CLASS
  1
LWPOLYLINE
  2
AcDbPolyline
  3
"AutoCAD"
 90
        0
280
     0
281
     1
  0
CLASS
  1
HATCH
  2
AcDbHatch
  3
"ACAD_SEDONA"
 90
        0
280
     0
281
     1
  0
CLASS
  1
XRECORD
  2
AcDbXrecord
  3
"<Built In>"
 90
        0
280
     0
281
     0
  0
CLASS
  1
LONG_TRANSACTION
  2
AcDbLongTransaction
  3
AutoCAD 2000
 90
        0
280
     0
281
     0
  0
CLASS
  1
LWPOLYLINE
  2
AcDbPolyline
  3
"AutoCAD"
 90
        0
280
     0
281
     1
  0
CLASS
  1
HATCH
  2
AcDbHatch
  3
"ACAD_SEDONA"
 90
        0
280
     0
281
     1
  0
CLASS
  1
XRECORD
  2
AcDbXrecord
  3
"<Built In>"
 90
        0
280
     0
281
     0
  0
CLASS
  1
LONG_TRANSACTION
  2
AcDbLongTransaction
  3
AutoCAD 2000
 90
        0
280
     0
281
     0
  0
CLASS
  1
LWPOLYLINE
  2
AcDbPolyline
  3
"AutoCAD"
 90
        0
280
     0
281
     1
  0
CLASS
  1
HATCH
  2
AcDbHatch
  3
"ACAD_SEDONA"
 90
        0
280
     0
281
     1
  0
CLASS
  1
XRECORD
  2
AcDbXrecord
  3
"<Built In>"
 90
        0
280
     0
281
     0
  0
ENDSEC
  0
SECTION
  2
TABLES
  0
TABLE
  2
VPORT
  5
458C7
100
AcDbSymbolTable
 70
     1
  0
VPORT
  5
45F4B
102
{ACAD_XDICTIONARY
360
45F4E
102
}
100
AcDbSymbolTableRecord
100
AcDbViewportTableRecord
  2
*ACTIVE
 70
     0
 10
0.0
 20
0.0
 11
1.0
 21
1.0
 12
0.792713
 22
4.629923
 13
0.0
 23
0.0
 14
0.25
 24
0.25
 15
0.25
 25
0.25
 16
0.0
 26
0.0
 36
1.0
 17
0.0
 27
0.0
 37
0.0
 40
12.796238
 41
1.960674
 42
50.0
 43
0.0
 44
0.0
 50
0.0
 51
0.0
 71
     0
 72
 20000
 73
     1
 74
     1
 75
     0
 76
     0
 77
     0
 78
     0
  0
ENDTAB
  0
TABLE
  2
LTYPE
  5
458C4
100
AcDbSymbolTable
 70
     1
  0
LTYPE
  5
458D0
100
AcDbSymbolTableRecord
100
AcDbLinetypeTableRecord
  2
BYBLOCK
 70
     0
  3

 72
    65
 73
     0
 40
0.0
  0
LTYPE
  5
458D1
100
AcDbSymbolTableRecord
100
AcDbLinetypeTableRecord
  2
BYLAYER
 70
     0
  3

 72
    65
 73
     0
 40
0.0
  0
LTYPE
  5
458D2
100
AcDbSymbolTableRecord
100
AcDbLinetypeTableRecord
  2
CONTINUOUS
 70
     0
  3
Solid line
 72
    65
 73
     0
 40
0.0
  0
ENDTAB
  0
TABLE
  2
LAYER
  5
458C1
100
AcDbSymbolTable
 70
     7
  0
LAYER
  5
458CD
100
AcDbSymbolTableRecord
100
AcDbLayerTableRecord
  2
0
 70
     0
 62
     7
  6
CONTINUOUS
  0
LAYER
  5
458EA
100
AcDbSymbolTableRecord
100
AcDbLayerTableRecord
  2
DIMS-MTG-HOLES
 70
     0
 62
     1
  6
CONTINUOUS
  0
LAYER
  5
458EB
100
AcDbSymbolTableRecord
100
AcDbLayerTableRecord
  2
ATTRIBUTES
 70
     0
 62
     7
  6
CONTINUOUS
  0
LAYER
  5
4593B
102
{ACAD_XDICTIONARY
360
45F79
102
}
100
AcDbSymbolTableRecord
100
AcDbLayerTableRecord
  2
AREA1
 70
     0
 62
    -7
  6
CONTINUOUS
  0
LAYER
  5
45940
102
{ACAD_XDICTIONARY
360
45F4C
102
}
100
AcDbSymbolTableRecord
100
AcDbLayerTableRecord
  2
DEFPOINTS
 70
     0
 62
    -7
  6
CONTINUOUS
  0
LAYER
  5
45954
100
AcDbSymbolTableRecord
100
AcDbLayerTableRecord
  2
SCALE
 70
     0
 62
    -7
  6
CONTINUOUS
  0
LAYER
  5
45EE4
100
AcDbSymbolTableRecord
100
AcDbLayerTableRecord
  2
SNAP_POINTS
 70
     0
 62
    -1
  6
CONTINUOUS
  0
ENDTAB
  0
TABLE
  2
STYLE
  5
458C2
100
AcDbSymbolTable
 70
     1
  0
STYLE
  5
458CE
100
AcDbSymbolTableRecord
100
AcDbTextStyleTableRecord
  2
STANDARD
 70
     0
 40
0.0
 41
1.0
 50
0.0
 71
     0
 42
0.12
  3
txt
  4

  0
ENDTAB
  0
TABLE
  2
VIEW
  5
458C5
100
AcDbSymbolTable
 70
     0
  0
ENDTAB
  0
TABLE
  2
UCS
  5
458C6
100
AcDbSymbolTable
 70
     0
  0
ENDTAB
  0
TABLE
  2
APPID
  5
458C8
100
AcDbSymbolTable
 70
     1
  0
APPID
  5
458CF
100
AcDbSymbolTableRecord
100
AcDbRegAppTableRecord
  2
ACAD
 70
     0
  0
ENDTAB
  0
TABLE
  2
DIMSTYLE
  5
458C9
100
AcDbSymbolTable
 70
     2
  0
DIMSTYLE
105
458F1
102
{ACAD_XDICTIONARY
360
45F73
102
}
100
AcDbSymbolTableRecord
100
AcDbDimStyleTableRecord
  2
ABECAD
 70
     0
  3

  4

  5

  6

  7

 40
1.0
 41
0.18
 42
0.0625
 43
0.375
 44
0.18
 45
0.0
 46
0.0
 47
0.0
 48
0.0
140
0.18
141
0.09
142
0.0
143
25.4
144
1.0
145
0.0
146
1.5
147
0.09
 71
     0
 72
     0
 73
     0
 74
     1
 75
     0
 76
     0
 77
     0
 78
     4
170
     1
171
     1
172
     0
173
     0
174
     0
175
     0
176
     0
177
     0
178
     0
270
     7
271
     6
272
     6
273
     2
274
     1
340
458CE
275
     0
280
     0
281
     0
282
     0
283
     1
284
     4
285
     4
286
     4
287
     3
288
     0
  0
DIMSTYLE
105
458F6
102
{ACAD_XDICTIONARY
360
45F75
102
}
102
{ACAD_REACTORS
330
45E88
330
45E96
102
}
100
AcDbSymbolTableRecord
100
AcDbDimStyleTableRecord
  2
ABECAD_3D
 70
     0
  3

  4

  5

  6

  7

 40
1.0
 41
0.18
 42
0.0625
 43
0.375
 44
0.18
 45
0.0
 46
0.0
 47
0.0
 48
0.0
140
0.18
141
0.09
142
0.0
143
25.4
144
1.0
145
0.0
146
1.5
147
0.09
 71
     0
 72
     0
 73
     0
 74
     1
 75
     0
 76
     0
 77
     0
 78
     4
170
     1
171
     1
172
     0
173
     0
174
     0
175
     0
176
     0
177
     0
178
     0
270
     7
271
     6
272
     6
273
     2
274
     1
340
458CE
275
     0
280
     0
281
     0
282
     0
283
     1
284
     4
285
     4
286
     4
287
     3
288
     0
  0
ENDTAB
  0
TABLE
  2
BLOCK_RECORD
  5
458C0
100
AcDbSymbolTable
 70
     2
  0
BLOCK_RECORD
  5
458D6
102
{ACAD_XDICTIONARY
360
4592C
102
}
100
AcDbSymbolTableRecord
100
AcDbBlockTableRecord
  2
*MODEL_SPACE
  0
BLOCK_RECORD
  5
458D3
102
{ACAD_XDICTIONARY
360
4592A
102
}
100
AcDbSymbolTableRecord
100
AcDbBlockTableRecord
  2
*PAPER_SPACE
  0
BLOCK_RECORD
  5
45E89
100
AcDbSymbolTableRecord
100
AcDbBlockTableRecord
  2
*D0
  0
BLOCK_RECORD
  5
45E97
100
AcDbSymbolTableRecord
100
AcDbBlockTableRecord
  2
*D1
  0
ENDTAB
  0
ENDSEC
  0
SECTION
  2
BLOCKS
  0
BLOCK
  5
458DF
100
AcDbEntity
  8
0
100
AcDbBlockBegin
  2
*MODEL_SPACE
 70
     0
 10
0.0
 20
0.0
 30
0.0
  3
*MODEL_SPACE
  1

  0
ENDBLK
  5
458E0
100
AcDbEntity
  8
0
100
AcDbBlockEnd
  0
BLOCK
  5
458DD
100
AcDbEntity
 67
     1
  8
0
100
AcDbBlockBegin
  2
*PAPER_SPACE
 70
     0
 10
0.0
 20
0.0
 30
0.0
  3
*PAPER_SPACE
  1

  0
ENDBLK
  5
458DE
100
AcDbEntity
 67
     1
  8
0
100
AcDbBlockEnd
  0
BLOCK
  5
45E94
100
AcDbEntity
  8
0
100
AcDbBlockBegin
  2
*D0
 70
     1
 10
0.0
 20
0.0
 30
0.0
  3
*D0
  1

  0
LINE
  5
45E8A
100
AcDbEntity
  8
AREA1
 62
     0
100
AcDbLine
 10
-0.163868
 20
-0.562545
 30
0.0
 11
1.452481
 21
-0.562545
 31
0.0
1001
ACAD
1000
RTLwPs
1070
   158
  0
LINE
  5
45E8B
100
AcDbEntity
  8
AREA1
 62
     0
100
AcDbLine
 10
0.3275
 20
10.0432
 30
0.0
 11
1.452481
 21
10.0432
 31
0.0
1001
ACAD
1000
RTLwPs
1070
   158
  0
LINE
  5
45E8C
100
AcDbEntity
  8
AREA1
 62
     0
100
AcDbLine
 10
1.272481
 20
-0.382545
 30
0.0
 11
1.272481
 21
3.405327
 31
0.0
1001
ACAD
1000
RTLwPs
1070
   158
  0
LINE
  5
45E8D
100
AcDbEntity
  8
AREA1
 62
     0
100
AcDbLine
 10
1.272481
 20
9.8632
 30
0.0
 11
1.272481
 21
6.075327
 31
0.0
1001
ACAD
1000
RTLwPs
1070
   158
  0
SOLID
  5
45E8E
100
AcDbEntity
  8
AREA1
 62
     0
100
AcDbTrace
 10
1.242481
 20
-0.382545
 30
0.0
 11
1.302481
 21
-0.382545
 31
0.0
 12
1.272481
 22
-0.562545
 32
0.0
 13
1.272481
 23
-0.562545
 33
0.0
  0
SOLID
  5
45E8F
100
AcDbEntity
  8
AREA1
 62
     0
100
AcDbTrace
 10
1.242481
 20
9.8632
 30
0.0
 11
1.302481
 21
9.8632
 31
0.0
 12
1.272481
 22
10.0432
 32
0.0
 13
1.272481
 23
10.0432
 33
0.0
  0
MTEXT
  5
45E90
100
AcDbEntity
  8
AREA1
 62
     0
100
AcDbMText
 10
1.272481
 20
4.740327
 30
0.0
 40
0.18
 41
0.0
 71
     5
 72
     1
  1
\A1;10 39/64 [269.4]
 11
0.0
 21
1.0
 31
0.0
1001
ACAD
1000
MTEXTBEGIN
1070
    73
1070
     1
1070
    44
1040
1.0
1070
    74
1070
     0
1000
MTEXTEND
1000
MTEXTBEGIN
1070
    73
1070
     1
1070
    44
1040
1.0
1070
    74
1070
     0
1000
MTEXTEND
1000
MTEXTBEGIN
1070
    73
1070
     1
1070
    44
1040
1.0
1070
    74
1070
     0
1000
MTEXTEND
1000
MTEXTBEGIN
1070
    73
1070
     1
1070
    44
1040
1.0
1070
    74
1070
     0
1000
MTEXTEND
  0
POINT
  5
45E91
100
AcDbEntity
  8
DEFPOINTS
 62
     0
100
AcDbPoint
 10
-0.226368
 20
-0.562545
 30
5.88
  0
POINT
  5
45E92
100
AcDbEntity
  8
DEFPOINTS
 62
     0
100
AcDbPoint
 10
0.265
 20
10.0432
 30
5.747
  0
POINT
  5
45E93
100
AcDbEntity
  8
DEFPOINTS
 62
     0
100
AcDbPoint
 10
1.272481
 20
10.0432
 30
0.0
  0
ENDBLK
  5
45E95
100
AcDbEntity
  8
0
100
AcDbBlockEnd
  0
BLOCK
  5
45EA2
100
AcDbEntity
  8
0
100
AcDbBlockBegin
  2
*D1
 70
     1
 10
0.0
 20
0.0
 30
0.0
  3
*D1
  1

  0
LINE
  5
45E98
100
AcDbEntity
  8
AREA1
 62
     0
100
AcDbLine
 10
-1.025435
 20
0.37789
 30
0.0
 11
-1.025435
 21
10.921904
 31
0.0
1001
ACAD
1000
RTLwPs
1070
   158
  0
LINE
  5
45E99
100
AcDbEntity
  8
AREA1
 62
     0
100
AcDbLine
 10
0.27
 20
9.8625
 30
0.0
 11
0.27
 21
10.921904
 31
0.0
1001
ACAD
1000
RTLwPs
1070
   158
  0
LINE
  5
45E9A
100
AcDbEntity
  8
AREA1
 62
     0
100
AcDbLine
 10
-0.845435
 20
10.741904
 30
0.0
 11
0.09
 21
10.741904
 31
0.0
1001
ACAD
1000
RTLwPs
1070
   158
  0
LINE
  5
45E9B
100
AcDbEntity
  8
AREA1
 62
     0
100
AcDbLine
 10
0.27
 20
10.741904
 30
0.0
 11
0.45
 21
10.741904
 31
0.0
1001
ACAD
1000
RTLwPs
1070
   158
  0
SOLID
  5
45E9C
100
AcDbEntity
  8
AREA1
 62
     0
100
AcDbTrace
 10
-0.845435
 20
10.771904
 30
0.0
 11
-0.845435
 21
10.711904
 31
0.0
 12
-1.025435
 22
10.741904
 32
0.0
 13
-1.025435
 23
10.741904
 33
0.0
  0
SOLID
  5
45E9D
100
AcDbEntity
  8
AREA1
 62
     0
100
AcDbTrace
 10
0.09
 20
10.771904
 30
0.0
 11
0.09
 21
10.711904
 31
0.0
 12
0.27
 22
10.741904
 32
0.0
 13
0.27
 23
10.741904
 33
0.0
  0
MTEXT
  5
45E9E
100
AcDbEntity
  8
AREA1
 62
     0
100
AcDbMText
 10
1.59
 20
10.741904
 30
0.0
 40
0.18
 41
0.0
 71
     5
 72
     1
  1
\A1;1 19/64 [32.9]
1001
ACAD
1000
MTEXTBEGIN
1070
    73
1070
     1
1070
    44
1040
1.0
1070
    74
1070
     0
1000
MTEXTEND
1000
MTEXTBEGIN
1070
    73
1070
     1
1070
    44
1040
1.0
1070
    74
1070
     0
1000
MTEXTEND
1000
MTEXTBEGIN
1070
    73
1070
     1
1070
    44
1040
1.0
1070
    74
1070
     0
1000
MTEXTEND
1000
MTEXTBEGIN
1070
    73
1070
     1
1070
    44
1040
1.0
1070
    74
1070
     0
1000
MTEXTEND
  0
POINT
  5
45E9F
100
AcDbEntity
  8
DEFPOINTS
 62
     0
100
AcDbPoint
 10
-1.025435
 20
0.31539
 30
5.88
  0
POINT
  5
45EA0
100
AcDbEntity
  8
DEFPOINTS
 62
     0
100
AcDbPoint
 10
0.27
 20
9.8
 30
0.0
  0
POINT
  5
45EA1
100
AcDbEntity
  8
DEFPOINTS
 62
     0
100
AcDbPoint
 10
0.27
 20
10.741904
 30
0.0
  0
ENDBLK
  5
45EA3
100
AcDbEntity
  8
0
100
AcDbBlockEnd
  0
ENDSEC
  0
SECTION
  2
ENTITIES
  0
ATTDEF
  5
1
100
AcDbEntity
  8
ATTRIBUTES
100
AcDbText
 10
-0.7539
 20
1.36709
 30
0.0
 40
0.06
  1
ALLEN-BRADLEY
100
AcDbAttributeDefinition
  3
MANUFACTURER NAME?
  2
AC_VND_LABEL
 70
     1
  0
ATTDEF
  5
2
100
AcDbEntity
  8
ATTRIBUTES
100
AcDbText
 10
-0.7539
 20
1.24209
 30
0.0
 40
0.06
  1
1771-NB4S
100
AcDbAttributeDefinition
  3
CATALOG NUMBER?
  2
AC_PART_NO
 70
     1
  0
ATTDEF
  5
3
100
AcDbEntity
  8
ATTRIBUTES
100
AcDbText
 10
-0.7539
 20
1.11709
 30
0.0
 40
0.06
  1
1771-NB4S:HIGH RESOLUTION ISOLATED ANALOG MDL, (2) SOURCING 4-20MA IN (2) 4-20MA OUT
100
AcDbAttributeDefinition
  3
PART DESCRIPTION?
  2
AC_DESCRIPTION
 70
     1
  0
ATTDEF
  5
4
100
AcDbEntity
  8
ATTRIBUTES
100
AcDbText
 10
-0.7539
 20
0.99209
 30
0.0
 40
0.06
  1

100
AcDbAttributeDefinition
  3
DEVICE ID?
  2
DEVICE_ID
 70
     1
  0
ATTDEF
  5
5
100
AcDbEntity
  8
ATTRIBUTES
100
AcDbText
 10
-0.7539
 20
0.86709
 30
0.0
 40
0.06
  1

100
AcDbAttributeDefinition
  3
CUSTOMER PART NUMBER?
  2
AC_CPART_NO
 70
     1
  0
ATTDEF
  5
6
100
AcDbEntity
  8
ATTRIBUTES
100
AcDbText
 10
-0.7539
 20
0.74209
 30
0.0
 40
0.06
  1

100
AcDbAttributeDefinition
  3
CUSTOMER NOTE?
  2
AC_NOTE
 70
     1
  0
ATTDEF
  5
7
100
AcDbEntity
  8
ATTRIBUTES
100
AcDbText
 10
-0.7539
 20
0.61709
 30
0.0
 40
0.06
  1

100
AcDbAttributeDefinition
  3
FASTENER DATA?
  2
FASTENER
 70
     1
  0
ATTDEF
  5
8
100
AcDbEntity
  8
ATTRIBUTES
100
AcDbText
 10
-0.7539
 20
0.49209
 30
0.0
 40
0.06
  1
INCH
100
AcDbAttributeDefinition
  3
UNIT OF SCALE?
  2
AC_SCALE_UNIT
 70
     1
  0
ATTDEF
  5
9
100
AcDbEntity
  8
ATTRIBUTES
100
AcDbText
 10
-0.7539
 20
0.36709
 30
0.0
 40
0.06
  1
0
100
AcDbAttributeDefinition
  3
VIEW CODE?
  2
AC_VIEW_CODE
 70
     1
  0
POLYLINE
  5
45BF3
100
AcDbEntity
  8
0
100
AcDbPolygonMesh
 66
     1
 10
0.0
 20
0.0
 30
0.0
 70
    16
 71
     6
 72
     3
  0
VERTEX
  5
45BF4
100
AcDbEntity
  8
0
100
AcDbVertex
100
AcDbPolygonMeshVertex
 10
0.27
 20
0.2
 30
5.39
 70
    64
  0
VERTEX
  5
45BF5
100
AcDbEntity
  8
0
100
AcDbVertex
100
AcDbPolygonMeshVertex
 10
0.27
 20
0.2
 30
0.0
 70
    64
  0
VERTEX
  5
45BF6
100
AcDbEntity
  8
0
100
AcDbVertex
100
AcDbPolygonMeshVertex
 10
0.27
 20
0.2
 30
0.0
 70
    64
  0
VERTEX
  5
45BF7
100
AcDbEntity
  8
0
100
AcDbVertex
100
AcDbPolygonMeshVertex
 10
-0.89
 20
0.2
 30
5.39
 70
    64
  0
VERTEX
  5
45BF8
100
AcDbEntity
  8
0
100
AcDbVertex
100
AcDbPolygonMeshVertex
 10
-0.89
 20
0.2
 30
0.0
 70
    64
  0
VERTEX
  5
45BF9
100
AcDbEntity
  8
0
100
AcDbVertex
100
AcDbPolygonMeshVertex
 10
-0.89
 20
0.2
 30
0.0
 70
    64
  0
VERTEX
  5
45BFA
100
AcDbEntity
  8
0
100
AcDbVertex
100
AcDbPolygonMeshVertex
 10
-0.89
 20
9.8
 30
5.39
 70
    64
  0
VERTEX
  5
45BFB
100
AcDbEntity
  8
0
100
AcDbVertex
100
AcDbPolygonMeshVertex
 10
-0.89
 20
9.8
 30
0.0
 70
    64
  0
VERTEX
  5
45BFC
100
AcDbEntity
  8
0
100
AcDbVertex
100
AcDbPolygonMeshVertex
 10
-0.89
 20
0.2
 30
0.0
 70
    64
  0
VERTEX
  5
45BFD
100
AcDbEntity
  8
0
100
AcDbVertex
100
AcDbPolygonMeshVertex
 10
0.27
 20
9.8
 30
5.39
 70
    64
  0
VERTEX
  5
45BFE
100
AcDbEntity
  8
0
100
AcDbVertex
100
AcDbPolygonMeshVertex
 10
0.27
 20
9.8
 30
0.0
 70
    64
  0
VERTEX
  5
45BFF
100
AcDbEntity
  8
0
100
AcDbVertex
100
AcDbPolygonMeshVertex
 10
0.27
 20
0.2
 30
0.0
 70
    64
  0
VERTEX
  5
45C00
100
AcDbEntity
  8
0
100
AcDbVertex
100
AcDbPolygonMeshVertex
 10
0.27
 20
9.8
 30
5.39
 70
    64
  0
VERTEX
  5
45C01
100
AcDbEntity
  8
0
100
AcDbVertex
100
AcDbPolygonMeshVertex
 10
0.27
 20
9.8
 30
5.39
 70
    64
  0
VERTEX
  5
45C02
100
AcDbEntity
  8
0
100
AcDbVertex
100
AcDbPolygonMeshVertex
 10
0.27
 20
0.2
 30
5.39
 70
    64
  0
VERTEX
  5
45C03
100
AcDbEntity
  8
0
100
AcDbVertex
100
AcDbPolygonMeshVertex
 10
-0.89
 20
9.8
 30
5.39
 70
    64
  0
VERTEX
  5
45C04
100
AcDbEntity
  8
0
100
AcDbVertex
100
AcDbPolygonMeshVertex
 10
-0.89
 20
9.8
 30
5.39
 70
    64
  0
VERTEX
  5
45C05
100
AcDbEntity
  8
0
100
AcDbVertex
100
AcDbPolygonMeshVertex
 10
-0.89
 20
0.2
 30
5.39
 70
    64
  0
SEQEND
  5
45C06
100
AcDbEntity
  8
0
  0
POLYLINE
  5
45C07
100
AcDbEntity
  8
0
100
AcDbPolygonMesh
 66
     1
 10
0.0
 20
0.0
 30
0.0
 70
    16
 71
     6
 72
     3
  0
VERTEX
  5
45C08
100
AcDbEntity
  8
0
100
AcDbVertex
100
AcDbPolygonMeshVertex
 10
0.27
 20
0.2
 30
5.88
 70
    64
  0
VERTEX
  5
45C09
100
AcDbEntity
  8
0
100
AcDbVertex
100
AcDbPolygonMeshVertex
 10
0.27
 20
0.2
 30
5.39
 70
    64
  0
VERTEX
  5
45C0A
100
AcDbEntity
  8
0
100
AcDbVertex
100
AcDbPolygonMeshVertex
 10
0.27
 20
0.2
 30
5.39
 70
    64
  0
VERTEX
  5
45C0B
100
AcDbEntity
  8
0
100
AcDbVertex
100
AcDbPolygonMeshVertex
 10
-0.89
 20
0.2
 30
5.88
 70
    64
  0
VERTEX
  5
45C0C
100
AcDbEntity
  8
0
100
AcDbVertex
100
AcDbPolygonMeshVertex
 10
-0.89
 20
0.2
 30
5.39
 70
    64
  0
VERTEX
  5
45C0D
100
AcDbEntity
  8
0
100
AcDbVertex
100
AcDbPolygonMeshVertex
 10
-0.89
 20
0.2
 30
5.39
 70
    64
  0
VERTEX
  5
45C0E
100
AcDbEntity
  8
0
100
AcDbVertex
100
AcDbPolygonMeshVertex
 10
-0.89
 20
8.912
 30
5.88
 70
    64
  0
VERTEX
  5
45C0F
100
AcDbEntity
  8
0
100
AcDbVertex
100
AcDbPolygonMeshVertex
 10
-0.89
 20
8.912
 30
5.39
 70
    64
  0
VERTEX
  5
45C10
100
AcDbEntity
  8
0
100
AcDbVertex
100
AcDbPolygonMeshVertex
 10
-0.89
 20
0.2
 30
5.39
 70
    64
  0
VERTEX
  5
45C11
100
AcDbEntity
  8
0
100
AcDbVertex
100
AcDbPolygonMeshVertex
 10
0.27
 20
8.912
 30
5.88
 70
    64
  0
VERTEX
  5
45C12
100
AcDbEntity
  8
0
100
AcDbVertex
100
AcDbPolygonMeshVertex
 10
0.27
 20
8.912
 30
5.39
 70
    64
  0
VERTEX
  5
45C13
100
AcDbEntity
  8
0
100
AcDbVertex
100
AcDbPolygonMeshVertex
 10
0.27
 20
0.2
 30
5.39
 70
    64
  0
VERTEX
  5
45C14
100
AcDbEntity
  8
0
100
AcDbVertex
100
AcDbPolygonMeshVertex
 10
0.27
 20
8.912
 30
5.88
 70
    64
  0
VERTEX
  5
45C15
100
AcDbEntity
  8
0
100
AcDbVertex
100
AcDbPolygonMeshVertex
 10
0.27
 20
8.912
 30
5.88
 70
    64
  0
VERTEX
  5
45C16
100
AcDbEntity
  8
0
100
AcDbVertex
100
AcDbPolygonMeshVertex
 10
0.27
 20
0.2
 30
5.88
 70
    64
  0
VERTEX
  5
45C17
100
AcDbEntity
  8
0
100
AcDbVertex
100
AcDbPolygonMeshVertex
 10
-0.89
 20
8.912
 30
5.88
 70
    64
  0
VERTEX
  5
45C18
100
AcDbEntity
  8
0
100
AcDbVertex
100
AcDbPolygonMeshVertex
 10
-0.89
 20
8.912
 30
5.88
 70
    64
  0
VERTEX
  5
45C19
100
AcDbEntity
  8
0
100
AcDbVertex
100
AcDbPolygonMeshVertex
 10
-0.89
 20
0.2
 30
5.88
 70
    64
  0
SEQEND
  5
45C1A
100
AcDbEntity
  8
0
  0
POLYLINE
  5
45C1B
100
AcDbEntity
  8
0
100
AcDbPolygonMesh
 66
     1
 10
0.0
 20
0.0
 30
0.0
 70
    16
 71
     6
 72
     3
  0
VERTEX
  5
45C1C
100
AcDbEntity
  8
0
100
AcDbVertex
100
AcDbPolygonMeshVertex
 10
0.068
 20
0.0
 30
4.755
 70
    64
  0
VERTEX
  5
45C1D
100
AcDbEntity
  8
0
100
AcDbVertex
100
AcDbPolygonMeshVertex
 10
0.068
 20
0.0
 30
0.0
 70
    64
  0
VERTEX
  5
45C1E
100
AcDbEntity
  8
0
100
AcDbVertex
100
AcDbPolygonMeshVertex
 10
0.068
 20
0.0
 30
0.0
 70
    64
  0
VERTEX
  5
45C1F
100
AcDbEntity
  8
0
100
AcDbVertex
100
AcDbPolygonMeshVertex
 10
0.0
 20
0.0
 30
4.755
 70
    64
  0
VERTEX
  5
45C20
100
AcDbEntity
  8
0
100
AcDbVertex
100
AcDbPolygonMeshVertex
 10
0.0
 20
0.0
 30
0.0
 70
    64
  0
VERTEX
  5
45C21
100
AcDbEntity
  8
0
100
AcDbVertex
100
AcDbPolygonMeshVertex
 10
0.0
 20
0.0
 30
0.0
 70
    64
  0
VERTEX
  5
45C22
100
AcDbEntity
  8
0
100
AcDbVertex
100
AcDbPolygonMeshVertex
 10
0.0
 20
0.2
 30
4.755
 70
    64
  0
VERTEX
  5
45C23
100
AcDbEntity
  8
0
100
AcDbVertex
100
AcDbPolygonMeshVertex
 10
0.0
 20
0.2
 30
0.0
 70
    64
  0
VERTEX
  5
45C24
100
AcDbEntity
  8
0
100
AcDbVertex
100
AcDbPolygonMeshVertex
 10
0.0
 20
0.0
 30
0.0
 70
    64
  0
VERTEX
  5
45C25
100
AcDbEntity
  8
0
100
AcDbVertex
100
AcDbPolygonMeshVertex
 10
0.068
 20
0.2
 30
4.755
 70
    64
  0
VERTEX
  5
45C26
100
AcDbEntity
  8
0
100
AcDbVertex
100
AcDbPolygonMeshVertex
 10
0.068
 20
0.2
 30
0.0
 70
    64
  0
VERTEX
  5
45C27
100
AcDbEntity
  8
0
100
AcDbVertex
100
AcDbPolygonMeshVertex
 10
0.068
 20
0.0
 30
0.0
 70
    64
  0
VERTEX
  5
45C28
100
AcDbEntity
  8
0
100
AcDbVertex
100
AcDbPolygonMeshVertex
 10
0.068
 20
0.2
 30
4.755
 70
    64
  0
VERTEX
  5
45C29
100
AcDbEntity
  8
0
100
AcDbVertex
100
AcDbPolygonMeshVertex
 10
0.068
 20
0.2
 30
4.755
 70
    64
  0
VERTEX
  5
45C2A
100
AcDbEntity
  8
0
100
AcDbVertex
100
AcDbPolygonMeshVertex
 10
0.068
 20
0.0
 30
4.755
 70
    64
  0
VERTEX
  5
45C2B
100
AcDbEntity
  8
0
100
AcDbVertex
100
AcDbPolygonMeshVertex
 10
0.0
 20
0.2
 30
4.755
 70
    64
  0
VERTEX
  5
45C2C
100
AcDbEntity
  8
0
100
AcDbVertex
100
AcDbPolygonMeshVertex
 10
0.0
 20
0.2
 30
4.755
 70
    64
  0
VERTEX
  5
45C2D
100
AcDbEntity
  8
0
100
AcDbVertex
100
AcDbPolygonMeshVertex
 10
0.0
 20
0.0
 30
4.755
 70
    64
  0
SEQEND
  5
45C2E
100
AcDbEntity
  8
0
  0
POINT
  5
45C2F
100
AcDbEntity
  8
SNAP_POINTS
100
AcDbPoint
 10
0.034
 20
0.0
 30
0.0
  0
LINE
  5
45C30
100
AcDbEntity
  8
0
100
AcDbLine
 10
-0.593237
 20
0.425898
 30
5.88
 11
-0.593237
 21
3.911873
 31
5.88
  0
LINE
  5
45C31
100
AcDbEntity
  8
0
100
AcDbLine
 10
0.060088
 20
0.516311
 30
5.88
 11
0.060088
 21
3.911873
 31
5.88
  0
LINE
  5
45C32
100
AcDbEntity
  8
0
100
AcDbLine
 10
-0.402264
 20
1.475708
 30
5.88
 11
-0.402264
 21
1.229581
 31
5.88
  0
LINE
  5
45C33
100
AcDbEntity
  8
0
100
AcDbLine
 10
-0.311803
 20
1.435523
 30
5.88
 11
-0.150985
 21
1.269764
 31
5.88
  0
LINE
  5
45C34
100
AcDbEntity
  8
0
100
AcDbLine
 10
-0.161036
 20
1.440547
 30
5.88
 11
-0.140936
 21
1.420455
 31
5.88
  0
LINE
  5
45C35
100
AcDbEntity
  8
0
100
AcDbLine
 10
-0.331905
 20
1.415433
 30
5.88
 11
-0.311803
 21
1.435523
 31
5.88
  0
LINE
  5
45C36
100
AcDbEntity
  8
0
100
AcDbLine
 10
0.195778
 20
4.183115
 30
5.88
 11
0.195778
 21
0.425898
 31
5.88
  0
LINE
  5
45C37
100
AcDbEntity
  8
0
100
AcDbLine
 10
-0.7239
 20
4.213253
 30
5.88
 11
-0.7239
 21
0.486173
 31
5.88
  0
LINE
  5
45C38
100
AcDbEntity
  8
0
100
AcDbLine
 10
-0.593237
 20
0.425898
 30
5.88
 11
-0.94
 21
0.23
 31
5.88
  0
LINE
  5
45C39
100
AcDbEntity
  8
0
100
AcDbLine
 10
-1.020408
 20
-0.562545
 30
5.88
 11
-0.226368
 21
-0.562545
 31
5.88
  0
LINE
  5
45C3A
100
AcDbEntity
  8
0
100
AcDbLine
 10
-0.94
 20
-0.562545
 30
5.88
 11
-0.94
 21
0.216022
 31
5.88
  0
LINE
  5
45C3B
100
AcDbEntity
  8
0
100
AcDbLine
 10
-1.025435
 20
0.29639
 30
5.88
 11
-1.025435
 21
-0.562545
 31
5.88
  0
LINE
  5
45C3C
100
AcDbEntity
  8
0
100
AcDbLine
 10
-0.864618
 20
-0.040151
 30
5.88
 11
-0.864618
 21
0.251183
 31
5.88
  0
LINE
  5
45C3D
100
AcDbEntity
  8
0
100
AcDbLine
 10
-0.94
 20
-0.040151
 30
5.88
 11
-0.864618
 21
-0.040151
 31
5.88
  0
LINE
  5
45C3E
100
AcDbEntity
  8
0
100
AcDbLine
 10
-0.718874
 20
0.491197
 30
5.88
 11
-1.025435
 21
0.31539
 31
5.88
  0
LINE
  5
45C3F
100
AcDbEntity
  8
0
100
AcDbLine
 10
-0.311803
 20
0.497311
 30
5.88
 11
-0.311803
 21
-0.562545
 31
5.88
  0
LINE
  5
45C40
100
AcDbEntity
  8
0
100
AcDbLine
 10
-0.226368
 20
0.356667
 30
5.88
 11
-0.226368
 21
-0.562545
 31
5.88
  0
LINE
  5
45C41
100
AcDbEntity
  8
0
100
AcDbLine
 10
-0.402264
 20
0.782531
 30
5.88
 11
-0.402264
 21
0.425898
 31
5.88
  0
LINE
  5
45C42
100
AcDbEntity
  8
0
100
AcDbLine
 10
-0.311803
 20
0.742346
 30
5.88
 11
-0.150985
 21
0.571565
 31
5.88
  0
LINE
  5
45C43
100
AcDbEntity
  8
0
100
AcDbLine
 10
-0.331905
 20
0.591657
 30
5.88
 11
-0.346983
 21
0.616772
 31
5.88
  0
LINE
  5
45C44
100
AcDbEntity
  8
0
100
AcDbLine
 10
-0.120832
 20
0.621795
 30
5.88
 11
-0.130883
 21
0.596679
 31
5.88
  0
LINE
  5
45C45
100
AcDbEntity
  8
0
100
AcDbLine
 10
0.195778
 20
0.425898
 30
5.88
 11
-0.130883
 21
0.425898
 31
5.88
  0
LINE
  5
45C46
100
AcDbEntity
  8
0
100
AcDbLine
 10
-0.311803
 20
0.516311
 30
5.88
 11
0.195778
 21
0.516311
 31
5.88
  0
LINE
  5
45C47
100
AcDbEntity
  8
0
100
AcDbLine
 10
-0.407289
 20
0.216022
 30
5.88
 11
-0.407289
 21
-0.040151
 31
5.88
  0
LINE
  5
45C48
100
AcDbEntity
  8
0
100
AcDbLine
 10
-0.407289
 20
-0.040151
 30
5.88
 11
-0.311803
 21
-0.040151
 31
5.88
  0
LINE
  5
45C49
100
AcDbEntity
  8
0
100
AcDbLine
 10
-0.593237
 20
0.425898
 30
5.88
 11
-0.311803
 21
0.425898
 31
5.88
  0
LINE
  5
45C4A
100
AcDbEntity
  8
0
100
AcDbLine
 10
-0.407289
 20
0.235022
 30
5.88
 11
-0.311803
 21
0.235022
 31
5.88
  0
LINE
  5
45C4B
100
AcDbEntity
  8
0
100
AcDbLine
 10
-0.130883
 20
0.425898
 30
5.88
 11
-0.226368
 21
0.375667
 31
5.88
  0
LINE
  5
45C4C
100
AcDbEntity
  8
0
100
AcDbLine
 10
-0.216318
 20
0.536404
 30
5.88
 11
-0.246471
 21
0.536404
 31
5.88
  0
LINE
  5
45C4D
100
AcDbEntity
  8
0
100
AcDbLine
 10
-0.316828
 20
0.571565
 30
5.88
 11
-0.331905
 21
0.591657
 31
5.88
  0
LINE
  5
45C4E
100
AcDbEntity
  8
0
100
AcDbLine
 10
-0.296726
 20
0.556496
 30
5.88
 11
-0.316828
 21
0.571565
 31
5.88
  0
LINE
  5
45C4F
100
AcDbEntity
  8
0
100
AcDbLine
 10
-0.271599
 20
0.541427
 30
5.88
 11
-0.296726
 21
0.556496
 31
5.88
  0
LINE
  5
45C50
100
AcDbEntity
  8
0
100
AcDbLine
 10
-0.246471
 20
0.536404
 30
5.88
 11
-0.271599
 21
0.541427
 31
5.88
  0
LINE
  5
45C51
100
AcDbEntity
  8
0
100
AcDbLine
 10
-0.191191
 20
0.546449
 30
5.88
 11
-0.216318
 21
0.536404
 31
5.88
  0
LINE
  5
45C52
100
AcDbEntity
  8
0
100
AcDbLine
 10
-0.166063
 20
0.556496
 30
5.88
 11
-0.191191
 21
0.546449
 31
5.88
  0
LINE
  5
45C53
100
AcDbEntity
  8
0
100
AcDbLine
 10
-0.14596
 20
0.576589
 30
5.88
 11
-0.166063
 21
0.556496
 31
5.88
  0
LINE
  5
45C54
100
AcDbEntity
  8
0
100
AcDbLine
 10
-0.130883
 20
0.596679
 30
5.88
 11
-0.14596
 21
0.576589
 31
5.88
  0
LINE
  5
45C55
100
AcDbEntity
  8
0
100
AcDbLine
 10
-0.075603
 20
0.406898
 30
5.88
 11
-0.075603
 21
-0.015037
 31
5.88
  0
LINE
  5
45C56
100
AcDbEntity
  8
0
100
AcDbLine
 10
0.024909
 20
-0.015037
 30
5.88
 11
0.024909
 21
0.406898
 31
5.88
  0
LINE
  5
45C57
100
AcDbEntity
  8
0
100
AcDbLine
 10
0.266135
 20
0.194839
 30
5.88
 11
0.195778
 21
0.124516
 31
5.88
  0
LINE
  5
45C58
100
AcDbEntity
  8
0
100
AcDbLine
 10
0.195778
 20
0.124516
 30
5.88
 11
0.024909
 21
0.124516
 31
5.88
  0
LINE
  5
45C59
100
AcDbEntity
  8
0
100
AcDbLine
 10
-0.075603
 20
-0.015037
 30
5.88
 11
0.024909
 21
-0.015037
 31
5.88
  0
LINE
  5
45C5A
100
AcDbEntity
  8
0
100
AcDbLine
 10
0.060088
 20
0.782531
 30
5.88
 11
-0.532929
 21
0.782531
 31
5.88
  0
LINE
  5
45C5B
100
AcDbEntity
  8
0
100
AcDbLine
 10
-0.532929
 20
0.882992
 30
5.88
 11
0.060088
 21
0.882992
 31
5.88
  0
LINE
  5
45C5C
100
AcDbEntity
  8
0
100
AcDbLine
 10
0.060088
 20
1.12912
 30
5.88
 11
-0.532929
 21
1.12912
 31
5.88
  0
LINE
  5
45C5D
100
AcDbEntity
  8
0
100
AcDbLine
 10
-0.532929
 20
1.229581
 30
5.88
 11
0.060088
 21
1.229581
 31
5.88
  0
LINE
  5
45C5E
100
AcDbEntity
  8
0
100
AcDbLine
 10
-0.402264
 20
1.12912
 30
5.88
 11
-0.402264
 21
0.882992
 31
5.88
  0
LINE
  5
45C5F
100
AcDbEntity
  8
0
100
AcDbLine
 10
-0.311803
 20
1.088935
 30
5.88
 11
-0.150985
 21
0.918153
 31
5.88
  0
LINE
  5
45C60
100
AcDbEntity
  8
0
100
AcDbLine
 10
-0.120832
 20
1.023636
 30
5.88
 11
-0.115805
 21
0.998522
 31
5.88
  0
LINE
  5
45C61
100
AcDbEntity
  8
0
100
AcDbLine
 10
-0.352009
 20
0.993498
 30
5.88
 11
-0.352009
 21
1.018614
 31
5.88
  0
LINE
  5
45C62
100
AcDbEntity
  8
0
100
AcDbLine
 10
-0.532929
 20
0.782531
 30
5.88
 11
-0.532929
 21
0.882992
 31
5.88
  0
LINE
  5
45C63
100
AcDbEntity
  8
0
100
AcDbLine
 10
-0.23642
 20
0.772486
 30
5.88
 11
-0.211293
 21
0.767463
 31
5.88
  0
LINE
  5
45C64
100
AcDbEntity
  8
0
100
AcDbLine
 10
-0.346983
 20
0.616772
 30
5.88
 11
-0.352009
 21
0.641888
 31
5.88
  0
LINE
  5
45C65
100
AcDbEntity
  8
0
100
AcDbLine
 10
-0.261548
 20
0.767463
 30
5.88
 11
-0.23642
 21
0.772486
 31
5.88
  0
LINE
  5
45C66
100
AcDbEntity
  8
0
100
AcDbLine
 10
-0.286675
 20
0.757417
 30
5.88
 11
-0.261548
 21
0.767463
 31
5.88
  0
LINE
  5
45C67
100
AcDbEntity
  8
0
100
AcDbLine
 10
-0.311803
 20
0.742346
 30
5.88
 11
-0.286675
 21
0.757417
 31
5.88
  0
LINE
  5
45C68
100
AcDbEntity
  8
0
100
AcDbLine
 10
-0.331905
 20
0.722256
 30
5.88
 11
-0.311803
 21
0.742346
 31
5.88
  0
LINE
  5
45C69
100
AcDbEntity
  8
0
100
AcDbLine
 10
-0.341956
 20
0.69714
 30
5.88
 11
-0.331905
 21
0.722256
 31
5.88
  0
LINE
  5
45C6A
100
AcDbEntity
  8
0
100
AcDbLine
 10
-0.352009
 20
0.672026
 30
5.88
 11
-0.341956
 21
0.69714
 31
5.88
  0
LINE
  5
45C6B
100
AcDbEntity
  8
0
100
AcDbLine
 10
-0.352009
 20
0.641888
 30
5.88
 11
-0.352009
 21
0.672026
 31
5.88
  0
LINE
  5
45C6C
100
AcDbEntity
  8
0
100
AcDbLine
 10
-0.115805
 20
0.646909
 30
5.88
 11
-0.120832
 21
0.621795
 31
5.88
  0
LINE
  5
45C6D
100
AcDbEntity
  8
0
100
AcDbLine
 10
-0.120832
 20
0.677047
 30
5.88
 11
-0.115805
 21
0.646909
 31
5.88
  0
LINE
  5
45C6E
100
AcDbEntity
  8
0
100
AcDbLine
 10
-0.125858
 20
0.702163
 30
5.88
 11
-0.120832
 21
0.677047
 31
5.88
  0
LINE
  5
45C6F
100
AcDbEntity
  8
0
100
AcDbLine
 10
-0.140936
 20
0.727278
 30
5.88
 11
-0.125858
 21
0.702163
 31
5.88
  0
LINE
  5
45C70
100
AcDbEntity
  8
0
100
AcDbLine
 10
-0.161036
 20
0.742346
 30
5.88
 11
-0.140936
 21
0.727278
 31
5.88
  0
LINE
  5
45C71
100
AcDbEntity
  8
0
100
AcDbLine
 10
-0.186165
 20
0.757417
 30
5.88
 11
-0.161036
 21
0.742346
 31
5.88
  0
LINE
  5
45C72
100
AcDbEntity
  8
0
100
AcDbLine
 10
-0.211293
 20
0.767463
 30
5.88
 11
-0.186165
 21
0.757417
 31
5.88
  0
LINE
  5
45C73
100
AcDbEntity
  8
0
100
AcDbLine
 10
-0.216318
 20
0.882992
 30
5.88
 11
-0.246471
 21
0.882992
 31
5.88
  0
LINE
  5
45C74
100
AcDbEntity
  8
0
100
AcDbLine
 10
-0.346983
 20
0.96336
 30
5.88
 11
-0.352009
 21
0.993498
 31
5.88
  0
LINE
  5
45C75
100
AcDbEntity
  8
0
100
AcDbLine
 10
-0.331905
 20
0.938246
 30
5.88
 11
-0.346983
 21
0.96336
 31
5.88
  0
LINE
  5
45C76
100
AcDbEntity
  8
0
100
AcDbLine
 10
-0.316828
 20
0.918153
 30
5.88
 11
-0.331905
 21
0.938246
 31
5.88
  0
LINE
  5
45C77
100
AcDbEntity
  8
0
100
AcDbLine
 10
-0.296726
 20
0.903085
 30
5.88
 11
-0.316828
 21
0.918153
 31
5.88
  0
LINE
  5
45C78
100
AcDbEntity
  8
0
100
AcDbLine
 10
-0.271599
 20
0.893037
 30
5.88
 11
-0.296726
 21
0.903085
 31
5.88
  0
LINE
  5
45C79
100
AcDbEntity
  8
0
100
AcDbLine
 10
-0.246471
 20
0.882992
 30
5.88
 11
-0.271599
 21
0.893037
 31
5.88
  0
LINE
  5
45C7A
100
AcDbEntity
  8
0
100
AcDbLine
 10
-0.191191
 20
0.893037
 30
5.88
 11
-0.216318
 21
0.882992
 31
5.88
  0
LINE
  5
45C7B
100
AcDbEntity
  8
0
100
AcDbLine
 10
-0.166063
 20
0.903085
 30
5.88
 11
-0.191191
 21
0.893037
 31
5.88
  0
LINE
  5
45C7C
100
AcDbEntity
  8
0
100
AcDbLine
 10
-0.14596
 20
0.923177
 30
5.88
 11
-0.166063
 21
0.903085
 31
5.88
  0
LINE
  5
45C7D
100
AcDbEntity
  8
0
100
AcDbLine
 10
-0.130883
 20
0.943268
 30
5.88
 11
-0.14596
 21
0.923177
 31
5.88
  0
LINE
  5
45C7E
100
AcDbEntity
  8
0
100
AcDbLine
 10
-0.120832
 20
0.968384
 30
5.88
 11
-0.130883
 21
0.943268
 31
5.88
  0
LINE
  5
45C7F
100
AcDbEntity
  8
0
100
AcDbLine
 10
-0.115805
 20
0.998522
 30
5.88
 11
-0.120832
 21
0.968384
 31
5.88
  0
LINE
  5
45C80
100
AcDbEntity
  8
0
100
AcDbLine
 10
-0.532929
 20
1.12912
 30
5.88
 11
-0.532929
 21
1.229581
 31
5.88
  0
LINE
  5
45C81
100
AcDbEntity
  8
0
100
AcDbLine
 10
-0.23642
 20
1.119075
 30
5.88
 11
-0.211293
 21
1.114051
 31
5.88
  0
LINE
  5
45C82
100
AcDbEntity
  8
0
100
AcDbLine
 10
-0.261548
 20
1.114051
 30
5.88
 11
-0.23642
 21
1.119075
 31
5.88
  0
LINE
  5
45C83
100
AcDbEntity
  8
0
100
AcDbLine
 10
-0.286675
 20
1.104004
 30
5.88
 11
-0.261548
 21
1.114051
 31
5.88
  0
LINE
  5
45C84
100
AcDbEntity
  8
0
100
AcDbLine
 10
-0.311803
 20
1.088935
 30
5.88
 11
-0.286675
 21
1.104004
 31
5.88
  0
LINE
  5
45C85
100
AcDbEntity
  8
0
100
AcDbLine
 10
-0.331905
 20
1.068844
 30
5.88
 11
-0.311803
 21
1.088935
 31
5.88
  0
LINE
  5
45C86
100
AcDbEntity
  8
0
100
AcDbLine
 10
-0.341956
 20
1.043728
 30
5.88
 11
-0.331905
 21
1.068844
 31
5.88
  0
LINE
  5
45C87
100
AcDbEntity
  8
0
100
AcDbLine
 10
-0.352009
 20
1.018614
 30
5.88
 11
-0.341956
 21
1.043728
 31
5.88
  0
LINE
  5
45C88
100
AcDbEntity
  8
0
100
AcDbLine
 10
-0.125858
 20
1.048752
 30
5.88
 11
-0.120832
 21
1.023636
 31
5.88
  0
LINE
  5
45C89
100
AcDbEntity
  8
0
100
AcDbLine
 10
-0.140936
 20
1.073866
 30
5.88
 11
-0.125858
 21
1.048752
 31
5.88
  0
LINE
  5
45C8A
100
AcDbEntity
  8
0
100
AcDbLine
 10
-0.161036
 20
1.093959
 30
5.88
 11
-0.140936
 21
1.073866
 31
5.88
  0
LINE
  5
45C8B
100
AcDbEntity
  8
0
100
AcDbLine
 10
-0.186165
 20
1.104004
 30
5.88
 11
-0.161036
 21
1.093959
 31
5.88
  0
LINE
  5
45C8C
100
AcDbEntity
  8
0
100
AcDbLine
 10
-0.211293
 20
1.114051
 30
5.88
 11
-0.186165
 21
1.104004
 31
5.88
  0
LINE
  5
45C8D
100
AcDbEntity
  8
0
100
AcDbLine
 10
-0.216318
 20
1.234604
 30
5.88
 11
-0.246471
 21
1.234604
 31
5.88
  0
LINE
  5
45C8E
100
AcDbEntity
  8
0
100
AcDbLine
 10
-0.346983
 20
1.314972
 30
5.88
 11
-0.352009
 21
1.340086
 31
5.88
  0
LINE
  5
45C8F
100
AcDbEntity
  8
0
100
AcDbLine
 10
-0.331905
 20
1.289856
 30
5.88
 11
-0.346983
 21
1.314972
 31
5.88
  0
LINE
  5
45C90
100
AcDbEntity
  8
0
100
AcDbLine
 10
-0.316828
 20
1.264742
 30
5.88
 11
-0.331905
 21
1.289856
 31
5.88
  0
LINE
  5
45C91
100
AcDbEntity
  8
0
100
AcDbLine
 10
-0.296726
 20
1.249673
 30
5.88
 11
-0.316828
 21
1.264742
 31
5.88
  0
LINE
  5
45C92
100
AcDbEntity
  8
0
100
AcDbLine
 10
-0.271599
 20
1.239626
 30
5.88
 11
-0.296726
 21
1.249673
 31
5.88
  0
LINE
  5
45C93
100
AcDbEntity
  8
0
100
AcDbLine
 10
-0.246471
 20
1.234604
 30
5.88
 11
-0.271599
 21
1.239626
 31
5.88
  0
LINE
  5
45C94
100
AcDbEntity
  8
0
100
AcDbLine
 10
-0.341956
 20
1.390317
 30
5.88
 11
-0.331905
 21
1.415433
 31
5.88
  0
LINE
  5
45C95
100
AcDbEntity
  8
0
100
AcDbLine
 10
-0.352009
 20
1.365203
 30
5.88
 11
-0.341956
 21
1.390317
 31
5.88
  0
LINE
  5
45C96
100
AcDbEntity
  8
0
100
AcDbLine
 10
-0.352009
 20
1.340086
 30
5.88
 11
-0.352009
 21
1.365203
 31
5.88
  0
LINE
  5
45C97
100
AcDbEntity
  8
0
100
AcDbLine
 10
-0.191191
 20
1.239626
 30
5.88
 11
-0.216318
 21
1.234604
 31
5.88
  0
LINE
  5
45C98
100
AcDbEntity
  8
0
100
AcDbLine
 10
-0.166063
 20
1.254695
 30
5.88
 11
-0.191191
 21
1.239626
 31
5.88
  0
LINE
  5
45C99
100
AcDbEntity
  8
0
100
AcDbLine
 10
-0.14596
 20
1.269764
 30
5.88
 11
-0.166063
 21
1.254695
 31
5.88
  0
LINE
  5
45C9A
100
AcDbEntity
  8
0
100
AcDbLine
 10
-0.130883
 20
1.29488
 30
5.88
 11
-0.14596
 21
1.269764
 31
5.88
  0
LINE
  5
45C9B
100
AcDbEntity
  8
0
100
AcDbLine
 10
-0.120832
 20
1.319994
 30
5.88
 11
-0.130883
 21
1.29488
 31
5.88
  0
LINE
  5
45C9C
100
AcDbEntity
  8
0
100
AcDbLine
 10
-0.115805
 20
1.34511
 30
5.88
 11
-0.120832
 21
1.319994
 31
5.88
  0
LINE
  5
45C9D
100
AcDbEntity
  8
0
100
AcDbLine
 10
-0.120832
 20
1.370224
 30
5.88
 11
-0.115805
 21
1.34511
 31
5.88
  0
LINE
  5
45C9E
100
AcDbEntity
  8
0
100
AcDbLine
 10
-0.125858
 20
1.39534
 30
5.88
 11
-0.120832
 21
1.370224
 31
5.88
  0
LINE
  5
45C9F
100
AcDbEntity
  8
0
100
AcDbLine
 10
-0.140936
 20
1.420455
 30
5.88
 11
-0.125858
 21
1.39534
 31
5.88
  0
LINE
  5
45CA0
100
AcDbEntity
  8
0
100
AcDbLine
 10
-0.06555
 20
0.882992
 30
5.88
 11
-0.06555
 21
0.782531
 31
5.88
  0
LINE
  5
45CA1
100
AcDbEntity
  8
0
100
AcDbLine
 10
0.060088
 20
0.882992
 30
5.88
 11
0.060088
 21
0.782531
 31
5.88
  0
LINE
  5
45CA2
100
AcDbEntity
  8
0
100
AcDbLine
 10
-0.06555
 20
1.229581
 30
5.88
 11
-0.06555
 21
1.12912
 31
5.88
  0
LINE
  5
45CA3
100
AcDbEntity
  8
0
100
AcDbLine
 10
0.060088
 20
1.229581
 30
5.88
 11
0.060088
 21
1.12912
 31
5.88
  0
LINE
  5
45CA4
100
AcDbEntity
  8
0
100
AcDbLine
 10
-0.769129
 20
4.495635
 30
5.88
 11
0.170651
 21
4.495635
 31
5.88
  0
LINE
  5
45CA5
100
AcDbEntity
  8
0
100
AcDbLine
 10
-0.7239
 20
3.911873
 30
5.88
 11
0.195778
 21
3.911873
 31
5.88
  0
LINE
  5
45CA6
100
AcDbEntity
  8
0
100
AcDbLine
 10
-0.643492
 20
4.12284
 30
5.88
 11
-0.492723
 21
4.12284
 31
5.88
  0
LINE
  5
45CA7
100
AcDbEntity
  8
0
100
AcDbLine
 10
-0.643492
 20
4.259552
 30
5.88
 11
-0.492723
 21
4.259552
 31
5.88
  0
LINE
  5
45CA8
100
AcDbEntity
  8
0
100
AcDbLine
 10
-0.658566
 20
4.117816
 30
5.88
 11
-0.643492
 21
4.12284
 31
5.88
  0
LINE
  5
45CA9
100
AcDbEntity
  8
0
100
AcDbLine
 10
-0.67867
 20
4.112793
 30
5.88
 11
-0.658566
 21
4.117816
 31
5.88
  0
LINE
  5
45CAA
100
AcDbEntity
  8
0
100
AcDbLine
 10
-0.698772
 20
4.097724
 30
5.88
 11
-0.67867
 21
4.112793
 31
5.88
  0
LINE
  5
45CAB
100
AcDbEntity
  8
0
100
AcDbLine
 10
-0.713849
 20
4.082655
 30
5.88
 11
-0.698772
 21
4.097724
 31
5.88
  0
LINE
  5
45CAC
100
AcDbEntity
  8
0
100
AcDbLine
 10
-0.7239
 20
4.062562
 30
5.88
 11
-0.713849
 21
4.082655
 31
5.88
  0
LINE
  5
45CAD
100
AcDbEntity
  8
0
100
AcDbLine
 10
-0.7239
 20
4.037448
 30
5.88
 11
-0.7239
 21
4.062562
 31
5.88
  0
LINE
  5
45CAE
100
AcDbEntity
  8
0
100
AcDbLine
 10
-0.658566
 20
4.254531
 30
5.88
 11
-0.643492
 21
4.259552
 31
5.88
  0
LINE
  5
45CAF
100
AcDbEntity
  8
0
100
AcDbLine
 10
-0.67867
 20
4.249507
 30
5.88
 11
-0.658566
 21
4.254531
 31
5.88
  0
LINE
  5
45CB0
100
AcDbEntity
  8
0
100
AcDbLine
 10
-0.698772
 20
4.234438
 30
5.88
 11
-0.67867
 21
4.249507
 31
5.88
  0
LINE
  5
45CB1
100
AcDbEntity
  8
0
100
AcDbLine
 10
-0.713849
 20
4.219369
 30
5.88
 11
-0.698772
 21
4.234438
 31
5.88
  0
LINE
  5
45CB2
100
AcDbEntity
  8
0
100
AcDbLine
 10
-0.7239
 20
4.199277
 30
5.88
 11
-0.713849
 21
4.219369
 31
5.88
  0
LINE
  5
45CB3
100
AcDbEntity
  8
0
100
AcDbLine
 10
-0.7239
 20
4.174161
 30
5.88
 11
-0.7239
 21
4.199277
 31
5.88
  0
LINE
  5
45CB4
100
AcDbEntity
  8
0
100
AcDbLine
 10
-0.869643
 20
4.560934
 30
5.88
 11
-0.874667
 21
4.586048
 31
5.88
  0
LINE
  5
45CB5
100
AcDbEntity
  8
0
100
AcDbLine
 10
-0.874667
 20
4.586048
 30
5.88
 11
-0.879692
 21
4.606141
 31
5.88
  0
LINE
  5
45CB6
100
AcDbEntity
  8
0
100
AcDbLine
 10
-0.834463
 20
4.520749
 30
5.88
 11
-0.854565
 21
4.535818
 31
5.88
  0
LINE
  5
45CB7
100
AcDbEntity
  8
0
100
AcDbLine
 10
-0.814361
 20
4.50568
 30
5.88
 11
-0.834463
 21
4.520749
 31
5.88
  0
LINE
  5
45CB8
100
AcDbEntity
  8
0
100
AcDbLine
 10
-0.789233
 20
4.500659
 30
5.88
 11
-0.814361
 21
4.50568
 31
5.88
  0
LINE
  5
45CB9
100
AcDbEntity
  8
0
100
AcDbLine
 10
-0.75908
 20
4.495635
 30
5.88
 11
-0.789233
 21
4.500659
 31
5.88
  0
LINE
  5
45CBA
100
AcDbEntity
  8
0
100
AcDbLine
 10
-0.854565
 20
4.535818
 30
5.88
 11
-0.869643
 21
4.560934
 31
5.88
  0
LINE
  5
45CBB
100
AcDbEntity
  8
0
100
AcDbLine
 10
-0.402264
 20
3.213673
 30
5.88
 11
-0.402264
 21
2.967545
 31
5.88
  0
LINE
  5
45CBC
100
AcDbEntity
  8
0
100
AcDbLine
 10
-0.311803
 20
3.178511
 30
5.88
 11
-0.150985
 21
3.00773
 31
5.88
  0
LINE
  5
45CBD
100
AcDbEntity
  8
0
100
AcDbLine
 10
-0.120832
 20
3.10819
 30
5.88
 11
-0.115805
 21
3.083074
 31
5.88
  0
LINE
  5
45CBE
100
AcDbEntity
  8
0
100
AcDbLine
 10
-0.352009
 20
3.078051
 30
5.88
 11
-0.352009
 21
3.103167
 31
5.88
  0
LINE
  5
45CBF
100
AcDbEntity
  8
0
100
AcDbLine
 10
-0.06555
 20
2.274368
 30
5.88
 11
-0.06555
 21
2.168885
 31
5.88
  0
LINE
  5
45CC0
100
AcDbEntity
  8
0
100
AcDbLine
 10
-0.532929
 20
2.168885
 30
5.88
 11
-0.532929
 21
2.274368
 31
5.88
  0
LINE
  5
45CC1
100
AcDbEntity
  8
0
100
AcDbLine
 10
0.060088
 20
2.274368
 30
5.88
 11
0.060088
 21
2.168885
 31
5.88
  0
LINE
  5
45CC2
100
AcDbEntity
  8
0
100
AcDbLine
 10
0.060088
 20
1.475708
 30
5.88
 11
-0.532929
 21
1.475708
 31
5.88
  0
LINE
  5
45CC3
100
AcDbEntity
  8
0
100
AcDbLine
 10
-0.532929
 20
1.576169
 30
5.88
 11
0.060088
 21
1.576169
 31
5.88
  0
LINE
  5
45CC4
100
AcDbEntity
  8
0
100
AcDbLine
 10
0.060088
 20
1.822297
 30
5.88
 11
-0.532929
 21
1.822297
 31
5.88
  0
LINE
  5
45CC5
100
AcDbEntity
  8
0
100
AcDbLine
 10
-0.532929
 20
1.927779
 30
5.88
 11
0.060088
 21
1.927779
 31
5.88
  0
LINE
  5
45CC6
100
AcDbEntity
  8
0
100
AcDbLine
 10
0.060088
 20
2.168885
 30
5.88
 11
-0.532929
 21
2.168885
 31
5.88
  0
LINE
  5
45CC7
100
AcDbEntity
  8
0
100
AcDbLine
 10
-0.532929
 20
1.822297
 30
5.88
 11
-0.532929
 21
1.927779
 31
5.88
  0
LINE
  5
45CC8
100
AcDbEntity
  8
0
100
AcDbLine
 10
-0.402264
 20
1.822297
 30
5.88
 11
-0.402264
 21
1.576169
 31
5.88
  0
LINE
  5
45CC9
100
AcDbEntity
  8
0
100
AcDbLine
 10
-0.532929
 20
1.475708
 30
5.88
 11
-0.532929
 21
1.576169
 31
5.88
  0
LINE
  5
45CCA
100
AcDbEntity
  8
0
100
AcDbLine
 10
-0.311803
 20
1.787136
 30
5.88
 11
-0.150985
 21
1.616352
 31
5.88
  0
LINE
  5
45CCB
100
AcDbEntity
  8
0
100
AcDbLine
 10
-0.316828
 20
1.616352
 30
5.88
 11
-0.331905
 21
1.636445
 31
5.88
  0
LINE
  5
45CCC
100
AcDbEntity
  8
0
100
AcDbLine
 10
-0.130883
 20
1.641468
 30
5.88
 11
-0.14596
 21
1.616352
 31
5.88
  0
LINE
  5
45CCD
100
AcDbEntity
  8
0
100
AcDbLine
 10
-0.23642
 20
1.465661
 30
5.88
 11
-0.211293
 21
1.46064
 31
5.88
  0
LINE
  5
45CCE
100
AcDbEntity
  8
0
100
AcDbLine
 10
-0.216318
 20
1.581191
 30
5.88
 11
-0.246471
 21
1.581191
 31
5.88
  0
LINE
  5
45CCF
100
AcDbEntity
  8
0
100
AcDbLine
 10
-0.261548
 20
1.46064
 30
5.88
 11
-0.23642
 21
1.465661
 31
5.88
  0
LINE
  5
45CD0
100
AcDbEntity
  8
0
100
AcDbLine
 10
-0.286675
 20
1.450592
 30
5.88
 11
-0.261548
 21
1.46064
 31
5.88
  0
LINE
  5
45CD1
100
AcDbEntity
  8
0
100
AcDbLine
 10
-0.311803
 20
1.435523
 30
5.88
 11
-0.286675
 21
1.450592
 31
5.88
  0
LINE
  5
45CD2
100
AcDbEntity
  8
0
100
AcDbLine
 10
-0.296726
 20
1.596262
 30
5.88
 11
-0.316828
 21
1.616352
 31
5.88
  0
LINE
  5
45CD3
100
AcDbEntity
  8
0
100
AcDbLine
 10
-0.271599
 20
1.586214
 30
5.88
 11
-0.296726
 21
1.596262
 31
5.88
  0
LINE
  5
45CD4
100
AcDbEntity
  8
0
100
AcDbLine
 10
-0.246471
 20
1.581191
 30
5.88
 11
-0.271599
 21
1.586214
 31
5.88
  0
LINE
  5
45CD5
100
AcDbEntity
  8
0
100
AcDbLine
 10
-0.186165
 20
1.455616
 30
5.88
 11
-0.161036
 21
1.440547
 31
5.88
  0
LINE
  5
45CD6
100
AcDbEntity
  8
0
100
AcDbLine
 10
-0.211293
 20
1.46064
 30
5.88
 11
-0.186165
 21
1.455616
 31
5.88
  0
LINE
  5
45CD7
100
AcDbEntity
  8
0
100
AcDbLine
 10
-0.191191
 20
1.586214
 30
5.88
 11
-0.216318
 21
1.581191
 31
5.88
  0
LINE
  5
45CD8
100
AcDbEntity
  8
0
100
AcDbLine
 10
-0.166063
 20
1.601283
 30
5.88
 11
-0.191191
 21
1.586214
 31
5.88
  0
LINE
  5
45CD9
100
AcDbEntity
  8
0
100
AcDbLine
 10
-0.14596
 20
1.616352
 30
5.88
 11
-0.166063
 21
1.601283
 31
5.88
  0
LINE
  5
45CDA
100
AcDbEntity
  8
0
100
AcDbLine
 10
-0.23642
 20
1.81225
 30
5.88
 11
-0.211293
 21
1.81225
 31
5.88
  0
LINE
  5
45CDB
100
AcDbEntity
  8
0
100
AcDbLine
 10
-0.346983
 20
1.661561
 30
5.88
 11
-0.352009
 21
1.686675
 31
5.88
  0
LINE
  5
45CDC
100
AcDbEntity
  8
0
100
AcDbLine
 10
-0.331905
 20
1.636445
 30
5.88
 11
-0.346983
 21
1.661561
 31
5.88
  0
LINE
  5
45CDD
100
AcDbEntity
  8
0
100
AcDbLine
 10
-0.261548
 20
1.807228
 30
5.88
 11
-0.23642
 21
1.81225
 31
5.88
  0
LINE
  5
45CDE
100
AcDbEntity
  8
0
100
AcDbLine
 10
-0.286675
 20
1.797181
 30
5.88
 11
-0.261548
 21
1.807228
 31
5.88
  0
LINE
  5
45CDF
100
AcDbEntity
  8
0
100
AcDbLine
 10
-0.311803
 20
1.782112
 30
5.88
 11
-0.286675
 21
1.797181
 31
5.88
  0
LINE
  5
45CE0
100
AcDbEntity
  8
0
100
AcDbLine
 10
-0.331905
 20
1.762019
 30
5.88
 11
-0.311803
 21
1.782112
 31
5.88
  0
LINE
  5
45CE1
100
AcDbEntity
  8
0
100
AcDbLine
 10
-0.341956
 20
1.741929
 30
5.88
 11
-0.331905
 21
1.762019
 31
5.88
  0
LINE
  5
45CE2
100
AcDbEntity
  8
0
100
AcDbLine
 10
-0.352009
 20
1.711789
 30
5.88
 11
-0.341956
 21
1.741929
 31
5.88
  0
LINE
  5
45CE3
100
AcDbEntity
  8
0
100
AcDbLine
 10
-0.352009
 20
1.686675
 30
5.88
 11
-0.352009
 21
1.711789
 31
5.88
  0
LINE
  5
45CE4
100
AcDbEntity
  8
0
100
AcDbLine
 10
-0.120832
 20
1.666582
 30
5.88
 11
-0.130883
 21
1.641468
 31
5.88
  0
LINE
  5
45CE5
100
AcDbEntity
  8
0
100
AcDbLine
 10
-0.115805
 20
1.691699
 30
5.88
 11
-0.120832
 21
1.666582
 31
5.88
  0
LINE
  5
45CE6
100
AcDbEntity
  8
0
100
AcDbLine
 10
-0.120832
 20
1.716813
 30
5.88
 11
-0.115805
 21
1.691699
 31
5.88
  0
LINE
  5
45CE7
100
AcDbEntity
  8
0
100
AcDbLine
 10
-0.125858
 20
1.746951
 30
5.88
 11
-0.120832
 21
1.716813
 31
5.88
  0
LINE
  5
45CE8
100
AcDbEntity
  8
0
100
AcDbLine
 10
-0.140936
 20
1.767043
 30
5.88
 11
-0.125858
 21
1.746951
 31
5.88
  0
LINE
  5
45CE9
100
AcDbEntity
  8
0
100
AcDbLine
 10
-0.161036
 20
1.787136
 30
5.88
 11
-0.140936
 21
1.767043
 31
5.88
  0
LINE
  5
45CEA
100
AcDbEntity
  8
0
100
AcDbLine
 10
-0.186165
 20
1.802204
 30
5.88
 11
-0.161036
 21
1.787136
 31
5.88
  0
LINE
  5
45CEB
100
AcDbEntity
  8
0
100
AcDbLine
 10
-0.211293
 20
1.81225
 30
5.88
 11
-0.186165
 21
1.802204
 31
5.88
  0
LINE
  5
45CEC
100
AcDbEntity
  8
0
100
AcDbLine
 10
-0.402264
 20
2.168885
 30
5.88
 11
-0.402264
 21
1.927779
 31
5.88
  0
LINE
  5
45CED
100
AcDbEntity
  8
0
100
AcDbLine
 10
-0.311803
 20
2.133724
 30
5.88
 11
-0.150985
 21
1.962941
 31
5.88
  0
LINE
  5
45CEE
100
AcDbEntity
  8
0
100
AcDbLine
 10
-0.120832
 20
2.068425
 30
5.88
 11
-0.115805
 21
2.038287
 31
5.88
  0
LINE
  5
45CEF
100
AcDbEntity
  8
0
100
AcDbLine
 10
-0.352009
 20
2.033263
 30
5.88
 11
-0.352009
 21
2.063401
 31
5.88
  0
LINE
  5
45CF0
100
AcDbEntity
  8
0
100
AcDbLine
 10
-0.216318
 20
1.927779
 30
5.88
 11
-0.246471
 21
1.927779
 31
5.88
  0
LINE
  5
45CF1
100
AcDbEntity
  8
0
100
AcDbLine
 10
-0.346983
 20
2.008147
 30
5.88
 11
-0.352009
 21
2.033263
 31
5.88
  0
LINE
  5
45CF2
100
AcDbEntity
  8
0
100
AcDbLine
 10
-0.331905
 20
1.983033
 30
5.88
 11
-0.346983
 21
2.008147
 31
5.88
  0
LINE
  5
45CF3
100
AcDbEntity
  8
0
100
AcDbLine
 10
-0.316828
 20
1.962941
 30
5.88
 11
-0.331905
 21
1.983033
 31
5.88
  0
LINE
  5
45CF4
100
AcDbEntity
  8
0
100
AcDbLine
 10
-0.296726
 20
1.942848
 30
5.88
 11
-0.316828
 21
1.962941
 31
5.88
  0
LINE
  5
45CF5
100
AcDbEntity
  8
0
100
AcDbLine
 10
-0.271599
 20
1.932803
 30
5.88
 11
-0.296726
 21
1.942848
 31
5.88
  0
LINE
  5
45CF6
100
AcDbEntity
  8
0
100
AcDbLine
 10
-0.246471
 20
1.927779
 30
5.88
 11
-0.271599
 21
1.932803
 31
5.88
  0
LINE
  5
45CF7
100
AcDbEntity
  8
0
100
AcDbLine
 10
-0.191191
 20
1.932803
 30
5.88
 11
-0.216318
 21
1.927779
 31
5.88
  0
LINE
  5
45CF8
100
AcDbEntity
  8
0
100
AcDbLine
 10
-0.166063
 20
1.947872
 30
5.88
 11
-0.191191
 21
1.932803
 31
5.88
  0
LINE
  5
45CF9
100
AcDbEntity
  8
0
100
AcDbLine
 10
-0.14596
 20
1.967964
 30
5.88
 11
-0.166063
 21
1.947872
 31
5.88
  0
LINE
  5
45CFA
100
AcDbEntity
  8
0
100
AcDbLine
 10
-0.130883
 20
1.988057
 30
5.88
 11
-0.14596
 21
1.967964
 31
5.88
  0
LINE
  5
45CFB
100
AcDbEntity
  8
0
100
AcDbLine
 10
-0.120832
 20
2.013171
 30
5.88
 11
-0.130883
 21
1.988057
 31
5.88
  0
LINE
  5
45CFC
100
AcDbEntity
  8
0
100
AcDbLine
 10
-0.115805
 20
2.038287
 30
5.88
 11
-0.120832
 21
2.013171
 31
5.88
  0
LINE
  5
45CFD
100
AcDbEntity
  8
0
100
AcDbLine
 10
-0.23642
 20
2.158838
 30
5.88
 11
-0.211293
 21
2.158838
 31
5.88
  0
LINE
  5
45CFE
100
AcDbEntity
  8
0
100
AcDbLine
 10
-0.261548
 20
2.158838
 30
5.88
 11
-0.23642
 21
2.158838
 31
5.88
  0
LINE
  5
45CFF
100
AcDbEntity
  8
0
100
AcDbLine
 10
-0.286675
 20
2.148793
 30
5.88
 11
-0.261548
 21
2.158838
 31
5.88
  0
LINE
  5
45D00
100
AcDbEntity
  8
0
100
AcDbLine
 10
-0.311803
 20
2.133724
 30
5.88
 11
-0.286675
 21
2.148793
 31
5.88
  0
LINE
  5
45D01
100
AcDbEntity
  8
0
100
AcDbLine
 10
-0.331905
 20
2.113632
 30
5.88
 11
-0.311803
 21
2.133724
 31
5.88
  0
LINE
  5
45D02
100
AcDbEntity
  8
0
100
AcDbLine
 10
-0.341956
 20
2.088517
 30
5.88
 11
-0.331905
 21
2.113632
 31
5.88
  0
LINE
  5
45D03
100
AcDbEntity
  8
0
100
AcDbLine
 10
-0.352009
 20
2.063401
 30
5.88
 11
-0.341956
 21
2.088517
 31
5.88
  0
LINE
  5
45D04
100
AcDbEntity
  8
0
100
AcDbLine
 10
-0.125858
 20
2.093539
 30
5.88
 11
-0.120832
 21
2.068425
 31
5.88
  0
LINE
  5
45D05
100
AcDbEntity
  8
0
100
AcDbLine
 10
-0.140936
 20
2.113632
 30
5.88
 11
-0.125858
 21
2.093539
 31
5.88
  0
LINE
  5
45D06
100
AcDbEntity
  8
0
100
AcDbLine
 10
-0.161036
 20
2.133724
 30
5.88
 11
-0.140936
 21
2.113632
 31
5.88
  0
LINE
  5
45D07
100
AcDbEntity
  8
0
100
AcDbLine
 10
-0.186165
 20
2.148793
 30
5.88
 11
-0.161036
 21
2.133724
 31
5.88
  0
LINE
  5
45D08
100
AcDbEntity
  8
0
100
AcDbLine
 10
-0.211293
 20
2.158838
 30
5.88
 11
-0.186165
 21
2.148793
 31
5.88
  0
LINE
  5
45D09
100
AcDbEntity
  8
0
100
AcDbLine
 10
-0.06555
 20
1.927779
 30
5.88
 11
-0.06555
 21
1.822297
 31
5.88
  0
LINE
  5
45D0A
100
AcDbEntity
  8
0
100
AcDbLine
 10
0.060088
 20
1.927779
 30
5.88
 11
0.060088
 21
1.822297
 31
5.88
  0
LINE
  5
45D0B
100
AcDbEntity
  8
0
100
AcDbLine
 10
-0.06555
 20
1.576169
 30
5.88
 11
-0.06555
 21
1.475708
 31
5.88
  0
LINE
  5
45D0C
100
AcDbEntity
  8
0
100
AcDbLine
 10
0.060088
 20
1.576169
 30
5.88
 11
0.060088
 21
1.475708
 31
5.88
  0
LINE
  5
45D0D
100
AcDbEntity
  8
0
100
AcDbLine
 10
-0.532929
 20
2.274368
 30
5.88
 11
0.060088
 21
2.274368
 31
5.88
  0
LINE
  5
45D0E
100
AcDbEntity
  8
0
100
AcDbLine
 10
0.060088
 20
2.520496
 30
5.88
 11
-0.532929
 21
2.520496
 31
5.88
  0
LINE
  5
45D0F
100
AcDbEntity
  8
0
100
AcDbLine
 10
-0.532929
 20
2.620956
 30
5.88
 11
0.060088
 21
2.620956
 31
5.88
  0
LINE
  5
45D10
100
AcDbEntity
  8
0
100
AcDbLine
 10
0.060088
 20
2.867084
 30
5.88
 11
-0.532929
 21
2.867084
 31
5.88
  0
LINE
  5
45D11
100
AcDbEntity
  8
0
100
AcDbLine
 10
-0.532929
 20
2.967545
 30
5.88
 11
0.060088
 21
2.967545
 31
5.88
  0
LINE
  5
45D12
100
AcDbEntity
  8
0
100
AcDbLine
 10
-0.402264
 20
2.867084
 30
5.88
 11
-0.402264
 21
2.620956
 31
5.88
  0
LINE
  5
45D13
100
AcDbEntity
  8
0
100
AcDbLine
 10
-0.311803
 20
2.826901
 30
5.88
 11
-0.150985
 21
2.656118
 31
5.88
  0
LINE
  5
45D14
100
AcDbEntity
  8
0
100
AcDbLine
 10
-0.316828
 20
2.656118
 30
5.88
 11
-0.331905
 21
2.681232
 31
5.88
  0
LINE
  5
45D15
100
AcDbEntity
  8
0
100
AcDbLine
 10
-0.130883
 20
2.681232
 30
5.88
 11
-0.14596
 21
2.661141
 31
5.88
  0
LINE
  5
45D16
100
AcDbEntity
  8
0
100
AcDbLine
 10
-0.402264
 20
2.520496
 30
5.88
 11
-0.402264
 21
2.274368
 31
5.88
  0
LINE
  5
45D17
100
AcDbEntity
  8
0
100
AcDbLine
 10
-0.532929
 20
2.520496
 30
5.88
 11
-0.532929
 21
2.620956
 31
5.88
  0
LINE
  5
45D18
100
AcDbEntity
  8
0
100
AcDbLine
 10
-0.311803
 20
2.480313
 30
5.88
 11
-0.150985
 21
2.309529
 31
5.88
  0
LINE
  5
45D19
100
AcDbEntity
  8
0
100
AcDbLine
 10
-0.140936
 20
2.465244
 30
5.88
 11
-0.125858
 21
2.440128
 31
5.88
  0
LINE
  5
45D1A
100
AcDbEntity
  8
0
100
AcDbLine
 10
-0.331905
 20
2.46022
 30
5.88
 11
-0.311803
 21
2.480313
 31
5.88
  0
LINE
  5
45D1B
100
AcDbEntity
  8
0
100
AcDbLine
 10
-0.216318
 20
2.274368
 30
5.88
 11
-0.246471
 21
2.274368
 31
5.88
  0
LINE
  5
45D1C
100
AcDbEntity
  8
0
100
AcDbLine
 10
-0.346983
 20
2.354736
 30
5.88
 11
-0.352009
 21
2.384876
 31
5.88
  0
LINE
  5
45D1D
100
AcDbEntity
  8
0
100
AcDbLine
 10
-0.331905
 20
2.329622
 30
5.88
 11
-0.346983
 21
2.354736
 31
5.88
  0
LINE
  5
45D1E
100
AcDbEntity
  8
0
100
AcDbLine
 10
-0.316828
 20
2.309529
 30
5.88
 11
-0.331905
 21
2.329622
 31
5.88
  0
LINE
  5
45D1F
100
AcDbEntity
  8
0
100
AcDbLine
 10
-0.296726
 20
2.29446
 30
5.88
 11
-0.316828
 21
2.309529
 31
5.88
  0
LINE
  5
45D20
100
AcDbEntity
  8
0
100
AcDbLine
 10
-0.271599
 20
2.279391
 30
5.88
 11
-0.296726
 21
2.29446
 31
5.88
  0
LINE
  5
45D21
100
AcDbEntity
  8
0
100
AcDbLine
 10
-0.246471
 20
2.274368
 30
5.88
 11
-0.271599
 21
2.279391
 31
5.88
  0
LINE
  5
45D22
100
AcDbEntity
  8
0
100
AcDbLine
 10
-0.341956
 20
2.435104
 30
5.88
 11
-0.331905
 21
2.46022
 31
5.88
  0
LINE
  5
45D23
100
AcDbEntity
  8
0
100
AcDbLine
 10
-0.352009
 20
2.40999
 30
5.88
 11
-0.341956
 21
2.435104
 31
5.88
  0
LINE
  5
45D24
100
AcDbEntity
  8
0
100
AcDbLine
 10
-0.352009
 20
2.384876
 30
5.88
 11
-0.352009
 21
2.40999
 31
5.88
  0
LINE
  5
45D25
100
AcDbEntity
  8
0
100
AcDbLine
 10
-0.191191
 20
2.284415
 30
5.88
 11
-0.216318
 21
2.274368
 31
5.88
  0
LINE
  5
45D26
100
AcDbEntity
  8
0
100
AcDbLine
 10
-0.166063
 20
2.29446
 30
5.88
 11
-0.191191
 21
2.284415
 31
5.88
  0
LINE
  5
45D27
100
AcDbEntity
  8
0
100
AcDbLine
 10
-0.14596
 20
2.314553
 30
5.88
 11
-0.166063
 21
2.29446
 31
5.88
  0
LINE
  5
45D28
100
AcDbEntity
  8
0
100
AcDbLine
 10
-0.130883
 20
2.334645
 30
5.88
 11
-0.14596
 21
2.314553
 31
5.88
  0
LINE
  5
45D29
100
AcDbEntity
  8
0
100
AcDbLine
 10
-0.120832
 20
2.359759
 30
5.88
 11
-0.130883
 21
2.334645
 31
5.88
  0
LINE
  5
45D2A
100
AcDbEntity
  8
0
100
AcDbLine
 10
-0.115805
 20
2.389897
 30
5.88
 11
-0.120832
 21
2.359759
 31
5.88
  0
LINE
  5
45D2B
100
AcDbEntity
  8
0
100
AcDbLine
 10
-0.120832
 20
2.415013
 30
5.88
 11
-0.115805
 21
2.389897
 31
5.88
  0
LINE
  5
45D2C
100
AcDbEntity
  8
0
100
AcDbLine
 10
-0.125858
 20
2.440128
 30
5.88
 11
-0.120832
 21
2.415013
 31
5.88
  0
LINE
  5
45D2D
100
AcDbEntity
  8
0
100
AcDbLine
 10
-0.23642
 20
2.51045
 30
5.88
 11
-0.211293
 21
2.505427
 31
5.88
  0
LINE
  5
45D2E
100
AcDbEntity
  8
0
100
AcDbLine
 10
-0.216318
 20
2.62598
 30
5.88
 11
-0.246471
 21
2.620956
 31
5.88
  0
LINE
  5
45D2F
100
AcDbEntity
  8
0
100
AcDbLine
 10
-0.261548
 20
2.505427
 30
5.88
 11
-0.23642
 21
2.51045
 31
5.88
  0
LINE
  5
45D30
100
AcDbEntity
  8
0
100
AcDbLine
 10
-0.286675
 20
2.495381
 30
5.88
 11
-0.261548
 21
2.505427
 31
5.88
  0
LINE
  5
45D31
100
AcDbEntity
  8
0
100
AcDbLine
 10
-0.311803
 20
2.480313
 30
5.88
 11
-0.286675
 21
2.495381
 31
5.88
  0
LINE
  5
45D32
100
AcDbEntity
  8
0
100
AcDbLine
 10
-0.296726
 20
2.641049
 30
5.88
 11
-0.316828
 21
2.656118
 31
5.88
  0
LINE
  5
45D33
100
AcDbEntity
  8
0
100
AcDbLine
 10
-0.271599
 20
2.631003
 30
5.88
 11
-0.296726
 21
2.641049
 31
5.88
  0
LINE
  5
45D34
100
AcDbEntity
  8
0
100
AcDbLine
 10
-0.246471
 20
2.620956
 30
5.88
 11
-0.271599
 21
2.631003
 31
5.88
  0
LINE
  5
45D35
100
AcDbEntity
  8
0
100
AcDbLine
 10
-0.161036
 20
2.480313
 30
5.88
 11
-0.140936
 21
2.465244
 31
5.88
  0
LINE
  5
45D36
100
AcDbEntity
  8
0
100
AcDbLine
 10
-0.186165
 20
2.495381
 30
5.88
 11
-0.161036
 21
2.480313
 31
5.88
  0
LINE
  5
45D37
100
AcDbEntity
  8
0
100
AcDbLine
 10
-0.211293
 20
2.505427
 30
5.88
 11
-0.186165
 21
2.495381
 31
5.88
  0
LINE
  5
45D38
100
AcDbEntity
  8
0
100
AcDbLine
 10
-0.191191
 20
2.631003
 30
5.88
 11
-0.216318
 21
2.62598
 31
5.88
  0
LINE
  5
45D39
100
AcDbEntity
  8
0
100
AcDbLine
 10
-0.166063
 20
2.641049
 30
5.88
 11
-0.191191
 21
2.631003
 31
5.88
  0
LINE
  5
45D3A
100
AcDbEntity
  8
0
100
AcDbLine
 10
-0.14596
 20
2.661141
 30
5.88
 11
-0.166063
 21
2.641049
 31
5.88
  0
LINE
  5
45D3B
100
AcDbEntity
  8
0
100
AcDbLine
 10
-0.532929
 20
2.867084
 30
5.88
 11
-0.532929
 21
2.967545
 31
5.88
  0
LINE
  5
45D3C
100
AcDbEntity
  8
0
100
AcDbLine
 10
-0.23642
 20
2.857039
 30
5.88
 11
-0.211293
 21
2.852015
 31
5.88
  0
LINE
  5
45D3D
100
AcDbEntity
  8
0
100
AcDbLine
 10
-0.346983
 20
2.701324
 30
5.88
 11
-0.352009
 21
2.731462
 31
5.88
  0
LINE
  5
45D3E
100
AcDbEntity
  8
0
100
AcDbLine
 10
-0.331905
 20
2.681232
 30
5.88
 11
-0.346983
 21
2.701324
 31
5.88
  0
LINE
  5
45D3F
100
AcDbEntity
  8
0
100
AcDbLine
 10
-0.261548
 20
2.852015
 30
5.88
 11
-0.23642
 21
2.857039
 31
5.88
  0
LINE
  5
45D40
100
AcDbEntity
  8
0
100
AcDbLine
 10
-0.286675
 20
2.84197
 30
5.88
 11
-0.261548
 21
2.852015
 31
5.88
  0
LINE
  5
45D41
100
AcDbEntity
  8
0
100
AcDbLine
 10
-0.311803
 20
2.826901
 30
5.88
 11
-0.286675
 21
2.84197
 31
5.88
  0
LINE
  5
45D42
100
AcDbEntity
  8
0
100
AcDbLine
 10
-0.331905
 20
2.806809
 30
5.88
 11
-0.311803
 21
2.826901
 31
5.88
  0
LINE
  5
45D43
100
AcDbEntity
  8
0
100
AcDbLine
 10
-0.341956
 20
2.781692
 30
5.88
 11
-0.331905
 21
2.806809
 31
5.88
  0
LINE
  5
45D44
100
AcDbEntity
  8
0
100
AcDbLine
 10
-0.352009
 20
2.756578
 30
5.88
 11
-0.341956
 21
2.781692
 31
5.88
  0
LINE
  5
45D45
100
AcDbEntity
  8
0
100
AcDbLine
 10
-0.352009
 20
2.731462
 30
5.88
 11
-0.352009
 21
2.756578
 31
5.88
  0
LINE
  5
45D46
100
AcDbEntity
  8
0
100
AcDbLine
 10
-0.120832
 20
2.706348
 30
5.88
 11
-0.130883
 21
2.681232
 31
5.88
  0
LINE
  5
45D47
100
AcDbEntity
  8
0
100
AcDbLine
 10
-0.115805
 20
2.736486
 30
5.88
 11
-0.120832
 21
2.706348
 31
5.88
  0
LINE
  5
45D48
100
AcDbEntity
  8
0
100
AcDbLine
 10
-0.120832
 20
2.761602
 30
5.88
 11
-0.115805
 21
2.736486
 31
5.88
  0
LINE
  5
45D49
100
AcDbEntity
  8
0
100
AcDbLine
 10
-0.125858
 20
2.786716
 30
5.88
 11
-0.120832
 21
2.761602
 31
5.88
  0
LINE
  5
45D4A
100
AcDbEntity
  8
0
100
AcDbLine
 10
-0.140936
 20
2.811832
 30
5.88
 11
-0.125858
 21
2.786716
 31
5.88
  0
LINE
  5
45D4B
100
AcDbEntity
  8
0
100
AcDbLine
 10
-0.161036
 20
2.831923
 30
5.88
 11
-0.140936
 21
2.811832
 31
5.88
  0
LINE
  5
45D4C
100
AcDbEntity
  8
0
100
AcDbLine
 10
-0.186165
 20
2.846992
 30
5.88
 11
-0.161036
 21
2.831923
 31
5.88
  0
LINE
  5
45D4D
100
AcDbEntity
  8
0
100
AcDbLine
 10
-0.211293
 20
2.852015
 30
5.88
 11
-0.186165
 21
2.846992
 31
5.88
  0
LINE
  5
45D4E
100
AcDbEntity
  8
0
100
AcDbLine
 10
-0.216318
 20
2.972568
 30
5.88
 11
-0.246471
 21
2.972568
 31
5.88
  0
LINE
  5
45D4F
100
AcDbEntity
  8
0
100
AcDbLine
 10
-0.346983
 20
3.052936
 30
5.88
 11
-0.352009
 21
3.078051
 31
5.88
  0
LINE
  5
45D50
100
AcDbEntity
  8
0
100
AcDbLine
 10
-0.331905
 20
3.02782
 30
5.88
 11
-0.346983
 21
3.052936
 31
5.88
  0
LINE
  5
45D51
100
AcDbEntity
  8
0
100
AcDbLine
 10
-0.316828
 20
3.002706
 30
5.88
 11
-0.331905
 21
3.02782
 31
5.88
  0
LINE
  5
45D52
100
AcDbEntity
  8
0
100
AcDbLine
 10
-0.296726
 20
2.987637
 30
5.88
 11
-0.316828
 21
3.002706
 31
5.88
  0
LINE
  5
45D53
100
AcDbEntity
  8
0
100
AcDbLine
 10
-0.271599
 20
2.97759
 30
5.88
 11
-0.296726
 21
2.987637
 31
5.88
  0
LINE
  5
45D54
100
AcDbEntity
  8
0
100
AcDbLine
 10
-0.246471
 20
2.972568
 30
5.88
 11
-0.271599
 21
2.97759
 31
5.88
  0
LINE
  5
45D55
100
AcDbEntity
  8
0
100
AcDbLine
 10
-0.191191
 20
2.97759
 30
5.88
 11
-0.216318
 21
2.972568
 31
5.88
  0
LINE
  5
45D56
100
AcDbEntity
  8
0
100
AcDbLine
 10
-0.166063
 20
2.992659
 30
5.88
 11
-0.191191
 21
2.97759
 31
5.88
  0
LINE
  5
45D57
100
AcDbEntity
  8
0
100
AcDbLine
 10
-0.14596
 20
3.00773
 30
5.88
 11
-0.166063
 21
2.992659
 31
5.88
  0
LINE
  5
45D58
100
AcDbEntity
  8
0
100
AcDbLine
 10
-0.130883
 20
3.032844
 30
5.88
 11
-0.14596
 21
3.00773
 31
5.88
  0
LINE
  5
45D59
100
AcDbEntity
  8
0
100
AcDbLine
 10
-0.120832
 20
3.057958
 30
5.88
 11
-0.130883
 21
3.032844
 31
5.88
  0
LINE
  5
45D5A
100
AcDbEntity
  8
0
100
AcDbLine
 10
-0.115805
 20
3.083074
 30
5.88
 11
-0.120832
 21
3.057958
 31
5.88
  0
LINE
  5
45D5B
100
AcDbEntity
  8
0
100
AcDbLine
 10
-0.06555
 20
2.620956
 30
5.88
 11
-0.06555
 21
2.520496
 31
5.88
  0
LINE
  5
45D5C
100
AcDbEntity
  8
0
100
AcDbLine
 10
0.060088
 20
2.620956
 30
5.88
 11
0.060088
 21
2.520496
 31
5.88
  0
LINE
  5
45D5D
100
AcDbEntity
  8
0
100
AcDbLine
 10
-0.06555
 20
2.967545
 30
5.88
 11
-0.06555
 21
2.867084
 31
5.88
  0
LINE
  5
45D5E
100
AcDbEntity
  8
0
100
AcDbLine
 10
0.060088
 20
2.967545
 30
5.88
 11
0.060088
 21
2.867084
 31
5.88
  0
LINE
  5
45D5F
100
AcDbEntity
  8
0
100
AcDbLine
 10
0.060088
 20
3.213673
 30
5.88
 11
-0.532929
 21
3.213673
 31
5.88
  0
LINE
  5
45D60
100
AcDbEntity
  8
0
100
AcDbLine
 10
-0.532929
 20
3.314133
 30
5.88
 11
0.060088
 21
3.314133
 31
5.88
  0
LINE
  5
45D61
100
AcDbEntity
  8
0
100
AcDbLine
 10
0.060088
 20
3.560261
 30
5.88
 11
-0.532929
 21
3.560261
 31
5.88
  0
LINE
  5
45D62
100
AcDbEntity
  8
0
100
AcDbLine
 10
-0.532929
 20
3.665745
 30
5.88
 11
0.060088
 21
3.665745
 31
5.88
  0
LINE
  5
45D63
100
AcDbEntity
  8
0
100
AcDbLine
 10
-0.402264
 20
3.560261
 30
5.88
 11
-0.402264
 21
3.314133
 31
5.88
  0
LINE
  5
45D64
100
AcDbEntity
  8
0
100
AcDbLine
 10
-0.311803
 20
3.5251
 30
5.88
 11
-0.150985
 21
3.354318
 31
5.88
  0
LINE
  5
45D65
100
AcDbEntity
  8
0
100
AcDbLine
 10
-0.140936
 20
3.505007
 30
5.88
 11
-0.125858
 21
3.484917
 31
5.88
  0
LINE
  5
45D66
100
AcDbEntity
  8
0
100
AcDbLine
 10
-0.341956
 20
3.479893
 30
5.88
 11
-0.331905
 21
3.499986
 31
5.88
  0
LINE
  5
45D67
100
AcDbEntity
  8
0
100
AcDbLine
 10
-0.532929
 20
3.213673
 30
5.88
 11
-0.532929
 21
3.314133
 31
5.88
  0
LINE
  5
45D68
100
AcDbEntity
  8
0
100
AcDbLine
 10
-0.23642
 20
3.203627
 30
5.88
 11
-0.211293
 21
3.203627
 31
5.88
  0
LINE
  5
45D69
100
AcDbEntity
  8
0
100
AcDbLine
 10
-0.261548
 20
3.198604
 30
5.88
 11
-0.23642
 21
3.203627
 31
5.88
  0
LINE
  5
45D6A
100
AcDbEntity
  8
0
100
AcDbLine
 10
-0.286675
 20
3.188558
 30
5.88
 11
-0.261548
 21
3.198604
 31
5.88
  0
LINE
  5
45D6B
100
AcDbEntity
  8
0
100
AcDbLine
 10
-0.311803
 20
3.17349
 30
5.88
 11
-0.286675
 21
3.188558
 31
5.88
  0
LINE
  5
45D6C
100
AcDbEntity
  8
0
100
AcDbLine
 10
-0.331905
 20
3.153397
 30
5.88
 11
-0.311803
 21
3.17349
 31
5.88
  0
LINE
  5
45D6D
100
AcDbEntity
  8
0
100
AcDbLine
 10
-0.341956
 20
3.133305
 30
5.88
 11
-0.331905
 21
3.153397
 31
5.88
  0
LINE
  5
45D6E
100
AcDbEntity
  8
0
100
AcDbLine
 10
-0.352009
 20
3.103167
 30
5.88
 11
-0.341956
 21
3.133305
 31
5.88
  0
LINE
  5
45D6F
100
AcDbEntity
  8
0
100
AcDbLine
 10
-0.125858
 20
3.133305
 30
5.88
 11
-0.120832
 21
3.10819
 31
5.88
  0
LINE
  5
45D70
100
AcDbEntity
  8
0
100
AcDbLine
 10
-0.140936
 20
3.158419
 30
5.88
 11
-0.125858
 21
3.133305
 31
5.88
  0
LINE
  5
45D71
100
AcDbEntity
  8
0
100
AcDbLine
 10
-0.161036
 20
3.178511
 30
5.88
 11
-0.140936
 21
3.158419
 31
5.88
  0
LINE
  5
45D72
100
AcDbEntity
  8
0
100
AcDbLine
 10
-0.186165
 20
3.19358
 30
5.88
 11
-0.161036
 21
3.178511
 31
5.88
  0
LINE
  5
45D73
100
AcDbEntity
  8
0
100
AcDbLine
 10
-0.211293
 20
3.203627
 30
5.88
 11
-0.186165
 21
3.19358
 31
5.88
  0
LINE
  5
45D74
100
AcDbEntity
  8
0
100
AcDbLine
 10
-0.216318
 20
3.319157
 30
5.88
 11
-0.246471
 21
3.319157
 31
5.88
  0
LINE
  5
45D75
100
AcDbEntity
  8
0
100
AcDbLine
 10
-0.346983
 20
3.399525
 30
5.88
 11
-0.352009
 21
3.424639
 31
5.88
  0
LINE
  5
45D76
100
AcDbEntity
  8
0
100
AcDbLine
 10
-0.331905
 20
3.374409
 30
5.88
 11
-0.346983
 21
3.399525
 31
5.88
  0
LINE
  5
45D77
100
AcDbEntity
  8
0
100
AcDbLine
 10
-0.316828
 20
3.354318
 30
5.88
 11
-0.331905
 21
3.374409
 31
5.88
  0
LINE
  5
45D78
100
AcDbEntity
  8
0
100
AcDbLine
 10
-0.296726
 20
3.334226
 30
5.88
 11
-0.316828
 21
3.354318
 31
5.88
  0
LINE
  5
45D79
100
AcDbEntity
  8
0
100
AcDbLine
 10
-0.271599
 20
3.324179
 30
5.88
 11
-0.296726
 21
3.334226
 31
5.88
  0
LINE
  5
45D7A
100
AcDbEntity
  8
0
100
AcDbLine
 10
-0.246471
 20
3.319157
 30
5.88
 11
-0.271599
 21
3.324179
 31
5.88
  0
LINE
  5
45D7B
100
AcDbEntity
  8
0
100
AcDbLine
 10
-0.352009
 20
3.454777
 30
5.88
 11
-0.341956
 21
3.479893
 31
5.88
  0
LINE
  5
45D7C
100
AcDbEntity
  8
0
100
AcDbLine
 10
-0.352009
 20
3.424639
 30
5.88
 11
-0.352009
 21
3.454777
 31
5.88
  0
LINE
  5
45D7D
100
AcDbEntity
  8
0
100
AcDbLine
 10
-0.191191
 20
3.324179
 30
5.88
 11
-0.216318
 21
3.319157
 31
5.88
  0
LINE
  5
45D7E
100
AcDbEntity
  8
0
100
AcDbLine
 10
-0.166063
 20
3.339247
 30
5.88
 11
-0.191191
 21
3.324179
 31
5.88
  0
LINE
  5
45D7F
100
AcDbEntity
  8
0
100
AcDbLine
 10
-0.14596
 20
3.354318
 30
5.88
 11
-0.166063
 21
3.339247
 31
5.88
  0
LINE
  5
45D80
100
AcDbEntity
  8
0
100
AcDbLine
 10
-0.130883
 20
3.379432
 30
5.88
 11
-0.14596
 21
3.354318
 31
5.88
  0
LINE
  5
45D81
100
AcDbEntity
  8
0
100
AcDbLine
 10
-0.120832
 20
3.404547
 30
5.88
 11
-0.130883
 21
3.379432
 31
5.88
  0
LINE
  5
45D82
100
AcDbEntity
  8
0
100
AcDbLine
 10
-0.115805
 20
3.429663
 30
5.88
 11
-0.120832
 21
3.404547
 31
5.88
  0
LINE
  5
45D83
100
AcDbEntity
  8
0
100
AcDbLine
 10
-0.120832
 20
3.459801
 30
5.88
 11
-0.115805
 21
3.429663
 31
5.88
  0
LINE
  5
45D84
100
AcDbEntity
  8
0
100
AcDbLine
 10
-0.125858
 20
3.484917
 30
5.88
 11
-0.120832
 21
3.459801
 31
5.88
  0
LINE
  5
45D85
100
AcDbEntity
  8
0
100
AcDbLine
 10
-0.402264
 20
3.90685
 30
5.88
 11
-0.402264
 21
3.665745
 31
5.88
  0
LINE
  5
45D86
100
AcDbEntity
  8
0
100
AcDbLine
 10
-0.532929
 20
3.560261
 30
5.88
 11
-0.532929
 21
3.665745
 31
5.88
  0
LINE
  5
45D87
100
AcDbEntity
  8
0
100
AcDbLine
 10
-0.311803
 20
3.871688
 30
5.88
 11
-0.150985
 21
3.700905
 31
5.88
  0
LINE
  5
45D88
100
AcDbEntity
  8
0
100
AcDbLine
 10
-0.316828
 20
3.700905
 30
5.88
 11
-0.331905
 21
3.720997
 31
5.88
  0
LINE
  5
45D89
100
AcDbEntity
  8
0
100
AcDbLine
 10
-0.14596
 20
3.705928
 30
5.88
 11
-0.166063
 21
3.685836
 31
5.88
  0
LINE
  5
45D8A
100
AcDbEntity
  8
0
100
AcDbLine
 10
-0.23642
 20
3.550214
 30
5.88
 11
-0.211293
 21
3.550214
 31
5.88
  0
LINE
  5
45D8B
100
AcDbEntity
  8
0
100
AcDbLine
 10
-0.216318
 20
3.665745
 30
5.88
 11
-0.246471
 21
3.665745
 31
5.88
  0
LINE
  5
45D8C
100
AcDbEntity
  8
0
100
AcDbLine
 10
-0.261548
 20
3.545192
 30
5.88
 11
-0.23642
 21
3.550214
 31
5.88
  0
LINE
  5
45D8D
100
AcDbEntity
  8
0
100
AcDbLine
 10
-0.286675
 20
3.540169
 30
5.88
 11
-0.261548
 21
3.545192
 31
5.88
  0
LINE
  5
45D8E
100
AcDbEntity
  8
0
100
AcDbLine
 10
-0.311803
 20
3.520076
 30
5.88
 11
-0.286675
 21
3.540169
 31
5.88
  0
LINE
  5
45D8F
100
AcDbEntity
  8
0
100
AcDbLine
 10
-0.331905
 20
3.499986
 30
5.88
 11
-0.311803
 21
3.520076
 31
5.88
  0
LINE
  5
45D90
100
AcDbEntity
  8
0
100
AcDbLine
 10
-0.296726
 20
3.685836
 30
5.88
 11
-0.316828
 21
3.700905
 31
5.88
  0
LINE
  5
45D91
100
AcDbEntity
  8
0
100
AcDbLine
 10
-0.271599
 20
3.670767
 30
5.88
 11
-0.296726
 21
3.685836
 31
5.88
  0
LINE
  5
45D92
100
AcDbEntity
  8
0
100
AcDbLine
 10
-0.246471
 20
3.665745
 30
5.88
 11
-0.271599
 21
3.670767
 31
5.88
  0
LINE
  5
45D93
100
AcDbEntity
  8
0
100
AcDbLine
 10
-0.161036
 20
3.5251
 30
5.88
 11
-0.140936
 21
3.505007
 31
5.88
  0
LINE
  5
45D94
100
AcDbEntity
  8
0
100
AcDbLine
 10
-0.186165
 20
3.540169
 30
5.88
 11
-0.161036
 21
3.5251
 31
5.88
  0
LINE
  5
45D95
100
AcDbEntity
  8
0
100
AcDbLine
 10
-0.211293
 20
3.550214
 30
5.88
 11
-0.186165
 21
3.540169
 31
5.88
  0
LINE
  5
45D96
100
AcDbEntity
  8
0
100
AcDbLine
 10
-0.191191
 20
3.675791
 30
5.88
 11
-0.216318
 21
3.665745
 31
5.88
  0
LINE
  5
45D97
100
AcDbEntity
  8
0
100
AcDbLine
 10
-0.166063
 20
3.685836
 30
5.88
 11
-0.191191
 21
3.675791
 31
5.88
  0
LINE
  5
45D98
100
AcDbEntity
  8
0
100
AcDbLine
 10
-0.23642
 20
3.896802
 30
5.88
 11
-0.211293
 21
3.896802
 31
5.88
  0
LINE
  5
45D99
100
AcDbEntity
  8
0
100
AcDbLine
 10
-0.346983
 20
3.746113
 30
5.88
 11
-0.352009
 21
3.771228
 31
5.88
  0
LINE
  5
45D9A
100
AcDbEntity
  8
0
100
AcDbLine
 10
-0.331905
 20
3.720997
 30
5.88
 11
-0.346983
 21
3.746113
 31
5.88
  0
LINE
  5
45D9B
100
AcDbEntity
  8
0
100
AcDbLine
 10
-0.261548
 20
3.896802
 30
5.88
 11
-0.23642
 21
3.896802
 31
5.88
  0
LINE
  5
45D9C
100
AcDbEntity
  8
0
100
AcDbLine
 10
-0.286675
 20
3.886757
 30
5.88
 11
-0.261548
 21
3.896802
 31
5.88
  0
LINE
  5
45D9D
100
AcDbEntity
  8
0
100
AcDbLine
 10
-0.311803
 20
3.871688
 30
5.88
 11
-0.286675
 21
3.886757
 31
5.88
  0
LINE
  5
45D9E
100
AcDbEntity
  8
0
100
AcDbLine
 10
-0.331905
 20
3.851596
 30
5.88
 11
-0.311803
 21
3.871688
 31
5.88
  0
LINE
  5
45D9F
100
AcDbEntity
  8
0
100
AcDbLine
 10
-0.341956
 20
3.826482
 30
5.88
 11
-0.331905
 21
3.851596
 31
5.88
  0
LINE
  5
45DA0
100
AcDbEntity
  8
0
100
AcDbLine
 10
-0.352009
 20
3.801365
 30
5.88
 11
-0.341956
 21
3.826482
 31
5.88
  0
LINE
  5
45DA1
100
AcDbEntity
  8
0
100
AcDbLine
 10
-0.352009
 20
3.771228
 30
5.88
 11
-0.352009
 21
3.801365
 31
5.88
  0
LINE
  5
45DA2
100
AcDbEntity
  8
0
100
AcDbLine
 10
-0.130883
 20
3.726021
 30
5.88
 11
-0.14596
 21
3.705928
 31
5.88
  0
LINE
  5
45DA3
100
AcDbEntity
  8
0
100
AcDbLine
 10
-0.120832
 20
3.751135
 30
5.88
 11
-0.130883
 21
3.726021
 31
5.88
  0
LINE
  5
45DA4
100
AcDbEntity
  8
0
100
AcDbLine
 10
-0.115805
 20
3.776251
 30
5.88
 11
-0.120832
 21
3.751135
 31
5.88
  0
LINE
  5
45DA5
100
AcDbEntity
  8
0
100
AcDbLine
 10
-0.120832
 20
3.806389
 30
5.88
 11
-0.115805
 21
3.776251
 31
5.88
  0
LINE
  5
45DA6
100
AcDbEntity
  8
0
100
AcDbLine
 10
-0.125858
 20
3.831503
 30
5.88
 11
-0.120832
 21
3.806389
 31
5.88
  0
LINE
  5
45DA7
100
AcDbEntity
  8
0
100
AcDbLine
 10
-0.140936
 20
3.851596
 30
5.88
 11
-0.125858
 21
3.831503
 31
5.88
  0
LINE
  5
45DA8
100
AcDbEntity
  8
0
100
AcDbLine
 10
-0.161036
 20
3.871688
 30
5.88
 11
-0.140936
 21
3.851596
 31
5.88
  0
LINE
  5
45DA9
100
AcDbEntity
  8
0
100
AcDbLine
 10
-0.186165
 20
3.886757
 30
5.88
 11
-0.161036
 21
3.871688
 31
5.88
  0
LINE
  5
45DAA
100
AcDbEntity
  8
0
100
AcDbLine
 10
-0.211293
 20
3.896802
 30
5.88
 11
-0.186165
 21
3.886757
 31
5.88
  0
LINE
  5
45DAB
100
AcDbEntity
  8
0
100
AcDbLine
 10
-0.06555
 20
3.314133
 30
5.88
 11
-0.06555
 21
3.213673
 31
5.88
  0
LINE
  5
45DAC
100
AcDbEntity
  8
0
100
AcDbLine
 10
0.060088
 20
3.314133
 30
5.88
 11
0.060088
 21
3.213673
 31
5.88
  0
LINE
  5
45DAD
100
AcDbEntity
  8
0
100
AcDbLine
 10
-0.06555
 20
3.665745
 30
5.88
 11
-0.06555
 21
3.560261
 31
5.88
  0
LINE
  5
45DAE
100
AcDbEntity
  8
0
100
AcDbLine
 10
0.060088
 20
3.665745
 30
5.88
 11
0.060088
 21
3.560261
 31
5.88
  0
LINE
  5
45DAF
100
AcDbEntity
  8
0
100
AcDbLine
 10
-0.492723
 20
4.33992
 30
5.88
 11
-0.035397
 21
4.33992
 31
5.88
  0
LINE
  5
45DB0
100
AcDbEntity
  8
0
100
AcDbLine
 10
-0.040422
 20
4.163023
 30
5.88
 11
-0.492723
 21
4.163023
 31
5.88
  0
LINE
  5
45DB1
100
AcDbEntity
  8
0
100
AcDbLine
 10
-0.492723
 20
4.199277
 30
5.88
 11
-0.035397
 21
4.199277
 31
5.88
  0
LINE
  5
45DB2
100
AcDbEntity
  8
0
100
AcDbLine
 10
-0.492723
 20
4.052517
 30
5.88
 11
-0.035397
 21
4.052517
 31
5.88
  0
LINE
  5
45DB3
100
AcDbEntity
  8
0
100
AcDbLine
 10
-0.492723
 20
4.514635
 30
5.88
 11
-0.492723
 21
4.052517
 31
5.88
  0
LINE
  5
45DB4
100
AcDbEntity
  8
0
100
AcDbLine
 10
-0.407289
 20
4.33992
 30
5.88
 11
-0.407289
 21
4.495635
 31
5.88
  0
LINE
  5
45DB5
100
AcDbEntity
  8
0
100
AcDbLine
 10
-0.150985
 20
4.495635
 30
5.88
 11
-0.150985
 21
4.33992
 31
5.88
  0
LINE
  5
45DB6
100
AcDbEntity
  8
0
100
AcDbLine
 10
0.045013
 20
4.495635
 30
5.88
 11
0.045013
 21
4.259552
 31
5.88
  0
LINE
  5
45DB7
100
AcDbEntity
  8
0
100
AcDbLine
 10
-0.035397
 20
4.514635
 30
5.88
 11
-0.035397
 21
4.052517
 31
5.88
  0
LINE
  5
45DB8
100
AcDbEntity
  8
0
100
AcDbLine
 10
0.135472
 20
4.117816
 30
5.88
 11
0.1606
 21
4.107769
 31
5.88
  0
LINE
  5
45DB9
100
AcDbEntity
  8
0
100
AcDbLine
 10
0.135472
 20
4.254531
 30
5.88
 11
0.1606
 21
4.244483
 31
5.88
  0
LINE
  5
45DBA
100
AcDbEntity
  8
0
100
AcDbLine
 10
0.11537
 20
4.12284
 30
5.88
 11
0.135472
 21
4.117816
 31
5.88
  0
LINE
  5
45DBB
100
AcDbEntity
  8
0
100
AcDbLine
 10
-0.035397
 20
4.12284
 30
5.88
 11
0.11537
 21
4.12284
 31
5.88
  0
LINE
  5
45DBC
100
AcDbEntity
  8
0
100
AcDbLine
 10
-0.035397
 20
4.259552
 30
5.88
 11
0.11537
 21
4.259552
 31
5.88
  0
LINE
  5
45DBD
100
AcDbEntity
  8
0
100
AcDbLine
 10
0.11537
 20
4.259552
 30
5.88
 11
0.135472
 21
4.254531
 31
5.88
  0
LINE
  5
45DBE
100
AcDbEntity
  8
0
100
AcDbLine
 10
0.195778
 20
4.057541
 30
5.88
 11
0.195778
 21
4.037448
 31
5.88
  0
LINE
  5
45DBF
100
AcDbEntity
  8
0
100
AcDbLine
 10
0.190753
 20
4.077631
 30
5.88
 11
0.195778
 21
4.057541
 31
5.88
  0
LINE
  5
45DC0
100
AcDbEntity
  8
0
100
AcDbLine
 10
0.175678
 20
4.097724
 30
5.88
 11
0.190753
 21
4.077631
 31
5.88
  0
LINE
  5
45DC1
100
AcDbEntity
  8
0
100
AcDbLine
 10
0.1606
 20
4.107769
 30
5.88
 11
0.175678
 21
4.097724
 31
5.88
  0
LINE
  5
45DC2
100
AcDbEntity
  8
0
100
AcDbLine
 10
0.195778
 20
4.194253
 30
5.88
 11
0.195778
 21
4.174161
 31
5.88
  0
LINE
  5
45DC3
100
AcDbEntity
  8
0
100
AcDbLine
 10
0.190753
 20
4.214346
 30
5.88
 11
0.195778
 21
4.194253
 31
5.88
  0
LINE
  5
45DC4
100
AcDbEntity
  8
0
100
AcDbLine
 10
0.175678
 20
4.234438
 30
5.88
 11
0.190753
 21
4.214346
 31
5.88
  0
LINE
  5
45DC5
100
AcDbEntity
  8
0
100
AcDbLine
 10
0.1606
 20
4.244483
 30
5.88
 11
0.175678
 21
4.234438
 31
5.88
  0
LINE
  5
45DC6
100
AcDbEntity
  8
0
100
AcDbLine
 10
0.261112
 20
4.550887
 30
5.88
 11
0.246035
 21
4.530796
 31
5.88
  0
LINE
  5
45DC7
100
AcDbEntity
  8
0
100
AcDbLine
 10
0.175678
 20
4.500659
 30
5.88
 11
0.1606
 21
4.500659
 31
5.88
  0
LINE
  5
45DC8
100
AcDbEntity
  8
0
100
AcDbLine
 10
0.200806
 20
4.50568
 30
5.88
 11
0.175678
 21
4.500659
 31
5.88
  0
LINE
  5
45DC9
100
AcDbEntity
  8
0
100
AcDbLine
 10
0.225933
 20
4.515727
 30
5.88
 11
0.200806
 21
4.50568
 31
5.88
  0
LINE
  5
45DCA
100
AcDbEntity
  8
0
100
AcDbLine
 10
0.246035
 20
4.530796
 30
5.88
 11
0.225933
 21
4.515727
 31
5.88
  0
LINE
  5
45DCB
100
AcDbEntity
  8
0
100
AcDbLine
 10
0.271163
 20
4.576003
 30
5.88
 11
0.261112
 21
4.550887
 31
5.88
  0
LINE
  5
45DCC
100
AcDbEntity
  8
0
100
AcDbLine
 10
0.271163
 20
4.601117
 30
5.88
 11
0.271163
 21
4.576003
 31
5.88
  0
LINE
  5
45DCD
100
AcDbEntity
  8
0
100
AcDbLine
 10
0.271163
 20
4.626233
 30
5.88
 11
0.271163
 21
4.601117
 31
5.88
  0
POLYLINE
  5
45DCE
100
AcDbEntity
  8
0
100
AcDbPolygonMesh
 66
     1
 10
0.0
 20
0.0
 30
0.0
 70
    16
 71
     6
 72
     3
  0
VERTEX
  5
45DCF
100
AcDbEntity
  8
0
100
AcDbVertex
100
AcDbPolygonMeshVertex
 10
0.068
 20
9.8
 30
4.755
 70
    64
  0
VERTEX
  5
45DD0
100
AcDbEntity
  8
0
100
AcDbVertex
100
AcDbPolygonMeshVertex
 10
0.068
 20
9.8
 30
0.0
 70
    64
  0
VERTEX
  5
45DD1
100
AcDbEntity
  8
0
100
AcDbVertex
100
AcDbPolygonMeshVertex
 10
0.068
 20
9.8
 30
0.0
 70
    64
  0
VERTEX
  5
45DD2
100
AcDbEntity
  8
0
100
AcDbVertex
100
AcDbPolygonMeshVertex
 10
0.0
 20
9.8
 30
4.755
 70
    64
  0
VERTEX
  5
45DD3
100
AcDbEntity
  8
0
100
AcDbVertex
100
AcDbPolygonMeshVertex
 10
0.0
 20
9.8
 30
0.0
 70
    64
  0
VERTEX
  5
45DD4
100
AcDbEntity
  8
0
100
AcDbVertex
100
AcDbPolygonMeshVertex
 10
0.0
 20
9.8
 30
0.0
 70
    64
  0
VERTEX
  5
45DD5
100
AcDbEntity
  8
0
100
AcDbVertex
100
AcDbPolygonMeshVertex
 10
0.0
 20
10.0
 30
4.755
 70
    64
  0
VERTEX
  5
45DD6
100
AcDbEntity
  8
0
100
AcDbVertex
100
AcDbPolygonMeshVertex
 10
0.0
 20
10.0
 30
0.0
 70
    64
  0
VERTEX
  5
45DD7
100
AcDbEntity
  8
0
100
AcDbVertex
100
AcDbPolygonMeshVertex
 10
0.0
 20
9.8
 30
0.0
 70
    64
  0
VERTEX
  5
45DD8
100
AcDbEntity
  8
0
100
AcDbVertex
100
AcDbPolygonMeshVertex
 10
0.068
 20
10.0
 30
4.755
 70
    64
  0
VERTEX
  5
45DD9
100
AcDbEntity
  8
0
100
AcDbVertex
100
AcDbPolygonMeshVertex
 10
0.068
 20
10.0
 30
0.0
 70
    64
  0
VERTEX
  5
45DDA
100
AcDbEntity
  8
0
100
AcDbVertex
100
AcDbPolygonMeshVertex
 10
0.068
 20
9.8
 30
0.0
 70
    64
  0
VERTEX
  5
45DDB
100
AcDbEntity
  8
0
100
AcDbVertex
100
AcDbPolygonMeshVertex
 10
0.068
 20
10.0
 30
4.755
 70
    64
  0
VERTEX
  5
45DDC
100
AcDbEntity
  8
0
100
AcDbVertex
100
AcDbPolygonMeshVertex
 10
0.068
 20
10.0
 30
4.755
 70
    64
  0
VERTEX
  5
45DDD
100
AcDbEntity
  8
0
100
AcDbVertex
100
AcDbPolygonMeshVertex
 10
0.068
 20
9.8
 30
4.755
 70
    64
  0
VERTEX
  5
45DDE
100
AcDbEntity
  8
0
100
AcDbVertex
100
AcDbPolygonMeshVertex
 10
0.0
 20
10.0
 30
4.755
 70
    64
  0
VERTEX
  5
45DDF
100
AcDbEntity
  8
0
100
AcDbVertex
100
AcDbPolygonMeshVertex
 10
0.0
 20
10.0
 30
4.755
 70
    64
  0
VERTEX
  5
45DE0
100
AcDbEntity
  8
0
100
AcDbVertex
100
AcDbPolygonMeshVertex
 10
0.0
 20
9.8
 30
4.755
 70
    64
  0
SEQEND
  5
45DE1
100
AcDbEntity
  8
0
  0
LINE
  5
45DE2
100
AcDbEntity
  8
0
100
AcDbLine
 10
-0.284443
 20
8.187981
 30
5.88
 11
-0.284443
 21
7.896046
 31
5.88
  0
LINE
  5
45DE3
100
AcDbEntity
  8
0
100
AcDbLine
 10
-0.068345
 20
8.187981
 30
5.88
 11
-0.068345
 21
7.896046
 31
5.88
  0
TEXT
  5
45DE4
100
AcDbEntity
  8
0
100
AcDbText
 39
0.001
 10
-0.697436
 20
7.949748
 30
5.879973
 40
0.05
  1
FAULT
 72
     1
 11
-0.58077
 21
7.949748
 31
5.879973
100
AcDbText
  0
LINE
  5
45DE5
100
AcDbEntity
  8
0
100
AcDbLine
 10
-0.108549
 20
7.997107
 30
5.88
 11
-0.103525
 21
7.971991
 31
5.88
  0
LINE
  5
45DE6
100
AcDbEntity
  8
0
100
AcDbLine
 10
-0.098498
 20
7.825723
 30
5.88
 11
-0.118602
 21
7.805631
 31
5.88
  0
LINE
  5
45DE7
100
AcDbEntity
  8
0
100
AcDbLine
 10
-0.098498
 20
7.931806
 30
5.88
 11
-0.108549
 21
7.906691
 31
5.88
  0
LINE
  5
45DE8
100
AcDbEntity
  8
0
100
AcDbLine
 10
-0.274394
 20
7.845816
 30
5.88
 11
-0.284443
 21
7.87093
 31
5.88
  0
LINE
  5
45DE9
100
AcDbEntity
  8
0
100
AcDbLine
 10
-0.214086
 20
7.795583
 30
5.88
 11
-0.239216
 21
7.805631
 31
5.88
  0
LINE
  5
45DEA
100
AcDbEntity
  8
0
100
AcDbLine
 10
-0.239216
 20
7.805631
 30
5.88
 11
-0.259316
 21
7.825723
 31
5.88
  0
LINE
  5
45DEB
100
AcDbEntity
  8
0
100
AcDbLine
 10
-0.259316
 20
7.825723
 30
5.88
 11
-0.274394
 21
7.845816
 31
5.88
  0
LINE
  5
45DEC
100
AcDbEntity
  8
0
100
AcDbLine
 10
-0.118602
 20
7.805631
 30
5.88
 11
-0.138704
 21
7.795583
 31
5.88
  0
LINE
  5
45DED
100
AcDbEntity
  8
0
100
AcDbLine
 10
-0.138704
 20
7.795583
 30
5.88
 11
-0.163831
 21
7.790562
 31
5.88
  0
LINE
  5
45DEE
100
AcDbEntity
  8
0
100
AcDbLine
 10
-0.163831
 20
7.790562
 30
5.88
 11
-0.188959
 21
7.790562
 31
5.88
  0
LINE
  5
45DEF
100
AcDbEntity
  8
0
100
AcDbLine
 10
-0.188959
 20
7.790562
 30
5.88
 11
-0.214086
 21
7.795583
 31
5.88
  0
LINE
  5
45DF0
100
AcDbEntity
  8
0
100
AcDbLine
 10
-0.244239
 20
8.002128
 30
5.88
 11
-0.229163
 21
8.017199
 31
5.88
  0
LINE
  5
45DF1
100
AcDbEntity
  8
0
100
AcDbLine
 10
-0.224137
 20
7.881575
 30
5.88
 11
-0.244239
 21
7.896644
 31
5.88
  0
LINE
  5
45DF2
100
AcDbEntity
  8
0
100
AcDbLine
 10
-0.259316
 20
7.982038
 30
5.88
 11
-0.244239
 21
8.002128
 31
5.88
  0
LINE
  5
45DF3
100
AcDbEntity
  8
0
100
AcDbLine
 10
-0.264343
 20
7.956922
 30
5.88
 11
-0.259316
 21
7.982038
 31
5.88
  0
LINE
  5
45DF4
100
AcDbEntity
  8
0
100
AcDbLine
 10
-0.284443
 20
7.87093
 30
5.88
 11
-0.284443
 21
7.896046
 31
5.88
  0
LINE
  5
45DF5
100
AcDbEntity
  8
0
100
AcDbLine
 10
-0.244239
 20
7.896644
 30
5.88
 11
-0.25429
 21
7.916737
 31
5.88
  0
LINE
  5
45DF6
100
AcDbEntity
  8
0
100
AcDbLine
 10
-0.25429
 20
7.916737
 30
5.88
 11
-0.259316
 21
7.936829
 31
5.88
  0
LINE
  5
45DF7
100
AcDbEntity
  8
0
100
AcDbLine
 10
-0.259316
 20
7.936829
 30
5.88
 11
-0.264343
 21
7.956922
 31
5.88
  0
LINE
  5
45DF8
100
AcDbEntity
  8
0
100
AcDbLine
 10
-0.229163
 20
8.017199
 30
5.88
 11
-0.209061
 21
8.027245
 31
5.88
  0
LINE
  5
45DF9
100
AcDbEntity
  8
0
100
AcDbLine
 10
-0.209061
 20
8.027245
 30
5.88
 11
-0.188959
 21
8.032268
 31
5.88
  0
LINE
  5
45DFA
100
AcDbEntity
  8
0
100
AcDbLine
 10
-0.188959
 20
8.032268
 30
5.88
 11
-0.163831
 21
8.032268
 31
5.88
  0
LINE
  5
45DFB
100
AcDbEntity
  8
0
100
AcDbLine
 10
-0.163831
 20
8.032268
 30
5.88
 11
-0.143729
 21
8.022221
 31
5.88
  0
LINE
  5
45DFC
100
AcDbEntity
  8
0
100
AcDbLine
 10
-0.143729
 20
8.022221
 30
5.88
 11
-0.123626
 21
8.012176
 31
5.88
  0
LINE
  5
45DFD
100
AcDbEntity
  8
0
100
AcDbLine
 10
-0.123626
 20
8.012176
 30
5.88
 11
-0.108549
 21
7.997107
 31
5.88
  0
LINE
  5
45DFE
100
AcDbEntity
  8
0
100
AcDbLine
 10
-0.108549
 20
7.906691
 30
5.88
 11
-0.123626
 21
7.891623
 31
5.88
  0
LINE
  5
45DFF
100
AcDbEntity
  8
0
100
AcDbLine
 10
-0.123626
 20
7.891623
 30
5.88
 11
-0.138704
 21
7.876554
 31
5.88
  0
LINE
  5
45E00
100
AcDbEntity
  8
0
100
AcDbLine
 10
-0.138704
 20
7.876554
 30
5.88
 11
-0.158806
 21
7.87153
 31
5.88
  0
LINE
  5
45E01
100
AcDbEntity
  8
0
100
AcDbLine
 10
-0.158806
 20
7.87153
 30
5.88
 11
-0.183933
 21
7.866506
 31
5.88
  0
LINE
  5
45E02
100
AcDbEntity
  8
0
100
AcDbLine
 10
-0.204035
 20
7.87153
 30
5.88
 11
-0.224137
 21
7.881575
 31
5.88
  0
LINE
  5
45E03
100
AcDbEntity
  8
0
100
AcDbLine
 10
-0.183933
 20
7.866506
 30
5.88
 11
-0.204035
 21
7.87153
 31
5.88
  0
LINE
  5
45E04
100
AcDbEntity
  8
0
100
AcDbLine
 10
-0.073371
 20
7.87093
 30
5.88
 11
-0.083422
 21
7.845816
 31
5.88
  0
LINE
  5
45E05
100
AcDbEntity
  8
0
100
AcDbLine
 10
-0.083422
 20
7.845816
 30
5.88
 11
-0.098498
 21
7.825723
 31
5.88
  0
LINE
  5
45E06
100
AcDbEntity
  8
0
100
AcDbLine
 10
-0.103525
 20
7.971991
 30
5.88
 11
-0.098498
 21
7.951898
 31
5.88
  0
LINE
  5
45E07
100
AcDbEntity
  8
0
100
AcDbLine
 10
-0.068345
 20
7.896046
 30
5.88
 11
-0.073371
 21
7.87093
 31
5.88
  0
LINE
  5
45E08
100
AcDbEntity
  8
0
100
AcDbLine
 10
-0.098498
 20
7.951898
 30
5.88
 11
-0.098498
 21
7.931806
 31
5.88
  0
LINE
  5
45E09
100
AcDbEntity
  8
0
100
AcDbLine
 10
0.085215
 20
8.368034
 30
5.88
 11
-0.693747
 21
8.368034
 31
5.88
  0
LINE
  5
45E0A
100
AcDbEntity
  8
0
100
AcDbLine
 10
-0.693747
 20
8.769875
 30
5.88
 11
0.085215
 21
8.769875
 31
5.88
  0
LINE
  5
45E0B
100
AcDbEntity
  8
0
100
AcDbLine
 10
-0.693747
 20
8.368034
 30
5.88
 11
-0.693747
 21
8.769875
 31
5.88
  0
POLYLINE
  5
45E0C
100
AcDbEntity
  8
0
100
AcDbPolygonMesh
 66
     1
 10
0.0
 20
0.0
 30
0.0
 70
    16
 71
     6
 72
     3
  0
VERTEX
  5
45E0D
100
AcDbEntity
  8
0
100
AcDbVertex
100
AcDbPolygonMeshVertex
 10
0.265
 20
9.0811
 30
5.837
 70
    64
  0
VERTEX
  5
45E0E
100
AcDbEntity
  8
0
100
AcDbVertex
100
AcDbPolygonMeshVertex
 10
0.265
 20
9.0811
 30
5.747
 70
    64
  0
VERTEX
  5
45E0F
100
AcDbEntity
  8
0
100
AcDbVertex
100
AcDbPolygonMeshVertex
 10
0.265
 20
9.0811
 30
5.747
 70
    64
  0
VERTEX
  5
45E10
100
AcDbEntity
  8
0
100
AcDbVertex
100
AcDbPolygonMeshVertex
 10
-0.197
 20
9.0811
 30
5.837
 70
    64
  0
VERTEX
  5
45E11
100
AcDbEntity
  8
0
100
AcDbVertex
100
AcDbPolygonMeshVertex
 10
-0.197
 20
9.0811
 30
5.747
 70
    64
  0
VERTEX
  5
45E12
100
AcDbEntity
  8
0
100
AcDbVertex
100
AcDbPolygonMeshVertex
 10
-0.197
 20
9.0811
 30
5.747
 70
    64
  0
VERTEX
  5
45E13
100
AcDbEntity
  8
0
100
AcDbVertex
100
AcDbPolygonMeshVertex
 10
-0.197
 20
10.0432
 30
5.837
 70
    64
  0
VERTEX
  5
45E14
100
AcDbEntity
  8
0
100
AcDbVertex
100
AcDbPolygonMeshVertex
 10
-0.197
 20
10.0432
 30
5.747
 70
    64
  0
VERTEX
  5
45E15
100
AcDbEntity
  8
0
100
AcDbVertex
100
AcDbPolygonMeshVertex
 10
-0.197
 20
9.0811
 30
5.747
 70
    64
  0
VERTEX
  5
45E16
100
AcDbEntity
  8
0
100
AcDbVertex
100
AcDbPolygonMeshVertex
 10
0.265
 20
10.0432
 30
5.837
 70
    64
  0
VERTEX
  5
45E17
100
AcDbEntity
  8
0
100
AcDbVertex
100
AcDbPolygonMeshVertex
 10
0.265
 20
10.0432
 30
5.747
 70
    64
  0
VERTEX
  5
45E18
100
AcDbEntity
  8
0
100
AcDbVertex
100
AcDbPolygonMeshVertex
 10
0.265
 20
9.0811
 30
5.747
 70
    64
  0
VERTEX
  5
45E19
100
AcDbEntity
  8
0
100
AcDbVertex
100
AcDbPolygonMeshVertex
 10
0.265
 20
10.0432
 30
5.837
 70
    64
  0
VERTEX
  5
45E1A
100
AcDbEntity
  8
0
100
AcDbVertex
100
AcDbPolygonMeshVertex
 10
0.265
 20
10.0432
 30
5.837
 70
    64
  0
VERTEX
  5
45E1B
100
AcDbEntity
  8
0
100
AcDbVertex
100
AcDbPolygonMeshVertex
 10
0.265
 20
9.0811
 30
5.837
 70
    64
  0
VERTEX
  5
45E1C
100
AcDbEntity
  8
0
100
AcDbVertex
100
AcDbPolygonMeshVertex
 10
-0.197
 20
10.0432
 30
5.837
 70
    64
  0
VERTEX
  5
45E1D
100
AcDbEntity
  8
0
100
AcDbVertex
100
AcDbPolygonMeshVertex
 10
-0.197
 20
10.0432
 30
5.837
 70
    64
  0
VERTEX
  5
45E1E
100
AcDbEntity
  8
0
100
AcDbVertex
100
AcDbPolygonMeshVertex
 10
-0.197
 20
9.0811
 30
5.837
 70
    64
  0
SEQEND
  5
45E1F
100
AcDbEntity
  8
0
  0
POLYLINE
  5
45E20
100
AcDbEntity
  8
0
100
AcDbPolygonMesh
 66
     1
 10
0.0
 20
0.0
 30
0.0
 70
    16
 71
     6
 72
     3
  0
VERTEX
  5
45E21
100
AcDbEntity
  8
0
100
AcDbVertex
100
AcDbPolygonMeshVertex
 10
0.068
 20
8.912
 30
5.747
 70
    64
  0
VERTEX
  5
45E22
100
AcDbEntity
  8
0
100
AcDbVertex
100
AcDbPolygonMeshVertex
 10
0.068
 20
8.912
 30
5.39
 70
    64
  0
VERTEX
  5
45E23
100
AcDbEntity
  8
0
100
AcDbVertex
100
AcDbPolygonMeshVertex
 10
0.068
 20
8.912
 30
5.39
 70
    64
  0
VERTEX
  5
45E24
100
AcDbEntity
  8
0
100
AcDbVertex
100
AcDbPolygonMeshVertex
 10
0.0
 20
8.912
 30
5.747
 70
    64
  0
VERTEX
  5
45E25
100
AcDbEntity
  8
0
100
AcDbVertex
100
AcDbPolygonMeshVertex
 10
0.0
 20
8.912
 30
5.39
 70
    64
  0
VERTEX
  5
45E26
100
AcDbEntity
  8
0
100
AcDbVertex
100
AcDbPolygonMeshVertex
 10
0.0
 20
8.912
 30
5.39
 70
    64
  0
VERTEX
  5
45E27
100
AcDbEntity
  8
0
100
AcDbVertex
100
AcDbPolygonMeshVertex
 10
0.0
 20
9.6931
 30
5.747
 70
    64
  0
VERTEX
  5
45E28
100
AcDbEntity
  8
0
100
AcDbVertex
100
AcDbPolygonMeshVertex
 10
0.0
 20
9.6931
 30
5.39
 70
    64
  0
VERTEX
  5
45E29
100
AcDbEntity
  8
0
100
AcDbVertex
100
AcDbPolygonMeshVertex
 10
0.0
 20
8.912
 30
5.39
 70
    64
  0
VERTEX
  5
45E2A
100
AcDbEntity
  8
0
100
AcDbVertex
100
AcDbPolygonMeshVertex
 10
0.068
 20
9.6931
 30
5.747
 70
    64
  0
VERTEX
  5
45E2B
100
AcDbEntity
  8
0
100
AcDbVertex
100
AcDbPolygonMeshVertex
 10
0.068
 20
9.6931
 30
5.39
 70
    64
  0
VERTEX
  5
45E2C
100
AcDbEntity
  8
0
100
AcDbVertex
100
AcDbPolygonMeshVertex
 10
0.068
 20
8.912
 30
5.39
 70
    64
  0
VERTEX
  5
45E2D
100
AcDbEntity
  8
0
100
AcDbVertex
100
AcDbPolygonMeshVertex
 10
0.068
 20
9.6931
 30
5.747
 70
    64
  0
VERTEX
  5
45E2E
100
AcDbEntity
  8
0
100
AcDbVertex
100
AcDbPolygonMeshVertex
 10
0.068
 20
9.6931
 30
5.747
 70
    64
  0
VERTEX
  5
45E2F
100
AcDbEntity
  8
0
100
AcDbVertex
100
AcDbPolygonMeshVertex
 10
0.068
 20
8.912
 30
5.747
 70
    64
  0
VERTEX
  5
45E30
100
AcDbEntity
  8
0
100
AcDbVertex
100
AcDbPolygonMeshVertex
 10
0.0
 20
9.6931
 30
5.747
 70
    64
  0
VERTEX
  5
45E31
100
AcDbEntity
  8
0
100
AcDbVertex
100
AcDbPolygonMeshVertex
 10
0.0
 20
9.6931
 30
5.747
 70
    64
  0
VERTEX
  5
45E32
100
AcDbEntity
  8
0
100
AcDbVertex
100
AcDbPolygonMeshVertex
 10
0.0
 20
8.912
 30
5.747
 70
    64
  0
SEQEND
  5
45E33
100
AcDbEntity
  8
0
  0
POLYLINE
  5
45E34
100
AcDbEntity
  8
0
100
AcDbPolygonMesh
 66
     1
 10
0.0
 20
0.0
 30
0.0
 70
    16
 71
     6
 72
     3
  0
VERTEX
  5
45E35
100
AcDbEntity
  8
0
100
AcDbVertex
100
AcDbPolygonMeshVertex
 10
0.136
 20
9.0811
 30
5.747
 70
    64
  0
VERTEX
  5
45E36
100
AcDbEntity
  8
0
100
AcDbVertex
100
AcDbPolygonMeshVertex
 10
0.136
 20
9.0811
 30
5.747
 70
    64
  0
VERTEX
  5
45E37
100
AcDbEntity
  8
0
100
AcDbVertex
100
AcDbPolygonMeshVertex
 10
0.136
 20
9.0811
 30
5.747
 70
    64
  0
VERTEX
  5
45E38
100
AcDbEntity
  8
0
100
AcDbVertex
100
AcDbPolygonMeshVertex
 10
0.136
 20
9.6931
 30
5.437
 70
    64
  0
VERTEX
  5
45E39
100
AcDbEntity
  8
0
100
AcDbVertex
100
AcDbPolygonMeshVertex
 10
0.136
 20
9.6931
 30
5.747
 70
    64
  0
VERTEX
  5
45E3A
100
AcDbEntity
  8
0
100
AcDbVertex
100
AcDbPolygonMeshVertex
 10
0.136
 20
9.6931
 30
5.747
 70
    64
  0
VERTEX
  5
45E3B
100
AcDbEntity
  8
0
100
AcDbVertex
100
AcDbPolygonMeshVertex
 10
0.068
 20
9.6931
 30
5.437
 70
    64
  0
VERTEX
  5
45E3C
100
AcDbEntity
  8
0
100
AcDbVertex
100
AcDbPolygonMeshVertex
 10
0.068
 20
9.6931
 30
5.747
 70
    64
  0
VERTEX
  5
45E3D
100
AcDbEntity
  8
0
100
AcDbVertex
100
AcDbPolygonMeshVertex
 10
0.136
 20
9.6931
 30
5.747
 70
    64
  0
VERTEX
  5
45E3E
100
AcDbEntity
  8
0
100
AcDbVertex
100
AcDbPolygonMeshVertex
 10
0.068
 20
9.0811
 30
5.747
 70
    64
  0
VERTEX
  5
45E3F
100
AcDbEntity
  8
0
100
AcDbVertex
100
AcDbPolygonMeshVertex
 10
0.068
 20
9.0811
 30
5.747
 70
    64
  0
VERTEX
  5
45E40
100
AcDbEntity
  8
0
100
AcDbVertex
100
AcDbPolygonMeshVertex
 10
0.136
 20
9.0811
 30
5.747
 70
    64
  0
VERTEX
  5
45E41
100
AcDbEntity
  8
0
100
AcDbVertex
100
AcDbPolygonMeshVertex
 10
0.068
 20
9.0811
 30
5.747
 70
    64
  0
VERTEX
  5
45E42
100
AcDbEntity
  8
0
100
AcDbVertex
100
AcDbPolygonMeshVertex
 10
0.068
 20
9.0811
 30
5.747
 70
    64
  0
VERTEX
  5
45E43
100
AcDbEntity
  8
0
100
AcDbVertex
100
AcDbPolygonMeshVertex
 10
0.136
 20
9.0811
 30
5.747
 70
    64
  0
VERTEX
  5
45E44
100
AcDbEntity
  8
0
100
AcDbVertex
100
AcDbPolygonMeshVertex
 10
0.068
 20
9.6931
 30
5.437
 70
    64
  0
VERTEX
  5
45E45
100
AcDbEntity
  8
0
100
AcDbVertex
100
AcDbPolygonMeshVertex
 10
0.068
 20
9.6931
 30
5.437
 70
    64
  0
VERTEX
  5
45E46
100
AcDbEntity
  8
0
100
AcDbVertex
100
AcDbPolygonMeshVertex
 10
0.136
 20
9.6931
 30
5.437
 70
    64
  0
SEQEND
  5
45E47
100
AcDbEntity
  8
0
  0
POLYLINE
  5
45E48
100
AcDbEntity
  8
0
100
AcDbPolygonMesh
 66
     1
 10
0.0
 20
0.0
 30
0.0
 70
    16
 71
     6
 72
     3
  0
VERTEX
  5
45E49
100
AcDbEntity
  8
0
100
AcDbVertex
100
AcDbPolygonMeshVertex
 10
0.0
 20
9.0811
 30
5.747
 70
    64
  0
VERTEX
  5
45E4A
100
AcDbEntity
  8
0
100
AcDbVertex
100
AcDbPolygonMeshVertex
 10
0.0
 20
9.0811
 30
5.747
 70
    64
  0
VERTEX
  5
45E4B
100
AcDbEntity
  8
0
100
AcDbVertex
100
AcDbPolygonMeshVertex
 10
0.0
 20
9.0811
 30
5.747
 70
    64
  0
VERTEX
  5
45E4C
100
AcDbEntity
  8
0
100
AcDbVertex
100
AcDbPolygonMeshVertex
 10
0.0
 20
9.6931
 30
5.437
 70
    64
  0
VERTEX
  5
45E4D
100
AcDbEntity
  8
0
100
AcDbVertex
100
AcDbPolygonMeshVertex
 10
0.0
 20
9.6931
 30
5.747
 70
    64
  0
VERTEX
  5
45E4E
100
AcDbEntity
  8
0
100
AcDbVertex
100
AcDbPolygonMeshVertex
 10
0.0
 20
9.6931
 30
5.747
 70
    64
  0
VERTEX
  5
45E4F
100
AcDbEntity
  8
0
100
AcDbVertex
100
AcDbPolygonMeshVertex
 10
-0.068
 20
9.6931
 30
5.437
 70
    64
  0
VERTEX
  5
45E50
100
AcDbEntity
  8
0
100
AcDbVertex
100
AcDbPolygonMeshVertex
 10
-0.068
 20
9.6931
 30
5.747
 70
    64
  0
VERTEX
  5
45E51
100
AcDbEntity
  8
0
100
AcDbVertex
100
AcDbPolygonMeshVertex
 10
0.0
 20
9.6931
 30
5.747
 70
    64
  0
VERTEX
  5
45E52
100
AcDbEntity
  8
0
100
AcDbVertex
100
AcDbPolygonMeshVertex
 10
-0.068
 20
9.0811
 30
5.747
 70
    64
  0
VERTEX
  5
45E53
100
AcDbEntity
  8
0
100
AcDbVertex
100
AcDbPolygonMeshVertex
 10
-0.068
 20
9.0811
 30
5.747
 70
    64
  0
VERTEX
  5
45E54
100
AcDbEntity
  8
0
100
AcDbVertex
100
AcDbPolygonMeshVertex
 10
0.0
 20
9.0811
 30
5.747
 70
    64
  0
VERTEX
  5
45E55
100
AcDbEntity
  8
0
100
AcDbVertex
100
AcDbPolygonMeshVertex
 10
-0.068
 20
9.0811
 30
5.747
 70
    64
  0
VERTEX
  5
45E56
100
AcDbEntity
  8
0
100
AcDbVertex
100
AcDbPolygonMeshVertex
 10
-0.068
 20
9.0811
 30
5.747
 70
    64
  0
VERTEX
  5
45E57
100
AcDbEntity
  8
0
100
AcDbVertex
100
AcDbPolygonMeshVertex
 10
0.0
 20
9.0811
 30
5.747
 70
    64
  0
VERTEX
  5
45E58
100
AcDbEntity
  8
0
100
AcDbVertex
100
AcDbPolygonMeshVertex
 10
-0.068
 20
9.6931
 30
5.437
 70
    64
  0
VERTEX
  5
45E59
100
AcDbEntity
  8
0
100
AcDbVertex
100
AcDbPolygonMeshVertex
 10
-0.068
 20
9.6931
 30
5.437
 70
    64
  0
VERTEX
  5
45E5A
100
AcDbEntity
  8
0
100
AcDbVertex
100
AcDbPolygonMeshVertex
 10
0.0
 20
9.6931
 30
5.437
 70
    64
  0
SEQEND
  5
45E5B
100
AcDbEntity
  8
0
  0
CIRCLE
  5
45E5C
100
AcDbEntity
  8
0
100
AcDbCircle
 10
9.586379
 20
5.592
 30
0.136
 40
0.05206
210
1.0
220
0.0
230
0.0
  0
CIRCLE
  5
45E5D
100
AcDbEntity
  8
0
100
AcDbCircle
 10
9.586379
 20
5.592
 30
-0.068
 40
0.05206
210
1.0
220
0.0
230
0.0
  0
LINE
  5
45E5E
100
AcDbEntity
  8
0
100
AcDbLine
 10
-0.118602
 20
8.273372
 30
5.88
 11
-0.098498
 21
8.258304
 31
5.88
  0
LINE
  5
45E5F
100
AcDbEntity
  8
0
100
AcDbLine
 10
-0.108549
 20
8.187981
 30
5.88
 11
-0.103525
 21
8.167888
 31
5.88
  0
LINE
  5
45E60
100
AcDbEntity
  8
0
100
AcDbLine
 10
-0.098498
 20
8.122682
 30
5.88
 11
-0.108549
 21
8.102589
 31
5.88
  0
TEXT
  5
45E61
100
AcDbEntity
  8
0
100
AcDbText
 39
0.001
 10
-0.597436
 20
8.099748
 30
5.879973
 40
0.05
  1
RUN
 72
     1
 11
-0.53077
 21
8.099748
 31
5.879973
100
AcDbText
  0
LINE
  5
45E62
100
AcDbEntity
  8
0
100
AcDbLine
 10
-0.259316
 20
8.258304
 30
5.88
 11
-0.239216
 21
8.273372
 31
5.88
  0
LINE
  5
45E63
100
AcDbEntity
  8
0
100
AcDbLine
 10
-0.244239
 20
8.193004
 30
5.88
 11
-0.229163
 21
8.208073
 31
5.88
  0
LINE
  5
45E64
100
AcDbEntity
  8
0
100
AcDbLine
 10
-0.224137
 20
8.072449
 30
5.88
 11
-0.244239
 21
8.087522
 31
5.88
  0
LINE
  5
45E65
100
AcDbEntity
  8
0
100
AcDbLine
 10
-0.284443
 20
8.187981
 30
5.88
 11
-0.284443
 21
8.213095
 31
5.88
  0
LINE
  5
45E66
100
AcDbEntity
  8
0
100
AcDbLine
 10
-0.284443
 20
8.213095
 30
5.88
 11
-0.274394
 21
8.238211
 31
5.88
  0
LINE
  5
45E67
100
AcDbEntity
  8
0
100
AcDbLine
 10
-0.274394
 20
8.238211
 30
5.88
 11
-0.259316
 21
8.258304
 31
5.88
  0
LINE
  5
45E68
100
AcDbEntity
  8
0
100
AcDbLine
 10
-0.259316
 20
8.172912
 30
5.88
 11
-0.244239
 21
8.193004
 31
5.88
  0
LINE
  5
45E69
100
AcDbEntity
  8
0
100
AcDbLine
 10
-0.264343
 20
8.147796
 30
5.88
 11
-0.259316
 21
8.172912
 31
5.88
  0
LINE
  5
45E6A
100
AcDbEntity
  8
0
100
AcDbLine
 10
-0.244239
 20
8.087522
 30
5.88
 11
-0.25429
 21
8.107611
 31
5.88
  0
LINE
  5
45E6B
100
AcDbEntity
  8
0
100
AcDbLine
 10
-0.25429
 20
8.107611
 30
5.88
 11
-0.259316
 21
8.127703
 31
5.88
  0
LINE
  5
45E6C
100
AcDbEntity
  8
0
100
AcDbLine
 10
-0.259316
 20
8.127703
 30
5.88
 11
-0.264343
 21
8.147796
 31
5.88
  0
LINE
  5
45E6D
100
AcDbEntity
  8
0
100
AcDbLine
 10
-0.229163
 20
8.208073
 30
5.88
 11
-0.209061
 21
8.218119
 31
5.88
  0
LINE
  5
45E6E
100
AcDbEntity
  8
0
100
AcDbLine
 10
-0.209061
 20
8.218119
 30
5.88
 11
-0.188959
 21
8.223142
 31
5.88
  0
LINE
  5
45E6F
100
AcDbEntity
  8
0
100
AcDbLine
 10
-0.188959
 20
8.223142
 30
5.88
 11
-0.163831
 21
8.223142
 31
5.88
  0
LINE
  5
45E70
100
AcDbEntity
  8
0
100
AcDbLine
 10
-0.163831
 20
8.223142
 30
5.88
 11
-0.143729
 21
8.218119
 31
5.88
  0
LINE
  5
45E71
100
AcDbEntity
  8
0
100
AcDbLine
 10
-0.143729
 20
8.218119
 30
5.88
 11
-0.123626
 21
8.20305
 31
5.88
  0
LINE
  5
45E72
100
AcDbEntity
  8
0
100
AcDbLine
 10
-0.123626
 20
8.20305
 30
5.88
 11
-0.108549
 21
8.187981
 31
5.88
  0
LINE
  5
45E73
100
AcDbEntity
  8
0
100
AcDbLine
 10
-0.108549
 20
8.102589
 30
5.88
 11
-0.123626
 21
8.082497
 31
5.88
  0
LINE
  5
45E74
100
AcDbEntity
  8
0
100
AcDbLine
 10
-0.123626
 20
8.082497
 30
5.88
 11
-0.138704
 21
8.06743
 31
5.88
  0
LINE
  5
45E75
100
AcDbEntity
  8
0
100
AcDbLine
 10
-0.138704
 20
8.06743
 30
5.88
 11
-0.158806
 21
8.062406
 31
5.88
  0
LINE
  5
45E76
100
AcDbEntity
  8
0
100
AcDbLine
 10
-0.158806
 20
8.062406
 30
5.88
 11
-0.183933
 21
8.05738
 31
5.88
  0
LINE
  5
45E77
100
AcDbEntity
  8
0
100
AcDbLine
 10
-0.183933
 20
8.05738
 30
5.88
 11
-0.204035
 21
8.062406
 31
5.88
  0
LINE
  5
45E78
100
AcDbEntity
  8
0
100
AcDbLine
 10
-0.204035
 20
8.062406
 30
5.88
 11
-0.224137
 21
8.072449
 31
5.88
  0
LINE
  5
45E79
100
AcDbEntity
  8
0
100
AcDbLine
 10
-0.239216
 20
8.273372
 30
5.88
 11
-0.214086
 21
8.288441
 31
5.88
  0
LINE
  5
45E7A
100
AcDbEntity
  8
0
100
AcDbLine
 10
-0.214086
 20
8.288441
 30
5.88
 11
-0.188959
 21
8.293465
 31
5.88
  0
LINE
  5
45E7B
100
AcDbEntity
  8
0
100
AcDbLine
 10
-0.188959
 20
8.293465
 30
5.88
 11
-0.163831
 21
8.293465
 31
5.88
  0
LINE
  5
45E7C
100
AcDbEntity
  8
0
100
AcDbLine
 10
-0.163831
 20
8.293465
 30
5.88
 11
-0.138704
 21
8.288441
 31
5.88
  0
LINE
  5
45E7D
100
AcDbEntity
  8
0
100
AcDbLine
 10
-0.138704
 20
8.288441
 30
5.88
 11
-0.118602
 21
8.273372
 31
5.88
  0
TEXT
  5
45E7E
100
AcDbEntity
  8
0
100
AcDbText
 39
0.001
 10
-0.431448
 20
8.494051
 30
5.879973
 40
0.05
  1
(12 BIT)
 72
     1
 11
-0.273115
 21
8.494051
 31
5.879973
100
AcDbText
  0
TEXT
  5
45E7F
100
AcDbEntity
  8
0
100
AcDbText
 39
0.001
 10
-0.389781
 20
8.594051
 30
5.879973
 40
0.05
  1
OUT
 72
     1
 11
-0.323115
 21
8.594051
 31
5.879973
100
AcDbText
  0
TEXT
  5
45E80
100
AcDbEntity
  8
0
100
AcDbText
 39
0.001
 10
-0.464781
 20
8.669051
 30
5.879973
 40
0.05
  1
ANALOG
 72
     1
 11
-0.323115
 21
8.669051
 31
5.879973
100
AcDbText
  0
LINE
  5
45E81
100
AcDbEntity
  8
0
100
AcDbLine
 10
0.085215
 20
8.769875
 30
5.88
 11
0.085215
 21
8.368034
 31
5.88
  0
LINE
  5
45E82
100
AcDbEntity
  8
0
100
AcDbLine
 10
-0.098498
 20
8.258304
 30
5.88
 11
-0.083422
 21
8.238211
 31
5.88
  0
LINE
  5
45E83
100
AcDbEntity
  8
0
100
AcDbLine
 10
-0.083422
 20
8.238211
 30
5.88
 11
-0.073371
 21
8.213095
 31
5.88
  0
LINE
  5
45E84
100
AcDbEntity
  8
0
100
AcDbLine
 10
-0.073371
 20
8.213095
 30
5.88
 11
-0.068345
 21
8.187981
 31
5.88
  0
LINE
  5
45E85
100
AcDbEntity
  8
0
100
AcDbLine
 10
-0.098498
 20
8.142772
 30
5.88
 11
-0.098498
 21
8.122682
 31
5.88
  0
LINE
  5
45E86
100
AcDbEntity
  8
0
100
AcDbLine
 10
-0.103525
 20
8.167888
 30
5.88
 11
-0.098498
 21
8.142772
 31
5.88
  0
DIMENSION
  5
45E88
100
AcDbEntity
  8
AREA1
100
AcDbDimension
  2
*D0
 10
1.272481
 20
10.0432
 30
0.0
 11
1.272481
 21
4.740327
 31
0.0
 70
    32
  3
ABECAD_3D
100
AcDbAlignedDimension
 13
-0.226368
 23
-0.562545
 33
5.88
 14
0.265
 24
10.0432
 34
5.747
 50
90.0
100
AcDbRotatedDimension
  0
DIMENSION
  5
45E96
100
AcDbEntity
  8
AREA1
100
AcDbDimension
  2
*D1
 10
0.27
 20
10.741904
 30
0.0
 11
1.59
 21
10.741904
 31
0.0
 70
    32
  3
ABECAD_3D
100
AcDbAlignedDimension
 13
-1.025435
 23
0.31539
 33
5.88
 14
0.27
 24
9.8
 34
0.0
100
AcDbRotatedDimension
  0
LINE
  5
45ED9
100
AcDbEntity
  8
SCALE
100
AcDbLine
 10
-0.99642
 20
-1.200527
 30
0.0
 11
0.00358
 21
-1.200527
 31
0.0
  0
LINE
  5
45EDA
100
AcDbEntity
  8
SCALE
100
AcDbLine
 10
0.00358
 20
-1.200527
 30
0.0
 11
0.00358
 21
-1.300527
 31
0.0
  0
LINE
  5
45EDB
100
AcDbEntity
  8
SCALE
100
AcDbLine
 10
0.00358
 20
-1.300527
 30
0.0
 11
0.00358
 21
-1.100527
 31
0.0
  0
LINE
  5
45EDC
100
AcDbEntity
  8
SCALE
100
AcDbLine
 10
-0.99642
 20
-1.300527
 30
0.0
 11
-0.99642
 21
-1.100527
 31
0.0
  0
LINE
  5
45EDD
100
AcDbEntity
  8
SCALE
100
AcDbLine
 10
-0.99642
 20
-1.600527
 30
0.0
 11
-0.99642
 21
-1.400527
 31
0.0
  0
LINE
  5
45EDE
100
AcDbEntity
  8
SCALE
100
AcDbLine
 10
-0.60272
 20
-1.600527
 30
0.0
 11
-0.60272
 21
-1.400527
 31
0.0
  0
LINE
  5
45EDF
100
AcDbEntity
  8
SCALE
100
AcDbLine
 10
-0.99642
 20
-1.500527
 30
0.0
 11
-0.60272
 21
-1.500527
 31
0.0
  0
TEXT
  5
45EE0
100
AcDbEntity
  8
SCALE
100
AcDbText
 10
-0.936997
 20
-1.454787
 30
0.0
 40
0.0625
  1
[10mm]
100
AcDbText
  0
TEXT
  5
45EE1
100
AcDbEntity
  8
SCALE
100
AcDbText
 10
-0.633137
 20
-1.131478
 30
0.0
 40
0.0625
  1
1 Inch
100
AcDbText
  0
TEXT
  5
45EE2
100
AcDbEntity
  8
SCALE
100
AcDbText
 10
-0.994889
 20
-0.92565
 30
0.0
 40
0.0625
  1
SCALE:
100
AcDbText
  0
LWPOLYLINE
  5
45EE3
100
AcDbEntity
  8
SCALE
100
AcDbPolyline
 90
        4
 70
     1
 43
0.0
 10
-1.054418
 20
-0.820449
 10
0.081211
 20
-0.820449
 10
0.081211
 20
-1.662058
 10
-1.054418
 20
-1.662058
  0
ENDSEC
  0
SECTION
  2
OBJECTS
  0
DICTIONARY
  5
458CB
100
AcDbDictionary
  3
ACAD_GROUP
350
458CC
  3
ACAD_LAYOUT
350
458FB
  3
ACAD_MLINESTYLE
350
458D9
  3
ACAD_PLOTSETTINGS
350
458FC
  3
ACAD_PLOTSTYLENAME
350
458F9
  3
ACDBHEADERROUNDTRIPXREC
350
45F50
  3
ACDBVARIABLEDICTIONARY
350
458E1
  3
DWGPROPS
350
45901
  0
DICTIONARY
  5
45F4E
100
AcDbDictionary
280
     1
  3
ACAD_XREC_ROUNDTRIP
360
45F4F
  0
DICTIONARY
  5
45F79
100
AcDbDictionary
280
     1
  3
ACAD_XREC_ROUNDTRIP
360
45F7A
  0
DICTIONARY
  5
45F4C
100
AcDbDictionary
280
     1
  3
ACAD_XREC_ROUNDTRIP
360
45F4D
  0
DICTIONARY
  5
45F73
100
AcDbDictionary
280
     1
  3
ACAD_XREC_ROUNDTRIP
360
45F74
  0
DICTIONARY
  5
45F75
100
AcDbDictionary
280
     1
  3
ACAD_XREC_ROUNDTRIP
360
45F76
  0
DICTIONARY
  5
4592C
100
AcDbDictionary
280
     1
  3
ACAD_LAYOUTSELFREF
360
45F72
  0
DICTIONARY
  5
4592A
100
AcDbDictionary
280
     1
  3
ACAD_LAYOUTSELFREF
360
45F71
  0
DICTIONARY
  5
458CC
102
{ACAD_REACTORS
330
458CB
102
}
100
AcDbDictionary
  0
DICTIONARY
  5
458FB
102
{ACAD_XDICTIONARY
360
45F77
102
}
102
{ACAD_REACTORS
330
458CB
102
}
100
AcDbDictionary
  3
LAYOUT1
350
458FE
  3
MODEL
350
458FD
  0
DICTIONARY
  5
458D9
102
{ACAD_REACTORS
330
458CB
102
}
100
AcDbDictionary
  3
STANDARD
350
458DA
  0
DICTIONARY
  5
458FC
102
{ACAD_REACTORS
330
458CB
102
}
100
AcDbDictionary
  0
ACAD_PROXY_OBJECT
  5
458F9
102
{ACAD_REACTORS
330
458CB
102
}
100
AcDbProxyObject
 90
      499
 91
      501
 93
       86
310
405010041939BDC9B585B2
350
458FA
340
458FA
 94
        0
  0
DICTIONARY
  5
45F50
102
{ACAD_REACTORS
330
458CB
102
}
100
AcDbDictionary
  3
CEPSNTYPE
350
45F5A
  3
DIMSTYLEDATA
350
45F5E
  3
FINGERPRINTGUID
350
45F5B
  3
HYPERLINKBASE
350
45F53
  3
INSUNITS
350
45F59
  3
LAYOUTDICT
350
45F55
  3
LWETCUNION
350
45F58
  3
PLOTSETDICT
350
45F56
  3
PLOTSTYLNAMDICT
350
45F57
  3
PSVPSCALE
350
45F5D
  3
PUCSBASE
350
45F61
  3
PUCSORGBACK
350
45F67
  3
PUCSORGBOTTOM
350
45F63
  3
PUCSORGFRONT
350
45F66
  3
PUCSORGLEFT
350
45F64
  3
PUCSORGRIGHT
350
45F65
  3
PUCSORGTOP
350
45F62
  3
PUCSORTHOREF
350
45F5F
  3
PUCSORTHOVIEW
350
45F60
  3
STYLESHEET
350
45F54
  3
TSTACKALIGN
350
45F51
  3
TSTACKSIZE
350
45F52
  3
UCSBASE
350
45F6A
  3
UCSORGBACK
350
45F70
  3
UCSORGBOTTOM
350
45F6C
  3
UCSORGFRONT
350
45F6F
  3
UCSORGLEFT
350
45F6D
  3
UCSORGRIGHT
350
45F6E
  3
UCSORGTOP
350
45F6B
  3
UCSORTHOREF
350
45F68
  3
UCSORTHOVIEW
350
45F69
  3
VERSIONGUID
350
45F5C
  0
DICTIONARY
  5
458E1
102
{ACAD_REACTORS
330
458CB
102
}
100
AcDbDictionary
  3
DIMADEC
350
458E2
  0
XRECORD
  5
45901
102
{ACAD_REACTORS
330
458CB
102
}
100
AcDbXrecord
  1
DWGPROPS COOKIE
  2

  3

  4

  6

  7

  8
colin
  9

300
=
301
=
302
=
303
=
304
=
305
=
306
=
307
=
308
=
309
=
 40
0.000599
 41
2451670.444777
 42
2451670.445376
  1

 90
        0
  0
XRECORD
  5
45F4F
102
{ACAD_REACTORS
330
45F4E
102
}
100
AcDbXrecord
102
EXTNAMES
  1
*ACTIVE
  2
*Active
102
UCS
 74
     0
 71
     1
 10
0.0
 20
0.0
 30
0.0
 10
1.0
 20
0.0
 30
0.0
 10
0.0
 20
1.0
 30
0.0
146
0.0
 79
     1
102
VIEW
281
     0
  0
XRECORD
  5
45F7A
102
{ACAD_REACTORS
330
45F79
102
}
100
AcDbXrecord
102
PLOTBIT
280
     0
  0
XRECORD
  5
45F4D
102
{ACAD_REACTORS
330
45F4C
102
}
100
AcDbXrecord
102
EXTNAMES
  1
DEFPOINTS
  2
Defpoints
102
PLOTBIT
280
     0
  0
XRECORD
  5
45F74
102
{ACAD_REACTORS
330
45F73
102
}
100
AcDbXrecord
102
ACADR14ROUNDTRIP
1000
DSTYLE
1002
{
1070
   276
 70
     2
1070
   277
 70
     5
1002
}
  0
XRECORD
  5
45F76
102
{ACAD_REACTORS
330
45F75
102
}
100
AcDbXrecord
102
ACADR14ROUNDTRIP
1000
DSTYLE
1002
{
1070
   276
 70
     2
1070
   277
 70
     5
1002
}
  0
XRECORD
  5
45F72
102
{ACAD_REACTORS
330
4592C
102
}
100
AcDbXrecord
340
458D6
  0
XRECORD
  5
45F71
102
{ACAD_REACTORS
330
4592A
102
}
100
AcDbXrecord
340
458D3
  0
DICTIONARY
  5
45F77
100
AcDbDictionary
280
     1
  3
ACAD_XREC_ROUNDTRIP
360
45F78
  0
ACAD_PROXY_OBJECT
  5
458FE
102
{ACAD_REACTORS
330
458FB
102
}
100
AcDbProxyObject
 90
      499
 91
      503
 93
     1348
310
91D4850204C617365724A65742035303030205365726965732050434C20362C00AAAAAA416AA547D11959985D5B1D08148C4D081C195B88185CDCDA59DB9B595B9D1CCB98DD1891069074C61796F75743140501A800000000000000000000000000000000000000000000A1000000000000008902A6A6A10232D5E076BC551
310
0408CB5781DAF154410232D5E076BC5510408CB5781DAF15C410232D5E076BC5710408CB5781DAF15C40
330
458D3
330
0
340
0
340
0
 94
        0
  0
ACAD_PROXY_OBJECT
  5
458FD
102
{ACAD_REACTORS
330
458FB
102
}
100
AcDbProxyObject
 90
      499
 91
      503
 93
      924
310
91D4850204C617365724A65742035303030205365726965732050434C20362C01AAAAAAAAA547D11959985D5B1D08148C4D081C195B88185CDCDA59DB9B595B9D1CCB98DD18A69054D6F64656C901A800000000000000000000000000000000000000000000A1000000000000008902A6A6AAAA0
330
458D6
330
0
340
0
340
0
 94
        0
  0
MLINESTYLE
  5
458DA
102
{ACAD_REACTORS
330
458D9
102
}
100
AcDbMlineStyle
  2
STANDARD
 70
     0
  3

 62
   256
 51
90.0
 52
90.0
 71
     2
 49
0.5
 62
   256
  6
BYLAYER
 49
-0.5
 62
   256
  6
BYLAYER
  0
ACAD_PROXY_OBJECT
  5
458FA
102
{ACAD_REACTORS
330
458F9
102
}
100
AcDbProxyObject
 90
      499
 91
      502
 93
        0
 94
        0
  0
XRECORD
  5
45F5A
102
{ACAD_REACTORS
330
45F50
102
}
100
AcDbXrecord
 90
        0
  0
XRECORD
  5
45F5E
102
{ACAD_REACTORS
330
45F50
102
}
100
AcDbXrecord
1000
DSTYLE
1002
{
1070
   276
 70
     2
1070
   277
 70
     5
1002
}
  0
XRECORD
  5
45F5B
102
{ACAD_REACTORS
330
45F50
102
}
100
AcDbXrecord
  1
{6E0CF4B8-225E-11D4-A150-00A0CC3303EC}
  0
XRECORD
  5
45F53
102
{ACAD_REACTORS
330
45F50
102
}
100
AcDbXrecord
  1

  0
XRECORD
  5
45F59
102
{ACAD_REACTORS
330
45F50
102
}
100
AcDbXrecord
 90
        0
  0
XRECORD
  5
45F55
102
{ACAD_REACTORS
330
45F50
102
}
100
AcDbXrecord
340
458FB
  0
XRECORD
  5
45F58
102
{ACAD_REACTORS
330
45F50
102
}
100
AcDbXrecord
 90
    14877
  0
XRECORD
  5
45F56
102
{ACAD_REACTORS
330
45F50
102
}
100
AcDbXrecord
340
458FC
  0
XRECORD
  5
45F57
102
{ACAD_REACTORS
330
45F50
102
}
100
AcDbXrecord
340
458F9
  0
XRECORD
  5
45F5D
102
{ACAD_REACTORS
330
45F50
102
}
100
AcDbXrecord
 40
0.0
  0
XRECORD
  5
45F61
102
{ACAD_REACTORS
330
45F50
102
}
100
AcDbXrecord
340
0
  0
XRECORD
  5
45F67
102
{ACAD_REACTORS
330
45F50
102
}
100
AcDbXrecord
 10
0.0
 20
0.0
 30
0.0
  0
XRECORD
  5
45F63
102
{ACAD_REACTORS
330
45F50
102
}
100
AcDbXrecord
 10
0.0
 20
0.0
 30
0.0
  0
XRECORD
  5
45F66
102
{ACAD_REACTORS
330
45F50
102
}
100
AcDbXrecord
 10
0.0
 20
0.0
 30
0.0
  0
XRECORD
  5
45F64
102
{ACAD_REACTORS
330
45F50
102
}
100
AcDbXrecord
 10
0.0
 20
0.0
 30
0.0
  0
XRECORD
  5
45F65
102
{ACAD_REACTORS
330
45F50
102
}
100
AcDbXrecord
 10
0.0
 20
0.0
 30
0.0
  0
XRECORD
  5
45F62
102
{ACAD_REACTORS
330
45F50
102
}
100
AcDbXrecord
 10
0.0
 20
0.0
 30
0.0
  0
XRECORD
  5
45F5F
102
{ACAD_REACTORS
330
45F50
102
}
100
AcDbXrecord
340
0
  0
XRECORD
  5
45F60
102
{ACAD_REACTORS
330
45F50
102
}
100
AcDbXrecord
 70
     0
  0
XRECORD
  5
45F54
102
{ACAD_REACTORS
330
45F50
102
}
100
AcDbXrecord
  1

  0
XRECORD
  5
45F51
102
{ACAD_REACTORS
330
45F50
102
}
100
AcDbXrecord
 90
        1
  0
XRECORD
  5
45F52
102
{ACAD_REACTORS
330
45F50
102
}
100
AcDbXrecord
 90
       70
  0
XRECORD
  5
45F6A
102
{ACAD_REACTORS
330
45F50
102
}
100
AcDbXrecord
340
0
  0
XRECORD
  5
45F70
102
{ACAD_REACTORS
330
45F50
102
}
100
AcDbXrecord
 10
0.0
 20
0.0
 30
0.0
  0
XRECORD
  5
45F6C
102
{ACAD_REACTORS
330
45F50
102
}
100
AcDbXrecord
 10
0.0
 20
0.0
 30
0.0
  0
XRECORD
  5
45F6F
102
{ACAD_REACTORS
330
45F50
102
}
100
AcDbXrecord
 10
0.0
 20
0.0
 30
0.0
  0
XRECORD
  5
45F6D
102
{ACAD_REACTORS
330
45F50
102
}
100
AcDbXrecord
 10
0.0
 20
0.0
 30
0.0
  0
XRECORD
  5
45F6E
102
{ACAD_REACTORS
330
45F50
102
}
100
AcDbXrecord
 10
0.0
 20
0.0
 30
0.0
  0
XRECORD
  5
45F6B
102
{ACAD_REACTORS
330
45F50
102
}
100
AcDbXrecord
 10
0.0
 20
0.0
 30
0.0
  0
XRECORD
  5
45F68
102
{ACAD_REACTORS
330
45F50
102
}
100
AcDbXrecord
340
0
  0
XRECORD
  5
45F69
102
{ACAD_REACTORS
330
45F50
102
}
100
AcDbXrecord
 70
     1
  0
XRECORD
  5
45F5C
102
{ACAD_REACTORS
330
45F50
102
}
100
AcDbXrecord
  1
{0FCF7EEA-548F-49DE-A701-7A9B40C998CB}
  0
DICTIONARYVAR
  5
458E2
102
{ACAD_REACTORS
330
458E1
102
}
100
DictionaryVariables
280
     0
  1
0
  0
XRECORD
  5
45F78
102
{ACAD_REACTORS
330
45F77
102
}
100
AcDbXrecord
102
EXTNAMES
  1
LAYOUT1
  2
Layout1
  1
MODEL
  2
Model
  0
ENDSEC
  0
EOF
