  0
SECTION
  2
HEADER
  9
$ACADVER
  1
AC1014
  9
$ACADMAINTVER
 70
     8
  9
$DWGCODEPAGE
  3
ANSI_1252
  9
$INSBASE
 10
0.0
 20
0.0
 30
0.0
  9
$EXTMIN
 10
-0.776749
 20
-3.311395
 30
0.0
  9
$EXTMAX
 10
2.183645
 20
1.406405
 30
4.11
  9
$LIMMIN
 10
0.0
 20
0.0
  9
$LIMMAX
 10
12.0
 20
9.0
  9
$ORTHOMODE
 70
     0
  9
$REGENMODE
 70
     1
  9
$FILLMODE
 70
     1
  9
$QTEXTMODE
 70
     0
  9
$MIRRTEXT
 70
     1
  9
$DRAGMODE
 70
     2
  9
$LTSCALE
 40
1.0
  9
$OSMODE
 70
    37
  9
$ATTMODE
 70
     1
  9
$TEXTSIZE
 40
0.12
  9
$TRACEWID
 40
0.05
  9
$TEXTSTYLE
  7
STANDARD
  9
$CLAYER
  8
0
  9
$CELTYPE
  6
BYLAYER
  9
$CECOLOR
 62
   256
  9
$CELTSCALE
 40
1.0
  9
$DELOBJ
 70
     1
  9
$DISPSILH
 70
     0
  9
$DIMSCALE
 40
1.0
  9
$DIMASZ
 40
0.18
  9
$DIMEXO
 40
0.0625
  9
$DIMDLI
 40
0.375
  9
$DIMRND
 40
0.0
  9
$DIMDLE
 40
0.0
  9
$DIMEXE
 40
0.18
  9
$DIMTP
 40
0.0
  9
$DIMTM
 40
0.0
  9
$DIMTXT
 40
0.14
  9
$DIMCEN
 40
0.09
  9
$DIMTSZ
 40
0.0
  9
$DIMTOL
 70
     0
  9
$DIMLIM
 70
     0
  9
$DIMTIH
 70
     0
  9
$DIMTOH
 70
     1
  9
$DIMSE1
 70
     0
  9
$DIMSE2
 70
     0
  9
$DIMTAD
 70
     0
  9
$DIMZIN
 70
     4
  9
$DIMBLK
  1

  9
$DIMASO
 70
     1
  9
$DIMSHO
 70
     1
  9
$DIMPOST
  1

  9
$DIMAPOST
  1

  9
$DIMALT
 70
     1
  9
$DIMALTD
 70
     2
  9
$DIMALTF
 40
25.4
  9
$DIMLFAC
 40
1.0
  9
$DIMTOFL
 70
     0
  9
$DIMTVP
 40
0.0
  9
$DIMTIX
 70
     0
  9
$DIMSOXD
 70
     0
  9
$DIMSAH
 70
     0
  9
$DIMBLK1
  1

  9
$DIMBLK2
  1

  9
$DIMSTYLE
  2
ABECAD_3D
  9
$DIMCLRD
 70
     0
  9
$DIMCLRE
 70
     0
  9
$DIMCLRT
 70
     0
  9
$DIMTFAC
 40
1.5
  9
$DIMGAP
 40
0.09
  9
$DIMJUST
 70
     0
  9
$DIMSD1
 70
     0
  9
$DIMSD2
 70
     0
  9
$DIMTOLJ
 70
     1
  9
$DIMTZIN
 70
     4
  9
$DIMALTZ
 70
     4
  9
$DIMALTTZ
 70
     4
  9
$DIMFIT
 70
     5
  9
$DIMUPT
 70
     1
  9
$DIMUNIT
 70
     7
  9
$DIMDEC
 70
     6
  9
$DIMTDEC
 70
     6
  9
$DIMALTU
 70
     2
  9
$DIMALTTD
 70
     2
  9
$DIMTXSTY
  7
STANDARD
  9
$DIMAUNIT
 70
     0
  9
$LUNITS
 70
     2
  9
$LUPREC
 70
     4
  9
$SKETCHINC
 40
0.1
  9
$FILLETRAD
 40
0.0
  9
$AUNITS
 70
     0
  9
$AUPREC
 70
     0
  9
$MENU
  1
ACAD
  9
$ELEVATION
 40
0.0
  9
$PELEVATION
 40
0.0
  9
$THICKNESS
 40
0.0
  9
$LIMCHECK
 70
     0
  9
$BLIPMODE
 70
     0
  9
$CHAMFERA
 40
0.0
  9
$CHAMFERB
 40
0.0
  9
$CHAMFERC
 40
0.0
  9
$CHAMFERD
 40
0.0
  9
$SKPOLY
 70
     0
  9
$TDCREATE
 40
2451726.438389120
  9
$TDUPDATE
 40
2452010.489838657
  9
$TDINDWG
 40
0.6580185185
  9
$TDUSRTIMER
 40
0.6580185185
  9
$USRTIMER
 70
     1
  9
$ANGBASE
 50
0.0
  9
$ANGDIR
 70
     0
  9
$PDMODE
 70
     3
  9
$PDSIZE
 40
0.09
  9
$PLINEWID
 40
0.0
  9
$COORDS
 70
     1
  9
$SPLFRAME
 70
     1
  9
$SPLINETYPE
 70
     6
  9
$SPLINESEGS
 70
     8
  9
$ATTDIA
 70
     0
  9
$ATTREQ
 70
     1
  9
$HANDLING
 70
     1
  9
$HANDSEED
  5
61568
  9
$SURFTAB1
 70
     6
  9
$SURFTAB2
 70
     6
  9
$SURFTYPE
 70
     6
  9
$SURFU
 70
     6
  9
$SURFV
 70
     6
  9
$UCSNAME
  2

  9
$UCSORG
 10
0.0
 20
0.0
 30
0.0
  9
$UCSXDIR
 10
1.0
 20
0.0
 30
0.0
  9
$UCSYDIR
 10
0.0
 20
1.0
 30
0.0
  9
$PUCSNAME
  2

  9
$PUCSORG
 10
0.0
 20
0.0
 30
0.0
  9
$PUCSXDIR
 10
1.0
 20
0.0
 30
0.0
  9
$PUCSYDIR
 10
0.0
 20
1.0
 30
0.0
  9
$USERI1
 70
     0
  9
$USERI2
 70
     0
  9
$USERI3
 70
     0
  9
$USERI4
 70
     0
  9
$USERI5
 70
     0
  9
$USERR1
 40
0.0
  9
$USERR2
 40
0.0
  9
$USERR3
 40
0.0
  9
$USERR4
 40
0.0
  9
$USERR5
 40
0.0
  9
$WORLDVIEW
 70
     1
  9
$SHADEDGE
 70
     3
  9
$SHADEDIF
 70
    70
  9
$TILEMODE
 70
     1
  9
$MAXACTVP
 70
    16
  9
$PINSBASE
 10
0.0
 20
0.0
 30
0.0
  9
$PLIMCHECK
 70
     0
  9
$PEXTMIN
 10
1.05
 20
0.8
 30
0.0
  9
$PEXTMAX
 10
9.45
 20
7.2
 30
0.0
  9
$PLIMMIN
 10
-0.25
 20
-0.25
  9
$PLIMMAX
 10
10.75
 20
8.25
  9
$UNITMODE
 70
     0
  9
$VISRETAIN
 70
     0
  9
$PLINEGEN
 70
     0
  9
$PSLTSCALE
 70
     1
  9
$TREEDEPTH
 70
  3020
  9
$PICKSTYLE
 70
     1
  9
$CMLSTYLE
  2
STANDARD
  9
$CMLJUST
 70
     0
  9
$CMLSCALE
 40
1.0
  9
$PROXYGRAPHICS
 70
     1
  9
$MEASUREMENT
 70
     0
  0
ENDSEC
  0
SECTION
  2
CLASSES
  0
CLASS
  1
DICTIONARYVAR
  2
AcDbDictionaryVar
  3
"AutoCAD"
 90
        0
280
     0
281
     0
  0
CLASS
  1
ACDBDICTIONARYWDFLT
  2
AcDbDictionaryWithDefault
  3
AutoCAD 2000
 90
        0
280
     0
281
     0
  0
CLASS
  1
ACDBPLACEHOLDER
  2
AcDbPlaceHolder
  3
AutoCAD 2000
 90
        0
280
     0
281
     0
  0
CLASS
  1
LAYOUT
  2
AcDbLayout
  3
AutoCAD 2000
 90
        0
280
     0
281
     0
  0
CLASS
  1
LONG_TRANSACTION
  2
AcDbLongTransaction
  3
AutoCAD 2000
 90
        0
280
     0
281
     0
  0
CLASS
  1
LWPOLYLINE
  2
AcDbPolyline
  3
"AutoCAD"
 90
        0
280
     0
281
     1
  0
CLASS
  1
HATCH
  2
AcDbHatch
  3
"ACAD_SEDONA"
 90
        0
280
     0
281
     1
  0
CLASS
  1
XRECORD
  2
AcDbXrecord
  3
"<Built In>"
 90
        0
280
     0
281
     0
  0
CLASS
  1
LONG_TRANSACTION
  2
AcDbLongTransaction
  3
AutoCAD 2000
 90
        0
280
     0
281
     0
  0
CLASS
  1
LWPOLYLINE
  2
AcDbPolyline
  3
"AutoCAD"
 90
        0
280
     0
281
     1
  0
CLASS
  1
HATCH
  2
AcDbHatch
  3
"ACAD_SEDONA"
 90
        0
280
     0
281
     1
  0
CLASS
  1
XRECORD
  2
AcDbXrecord
  3
"<Built In>"
 90
        0
280
     0
281
     0
  0
CLASS
  1
LONG_TRANSACTION
  2
AcDbLongTransaction
  3
AutoCAD 2000
 90
        0
280
     0
281
     0
  0
CLASS
  1
LWPOLYLINE
  2
AcDbPolyline
  3
"AutoCAD"
 90
        0
280
     0
281
     1
  0
CLASS
  1
HATCH
  2
AcDbHatch
  3
"ACAD_SEDONA"
 90
        0
280
     0
281
     1
  0
CLASS
  1
XRECORD
  2
AcDbXrecord
  3
"<Built In>"
 90
        0
280
     0
281
     0
  0
CLASS
  1
LONG_TRANSACTION
  2
AcDbLongTransaction
  3
AutoCAD 2000
 90
        0
280
     0
281
     0
  0
CLASS
  1
LWPOLYLINE
  2
AcDbPolyline
  3
"AutoCAD"
 90
        0
280
     0
281
     1
  0
CLASS
  1
HATCH
  2
AcDbHatch
  3
"ACAD_SEDONA"
 90
        0
280
     0
281
     1
  0
CLASS
  1
XRECORD
  2
AcDbXrecord
  3
"<Built In>"
 90
        0
280
     0
281
     0
  0
CLASS
  1
LONG_TRANSACTION
  2
AcDbLongTransaction
  3
AutoCAD 2000
 90
        0
280
     0
281
     0
  0
CLASS
  1
LWPOLYLINE
  2
AcDbPolyline
  3
"AutoCAD"
 90
        0
280
     0
281
     1
  0
CLASS
  1
HATCH
  2
AcDbHatch
  3
"ACAD_SEDONA"
 90
        0
280
     0
281
     1
  0
CLASS
  1
XRECORD
  2
AcDbXrecord
  3
"<Built In>"
 90
        0
280
     0
281
     0
  0
CLASS
  1
LONG_TRANSACTION
  2
AcDbLongTransaction
  3
AutoCAD 2000
 90
        0
280
     0
281
     0
  0
CLASS
  1
LWPOLYLINE
  2
AcDbPolyline
  3
"AutoCAD"
 90
        0
280
     0
281
     1
  0
CLASS
  1
HATCH
  2
AcDbHatch
  3
"ACAD_SEDONA"
 90
        0
280
     0
281
     1
  0
CLASS
  1
XRECORD
  2
AcDbXrecord
  3
"<Built In>"
 90
        0
280
     0
281
     0
  0
CLASS
  1
LONG_TRANSACTION
  2
AcDbLongTransaction
  3
AutoCAD 2000
 90
        0
280
     0
281
     0
  0
CLASS
  1
LWPOLYLINE
  2
AcDbPolyline
  3
"AutoCAD"
 90
        0
280
     0
281
     1
  0
CLASS
  1
HATCH
  2
AcDbHatch
  3
"ACAD_SEDONA"
 90
        0
280
     0
281
     1
  0
CLASS
  1
XRECORD
  2
AcDbXrecord
  3
"<Built In>"
 90
        0
280
     0
281
     0
  0
CLASS
  1
LONG_TRANSACTION
  2
AcDbLongTransaction
  3
AutoCAD 2000
 90
        0
280
     0
281
     0
  0
CLASS
  1
LWPOLYLINE
  2
AcDbPolyline
  3
"AutoCAD"
 90
        0
280
     0
281
     1
  0
CLASS
  1
HATCH
  2
AcDbHatch
  3
"ACAD_SEDONA"
 90
        0
280
     0
281
     1
  0
CLASS
  1
XRECORD
  2
AcDbXrecord
  3
"<Built In>"
 90
        0
280
     0
281
     0
  0
CLASS
  1
LONG_TRANSACTION
  2
AcDbLongTransaction
  3
AutoCAD 2000
 90
        0
280
     0
281
     0
  0
CLASS
  1
LWPOLYLINE
  2
AcDbPolyline
  3
"AutoCAD"
 90
        0
280
     0
281
     1
  0
CLASS
  1
HATCH
  2
AcDbHatch
  3
"ACAD_SEDONA"
 90
        0
280
     0
281
     1
  0
CLASS
  1
XRECORD
  2
AcDbXrecord
  3
"<Built In>"
 90
        0
280
     0
281
     0
  0
CLASS
  1
LONG_TRANSACTION
  2
AcDbLongTransaction
  3
AutoCAD 2000
 90
        0
280
     0
281
     0
  0
CLASS
  1
LWPOLYLINE
  2
AcDbPolyline
  3
"AutoCAD"
 90
        0
280
     0
281
     1
  0
CLASS
  1
HATCH
  2
AcDbHatch
  3
"ACAD_SEDONA"
 90
        0
280
     0
281
     1
  0
CLASS
  1
XRECORD
  2
AcDbXrecord
  3
"<Built In>"
 90
        0
280
     0
281
     0
  0
CLASS
  1
LONG_TRANSACTION
  2
AcDbLongTransaction
  3
AutoCAD 2000
 90
        0
280
     0
281
     0
  0
CLASS
  1
LWPOLYLINE
  2
AcDbPolyline
  3
"AutoCAD"
 90
        0
280
     0
281
     1
  0
CLASS
  1
HATCH
  2
AcDbHatch
  3
"ACAD_SEDONA"
 90
        0
280
     0
281
     1
  0
CLASS
  1
XRECORD
  2
AcDbXrecord
  3
"<Built In>"
 90
        0
280
     0
281
     0
  0
CLASS
  1
LONG_TRANSACTION
  2
AcDbLongTransaction
  3
AutoCAD 2000
 90
        0
280
     0
281
     0
  0
CLASS
  1
LWPOLYLINE
  2
AcDbPolyline
  3
"AutoCAD"
 90
        0
280
     0
281
     1
  0
CLASS
  1
HATCH
  2
AcDbHatch
  3
"ACAD_SEDONA"
 90
        0
280
     0
281
     1
  0
CLASS
  1
XRECORD
  2
AcDbXrecord
  3
"<Built In>"
 90
        0
280
     0
281
     0
  0
CLASS
  1
LONG_TRANSACTION
  2
AcDbLongTransaction
  3
AutoCAD 2000
 90
        0
280
     0
281
     0
  0
CLASS
  1
LWPOLYLINE
  2
AcDbPolyline
  3
"AutoCAD"
 90
        0
280
     0
281
     1
  0
CLASS
  1
HATCH
  2
AcDbHatch
  3
"ACAD_SEDONA"
 90
        0
280
     0
281
     1
  0
CLASS
  1
XRECORD
  2
AcDbXrecord
  3
"<Built In>"
 90
        0
280
     0
281
     0
  0
CLASS
  1
LONG_TRANSACTION
  2
AcDbLongTransaction
  3
AutoCAD 2000
 90
        0
280
     0
281
     0
  0
CLASS
  1
LWPOLYLINE
  2
AcDbPolyline
  3
"AutoCAD"
 90
        0
280
     0
281
     1
  0
CLASS
  1
HATCH
  2
AcDbHatch
  3
"ACAD_SEDONA"
 90
        0
280
     0
281
     1
  0
CLASS
  1
XRECORD
  2
AcDbXrecord
  3
"<Built In>"
 90
        0
280
     0
281
     0
  0
CLASS
  1
LONG_TRANSACTION
  2
AcDbLongTransaction
  3
AutoCAD 2000
 90
        0
280
     0
281
     0
  0
CLASS
  1
LWPOLYLINE
  2
AcDbPolyline
  3
"AutoCAD"
 90
        0
280
     0
281
     1
  0
CLASS
  1
HATCH
  2
AcDbHatch
  3
"ACAD_SEDONA"
 90
        0
280
     0
281
     1
  0
CLASS
  1
XRECORD
  2
AcDbXrecord
  3
"<Built In>"
 90
        0
280
     0
281
     0
  0
CLASS
  1
LONG_TRANSACTION
  2
AcDbLongTransaction
  3
AutoCAD 2000
 90
        0
280
     0
281
     0
  0
CLASS
  1
LWPOLYLINE
  2
AcDbPolyline
  3
"AutoCAD"
 90
        0
280
     0
281
     1
  0
CLASS
  1
HATCH
  2
AcDbHatch
  3
"ACAD_SEDONA"
 90
        0
280
     0
281
     1
  0
CLASS
  1
XRECORD
  2
AcDbXrecord
  3
"<Built In>"
 90
        0
280
     0
281
     0
  0
CLASS
  1
LONG_TRANSACTION
  2
AcDbLongTransaction
  3
AutoCAD 2000
 90
        0
280
     0
281
     0
  0
CLASS
  1
LWPOLYLINE
  2
AcDbPolyline
  3
"AutoCAD"
 90
        0
280
     0
281
     1
  0
CLASS
  1
HATCH
  2
AcDbHatch
  3
"ACAD_SEDONA"
 90
        0
280
     0
281
     1
  0
CLASS
  1
XRECORD
  2
AcDbXrecord
  3
"<Built In>"
 90
        0
280
     0
281
     0
  0
CLASS
  1
LONG_TRANSACTION
  2
AcDbLongTransaction
  3
AutoCAD 2000
 90
        0
280
     0
281
     0
  0
CLASS
  1
LWPOLYLINE
  2
AcDbPolyline
  3
"AutoCAD"
 90
        0
280
     0
281
     1
  0
CLASS
  1
HATCH
  2
AcDbHatch
  3
"ACAD_SEDONA"
 90
        0
280
     0
281
     1
  0
CLASS
  1
XRECORD
  2
AcDbXrecord
  3
"<Built In>"
 90
        0
280
     0
281
     0
  0
CLASS
  1
LONG_TRANSACTION
  2
AcDbLongTransaction
  3
AutoCAD 2000
 90
        0
280
     0
281
     0
  0
CLASS
  1
LWPOLYLINE
  2
AcDbPolyline
  3
"AutoCAD"
 90
        0
280
     0
281
     1
  0
CLASS
  1
HATCH
  2
AcDbHatch
  3
"ACAD_SEDONA"
 90
        0
280
     0
281
     1
  0
CLASS
  1
XRECORD
  2
AcDbXrecord
  3
"<Built In>"
 90
        0
280
     0
281
     0
  0
CLASS
  1
LONG_TRANSACTION
  2
AcDbLongTransaction
  3
AutoCAD 2000
 90
        0
280
     0
281
     0
  0
CLASS
  1
LWPOLYLINE
  2
AcDbPolyline
  3
"AutoCAD"
 90
        0
280
     0
281
     1
  0
CLASS
  1
HATCH
  2
AcDbHatch
  3
"ACAD_SEDONA"
 90
        0
280
     0
281
     1
  0
CLASS
  1
XRECORD
  2
AcDbXrecord
  3
"<Built In>"
 90
        0
280
     0
281
     0
  0
CLASS
  1
LONG_TRANSACTION
  2
AcDbLongTransaction
  3
AutoCAD 2000
 90
        0
280
     0
281
     0
  0
CLASS
  1
LWPOLYLINE
  2
AcDbPolyline
  3
"AutoCAD"
 90
        0
280
     0
281
     1
  0
CLASS
  1
HATCH
  2
AcDbHatch
  3
"ACAD_SEDONA"
 90
        0
280
     0
281
     1
  0
CLASS
  1
XRECORD
  2
AcDbXrecord
  3
"<Built In>"
 90
        0
280
     0
281
     0
  0
CLASS
  1
LONG_TRANSACTION
  2
AcDbLongTransaction
  3
AutoCAD 2000
 90
        0
280
     0
281
     0
  0
CLASS
  1
LWPOLYLINE
  2
AcDbPolyline
  3
"AutoCAD"
 90
        0
280
     0
281
     1
  0
CLASS
  1
HATCH
  2
AcDbHatch
  3
"ACAD_SEDONA"
 90
        0
280
     0
281
     1
  0
CLASS
  1
XRECORD
  2
AcDbXrecord
  3
"<Built In>"
 90
        0
280
     0
281
     0
  0
ENDSEC
  0
SECTION
  2
TABLES
  0
TABLE
  2
VPORT
  5
458C7
100
AcDbSymbolTable
 70
     1
  0
VPORT
  5
61533
102
{ACAD_XDICTIONARY
360
61536
102
}
100
AcDbSymbolTableRecord
100
AcDbViewportTableRecord
  2
*ACTIVE
 70
     0
 10
0.0
 20
0.0
 11
1.0
 21
1.0
 12
0.140121
 22
-0.07215
 13
0.0
 23
0.0
 14
0.25
 24
0.25
 15
0.25
 25
0.25
 16
0.0
 26
0.0
 36
1.0
 17
0.563444
 27
-0.880137
 37
1.686493
 40
4.798278
 41
1.960674
 42
50.0
 43
0.0
 44
0.0
 50
0.0
 51
0.0
 71
     0
 72
 20000
 73
     1
 74
     1
 75
     0
 76
     0
 77
     0
 78
     0
  0
ENDTAB
  0
TABLE
  2
LTYPE
  5
458C4
100
AcDbSymbolTable
 70
     1
  0
LTYPE
  5
458D0
100
AcDbSymbolTableRecord
100
AcDbLinetypeTableRecord
  2
BYBLOCK
 70
     0
  3

 72
    65
 73
     0
 40
0.0
  0
LTYPE
  5
458D1
100
AcDbSymbolTableRecord
100
AcDbLinetypeTableRecord
  2
BYLAYER
 70
     0
  3

 72
    65
 73
     0
 40
0.0
  0
LTYPE
  5
458D2
100
AcDbSymbolTableRecord
100
AcDbLinetypeTableRecord
  2
CONTINUOUS
 70
     0
  3
Solid line
 72
    65
 73
     0
 40
0.0
  0
ENDTAB
  0
TABLE
  2
LAYER
  5
458C1
100
AcDbSymbolTable
 70
     7
  0
LAYER
  5
458CD
100
AcDbSymbolTableRecord
100
AcDbLayerTableRecord
  2
0
 70
     0
 62
     7
  6
CONTINUOUS
  0
LAYER
  5
458EA
100
AcDbSymbolTableRecord
100
AcDbLayerTableRecord
  2
DIMS-MTG-HOLES
 70
     0
 62
     1
  6
CONTINUOUS
  0
LAYER
  5
458EB
100
AcDbSymbolTableRecord
100
AcDbLayerTableRecord
  2
ATTRIBUTES
 70
     0
 62
     7
  6
CONTINUOUS
  0
LAYER
  5
4593B
102
{ACAD_XDICTIONARY
360
6155F
102
}
100
AcDbSymbolTableRecord
100
AcDbLayerTableRecord
  2
AREA1
 70
     0
 62
    -7
  6
CONTINUOUS
  0
LAYER
  5
45940
102
{ACAD_XDICTIONARY
360
61534
102
}
100
AcDbSymbolTableRecord
100
AcDbLayerTableRecord
  2
DEFPOINTS
 70
     0
 62
    -7
  6
CONTINUOUS
  0
LAYER
  5
45954
100
AcDbSymbolTableRecord
100
AcDbLayerTableRecord
  2
SCALE
 70
     0
 62
    -7
  6
CONTINUOUS
  0
LAYER
  5
4D59A
100
AcDbSymbolTableRecord
100
AcDbLayerTableRecord
  2
SNAP_POINTS
 70
     0
 62
    -1
  6
CONTINUOUS
  0
ENDTAB
  0
TABLE
  2
STYLE
  5
458C2
100
AcDbSymbolTable
 70
     1
  0
STYLE
  5
458CE
100
AcDbSymbolTableRecord
100
AcDbTextStyleTableRecord
  2
STANDARD
 70
     0
 40
0.0
 41
1.0
 50
0.0
 71
     0
 42
0.12
  3
txt
  4

  0
ENDTAB
  0
TABLE
  2
VIEW
  5
458C5
100
AcDbSymbolTable
 70
     0
  0
ENDTAB
  0
TABLE
  2
UCS
  5
458C6
100
AcDbSymbolTable
 70
     0
  0
ENDTAB
  0
TABLE
  2
APPID
  5
458C8
100
AcDbSymbolTable
 70
     2
  0
APPID
  5
458CF
100
AcDbSymbolTableRecord
100
AcDbRegAppTableRecord
  2
ACAD
 70
     0
  0
APPID
  5
5FD5B
100
AcDbSymbolTableRecord
100
AcDbRegAppTableRecord
  2
AVE_RENDER
 70
     0
  0
ENDTAB
  0
TABLE
  2
DIMSTYLE
  5
458C9
100
AcDbSymbolTable
 70
     1
  0
DIMSTYLE
105
458F6
102
{ACAD_XDICTIONARY
360
6155B
102
}
102
{ACAD_REACTORS
330
61493
330
614A1
102
}
100
AcDbSymbolTableRecord
100
AcDbDimStyleTableRecord
  2
ABECAD_3D
 70
     0
  3

  4

  5

  6

  7

 40
1.0
 41
0.18
 42
0.0625
 43
0.375
 44
0.18
 45
0.0
 46
0.0
 47
0.0
 48
0.0
140
0.14
141
0.09
142
0.0
143
25.4
144
1.0
145
0.0
146
1.5
147
0.09
 71
     0
 72
     0
 73
     0
 74
     1
 75
     0
 76
     0
 77
     0
 78
     4
170
     1
171
     2
172
     0
173
     0
174
     0
175
     0
176
     0
177
     0
178
     0
270
     7
271
     6
272
     6
273
     2
274
     2
340
458CE
275
     0
280
     0
281
     0
282
     0
283
     1
284
     4
285
     4
286
     4
287
     5
288
     1
  0
ENDTAB
  0
TABLE
  2
BLOCK_RECORD
  5
458C0
100
AcDbSymbolTable
 70
     2
  0
BLOCK_RECORD
  5
458D6
102
{ACAD_XDICTIONARY
360
4592C
102
}
100
AcDbSymbolTableRecord
100
AcDbBlockTableRecord
  2
*MODEL_SPACE
  0
BLOCK_RECORD
  5
458D3
102
{ACAD_XDICTIONARY
360
4592A
102
}
100
AcDbSymbolTableRecord
100
AcDbBlockTableRecord
  2
*PAPER_SPACE
  0
BLOCK_RECORD
  5
61494
100
AcDbSymbolTableRecord
100
AcDbBlockTableRecord
  2
*D0
  0
BLOCK_RECORD
  5
614A2
100
AcDbSymbolTableRecord
100
AcDbBlockTableRecord
  2
*D1
  0
ENDTAB
  0
ENDSEC
  0
SECTION
  2
BLOCKS
  0
BLOCK
  5
458DF
100
AcDbEntity
  8
0
100
AcDbBlockBegin
  2
*MODEL_SPACE
 70
     0
 10
0.0
 20
0.0
 30
0.0
  3
*MODEL_SPACE
  1

  0
ENDBLK
  5
458E0
100
AcDbEntity
  8
0
100
AcDbBlockEnd
  0
BLOCK
  5
458DD
100
AcDbEntity
 67
     1
  8
0
100
AcDbBlockBegin
  2
*PAPER_SPACE
 70
     0
 10
0.0
 20
0.0
 30
0.0
  3
*PAPER_SPACE
  1

  0
ENDBLK
  5
458DE
100
AcDbEntity
 67
     1
  8
0
100
AcDbBlockEnd
  0
BLOCK
  5
6149F
100
AcDbEntity
  8
0
100
AcDbBlockBegin
  2
*D0
 70
     1
 10
0.0
 20
0.0
 30
0.0
  3
*D0
  1

  0
LINE
  5
61495
100
AcDbEntity
  8
AREA1
 62
     0
100
AcDbLine
 10
0.445
 20
0.838
 30
0.0
 11
-0.776749
 21
0.838
 31
0.0
1001
ACAD
1000
RTLwPs
1070
   158
  0
LINE
  5
61496
100
AcDbEntity
  8
AREA1
 62
     0
100
AcDbLine
 10
0.812
 20
-2.342
 30
0.0
 11
-0.776749
 21
-2.342
 31
0.0
1001
ACAD
1000
RTLwPs
1070
   158
  0
LINE
  5
61497
100
AcDbEntity
  8
AREA1
 62
     0
100
AcDbLine
 10
-0.596749
 20
0.658
 30
0.0
 11
-0.596749
 21
0.077488
 31
0.0
1001
ACAD
1000
RTLwPs
1070
   158
  0
LINE
  5
61498
100
AcDbEntity
  8
AREA1
 62
     0
100
AcDbLine
 10
-0.596749
 20
-2.162
 30
0.0
 11
-0.596749
 21
-1.759179
 31
0.0
1001
ACAD
1000
RTLwPs
1070
   158
  0
MTEXT
  5
61499
100
AcDbEntity
  8
AREA1
 62
     0
100
AcDbMText
 10
-0.596749
 20
-0.840846
 30
0.0
 40
0.14
 41
0.0
 71
     5
 72
     1
  1
\A1;3 3/16 [80.77]
 11
0.0
 21
1.0
 31
0.0
1001
ACAD
1000
MTEXTBEGIN
1070
    73
1070
     1
1070
    44
1040
1.0
1070
    74
1070
     0
1000
MTEXTEND
1000
MTEXTBEGIN
1070
    73
1070
     1
1070
    44
1040
1.0
1070
    74
1070
     0
1000
MTEXTEND
1000
MTEXTBEGIN
1070
    73
1070
     1
1070
    44
1040
1.0
1070
    74
1070
     0
1000
MTEXTEND
  0
SOLID
  5
6149A
100
AcDbEntity
  8
AREA1
 62
     0
100
AcDbTrace
 10
-0.626749
 20
0.658
 30
0.0
 11
-0.566749
 21
0.658
 31
0.0
 12
-0.596749
 22
0.838
 32
0.0
 13
-0.596749
 23
0.838
 33
0.0
  0
SOLID
  5
6149B
100
AcDbEntity
  8
AREA1
 62
     0
100
AcDbTrace
 10
-0.626749
 20
-2.162
 30
0.0
 11
-0.566749
 21
-2.162
 31
0.0
 12
-0.596749
 22
-2.342
 32
0.0
 13
-0.596749
 23
-2.342
 33
0.0
  0
POINT
  5
6149C
100
AcDbEntity
  8
DEFPOINTS
 62
     0
100
AcDbPoint
 10
0.5075
 20
0.838
 30
1.388
  0
POINT
  5
6149D
100
AcDbEntity
  8
DEFPOINTS
 62
     0
100
AcDbPoint
 10
0.8745
 20
-2.342
 30
1.388
  0
POINT
  5
6149E
100
AcDbEntity
  8
DEFPOINTS
 62
     0
100
AcDbPoint
 10
-0.596749
 20
-2.342
 30
0.0
  0
ENDBLK
  5
614A0
100
AcDbEntity
  8
0
100
AcDbBlockEnd
  0
BLOCK
  5
614AD
100
AcDbEntity
  8
0
100
AcDbBlockBegin
  2
*D1
 70
     1
 10
0.0
 20
0.0
 30
0.0
  3
*D1
  1

  0
LINE
  5
614A3
100
AcDbEntity
  8
AREA1
 62
     0
100
AcDbLine
 10
0.0
 20
0.5775
 30
0.0
 11
0.0
 21
1.406405
 31
0.0
1001
ACAD
1000
RTLwPs
1070
   158
  0
LINE
  5
614A4
100
AcDbEntity
  8
AREA1
 62
     0
100
AcDbLine
 10
2.12
 20
0.5775
 30
0.0
 11
2.12
 21
1.406405
 31
0.0
1001
ACAD
1000
RTLwPs
1070
   158
  0
LINE
  5
614A5
100
AcDbEntity
  8
AREA1
 62
     0
100
AcDbLine
 10
0.18
 20
1.226405
 30
0.0
 11
0.194591
 21
1.226405
 31
0.0
1001
ACAD
1000
RTLwPs
1070
   158
  0
LINE
  5
614A6
100
AcDbEntity
  8
AREA1
 62
     0
100
AcDbLine
 10
1.94
 20
1.226405
 30
0.0
 11
1.914591
 21
1.226405
 31
0.0
1001
ACAD
1000
RTLwPs
1070
   158
  0
MTEXT
  5
614A7
100
AcDbEntity
  8
AREA1
 62
     0
100
AcDbMText
 10
1.054591
 20
1.226405
 30
0.0
 40
0.14
 41
0.0
 71
     5
 72
     1
  1
\A1;2 1/8 [53.85]
1001
ACAD
1000
MTEXTBEGIN
1070
    73
1070
     1
1070
    44
1040
1.0
1070
    74
1070
     0
1000
MTEXTEND
1000
MTEXTBEGIN
1070
    73
1070
     1
1070
    44
1040
1.0
1070
    74
1070
     0
1000
MTEXTEND
1000
MTEXTBEGIN
1070
    73
1070
     1
1070
    44
1040
1.0
1070
    74
1070
     0
1000
MTEXTEND
  0
SOLID
  5
614A8
100
AcDbEntity
  8
AREA1
 62
     0
100
AcDbTrace
 10
0.18
 20
1.256405
 30
0.0
 11
0.18
 21
1.196405
 31
0.0
 12
0.0
 22
1.226405
 32
0.0
 13
0.0
 23
1.226405
 33
0.0
  0
SOLID
  5
614A9
100
AcDbEntity
  8
AREA1
 62
     0
100
AcDbTrace
 10
1.94
 20
1.256405
 30
0.0
 11
1.94
 21
1.196405
 31
0.0
 12
2.12
 22
1.226405
 32
0.0
 13
2.12
 23
1.226405
 33
0.0
  0
POINT
  5
614AA
100
AcDbEntity
  8
DEFPOINTS
 62
     0
100
AcDbPoint
 10
0.0
 20
0.515
 30
1.641
  0
POINT
  5
614AB
100
AcDbEntity
  8
DEFPOINTS
 62
     0
100
AcDbPoint
 10
2.12
 20
0.515
 30
1.641
  0
POINT
  5
614AC
100
AcDbEntity
  8
DEFPOINTS
 62
     0
100
AcDbPoint
 10
2.12
 20
1.226405
 30
0.0
  0
ENDBLK
  5
614AE
100
AcDbEntity
  8
0
100
AcDbBlockEnd
  0
ENDSEC
  0
SECTION
  2
ENTITIES
  0
ATTDEF
  5
61147
100
AcDbEntity
  8
ATTRIBUTES
100
AcDbText
 10
0.078485
 20
-0.246172
 30
0.0
 40
0.08052
  1
ALLEN-BRADLEY
100
AcDbAttributeDefinition
  3
MANUFACTURER NAME?
  2
AC_VND_LABEL
 70
     1
  0
ATTDEF
  5
61148
100
AcDbEntity
  8
ATTRIBUTES
100
AcDbText
 10
0.078485
 20
-0.413922
 30
0.0
 40
0.08052
  1
100-C43*00
100
AcDbAttributeDefinition
  3
CATALOG NUMBER?
  2
AC_PART_NO
 70
     1
  0
ATTDEF
  5
61149
100
AcDbEntity
  8
ATTRIBUTES
100
AcDbText
 10
0.078485
 20
-0.581673
 30
0.0
 40
0.08052
  1
MCS IEC AC CONTACTOR; 43A
100
AcDbAttributeDefinition
  3
PART DESCRIPTION?
  2
AC_DESCRIPTION
 70
     1
  0
ATTDEF
  5
6114A
100
AcDbEntity
  8
ATTRIBUTES
100
AcDbText
 10
0.078485
 20
-0.749424
 30
0.0
 40
0.08052
  1

100
AcDbAttributeDefinition
  3
DEVICE ID?
  2
DEVICE_ID
 70
     1
  0
ATTDEF
  5
6114B
100
AcDbEntity
  8
ATTRIBUTES
100
AcDbText
 10
0.078485
 20
-0.917175
 30
0.0
 40
0.08052
  1

100
AcDbAttributeDefinition
  3
CUSTOMER PART NUMBER?
  2
AC_CPART_NO
 70
     1
  0
ATTDEF
  5
6114C
100
AcDbEntity
  8
ATTRIBUTES
100
AcDbText
 10
0.078485
 20
-1.084925
 30
0.0
 40
0.08052
  1

100
AcDbAttributeDefinition
  3
CUSTOMER NOTE?
  2
AC_NOTE
 70
     1
  0
ATTDEF
  5
6114D
100
AcDbEntity
  8
ATTRIBUTES
100
AcDbText
 10
0.078485
 20
-1.252676
 30
0.0
 40
0.08052
  1

100
AcDbAttributeDefinition
  3
FASTENER DATA?
  2
FASTENER
 70
     1
  0
ATTDEF
  5
6114E
100
AcDbEntity
  8
ATTRIBUTES
100
AcDbText
 10
0.078485
 20
-1.420427
 30
0.0
 40
0.08052
  1
INCH
100
AcDbAttributeDefinition
  3
UNIT OF SCALE?
  2
AC_SCALE_UNIT
 70
     1
  0
ATTDEF
  5
6114F
100
AcDbEntity
  8
ATTRIBUTES
100
AcDbText
 10
0.078485
 20
-1.588178
 30
0.0
 40
0.08052
  1
0
100
AcDbAttributeDefinition
  3
VIEW CODE?
  2
AC_VIEW_CODE
 70
     1
  0
CIRCLE
  5
61150
100
AcDbEntity
  8
0
100
AcDbCircle
 10
0.37135
 20
0.180798
 30
3.86
 40
0.138
  0
POLYLINE
  5
61151
100
AcDbEntity
  8
0
100
AcDbPolygonMesh
 66
     1
 10
0.0
 20
0.0
 30
0.0
 70
    16
 71
     6
 72
     3
  0
VERTEX
  5
61152
100
AcDbEntity
  8
0
100
AcDbVertex
100
AcDbPolygonMeshVertex
 10
1.4455
 20
-1.5045
 30
4.06
 70
    64
  0
VERTEX
  5
61153
100
AcDbEntity
  8
0
100
AcDbVertex
100
AcDbPolygonMeshVertex
 10
1.4455
 20
-1.5045
 30
3.86
 70
    64
  0
VERTEX
  5
61154
100
AcDbEntity
  8
0
100
AcDbVertex
100
AcDbPolygonMeshVertex
 10
1.4455
 20
-1.5045
 30
3.86
 70
    64
  0
VERTEX
  5
61155
100
AcDbEntity
  8
0
100
AcDbVertex
100
AcDbPolygonMeshVertex
 10
0.6745
 20
-1.5045
 30
4.06
 70
    64
  0
VERTEX
  5
61156
100
AcDbEntity
  8
0
100
AcDbVertex
100
AcDbPolygonMeshVertex
 10
0.6745
 20
-1.5045
 30
3.86
 70
    64
  0
VERTEX
  5
61157
100
AcDbEntity
  8
0
100
AcDbVertex
100
AcDbPolygonMeshVertex
 10
0.6745
 20
-1.5045
 30
3.86
 70
    64
  0
VERTEX
  5
61158
100
AcDbEntity
  8
0
100
AcDbVertex
100
AcDbPolygonMeshVertex
 10
0.6745
 20
-1.2225
 30
4.06
 70
    64
  0
VERTEX
  5
61159
100
AcDbEntity
  8
0
100
AcDbVertex
100
AcDbPolygonMeshVertex
 10
0.6745
 20
-1.2225
 30
3.86
 70
    64
  0
VERTEX
  5
6115A
100
AcDbEntity
  8
0
100
AcDbVertex
100
AcDbPolygonMeshVertex
 10
0.6745
 20
-1.5045
 30
3.86
 70
    64
  0
VERTEX
  5
6115B
100
AcDbEntity
  8
0
100
AcDbVertex
100
AcDbPolygonMeshVertex
 10
1.4455
 20
-1.2225
 30
4.06
 70
    64
  0
VERTEX
  5
6115C
100
AcDbEntity
  8
0
100
AcDbVertex
100
AcDbPolygonMeshVertex
 10
1.4455
 20
-1.2225
 30
3.86
 70
    64
  0
VERTEX
  5
6115D
100
AcDbEntity
  8
0
100
AcDbVertex
100
AcDbPolygonMeshVertex
 10
1.4455
 20
-1.5045
 30
3.86
 70
    64
  0
VERTEX
  5
6115E
100
AcDbEntity
  8
0
100
AcDbVertex
100
AcDbPolygonMeshVertex
 10
1.4455
 20
-1.2225
 30
4.06
 70
    64
  0
VERTEX
  5
6115F
100
AcDbEntity
  8
0
100
AcDbVertex
100
AcDbPolygonMeshVertex
 10
1.4455
 20
-1.2225
 30
4.06
 70
    64
  0
VERTEX
  5
61160
100
AcDbEntity
  8
0
100
AcDbVertex
100
AcDbPolygonMeshVertex
 10
1.4455
 20
-1.5045
 30
4.06
 70
    64
  0
VERTEX
  5
61161
100
AcDbEntity
  8
0
100
AcDbVertex
100
AcDbPolygonMeshVertex
 10
0.6745
 20
-1.2225
 30
4.06
 70
    64
  0
VERTEX
  5
61162
100
AcDbEntity
  8
0
100
AcDbVertex
100
AcDbPolygonMeshVertex
 10
0.6745
 20
-1.2225
 30
4.06
 70
    64
  0
VERTEX
  5
61163
100
AcDbEntity
  8
0
100
AcDbVertex
100
AcDbPolygonMeshVertex
 10
0.6745
 20
-1.5045
 30
4.06
 70
    64
  0
SEQEND
  5
61164
100
AcDbEntity
  8
0
  0
POLYLINE
  5
61165
100
AcDbEntity
  8
0
100
AcDbPolygonMesh
 66
     1
 10
0.0
 20
0.0
 30
0.0
 70
    16
 71
     6
 72
     3
  0
VERTEX
  5
61166
100
AcDbEntity
  8
0
100
AcDbVertex
100
AcDbPolygonMeshVertex
 10
1.2455
 20
-2.342
 30
2.062
 70
    64
  0
VERTEX
  5
61167
100
AcDbEntity
  8
0
100
AcDbVertex
100
AcDbPolygonMeshVertex
 10
1.2455
 20
-2.342
 30
1.388
 70
    64
  0
VERTEX
  5
61168
100
AcDbEntity
  8
0
100
AcDbVertex
100
AcDbPolygonMeshVertex
 10
1.2455
 20
-2.342
 30
1.388
 70
    64
  0
VERTEX
  5
61169
100
AcDbEntity
  8
0
100
AcDbVertex
100
AcDbPolygonMeshVertex
 10
0.8745
 20
-2.342
 30
2.062
 70
    64
  0
VERTEX
  5
6116A
100
AcDbEntity
  8
0
100
AcDbVertex
100
AcDbPolygonMeshVertex
 10
0.8745
 20
-2.342
 30
1.388
 70
    64
  0
VERTEX
  5
6116B
100
AcDbEntity
  8
0
100
AcDbVertex
100
AcDbPolygonMeshVertex
 10
0.8745
 20
-2.342
 30
1.388
 70
    64
  0
VERTEX
  5
6116C
100
AcDbEntity
  8
0
100
AcDbVertex
100
AcDbPolygonMeshVertex
 10
0.8745
 20
-2.089
 30
2.062
 70
    64
  0
VERTEX
  5
6116D
100
AcDbEntity
  8
0
100
AcDbVertex
100
AcDbPolygonMeshVertex
 10
0.8745
 20
-2.089
 30
1.388
 70
    64
  0
VERTEX
  5
6116E
100
AcDbEntity
  8
0
100
AcDbVertex
100
AcDbPolygonMeshVertex
 10
0.8745
 20
-2.342
 30
1.388
 70
    64
  0
VERTEX
  5
6116F
100
AcDbEntity
  8
0
100
AcDbVertex
100
AcDbPolygonMeshVertex
 10
1.2455
 20
-2.089
 30
2.062
 70
    64
  0
VERTEX
  5
61170
100
AcDbEntity
  8
0
100
AcDbVertex
100
AcDbPolygonMeshVertex
 10
1.2455
 20
-2.089
 30
1.388
 70
    64
  0
VERTEX
  5
61171
100
AcDbEntity
  8
0
100
AcDbVertex
100
AcDbPolygonMeshVertex
 10
1.2455
 20
-2.342
 30
1.388
 70
    64
  0
VERTEX
  5
61172
100
AcDbEntity
  8
0
100
AcDbVertex
100
AcDbPolygonMeshVertex
 10
1.2455
 20
-2.089
 30
2.062
 70
    64
  0
VERTEX
  5
61173
100
AcDbEntity
  8
0
100
AcDbVertex
100
AcDbPolygonMeshVertex
 10
1.2455
 20
-2.089
 30
2.062
 70
    64
  0
VERTEX
  5
61174
100
AcDbEntity
  8
0
100
AcDbVertex
100
AcDbPolygonMeshVertex
 10
1.2455
 20
-2.342
 30
2.062
 70
    64
  0
VERTEX
  5
61175
100
AcDbEntity
  8
0
100
AcDbVertex
100
AcDbPolygonMeshVertex
 10
0.8745
 20
-2.089
 30
2.062
 70
    64
  0
VERTEX
  5
61176
100
AcDbEntity
  8
0
100
AcDbVertex
100
AcDbPolygonMeshVertex
 10
0.8745
 20
-2.089
 30
2.062
 70
    64
  0
VERTEX
  5
61177
100
AcDbEntity
  8
0
100
AcDbVertex
100
AcDbPolygonMeshVertex
 10
0.8745
 20
-2.342
 30
2.062
 70
    64
  0
SEQEND
  5
61178
100
AcDbEntity
  8
0
  0
LWPOLYLINE
  5
61179
100
AcDbEntity
  8
0
100
AcDbPolyline
 90
        4
 70
     1
 43
0.0
 38
2.062
 10
0.9265
 20
-2.141
 10
1.1935
 20
-2.141
 10
1.1935
 20
-2.29
 10
0.9265
 20
-2.29
  0
POLYLINE
  5
6117A
100
AcDbEntity
  8
0
100
AcDbPolygonMesh
 66
     1
 10
0.0
 20
0.0
 30
0.0
 70
    16
 71
     6
 72
     3
  0
VERTEX
  5
6117B
100
AcDbEntity
  8
0
100
AcDbVertex
100
AcDbPolygonMeshVertex
 10
0.5075
 20
0.838
 30
2.062
 70
    64
  0
VERTEX
  5
6117C
100
AcDbEntity
  8
0
100
AcDbVertex
100
AcDbPolygonMeshVertex
 10
0.5075
 20
0.838
 30
1.388
 70
    64
  0
VERTEX
  5
6117D
100
AcDbEntity
  8
0
100
AcDbVertex
100
AcDbPolygonMeshVertex
 10
0.5075
 20
0.838
 30
1.388
 70
    64
  0
VERTEX
  5
6117E
100
AcDbEntity
  8
0
100
AcDbVertex
100
AcDbPolygonMeshVertex
 10
1.6125
 20
0.838
 30
2.062
 70
    64
  0
VERTEX
  5
6117F
100
AcDbEntity
  8
0
100
AcDbVertex
100
AcDbPolygonMeshVertex
 10
1.6125
 20
0.838
 30
1.388
 70
    64
  0
VERTEX
  5
61180
100
AcDbEntity
  8
0
100
AcDbVertex
100
AcDbPolygonMeshVertex
 10
1.6125
 20
0.838
 30
1.388
 70
    64
  0
VERTEX
  5
61181
100
AcDbEntity
  8
0
100
AcDbVertex
100
AcDbPolygonMeshVertex
 10
1.6125
 20
0.401
 30
2.062
 70
    64
  0
VERTEX
  5
61182
100
AcDbEntity
  8
0
100
AcDbVertex
100
AcDbPolygonMeshVertex
 10
1.6125
 20
0.401
 30
1.388
 70
    64
  0
VERTEX
  5
61183
100
AcDbEntity
  8
0
100
AcDbVertex
100
AcDbPolygonMeshVertex
 10
1.6125
 20
0.838
 30
1.388
 70
    64
  0
VERTEX
  5
61184
100
AcDbEntity
  8
0
100
AcDbVertex
100
AcDbPolygonMeshVertex
 10
0.5075
 20
0.401
 30
2.062
 70
    64
  0
VERTEX
  5
61185
100
AcDbEntity
  8
0
100
AcDbVertex
100
AcDbPolygonMeshVertex
 10
0.5075
 20
0.401
 30
1.388
 70
    64
  0
VERTEX
  5
61186
100
AcDbEntity
  8
0
100
AcDbVertex
100
AcDbPolygonMeshVertex
 10
0.5075
 20
0.838
 30
1.388
 70
    64
  0
VERTEX
  5
61187
100
AcDbEntity
  8
0
100
AcDbVertex
100
AcDbPolygonMeshVertex
 10
0.5075
 20
0.401
 30
2.062
 70
    64
  0
VERTEX
  5
61188
100
AcDbEntity
  8
0
100
AcDbVertex
100
AcDbPolygonMeshVertex
 10
0.5075
 20
0.401
 30
2.062
 70
    64
  0
VERTEX
  5
61189
100
AcDbEntity
  8
0
100
AcDbVertex
100
AcDbPolygonMeshVertex
 10
0.5075
 20
0.838
 30
2.062
 70
    64
  0
VERTEX
  5
6118A
100
AcDbEntity
  8
0
100
AcDbVertex
100
AcDbPolygonMeshVertex
 10
1.6125
 20
0.401
 30
2.062
 70
    64
  0
VERTEX
  5
6118B
100
AcDbEntity
  8
0
100
AcDbVertex
100
AcDbPolygonMeshVertex
 10
1.6125
 20
0.401
 30
2.062
 70
    64
  0
VERTEX
  5
6118C
100
AcDbEntity
  8
0
100
AcDbVertex
100
AcDbPolygonMeshVertex
 10
1.6125
 20
0.838
 30
2.062
 70
    64
  0
SEQEND
  5
6118D
100
AcDbEntity
  8
0
  0
LINE
  5
6118E
100
AcDbEntity
  8
0
100
AcDbLine
 10
0.92
 20
0.401
 30
2.062
 11
0.92
 21
0.636
 31
2.062
  0
LINE
  5
6118F
100
AcDbEntity
  8
0
100
AcDbLine
 10
1.2
 20
0.636
 30
2.062
 11
0.92
 21
0.636
 31
2.062
  0
LINE
  5
61190
100
AcDbEntity
  8
0
100
AcDbLine
 10
0.8795
 20
0.838
 30
1.841
 11
0.5625
 21
0.838
 31
1.841
  0
LINE
  5
61191
100
AcDbEntity
  8
0
100
AcDbLine
 10
0.8795
 20
0.838
 30
1.641
 11
0.5625
 21
0.838
 31
1.641
  0
LINE
  5
61192
100
AcDbEntity
  8
0
100
AcDbLine
 10
0.8795
 20
0.838
 30
1.841
 11
0.8795
 21
0.838
 31
1.641
  0
CIRCLE
  5
61193
100
AcDbEntity
  8
0
100
AcDbCircle
 10
0.721
 20
0.6195
 30
2.062
 40
0.12
  0
CIRCLE
  5
61194
100
AcDbEntity
  8
0
100
AcDbCircle
 10
1.399
 20
0.6195
 30
2.062
 40
0.12
  0
LINE
  5
61195
100
AcDbEntity
  8
0
100
AcDbLine
 10
1.2405
 20
0.838
 30
1.641
 11
1.5575
 21
0.838
 31
1.641
  0
LINE
  5
61196
100
AcDbEntity
  8
0
100
AcDbLine
 10
1.2405
 20
0.838
 30
1.841
 11
1.5575
 21
0.838
 31
1.841
  0
LINE
  5
61197
100
AcDbEntity
  8
0
100
AcDbLine
 10
1.5575
 20
0.838
 30
1.841
 11
1.5575
 21
0.838
 31
1.641
  0
LINE
  5
61198
100
AcDbEntity
  8
0
100
AcDbLine
 10
1.2405
 20
0.838
 30
1.841
 11
1.2405
 21
0.838
 31
1.641
  0
POLYLINE
  5
61199
100
AcDbEntity
  8
0
100
AcDb3dPolyline
 66
     1
 10
0.0
 20
0.0
 30
0.0
 70
     8
  0
VERTEX
  5
6119A
100
AcDbEntity
  8
0
100
AcDbVertex
100
AcDb3dPolylineVertex
 10
2.12
 20
-1.473
 30
0.187
 70
    32
  0
VERTEX
  5
6119B
100
AcDbEntity
  8
0
100
AcDbVertex
100
AcDb3dPolylineVertex
 10
2.12
 20
-1.473
 30
1.057
 70
    32
  0
VERTEX
  5
6119C
100
AcDbEntity
  8
0
100
AcDbVertex
100
AcDb3dPolylineVertex
 10
2.12
 20
-1.628
 30
1.057
 70
    32
  0
VERTEX
  5
6119D
100
AcDbEntity
  8
0
100
AcDbVertex
100
AcDb3dPolylineVertex
 10
2.12
 20
-1.628
 30
0.187
 70
    32
  0
SEQEND
  5
6119E
100
AcDbEntity
  8
0
  0
POLYLINE
  5
6119F
100
AcDbEntity
  8
0
100
AcDb3dPolyline
 66
     1
 10
0.0
 20
0.0
 30
0.0
 70
     8
  0
VERTEX
  5
611A0
100
AcDbEntity
  8
0
100
AcDbVertex
100
AcDb3dPolylineVertex
 10
2.12
 20
-0.094
 30
0.187
 70
    32
  0
VERTEX
  5
611A1
100
AcDbEntity
  8
0
100
AcDbVertex
100
AcDb3dPolylineVertex
 10
2.12
 20
-0.094
 30
1.057
 70
    32
  0
VERTEX
  5
611A2
100
AcDbEntity
  8
0
100
AcDbVertex
100
AcDb3dPolylineVertex
 10
2.12
 20
-0.249
 30
1.057
 70
    32
  0
VERTEX
  5
611A3
100
AcDbEntity
  8
0
100
AcDbVertex
100
AcDb3dPolylineVertex
 10
2.12
 20
-0.249
 30
0.187
 70
    32
  0
SEQEND
  5
611A4
100
AcDbEntity
  8
0
  0
POLYLINE
  5
611A5
100
AcDbEntity
  8
0
100
AcDb3dPolyline
 66
     1
 10
0.0
 20
0.0
 30
0.0
 70
     8
  0
VERTEX
  5
611A6
100
AcDbEntity
  8
0
100
AcDbVertex
100
AcDb3dPolylineVertex
 10
0.0
 20
-0.094
 30
0.187
 70
    32
  0
VERTEX
  5
611A7
100
AcDbEntity
  8
0
100
AcDbVertex
100
AcDb3dPolylineVertex
 10
0.0
 20
-0.094
 30
1.057
 70
    32
  0
VERTEX
  5
611A8
100
AcDbEntity
  8
0
100
AcDbVertex
100
AcDb3dPolylineVertex
 10
0.0
 20
-0.249
 30
1.057
 70
    32
  0
VERTEX
  5
611A9
100
AcDbEntity
  8
0
100
AcDbVertex
100
AcDb3dPolylineVertex
 10
0.0
 20
-0.249
 30
0.187
 70
    32
  0
SEQEND
  5
611AA
100
AcDbEntity
  8
0
  0
POLYLINE
  5
611AB
100
AcDbEntity
  8
0
100
AcDb3dPolyline
 66
     1
 10
0.0
 20
0.0
 30
0.0
 70
     8
  0
VERTEX
  5
611AC
100
AcDbEntity
  8
0
100
AcDbVertex
100
AcDb3dPolylineVertex
 10
0.0
 20
-1.473
 30
0.187
 70
    32
  0
VERTEX
  5
611AD
100
AcDbEntity
  8
0
100
AcDbVertex
100
AcDb3dPolylineVertex
 10
0.0
 20
-1.473
 30
1.057
 70
    32
  0
VERTEX
  5
611AE
100
AcDbEntity
  8
0
100
AcDbVertex
100
AcDb3dPolylineVertex
 10
0.0
 20
-1.628
 30
1.057
 70
    32
  0
VERTEX
  5
611AF
100
AcDbEntity
  8
0
100
AcDbVertex
100
AcDb3dPolylineVertex
 10
0.0
 20
-1.628
 30
0.187
 70
    32
  0
SEQEND
  5
611B0
100
AcDbEntity
  8
0
  0
POLYLINE
  5
611B1
100
AcDbEntity
  8
0
100
AcDbPolygonMesh
 66
     1
 10
0.0
 20
0.0
 30
0.0
 70
    16
 71
     6
 72
     3
  0
VERTEX
  5
611B2
100
AcDbEntity
  8
0
100
AcDbVertex
100
AcDbPolygonMeshVertex
 10
0.161
 20
0.598
 30
0.187
 70
    64
  0
VERTEX
  5
611B3
100
AcDbEntity
  8
0
100
AcDbVertex
100
AcDbPolygonMeshVertex
 10
0.161
 20
0.598
 30
0.0
 70
    64
  0
VERTEX
  5
611B4
100
AcDbEntity
  8
0
100
AcDbVertex
100
AcDbPolygonMeshVertex
 10
0.161
 20
0.598
 30
0.0
 70
    64
  0
VERTEX
  5
611B5
100
AcDbEntity
  8
0
100
AcDbVertex
100
AcDbPolygonMeshVertex
 10
1.041
 20
0.598
 30
0.187
 70
    64
  0
VERTEX
  5
611B6
100
AcDbEntity
  8
0
100
AcDbVertex
100
AcDbPolygonMeshVertex
 10
1.041
 20
0.598
 30
0.0
 70
    64
  0
VERTEX
  5
611B7
100
AcDbEntity
  8
0
100
AcDbVertex
100
AcDbPolygonMeshVertex
 10
1.041
 20
0.598
 30
0.0
 70
    64
  0
VERTEX
  5
611B8
100
AcDbEntity
  8
0
100
AcDbVertex
100
AcDbPolygonMeshVertex
 10
1.041
 20
0.0
 30
0.187
 70
    64
  0
VERTEX
  5
611B9
100
AcDbEntity
  8
0
100
AcDbVertex
100
AcDbPolygonMeshVertex
 10
1.041
 20
0.0
 30
0.0
 70
    64
  0
VERTEX
  5
611BA
100
AcDbEntity
  8
0
100
AcDbVertex
100
AcDbPolygonMeshVertex
 10
1.041
 20
0.598
 30
0.0
 70
    64
  0
VERTEX
  5
611BB
100
AcDbEntity
  8
0
100
AcDbVertex
100
AcDbPolygonMeshVertex
 10
0.161
 20
0.0
 30
0.187
 70
    64
  0
VERTEX
  5
611BC
100
AcDbEntity
  8
0
100
AcDbVertex
100
AcDbPolygonMeshVertex
 10
0.161
 20
0.0
 30
0.0
 70
    64
  0
VERTEX
  5
611BD
100
AcDbEntity
  8
0
100
AcDbVertex
100
AcDbPolygonMeshVertex
 10
0.161
 20
0.598
 30
0.0
 70
    64
  0
VERTEX
  5
611BE
100
AcDbEntity
  8
0
100
AcDbVertex
100
AcDbPolygonMeshVertex
 10
0.161
 20
0.0
 30
0.187
 70
    64
  0
VERTEX
  5
611BF
100
AcDbEntity
  8
0
100
AcDbVertex
100
AcDbPolygonMeshVertex
 10
0.161
 20
0.0
 30
0.187
 70
    64
  0
VERTEX
  5
611C0
100
AcDbEntity
  8
0
100
AcDbVertex
100
AcDbPolygonMeshVertex
 10
0.161
 20
0.598
 30
0.187
 70
    64
  0
VERTEX
  5
611C1
100
AcDbEntity
  8
0
100
AcDbVertex
100
AcDbPolygonMeshVertex
 10
1.041
 20
0.0
 30
0.187
 70
    64
  0
VERTEX
  5
611C2
100
AcDbEntity
  8
0
100
AcDbVertex
100
AcDbPolygonMeshVertex
 10
1.041
 20
0.0
 30
0.187
 70
    64
  0
VERTEX
  5
611C3
100
AcDbEntity
  8
0
100
AcDbVertex
100
AcDbPolygonMeshVertex
 10
1.041
 20
0.598
 30
0.187
 70
    64
  0
SEQEND
  5
611C4
100
AcDbEntity
  8
0
  0
CIRCLE
  5
611C5
100
AcDbEntity
  8
0
100
AcDbCircle
 10
1.945
 20
0.337
 30
0.316
 40
0.086
  0
POLYLINE
  5
611C6
100
AcDbEntity
  8
0
100
AcDb3dPolyline
 66
     1
 10
0.0
 20
0.0
 30
0.0
 70
     8
  0
VERTEX
  5
611C7
100
AcDbEntity
  8
0
100
AcDbVertex
100
AcDb3dPolylineVertex
 10
0.706333
 20
0.401
 30
0.187
 70
    32
  0
VERTEX
  5
611C8
100
AcDbEntity
  8
0
100
AcDbVertex
100
AcDb3dPolylineVertex
 10
0.706333
 20
0.536
 30
0.187
 70
    32
  0
VERTEX
  5
611C9
100
AcDbEntity
  8
0
100
AcDbVertex
100
AcDb3dPolylineVertex
 10
0.495667
 20
0.536
 30
0.187
 70
    32
  0
VERTEX
  5
611CA
100
AcDbEntity
  8
0
100
AcDbVertex
100
AcDb3dPolylineVertex
 10
0.495667
 20
0.401
 30
0.187
 70
    32
  0
SEQEND
  5
611CB
100
AcDbEntity
  8
0
  0
POLYLINE
  5
611CC
100
AcDbEntity
  8
0
100
AcDb3dPolyline
 66
     1
 10
0.0
 20
0.0
 30
0.0
 70
     8
  0
VERTEX
  5
611CD
100
AcDbEntity
  8
0
100
AcDbVertex
100
AcDb3dPolylineVertex
 10
0.433667
 20
0.401
 30
0.187
 70
    32
  0
VERTEX
  5
611CE
100
AcDbEntity
  8
0
100
AcDbVertex
100
AcDb3dPolylineVertex
 10
0.433667
 20
0.536
 30
0.187
 70
    32
  0
VERTEX
  5
611CF
100
AcDbEntity
  8
0
100
AcDbVertex
100
AcDb3dPolylineVertex
 10
0.223
 20
0.536
 30
0.187
 70
    32
  0
VERTEX
  5
611D0
100
AcDbEntity
  8
0
100
AcDbVertex
100
AcDb3dPolylineVertex
 10
0.223
 20
0.401
 30
0.187
 70
    32
  0
SEQEND
  5
611D1
100
AcDbEntity
  8
0
  0
POLYLINE
  5
611D2
100
AcDbEntity
  8
0
100
AcDb3dPolyline
 66
     1
 10
0.0
 20
0.0
 30
0.0
 70
     8
  0
VERTEX
  5
611D3
100
AcDbEntity
  8
0
100
AcDbVertex
100
AcDb3dPolylineVertex
 10
0.979
 20
0.401
 30
0.187
 70
    32
  0
VERTEX
  5
611D4
100
AcDbEntity
  8
0
100
AcDbVertex
100
AcDb3dPolylineVertex
 10
0.979
 20
0.536
 30
0.187
 70
    32
  0
VERTEX
  5
611D5
100
AcDbEntity
  8
0
100
AcDbVertex
100
AcDb3dPolylineVertex
 10
0.768333
 20
0.536
 30
0.187
 70
    32
  0
VERTEX
  5
611D6
100
AcDbEntity
  8
0
100
AcDbVertex
100
AcDb3dPolylineVertex
 10
0.768333
 20
0.401
 30
0.187
 70
    32
  0
SEQEND
  5
611D7
100
AcDbEntity
  8
0
  0
POLYLINE
  5
611D8
100
AcDbEntity
  8
0
100
AcDbPolygonMesh
 66
     1
 10
0.0
 20
0.0
 30
0.0
 70
    16
 71
     6
 72
     3
  0
VERTEX
  5
611D9
100
AcDbEntity
  8
0
100
AcDbVertex
100
AcDbPolygonMeshVertex
 10
0.864
 20
-0.5675
 30
4.071
 70
    64
  0
VERTEX
  5
611DA
100
AcDbEntity
  8
0
100
AcDbVertex
100
AcDbPolygonMeshVertex
 10
0.864
 20
-0.5675
 30
3.894
 70
    64
  0
VERTEX
  5
611DB
100
AcDbEntity
  8
0
100
AcDbVertex
100
AcDbPolygonMeshVertex
 10
0.864
 20
-0.5675
 30
3.894
 70
    64
  0
VERTEX
  5
611DC
100
AcDbEntity
  8
0
100
AcDbVertex
100
AcDbPolygonMeshVertex
 10
0.6945
 20
-0.5675
 30
4.071
 70
    64
  0
VERTEX
  5
611DD
100
AcDbEntity
  8
0
100
AcDbVertex
100
AcDbPolygonMeshVertex
 10
0.6945
 20
-0.5675
 30
3.894
 70
    64
  0
VERTEX
  5
611DE
100
AcDbEntity
  8
0
100
AcDbVertex
100
AcDbPolygonMeshVertex
 10
0.6945
 20
-0.5675
 30
3.894
 70
    64
  0
VERTEX
  5
611DF
100
AcDbEntity
  8
0
100
AcDbVertex
100
AcDbPolygonMeshVertex
 10
0.6945
 20
-0.2145
 30
4.071
 70
    64
  0
VERTEX
  5
611E0
100
AcDbEntity
  8
0
100
AcDbVertex
100
AcDbPolygonMeshVertex
 10
0.6945
 20
-0.2145
 30
3.894
 70
    64
  0
VERTEX
  5
611E1
100
AcDbEntity
  8
0
100
AcDbVertex
100
AcDbPolygonMeshVertex
 10
0.6945
 20
-0.5675
 30
3.894
 70
    64
  0
VERTEX
  5
611E2
100
AcDbEntity
  8
0
100
AcDbVertex
100
AcDbPolygonMeshVertex
 10
0.864
 20
-0.2145
 30
4.071
 70
    64
  0
VERTEX
  5
611E3
100
AcDbEntity
  8
0
100
AcDbVertex
100
AcDbPolygonMeshVertex
 10
0.864
 20
-0.2145
 30
3.894
 70
    64
  0
VERTEX
  5
611E4
100
AcDbEntity
  8
0
100
AcDbVertex
100
AcDbPolygonMeshVertex
 10
0.864
 20
-0.5675
 30
3.894
 70
    64
  0
VERTEX
  5
611E5
100
AcDbEntity
  8
0
100
AcDbVertex
100
AcDbPolygonMeshVertex
 10
0.864
 20
-0.2145
 30
4.071
 70
    64
  0
VERTEX
  5
611E6
100
AcDbEntity
  8
0
100
AcDbVertex
100
AcDbPolygonMeshVertex
 10
0.864
 20
-0.2145
 30
4.071
 70
    64
  0
VERTEX
  5
611E7
100
AcDbEntity
  8
0
100
AcDbVertex
100
AcDbPolygonMeshVertex
 10
0.864
 20
-0.5675
 30
4.071
 70
    64
  0
VERTEX
  5
611E8
100
AcDbEntity
  8
0
100
AcDbVertex
100
AcDbPolygonMeshVertex
 10
0.6945
 20
-0.2145
 30
4.071
 70
    64
  0
VERTEX
  5
611E9
100
AcDbEntity
  8
0
100
AcDbVertex
100
AcDbPolygonMeshVertex
 10
0.6945
 20
-0.2145
 30
4.071
 70
    64
  0
VERTEX
  5
611EA
100
AcDbEntity
  8
0
100
AcDbVertex
100
AcDbPolygonMeshVertex
 10
0.6945
 20
-0.5675
 30
4.071
 70
    64
  0
SEQEND
  5
611EB
100
AcDbEntity
  8
0
  0
POLYLINE
  5
611EC
100
AcDbEntity
  8
0
100
AcDbPolygonMesh
 66
     1
 10
0.0
 20
0.0
 30
0.0
 70
    16
 71
     6
 72
     3
  0
VERTEX
  5
611ED
100
AcDbEntity
  8
0
100
AcDbVertex
100
AcDbPolygonMeshVertex
 10
1.4255
 20
-0.5675
 30
3.894
 70
    64
  0
VERTEX
  5
611EE
100
AcDbEntity
  8
0
100
AcDbVertex
100
AcDbPolygonMeshVertex
 10
1.4255
 20
-0.5675
 30
3.86
 70
    64
  0
VERTEX
  5
611EF
100
AcDbEntity
  8
0
100
AcDbVertex
100
AcDbPolygonMeshVertex
 10
1.4255
 20
-0.5675
 30
3.86
 70
    64
  0
VERTEX
  5
611F0
100
AcDbEntity
  8
0
100
AcDbVertex
100
AcDbPolygonMeshVertex
 10
0.6945
 20
-0.5675
 30
3.894
 70
    64
  0
VERTEX
  5
611F1
100
AcDbEntity
  8
0
100
AcDbVertex
100
AcDbPolygonMeshVertex
 10
0.6945
 20
-0.5675
 30
3.86
 70
    64
  0
VERTEX
  5
611F2
100
AcDbEntity
  8
0
100
AcDbVertex
100
AcDbPolygonMeshVertex
 10
0.6945
 20
-0.5675
 30
3.86
 70
    64
  0
VERTEX
  5
611F3
100
AcDbEntity
  8
0
100
AcDbVertex
100
AcDbPolygonMeshVertex
 10
0.6945
 20
-0.2145
 30
3.894
 70
    64
  0
VERTEX
  5
611F4
100
AcDbEntity
  8
0
100
AcDbVertex
100
AcDbPolygonMeshVertex
 10
0.6945
 20
-0.2145
 30
3.86
 70
    64
  0
VERTEX
  5
611F5
100
AcDbEntity
  8
0
100
AcDbVertex
100
AcDbPolygonMeshVertex
 10
0.6945
 20
-0.5675
 30
3.86
 70
    64
  0
VERTEX
  5
611F6
100
AcDbEntity
  8
0
100
AcDbVertex
100
AcDbPolygonMeshVertex
 10
1.4255
 20
-0.2145
 30
3.894
 70
    64
  0
VERTEX
  5
611F7
100
AcDbEntity
  8
0
100
AcDbVertex
100
AcDbPolygonMeshVertex
 10
1.4255
 20
-0.2145
 30
3.86
 70
    64
  0
VERTEX
  5
611F8
100
AcDbEntity
  8
0
100
AcDbVertex
100
AcDbPolygonMeshVertex
 10
1.4255
 20
-0.5675
 30
3.86
 70
    64
  0
VERTEX
  5
611F9
100
AcDbEntity
  8
0
100
AcDbVertex
100
AcDbPolygonMeshVertex
 10
1.4255
 20
-0.2145
 30
3.894
 70
    64
  0
VERTEX
  5
611FA
100
AcDbEntity
  8
0
100
AcDbVertex
100
AcDbPolygonMeshVertex
 10
1.4255
 20
-0.2145
 30
3.894
 70
    64
  0
VERTEX
  5
611FB
100
AcDbEntity
  8
0
100
AcDbVertex
100
AcDbPolygonMeshVertex
 10
1.4255
 20
-0.5675
 30
3.894
 70
    64
  0
VERTEX
  5
611FC
100
AcDbEntity
  8
0
100
AcDbVertex
100
AcDbPolygonMeshVertex
 10
0.6945
 20
-0.2145
 30
3.894
 70
    64
  0
VERTEX
  5
611FD
100
AcDbEntity
  8
0
100
AcDbVertex
100
AcDbPolygonMeshVertex
 10
0.6945
 20
-0.2145
 30
3.894
 70
    64
  0
VERTEX
  5
611FE
100
AcDbEntity
  8
0
100
AcDbVertex
100
AcDbPolygonMeshVertex
 10
0.6945
 20
-0.5675
 30
3.894
 70
    64
  0
SEQEND
  5
611FF
100
AcDbEntity
  8
0
  0
POLYLINE
  5
61200
100
AcDbEntity
  8
0
100
AcDbPolygonMesh
 66
     1
 10
0.0
 20
0.0
 30
0.0
 70
    16
 71
     6
 72
     3
  0
VERTEX
  5
61201
100
AcDbEntity
  8
0
100
AcDbVertex
100
AcDbPolygonMeshVertex
 10
1.4255
 20
-0.5675
 30
4.071
 70
    64
  0
VERTEX
  5
61202
100
AcDbEntity
  8
0
100
AcDbVertex
100
AcDbPolygonMeshVertex
 10
1.4255
 20
-0.5675
 30
3.894
 70
    64
  0
VERTEX
  5
61203
100
AcDbEntity
  8
0
100
AcDbVertex
100
AcDbPolygonMeshVertex
 10
1.4255
 20
-0.5675
 30
3.894
 70
    64
  0
VERTEX
  5
61204
100
AcDbEntity
  8
0
100
AcDbVertex
100
AcDbPolygonMeshVertex
 10
1.256
 20
-0.5675
 30
4.071
 70
    64
  0
VERTEX
  5
61205
100
AcDbEntity
  8
0
100
AcDbVertex
100
AcDbPolygonMeshVertex
 10
1.256
 20
-0.5675
 30
3.894
 70
    64
  0
VERTEX
  5
61206
100
AcDbEntity
  8
0
100
AcDbVertex
100
AcDbPolygonMeshVertex
 10
1.256
 20
-0.5675
 30
3.894
 70
    64
  0
VERTEX
  5
61207
100
AcDbEntity
  8
0
100
AcDbVertex
100
AcDbPolygonMeshVertex
 10
1.256
 20
-0.2145
 30
4.071
 70
    64
  0
VERTEX
  5
61208
100
AcDbEntity
  8
0
100
AcDbVertex
100
AcDbPolygonMeshVertex
 10
1.256
 20
-0.2145
 30
3.894
 70
    64
  0
VERTEX
  5
61209
100
AcDbEntity
  8
0
100
AcDbVertex
100
AcDbPolygonMeshVertex
 10
1.256
 20
-0.5675
 30
3.894
 70
    64
  0
VERTEX
  5
6120A
100
AcDbEntity
  8
0
100
AcDbVertex
100
AcDbPolygonMeshVertex
 10
1.4255
 20
-0.2145
 30
4.071
 70
    64
  0
VERTEX
  5
6120B
100
AcDbEntity
  8
0
100
AcDbVertex
100
AcDbPolygonMeshVertex
 10
1.4255
 20
-0.2145
 30
3.894
 70
    64
  0
VERTEX
  5
6120C
100
AcDbEntity
  8
0
100
AcDbVertex
100
AcDbPolygonMeshVertex
 10
1.4255
 20
-0.5675
 30
3.894
 70
    64
  0
VERTEX
  5
6120D
100
AcDbEntity
  8
0
100
AcDbVertex
100
AcDbPolygonMeshVertex
 10
1.4255
 20
-0.2145
 30
4.071
 70
    64
  0
VERTEX
  5
6120E
100
AcDbEntity
  8
0
100
AcDbVertex
100
AcDbPolygonMeshVertex
 10
1.4255
 20
-0.2145
 30
4.071
 70
    64
  0
VERTEX
  5
6120F
100
AcDbEntity
  8
0
100
AcDbVertex
100
AcDbPolygonMeshVertex
 10
1.4255
 20
-0.5675
 30
4.071
 70
    64
  0
VERTEX
  5
61210
100
AcDbEntity
  8
0
100
AcDbVertex
100
AcDbPolygonMeshVertex
 10
1.256
 20
-0.2145
 30
4.071
 70
    64
  0
VERTEX
  5
61211
100
AcDbEntity
  8
0
100
AcDbVertex
100
AcDbPolygonMeshVertex
 10
1.256
 20
-0.2145
 30
4.071
 70
    64
  0
VERTEX
  5
61212
100
AcDbEntity
  8
0
100
AcDbVertex
100
AcDbPolygonMeshVertex
 10
1.256
 20
-0.5675
 30
4.071
 70
    64
  0
SEQEND
  5
61213
100
AcDbEntity
  8
0
  0
POLYLINE
  5
61214
100
AcDbEntity
  8
0
100
AcDbPolygonMesh
 66
     1
 10
0.0
 20
0.0
 30
0.0
 70
    16
 71
     6
 72
     3
  0
VERTEX
  5
61215
100
AcDbEntity
  8
0
100
AcDbVertex
100
AcDbPolygonMeshVertex
 10
0.9575
 20
-1.0225
 30
4.11
 70
    64
  0
VERTEX
  5
61216
100
AcDbEntity
  8
0
100
AcDbVertex
100
AcDbPolygonMeshVertex
 10
0.9575
 20
-1.0225
 30
3.894
 70
    64
  0
VERTEX
  5
61217
100
AcDbEntity
  8
0
100
AcDbVertex
100
AcDbPolygonMeshVertex
 10
0.9575
 20
-1.0225
 30
3.894
 70
    64
  0
VERTEX
  5
61218
100
AcDbEntity
  8
0
100
AcDbVertex
100
AcDbPolygonMeshVertex
 10
0.8225
 20
-1.0225
 30
4.11
 70
    64
  0
VERTEX
  5
61219
100
AcDbEntity
  8
0
100
AcDbVertex
100
AcDbPolygonMeshVertex
 10
0.8225
 20
-1.0225
 30
3.894
 70
    64
  0
VERTEX
  5
6121A
100
AcDbEntity
  8
0
100
AcDbVertex
100
AcDbPolygonMeshVertex
 10
0.8225
 20
-1.0225
 30
3.894
 70
    64
  0
VERTEX
  5
6121B
100
AcDbEntity
  8
0
100
AcDbVertex
100
AcDbPolygonMeshVertex
 10
0.8225
 20
-0.6775
 30
4.11
 70
    64
  0
VERTEX
  5
6121C
100
AcDbEntity
  8
0
100
AcDbVertex
100
AcDbPolygonMeshVertex
 10
0.8225
 20
-0.6775
 30
3.894
 70
    64
  0
VERTEX
  5
6121D
100
AcDbEntity
  8
0
100
AcDbVertex
100
AcDbPolygonMeshVertex
 10
0.8225
 20
-1.0225
 30
3.894
 70
    64
  0
VERTEX
  5
6121E
100
AcDbEntity
  8
0
100
AcDbVertex
100
AcDbPolygonMeshVertex
 10
0.9575
 20
-0.6775
 30
4.11
 70
    64
  0
VERTEX
  5
6121F
100
AcDbEntity
  8
0
100
AcDbVertex
100
AcDbPolygonMeshVertex
 10
0.9575
 20
-0.6775
 30
3.894
 70
    64
  0
VERTEX
  5
61220
100
AcDbEntity
  8
0
100
AcDbVertex
100
AcDbPolygonMeshVertex
 10
0.9575
 20
-1.0225
 30
3.894
 70
    64
  0
VERTEX
  5
61221
100
AcDbEntity
  8
0
100
AcDbVertex
100
AcDbPolygonMeshVertex
 10
0.9575
 20
-0.6775
 30
4.11
 70
    64
  0
VERTEX
  5
61222
100
AcDbEntity
  8
0
100
AcDbVertex
100
AcDbPolygonMeshVertex
 10
0.9575
 20
-0.6775
 30
4.11
 70
    64
  0
VERTEX
  5
61223
100
AcDbEntity
  8
0
100
AcDbVertex
100
AcDbPolygonMeshVertex
 10
0.9575
 20
-1.0225
 30
4.11
 70
    64
  0
VERTEX
  5
61224
100
AcDbEntity
  8
0
100
AcDbVertex
100
AcDbPolygonMeshVertex
 10
0.8225
 20
-0.6775
 30
4.11
 70
    64
  0
VERTEX
  5
61225
100
AcDbEntity
  8
0
100
AcDbVertex
100
AcDbPolygonMeshVertex
 10
0.8225
 20
-0.6775
 30
4.11
 70
    64
  0
VERTEX
  5
61226
100
AcDbEntity
  8
0
100
AcDbVertex
100
AcDbPolygonMeshVertex
 10
0.8225
 20
-1.0225
 30
4.11
 70
    64
  0
SEQEND
  5
61227
100
AcDbEntity
  8
0
  0
POLYLINE
  5
61228
100
AcDbEntity
  8
0
100
AcDbPolygonMesh
 66
     1
 10
0.0
 20
0.0
 30
0.0
 70
    16
 71
     6
 72
     3
  0
VERTEX
  5
61229
100
AcDbEntity
  8
0
100
AcDbVertex
100
AcDbPolygonMeshVertex
 10
1.2975
 20
-1.0225
 30
3.894
 70
    64
  0
VERTEX
  5
6122A
100
AcDbEntity
  8
0
100
AcDbVertex
100
AcDbPolygonMeshVertex
 10
1.2975
 20
-1.0225
 30
3.86
 70
    64
  0
VERTEX
  5
6122B
100
AcDbEntity
  8
0
100
AcDbVertex
100
AcDbPolygonMeshVertex
 10
1.2975
 20
-1.0225
 30
3.86
 70
    64
  0
VERTEX
  5
6122C
100
AcDbEntity
  8
0
100
AcDbVertex
100
AcDbPolygonMeshVertex
 10
0.8225
 20
-1.0225
 30
3.894
 70
    64
  0
VERTEX
  5
6122D
100
AcDbEntity
  8
0
100
AcDbVertex
100
AcDbPolygonMeshVertex
 10
0.8225
 20
-1.0225
 30
3.86
 70
    64
  0
VERTEX
  5
6122E
100
AcDbEntity
  8
0
100
AcDbVertex
100
AcDbPolygonMeshVertex
 10
0.8225
 20
-1.0225
 30
3.86
 70
    64
  0
VERTEX
  5
6122F
100
AcDbEntity
  8
0
100
AcDbVertex
100
AcDbPolygonMeshVertex
 10
0.8225
 20
-0.6775
 30
3.894
 70
    64
  0
VERTEX
  5
61230
100
AcDbEntity
  8
0
100
AcDbVertex
100
AcDbPolygonMeshVertex
 10
0.8225
 20
-0.6775
 30
3.86
 70
    64
  0
VERTEX
  5
61231
100
AcDbEntity
  8
0
100
AcDbVertex
100
AcDbPolygonMeshVertex
 10
0.8225
 20
-1.0225
 30
3.86
 70
    64
  0
VERTEX
  5
61232
100
AcDbEntity
  8
0
100
AcDbVertex
100
AcDbPolygonMeshVertex
 10
1.2975
 20
-0.6775
 30
3.894
 70
    64
  0
VERTEX
  5
61233
100
AcDbEntity
  8
0
100
AcDbVertex
100
AcDbPolygonMeshVertex
 10
1.2975
 20
-0.6775
 30
3.86
 70
    64
  0
VERTEX
  5
61234
100
AcDbEntity
  8
0
100
AcDbVertex
100
AcDbPolygonMeshVertex
 10
1.2975
 20
-1.0225
 30
3.86
 70
    64
  0
VERTEX
  5
61235
100
AcDbEntity
  8
0
100
AcDbVertex
100
AcDbPolygonMeshVertex
 10
1.2975
 20
-0.6775
 30
3.894
 70
    64
  0
VERTEX
  5
61236
100
AcDbEntity
  8
0
100
AcDbVertex
100
AcDbPolygonMeshVertex
 10
1.2975
 20
-0.6775
 30
3.894
 70
    64
  0
VERTEX
  5
61237
100
AcDbEntity
  8
0
100
AcDbVertex
100
AcDbPolygonMeshVertex
 10
1.2975
 20
-1.0225
 30
3.894
 70
    64
  0
VERTEX
  5
61238
100
AcDbEntity
  8
0
100
AcDbVertex
100
AcDbPolygonMeshVertex
 10
0.8225
 20
-0.6775
 30
3.894
 70
    64
  0
VERTEX
  5
61239
100
AcDbEntity
  8
0
100
AcDbVertex
100
AcDbPolygonMeshVertex
 10
0.8225
 20
-0.6775
 30
3.894
 70
    64
  0
VERTEX
  5
6123A
100
AcDbEntity
  8
0
100
AcDbVertex
100
AcDbPolygonMeshVertex
 10
0.8225
 20
-1.0225
 30
3.894
 70
    64
  0
SEQEND
  5
6123B
100
AcDbEntity
  8
0
  0
POLYLINE
  5
6123C
100
AcDbEntity
  8
0
100
AcDbPolygonMesh
 66
     1
 10
0.0
 20
0.0
 30
0.0
 70
    16
 71
     6
 72
     3
  0
VERTEX
  5
6123D
100
AcDbEntity
  8
0
100
AcDbVertex
100
AcDbPolygonMeshVertex
 10
1.2975
 20
-1.0225
 30
4.11
 70
    64
  0
VERTEX
  5
6123E
100
AcDbEntity
  8
0
100
AcDbVertex
100
AcDbPolygonMeshVertex
 10
1.2975
 20
-1.0225
 30
3.894
 70
    64
  0
VERTEX
  5
6123F
100
AcDbEntity
  8
0
100
AcDbVertex
100
AcDbPolygonMeshVertex
 10
1.2975
 20
-1.0225
 30
3.894
 70
    64
  0
VERTEX
  5
61240
100
AcDbEntity
  8
0
100
AcDbVertex
100
AcDbPolygonMeshVertex
 10
1.1625
 20
-1.0225
 30
4.11
 70
    64
  0
VERTEX
  5
61241
100
AcDbEntity
  8
0
100
AcDbVertex
100
AcDbPolygonMeshVertex
 10
1.1625
 20
-1.0225
 30
3.894
 70
    64
  0
VERTEX
  5
61242
100
AcDbEntity
  8
0
100
AcDbVertex
100
AcDbPolygonMeshVertex
 10
1.1625
 20
-1.0225
 30
3.894
 70
    64
  0
VERTEX
  5
61243
100
AcDbEntity
  8
0
100
AcDbVertex
100
AcDbPolygonMeshVertex
 10
1.1625
 20
-0.6775
 30
4.11
 70
    64
  0
VERTEX
  5
61244
100
AcDbEntity
  8
0
100
AcDbVertex
100
AcDbPolygonMeshVertex
 10
1.1625
 20
-0.6775
 30
3.894
 70
    64
  0
VERTEX
  5
61245
100
AcDbEntity
  8
0
100
AcDbVertex
100
AcDbPolygonMeshVertex
 10
1.1625
 20
-1.0225
 30
3.894
 70
    64
  0
VERTEX
  5
61246
100
AcDbEntity
  8
0
100
AcDbVertex
100
AcDbPolygonMeshVertex
 10
1.2975
 20
-0.6775
 30
4.11
 70
    64
  0
VERTEX
  5
61247
100
AcDbEntity
  8
0
100
AcDbVertex
100
AcDbPolygonMeshVertex
 10
1.2975
 20
-0.6775
 30
3.894
 70
    64
  0
VERTEX
  5
61248
100
AcDbEntity
  8
0
100
AcDbVertex
100
AcDbPolygonMeshVertex
 10
1.2975
 20
-1.0225
 30
3.894
 70
    64
  0
VERTEX
  5
61249
100
AcDbEntity
  8
0
100
AcDbVertex
100
AcDbPolygonMeshVertex
 10
1.2975
 20
-0.6775
 30
4.11
 70
    64
  0
VERTEX
  5
6124A
100
AcDbEntity
  8
0
100
AcDbVertex
100
AcDbPolygonMeshVertex
 10
1.2975
 20
-0.6775
 30
4.11
 70
    64
  0
VERTEX
  5
6124B
100
AcDbEntity
  8
0
100
AcDbVertex
100
AcDbPolygonMeshVertex
 10
1.2975
 20
-1.0225
 30
4.11
 70
    64
  0
VERTEX
  5
6124C
100
AcDbEntity
  8
0
100
AcDbVertex
100
AcDbPolygonMeshVertex
 10
1.1625
 20
-0.6775
 30
4.11
 70
    64
  0
VERTEX
  5
6124D
100
AcDbEntity
  8
0
100
AcDbVertex
100
AcDbPolygonMeshVertex
 10
1.1625
 20
-0.6775
 30
4.11
 70
    64
  0
VERTEX
  5
6124E
100
AcDbEntity
  8
0
100
AcDbVertex
100
AcDbPolygonMeshVertex
 10
1.1625
 20
-1.0225
 30
4.11
 70
    64
  0
SEQEND
  5
6124F
100
AcDbEntity
  8
0
  0
TEXT
  5
61250
100
AcDbEntity
  8
0
100
AcDbText
 10
0.11323
 20
0.281116
 30
3.86
 40
0.083465
  1
1
100
AcDbText
  0
TEXT
  5
61251
100
AcDbEntity
  8
0
100
AcDbText
 10
0.569131
 20
0.280274
 30
3.86
 40
0.083465
  1
L1
100
AcDbText
  0
TEXT
  5
61252
100
AcDbEntity
  8
0
100
AcDbText
 10
0.842703
 20
0.279432
 30
3.86
 40
0.083465
  1
3
100
AcDbText
  0
TEXT
  5
61253
100
AcDbEntity
  8
0
100
AcDbText
 10
1.226609
 20
0.280843
 30
3.86
 40
0.083465
  1
L2
100
AcDbText
  0
TEXT
  5
61254
100
AcDbEntity
  8
0
100
AcDbText
 10
1.534202
 20
0.282255
 30
3.86
 40
0.083465
  1
5
100
AcDbText
  0
TEXT
  5
61255
100
AcDbEntity
  8
0
100
AcDbText
 10
1.917519
 20
0.284255
 30
3.86
 40
0.083465
  1
L3
100
AcDbText
  0
TEXT
  5
61256
100
AcDbEntity
  8
0
100
AcDbText
 10
0.10621
 20
-2.064187
 30
3.86
 40
0.083465
  1
2
100
AcDbText
  0
TEXT
  5
61257
100
AcDbEntity
  8
0
100
AcDbText
 10
0.56732
 20
-2.062776
 30
3.86
 40
0.083465
  1
T1
100
AcDbText
  0
TEXT
  5
61258
100
AcDbEntity
  8
0
100
AcDbText
 10
0.843257
 20
-2.060776
 30
3.86
 40
0.083465
  1
4
100
AcDbText
  0
TEXT
  5
61259
100
AcDbEntity
  8
0
100
AcDbText
 10
1.227642
 20
-2.062206
 30
3.86
 40
0.083465
  1
T2
100
AcDbText
  0
TEXT
  5
6125A
100
AcDbEntity
  8
0
100
AcDbText
 10
1.539078
 20
-2.063048
 30
3.86
 40
0.083465
  1
6
100
AcDbText
  0
TEXT
  5
6125B
100
AcDbEntity
  8
0
100
AcDbText
 10
1.917186
 20
-2.061637
 30
3.86
 40
0.083465
  1
T3
100
AcDbText
  0
CIRCLE
  5
6125C
100
AcDbEntity
  8
0
100
AcDbCircle
 10
1.945
 20
0.337
 30
0.0
 40
0.086
  0
POLYLINE
  5
6125D
100
AcDbEntity
  8
0
100
AcDb3dPolyline
 66
     1
 10
0.0
 20
0.0
 30
0.0
 70
     8
  0
VERTEX
  5
6125E
100
AcDbEntity
  8
0
100
AcDbVertex
100
AcDb3dPolylineVertex
 10
0.979
 20
0.401
 30
0.0
 70
    32
  0
VERTEX
  5
6125F
100
AcDbEntity
  8
0
100
AcDbVertex
100
AcDb3dPolylineVertex
 10
0.979
 20
0.536
 30
0.0
 70
    32
  0
VERTEX
  5
61260
100
AcDbEntity
  8
0
100
AcDbVertex
100
AcDb3dPolylineVertex
 10
0.768333
 20
0.536
 30
0.0
 70
    32
  0
VERTEX
  5
61261
100
AcDbEntity
  8
0
100
AcDbVertex
100
AcDb3dPolylineVertex
 10
0.768333
 20
0.401
 30
0.0
 70
    32
  0
SEQEND
  5
61262
100
AcDbEntity
  8
0
  0
POLYLINE
  5
61263
100
AcDbEntity
  8
0
100
AcDb3dPolyline
 66
     1
 10
0.0
 20
0.0
 30
0.0
 70
     8
  0
VERTEX
  5
61264
100
AcDbEntity
  8
0
100
AcDbVertex
100
AcDb3dPolylineVertex
 10
0.706333
 20
0.401
 30
0.0
 70
    32
  0
VERTEX
  5
61265
100
AcDbEntity
  8
0
100
AcDbVertex
100
AcDb3dPolylineVertex
 10
0.706333
 20
0.536
 30
0.0
 70
    32
  0
VERTEX
  5
61266
100
AcDbEntity
  8
0
100
AcDbVertex
100
AcDb3dPolylineVertex
 10
0.495667
 20
0.536
 30
0.0
 70
    32
  0
VERTEX
  5
61267
100
AcDbEntity
  8
0
100
AcDbVertex
100
AcDb3dPolylineVertex
 10
0.495667
 20
0.401
 30
0.0
 70
    32
  0
SEQEND
  5
61268
100
AcDbEntity
  8
0
  0
POLYLINE
  5
61269
100
AcDbEntity
  8
0
100
AcDb3dPolyline
 66
     1
 10
0.0
 20
0.0
 30
0.0
 70
     8
  0
VERTEX
  5
6126A
100
AcDbEntity
  8
0
100
AcDbVertex
100
AcDb3dPolylineVertex
 10
0.433667
 20
0.401
 30
0.0
 70
    32
  0
VERTEX
  5
6126B
100
AcDbEntity
  8
0
100
AcDbVertex
100
AcDb3dPolylineVertex
 10
0.433667
 20
0.536
 30
0.0
 70
    32
  0
VERTEX
  5
6126C
100
AcDbEntity
  8
0
100
AcDbVertex
100
AcDb3dPolylineVertex
 10
0.223
 20
0.536
 30
0.0
 70
    32
  0
VERTEX
  5
6126D
100
AcDbEntity
  8
0
100
AcDbVertex
100
AcDb3dPolylineVertex
 10
0.223
 20
0.401
 30
0.0
 70
    32
  0
SEQEND
  5
6126E
100
AcDbEntity
  8
0
  0
LINE
  5
6126F
100
AcDbEntity
  8
0
100
AcDbLine
 10
0.979
 20
0.401
 30
0.0
 11
0.768333
 21
0.401
 31
0.0
  0
LINE
  5
61270
100
AcDbEntity
  8
0
100
AcDbLine
 10
0.706333
 20
0.401
 30
0.0
 11
0.495667
 21
0.401
 31
0.0
  0
LINE
  5
61271
100
AcDbEntity
  8
0
100
AcDbLine
 10
0.433667
 20
0.401
 30
0.0
 11
0.223
 21
0.401
 31
0.0
  0
POLYLINE
  5
61272
100
AcDbEntity
  8
0
100
AcDbPolygonMesh
 66
     1
 10
0.0
 20
0.0
 30
0.0
 70
    16
 71
     6
 72
     3
  0
VERTEX
  5
61273
100
AcDbEntity
  8
0
100
AcDbVertex
100
AcDbPolygonMeshVertex
 10
0.391
 20
-1.806
 30
1.318
 70
    64
  0
VERTEX
  5
61274
100
AcDbEntity
  8
0
100
AcDbVertex
100
AcDbPolygonMeshVertex
 10
0.391
 20
-1.806
 30
0.187
 70
    64
  0
VERTEX
  5
61275
100
AcDbEntity
  8
0
100
AcDbVertex
100
AcDbPolygonMeshVertex
 10
0.391
 20
-1.806
 30
0.187
 70
    64
  0
VERTEX
  5
61276
100
AcDbEntity
  8
0
100
AcDbVertex
100
AcDbPolygonMeshVertex
 10
0.0
 20
-1.806
 30
1.318
 70
    64
  0
VERTEX
  5
61277
100
AcDbEntity
  8
0
100
AcDbVertex
100
AcDbPolygonMeshVertex
 10
0.0
 20
-1.806
 30
0.187
 70
    64
  0
VERTEX
  5
61278
100
AcDbEntity
  8
0
100
AcDbVertex
100
AcDbPolygonMeshVertex
 10
0.0
 20
-1.806
 30
0.187
 70
    64
  0
VERTEX
  5
61279
100
AcDbEntity
  8
0
100
AcDbVertex
100
AcDbPolygonMeshVertex
 10
0.0
 20
0.401
 30
1.318
 70
    64
  0
VERTEX
  5
6127A
100
AcDbEntity
  8
0
100
AcDbVertex
100
AcDbPolygonMeshVertex
 10
0.0
 20
0.401
 30
0.187
 70
    64
  0
VERTEX
  5
6127B
100
AcDbEntity
  8
0
100
AcDbVertex
100
AcDbPolygonMeshVertex
 10
0.0
 20
-1.806
 30
0.187
 70
    64
  0
VERTEX
  5
6127C
100
AcDbEntity
  8
0
100
AcDbVertex
100
AcDbPolygonMeshVertex
 10
0.391
 20
0.401
 30
1.318
 70
    64
  0
VERTEX
  5
6127D
100
AcDbEntity
  8
0
100
AcDbVertex
100
AcDbPolygonMeshVertex
 10
0.391
 20
0.401
 30
0.187
 70
    64
  0
VERTEX
  5
6127E
100
AcDbEntity
  8
0
100
AcDbVertex
100
AcDbPolygonMeshVertex
 10
0.391
 20
-1.806
 30
0.187
 70
    64
  0
VERTEX
  5
6127F
100
AcDbEntity
  8
0
100
AcDbVertex
100
AcDbPolygonMeshVertex
 10
0.391
 20
0.401
 30
1.318
 70
    64
  0
VERTEX
  5
61280
100
AcDbEntity
  8
0
100
AcDbVertex
100
AcDbPolygonMeshVertex
 10
0.391
 20
0.401
 30
1.318
 70
    64
  0
VERTEX
  5
61281
100
AcDbEntity
  8
0
100
AcDbVertex
100
AcDbPolygonMeshVertex
 10
0.391
 20
-1.806
 30
1.318
 70
    64
  0
VERTEX
  5
61282
100
AcDbEntity
  8
0
100
AcDbVertex
100
AcDbPolygonMeshVertex
 10
0.0
 20
0.401
 30
1.318
 70
    64
  0
VERTEX
  5
61283
100
AcDbEntity
  8
0
100
AcDbVertex
100
AcDbPolygonMeshVertex
 10
0.0
 20
0.401
 30
1.318
 70
    64
  0
VERTEX
  5
61284
100
AcDbEntity
  8
0
100
AcDbVertex
100
AcDbPolygonMeshVertex
 10
0.0
 20
-1.806
 30
1.318
 70
    64
  0
SEQEND
  5
61285
100
AcDbEntity
  8
0
  0
POLYLINE
  5
61286
100
AcDbEntity
  8
0
100
AcDbPolygonMesh
 66
     1
 10
0.0
 20
0.0
 30
0.0
 70
    16
 71
     6
 72
     3
  0
VERTEX
  5
61287
100
AcDbEntity
  8
0
100
AcDbVertex
100
AcDbPolygonMeshVertex
 10
2.12
 20
-2.089
 30
1.318
 70
    64
  0
VERTEX
  5
61288
100
AcDbEntity
  8
0
100
AcDbVertex
100
AcDbPolygonMeshVertex
 10
2.12
 20
-2.089
 30
0.187
 70
    64
  0
VERTEX
  5
61289
100
AcDbEntity
  8
0
100
AcDbVertex
100
AcDbPolygonMeshVertex
 10
2.12
 20
-2.089
 30
0.187
 70
    64
  0
VERTEX
  5
6128A
100
AcDbEntity
  8
0
100
AcDbVertex
100
AcDbPolygonMeshVertex
 10
1.729
 20
-2.089
 30
1.318
 70
    64
  0
VERTEX
  5
6128B
100
AcDbEntity
  8
0
100
AcDbVertex
100
AcDbPolygonMeshVertex
 10
1.729
 20
-2.089
 30
0.187
 70
    64
  0
VERTEX
  5
6128C
100
AcDbEntity
  8
0
100
AcDbVertex
100
AcDbPolygonMeshVertex
 10
1.729
 20
-2.089
 30
0.187
 70
    64
  0
VERTEX
  5
6128D
100
AcDbEntity
  8
0
100
AcDbVertex
100
AcDbPolygonMeshVertex
 10
1.729
 20
0.118
 30
1.318
 70
    64
  0
VERTEX
  5
6128E
100
AcDbEntity
  8
0
100
AcDbVertex
100
AcDbPolygonMeshVertex
 10
1.729
 20
0.118
 30
0.187
 70
    64
  0
VERTEX
  5
6128F
100
AcDbEntity
  8
0
100
AcDbVertex
100
AcDbPolygonMeshVertex
 10
1.729
 20
-2.089
 30
0.187
 70
    64
  0
VERTEX
  5
61290
100
AcDbEntity
  8
0
100
AcDbVertex
100
AcDbPolygonMeshVertex
 10
2.12
 20
0.118
 30
1.318
 70
    64
  0
VERTEX
  5
61291
100
AcDbEntity
  8
0
100
AcDbVertex
100
AcDbPolygonMeshVertex
 10
2.12
 20
0.118
 30
0.187
 70
    64
  0
VERTEX
  5
61292
100
AcDbEntity
  8
0
100
AcDbVertex
100
AcDbPolygonMeshVertex
 10
2.12
 20
-2.089
 30
0.187
 70
    64
  0
VERTEX
  5
61293
100
AcDbEntity
  8
0
100
AcDbVertex
100
AcDbPolygonMeshVertex
 10
2.12
 20
0.118
 30
1.318
 70
    64
  0
VERTEX
  5
61294
100
AcDbEntity
  8
0
100
AcDbVertex
100
AcDbPolygonMeshVertex
 10
2.12
 20
0.118
 30
1.318
 70
    64
  0
VERTEX
  5
61295
100
AcDbEntity
  8
0
100
AcDbVertex
100
AcDbPolygonMeshVertex
 10
2.12
 20
-2.089
 30
1.318
 70
    64
  0
VERTEX
  5
61296
100
AcDbEntity
  8
0
100
AcDbVertex
100
AcDbPolygonMeshVertex
 10
1.729
 20
0.118
 30
1.318
 70
    64
  0
VERTEX
  5
61297
100
AcDbEntity
  8
0
100
AcDbVertex
100
AcDbPolygonMeshVertex
 10
1.729
 20
0.118
 30
1.318
 70
    64
  0
VERTEX
  5
61298
100
AcDbEntity
  8
0
100
AcDbVertex
100
AcDbPolygonMeshVertex
 10
1.729
 20
-2.089
 30
1.318
 70
    64
  0
SEQEND
  5
61299
100
AcDbEntity
  8
0
  0
POLYLINE
  5
6129A
100
AcDbEntity
  8
0
100
AcDbPolygonMesh
 66
     1
 10
0.0
 20
0.0
 30
0.0
 70
    16
 71
     6
 72
     3
  0
VERTEX
  5
6129B
100
AcDbEntity
  8
0
100
AcDbVertex
100
AcDbPolygonMeshVertex
 10
1.729
 20
-2.089
 30
1.318
 70
    64
  0
VERTEX
  5
6129C
100
AcDbEntity
  8
0
100
AcDbVertex
100
AcDbPolygonMeshVertex
 10
1.729
 20
-2.089
 30
0.187
 70
    64
  0
VERTEX
  5
6129D
100
AcDbEntity
  8
0
100
AcDbVertex
100
AcDbPolygonMeshVertex
 10
1.729
 20
-2.089
 30
0.187
 70
    64
  0
VERTEX
  5
6129E
100
AcDbEntity
  8
0
100
AcDbVertex
100
AcDbPolygonMeshVertex
 10
0.391
 20
-2.089
 30
1.318
 70
    64
  0
VERTEX
  5
6129F
100
AcDbEntity
  8
0
100
AcDbVertex
100
AcDbPolygonMeshVertex
 10
0.391
 20
-2.089
 30
0.187
 70
    64
  0
VERTEX
  5
612A0
100
AcDbEntity
  8
0
100
AcDbVertex
100
AcDbPolygonMeshVertex
 10
0.391
 20
-2.089
 30
0.187
 70
    64
  0
VERTEX
  5
612A1
100
AcDbEntity
  8
0
100
AcDbVertex
100
AcDbPolygonMeshVertex
 10
0.391
 20
0.401
 30
1.318
 70
    64
  0
VERTEX
  5
612A2
100
AcDbEntity
  8
0
100
AcDbVertex
100
AcDbPolygonMeshVertex
 10
0.391
 20
0.401
 30
0.187
 70
    64
  0
VERTEX
  5
612A3
100
AcDbEntity
  8
0
100
AcDbVertex
100
AcDbPolygonMeshVertex
 10
0.391
 20
-2.089
 30
0.187
 70
    64
  0
VERTEX
  5
612A4
100
AcDbEntity
  8
0
100
AcDbVertex
100
AcDbPolygonMeshVertex
 10
1.729
 20
0.401
 30
1.318
 70
    64
  0
VERTEX
  5
612A5
100
AcDbEntity
  8
0
100
AcDbVertex
100
AcDbPolygonMeshVertex
 10
1.729
 20
0.401
 30
0.187
 70
    64
  0
VERTEX
  5
612A6
100
AcDbEntity
  8
0
100
AcDbVertex
100
AcDbPolygonMeshVertex
 10
1.729
 20
-2.089
 30
0.187
 70
    64
  0
VERTEX
  5
612A7
100
AcDbEntity
  8
0
100
AcDbVertex
100
AcDbPolygonMeshVertex
 10
1.729
 20
0.401
 30
1.318
 70
    64
  0
VERTEX
  5
612A8
100
AcDbEntity
  8
0
100
AcDbVertex
100
AcDbPolygonMeshVertex
 10
1.729
 20
0.401
 30
1.318
 70
    64
  0
VERTEX
  5
612A9
100
AcDbEntity
  8
0
100
AcDbVertex
100
AcDbPolygonMeshVertex
 10
1.729
 20
-2.089
 30
1.318
 70
    64
  0
VERTEX
  5
612AA
100
AcDbEntity
  8
0
100
AcDbVertex
100
AcDbPolygonMeshVertex
 10
0.391
 20
0.401
 30
1.318
 70
    64
  0
VERTEX
  5
612AB
100
AcDbEntity
  8
0
100
AcDbVertex
100
AcDbPolygonMeshVertex
 10
0.391
 20
0.401
 30
1.318
 70
    64
  0
VERTEX
  5
612AC
100
AcDbEntity
  8
0
100
AcDbVertex
100
AcDbPolygonMeshVertex
 10
0.391
 20
-2.089
 30
1.318
 70
    64
  0
SEQEND
  5
612AD
100
AcDbEntity
  8
0
  0
LWPOLYLINE
  5
612AE
100
AcDbEntity
  8
0
100
AcDbPolyline
 90
        4
 70
     1
 43
0.0
 38
1.388
 10
0.9265
 20
-2.141
 10
1.1935
 20
-2.141
 10
1.1935
 20
-2.29
 10
0.9265
 20
-2.29
  0
LINE
  5
612AF
100
AcDbEntity
  8
0
100
AcDbLine
 10
1.2
 20
0.401
 30
2.062
 11
1.2
 21
0.636
 31
2.062
  0
LINE
  5
612B0
100
AcDbEntity
  8
0
100
AcDbLine
 10
0.5625
 20
0.838
 30
1.841
 11
0.5625
 21
0.838
 31
1.641
  0
LINE
  5
612B1
100
AcDbEntity
  8
0
100
AcDbLine
 10
0.36
 20
0.598
 30
0.187
 11
0.161
 21
0.598
 31
0.187
  0
POLYLINE
  5
612B2
100
AcDbEntity
  8
0
100
AcDbPolygonMesh
 66
     1
 10
0.0
 20
0.0
 30
0.0
 70
    16
 71
     6
 72
     3
  0
VERTEX
  5
612B3
100
AcDbEntity
  8
0
100
AcDbVertex
100
AcDbPolygonMeshVertex
 10
1.959
 20
-2.286
 30
0.187
 70
    64
  0
VERTEX
  5
612B4
100
AcDbEntity
  8
0
100
AcDbVertex
100
AcDbPolygonMeshVertex
 10
1.959
 20
-2.286
 30
0.0
 70
    64
  0
VERTEX
  5
612B5
100
AcDbEntity
  8
0
100
AcDbVertex
100
AcDbPolygonMeshVertex
 10
1.959
 20
-2.286
 30
0.0
 70
    64
  0
VERTEX
  5
612B6
100
AcDbEntity
  8
0
100
AcDbVertex
100
AcDbPolygonMeshVertex
 10
1.079
 20
-2.286
 30
0.187
 70
    64
  0
VERTEX
  5
612B7
100
AcDbEntity
  8
0
100
AcDbVertex
100
AcDbPolygonMeshVertex
 10
1.079
 20
-2.286
 30
0.0
 70
    64
  0
VERTEX
  5
612B8
100
AcDbEntity
  8
0
100
AcDbVertex
100
AcDbPolygonMeshVertex
 10
1.079
 20
-2.286
 30
0.0
 70
    64
  0
VERTEX
  5
612B9
100
AcDbEntity
  8
0
100
AcDbVertex
100
AcDbPolygonMeshVertex
 10
1.079
 20
-1.688
 30
0.187
 70
    64
  0
VERTEX
  5
612BA
100
AcDbEntity
  8
0
100
AcDbVertex
100
AcDbPolygonMeshVertex
 10
1.079
 20
-1.688
 30
0.0
 70
    64
  0
VERTEX
  5
612BB
100
AcDbEntity
  8
0
100
AcDbVertex
100
AcDbPolygonMeshVertex
 10
1.079
 20
-2.286
 30
0.0
 70
    64
  0
VERTEX
  5
612BC
100
AcDbEntity
  8
0
100
AcDbVertex
100
AcDbPolygonMeshVertex
 10
1.959
 20
-1.688
 30
0.187
 70
    64
  0
VERTEX
  5
612BD
100
AcDbEntity
  8
0
100
AcDbVertex
100
AcDbPolygonMeshVertex
 10
1.959
 20
-1.688
 30
0.0
 70
    64
  0
VERTEX
  5
612BE
100
AcDbEntity
  8
0
100
AcDbVertex
100
AcDbPolygonMeshVertex
 10
1.959
 20
-2.286
 30
0.0
 70
    64
  0
VERTEX
  5
612BF
100
AcDbEntity
  8
0
100
AcDbVertex
100
AcDbPolygonMeshVertex
 10
1.959
 20
-1.688
 30
0.187
 70
    64
  0
VERTEX
  5
612C0
100
AcDbEntity
  8
0
100
AcDbVertex
100
AcDbPolygonMeshVertex
 10
1.959
 20
-1.688
 30
0.187
 70
    64
  0
VERTEX
  5
612C1
100
AcDbEntity
  8
0
100
AcDbVertex
100
AcDbPolygonMeshVertex
 10
1.959
 20
-2.286
 30
0.187
 70
    64
  0
VERTEX
  5
612C2
100
AcDbEntity
  8
0
100
AcDbVertex
100
AcDbPolygonMeshVertex
 10
1.079
 20
-1.688
 30
0.187
 70
    64
  0
VERTEX
  5
612C3
100
AcDbEntity
  8
0
100
AcDbVertex
100
AcDbPolygonMeshVertex
 10
1.079
 20
-1.688
 30
0.187
 70
    64
  0
VERTEX
  5
612C4
100
AcDbEntity
  8
0
100
AcDbVertex
100
AcDbPolygonMeshVertex
 10
1.079
 20
-2.286
 30
0.187
 70
    64
  0
SEQEND
  5
612C5
100
AcDbEntity
  8
0
  0
POLYLINE
  5
612C6
100
AcDbEntity
  8
0
100
AcDb3dPolyline
 66
     1
 10
0.0
 20
0.0
 30
0.0
 70
     8
  0
VERTEX
  5
612C7
100
AcDbEntity
  8
0
100
AcDbVertex
100
AcDb3dPolylineVertex
 10
1.686333
 20
-2.089
 30
0.0
 70
    32
  0
VERTEX
  5
612C8
100
AcDbEntity
  8
0
100
AcDbVertex
100
AcDb3dPolylineVertex
 10
1.686333
 20
-2.224
 30
0.0
 70
    32
  0
VERTEX
  5
612C9
100
AcDbEntity
  8
0
100
AcDbVertex
100
AcDb3dPolylineVertex
 10
1.897
 20
-2.224
 30
0.0
 70
    32
  0
VERTEX
  5
612CA
100
AcDbEntity
  8
0
100
AcDbVertex
100
AcDb3dPolylineVertex
 10
1.897
 20
-2.089
 30
0.0
 70
    32
  0
SEQEND
  5
612CB
100
AcDbEntity
  8
0
  0
POLYLINE
  5
612CC
100
AcDbEntity
  8
0
100
AcDb3dPolyline
 66
     1
 10
0.0
 20
0.0
 30
0.0
 70
     8
  0
VERTEX
  5
612CD
100
AcDbEntity
  8
0
100
AcDbVertex
100
AcDb3dPolylineVertex
 10
1.686333
 20
-2.089
 30
0.187
 70
    32
  0
VERTEX
  5
612CE
100
AcDbEntity
  8
0
100
AcDbVertex
100
AcDb3dPolylineVertex
 10
1.686333
 20
-2.224
 30
0.187
 70
    32
  0
VERTEX
  5
612CF
100
AcDbEntity
  8
0
100
AcDbVertex
100
AcDb3dPolylineVertex
 10
1.897
 20
-2.224
 30
0.187
 70
    32
  0
VERTEX
  5
612D0
100
AcDbEntity
  8
0
100
AcDbVertex
100
AcDb3dPolylineVertex
 10
1.897
 20
-2.089
 30
0.187
 70
    32
  0
SEQEND
  5
612D1
100
AcDbEntity
  8
0
  0
LINE
  5
612D2
100
AcDbEntity
  8
0
100
AcDbLine
 10
1.76
 20
-2.286
 30
0.187
 11
1.959
 21
-2.286
 31
0.187
  0
POLYLINE
  5
612D3
100
AcDbEntity
  8
0
100
AcDb3dPolyline
 66
     1
 10
0.0
 20
0.0
 30
0.0
 70
     8
  0
VERTEX
  5
612D4
100
AcDbEntity
  8
0
100
AcDbVertex
100
AcDb3dPolylineVertex
 10
1.413667
 20
-2.089
 30
0.0
 70
    32
  0
VERTEX
  5
612D5
100
AcDbEntity
  8
0
100
AcDbVertex
100
AcDb3dPolylineVertex
 10
1.413667
 20
-2.224
 30
0.0
 70
    32
  0
VERTEX
  5
612D6
100
AcDbEntity
  8
0
100
AcDbVertex
100
AcDb3dPolylineVertex
 10
1.624333
 20
-2.224
 30
0.0
 70
    32
  0
VERTEX
  5
612D7
100
AcDbEntity
  8
0
100
AcDbVertex
100
AcDb3dPolylineVertex
 10
1.624333
 20
-2.089
 30
0.0
 70
    32
  0
SEQEND
  5
612D8
100
AcDbEntity
  8
0
  0
POLYLINE
  5
612D9
100
AcDbEntity
  8
0
100
AcDb3dPolyline
 66
     1
 10
0.0
 20
0.0
 30
0.0
 70
     8
  0
VERTEX
  5
612DA
100
AcDbEntity
  8
0
100
AcDbVertex
100
AcDb3dPolylineVertex
 10
1.413667
 20
-2.089
 30
0.187
 70
    32
  0
VERTEX
  5
612DB
100
AcDbEntity
  8
0
100
AcDbVertex
100
AcDb3dPolylineVertex
 10
1.413667
 20
-2.224
 30
0.187
 70
    32
  0
VERTEX
  5
612DC
100
AcDbEntity
  8
0
100
AcDbVertex
100
AcDb3dPolylineVertex
 10
1.624333
 20
-2.224
 30
0.187
 70
    32
  0
VERTEX
  5
612DD
100
AcDbEntity
  8
0
100
AcDbVertex
100
AcDb3dPolylineVertex
 10
1.624333
 20
-2.089
 30
0.187
 70
    32
  0
SEQEND
  5
612DE
100
AcDbEntity
  8
0
  0
LINE
  5
612DF
100
AcDbEntity
  8
0
100
AcDbLine
 10
1.686333
 20
-2.089
 30
0.0
 11
1.897
 21
-2.089
 31
0.0
  0
LINE
  5
612E0
100
AcDbEntity
  8
0
100
AcDbLine
 10
1.413667
 20
-2.089
 30
0.0
 11
1.624333
 21
-2.089
 31
0.0
  0
POLYLINE
  5
612E1
100
AcDbEntity
  8
0
100
AcDb3dPolyline
 66
     1
 10
0.0
 20
0.0
 30
0.0
 70
     8
  0
VERTEX
  5
612E2
100
AcDbEntity
  8
0
100
AcDbVertex
100
AcDb3dPolylineVertex
 10
1.141
 20
-2.089
 30
0.0
 70
    32
  0
VERTEX
  5
612E3
100
AcDbEntity
  8
0
100
AcDbVertex
100
AcDb3dPolylineVertex
 10
1.141
 20
-2.224
 30
0.0
 70
    32
  0
VERTEX
  5
612E4
100
AcDbEntity
  8
0
100
AcDbVertex
100
AcDb3dPolylineVertex
 10
1.351667
 20
-2.224
 30
0.0
 70
    32
  0
VERTEX
  5
612E5
100
AcDbEntity
  8
0
100
AcDbVertex
100
AcDb3dPolylineVertex
 10
1.351667
 20
-2.089
 30
0.0
 70
    32
  0
SEQEND
  5
612E6
100
AcDbEntity
  8
0
  0
POLYLINE
  5
612E7
100
AcDbEntity
  8
0
100
AcDb3dPolyline
 66
     1
 10
0.0
 20
0.0
 30
0.0
 70
     8
  0
VERTEX
  5
612E8
100
AcDbEntity
  8
0
100
AcDbVertex
100
AcDb3dPolylineVertex
 10
1.141
 20
-2.089
 30
0.187
 70
    32
  0
VERTEX
  5
612E9
100
AcDbEntity
  8
0
100
AcDbVertex
100
AcDb3dPolylineVertex
 10
1.141
 20
-2.224
 30
0.187
 70
    32
  0
VERTEX
  5
612EA
100
AcDbEntity
  8
0
100
AcDbVertex
100
AcDb3dPolylineVertex
 10
1.351667
 20
-2.224
 30
0.187
 70
    32
  0
VERTEX
  5
612EB
100
AcDbEntity
  8
0
100
AcDbVertex
100
AcDb3dPolylineVertex
 10
1.351667
 20
-2.089
 30
0.187
 70
    32
  0
SEQEND
  5
612EC
100
AcDbEntity
  8
0
  0
LINE
  5
612ED
100
AcDbEntity
  8
0
100
AcDbLine
 10
1.141
 20
-2.089
 30
0.0
 11
1.351667
 21
-2.089
 31
0.0
  0
CIRCLE
  5
612EE
100
AcDbEntity
  8
0
100
AcDbCircle
 10
0.173
 20
-2.025
 30
0.0
 40
0.086
  0
CIRCLE
  5
612EF
100
AcDbEntity
  8
0
100
AcDbCircle
 10
0.173
 20
-2.025
 30
0.316
 40
0.086
  0
POLYLINE
  5
612F0
100
AcDbEntity
  8
0
100
AcDbPolygonMesh
 66
     1
 10
0.0
 20
0.0
 30
0.0
 70
    16
 71
     6
 72
     3
  0
VERTEX
  5
612F1
100
AcDbEntity
  8
0
100
AcDbVertex
100
AcDbPolygonMeshVertex
 10
0.6887
 20
0.515
 30
3.059
 70
    64
  0
VERTEX
  5
612F2
100
AcDbEntity
  8
0
100
AcDbVertex
100
AcDbPolygonMeshVertex
 10
0.6887
 20
0.515
 30
2.447
 70
    64
  0
VERTEX
  5
612F3
100
AcDbEntity
  8
0
100
AcDbVertex
100
AcDbPolygonMeshVertex
 10
0.6887
 20
0.515
 30
2.447
 70
    64
  0
VERTEX
  5
612F4
100
AcDbEntity
  8
0
100
AcDbVertex
100
AcDbPolygonMeshVertex
 10
0.7427
 20
0.515
 30
3.059
 70
    64
  0
VERTEX
  5
612F5
100
AcDbEntity
  8
0
100
AcDbVertex
100
AcDbPolygonMeshVertex
 10
0.7427
 20
0.515
 30
2.447
 70
    64
  0
VERTEX
  5
612F6
100
AcDbEntity
  8
0
100
AcDbVertex
100
AcDbPolygonMeshVertex
 10
0.7427
 20
0.515
 30
2.447
 70
    64
  0
VERTEX
  5
612F7
100
AcDbEntity
  8
0
100
AcDbVertex
100
AcDbPolygonMeshVertex
 10
0.7427
 20
0.401
 30
3.059
 70
    64
  0
VERTEX
  5
612F8
100
AcDbEntity
  8
0
100
AcDbVertex
100
AcDbPolygonMeshVertex
 10
0.7427
 20
0.401
 30
2.447
 70
    64
  0
VERTEX
  5
612F9
100
AcDbEntity
  8
0
100
AcDbVertex
100
AcDbPolygonMeshVertex
 10
0.7427
 20
0.515
 30
2.447
 70
    64
  0
VERTEX
  5
612FA
100
AcDbEntity
  8
0
100
AcDbVertex
100
AcDbPolygonMeshVertex
 10
0.6887
 20
0.401
 30
3.059
 70
    64
  0
VERTEX
  5
612FB
100
AcDbEntity
  8
0
100
AcDbVertex
100
AcDbPolygonMeshVertex
 10
0.6887
 20
0.401
 30
2.447
 70
    64
  0
VERTEX
  5
612FC
100
AcDbEntity
  8
0
100
AcDbVertex
100
AcDbPolygonMeshVertex
 10
0.6887
 20
0.515
 30
2.447
 70
    64
  0
VERTEX
  5
612FD
100
AcDbEntity
  8
0
100
AcDbVertex
100
AcDbPolygonMeshVertex
 10
0.6887
 20
0.401
 30
3.059
 70
    64
  0
VERTEX
  5
612FE
100
AcDbEntity
  8
0
100
AcDbVertex
100
AcDbPolygonMeshVertex
 10
0.6887
 20
0.401
 30
3.059
 70
    64
  0
VERTEX
  5
612FF
100
AcDbEntity
  8
0
100
AcDbVertex
100
AcDbPolygonMeshVertex
 10
0.6887
 20
0.515
 30
3.059
 70
    64
  0
VERTEX
  5
61300
100
AcDbEntity
  8
0
100
AcDbVertex
100
AcDbPolygonMeshVertex
 10
0.7427
 20
0.401
 30
3.059
 70
    64
  0
VERTEX
  5
61301
100
AcDbEntity
  8
0
100
AcDbVertex
100
AcDbPolygonMeshVertex
 10
0.7427
 20
0.401
 30
3.059
 70
    64
  0
VERTEX
  5
61302
100
AcDbEntity
  8
0
100
AcDbVertex
100
AcDbPolygonMeshVertex
 10
0.7427
 20
0.515
 30
3.059
 70
    64
  0
SEQEND
  5
61303
100
AcDbEntity
  8
0
  0
POLYLINE
  5
61304
100
AcDbEntity
  8
0
100
AcDbPolygonMesh
 66
     1
 10
0.0
 20
0.0
 30
0.0
 70
    16
 71
     6
 72
     3
  0
VERTEX
  5
61305
100
AcDbEntity
  8
0
100
AcDbVertex
100
AcDbPolygonMeshVertex
 10
1.4313
 20
0.515
 30
3.059
 70
    64
  0
VERTEX
  5
61306
100
AcDbEntity
  8
0
100
AcDbVertex
100
AcDbPolygonMeshVertex
 10
1.4313
 20
0.515
 30
2.447
 70
    64
  0
VERTEX
  5
61307
100
AcDbEntity
  8
0
100
AcDbVertex
100
AcDbPolygonMeshVertex
 10
1.4313
 20
0.515
 30
2.447
 70
    64
  0
VERTEX
  5
61308
100
AcDbEntity
  8
0
100
AcDbVertex
100
AcDbPolygonMeshVertex
 10
1.3773
 20
0.515
 30
3.059
 70
    64
  0
VERTEX
  5
61309
100
AcDbEntity
  8
0
100
AcDbVertex
100
AcDbPolygonMeshVertex
 10
1.3773
 20
0.515
 30
2.447
 70
    64
  0
VERTEX
  5
6130A
100
AcDbEntity
  8
0
100
AcDbVertex
100
AcDbPolygonMeshVertex
 10
1.3773
 20
0.515
 30
2.447
 70
    64
  0
VERTEX
  5
6130B
100
AcDbEntity
  8
0
100
AcDbVertex
100
AcDbPolygonMeshVertex
 10
1.3773
 20
0.401
 30
3.059
 70
    64
  0
VERTEX
  5
6130C
100
AcDbEntity
  8
0
100
AcDbVertex
100
AcDbPolygonMeshVertex
 10
1.3773
 20
0.401
 30
2.447
 70
    64
  0
VERTEX
  5
6130D
100
AcDbEntity
  8
0
100
AcDbVertex
100
AcDbPolygonMeshVertex
 10
1.3773
 20
0.515
 30
2.447
 70
    64
  0
VERTEX
  5
6130E
100
AcDbEntity
  8
0
100
AcDbVertex
100
AcDbPolygonMeshVertex
 10
1.4313
 20
0.401
 30
3.059
 70
    64
  0
VERTEX
  5
6130F
100
AcDbEntity
  8
0
100
AcDbVertex
100
AcDbPolygonMeshVertex
 10
1.4313
 20
0.401
 30
2.447
 70
    64
  0
VERTEX
  5
61310
100
AcDbEntity
  8
0
100
AcDbVertex
100
AcDbPolygonMeshVertex
 10
1.4313
 20
0.515
 30
2.447
 70
    64
  0
VERTEX
  5
61311
100
AcDbEntity
  8
0
100
AcDbVertex
100
AcDbPolygonMeshVertex
 10
1.4313
 20
0.401
 30
3.059
 70
    64
  0
VERTEX
  5
61312
100
AcDbEntity
  8
0
100
AcDbVertex
100
AcDbPolygonMeshVertex
 10
1.4313
 20
0.401
 30
3.059
 70
    64
  0
VERTEX
  5
61313
100
AcDbEntity
  8
0
100
AcDbVertex
100
AcDbPolygonMeshVertex
 10
1.4313
 20
0.515
 30
3.059
 70
    64
  0
VERTEX
  5
61314
100
AcDbEntity
  8
0
100
AcDbVertex
100
AcDbPolygonMeshVertex
 10
1.3773
 20
0.401
 30
3.059
 70
    64
  0
VERTEX
  5
61315
100
AcDbEntity
  8
0
100
AcDbVertex
100
AcDbPolygonMeshVertex
 10
1.3773
 20
0.401
 30
3.059
 70
    64
  0
VERTEX
  5
61316
100
AcDbEntity
  8
0
100
AcDbVertex
100
AcDbPolygonMeshVertex
 10
1.3773
 20
0.515
 30
3.059
 70
    64
  0
SEQEND
  5
61317
100
AcDbEntity
  8
0
  0
LINE
  5
61318
100
AcDbEntity
  8
0
100
AcDbLine
 10
0.23635
 20
0.401
 30
2.998
 11
0.50635
 21
0.401
 31
2.998
  0
LINE
  5
61319
100
AcDbEntity
  8
0
100
AcDbLine
 10
0.23635
 20
0.401
 30
2.328
 11
0.50635
 21
0.401
 31
2.328
  0
LINE
  5
6131A
100
AcDbEntity
  8
0
100
AcDbLine
 10
0.23635
 20
0.401
 30
2.726
 11
0.50635
 21
0.401
 31
2.726
  0
LINE
  5
6131B
100
AcDbEntity
  8
0
100
AcDbLine
 10
0.23635
 20
0.401
 30
2.622
 11
0.50635
 21
0.401
 31
2.622
  0
LINE
  5
6131C
100
AcDbEntity
  8
0
100
AcDbLine
 10
0.56835
 20
0.401
 30
2.368461
 11
0.56835
 21
0.401
 31
3.059
  0
LINE
  5
6131D
100
AcDbEntity
  8
0
100
AcDbLine
 10
0.17435
 20
0.401
 30
2.3875
 11
0.17435
 21
0.401
 31
3.059
  0
LINE
  5
6131E
100
AcDbEntity
  8
0
100
AcDbLine
 10
0.23635
 20
0.401
 30
2.998
 11
0.23635
 21
0.401
 31
2.726
  0
LINE
  5
6131F
100
AcDbEntity
  8
0
100
AcDbLine
 10
0.50635
 20
0.401
 30
2.998
 11
0.50635
 21
0.401
 31
2.726
  0
LINE
  5
61320
100
AcDbEntity
  8
0
100
AcDbLine
 10
0.23635
 20
0.401
 30
2.622
 11
0.23635
 21
0.401
 31
2.447
  0
LINE
  5
61321
100
AcDbEntity
  8
0
100
AcDbLine
 10
0.17435
 20
0.401
 30
2.447
 11
0.23635
 21
0.401
 31
2.447
  0
LINE
  5
61322
100
AcDbEntity
  8
0
100
AcDbLine
 10
0.50635
 20
0.401
 30
2.328
 11
0.56835
 21
0.401
 31
2.368461
  0
LINE
  5
61323
100
AcDbEntity
  8
0
100
AcDbLine
 10
0.56835
 20
0.401
 30
2.447
 11
0.50635
 21
0.401
 31
2.447
  0
LINE
  5
61324
100
AcDbEntity
  8
0
100
AcDbLine
 10
0.50635
 20
0.401
 30
2.622
 11
0.50635
 21
0.401
 31
2.447
  0
LINE
  5
61325
100
AcDbEntity
  8
0
100
AcDbLine
 10
0.23635
 20
0.401
 30
2.328
 11
0.17435
 21
0.401
 31
2.3875
  0
LINE
  5
61326
100
AcDbEntity
  8
0
100
AcDbLine
 10
0.17435
 20
0.401
 30
3.059
 11
0.56835
 21
0.401
 31
3.059
210
0.0
220
-1.0
230
0.0
  0
LINE
  5
61327
100
AcDbEntity
  8
0
100
AcDbLine
 10
0.86305
 20
0.401
 30
2.3875
 11
0.86305
 21
0.401
 31
3.059
  0
LINE
  5
61328
100
AcDbEntity
  8
0
100
AcDbLine
 10
1.25705
 20
0.401
 30
2.368461
 11
1.25705
 21
0.401
 31
3.059
  0
LINE
  5
61329
100
AcDbEntity
  8
0
100
AcDbLine
 10
0.92505
 20
0.401
 30
2.328
 11
1.19505
 21
0.401
 31
2.328
  0
LINE
  5
6132A
100
AcDbEntity
  8
0
100
AcDbLine
 10
0.92505
 20
0.401
 30
2.622
 11
1.19505
 21
0.401
 31
2.622
  0
LINE
  5
6132B
100
AcDbEntity
  8
0
100
AcDbLine
 10
0.92505
 20
0.401
 30
2.328
 11
0.86305
 21
0.401
 31
2.3875
  0
LINE
  5
6132C
100
AcDbEntity
  8
0
100
AcDbLine
 10
0.92505
 20
0.401
 30
2.622
 11
0.92505
 21
0.401
 31
2.447
  0
LINE
  5
6132D
100
AcDbEntity
  8
0
100
AcDbLine
 10
0.86305
 20
0.401
 30
2.447
 11
0.92505
 21
0.401
 31
2.447
  0
LINE
  5
6132E
100
AcDbEntity
  8
0
100
AcDbLine
 10
1.19505
 20
0.401
 30
2.328
 11
1.25705
 21
0.401
 31
2.368461
  0
LINE
  5
6132F
100
AcDbEntity
  8
0
100
AcDbLine
 10
1.19505
 20
0.401
 30
2.622
 11
1.19505
 21
0.401
 31
2.447
  0
LINE
  5
61330
100
AcDbEntity
  8
0
100
AcDbLine
 10
1.25705
 20
0.401
 30
2.447
 11
1.19505
 21
0.401
 31
2.447
  0
LINE
  5
61331
100
AcDbEntity
  8
0
100
AcDbLine
 10
0.86305
 20
0.401
 30
3.059
 11
1.25705
 21
0.401
 31
3.059
210
0.0
220
-1.0
230
0.0
  0
LINE
  5
61332
100
AcDbEntity
  8
0
100
AcDbLine
 10
0.92505
 20
0.401
 30
2.998
 11
1.19505
 21
0.401
 31
2.998
  0
LINE
  5
61333
100
AcDbEntity
  8
0
100
AcDbLine
 10
0.92505
 20
0.401
 30
2.726
 11
1.19505
 21
0.401
 31
2.726
  0
LINE
  5
61334
100
AcDbEntity
  8
0
100
AcDbLine
 10
0.92505
 20
0.401
 30
2.998
 11
0.92505
 21
0.401
 31
2.726
  0
LINE
  5
61335
100
AcDbEntity
  8
0
100
AcDbLine
 10
1.19505
 20
0.401
 30
2.998
 11
1.19505
 21
0.401
 31
2.726
  0
LINE
  5
61336
100
AcDbEntity
  8
0
100
AcDbLine
 10
1.94565
 20
0.401
 30
2.368461
 11
1.94565
 21
0.401
 31
3.059
  0
LINE
  5
61337
100
AcDbEntity
  8
0
100
AcDbLine
 10
1.55165
 20
0.401
 30
2.3875
 11
1.55165
 21
0.401
 31
3.059
  0
LINE
  5
61338
100
AcDbEntity
  8
0
100
AcDbLine
 10
1.61365
 20
0.401
 30
2.622
 11
1.88365
 21
0.401
 31
2.622
  0
LINE
  5
61339
100
AcDbEntity
  8
0
100
AcDbLine
 10
1.61365
 20
0.401
 30
2.328
 11
1.88365
 21
0.401
 31
2.328
  0
LINE
  5
6133A
100
AcDbEntity
  8
0
100
AcDbLine
 10
1.61365
 20
0.401
 30
2.328
 11
1.55165
 21
0.401
 31
2.3875
  0
LINE
  5
6133B
100
AcDbEntity
  8
0
100
AcDbLine
 10
1.61365
 20
0.401
 30
2.622
 11
1.61365
 21
0.401
 31
2.447
  0
LINE
  5
6133C
100
AcDbEntity
  8
0
100
AcDbLine
 10
1.55165
 20
0.401
 30
2.447
 11
1.61365
 21
0.401
 31
2.447
  0
LINE
  5
6133D
100
AcDbEntity
  8
0
100
AcDbLine
 10
1.88365
 20
0.401
 30
2.328
 11
1.94565
 21
0.401
 31
2.368461
  0
LINE
  5
6133E
100
AcDbEntity
  8
0
100
AcDbLine
 10
1.88365
 20
0.401
 30
2.622
 11
1.88365
 21
0.401
 31
2.447
  0
LINE
  5
6133F
100
AcDbEntity
  8
0
100
AcDbLine
 10
1.94565
 20
0.401
 30
2.447
 11
1.88365
 21
0.401
 31
2.447
  0
LINE
  5
61340
100
AcDbEntity
  8
0
100
AcDbLine
 10
1.61365
 20
0.401
 30
2.726
 11
1.88365
 21
0.401
 31
2.726
  0
LINE
  5
61341
100
AcDbEntity
  8
0
100
AcDbLine
 10
1.61365
 20
0.401
 30
2.998
 11
1.88365
 21
0.401
 31
2.998
  0
LINE
  5
61342
100
AcDbEntity
  8
0
100
AcDbLine
 10
1.61365
 20
0.401
 30
2.998
 11
1.61365
 21
0.401
 31
2.726
  0
LINE
  5
61343
100
AcDbEntity
  8
0
100
AcDbLine
 10
1.88365
 20
0.401
 30
2.998
 11
1.88365
 21
0.401
 31
2.726
  0
LINE
  5
61344
100
AcDbEntity
  8
0
100
AcDbLine
 10
1.55165
 20
0.401
 30
3.059
 11
1.94565
 21
0.401
 31
3.059
210
0.0
220
-1.0
230
0.0
  0
POLYLINE
  5
61345
100
AcDbEntity
  8
0
100
AcDbPolygonMesh
 66
     1
 10
0.0
 20
0.0
 30
0.0
 70
    16
 71
     6
 72
     3
  0
VERTEX
  5
61346
100
AcDbEntity
  8
0
100
AcDbVertex
100
AcDbPolygonMeshVertex
 10
2.066
 20
0.515
 30
3.059
 70
    64
  0
VERTEX
  5
61347
100
AcDbEntity
  8
0
100
AcDbVertex
100
AcDbPolygonMeshVertex
 10
2.066
 20
0.515
 30
1.641
 70
    64
  0
VERTEX
  5
61348
100
AcDbEntity
  8
0
100
AcDbVertex
100
AcDbPolygonMeshVertex
 10
2.066
 20
0.515
 30
1.641
 70
    64
  0
VERTEX
  5
61349
100
AcDbEntity
  8
0
100
AcDbVertex
100
AcDbPolygonMeshVertex
 10
2.12
 20
0.515
 30
3.059
 70
    64
  0
VERTEX
  5
6134A
100
AcDbEntity
  8
0
100
AcDbVertex
100
AcDbPolygonMeshVertex
 10
2.12
 20
0.515
 30
1.641
 70
    64
  0
VERTEX
  5
6134B
100
AcDbEntity
  8
0
100
AcDbVertex
100
AcDbPolygonMeshVertex
 10
2.12
 20
0.515
 30
1.641
 70
    64
  0
VERTEX
  5
6134C
100
AcDbEntity
  8
0
100
AcDbVertex
100
AcDbPolygonMeshVertex
 10
2.12
 20
0.401
 30
3.059
 70
    64
  0
VERTEX
  5
6134D
100
AcDbEntity
  8
0
100
AcDbVertex
100
AcDbPolygonMeshVertex
 10
2.12
 20
0.401
 30
1.641
 70
    64
  0
VERTEX
  5
6134E
100
AcDbEntity
  8
0
100
AcDbVertex
100
AcDbPolygonMeshVertex
 10
2.12
 20
0.515
 30
1.641
 70
    64
  0
VERTEX
  5
6134F
100
AcDbEntity
  8
0
100
AcDbVertex
100
AcDbPolygonMeshVertex
 10
2.066
 20
0.401
 30
3.059
 70
    64
  0
VERTEX
  5
61350
100
AcDbEntity
  8
0
100
AcDbVertex
100
AcDbPolygonMeshVertex
 10
2.066
 20
0.401
 30
1.641
 70
    64
  0
VERTEX
  5
61351
100
AcDbEntity
  8
0
100
AcDbVertex
100
AcDbPolygonMeshVertex
 10
2.066
 20
0.515
 30
1.641
 70
    64
  0
VERTEX
  5
61352
100
AcDbEntity
  8
0
100
AcDbVertex
100
AcDbPolygonMeshVertex
 10
2.066
 20
0.401
 30
3.059
 70
    64
  0
VERTEX
  5
61353
100
AcDbEntity
  8
0
100
AcDbVertex
100
AcDbPolygonMeshVertex
 10
2.066
 20
0.401
 30
3.059
 70
    64
  0
VERTEX
  5
61354
100
AcDbEntity
  8
0
100
AcDbVertex
100
AcDbPolygonMeshVertex
 10
2.066
 20
0.515
 30
3.059
 70
    64
  0
VERTEX
  5
61355
100
AcDbEntity
  8
0
100
AcDbVertex
100
AcDbPolygonMeshVertex
 10
2.12
 20
0.401
 30
3.059
 70
    64
  0
VERTEX
  5
61356
100
AcDbEntity
  8
0
100
AcDbVertex
100
AcDbPolygonMeshVertex
 10
2.12
 20
0.401
 30
3.059
 70
    64
  0
VERTEX
  5
61357
100
AcDbEntity
  8
0
100
AcDbVertex
100
AcDbPolygonMeshVertex
 10
2.12
 20
0.515
 30
3.059
 70
    64
  0
SEQEND
  5
61358
100
AcDbEntity
  8
0
  0
POLYLINE
  5
61359
100
AcDbEntity
  8
0
100
AcDbPolygonMesh
 66
     1
 10
0.0
 20
0.0
 30
0.0
 70
    16
 71
     6
 72
     3
  0
VERTEX
  5
6135A
100
AcDbEntity
  8
0
100
AcDbVertex
100
AcDbPolygonMeshVertex
 10
0.0
 20
0.515
 30
3.059
 70
    64
  0
VERTEX
  5
6135B
100
AcDbEntity
  8
0
100
AcDbVertex
100
AcDbPolygonMeshVertex
 10
0.0
 20
0.515
 30
1.641
 70
    64
  0
VERTEX
  5
6135C
100
AcDbEntity
  8
0
100
AcDbVertex
100
AcDbPolygonMeshVertex
 10
0.0
 20
0.515
 30
1.641
 70
    64
  0
VERTEX
  5
6135D
100
AcDbEntity
  8
0
100
AcDbVertex
100
AcDbPolygonMeshVertex
 10
0.054
 20
0.515
 30
3.059
 70
    64
  0
VERTEX
  5
6135E
100
AcDbEntity
  8
0
100
AcDbVertex
100
AcDbPolygonMeshVertex
 10
0.054
 20
0.515
 30
1.641
 70
    64
  0
VERTEX
  5
6135F
100
AcDbEntity
  8
0
100
AcDbVertex
100
AcDbPolygonMeshVertex
 10
0.054
 20
0.515
 30
1.641
 70
    64
  0
VERTEX
  5
61360
100
AcDbEntity
  8
0
100
AcDbVertex
100
AcDbPolygonMeshVertex
 10
0.054
 20
0.401
 30
3.059
 70
    64
  0
VERTEX
  5
61361
100
AcDbEntity
  8
0
100
AcDbVertex
100
AcDbPolygonMeshVertex
 10
0.054
 20
0.401
 30
1.641
 70
    64
  0
VERTEX
  5
61362
100
AcDbEntity
  8
0
100
AcDbVertex
100
AcDbPolygonMeshVertex
 10
0.054
 20
0.515
 30
1.641
 70
    64
  0
VERTEX
  5
61363
100
AcDbEntity
  8
0
100
AcDbVertex
100
AcDbPolygonMeshVertex
 10
0.0
 20
0.401
 30
3.059
 70
    64
  0
VERTEX
  5
61364
100
AcDbEntity
  8
0
100
AcDbVertex
100
AcDbPolygonMeshVertex
 10
0.0
 20
0.401
 30
1.641
 70
    64
  0
VERTEX
  5
61365
100
AcDbEntity
  8
0
100
AcDbVertex
100
AcDbPolygonMeshVertex
 10
0.0
 20
0.515
 30
1.641
 70
    64
  0
VERTEX
  5
61366
100
AcDbEntity
  8
0
100
AcDbVertex
100
AcDbPolygonMeshVertex
 10
0.0
 20
0.401
 30
3.059
 70
    64
  0
VERTEX
  5
61367
100
AcDbEntity
  8
0
100
AcDbVertex
100
AcDbPolygonMeshVertex
 10
0.0
 20
0.401
 30
3.059
 70
    64
  0
VERTEX
  5
61368
100
AcDbEntity
  8
0
100
AcDbVertex
100
AcDbPolygonMeshVertex
 10
0.0
 20
0.515
 30
3.059
 70
    64
  0
VERTEX
  5
61369
100
AcDbEntity
  8
0
100
AcDbVertex
100
AcDbPolygonMeshVertex
 10
0.054
 20
0.401
 30
3.059
 70
    64
  0
VERTEX
  5
6136A
100
AcDbEntity
  8
0
100
AcDbVertex
100
AcDbPolygonMeshVertex
 10
0.054
 20
0.401
 30
3.059
 70
    64
  0
VERTEX
  5
6136B
100
AcDbEntity
  8
0
100
AcDbVertex
100
AcDbPolygonMeshVertex
 10
0.054
 20
0.515
 30
3.059
 70
    64
  0
SEQEND
  5
6136C
100
AcDbEntity
  8
0
  0
LINE
  5
6136D
100
AcDbEntity
  8
0
100
AcDbLine
 10
1.55165
 20
-2.089
 30
3.059
 11
1.94565
 21
-2.089
 31
3.059
210
0.0
220
1.0
230
0.0
  0
LINE
  5
6136E
100
AcDbEntity
  8
0
100
AcDbLine
 10
1.55165
 20
-2.089
 30
2.447
 11
1.61365
 21
-2.089
 31
2.447
  0
LINE
  5
6136F
100
AcDbEntity
  8
0
100
AcDbLine
 10
1.55165
 20
-2.089
 30
2.3875
 11
1.55165
 21
-2.089
 31
3.059
  0
LINE
  5
61370
100
AcDbEntity
  8
0
100
AcDbLine
 10
1.25705
 20
-2.089
 30
2.368461
 11
1.25705
 21
-2.089
 31
3.059
  0
LINE
  5
61371
100
AcDbEntity
  8
0
100
AcDbLine
 10
0.86305
 20
-2.089
 30
2.3875
 11
0.86305
 21
-2.089
 31
3.059
  0
LINE
  5
61372
100
AcDbEntity
  8
0
100
AcDbLine
 10
0.17435
 20
-2.089
 30
2.3875
 11
0.17435
 21
-2.089
 31
3.059
  0
LINE
  5
61373
100
AcDbEntity
  8
0
100
AcDbLine
 10
0.56835
 20
-2.089
 30
2.368461
 11
0.56835
 21
-2.089
 31
3.059
  0
POLYLINE
  5
61374
100
AcDbEntity
  8
0
100
AcDbPolygonMesh
 66
     1
 10
0.0
 20
0.0
 30
0.0
 70
    16
 71
     6
 72
     3
  0
VERTEX
  5
61375
100
AcDbEntity
  8
0
100
AcDbVertex
100
AcDbPolygonMeshVertex
 10
1.4313
 20
-2.203
 30
3.059
 70
    64
  0
VERTEX
  5
61376
100
AcDbEntity
  8
0
100
AcDbVertex
100
AcDbPolygonMeshVertex
 10
1.4313
 20
-2.203
 30
2.447
 70
    64
  0
VERTEX
  5
61377
100
AcDbEntity
  8
0
100
AcDbVertex
100
AcDbPolygonMeshVertex
 10
1.4313
 20
-2.203
 30
2.447
 70
    64
  0
VERTEX
  5
61378
100
AcDbEntity
  8
0
100
AcDbVertex
100
AcDbPolygonMeshVertex
 10
1.3773
 20
-2.203
 30
3.059
 70
    64
  0
VERTEX
  5
61379
100
AcDbEntity
  8
0
100
AcDbVertex
100
AcDbPolygonMeshVertex
 10
1.3773
 20
-2.203
 30
2.447
 70
    64
  0
VERTEX
  5
6137A
100
AcDbEntity
  8
0
100
AcDbVertex
100
AcDbPolygonMeshVertex
 10
1.3773
 20
-2.203
 30
2.447
 70
    64
  0
VERTEX
  5
6137B
100
AcDbEntity
  8
0
100
AcDbVertex
100
AcDbPolygonMeshVertex
 10
1.3773
 20
-2.089
 30
3.059
 70
    64
  0
VERTEX
  5
6137C
100
AcDbEntity
  8
0
100
AcDbVertex
100
AcDbPolygonMeshVertex
 10
1.3773
 20
-2.089
 30
2.447
 70
    64
  0
VERTEX
  5
6137D
100
AcDbEntity
  8
0
100
AcDbVertex
100
AcDbPolygonMeshVertex
 10
1.3773
 20
-2.203
 30
2.447
 70
    64
  0
VERTEX
  5
6137E
100
AcDbEntity
  8
0
100
AcDbVertex
100
AcDbPolygonMeshVertex
 10
1.4313
 20
-2.089
 30
3.059
 70
    64
  0
VERTEX
  5
6137F
100
AcDbEntity
  8
0
100
AcDbVertex
100
AcDbPolygonMeshVertex
 10
1.4313
 20
-2.089
 30
2.447
 70
    64
  0
VERTEX
  5
61380
100
AcDbEntity
  8
0
100
AcDbVertex
100
AcDbPolygonMeshVertex
 10
1.4313
 20
-2.203
 30
2.447
 70
    64
  0
VERTEX
  5
61381
100
AcDbEntity
  8
0
100
AcDbVertex
100
AcDbPolygonMeshVertex
 10
1.4313
 20
-2.089
 30
3.059
 70
    64
  0
VERTEX
  5
61382
100
AcDbEntity
  8
0
100
AcDbVertex
100
AcDbPolygonMeshVertex
 10
1.4313
 20
-2.089
 30
3.059
 70
    64
  0
VERTEX
  5
61383
100
AcDbEntity
  8
0
100
AcDbVertex
100
AcDbPolygonMeshVertex
 10
1.4313
 20
-2.203
 30
3.059
 70
    64
  0
VERTEX
  5
61384
100
AcDbEntity
  8
0
100
AcDbVertex
100
AcDbPolygonMeshVertex
 10
1.3773
 20
-2.089
 30
3.059
 70
    64
  0
VERTEX
  5
61385
100
AcDbEntity
  8
0
100
AcDbVertex
100
AcDbPolygonMeshVertex
 10
1.3773
 20
-2.089
 30
3.059
 70
    64
  0
VERTEX
  5
61386
100
AcDbEntity
  8
0
100
AcDbVertex
100
AcDbPolygonMeshVertex
 10
1.3773
 20
-2.203
 30
3.059
 70
    64
  0
SEQEND
  5
61387
100
AcDbEntity
  8
0
  0
POLYLINE
  5
61388
100
AcDbEntity
  8
0
100
AcDbPolygonMesh
 66
     1
 10
0.0
 20
0.0
 30
0.0
 70
    16
 71
     6
 72
     3
  0
VERTEX
  5
61389
100
AcDbEntity
  8
0
100
AcDbVertex
100
AcDbPolygonMeshVertex
 10
0.6887
 20
-2.203
 30
3.059
 70
    64
  0
VERTEX
  5
6138A
100
AcDbEntity
  8
0
100
AcDbVertex
100
AcDbPolygonMeshVertex
 10
0.6887
 20
-2.203
 30
2.447
 70
    64
  0
VERTEX
  5
6138B
100
AcDbEntity
  8
0
100
AcDbVertex
100
AcDbPolygonMeshVertex
 10
0.6887
 20
-2.203
 30
2.447
 70
    64
  0
VERTEX
  5
6138C
100
AcDbEntity
  8
0
100
AcDbVertex
100
AcDbPolygonMeshVertex
 10
0.7427
 20
-2.203
 30
3.059
 70
    64
  0
VERTEX
  5
6138D
100
AcDbEntity
  8
0
100
AcDbVertex
100
AcDbPolygonMeshVertex
 10
0.7427
 20
-2.203
 30
2.447
 70
    64
  0
VERTEX
  5
6138E
100
AcDbEntity
  8
0
100
AcDbVertex
100
AcDbPolygonMeshVertex
 10
0.7427
 20
-2.203
 30
2.447
 70
    64
  0
VERTEX
  5
6138F
100
AcDbEntity
  8
0
100
AcDbVertex
100
AcDbPolygonMeshVertex
 10
0.7427
 20
-2.089
 30
3.059
 70
    64
  0
VERTEX
  5
61390
100
AcDbEntity
  8
0
100
AcDbVertex
100
AcDbPolygonMeshVertex
 10
0.7427
 20
-2.089
 30
2.447
 70
    64
  0
VERTEX
  5
61391
100
AcDbEntity
  8
0
100
AcDbVertex
100
AcDbPolygonMeshVertex
 10
0.7427
 20
-2.203
 30
2.447
 70
    64
  0
VERTEX
  5
61392
100
AcDbEntity
  8
0
100
AcDbVertex
100
AcDbPolygonMeshVertex
 10
0.6887
 20
-2.089
 30
3.059
 70
    64
  0
VERTEX
  5
61393
100
AcDbEntity
  8
0
100
AcDbVertex
100
AcDbPolygonMeshVertex
 10
0.6887
 20
-2.089
 30
2.447
 70
    64
  0
VERTEX
  5
61394
100
AcDbEntity
  8
0
100
AcDbVertex
100
AcDbPolygonMeshVertex
 10
0.6887
 20
-2.203
 30
2.447
 70
    64
  0
VERTEX
  5
61395
100
AcDbEntity
  8
0
100
AcDbVertex
100
AcDbPolygonMeshVertex
 10
0.6887
 20
-2.089
 30
3.059
 70
    64
  0
VERTEX
  5
61396
100
AcDbEntity
  8
0
100
AcDbVertex
100
AcDbPolygonMeshVertex
 10
0.6887
 20
-2.089
 30
3.059
 70
    64
  0
VERTEX
  5
61397
100
AcDbEntity
  8
0
100
AcDbVertex
100
AcDbPolygonMeshVertex
 10
0.6887
 20
-2.203
 30
3.059
 70
    64
  0
VERTEX
  5
61398
100
AcDbEntity
  8
0
100
AcDbVertex
100
AcDbPolygonMeshVertex
 10
0.7427
 20
-2.089
 30
3.059
 70
    64
  0
VERTEX
  5
61399
100
AcDbEntity
  8
0
100
AcDbVertex
100
AcDbPolygonMeshVertex
 10
0.7427
 20
-2.089
 30
3.059
 70
    64
  0
VERTEX
  5
6139A
100
AcDbEntity
  8
0
100
AcDbVertex
100
AcDbPolygonMeshVertex
 10
0.7427
 20
-2.203
 30
3.059
 70
    64
  0
SEQEND
  5
6139B
100
AcDbEntity
  8
0
  0
LINE
  5
6139C
100
AcDbEntity
  8
0
100
AcDbLine
 10
0.23635
 20
-2.089
 30
2.328
 11
0.50635
 21
-2.089
 31
2.328
  0
LINE
  5
6139D
100
AcDbEntity
  8
0
100
AcDbLine
 10
0.23635
 20
-2.089
 30
2.622
 11
0.50635
 21
-2.089
 31
2.622
  0
LINE
  5
6139E
100
AcDbEntity
  8
0
100
AcDbLine
 10
0.23635
 20
-2.089
 30
2.328
 11
0.17435
 21
-2.089
 31
2.3875
  0
LINE
  5
6139F
100
AcDbEntity
  8
0
100
AcDbLine
 10
0.23635
 20
-2.089
 30
2.622
 11
0.23635
 21
-2.089
 31
2.447
  0
LINE
  5
613A0
100
AcDbEntity
  8
0
100
AcDbLine
 10
0.17435
 20
-2.089
 30
2.447
 11
0.23635
 21
-2.089
 31
2.447
  0
LINE
  5
613A1
100
AcDbEntity
  8
0
100
AcDbLine
 10
0.92505
 20
-2.089
 30
2.622
 11
1.19505
 21
-2.089
 31
2.622
  0
LINE
  5
613A2
100
AcDbEntity
  8
0
100
AcDbLine
 10
0.92505
 20
-2.089
 30
2.328
 11
1.19505
 21
-2.089
 31
2.328
  0
LINE
  5
613A3
100
AcDbEntity
  8
0
100
AcDbLine
 10
0.50635
 20
-2.089
 30
2.328
 11
0.56835
 21
-2.089
 31
2.368461
  0
LINE
  5
613A4
100
AcDbEntity
  8
0
100
AcDbLine
 10
0.92505
 20
-2.089
 30
2.328
 11
0.86305
 21
-2.089
 31
2.3875
  0
LINE
  5
613A5
100
AcDbEntity
  8
0
100
AcDbLine
 10
0.50635
 20
-2.089
 30
2.622
 11
0.50635
 21
-2.089
 31
2.447
  0
LINE
  5
613A6
100
AcDbEntity
  8
0
100
AcDbLine
 10
0.56835
 20
-2.089
 30
2.447
 11
0.50635
 21
-2.089
 31
2.447
  0
LINE
  5
613A7
100
AcDbEntity
  8
0
100
AcDbLine
 10
0.92505
 20
-2.089
 30
2.622
 11
0.92505
 21
-2.089
 31
2.447
  0
LINE
  5
613A8
100
AcDbEntity
  8
0
100
AcDbLine
 10
0.86305
 20
-2.089
 30
2.447
 11
0.92505
 21
-2.089
 31
2.447
  0
LINE
  5
613A9
100
AcDbEntity
  8
0
100
AcDbLine
 10
1.19505
 20
-2.089
 30
2.328
 11
1.25705
 21
-2.089
 31
2.368461
  0
LINE
  5
613AA
100
AcDbEntity
  8
0
100
AcDbLine
 10
1.19505
 20
-2.089
 30
2.622
 11
1.19505
 21
-2.089
 31
2.447
  0
LINE
  5
613AB
100
AcDbEntity
  8
0
100
AcDbLine
 10
1.25705
 20
-2.089
 30
2.447
 11
1.19505
 21
-2.089
 31
2.447
  0
LINE
  5
613AC
100
AcDbEntity
  8
0
100
AcDbLine
 10
0.17435
 20
-2.089
 30
3.059
 11
0.56835
 21
-2.089
 31
3.059
210
0.0
220
1.0
230
0.0
  0
LINE
  5
613AD
100
AcDbEntity
  8
0
100
AcDbLine
 10
0.23635
 20
-2.089
 30
2.998
 11
0.50635
 21
-2.089
 31
2.998
  0
LINE
  5
613AE
100
AcDbEntity
  8
0
100
AcDbLine
 10
0.23635
 20
-2.089
 30
2.726
 11
0.50635
 21
-2.089
 31
2.726
  0
LINE
  5
613AF
100
AcDbEntity
  8
0
100
AcDbLine
 10
0.23635
 20
-2.089
 30
2.998
 11
0.23635
 21
-2.089
 31
2.726
  0
LINE
  5
613B0
100
AcDbEntity
  8
0
100
AcDbLine
 10
0.92505
 20
-2.089
 30
2.726
 11
1.19505
 21
-2.089
 31
2.726
  0
LINE
  5
613B1
100
AcDbEntity
  8
0
100
AcDbLine
 10
0.92505
 20
-2.089
 30
2.998
 11
1.19505
 21
-2.089
 31
2.998
  0
LINE
  5
613B2
100
AcDbEntity
  8
0
100
AcDbLine
 10
0.92505
 20
-2.089
 30
2.998
 11
0.92505
 21
-2.089
 31
2.726
  0
LINE
  5
613B3
100
AcDbEntity
  8
0
100
AcDbLine
 10
0.50635
 20
-2.089
 30
2.998
 11
0.50635
 21
-2.089
 31
2.726
  0
LINE
  5
613B4
100
AcDbEntity
  8
0
100
AcDbLine
 10
1.19505
 20
-2.089
 30
2.998
 11
1.19505
 21
-2.089
 31
2.726
  0
LINE
  5
613B5
100
AcDbEntity
  8
0
100
AcDbLine
 10
0.86305
 20
-2.089
 30
3.059
 11
1.25705
 21
-2.089
 31
3.059
210
0.0
220
1.0
230
0.0
  0
LINE
  5
613B6
100
AcDbEntity
  8
0
100
AcDbLine
 10
1.61365
 20
-2.089
 30
2.622
 11
1.88365
 21
-2.089
 31
2.622
  0
LINE
  5
613B7
100
AcDbEntity
  8
0
100
AcDbLine
 10
1.61365
 20
-2.089
 30
2.622
 11
1.61365
 21
-2.089
 31
2.447
  0
LINE
  5
613B8
100
AcDbEntity
  8
0
100
AcDbLine
 10
1.88365
 20
-2.089
 30
2.998
 11
1.88365
 21
-2.089
 31
2.726
  0
LINE
  5
613B9
100
AcDbEntity
  8
0
100
AcDbLine
 10
1.61365
 20
-2.089
 30
2.998
 11
1.61365
 21
-2.089
 31
2.726
  0
LINE
  5
613BA
100
AcDbEntity
  8
0
100
AcDbLine
 10
1.61365
 20
-2.089
 30
2.726
 11
1.88365
 21
-2.089
 31
2.726
  0
LINE
  5
613BB
100
AcDbEntity
  8
0
100
AcDbLine
 10
1.61365
 20
-2.089
 30
2.998
 11
1.88365
 21
-2.089
 31
2.998
  0
POLYLINE
  5
613BC
100
AcDbEntity
  8
0
100
AcDbPolygonMesh
 66
     1
 10
0.0
 20
0.0
 30
0.0
 70
    16
 71
     6
 72
     3
  0
VERTEX
  5
613BD
100
AcDbEntity
  8
0
100
AcDbVertex
100
AcDbPolygonMeshVertex
 10
0.0
 20
-2.203
 30
3.059
 70
    64
  0
VERTEX
  5
613BE
100
AcDbEntity
  8
0
100
AcDbVertex
100
AcDbPolygonMeshVertex
 10
0.0
 20
-2.203
 30
1.641
 70
    64
  0
VERTEX
  5
613BF
100
AcDbEntity
  8
0
100
AcDbVertex
100
AcDbPolygonMeshVertex
 10
0.0
 20
-2.203
 30
1.641
 70
    64
  0
VERTEX
  5
613C0
100
AcDbEntity
  8
0
100
AcDbVertex
100
AcDbPolygonMeshVertex
 10
0.054
 20
-2.203
 30
3.059
 70
    64
  0
VERTEX
  5
613C1
100
AcDbEntity
  8
0
100
AcDbVertex
100
AcDbPolygonMeshVertex
 10
0.054
 20
-2.203
 30
1.641
 70
    64
  0
VERTEX
  5
613C2
100
AcDbEntity
  8
0
100
AcDbVertex
100
AcDbPolygonMeshVertex
 10
0.054
 20
-2.203
 30
1.641
 70
    64
  0
VERTEX
  5
613C3
100
AcDbEntity
  8
0
100
AcDbVertex
100
AcDbPolygonMeshVertex
 10
0.054
 20
-2.089
 30
3.059
 70
    64
  0
VERTEX
  5
613C4
100
AcDbEntity
  8
0
100
AcDbVertex
100
AcDbPolygonMeshVertex
 10
0.054
 20
-2.089
 30
1.641
 70
    64
  0
VERTEX
  5
613C5
100
AcDbEntity
  8
0
100
AcDbVertex
100
AcDbPolygonMeshVertex
 10
0.054
 20
-2.203
 30
1.641
 70
    64
  0
VERTEX
  5
613C6
100
AcDbEntity
  8
0
100
AcDbVertex
100
AcDbPolygonMeshVertex
 10
0.0
 20
-2.089
 30
3.059
 70
    64
  0
VERTEX
  5
613C7
100
AcDbEntity
  8
0
100
AcDbVertex
100
AcDbPolygonMeshVertex
 10
0.0
 20
-2.089
 30
1.641
 70
    64
  0
VERTEX
  5
613C8
100
AcDbEntity
  8
0
100
AcDbVertex
100
AcDbPolygonMeshVertex
 10
0.0
 20
-2.203
 30
1.641
 70
    64
  0
VERTEX
  5
613C9
100
AcDbEntity
  8
0
100
AcDbVertex
100
AcDbPolygonMeshVertex
 10
0.0
 20
-2.089
 30
3.059
 70
    64
  0
VERTEX
  5
613CA
100
AcDbEntity
  8
0
100
AcDbVertex
100
AcDbPolygonMeshVertex
 10
0.0
 20
-2.089
 30
3.059
 70
    64
  0
VERTEX
  5
613CB
100
AcDbEntity
  8
0
100
AcDbVertex
100
AcDbPolygonMeshVertex
 10
0.0
 20
-2.203
 30
3.059
 70
    64
  0
VERTEX
  5
613CC
100
AcDbEntity
  8
0
100
AcDbVertex
100
AcDbPolygonMeshVertex
 10
0.054
 20
-2.089
 30
3.059
 70
    64
  0
VERTEX
  5
613CD
100
AcDbEntity
  8
0
100
AcDbVertex
100
AcDbPolygonMeshVertex
 10
0.054
 20
-2.089
 30
3.059
 70
    64
  0
VERTEX
  5
613CE
100
AcDbEntity
  8
0
100
AcDbVertex
100
AcDbPolygonMeshVertex
 10
0.054
 20
-2.203
 30
3.059
 70
    64
  0
SEQEND
  5
613CF
100
AcDbEntity
  8
0
  0
LINE
  5
613D0
100
AcDbEntity
  8
0
100
AcDbLine
 10
1.61365
 20
-2.089
 30
2.328
 11
1.55165
 21
-2.089
 31
2.3875
  0
POLYLINE
  5
613D1
100
AcDbEntity
  8
0
100
AcDbPolygonMesh
 66
     1
 10
0.0
 20
0.0
 30
0.0
 70
    16
 71
     6
 72
     3
  0
VERTEX
  5
613D2
100
AcDbEntity
  8
0
100
AcDbVertex
100
AcDbPolygonMeshVertex
 10
2.066
 20
-2.203
 30
3.059
 70
    64
  0
VERTEX
  5
613D3
100
AcDbEntity
  8
0
100
AcDbVertex
100
AcDbPolygonMeshVertex
 10
2.066
 20
-2.203
 30
1.641
 70
    64
  0
VERTEX
  5
613D4
100
AcDbEntity
  8
0
100
AcDbVertex
100
AcDbPolygonMeshVertex
 10
2.066
 20
-2.203
 30
1.641
 70
    64
  0
VERTEX
  5
613D5
100
AcDbEntity
  8
0
100
AcDbVertex
100
AcDbPolygonMeshVertex
 10
2.12
 20
-2.203
 30
3.059
 70
    64
  0
VERTEX
  5
613D6
100
AcDbEntity
  8
0
100
AcDbVertex
100
AcDbPolygonMeshVertex
 10
2.12
 20
-2.203
 30
1.641
 70
    64
  0
VERTEX
  5
613D7
100
AcDbEntity
  8
0
100
AcDbVertex
100
AcDbPolygonMeshVertex
 10
2.12
 20
-2.203
 30
1.641
 70
    64
  0
VERTEX
  5
613D8
100
AcDbEntity
  8
0
100
AcDbVertex
100
AcDbPolygonMeshVertex
 10
2.12
 20
-2.089
 30
3.059
 70
    64
  0
VERTEX
  5
613D9
100
AcDbEntity
  8
0
100
AcDbVertex
100
AcDbPolygonMeshVertex
 10
2.12
 20
-2.089
 30
1.641
 70
    64
  0
VERTEX
  5
613DA
100
AcDbEntity
  8
0
100
AcDbVertex
100
AcDbPolygonMeshVertex
 10
2.12
 20
-2.203
 30
1.641
 70
    64
  0
VERTEX
  5
613DB
100
AcDbEntity
  8
0
100
AcDbVertex
100
AcDbPolygonMeshVertex
 10
2.066
 20
-2.089
 30
3.059
 70
    64
  0
VERTEX
  5
613DC
100
AcDbEntity
  8
0
100
AcDbVertex
100
AcDbPolygonMeshVertex
 10
2.066
 20
-2.089
 30
1.641
 70
    64
  0
VERTEX
  5
613DD
100
AcDbEntity
  8
0
100
AcDbVertex
100
AcDbPolygonMeshVertex
 10
2.066
 20
-2.203
 30
1.641
 70
    64
  0
VERTEX
  5
613DE
100
AcDbEntity
  8
0
100
AcDbVertex
100
AcDbPolygonMeshVertex
 10
2.066
 20
-2.089
 30
3.059
 70
    64
  0
VERTEX
  5
613DF
100
AcDbEntity
  8
0
100
AcDbVertex
100
AcDbPolygonMeshVertex
 10
2.066
 20
-2.089
 30
3.059
 70
    64
  0
VERTEX
  5
613E0
100
AcDbEntity
  8
0
100
AcDbVertex
100
AcDbPolygonMeshVertex
 10
2.066
 20
-2.203
 30
3.059
 70
    64
  0
VERTEX
  5
613E1
100
AcDbEntity
  8
0
100
AcDbVertex
100
AcDbPolygonMeshVertex
 10
2.12
 20
-2.089
 30
3.059
 70
    64
  0
VERTEX
  5
613E2
100
AcDbEntity
  8
0
100
AcDbVertex
100
AcDbPolygonMeshVertex
 10
2.12
 20
-2.089
 30
3.059
 70
    64
  0
VERTEX
  5
613E3
100
AcDbEntity
  8
0
100
AcDbVertex
100
AcDbPolygonMeshVertex
 10
2.12
 20
-2.203
 30
3.059
 70
    64
  0
SEQEND
  5
613E4
100
AcDbEntity
  8
0
  0
LINE
  5
613E5
100
AcDbEntity
  8
0
100
AcDbLine
 10
1.94565
 20
-2.089
 30
2.368461
 11
1.94565
 21
-2.089
 31
3.059
  0
LINE
  5
613E6
100
AcDbEntity
  8
0
100
AcDbLine
 10
1.61365
 20
-2.089
 30
2.328
 11
1.88365
 21
-2.089
 31
2.328
  0
LINE
  5
613E7
100
AcDbEntity
  8
0
100
AcDbLine
 10
1.88365
 20
-2.089
 30
2.328
 11
1.94565
 21
-2.089
 31
2.368461
  0
LINE
  5
613E8
100
AcDbEntity
  8
0
100
AcDbLine
 10
1.88365
 20
-2.089
 30
2.622
 11
1.88365
 21
-2.089
 31
2.447
  0
LINE
  5
613E9
100
AcDbEntity
  8
0
100
AcDbLine
 10
1.94565
 20
-2.089
 30
2.447
 11
1.88365
 21
-2.089
 31
2.447
  0
LINE
  5
613EA
100
AcDbEntity
  8
0
100
AcDbLine
 10
0.647723
 20
-2.089
 30
0.0
 11
0.85839
 21
-2.089
 31
0.0
  0
POLYLINE
  5
613EB
100
AcDbEntity
  8
0
100
AcDb3dPolyline
 66
     1
 10
0.0
 20
0.0
 30
0.0
 70
     8
  0
VERTEX
  5
613EC
100
AcDbEntity
  8
0
100
AcDbVertex
100
AcDb3dPolylineVertex
 10
0.647723
 20
-2.089
 30
0.0
 70
    32
  0
VERTEX
  5
613ED
100
AcDbEntity
  8
0
100
AcDbVertex
100
AcDb3dPolylineVertex
 10
0.647723
 20
-2.224
 30
0.0
 70
    32
  0
VERTEX
  5
613EE
100
AcDbEntity
  8
0
100
AcDbVertex
100
AcDb3dPolylineVertex
 10
0.85839
 20
-2.224
 30
0.0
 70
    32
  0
VERTEX
  5
613EF
100
AcDbEntity
  8
0
100
AcDbVertex
100
AcDb3dPolylineVertex
 10
0.85839
 20
-2.089
 30
0.0
 70
    32
  0
SEQEND
  5
613F0
100
AcDbEntity
  8
0
  0
POLYLINE
  5
613F1
100
AcDbEntity
  8
0
100
AcDb3dPolyline
 66
     1
 10
0.0
 20
0.0
 30
0.0
 70
     8
  0
VERTEX
  5
613F2
100
AcDbEntity
  8
0
100
AcDbVertex
100
AcDb3dPolylineVertex
 10
0.647723
 20
-2.089
 30
0.187
 70
    32
  0
VERTEX
  5
613F3
100
AcDbEntity
  8
0
100
AcDbVertex
100
AcDb3dPolylineVertex
 10
0.647723
 20
-2.224
 30
0.187
 70
    32
  0
VERTEX
  5
613F4
100
AcDbEntity
  8
0
100
AcDbVertex
100
AcDb3dPolylineVertex
 10
0.85839
 20
-2.224
 30
0.187
 70
    32
  0
VERTEX
  5
613F5
100
AcDbEntity
  8
0
100
AcDbVertex
100
AcDb3dPolylineVertex
 10
0.85839
 20
-2.089
 30
0.187
 70
    32
  0
SEQEND
  5
613F6
100
AcDbEntity
  8
0
  0
POLYLINE
  5
613F7
100
AcDbEntity
  8
0
100
AcDbPolygonMesh
 66
     1
 10
0.0
 20
0.0
 30
0.0
 70
    16
 71
     6
 72
     3
  0
VERTEX
  5
613F8
100
AcDbEntity
  8
0
100
AcDbVertex
100
AcDbPolygonMeshVertex
 10
0.92039
 20
-2.286
 30
0.187
 70
    64
  0
VERTEX
  5
613F9
100
AcDbEntity
  8
0
100
AcDbVertex
100
AcDbPolygonMeshVertex
 10
0.92039
 20
-2.286
 30
0.0
 70
    64
  0
VERTEX
  5
613FA
100
AcDbEntity
  8
0
100
AcDbVertex
100
AcDbPolygonMeshVertex
 10
0.92039
 20
-2.286
 30
0.0
 70
    64
  0
VERTEX
  5
613FB
100
AcDbEntity
  8
0
100
AcDbVertex
100
AcDbPolygonMeshVertex
 10
0.313057
 20
-2.286
 30
0.187
 70
    64
  0
VERTEX
  5
613FC
100
AcDbEntity
  8
0
100
AcDbVertex
100
AcDbPolygonMeshVertex
 10
0.313057
 20
-2.286
 30
0.0
 70
    64
  0
VERTEX
  5
613FD
100
AcDbEntity
  8
0
100
AcDbVertex
100
AcDbPolygonMeshVertex
 10
0.313057
 20
-2.286
 30
0.0
 70
    64
  0
VERTEX
  5
613FE
100
AcDbEntity
  8
0
100
AcDbVertex
100
AcDbPolygonMeshVertex
 10
0.313057
 20
-2.224
 30
0.187
 70
    64
  0
VERTEX
  5
613FF
100
AcDbEntity
  8
0
100
AcDbVertex
100
AcDbPolygonMeshVertex
 10
0.313057
 20
-2.224
 30
0.0
 70
    64
  0
VERTEX
  5
61400
100
AcDbEntity
  8
0
100
AcDbVertex
100
AcDbPolygonMeshVertex
 10
0.313057
 20
-2.286
 30
0.0
 70
    64
  0
VERTEX
  5
61401
100
AcDbEntity
  8
0
100
AcDbVertex
100
AcDbPolygonMeshVertex
 10
0.92039
 20
-2.224
 30
0.187
 70
    64
  0
VERTEX
  5
61402
100
AcDbEntity
  8
0
100
AcDbVertex
100
AcDbPolygonMeshVertex
 10
0.92039
 20
-2.224
 30
0.0
 70
    64
  0
VERTEX
  5
61403
100
AcDbEntity
  8
0
100
AcDbVertex
100
AcDbPolygonMeshVertex
 10
0.92039
 20
-2.286
 30
0.0
 70
    64
  0
VERTEX
  5
61404
100
AcDbEntity
  8
0
100
AcDbVertex
100
AcDbPolygonMeshVertex
 10
0.92039
 20
-2.224
 30
0.187
 70
    64
  0
VERTEX
  5
61405
100
AcDbEntity
  8
0
100
AcDbVertex
100
AcDbPolygonMeshVertex
 10
0.92039
 20
-2.224
 30
0.187
 70
    64
  0
VERTEX
  5
61406
100
AcDbEntity
  8
0
100
AcDbVertex
100
AcDbPolygonMeshVertex
 10
0.92039
 20
-2.286
 30
0.187
 70
    64
  0
VERTEX
  5
61407
100
AcDbEntity
  8
0
100
AcDbVertex
100
AcDbPolygonMeshVertex
 10
0.313057
 20
-2.224
 30
0.187
 70
    64
  0
VERTEX
  5
61408
100
AcDbEntity
  8
0
100
AcDbVertex
100
AcDbPolygonMeshVertex
 10
0.313057
 20
-2.224
 30
0.187
 70
    64
  0
VERTEX
  5
61409
100
AcDbEntity
  8
0
100
AcDbVertex
100
AcDbPolygonMeshVertex
 10
0.313057
 20
-2.286
 30
0.187
 70
    64
  0
SEQEND
  5
6140A
100
AcDbEntity
  8
0
  0
LINE
  5
6140B
100
AcDbEntity
  8
0
100
AcDbLine
 10
0.196277
 20
-1.954
 30
0.187
 11
0.196277
 21
-1.954
 31
0.187
  0
POLYLINE
  5
6140C
100
AcDbEntity
  8
0
100
AcDbPolygonMesh
 66
     1
 10
0.0
 20
0.0
 30
0.0
 70
    16
 71
     6
 72
     3
  0
VERTEX
  5
6140D
100
AcDbEntity
  8
0
100
AcDbVertex
100
AcDbPolygonMeshVertex
 10
0.92039
 20
-2.224
 30
0.187
 70
    64
  0
VERTEX
  5
6140E
100
AcDbEntity
  8
0
100
AcDbVertex
100
AcDbPolygonMeshVertex
 10
0.92039
 20
-2.224
 30
0.0
 70
    64
  0
VERTEX
  5
6140F
100
AcDbEntity
  8
0
100
AcDbVertex
100
AcDbPolygonMeshVertex
 10
0.92039
 20
-2.224
 30
0.0
 70
    64
  0
VERTEX
  5
61410
100
AcDbEntity
  8
0
100
AcDbVertex
100
AcDbPolygonMeshVertex
 10
0.585723
 20
-2.224
 30
0.187
 70
    64
  0
VERTEX
  5
61411
100
AcDbEntity
  8
0
100
AcDbVertex
100
AcDbPolygonMeshVertex
 10
0.585723
 20
-2.224
 30
0.0
 70
    64
  0
VERTEX
  5
61412
100
AcDbEntity
  8
0
100
AcDbVertex
100
AcDbPolygonMeshVertex
 10
0.585723
 20
-2.224
 30
0.0
 70
    64
  0
VERTEX
  5
61413
100
AcDbEntity
  8
0
100
AcDbVertex
100
AcDbPolygonMeshVertex
 10
0.585723
 20
-2.027
 30
0.187
 70
    64
  0
VERTEX
  5
61414
100
AcDbEntity
  8
0
100
AcDbVertex
100
AcDbPolygonMeshVertex
 10
0.585723
 20
-2.027
 30
0.0
 70
    64
  0
VERTEX
  5
61415
100
AcDbEntity
  8
0
100
AcDbVertex
100
AcDbPolygonMeshVertex
 10
0.585723
 20
-2.224
 30
0.0
 70
    64
  0
VERTEX
  5
61416
100
AcDbEntity
  8
0
100
AcDbVertex
100
AcDbPolygonMeshVertex
 10
0.92039
 20
-2.027
 30
0.187
 70
    64
  0
VERTEX
  5
61417
100
AcDbEntity
  8
0
100
AcDbVertex
100
AcDbPolygonMeshVertex
 10
0.92039
 20
-2.027
 30
0.0
 70
    64
  0
VERTEX
  5
61418
100
AcDbEntity
  8
0
100
AcDbVertex
100
AcDbPolygonMeshVertex
 10
0.92039
 20
-2.224
 30
0.0
 70
    64
  0
VERTEX
  5
61419
100
AcDbEntity
  8
0
100
AcDbVertex
100
AcDbPolygonMeshVertex
 10
0.92039
 20
-2.027
 30
0.187
 70
    64
  0
VERTEX
  5
6141A
100
AcDbEntity
  8
0
100
AcDbVertex
100
AcDbPolygonMeshVertex
 10
0.92039
 20
-2.027
 30
0.187
 70
    64
  0
VERTEX
  5
6141B
100
AcDbEntity
  8
0
100
AcDbVertex
100
AcDbPolygonMeshVertex
 10
0.92039
 20
-2.224
 30
0.187
 70
    64
  0
VERTEX
  5
6141C
100
AcDbEntity
  8
0
100
AcDbVertex
100
AcDbPolygonMeshVertex
 10
0.585723
 20
-2.027
 30
0.187
 70
    64
  0
VERTEX
  5
6141D
100
AcDbEntity
  8
0
100
AcDbVertex
100
AcDbPolygonMeshVertex
 10
0.585723
 20
-2.027
 30
0.187
 70
    64
  0
VERTEX
  5
6141E
100
AcDbEntity
  8
0
100
AcDbVertex
100
AcDbPolygonMeshVertex
 10
0.585723
 20
-2.224
 30
0.187
 70
    64
  0
SEQEND
  5
6141F
100
AcDbEntity
  8
0
  0
LINE
  5
61420
100
AcDbEntity
  8
0
100
AcDbLine
 10
0.647723
 20
-2.089
 30
0.187
 11
0.85839
 21
-2.089
 31
0.187
  0
CIRCLE
  5
61421
100
AcDbEntity
  8
0
100
AcDbCircle
 10
1.06005
 20
0.180798
 30
3.86
 40
0.138
  0
CIRCLE
  5
61422
100
AcDbEntity
  8
0
100
AcDbCircle
 10
1.74865
 20
0.180798
 30
3.86
 40
0.138
  0
CIRCLE
  5
61423
100
AcDbEntity
  8
0
100
AcDbCircle
 10
0.37135
 20
-1.868798
 30
3.86
 40
0.138
  0
CIRCLE
  5
61424
100
AcDbEntity
  8
0
100
AcDbCircle
 10
1.06005
 20
-1.868798
 30
3.86
 40
0.138
  0
CIRCLE
  5
61425
100
AcDbEntity
  8
0
100
AcDbCircle
 10
1.74865
 20
-1.868798
 30
3.86
 40
0.138
  0
TEXT
  5
61426
100
AcDbEntity
  8
0
100
AcDbText
 39
0.0
 10
0.533641
 20
0.742654
 30
2.062
 40
0.083465
  1
A1
100
AcDbText
  0
TEXT
  5
61427
100
AcDbEntity
  8
0
100
AcDbText
 39
0.0
 10
1.454764
 20
0.741812
 30
2.062
 40
0.083465
  1
A2
100
AcDbText
  0
POLYLINE
  5
61428
100
AcDbEntity
  8
0
100
AcDb3dPolyline
 66
     1
 10
0.0
 20
0.0
 30
0.0
 70
     8
  0
VERTEX
  5
61429
100
AcDbEntity
  8
0
100
AcDbVertex
100
AcDb3dPolylineVertex
 10
0.0
 20
-0.761
 30
1.592
 70
    32
  0
VERTEX
  5
6142A
100
AcDbEntity
  8
0
100
AcDbVertex
100
AcDb3dPolylineVertex
 10
0.0
 20
-0.761
 30
2.165
 70
    32
  0
VERTEX
  5
6142B
100
AcDbEntity
  8
0
100
AcDbVertex
100
AcDb3dPolylineVertex
 10
0.0
 20
-0.927
 30
2.165
 70
    32
  0
VERTEX
  5
6142C
100
AcDbEntity
  8
0
100
AcDbVertex
100
AcDb3dPolylineVertex
 10
0.0
 20
-0.927
 30
1.592
 70
    32
  0
VERTEX
  5
6142D
100
AcDbEntity
  8
0
100
AcDbVertex
100
AcDb3dPolylineVertex
 10
0.0
 20
-0.761
 30
1.592
 70
    32
  0
SEQEND
  5
6142E
100
AcDbEntity
  8
0
  0
LINE
  5
6142F
100
AcDbEntity
  8
0
100
AcDbLine
 10
0.0
 20
-0.927
 30
1.8785
 11
0.0
 21
-0.761
 31
1.8785
  0
LINE
  5
61430
100
AcDbEntity
  8
0
100
AcDbLine
 10
0.0
 20
-0.927
 30
2.0685
 11
0.0
 21
-0.761
 31
2.0685
  0
POLYLINE
  5
61431
100
AcDbEntity
  8
0
100
AcDb3dPolyline
 66
     1
 10
0.0
 20
0.0
 30
0.0
 70
     8
  0
VERTEX
  5
61432
100
AcDbEntity
  8
0
100
AcDbVertex
100
AcDb3dPolylineVertex
 10
2.12
 20
-0.761
 30
1.592
 70
    32
  0
VERTEX
  5
61433
100
AcDbEntity
  8
0
100
AcDbVertex
100
AcDb3dPolylineVertex
 10
2.12
 20
-0.761
 30
2.165
 70
    32
  0
VERTEX
  5
61434
100
AcDbEntity
  8
0
100
AcDbVertex
100
AcDb3dPolylineVertex
 10
2.12
 20
-0.927
 30
2.165
 70
    32
  0
VERTEX
  5
61435
100
AcDbEntity
  8
0
100
AcDbVertex
100
AcDb3dPolylineVertex
 10
2.12
 20
-0.927
 30
1.592
 70
    32
  0
VERTEX
  5
61436
100
AcDbEntity
  8
0
100
AcDbVertex
100
AcDb3dPolylineVertex
 10
2.12
 20
-0.761
 30
1.592
 70
    32
  0
SEQEND
  5
61437
100
AcDbEntity
  8
0
  0
LINE
  5
61438
100
AcDbEntity
  8
0
100
AcDbLine
 10
2.12
 20
-0.927
 30
1.8785
 11
2.12
 21
-0.761
 31
1.8785
  0
LINE
  5
61439
100
AcDbEntity
  8
0
100
AcDbLine
 10
2.12
 20
-0.927
 30
2.0685
 11
2.12
 21
-0.761
 31
2.0685
  0
POLYLINE
  5
6143A
100
AcDbEntity
  8
0
100
AcDbPolygonMesh
 66
     1
 10
0.0
 20
0.0
 30
0.0
 70
    16
 71
     6
 72
     3
  0
VERTEX
  5
6143B
100
AcDbEntity
  8
0
100
AcDbVertex
100
AcDbPolygonMeshVertex
 10
0.391
 20
-2.172
 30
0.316
 70
    64
  0
VERTEX
  5
6143C
100
AcDbEntity
  8
0
100
AcDbVertex
100
AcDbPolygonMeshVertex
 10
0.391
 20
-2.172
 30
0.0
 70
    64
  0
VERTEX
  5
6143D
100
AcDbEntity
  8
0
100
AcDbVertex
100
AcDbPolygonMeshVertex
 10
0.391
 20
-2.172
 30
0.0
 70
    64
  0
VERTEX
  5
6143E
100
AcDbEntity
  8
0
100
AcDbVertex
100
AcDbPolygonMeshVertex
 10
0.0
 20
-2.172
 30
0.316
 70
    64
  0
VERTEX
  5
6143F
100
AcDbEntity
  8
0
100
AcDbVertex
100
AcDbPolygonMeshVertex
 10
0.0
 20
-2.172
 30
0.0
 70
    64
  0
VERTEX
  5
61440
100
AcDbEntity
  8
0
100
AcDbVertex
100
AcDbPolygonMeshVertex
 10
0.0
 20
-2.172
 30
0.0
 70
    64
  0
VERTEX
  5
61441
100
AcDbEntity
  8
0
100
AcDbVertex
100
AcDbPolygonMeshVertex
 10
0.0
 20
-1.806
 30
0.316
 70
    64
  0
VERTEX
  5
61442
100
AcDbEntity
  8
0
100
AcDbVertex
100
AcDbPolygonMeshVertex
 10
0.0
 20
-1.806
 30
0.0
 70
    64
  0
VERTEX
  5
61443
100
AcDbEntity
  8
0
100
AcDbVertex
100
AcDbPolygonMeshVertex
 10
0.0
 20
-2.172
 30
0.0
 70
    64
  0
VERTEX
  5
61444
100
AcDbEntity
  8
0
100
AcDbVertex
100
AcDbPolygonMeshVertex
 10
0.391
 20
-1.806
 30
0.316
 70
    64
  0
VERTEX
  5
61445
100
AcDbEntity
  8
0
100
AcDbVertex
100
AcDbPolygonMeshVertex
 10
0.391
 20
-1.806
 30
0.0
 70
    64
  0
VERTEX
  5
61446
100
AcDbEntity
  8
0
100
AcDbVertex
100
AcDbPolygonMeshVertex
 10
0.391
 20
-2.172
 30
0.0
 70
    64
  0
VERTEX
  5
61447
100
AcDbEntity
  8
0
100
AcDbVertex
100
AcDbPolygonMeshVertex
 10
0.391
 20
-1.806
 30
0.316
 70
    64
  0
VERTEX
  5
61448
100
AcDbEntity
  8
0
100
AcDbVertex
100
AcDbPolygonMeshVertex
 10
0.391
 20
-1.806
 30
0.316
 70
    64
  0
VERTEX
  5
61449
100
AcDbEntity
  8
0
100
AcDbVertex
100
AcDbPolygonMeshVertex
 10
0.391
 20
-2.172
 30
0.316
 70
    64
  0
VERTEX
  5
6144A
100
AcDbEntity
  8
0
100
AcDbVertex
100
AcDbPolygonMeshVertex
 10
0.0
 20
-1.806
 30
0.316
 70
    64
  0
VERTEX
  5
6144B
100
AcDbEntity
  8
0
100
AcDbVertex
100
AcDbPolygonMeshVertex
 10
0.0
 20
-1.806
 30
0.316
 70
    64
  0
VERTEX
  5
6144C
100
AcDbEntity
  8
0
100
AcDbVertex
100
AcDbPolygonMeshVertex
 10
0.0
 20
-2.172
 30
0.316
 70
    64
  0
SEQEND
  5
6144D
100
AcDbEntity
  8
0
  0
POLYLINE
  5
6144E
100
AcDbEntity
  8
0
100
AcDbPolygonMesh
 66
     1
 10
0.0
 20
0.0
 30
0.0
 70
    16
 71
     6
 72
     3
  0
VERTEX
  5
6144F
100
AcDbEntity
  8
0
100
AcDbVertex
100
AcDbPolygonMeshVertex
 10
2.12
 20
0.118
 30
0.316
 70
    64
  0
VERTEX
  5
61450
100
AcDbEntity
  8
0
100
AcDbVertex
100
AcDbPolygonMeshVertex
 10
2.12
 20
0.118
 30
0.0
 70
    64
  0
VERTEX
  5
61451
100
AcDbEntity
  8
0
100
AcDbVertex
100
AcDbPolygonMeshVertex
 10
2.12
 20
0.118
 30
0.0
 70
    64
  0
VERTEX
  5
61452
100
AcDbEntity
  8
0
100
AcDbVertex
100
AcDbPolygonMeshVertex
 10
1.729
 20
0.118
 30
0.316
 70
    64
  0
VERTEX
  5
61453
100
AcDbEntity
  8
0
100
AcDbVertex
100
AcDbPolygonMeshVertex
 10
1.729
 20
0.118
 30
0.0
 70
    64
  0
VERTEX
  5
61454
100
AcDbEntity
  8
0
100
AcDbVertex
100
AcDbPolygonMeshVertex
 10
1.729
 20
0.118
 30
0.0
 70
    64
  0
VERTEX
  5
61455
100
AcDbEntity
  8
0
100
AcDbVertex
100
AcDbPolygonMeshVertex
 10
1.729
 20
0.484
 30
0.316
 70
    64
  0
VERTEX
  5
61456
100
AcDbEntity
  8
0
100
AcDbVertex
100
AcDbPolygonMeshVertex
 10
1.729
 20
0.484
 30
0.0
 70
    64
  0
VERTEX
  5
61457
100
AcDbEntity
  8
0
100
AcDbVertex
100
AcDbPolygonMeshVertex
 10
1.729
 20
0.118
 30
0.0
 70
    64
  0
VERTEX
  5
61458
100
AcDbEntity
  8
0
100
AcDbVertex
100
AcDbPolygonMeshVertex
 10
2.12
 20
0.484
 30
0.316
 70
    64
  0
VERTEX
  5
61459
100
AcDbEntity
  8
0
100
AcDbVertex
100
AcDbPolygonMeshVertex
 10
2.12
 20
0.484
 30
0.0
 70
    64
  0
VERTEX
  5
6145A
100
AcDbEntity
  8
0
100
AcDbVertex
100
AcDbPolygonMeshVertex
 10
2.12
 20
0.118
 30
0.0
 70
    64
  0
VERTEX
  5
6145B
100
AcDbEntity
  8
0
100
AcDbVertex
100
AcDbPolygonMeshVertex
 10
2.12
 20
0.484
 30
0.316
 70
    64
  0
VERTEX
  5
6145C
100
AcDbEntity
  8
0
100
AcDbVertex
100
AcDbPolygonMeshVertex
 10
2.12
 20
0.484
 30
0.316
 70
    64
  0
VERTEX
  5
6145D
100
AcDbEntity
  8
0
100
AcDbVertex
100
AcDbPolygonMeshVertex
 10
2.12
 20
0.118
 30
0.316
 70
    64
  0
VERTEX
  5
6145E
100
AcDbEntity
  8
0
100
AcDbVertex
100
AcDbPolygonMeshVertex
 10
1.729
 20
0.484
 30
0.316
 70
    64
  0
VERTEX
  5
6145F
100
AcDbEntity
  8
0
100
AcDbVertex
100
AcDbPolygonMeshVertex
 10
1.729
 20
0.484
 30
0.316
 70
    64
  0
VERTEX
  5
61460
100
AcDbEntity
  8
0
100
AcDbVertex
100
AcDbPolygonMeshVertex
 10
1.729
 20
0.118
 30
0.316
 70
    64
  0
SEQEND
  5
61461
100
AcDbEntity
  8
0
  0
POLYLINE
  5
61462
100
AcDbEntity
  8
0
100
AcDbPolygonMesh
 66
     1
 10
0.0
 20
0.0
 30
0.0
 70
    16
 71
     6
 72
     3
  0
VERTEX
  5
61463
100
AcDbEntity
  8
0
100
AcDbVertex
100
AcDbPolygonMeshVertex
 10
2.12
 20
-2.089
 30
3.86
 70
    64
  0
VERTEX
  5
61464
100
AcDbEntity
  8
0
100
AcDbVertex
100
AcDbPolygonMeshVertex
 10
2.12
 20
-2.089
 30
1.318
 70
    64
  0
VERTEX
  5
61465
100
AcDbEntity
  8
0
100
AcDbVertex
100
AcDbPolygonMeshVertex
 10
2.12
 20
-2.089
 30
1.318
 70
    64
  0
VERTEX
  5
61466
100
AcDbEntity
  8
0
100
AcDbVertex
100
AcDbPolygonMeshVertex
 10
0.0
 20
-2.089
 30
3.86
 70
    64
  0
VERTEX
  5
61467
100
AcDbEntity
  8
0
100
AcDbVertex
100
AcDbPolygonMeshVertex
 10
0.0
 20
-2.089
 30
1.318
 70
    64
  0
VERTEX
  5
61468
100
AcDbEntity
  8
0
100
AcDbVertex
100
AcDbPolygonMeshVertex
 10
0.0
 20
-2.089
 30
1.318
 70
    64
  0
VERTEX
  5
61469
100
AcDbEntity
  8
0
100
AcDbVertex
100
AcDbPolygonMeshVertex
 10
0.0
 20
0.401
 30
3.86
 70
    64
  0
VERTEX
  5
6146A
100
AcDbEntity
  8
0
100
AcDbVertex
100
AcDbPolygonMeshVertex
 10
0.0
 20
0.401
 30
1.318
 70
    64
  0
VERTEX
  5
6146B
100
AcDbEntity
  8
0
100
AcDbVertex
100
AcDbPolygonMeshVertex
 10
0.0
 20
-2.089
 30
1.318
 70
    64
  0
VERTEX
  5
6146C
100
AcDbEntity
  8
0
100
AcDbVertex
100
AcDbPolygonMeshVertex
 10
2.12
 20
0.401
 30
3.86
 70
    64
  0
VERTEX
  5
6146D
100
AcDbEntity
  8
0
100
AcDbVertex
100
AcDbPolygonMeshVertex
 10
2.12
 20
0.401
 30
1.318
 70
    64
  0
VERTEX
  5
6146E
100
AcDbEntity
  8
0
100
AcDbVertex
100
AcDbPolygonMeshVertex
 10
2.12
 20
-2.089
 30
1.318
 70
    64
  0
VERTEX
  5
6146F
100
AcDbEntity
  8
0
100
AcDbVertex
100
AcDbPolygonMeshVertex
 10
2.12
 20
0.401
 30
3.86
 70
    64
  0
VERTEX
  5
61470
100
AcDbEntity
  8
0
100
AcDbVertex
100
AcDbPolygonMeshVertex
 10
2.12
 20
0.401
 30
3.86
 70
    64
  0
VERTEX
  5
61471
100
AcDbEntity
  8
0
100
AcDbVertex
100
AcDbPolygonMeshVertex
 10
2.12
 20
-2.089
 30
3.86
 70
    64
  0
VERTEX
  5
61472
100
AcDbEntity
  8
0
100
AcDbVertex
100
AcDbPolygonMeshVertex
 10
0.0
 20
0.401
 30
3.86
 70
    64
  0
VERTEX
  5
61473
100
AcDbEntity
  8
0
100
AcDbVertex
100
AcDbPolygonMeshVertex
 10
0.0
 20
0.401
 30
3.86
 70
    64
  0
VERTEX
  5
61474
100
AcDbEntity
  8
0
100
AcDbVertex
100
AcDbPolygonMeshVertex
 10
0.0
 20
-2.089
 30
3.86
 70
    64
  0
SEQEND
  5
61475
100
AcDbEntity
  8
0
  0
3DFACE
  5
61476
100
AcDbEntity
  8
0
100
AcDbFace
 10
2.12
 20
-2.089
 30
1.318
 11
2.12
 21
-2.089
 31
1.318
 12
0.0
 22
-2.089
 32
1.318
 13
0.0
 23
-2.089
 33
1.318
  0
3DFACE
  5
61477
100
AcDbEntity
  8
0
100
AcDbFace
 10
0.0
 20
-2.089
 30
1.318
 11
0.0
 21
-2.089
 31
1.318
 12
0.0
 22
-2.089
 32
1.318
 13
0.0
 23
0.401
 33
1.318
  0
3DFACE
  5
61478
100
AcDbEntity
  8
0
100
AcDbFace
 10
0.0
 20
0.401
 30
1.318
 11
0.0
 21
-2.089
 31
1.318
 12
2.12
 22
-2.089
 32
1.318
 13
2.12
 23
0.401
 33
1.318
  0
3DFACE
  5
61479
100
AcDbEntity
  8
0
100
AcDbFace
 10
2.12
 20
0.401
 30
3.86
 11
2.12
 21
0.401
 31
3.86
 12
0.0
 22
0.401
 32
3.86
 13
0.0
 23
0.401
 33
3.86
  0
3DFACE
  5
6147A
100
AcDbEntity
  8
0
100
AcDbFace
 10
2.12
 20
0.401
 30
3.86
 11
2.12
 21
-2.089
 31
3.86
 12
0.0
 22
-2.089
 32
3.86
 13
0.0
 23
0.401
 33
3.86
  0
POINT
  5
6147B
100
AcDbEntity
  8
SNAP_POINTS
100
AcDbPoint
 10
0.0
 20
-0.894
 30
2.0685
  0
POINT
  5
6147C
100
AcDbEntity
  8
SNAP_POINTS
100
AcDbPoint
 10
2.12
 20
-0.794
 30
2.0685
  0
POINT
  5
6147D
100
AcDbEntity
  8
SNAP_POINTS
100
AcDbPoint
 10
1.06
 20
-0.85
 30
3.894
  0
POINT
  5
6147E
100
AcDbEntity
  8
SNAP_POINTS
100
AcDbPoint
 10
1.729
 20
-2.089
 30
1.318
  0
POINT
  5
6147F
100
AcDbEntity
  8
SNAP_POINTS
100
AcDbPoint
 10
0.0
 20
0.0
 30
0.0
  0
POINT
  5
61480
100
AcDbEntity
  8
SNAP_POINTS
100
AcDbPoint
 10
0.8795
 20
0.838
 30
1.641
  0
POINT
  5
61481
100
AcDbEntity
  8
DIMS-MTG-HOLES
100
AcDbPoint
 10
0.173
 20
-2.025
 30
0.0
  0
POINT
  5
61482
100
AcDbEntity
  8
DIMS-MTG-HOLES
100
AcDbPoint
 10
1.945
 20
0.337
 30
0.0
  0
LWPOLYLINE
  5
61483
100
AcDbEntity
  8
0
100
AcDbPolyline
 90
        6
 70
     0
 43
0.0
 38
3.86
 10
1.72865
 20
0.317341
 10
1.72865
 20
0.200798
 10
1.66865
 20
0.200798
 10
1.66865
 20
0.160798
 10
1.72865
 20
0.160798
 10
1.72865
 20
0.044255
  0
LWPOLYLINE
  5
61484
100
AcDbEntity
  8
0
100
AcDbPolyline
 90
        6
 70
     0
 43
0.0
 38
3.86
 10
1.76865
 20
0.317341
 10
1.76865
 20
0.200798
 10
1.82865
 20
0.200798
 10
1.82865
 20
0.160798
 10
1.76865
 20
0.160798
 10
1.76865
 20
0.044255
  0
LWPOLYLINE
  5
61485
100
AcDbEntity
  8
0
100
AcDbPolyline
 90
        6
 70
     0
 43
0.0
 38
3.86
 10
1.04005
 20
0.317341
 10
1.04005
 20
0.200798
 10
0.98005
 20
0.200798
 10
0.98005
 20
0.160798
 10
1.04005
 20
0.160798
 10
1.04005
 20
0.044255
  0
LWPOLYLINE
  5
61486
100
AcDbEntity
  8
0
100
AcDbPolyline
 90
        6
 70
     0
 43
0.0
 38
3.86
 10
1.08005
 20
0.317341
 10
1.08005
 20
0.200798
 10
1.14005
 20
0.200798
 10
1.14005
 20
0.160798
 10
1.08005
 20
0.160798
 10
1.08005
 20
0.044255
  0
LWPOLYLINE
  5
61487
100
AcDbEntity
  8
0
100
AcDbPolyline
 90
        6
 70
     0
 43
0.0
 38
3.86
 10
0.35135
 20
0.317341
 10
0.35135
 20
0.200798
 10
0.29135
 20
0.200798
 10
0.29135
 20
0.160798
 10
0.35135
 20
0.160798
 10
0.35135
 20
0.044255
  0
LWPOLYLINE
  5
61488
100
AcDbEntity
  8
0
100
AcDbPolyline
 90
        6
 70
     0
 43
0.0
 38
3.86
 10
0.39135
 20
0.317341
 10
0.39135
 20
0.200798
 10
0.45135
 20
0.200798
 10
0.45135
 20
0.160798
 10
0.39135
 20
0.160798
 10
0.39135
 20
0.044255
  0
LWPOLYLINE
  5
61489
100
AcDbEntity
  8
0
100
AcDbPolyline
 90
        6
 70
     0
 43
0.0
 38
2.062
 10
1.419
 20
0.737822
 10
1.419
 20
0.6395
 10
1.479
 20
0.6395
 10
1.479
 20
0.5995
 10
1.419
 20
0.5995
 10
1.419
 20
0.501178
  0
LWPOLYLINE
  5
6148A
100
AcDbEntity
  8
0
100
AcDbPolyline
 90
        6
 70
     0
 43
0.0
 38
2.062
 10
1.379
 20
0.737822
 10
1.379
 20
0.6395
 10
1.319
 20
0.6395
 10
1.319
 20
0.5995
 10
1.379
 20
0.5995
 10
1.379
 20
0.501178
  0
LWPOLYLINE
  5
6148B
100
AcDbEntity
  8
0
100
AcDbPolyline
 90
        6
 70
     0
 43
0.0
 38
2.062
 10
0.741
 20
0.737822
 10
0.741
 20
0.6395
 10
0.801
 20
0.6395
 10
0.801
 20
0.5995
 10
0.741
 20
0.5995
 10
0.741
 20
0.501178
  0
LWPOLYLINE
  5
6148C
100
AcDbEntity
  8
0
100
AcDbPolyline
 90
        6
 70
     0
 43
0.0
 38
2.062
 10
0.701
 20
0.737822
 10
0.701
 20
0.6395
 10
0.641
 20
0.6395
 10
0.641
 20
0.5995
 10
0.701
 20
0.5995
 10
0.701
 20
0.501178
  0
LWPOLYLINE
  5
6148D
100
AcDbEntity
  8
0
100
AcDbPolyline
 90
        6
 70
     0
 43
0.0
 38
3.86
 10
1.04005
 20
-1.732255
 10
1.04005
 20
-1.848798
 10
0.98005
 20
-1.848798
 10
0.98005
 20
-1.888798
 10
1.04005
 20
-1.888798
 10
1.04005
 20
-2.005341
  0
LWPOLYLINE
  5
6148E
100
AcDbEntity
  8
0
100
AcDbPolyline
 90
        6
 70
     0
 43
0.0
 38
3.86
 10
1.08005
 20
-1.732255
 10
1.08005
 20
-1.848798
 10
1.14005
 20
-1.848798
 10
1.14005
 20
-1.888798
 10
1.08005
 20
-1.888798
 10
1.08005
 20
-2.005341
  0
LWPOLYLINE
  5
6148F
100
AcDbEntity
  8
0
100
AcDbPolyline
 90
        6
 70
     0
 43
0.0
 38
3.86
 10
1.72865
 20
-1.732255
 10
1.72865
 20
-1.848798
 10
1.66865
 20
-1.848798
 10
1.66865
 20
-1.888798
 10
1.72865
 20
-1.888798
 10
1.72865
 20
-2.005341
  0
LWPOLYLINE
  5
61490
100
AcDbEntity
  8
0
100
AcDbPolyline
 90
        6
 70
     0
 43
0.0
 38
3.86
 10
1.76865
 20
-1.732255
 10
1.76865
 20
-1.848798
 10
1.82865
 20
-1.848798
 10
1.82865
 20
-1.888798
 10
1.76865
 20
-1.888798
 10
1.76865
 20
-2.005341
  0
LWPOLYLINE
  5
61491
100
AcDbEntity
  8
0
100
AcDbPolyline
 90
        6
 70
     0
 43
0.0
 38
3.86
 10
0.35135
 20
-1.732255
 10
0.35135
 20
-1.848798
 10
0.29135
 20
-1.848798
 10
0.29135
 20
-1.888798
 10
0.35135
 20
-1.888798
 10
0.35135
 20
-2.005341
  0
LWPOLYLINE
  5
61492
100
AcDbEntity
  8
0
100
AcDbPolyline
 90
        6
 70
     0
 43
0.0
 38
3.86
 10
0.39135
 20
-1.732255
 10
0.39135
 20
-1.848798
 10
0.45135
 20
-1.848798
 10
0.45135
 20
-1.888798
 10
0.39135
 20
-1.888798
 10
0.39135
 20
-2.005341
  0
DIMENSION
  5
61493
100
AcDbEntity
  8
AREA1
100
AcDbDimension
  2
*D0
 10
-0.596749
 20
-2.342
 30
0.0
 11
-0.596749
 21
-0.840846
 31
0.0
 70
   160
  3
ABECAD_3D
100
AcDbAlignedDimension
 13
0.5075
 23
0.838
 33
1.388
 14
0.8745
 24
-2.342
 34
1.388
 50
90.0
100
AcDbRotatedDimension
  0
DIMENSION
  5
614A1
100
AcDbEntity
  8
AREA1
100
AcDbDimension
  2
*D1
 10
2.12
 20
1.226405
 30
0.0
 11
1.054591
 21
1.226405
 31
0.0
 70
   160
  3
ABECAD_3D
100
AcDbAlignedDimension
 13
0.0
 23
0.515
 33
1.641
 14
2.12
 24
0.515
 34
1.641
100
AcDbRotatedDimension
  0
LWPOLYLINE
  5
614BE
100
AcDbEntity
  8
SCALE
100
AcDbPolyline
 90
        4
 70
     1
 43
0.0
 10
0.462335
 20
-2.469785
 10
1.597964
 20
-2.469785
 10
1.597964
 20
-3.311395
 10
0.462335
 20
-3.311395
  0
LINE
  5
614BF
100
AcDbEntity
  8
SCALE
100
AcDbLine
 10
0.520334
 20
-2.849864
 30
0.0
 11
1.520334
 21
-2.849864
 31
0.0
  0
LINE
  5
614C0
100
AcDbEntity
  8
SCALE
100
AcDbLine
 10
0.520334
 20
-3.149864
 30
0.0
 11
0.914034
 21
-3.149864
 31
0.0
  0
LINE
  5
614C1
100
AcDbEntity
  8
SCALE
100
AcDbLine
 10
0.520334
 20
-2.949864
 30
0.0
 11
0.520334
 21
-2.749864
 31
0.0
  0
TEXT
  5
614C2
100
AcDbEntity
  8
SCALE
100
AcDbText
 10
0.57631
 20
-3.102179
 30
0.0
 40
0.0625
  1
[10mm]
100
AcDbText
  0
LINE
  5
614C3
100
AcDbEntity
  8
SCALE
100
AcDbLine
 10
0.520334
 20
-3.249864
 30
0.0
 11
0.520334
 21
-3.049864
 31
0.0
  0
TEXT
  5
614C4
100
AcDbEntity
  8
SCALE
100
AcDbText
 10
0.521864
 20
-2.574987
 30
0.0
 40
0.0625
  1
SCALE:
100
AcDbText
  0
LINE
  5
614C5
100
AcDbEntity
  8
SCALE
100
AcDbLine
 10
0.914034
 20
-3.249864
 30
0.0
 11
0.914034
 21
-3.049864
 31
0.0
  0
TEXT
  5
614C6
100
AcDbEntity
  8
SCALE
100
AcDbText
 10
0.883617
 20
-2.780815
 30
0.0
 40
0.0625
  1
1 Inch
100
AcDbText
  0
LINE
  5
614C7
100
AcDbEntity
  8
SCALE
100
AcDbLine
 10
1.520334
 20
-2.849864
 30
0.0
 11
1.520334
 21
-2.949864
 31
0.0
  0
LINE
  5
614C8
100
AcDbEntity
  8
SCALE
100
AcDbLine
 10
1.520334
 20
-2.949864
 30
0.0
 11
1.520334
 21
-2.749864
 31
0.0
  0
VIEWPORT
  5
5677D
102
{ACAD_XDICTIONARY
360
61561
102
}
100
AcDbEntity
 67
     1
  8
0
100
AcDbViewport
 10
5.25
 20
4.0
 30
0.0
 40
16.386862
 41
8.993
 68
    -1
 69
     1
1001
ACAD
1000
MVIEW
1002
{
1070
    16
1010
0.0
1020
0.0
1030
0.0
1010
0.0
1020
0.0
1030
1.0
1040
0.0
1040
8.993
1040
5.25
1040
4.0
1040
50.0
1040
0.0
1040
0.0
1070
     0
1070
 20000
1070
     1
1070
     1
1070
     0
1070
     0
1070
     0
1070
     0
1040
0.0
1040
0.0
1040
0.0
1040
0.5
1040
0.5
1040
0.5
1040
0.5
1070
     0
1002
{
1002
}
1002
}
  0
VIEWPORT
  5
5677F
102
{ACAD_XDICTIONARY
360
61563
102
}
100
AcDbEntity
 67
     1
  8
AREA1
100
AcDbViewport
 10
5.25
 20
4.0
 30
0.0
 40
8.4
 41
6.4
 68
     1
 69
     2
1001
ACAD
1000
MVIEW
1002
{
1070
    16
1010
0.563444
1020
-0.880137
1030
1.686493
1010
0.0
1020
0.0
1030
1.0
1040
0.0
1040
4.582914
1040
-1.017175
1040
0.747813
1040
50.0
1040
0.0
1040
0.0
1070
     0
1070
 20000
1070
     1
1070
     1
1070
     0
1070
     0
1070
     0
1070
     0
1040
0.0
1040
0.0
1040
0.0
1040
0.25
1040
0.25
1040
0.25
1040
0.25
1070
     0
1002
{
1002
}
1002
}
  0
ENDSEC
  0
SECTION
  2
OBJECTS
  0
DICTIONARY
  5
458CB
100
AcDbDictionary
  3
ACAD_GROUP
350
458CC
  3
ACAD_LAYOUT
350
458FB
  3
ACAD_MLINESTYLE
350
458D9
  3
ACAD_PLOTSETTINGS
350
458FC
  3
ACAD_PLOTSTYLENAME
350
458F9
  3
ACDBHEADERROUNDTRIPXREC
350
61538
  3
ACDBVARIABLEDICTIONARY
350
458E1
  3
DWGPROPS
350
45901
  0
DICTIONARY
  5
61536
100
AcDbDictionary
280
     1
  3
ACAD_XREC_ROUNDTRIP
360
61537
  0
DICTIONARY
  5
6155F
100
AcDbDictionary
280
     1
  3
ACAD_XREC_ROUNDTRIP
360
61560
  0
DICTIONARY
  5
61534
100
AcDbDictionary
280
     1
  3
ACAD_XREC_ROUNDTRIP
360
61535
  0
DICTIONARY
  5
6155B
100
AcDbDictionary
280
     1
  3
ACAD_XREC_ROUNDTRIP
360
6155C
  0
DICTIONARY
  5
4592C
100
AcDbDictionary
280
     1
  3
ACAD_LAYOUTSELFREF
360
6155A
  0
DICTIONARY
  5
4592A
100
AcDbDictionary
280
     1
  3
ACAD_LAYOUTSELFREF
360
61559
  0
DICTIONARY
  5
61561
100
AcDbDictionary
280
     1
  3
ACAD_XREC_ROUNDTRIP
360
61562
  0
DICTIONARY
  5
61563
100
AcDbDictionary
280
     1
  3
ACAD_XREC_ROUNDTRIP
360
61564
  0
DICTIONARY
  5
458CC
102
{ACAD_REACTORS
330
458CB
102
}
100
AcDbDictionary
  0
DICTIONARY
  5
458FB
102
{ACAD_XDICTIONARY
360
6155D
102
}
102
{ACAD_REACTORS
330
458CB
102
}
100
AcDbDictionary
  3
LAYOUT1
350
458FE
  3
MODEL
350
458FD
  0
DICTIONARY
  5
458D9
102
{ACAD_REACTORS
330
458CB
102
}
100
AcDbDictionary
  3
STANDARD
350
458DA
  0
DICTIONARY
  5
458FC
102
{ACAD_REACTORS
330
458CB
102
}
100
AcDbDictionary
  0
ACAD_PROXY_OBJECT
  5
458F9
102
{ACAD_REACTORS
330
458CB
102
}
100
AcDbProxyObject
 90
      499
 91
      501
 93
       86
310
405010041939BDC9B585B0
350
458FA
340
458FA
 94
        0
  0
DICTIONARY
  5
61538
102
{ACAD_REACTORS
330
458CB
102
}
100
AcDbDictionary
  3
CEPSNTYPE
350
61542
  3
DIMSTYLEDATA
350
61546
  3
FINGERPRINTGUID
350
61543
  3
HYPERLINKBASE
350
6153B
  3
INSUNITS
350
61541
  3
LAYOUTDICT
350
6153D
  3
LWETCUNION
350
61540
  3
PLOTSETDICT
350
6153E
  3
PLOTSTYLNAMDICT
350
6153F
  3
PSVPSCALE
350
61545
  3
PUCSBASE
350
61549
  3
PUCSORGBACK
350
6154F
  3
PUCSORGBOTTOM
350
6154B
  3
PUCSORGFRONT
350
6154E
  3
PUCSORGLEFT
350
6154C
  3
PUCSORGRIGHT
350
6154D
  3
PUCSORGTOP
350
6154A
  3
PUCSORTHOREF
350
61547
  3
PUCSORTHOVIEW
350
61548
  3
STYLESHEET
350
6153C
  3
TSTACKALIGN
350
61539
  3
TSTACKSIZE
350
6153A
  3
UCSBASE
350
61552
  3
UCSORGBACK
350
61558
  3
UCSORGBOTTOM
350
61554
  3
UCSORGFRONT
350
61557
  3
UCSORGLEFT
350
61555
  3
UCSORGRIGHT
350
61556
  3
UCSORGTOP
350
61553
  3
UCSORTHOREF
350
61550
  3
UCSORTHOVIEW
350
61551
  3
VERSIONGUID
350
61544
  0
DICTIONARY
  5
458E1
102
{ACAD_REACTORS
330
458CB
102
}
100
AcDbDictionary
  3
DIMADEC
350
458E2
  0
XRECORD
  5
45901
102
{ACAD_REACTORS
330
458CB
102
}
100
AcDbXrecord
  1
DWGPROPS COOKIE
  2

  3

  4

  6

  7

  8
colin
  9

300
=
301
=
302
=
303
=
304
=
305
=
306
=
307
=
308
=
309
=
 40
0.000599
 41
2451670.444777
 42
2451670.445376
  1

 90
        0
  0
XRECORD
  5
61537
102
{ACAD_REACTORS
330
61536
102
}
100
AcDbXrecord
102
EXTNAMES
  1
*ACTIVE
  2
*Active
102
UCS
 74
     0
 71
     1
 10
0.0
 20
0.0
 30
0.0
 10
1.0
 20
0.0
 30
0.0
 10
0.0
 20
1.0
 30
0.0
146
0.0
 79
     1
102
VIEW
281
     1
  0
XRECORD
  5
61560
102
{ACAD_REACTORS
330
6155F
102
}
100
AcDbXrecord
102
PLOTBIT
280
     0
  0
XRECORD
  5
61535
102
{ACAD_REACTORS
330
61534
102
}
100
AcDbXrecord
102
EXTNAMES
  1
DEFPOINTS
  2
Defpoints
102
PLOTBIT
280
     0
  0
XRECORD
  5
6155C
102
{ACAD_REACTORS
330
6155B
102
}
100
AcDbXrecord
102
ACADR14ROUNDTRIP
1000
DSTYLE
1002
{
1070
   276
 70
     2
1070
   277
 70
     5
1070
   279
 70
     2
1070
   289
 70
     2
1002
}
  0
XRECORD
  5
6155A
102
{ACAD_REACTORS
330
4592C
102
}
100
AcDbXrecord
340
458D6
  0
XRECORD
  5
61559
102
{ACAD_REACTORS
330
4592A
102
}
100
AcDbXrecord
340
458D3
  0
XRECORD
  5
61562
102
{ACAD_REACTORS
330
61561
102
}
100
AcDbXrecord
102
UCS
 74
     0
 71
     1
 10
0.0
 20
0.0
 30
0.0
 10
1.0
 20
0.0
 30
0.0
 10
0.0
 20
1.0
 30
0.0
146
0.0
 79
     0
102
VIEW
281
     0
102
NEWVIEWCONTROL
280
     4
  0
XRECORD
  5
61564
102
{ACAD_REACTORS
330
61563
102
}
100
AcDbXrecord
102
UCS
 74
     0
 71
     1
 10
0.0
 20
0.0
 30
0.0
 10
1.0
 20
0.0
 30
0.0
 10
0.0
 20
1.0
 30
0.0
146
0.0
 79
     1
102
VIEW
281
     1
102
NEWVIEWCONTROL
280
     4
  0
DICTIONARY
  5
6155D
100
AcDbDictionary
280
     1
  3
ACAD_XREC_ROUNDTRIP
360
6155E
  0
ACAD_PROXY_OBJECT
  5
458FE
102
{ACAD_REACTORS
330
458FB
102
}
100
AcDbProxyObject
 90
      499
 91
      503
 93
     1700
310
90B6E6F6E655F6465766963652C0080000006066661940000000181999865000000000068661940000000001A1986500000000C0CCFC6A4000000018199D9C5011C4C65747465725F28382E35305F785F31312E30305F496E6368657329A901416AA547D11959985D5B1D08148C4D081C195B88185CDCDA59DB9B595B9D1CC
310
B98DD1891069074C61796F75743140501A840201008040342FEFF7FBFDFFFFF3EFDFAFF7FBFFDFC9501008043E3FDFC8102A6A6A0000003033333C0FC000000809999E93F8FFFFFF5766E622403FFFFFEBF333071020
330
458D3
330
5677D
340
0
340
0
 94
        0
  0
ACAD_PROXY_OBJECT
  5
458FD
102
{ACAD_REACTORS
330
458FB
102
}
100
AcDbProxyObject
 90
      499
 91
      503
 93
      924
310
91D4850204C617365724A65742035303030205365726965732050434C20362C01AAAAAAAAA547D11959985D5B1D08148C4D081C195B88185CDCDA59DB9B595B9D1CCB98DD18A69054D6F64656C901A800000000000000000000000000000000000000000000A1000000000000008902A6A6AAAA0
330
458D6
330
0
340
0
340
0
 94
        0
  0
MLINESTYLE
  5
458DA
102
{ACAD_REACTORS
330
458D9
102
}
100
AcDbMlineStyle
  2
STANDARD
 70
     0
  3

 62
   256
 51
90.0
 52
90.0
 71
     2
 49
0.5
 62
   256
  6
BYLAYER
 49
-0.5
 62
   256
  6
BYLAYER
  0
ACAD_PROXY_OBJECT
  5
458FA
102
{ACAD_REACTORS
330
458F9
102
}
100
AcDbProxyObject
 90
      499
 91
      502
 93
        0
 94
        0
  0
XRECORD
  5
61542
102
{ACAD_REACTORS
330
61538
102
}
100
AcDbXrecord
 90
        0
  0
XRECORD
  5
61546
102
{ACAD_REACTORS
330
61538
102
}
100
AcDbXrecord
1000
DSTYLE
1002
{
1070
   276
 70
     2
1070
   277
 70
     5
1070
   279
 70
     2
1070
   289
 70
     2
1002
}
  0
XRECORD
  5
61543
102
{ACAD_REACTORS
330
61538
102
}
100
AcDbXrecord
  1
{6E0CF4B8-225E-11D4-A150-00A0CC3303EC}
  0
XRECORD
  5
6153B
102
{ACAD_REACTORS
330
61538
102
}
100
AcDbXrecord
  1

  0
XRECORD
  5
61541
102
{ACAD_REACTORS
330
61538
102
}
100
AcDbXrecord
 90
        0
  0
XRECORD
  5
6153D
102
{ACAD_REACTORS
330
61538
102
}
100
AcDbXrecord
340
458FB
  0
XRECORD
  5
61540
102
{ACAD_REACTORS
330
61538
102
}
100
AcDbXrecord
 90
    14877
  0
XRECORD
  5
6153E
102
{ACAD_REACTORS
330
61538
102
}
100
AcDbXrecord
340
458FC
  0
XRECORD
  5
6153F
102
{ACAD_REACTORS
330
61538
102
}
100
AcDbXrecord
340
458F9
  0
XRECORD
  5
61545
102
{ACAD_REACTORS
330
61538
102
}
100
AcDbXrecord
 40
0.0
  0
XRECORD
  5
61549
102
{ACAD_REACTORS
330
61538
102
}
100
AcDbXrecord
340
0
  0
XRECORD
  5
6154F
102
{ACAD_REACTORS
330
61538
102
}
100
AcDbXrecord
 10
0.0
 20
0.0
 30
0.0
  0
XRECORD
  5
6154B
102
{ACAD_REACTORS
330
61538
102
}
100
AcDbXrecord
 10
0.0
 20
0.0
 30
0.0
  0
XRECORD
  5
6154E
102
{ACAD_REACTORS
330
61538
102
}
100
AcDbXrecord
 10
0.0
 20
0.0
 30
0.0
  0
XRECORD
  5
6154C
102
{ACAD_REACTORS
330
61538
102
}
100
AcDbXrecord
 10
0.0
 20
0.0
 30
0.0
  0
XRECORD
  5
6154D
102
{ACAD_REACTORS
330
61538
102
}
100
AcDbXrecord
 10
0.0
 20
0.0
 30
0.0
  0
XRECORD
  5
6154A
102
{ACAD_REACTORS
330
61538
102
}
100
AcDbXrecord
 10
0.0
 20
0.0
 30
0.0
  0
XRECORD
  5
61547
102
{ACAD_REACTORS
330
61538
102
}
100
AcDbXrecord
340
0
  0
XRECORD
  5
61548
102
{ACAD_REACTORS
330
61538
102
}
100
AcDbXrecord
 70
     0
  0
XRECORD
  5
6153C
102
{ACAD_REACTORS
330
61538
102
}
100
AcDbXrecord
  1

  0
XRECORD
  5
61539
102
{ACAD_REACTORS
330
61538
102
}
100
AcDbXrecord
 90
        1
  0
XRECORD
  5
6153A
102
{ACAD_REACTORS
330
61538
102
}
100
AcDbXrecord
 90
       70
  0
XRECORD
  5
61552
102
{ACAD_REACTORS
330
61538
102
}
100
AcDbXrecord
340
0
  0
XRECORD
  5
61558
102
{ACAD_REACTORS
330
61538
102
}
100
AcDbXrecord
 10
0.0
 20
0.0
 30
0.0
  0
XRECORD
  5
61554
102
{ACAD_REACTORS
330
61538
102
}
100
AcDbXrecord
 10
0.0
 20
0.0
 30
0.0
  0
XRECORD
  5
61557
102
{ACAD_REACTORS
330
61538
102
}
100
AcDbXrecord
 10
0.0
 20
0.0
 30
0.0
  0
XRECORD
  5
61555
102
{ACAD_REACTORS
330
61538
102
}
100
AcDbXrecord
 10
0.0
 20
0.0
 30
0.0
  0
XRECORD
  5
61556
102
{ACAD_REACTORS
330
61538
102
}
100
AcDbXrecord
 10
0.0
 20
0.0
 30
0.0
  0
XRECORD
  5
61553
102
{ACAD_REACTORS
330
61538
102
}
100
AcDbXrecord
 10
0.0
 20
0.0
 30
0.0
  0
XRECORD
  5
61550
102
{ACAD_REACTORS
330
61538
102
}
100
AcDbXrecord
340
0
  0
XRECORD
  5
61551
102
{ACAD_REACTORS
330
61538
102
}
100
AcDbXrecord
 70
     1
  0
XRECORD
  5
61544
102
{ACAD_REACTORS
330
61538
102
}
100
AcDbXrecord
  1
{431DD879-6835-474D-A1D2-E34C2570FA16}
  0
DICTIONARYVAR
  5
458E2
102
{ACAD_REACTORS
330
458E1
102
}
100
DictionaryVariables
280
     0
  1
0
  0
XRECORD
  5
6155E
102
{ACAD_REACTORS
330
6155D
102
}
100
AcDbXrecord
102
EXTNAMES
  1
LAYOUT1
  2
Layout1
  1
MODEL
  2
Model
  0
ENDSEC
  0
EOF
